  0
SECTION
  2
HEADER
  9
$ACADVER
  1
AC1021
  9
$ACADMAINTVER
 70
    25
  9
$DWGCODEPAGE
  3
ANSI_932
  9
$LASTSAVEDBY
  1
howeNelson
  9
$INSBASE
 10
0.0
 20
0.0
 30
0.0
  9
$EXTMIN
 10
0.0
 20
0.0
 30
-0.0000000000000142
  9
$EXTMAX
 10
209.9999999999995
 20
297.0
 30
0.0000000000000071
  9
$LIMMIN
 10
0.0
 20
0.0
  9
$LIMMAX
 10
210.0
 20
297.0000000000001
  9
$ORTHOMODE
 70
     0
  9
$REGENMODE
 70
     1
  9
$FILLMODE
 70
     1
  9
$QTEXTMODE
 70
     0
  9
$MIRRTEXT
 70
     1
  9
$LTSCALE
 40
50.8
  9
$ATTMODE
 70
     1
  9
$TEXTSIZE
 40
2.5
  9
$TRACEWID
 40
1.0
  9
$TEXTSTYLE
  7
ＭＳ ゴシック
  9
$CLAYER
  8
DIM
  9
$CELTYPE
  6
ByLayer
  9
$CECOLOR
 62
   256
  9
$CELTSCALE
 40
1.0
  9
$DISPSILH
 70
     0
  9
$DIMSCALE
 40
1.0
  9
$DIMASZ
 40
1.0
  9
$DIMEXO
 40
5.0
  9
$DIMDLI
 40
0.9999999999999999
  9
$DIMRND
 40
0.0
  9
$DIMDLE
 40
0.0
  9
$DIMEXE
 40
0.0
  9
$DIMTP
 40
0.0
  9
$DIMTM
 40
0.0
  9
$DIMTXT
 40
3.0
  9
$DIMCEN
 40
0.0
  9
$DIMTSZ
 40
0.0
  9
$DIMTOL
 70
     0
  9
$DIMLIM
 70
     0
  9
$DIMTIH
 70
     0
  9
$DIMTOH
 70
     0
  9
$DIMSE1
 70
     0
  9
$DIMSE2
 70
     0
  9
$DIMTAD
 70
     1
  9
$DIMZIN
 70
    11
  9
$DIMBLK
  1
DOT
  9
$DIMASO
 70
     1
  9
$DIMSHO
 70
     1
  9
$DIMPOST
  1
<>
  9
$DIMAPOST
  1
[]
  9
$DIMALT
 70
     0
  9
$DIMALTD
 70
     1
  9
$DIMALTF
 40
1.0
  9
$DIMLFAC
 40
1.0
  9
$DIMTOFL
 70
     0
  9
$DIMTVP
 40
0.0
  9
$DIMTIX
 70
     1
  9
$DIMSOXD
 70
     0
  9
$DIMSAH
 70
     0
  9
$DIMBLK1
  1

  9
$DIMBLK2
  1

  9
$DIMSTYLE
  2
tfrom線あり
  9
$DIMCLRD
 70
     0
  9
$DIMCLRE
 70
     0
  9
$DIMCLRT
 70
     0
  9
$DIMTFAC
 40
1.0
  9
$DIMGAP
 40
4.0
  9
$DIMJUST
 70
     0
  9
$DIMSD1
 70
     0
  9
$DIMSD2
 70
     0
  9
$DIMTOLJ
 70
     1
  9
$DIMTZIN
 70
    11
  9
$DIMALTZ
 70
    11
  9
$DIMALTTZ
 70
    11
  9
$DIMUPT
 70
     0
  9
$DIMDEC
 70
     0
  9
$DIMTDEC
 70
     1
  9
$DIMALTU
 70
     2
  9
$DIMALTTD
 70
     2
  9
$DIMTXSTY
  7
ＭＳ ゴシック
  9
$DIMAUNIT
 70
     0
  9
$DIMADEC
 70
     2
  9
$DIMALTRND
 40
0.0
  9
$DIMAZIN
 70
     0
  9
$DIMDSEP
 70
    46
  9
$DIMATFIT
 70
     0
  9
$DIMFRAC
 70
     2
  9
$DIMLDRBLK
  1
DOT
  9
$DIMLUNIT
 70
     2
  9
$DIMLWD
 70
    -2
  9
$DIMLWE
 70
    -2
  9
$DIMTMOVE
 70
     0
  9
$DIMFXL
 40
1.0
  9
$DIMFXLON
 70
     0
  9
$DIMJOGANG
 40
0.7853981633974483
  9
$DIMTFILL
 70
     0
  9
$DIMTFILLCLR
 70
     0
  9
$DIMARCSYM
 70
     0
  9
$DIMLTYPE
  6

  9
$DIMLTEX1
  6

  9
$DIMLTEX2
  6

  9
$LUNITS
 70
     2
  9
$LUPREC
 70
     0
  9
$SKETCHINC
 40
0.1
  9
$FILLETRAD
 40
0.0
  9
$AUNITS
 70
     0
  9
$AUPREC
 70
     0
  9
$MENU
  1
acad
  9
$ELEVATION
 40
0.0
  9
$PELEVATION
 40
0.0
  9
$THICKNESS
 40
0.0
  9
$LIMCHECK
 70
     0
  9
$CHAMFERA
 40
0.0
  9
$CHAMFERB
 40
0.0
  9
$CHAMFERC
 40
0.0
  9
$CHAMFERD
 40
0.0
  9
$SKPOLY
 70
     0
  9
$TDCREATE
 40
2447893.375
  9
$TDUCREATE
 40
0.0
  9
$TDUPDATE
 40
2457546.634515914
  9
$TDUUPDATE
 40
2457546.259515914
  9
$TDINDWG
 40
0.1875572917
  9
$TDUSRTIMER
 40
2457546.25946684
  9
$USRTIMER
 70
     1
  9
$ANGBASE
 50
0.0
  9
$ANGDIR
 70
     0
  9
$PDMODE
 70
     1
  9
$PDSIZE
 40
-2.0
  9
$PLINEWID
 40
0.0
  9
$SPLFRAME
 70
     0
  9
$SPLINETYPE
 70
     6
  9
$SPLINESEGS
 70
     8
  9
$HANDSEED
  5
1F99
  9
$SURFTAB1
 70
     6
  9
$SURFTAB2
 70
     6
  9
$SURFTYPE
 70
     6
  9
$SURFU
 70
     6
  9
$SURFV
 70
     6
  9
$UCSBASE
  2

  9
$UCSNAME
  2

  9
$UCSORG
 10
0.0
 20
0.0
 30
0.0
  9
$UCSXDIR
 10
1.0
 20
0.0
 30
0.0
  9
$UCSYDIR
 10
0.0
 20
1.0
 30
0.0
  9
$UCSORTHOREF
  2

  9
$UCSORTHOVIEW
 70
     0
  9
$UCSORGTOP
 10
0.0
 20
0.0
 30
0.0
  9
$UCSORGBOTTOM
 10
0.0
 20
0.0
 30
0.0
  9
$UCSORGLEFT
 10
0.0
 20
0.0
 30
0.0
  9
$UCSORGRIGHT
 10
0.0
 20
0.0
 30
0.0
  9
$UCSORGFRONT
 10
0.0
 20
0.0
 30
0.0
  9
$UCSORGBACK
 10
0.0
 20
0.0
 30
0.0
  9
$PUCSBASE
  2

  9
$PUCSNAME
  2

  9
$PUCSORG
 10
0.0
 20
0.0
 30
0.0
  9
$PUCSXDIR
 10
1.0
 20
0.0
 30
0.0
  9
$PUCSYDIR
 10
0.0
 20
1.0
 30
0.0
  9
$PUCSORTHOREF
  2

  9
$PUCSORTHOVIEW
 70
     0
  9
$PUCSORGTOP
 10
0.0
 20
0.0
 30
0.0
  9
$PUCSORGBOTTOM
 10
0.0
 20
0.0
 30
0.0
  9
$PUCSORGLEFT
 10
0.0
 20
0.0
 30
0.0
  9
$PUCSORGRIGHT
 10
0.0
 20
0.0
 30
0.0
  9
$PUCSORGFRONT
 10
0.0
 20
0.0
 30
0.0
  9
$PUCSORGBACK
 10
0.0
 20
0.0
 30
0.0
  9
$USERI1
 70
     0
  9
$USERI2
 70
     0
  9
$USERI3
 70
     0
  9
$USERI4
 70
     0
  9
$USERI5
 70
     0
  9
$USERR1
 40
0.0
  9
$USERR2
 40
0.0
  9
$USERR3
 40
0.0
  9
$USERR4
 40
0.0
  9
$USERR5
 40
0.0
  9
$WORLDVIEW
 70
     1
  9
$SHADEDGE
 70
     3
  9
$SHADEDIF
 70
    70
  9
$TILEMODE
 70
     1
  9
$MAXACTVP
 70
    64
  9
$PINSBASE
 10
0.0
 20
0.0
 30
0.0
  9
$PLIMCHECK
 70
     0
  9
$PEXTMIN
 10
0.0
 20
0.0
 30
0.0
  9
$PEXTMAX
 10
0.0
 20
0.0
 30
0.0
  9
$PLIMMIN
 10
-95.87226993865028
 20
-25.69999999999999
  9
$PLIMMAX
 10
201.1277300613497
 20
184.3
  9
$UNITMODE
 70
     0
  9
$VISRETAIN
 70
     0
  9
$PLINEGEN
 70
     1
  9
$PSLTSCALE
 70
     0
  9
$TREEDEPTH
 70
  3020
  9
$CMLSTYLE
  2
Standard
  9
$CMLJUST
 70
     0
  9
$CMLSCALE
 40
1.0
  9
$PROXYGRAPHICS
 70
     0
  9
$MEASUREMENT
 70
     1
  9
$CELWEIGHT
370
    -1
  9
$ENDCAPS
280
     0
  9
$JOINSTYLE
280
     0
  9
$LWDISPLAY
290
     1
  9
$INSUNITS
 70
     4
  9
$HYPERLINKBASE
  1

  9
$STYLESHEET
  1

  9
$XEDIT
290
     1
  9
$CEPSNTYPE
380
     0
  9
$PSTYLEMODE
290
     1
  9
$FINGERPRINTGUID
  2

  9
$VERSIONGUID
  2

  9
$EXTNAMES
290
     1
  9
$PSVPSCALE
 40
0.0
  9
$OLESTARTUP
290
     0
  9
$SORTENTS
280
   127
  9
$INDEXCTL
280
     0
  9
$HIDETEXT
280
     1
  9
$XCLIPFRAME
290
     0
  9
$HALOGAP
280
     0
  9
$OBSCOLOR
 70
   257
  9
$OBSLTYPE
280
     0
  9
$INTERSECTIONDISPLAY
280
     0
  9
$INTERSECTIONCOLOR
 70
   257
  9
$DIMASSOC
280
     2
  9
$PROJECTNAME
  1

  9
$CAMERADISPLAY
290
     0
  9
$LENSLENGTH
 40
50.0
  9
$CAMERAHEIGHT
 40
0.0
  9
$STEPSPERSEC
 40
2.0
  9
$STEPSIZE
 40
6.0
  9
$3DDWFPREC
 40
2.0
  9
$PSOLWIDTH
 40
0.25
  9
$PSOLHEIGHT
 40
4.0
  9
$LOFTANG1
 40
1.570796326794897
  9
$LOFTANG2
 40
1.570796326794897
  9
$LOFTMAG1
 40
0.0
  9
$LOFTMAG2
 40
0.0
  9
$LOFTPARAM
 70
     7
  9
$LOFTNORMALS
280
     1
  9
$LATITUDE
 40
37.795
  9
$LONGITUDE
 40
-122.394
  9
$NORTHDIRECTION
 40
0.0
  9
$TIMEZONE
 70
 -8000
  9
$LIGHTGLYPHDISPLAY
280
     1
  9
$TILEMODELIGHTSYNCH
280
     1
  9
$SOLIDHIST
280
     1
  9
$SHOWHIST
280
     1
  9
$DWFFRAME
280
     2
  9
$DGNFRAME
280
     2
  9
$REALWORLDSCALE
290
     1
  9
$INTERFERECOLOR
 62
   256
  9
$CSHADOW
280
     0
  9
$SHADOWPLANELOCATION
 40
0.0
  0
ENDSEC
  0
SECTION
  2
CLASSES
  0
CLASS
  1
LWPOLYLINE
  2
AcDbPolyline
  3
ObjectDBX Classes
 90
        0
 91
        1
280
     0
281
     1
  0
CLASS
  1
IMAGE
  2
AcDbRasterImage
  3
ISM
 90
      127
 91
        5
280
     0
281
     1
  0
CLASS
  1
OLE2FRAME
  2
AcDbOle2Frame
  3
ObjectDBX Classes
 90
        0
 91
        1
280
     0
281
     1
  0
CLASS
  1
HATCH
  2
AcDbHatch
  3
ObjectDBX Classes
 90
        0
 91
        1
280
     0
281
     1
  0
CLASS
  1
DICTIONARYVAR
  2
AcDbDictionaryVar
  3
ObjectDBX Classes
 90
        0
 91
        4
280
     0
281
     0
  0
CLASS
  1
RASTERVARIABLES
  2
AcDbRasterVariables
  3
ISM
 90
        0
 91
        4
280
     0
281
     0
  0
CLASS
  1
IMAGEDEF
  2
AcDbRasterImageDef
  3
ISM
 90
        0
 91
        4
280
     0
281
     0
  0
CLASS
  1
IMAGEDEF_REACTOR
  2
AcDbRasterImageDefReactor
  3
ISM
 90
        1
 91
        4
280
     0
281
     0
  0
CLASS
  1
IDBUFFER
  2
AcDbIdBuffer
  3
ObjectDBX Classes
 90
        0
 91
        4
280
     0
281
     0
  0
CLASS
  1
SPATIAL_FILTER
  2
AcDbSpatialFilter
  3
ObjectDBX Classes
 90
        0
 91
        4
280
     0
281
     0
  0
CLASS
  1
XRECORD
  2
AcDbXrecord
  3
ObjectDBX Classes
 90
        0
 91
        1
280
     0
281
     0
  0
CLASS
  1
SORTENTSTABLE
  2
AcDbSortentsTable
  3
ObjectDBX Classes
 90
        0
 91
        4
280
     0
281
     0
  0
CLASS
  1
LAYER_INDEX
  2
AcDbLayerIndex
  3
ObjectDBX Classes
 90
        0
 91
        4
280
     0
281
     0
  0
CLASS
  1
SPATIAL_INDEX
  2
AcDbSpatialIndex
  3
AutoCAD 2000
 90
        0
 91
        4
280
     0
281
     0
  0
CLASS
  1
OBJECT_PTR
  2
CAseDLPNTableRecord
  3
ASE-LPNTableRecord
 90
        1
 91
        4
280
     0
281
     0
  0
CLASS
  1
LAYOUT
  2
AcDbLayout
  3
ObjectDBX Classes
 90
        0
 91
        1
280
     0
281
     0
  0
CLASS
  1
PLOTSETTINGS
  2
AcDbPlotSettings
  3
ObjectDBX Classes
 90
        0
 91
        4
280
     0
281
     0
  0
CLASS
  1
ACDBDICTIONARYWDFLT
  2
AcDbDictionaryWithDefault
  3
ObjectDBX Classes
 90
        0
 91
        4
280
     0
281
     0
  0
CLASS
  1
ACDBPLACEHOLDER
  2
AcDbPlaceHolder
  3
ObjectDBX Classes
 90
        0
 91
        1
280
     0
281
     0
  0
CLASS
  1
SCALE
  2
AcDbScale
  3
ObjectDBX Classes
 90
     1153
 91
        4
280
     0
281
     0
  0
CLASS
  1
MATERIAL
  2
AcDbMaterial
  3
ObjectDBX Classes
 90
     1153
 91
        4
280
     0
281
     0
  0
CLASS
  1
VISUALSTYLE
  2
AcDbVisualStyle
  3
ObjectDBX Classes
 90
     4095
 91
        4
280
     0
281
     0
  0
CLASS
  1
TABLESTYLE
  2
AcDbTableStyle
  3
ObjectDBX Classes
 90
     4095
 91
        4
280
     0
281
     0
  0
CLASS
  1
DIMASSOC
  2
AcDbDimAssoc
  3
"AcDbDimAssoc|Product Desc:     AcDim ARX App For Dimension|Company:          Autodesk, Inc.|WEB Address:      www.autodesk.com"
 90
        0
 91
        4
280
     0
281
     0
  0
CLASS
  1
CELLSTYLEMAP
  2
AcDbCellStyleMap
  3
ObjectDBX Classes
 90
     1152
 91
        4
280
     0
281
     0
  0
CLASS
  1
SUN
  2
AcDbSun
  3
SCENEOE
 90
     1153
 91
        4
280
     0
281
     0
  0
CLASS
  1
MLEADERSTYLE
  2
AcDbMLeaderStyle
  3
ACDB_MLEADERSTYLE_CLASS
 90
     4095
 91
        4
280
     0
281
     0
  0
ENDSEC
  0
SECTION
  2
TABLES
  0
TABLE
  2
VPORT
  5
7
330
0
100
AcDbSymbolTable
 70
     1
  0
VPORT
  5
15
330
7
100
AcDbSymbolTableRecord
100
AcDbViewportTableRecord
  2
*ACTIVE
 70
     0
 10
0.0
 20
0.0
 11
1.0
 21
1.0
 12
196.0201356708996
 22
74.90128546983397
 13
0.0
 23
0.0
 14
1.0
 24
1.0
 15
0.0
 25
0.0
 16
0.0
 26
0.0
 36
1.0
 17
-91.02013567089983
 27
73.59871453016603
 37
-46.86809886248109
 40
302.94
 41
2.331005586592179
 42
50.0
 43
0.0
 44
0.0
 50
0.0
 51
0.0
 71
    16
 72
  2000
 73
     1
 74
     1
 75
     0
 76
     0
 77
     0
 78
     0
281
     0
 65
     1
110
0.0
120
0.0
130
0.0
111
1.0
121
0.0
131
0.0
112
0.0
122
1.0
132
0.0
 79
     0
146
0.0
348
26C
 60
     3
 61
     5
292
     1
282
     1
141
0.0
142
0.0
 63
   256
361
904
  0
ENDTAB
  0
TABLE
  2
LTYPE
  5
4
330
0
100
AcDbSymbolTable
 70
    20
  0
LTYPE
  5
11
330
4
100
AcDbSymbolTableRecord
100
AcDbLinetypeTableRecord
  2
ByBlock
 70
     0
  3

 72
    65
 73
     0
 40
0.0
  0
LTYPE
  5
12
330
4
100
AcDbSymbolTableRecord
100
AcDbLinetypeTableRecord
  2
ByLayer
 70
     0
  3

 72
    65
 73
     0
 40
0.0
  0
LTYPE
  5
13
330
4
100
AcDbSymbolTableRecord
100
AcDbLinetypeTableRecord
  2
Continuous
 70
     0
  3
Solid line
 72
    65
 73
     0
 40
0.0
  0
LTYPE
  5
3A
330
4
100
AcDbSymbolTableRecord
100
AcDbLinetypeTableRecord
  2
STYLE_01
 70
     0
  3

 72
    65
 73
     2
 40
0.2460629921259842
 49
0.1230314960629921
 74
     0
 49
-0.1230314960629921
 74
     0
  0
LTYPE
  5
3B
330
4
100
AcDbSymbolTableRecord
100
AcDbLinetypeTableRecord
  2
STYLE_02
 70
     0
  3

 72
    65
 73
     2
 40
0.6944250000000001
 49
0.48607
 74
     0
 49
-0.2083550000000001
 74
     0
  0
LTYPE
  5
3C
330
4
100
AcDbSymbolTableRecord
100
AcDbLinetypeTableRecord
  2
STYLE_03
 70
     0
  3

 72
    65
 73
     2
 40
1.25
 49
1.04164
 74
     0
 49
-0.2083599999999999
 74
     0
  0
LTYPE
  5
3D
330
4
100
AcDbSymbolTableRecord
100
AcDbLinetypeTableRecord
  2
STYLE_04
 70
     0
  3

 72
    65
 73
     2
 40
1.52771
 49
1.319425
 74
     0
 49
-0.208285
 74
     0
  0
LTYPE
  5
3E
330
4
100
AcDbSymbolTableRecord
100
AcDbLinetypeTableRecord
  2
STYLE_05
 70
     0
  3

 72
    65
 73
     2
 40
0.20828
 49
0.069425
 74
     0
 49
-0.138855
 74
     0
  0
LTYPE
  5
3F
330
4
100
AcDbSymbolTableRecord
100
AcDbLinetypeTableRecord
  2
STYLE_06
 70
     0
  3

 72
    65
 73
     4
 40
1.04164
 49
0.625
 74
     0
 49
-0.20828
 74
     0
 49
0.06943
 74
     0
 49
-0.13893
 74
     0
  0
LTYPE
  5
40
330
4
100
AcDbSymbolTableRecord
100
AcDbLinetypeTableRecord
  2
STYLE_07
 70
     0
  3

 72
    65
 73
     6
 40
1.875
 49
0.625
 74
     0
 49
-0.20828
 74
     0
 49
0.6250000000000001
 74
     0
 49
-0.2083599999999999
 74
     0
 49
0.06943
 74
     0
 49
-0.1389299999999999
 74
     0
  0
LTYPE
  5
41
330
4
100
AcDbSymbolTableRecord
100
AcDbLinetypeTableRecord
  2
STYLE_08
 70
     0
  3

 72
    65
 73
     6
 40
1.25
 49
0.625
 74
     0
 49
-0.20828
 74
     0
 49
0.06943
 74
     0
 49
-0.13893
 74
     0
 49
0.0694299999999999
 74
     0
 49
-0.13893
 74
     0
  0
LTYPE
  5
42
330
4
100
AcDbSymbolTableRecord
100
AcDbLinetypeTableRecord
  2
STYLE_09
 70
     0
  3

 72
    65
 73
     4
 40
5.0
 49
3.75
 74
     0
 49
-0.2777849999999998
 74
     0
 49
0.6944300000000003
 74
     0
 49
-0.2777849999999998
 74
     0
  0
LTYPE
  5
43
330
4
100
AcDbSymbolTableRecord
100
AcDbLinetypeTableRecord
  2
STYLE_10
 70
     0
  3

 72
    65
 73
     6
 40
5.9375
 49
3.75
 74
     0
 49
-0.2777849999999998
 74
     0
 49
0.6944300000000003
 74
     0
 49
-0.2777849999999998
 74
     0
 49
0.625
 74
     0
 49
-0.3125
 74
     0
  0
LTYPE
  5
44
330
4
100
AcDbSymbolTableRecord
100
AcDbLinetypeTableRecord
  2
STYLE_11
 70
     0
  3

 72
    65
 73
     2
 40
0.0694444881889764
 49
0.0347222440944882
 74
     0
 49
-0.0347222440944882
 74
     0
  0
LTYPE
  5
45
330
4
100
AcDbSymbolTableRecord
100
AcDbLinetypeTableRecord
  2
STYLE_12
 70
     0
  3

 72
    65
 73
     2
 40
0.3937007874015748
 49
0.1968503937007874
 74
     0
 49
-0.1968503937007874
 74
     0
  0
LTYPE
  5
46
330
4
100
AcDbSymbolTableRecord
100
AcDbLinetypeTableRecord
  2
STYLE_13
 70
     0
  3

 72
    65
 73
     2
 40
0.5905511811023622
 49
0.2952755905511811
 74
     0
 49
-0.2952755905511811
 74
     0
  0
LTYPE
  5
47
330
4
100
AcDbSymbolTableRecord
100
AcDbLinetypeTableRecord
  2
STYLE_14
 70
     0
  3

 72
    65
 73
     2
 40
1.968503937007874
 49
0.9842519685039369
 74
     0
 49
-0.9842519685039369
 74
     0
  0
LTYPE
  5
48
330
4
100
AcDbSymbolTableRecord
100
AcDbLinetypeTableRecord
  2
STYLE_15
 70
     0
  3

 72
    65
 73
     2
 40
0.1875
 49
0.125
 74
     0
 49
-0.0625
 74
     0
  0
LTYPE
  5
49
330
4
100
AcDbSymbolTableRecord
100
AcDbLinetypeTableRecord
  2
STYLE_16
 70
     0
  3

 72
    65
 73
     2
 40
0.3690944881889764
 49
0.2460629921259843
 74
     0
 49
-0.1230314960629922
 74
     0
  0
LTYPE
  5
908
330
4
100
AcDbSymbolTableRecord
100
AcDbLinetypeTableRecord
  2
AI-LINETYPE-1
 70
     0
  3
Adobe Illustrator Linetype No. 1
 72
    65
 73
     4
 40
2.116668062491661
 49
1.058334031245831
 74
     0
 49
-0.3527780104152769
 74
     0
 49
0.3527780104152769
 74
     0
 49
-0.3527780104152769
 74
     0
  0
LTYPE
  5
909
330
4
100
AcDbSymbolTableRecord
100
AcDbLinetypeTableRecord
  2
AI-LINETYPE-2
 70
     0
  3
Adobe Illustrator Linetype No. 2
 72
    65
 73
     4
 40
2.116668062491661
 49
1.058334031245831
 74
     0
 49
-0.3527780104152769
 74
     0
 49
0.3527780104152769
 74
     0
 49
-0.3527780104152769
 74
     0
  0
LTYPE
  5
1EA1
330
4
100
AcDbSymbolTableRecord
100
AcDbLinetypeTableRecord
  2
HIDDEN
 70
     0
  3
Hidden _ _ _ _ _ _ _ _ _ _ _ _ _ _ _ _ _ _ _ _ 
 72
    65
 73
     2
 40
9.524999999999999
 49
6.35
 74
     0
 49
-3.175
 74
     0
  0
ENDTAB
  0
TABLE
  2
LAYER
  5
2
102
{ACAD_XDICTIONARY
360
2E1
102
}
330
0
100
AcDbSymbolTable
 70
     8
  0
LAYER
  5
14
330
2
100
AcDbSymbolTableRecord
100
AcDbLayerTableRecord
  2
0
 70
     0
 62
     7
  6
Continuous
370
    -3
390
1D
347
266
  0
LAYER
  5
4B
330
2
100
AcDbSymbolTableRecord
100
AcDbLayerTableRecord
  2
TEMPLATE
 70
     0
 62
     7
  6
Continuous
370
    20
390
1D
347
266
  0
LAYER
  5
4C
330
2
100
AcDbSymbolTableRecord
100
AcDbLayerTableRecord
  2
DIM
 70
     0
 62
     7
  6
Continuous
370
    13
390
1D
347
266
  0
LAYER
  5
4D
330
2
100
AcDbSymbolTableRecord
100
AcDbLayerTableRecord
  2
MODEL
 70
     0
 62
     7
  6
Continuous
370
    20
390
1D
347
266
  0
LAYER
  5
667
330
2
100
AcDbSymbolTableRecord
100
AcDbLayerTableRecord
  2
LOGO
 70
     0
 62
     7
  6
Continuous
370
    -3
390
1D
347
266
  0
LAYER
  5
88C
330
2
100
AcDbSymbolTableRecord
100
AcDbLayerTableRecord
  2
HIDDEN
 70
     0
 62
     4
  6
STYLE_12
370
    -3
390
1D
347
266
1001
AcAecLayerStandard
1000

1000

  0
LAYER
  5
1AB6
330
2
100
AcDbSymbolTableRecord
100
AcDbLayerTableRecord
  2
drawingBounds
 70
     0
 62
     4
  6
STYLE_07
290
     0
370
    -3
390
1D
347
266
1001
AcAecLayerStandard
1000

1000

  0
LAYER
  5
1AF4
330
2
100
AcDbSymbolTableRecord
100
AcDbLayerTableRecord
  2
Defpoints
 70
     0
 62
     7
  6
Continuous
290
     0
370
    -3
390
1D
347
266
  0
ENDTAB
  0
TABLE
  2
STYLE
  5
3
330
0
100
AcDbSymbolTable
 70
     4
  0
STYLE
  5
17
330
3
100
AcDbSymbolTableRecord
100
AcDbTextStyleTableRecord
  2
Standard
 70
     0
 40
0.0
 41
1.0
 50
0.0
 71
     0
 42
2.5
  3
txt
  4
BIGFONT.SHX
  0
STYLE
  5
39
330
3
100
AcDbSymbolTableRecord
100
AcDbTextStyleTableRecord
  2
ＭＳ ゴシック
 70
     0
 40
0.0
 41
1.0
 50
0.0
 71
     0
 42
2.5
  3
msgothic.ttc
  4
ＭＳ ゴシック
1001
ACAD
1000
ＭＳ ゴシック
1071
        0
  0
STYLE
  5
384
330
3
100
AcDbSymbolTableRecord
100
AcDbTextStyleTableRecord
  2
ARIAL
 70
     0
 40
0.0
 41
1.0
 50
0.0
 71
     0
 42
12.0
  3
ARIAL.TTF
  4

1001
ACAD
1000
Arial
1071
       34
  0
STYLE
  5
385
330
3
100
AcDbSymbolTableRecord
100
AcDbTextStyleTableRecord
  2
ROMANS
 70
     0
 40
0.0
 41
1.0
 50
0.0
 71
     0
 42
5.0
  3
romans.shx
  4

  0
ENDTAB
  0
TABLE
  2
VIEW
  5
5
330
0
100
AcDbSymbolTable
 70
     0
  0
ENDTAB
  0
TABLE
  2
UCS
  5
6
330
0
100
AcDbSymbolTable
 70
     0
  0
ENDTAB
  0
TABLE
  2
APPID
  5
8
330
0
100
AcDbSymbolTable
 70
     3
  0
APPID
  5
16
330
8
100
AcDbSymbolTableRecord
100
AcDbRegAppTableRecord
  2
ACAD
 70
     0
  0
APPID
  5
7AC
330
8
100
AcDbSymbolTableRecord
100
AcDbRegAppTableRecord
  2
AcAecLayerStandard
 70
     0
  0
APPID
  5
1F8C
330
8
100
AcDbSymbolTableRecord
100
AcDbRegAppTableRecord
  2
ACAD_MLEADERVER
 70
     0
  0
ENDTAB
  0
TABLE
  2
DIMSTYLE
  5
9
330
0
100
AcDbSymbolTable
 70
     6
100
AcDbDimStyleTable
  0
DIMSTYLE
105
18
330
9
100
AcDbSymbolTableRecord
100
AcDbDimStyleTableRecord
  2
Standard
 70
     0
178
     0
340
17
  0
DIMSTYLE
105
56
330
9
100
AcDbSymbolTableRecord
100
AcDbDimStyleTableRecord
  2
tform線あり
 70
     0
  3
<>
  4
[]
 41
9.999389648437498
 42
25.0
 43
0.9999999999999999
 44
0.0
 73
     0
 74
     0
 77
     1
 78
    11
140
24.4326171875
141
0.0
143
1.0
146
0.8
147
0.4999999999999999
171
     1
172
     1
174
     1
178
     0
179
     2
271
     1
272
     1
276
     2
284
    11
285
    11
286
    11
289
     0
340
39
341
4E
342
4E
  0
DIMSTYLE
105
57
102
{ACAD_REACTORS
330
1EE1
330
1EFC
330
1F0B
330
1F36
102
}
330
9
100
AcDbSymbolTableRecord
100
AcDbDimStyleTableRecord
  2
tfrom線あり
 70
     0
  3
<>
  4
[]
 41
1.0
 42
5.0
 43
0.9999999999999999
 44
0.0
 73
     0
 74
     0
 77
     1
 78
    11
140
3.0
141
0.0
143
1.0
147
4.0
171
     1
174
     1
178
     0
179
     2
271
     0
272
     1
276
     2
284
    11
285
    11
286
    11
289
     0
340
39
341
4E
342
4E
  0
DIMSTYLE
105
5C
330
9
100
AcDbSymbolTableRecord
100
AcDbDimStyleTableRecord
  2
JIS
 70
     0
  3
<>
  4
[]
 41
9.0
 42
0.0
 43
6.99999999999994
 44
19.9999999999962
 73
     0
 74
     0
 77
     1
 78
    11
140
24.4326171875
141
0.0
143
1.0
147
10.0
171
     1
174
     1
178
     0
179
     2
271
     1
272
     1
276
     2
284
    11
285
    11
286
    11
289
     0
340
39
341
4E
342
4E
  0
DIMSTYLE
105
383
330
9
100
AcDbSymbolTableRecord
100
AcDbDimStyleTableRecord
  2
ARIAL
 70
     0
 41
10.0
 42
3.0
 43
0.5
 44
3.0
 73
     0
 74
     0
 77
     1
 78
     8
140
12.0
141
0.0
146
0.5
147
4.0
171
     1
172
     1
178
     0
271
     1
289
     0
340
384
  0
DIMSTYLE
105
1CDC
330
9
100
AcDbSymbolTableRecord
100
AcDbDimStyleTableRecord
  2
ISO-25
 70
     0
 41
2.5
 42
0.625
 43
3.75
 44
1.25
 73
     0
 74
     0
 77
     1
 78
     8
140
2.5
141
2.5
143
0.03937007874016
147
0.625
171
     3
172
     1
178
     0
271
     2
272
     2
274
     3
278
    44
283
     0
284
     8
340
17
  0
ENDTAB
  0
TABLE
  2
BLOCK_RECORD
  5
1
330
0
100
AcDbSymbolTable
 70
    19
  0
BLOCK_RECORD
  5
A
330
1
100
AcDbSymbolTableRecord
100
AcDbBlockTableRecord
  2
*MODEL_SPACE
340
20
 70
     0
280
     1
281
     0
  0
BLOCK_RECORD
  5
B
330
1
100
AcDbSymbolTableRecord
100
AcDbBlockTableRecord
  2
*PAPER_SPACE
340
21
 70
     0
280
     1
281
     0
  0
BLOCK_RECORD
  5
4E
330
1
100
AcDbSymbolTableRecord
100
AcDbBlockTableRecord
  2
_DOT
340
0
102
{BLKREFS
331
1AFE
331
1AFF
331
1B15
331
1B16
331
1B54
331
1B55
331
1B6C
331
1B6D
331
1B80
331
1B81
331
1C1B
331
1C1C
331
1C2A
331
1C2B
331
1C41
331
1C42
331
1EEA
331
1EEB
331
1F05
331
1F06
331
1F14
331
1F15
331
1F3D
331
1F3E
102
}
 70
     0
280
     1
281
     0
  0
BLOCK_RECORD
  5
68A
330
1
100
AcDbSymbolTableRecord
100
AcDbBlockTableRecord
  2
名称未設定-1
340
0
102
{BLKREFS
331
6B5
102
}
 70
     1
280
     1
281
     0
  0
BLOCK_RECORD
  5
68D
330
1
100
AcDbSymbolTableRecord
100
AcDbBlockTableRecord
  2
block 2
340
0
102
{BLKREFS
331
68C
102
}
 70
     0
280
     1
281
     0
  0
BLOCK_RECORD
  5
690
330
1
100
AcDbSymbolTableRecord
100
AcDbBlockTableRecord
  2
block 3
340
0
102
{BLKREFS
331
68F
102
}
 70
     0
280
     1
281
     0
  0
BLOCK_RECORD
  5
693
330
1
100
AcDbSymbolTableRecord
100
AcDbBlockTableRecord
  2
block 4
340
0
102
{BLKREFS
331
692
102
}
 70
     0
280
     1
281
     0
  0
BLOCK_RECORD
  5
6A2
330
1
100
AcDbSymbolTableRecord
100
AcDbBlockTableRecord
  2
block 5
340
0
102
{BLKREFS
331
6A1
102
}
 70
     0
280
     1
281
     0
  0
BLOCK_RECORD
  5
1AF8
330
1
100
AcDbSymbolTableRecord
100
AcDbBlockTableRecord
  2
*D6
340
0
 70
     0
280
     1
281
     0
  0
BLOCK_RECORD
  5
1B0F
330
1
100
AcDbSymbolTableRecord
100
AcDbBlockTableRecord
  2
*D7
340
0
 70
     0
280
     1
281
     0
  0
BLOCK_RECORD
  5
1B4E
330
1
100
AcDbSymbolTableRecord
100
AcDbBlockTableRecord
  2
*D8
340
0
 70
     0
280
     1
281
     0
  0
BLOCK_RECORD
  5
1B66
330
1
100
AcDbSymbolTableRecord
100
AcDbBlockTableRecord
  2
*D9
340
0
 70
     0
280
     1
281
     0
  0
BLOCK_RECORD
  5
1B7A
330
1
100
AcDbSymbolTableRecord
100
AcDbBlockTableRecord
  2
*D10
340
0
 70
     0
280
     1
281
     0
  0
BLOCK_RECORD
  5
1C15
330
1
100
AcDbSymbolTableRecord
100
AcDbBlockTableRecord
  2
*D11
340
0
 70
     0
280
     1
281
     0
  0
BLOCK_RECORD
  5
1C24
330
1
100
AcDbSymbolTableRecord
100
AcDbBlockTableRecord
  2
*D12
340
0
 70
     0
280
     1
281
     0
  0
BLOCK_RECORD
  5
1C3B
330
1
100
AcDbSymbolTableRecord
100
AcDbBlockTableRecord
  2
*D13
340
0
 70
     0
280
     1
281
     0
  0
BLOCK_RECORD
  5
1DA0
330
1
100
AcDbSymbolTableRecord
100
AcDbBlockTableRecord
  2
SW_CENTERMARKSYMBOL_0
340
0
 70
     0
280
     1
281
     0
  0
BLOCK_RECORD
  5
1EE4
330
1
100
AcDbSymbolTableRecord
100
AcDbBlockTableRecord
  2
*D15
340
0
 70
     0
280
     1
281
     0
  0
BLOCK_RECORD
  5
1EFF
330
1
100
AcDbSymbolTableRecord
100
AcDbBlockTableRecord
  2
*D16
340
0
 70
     0
280
     1
281
     0
  0
BLOCK_RECORD
  5
1F0E
330
1
100
AcDbSymbolTableRecord
100
AcDbBlockTableRecord
  2
*D17
340
0
 70
     0
280
     1
281
     0
  0
BLOCK_RECORD
  5
1F37
330
1
100
AcDbSymbolTableRecord
100
AcDbBlockTableRecord
  2
*D18
340
0
 70
     0
280
     1
281
     0
  0
ENDTAB
  0
ENDSEC
  0
SECTION
  2
BLOCKS
  0
BLOCK
  5
D
330
A
100
AcDbEntity
  8
0
390
1D
100
AcDbBlockBegin
  2
*MODEL_SPACE
 70
     0
 10
0.0
 20
0.0
 30
0.0
  3
*MODEL_SPACE
  1
*MODEL_SPACE
  0
ENDBLK
  5
E
330
A
100
AcDbEntity
  8
0
390
1D
100
AcDbBlockEnd
  0
BLOCK
  5
F
330
B
100
AcDbEntity
 67
     1
  8
0
390
1D
100
AcDbBlockBegin
  2
*PAPER_SPACE
 70
     0
 10
0.0
 20
0.0
 30
0.0
  3
*PAPER_SPACE
  1
*PAPER_SPACE
  0
ENDBLK
  5
10
330
B
100
AcDbEntity
 67
     1
  8
0
390
1D
100
AcDbBlockEnd
  0
BLOCK
  5
DA8
330
4E
100
AcDbEntity
  8
0
390
1D
100
AcDbBlockBegin
  2
_DOT
 70
     0
 10
0.0
 20
0.0
 30
0.0
  3
_DOT
  1
_DOT
  0
POLYLINE
  5
DAA
330
4E
100
AcDbEntity
  8
0
  6
ByBlock
 62
     0
370
    -2
390
1D
100
AcDb2dPolyline
 66
     1
 10
0.0
 20
0.0
 30
0.0
 70
     1
 40
0.5
 41
0.5
  0
VERTEX
  5
DAB
330
DAA
100
AcDbEntity
  8
0
  6
ByBlock
 62
     0
370
    -2
390
1D
100
AcDbVertex
100
AcDb2dVertex
 10
-0.25
 20
0.0
 30
0.0
 42
1.0
  0
VERTEX
  5
DAC
330
DAA
100
AcDbEntity
  8
0
  6
ByBlock
 62
     0
370
    -2
390
1D
100
AcDbVertex
100
AcDb2dVertex
 10
0.25
 20
0.0
 30
0.0
 42
1.0
  0
SEQEND
  5
DAD
330
DAA
100
AcDbEntity
  8
0
390
1D
  0
LINE
  5
DAE
330
4E
100
AcDbEntity
  8
0
  6
ByBlock
 62
     0
370
    -2
390
1D
100
AcDbLine
 10
-0.5
 20
0.0
 30
0.0
 11
-1.0
 21
0.0
 31
0.0
  0
ENDBLK
  5
DAF
330
4E
100
AcDbEntity
  8
0
390
1D
100
AcDbBlockEnd
  0
BLOCK
  5
68B
330
68A
100
AcDbEntity
  8
0
100
AcDbBlockBegin
  2
名称未設定-1
 70
     0
 10
0.0
 20
0.0
 30
0.0
  3
名称未設定-1
  1
名称未設定-1
  0
INSERT
  5
68F
330
68A
100
AcDbEntity
  8
LOGO
100
AcDbBlockReference
  2
block 3
 10
0.0
 20
0.0
 30
0.0
  0
ENDBLK
  5
6B1
330
68A
100
AcDbEntity
  8
0
100
AcDbBlockEnd
  0
BLOCK
  5
68E
330
68D
100
AcDbEntity
  8
0
100
AcDbBlockBegin
  2
block 2
 70
     0
 10
0.0
 20
0.0
 30
0.0
  3
block 2
  1
block 2
  0
ENDBLK
  5
6B0
330
68D
100
AcDbEntity
  8
0
100
AcDbBlockEnd
  0
BLOCK
  5
691
330
690
100
AcDbEntity
  8
0
100
AcDbBlockBegin
  2
block 3
 70
     0
 10
0.0
 20
0.0
 30
0.0
  3
block 3
  1
block 3
  0
INSERT
  5
692
330
690
100
AcDbEntity
  8
LOGO
100
AcDbBlockReference
  2
block 4
 10
0.0
 20
0.0
 30
0.0
  0
INSERT
  5
6A1
330
690
100
AcDbEntity
  8
LOGO
100
AcDbBlockReference
  2
block 5
 10
0.0
 20
0.0
 30
0.0
  0
ENDBLK
  5
6AF
330
690
100
AcDbEntity
  8
0
100
AcDbBlockEnd
  0
BLOCK
  5
694
330
693
100
AcDbEntity
  8
0
100
AcDbBlockBegin
  2
block 4
 70
     0
 10
0.0
 20
0.0
 30
0.0
  3
block 4
  1
block 4
  0
POLYLINE
  5
695
330
693
100
AcDbEntity
  8
LOGO
370
     0
100
AcDb2dPolyline
 66
     1
 10
0.0
 20
0.0
 30
0.0
  0
VERTEX
  5
696
330
695
100
AcDbEntity
  8
LOGO
370
     0
100
AcDbVertex
100
AcDb2dVertex
 10
83.79545727667795
 20
167.6444858234922
 30
0.0
  0
VERTEX
  5
697
330
695
100
AcDbEntity
  8
LOGO
370
     0
100
AcDbVertex
100
AcDb2dVertex
 10
83.79545727667795
 20
159.7968976406313
 30
0.0
  0
VERTEX
  5
698
330
695
100
AcDbEntity
  8
LOGO
370
     0
100
AcDbVertex
100
AcDb2dVertex
 10
71.3631329975216
 20
159.7968976406313
 30
0.0
  0
VERTEX
  5
699
330
695
100
AcDbEntity
  8
LOGO
370
     0
100
AcDbVertex
100
AcDb2dVertex
 10
71.3631329975216
 20
127.8027915271048
 30
0.0
  0
VERTEX
  5
69A
330
695
100
AcDbEntity
  8
LOGO
370
     0
100
AcDbVertex
100
AcDb2dVertex
 10
60.43011526263018
 20
127.8027915271048
 30
0.0
  0
VERTEX
  5
69B
330
695
100
AcDbEntity
  8
LOGO
370
     0
100
AcDbVertex
100
AcDb2dVertex
 10
60.43011526263018
 20
159.7968976406313
 30
0.0
  0
VERTEX
  5
69C
330
695
100
AcDbEntity
  8
LOGO
370
     0
100
AcDbVertex
100
AcDb2dVertex
 10
48.21793273020759
 20
159.7968976406313
 30
0.0
  0
VERTEX
  5
69D
330
695
100
AcDbEntity
  8
LOGO
370
     0
100
AcDbVertex
100
AcDb2dVertex
 10
48.21793273020759
 20
167.6444858234922
 30
0.0
  0
VERTEX
  5
69E
330
695
100
AcDbEntity
  8
LOGO
370
     0
100
AcDbVertex
100
AcDb2dVertex
 10
83.79545727667795
 20
167.6444858234922
 30
0.0
  0
SEQEND
  5
69F
330
695
100
AcDbEntity
  8
LOGO
370
     0
  0
HATCH
  5
6A0
330
693
100
AcDbEntity
  8
LOGO
 62
   250
420
  2234388
100
AcDbHatch
 10
0.0
 20
0.0
 30
0.0
210
0.0
220
0.0
230
1.0
  2
SOLID
 70
     1
 71
     0
 91
        1
 92
        1
 93
        8
 72
     1
 10
83.79545727667795
 20
167.6444858234922
 11
83.79545727667795
 21
159.7968976406313
 72
     1
 10
83.79545727667795
 20
159.7968976406313
 11
71.3631329975216
 21
159.7968976406313
 72
     1
 10
71.3631329975216
 20
159.7968976406313
 11
71.3631329975216
 21
127.8027915271048
 72
     1
 10
71.3631329975216
 20
127.8027915271048
 11
60.43011526263018
 21
127.8027915271048
 72
     1
 10
60.43011526263018
 20
127.8027915271048
 11
60.43011526263018
 21
159.7968976406313
 72
     1
 10
60.43011526263018
 20
159.7968976406313
 11
48.21793273020759
 21
159.7968976406313
 72
     1
 10
48.21793273020759
 20
159.7968976406313
 11
48.21793273020759
 21
167.6444858234922
 72
     1
 10
48.21793273020759
 20
167.6444858234922
 11
83.79545727667795
 21
167.6444858234922
 97
        0
 75
     2
 76
     1
 98
        0
  0
ENDBLK
  5
6AE
330
693
100
AcDbEntity
  8
0
100
AcDbBlockEnd
  0
BLOCK
  5
6A3
330
6A2
100
AcDbEntity
  8
0
100
AcDbBlockBegin
  2
block 5
 70
     0
 10
0.0
 20
0.0
 30
0.0
  3
block 5
  1
block 5
  0
SPLINE
  5
6A4
330
6A2
100
AcDbEntity
  8
LOGO
370
     0
100
AcDbSpline
210
0.0
220
0.0
230
1.0
 70
    11
 71
     3
 72
    56
 73
    52
 74
     0
 42
0.000000001
 43
0.0000000001
 40
0.0
 40
0.0
 40
0.0
 40
0.0
 40
1.0
 40
1.0
 40
1.0
 40
2.0
 40
2.0
 40
2.0
 40
3.0
 40
3.0
 40
3.0
 40
4.0
 40
4.0
 40
4.0
 40
5.0
 40
5.0
 40
5.0
 40
6.0
 40
6.0
 40
6.0
 40
7.0
 40
7.0
 40
7.0
 40
8.0
 40
8.0
 40
8.0
 40
9.0
 40
9.0
 40
9.0
 40
10.0
 40
10.0
 40
10.0
 40
11.0
 40
11.0
 40
11.0
 40
12.0
 40
12.0
 40
12.0
 40
13.0
 40
13.0
 40
13.0
 40
14.0
 40
14.0
 40
14.0
 40
15.0
 40
15.0
 40
15.0
 40
16.0
 40
16.0
 40
16.0
 40
17.0
 40
17.0
 40
17.0
 40
17.0
 10
100.4504378777679
 20
166.69157178364
 30
0.0
 10
101.9848844191641
 20
167.1313385124438
 30
0.0
 10
103.9637485713373
 20
166.7649523658846
 30
0.0
 10
103.9637485713373
 20
166.7649523658846
 30
0.0
 10
103.9637485713373
 20
166.7649523658846
 30
0.0
 10
103.0132460999156
 20
163.911205638077
 30
0.0
 10
103.0132460999156
 20
163.911205638077
 30
0.0
 10
103.0132460999156
 20
163.911205638077
 30
0.0
 10
101.0674548862189
 20
164.3601018759394
 30
0.0
 10
99.57090442016032
 20
163.1805004036133
 30
0.0
 10
98.40508333886608
 20
162.258247733807
 30
0.0
 10
97.65301849830304
 20
159.804132345923
 30
0.0
 10
97.3598406791005
 20
158.8699940888517
 30
0.0
 10
97.3598406791005
 20
158.8699940888517
 30
0.0
 10
96.07137411762282
 20
154.9119212747295
 30
0.0
 10
96.07137411762282
 20
154.9119212747295
 30
0.0
 10
96.07137411762282
 20
154.9119212747295
 30
0.0
 10
100.3012651448482
 20
154.9119212747295
 30
0.0
 10
100.3012651448482
 20
154.9119212747295
 30
0.0
 10
100.3012651448482
 20
154.9119212747295
 30
0.0
 10
99.64152892419852
 20
152.4199098115079
 30
0.0
 10
99.64152892419852
 20
152.4199098115079
 30
0.0
 10
99.64152892419852
 20
152.4199098115079
 30
0.0
 10
95.38097652692731
 20
152.4199098115079
 30
0.0
 10
95.38097652692731
 20
152.4199098115079
 30
0.0
 10
95.38097652692731
 20
152.4199098115079
 30
0.0
 10
87.75353009080013
 20
127.8027915271048
 30
0.0
 10
87.75353009080013
 20
127.8027915271048
 30
0.0
 10
87.75353009080013
 20
127.8027915271048
 30
0.0
 10
85.36538832498108
 20
127.8027915271048
 30
0.0
 10
85.36538832498108
 20
127.8027915271048
 30
0.0
 10
85.36538832498108
 20
127.8027915271048
 30
0.0
 10
93.00006946639998
 20
152.4199098115079
 30
0.0
 10
93.00006946639998
 20
152.4199098115079
 30
0.0
 10
93.00006946639998
 20
152.4199098115079
 30
0.0
 10
89.85297266450198
 20
152.4199098115079
 30
0.0
 10
89.85297266450198
 20
152.4199098115079
 30
0.0
 10
89.85297266450198
 20
152.4199098115079
 30
0.0
 10
90.51270888515164
 20
154.9119212747295
 30
0.0
 10
90.51270888515164
 20
154.9119212747295
 30
0.0
 10
90.51270888515164
 20
154.9119212747295
 30
0.0
 10
93.6904670570955
 20
154.9119212747295
 30
0.0
 10
93.6904670570955
 20
154.9119212747295
 30
0.0
 10
93.6904670570955
 20
154.9119212747295
 30
0.0
 10
94.81598049462158
 20
158.3616699146644
 30
0.0
 10
94.81598049462158
 20
158.3616699146644
 30
0.0
 10
95.7237637538445
 20
161.2605474231013
 30
0.0
 10
96.4968436907311
 20
162.8139420021662
 30
0.0
 10
97.15657991138076
 20
163.9844139654337
 30
0.0
 10
97.81183750494507
 20
165.1523021053827
 30
0.0
 10
99.1047826935081
 20
166.3084769129547
 30
0.0
 10
100.4504378777679
 20
166.69157178364
 30
0.0
  0
HATCH
  5
6A5
330
6A2
100
AcDbEntity
  8
LOGO
 62
   250
420
  2234388
100
AcDbHatch
 10
0.0
 20
0.0
 30
0.0
210
0.0
220
0.0
230
1.0
  2
SOLID
 70
     1
 71
     0
 91
        1
 92
        1
 93
        1
 72
     4
 94
        3
 73
     0
 74
     1
 95
       56
 96
       52
 40
0.0
 40
0.0
 40
0.0
 40
0.0
 40
1.0
 40
1.0
 40
1.0
 40
2.0
 40
2.0
 40
2.0
 40
3.0
 40
3.0
 40
3.0
 40
4.0
 40
4.0
 40
4.0
 40
5.0
 40
5.0
 40
5.0
 40
6.0
 40
6.0
 40
6.0
 40
7.0
 40
7.0
 40
7.0
 40
8.0
 40
8.0
 40
8.0
 40
9.0
 40
9.0
 40
9.0
 40
10.0
 40
10.0
 40
10.0
 40
11.0
 40
11.0
 40
11.0
 40
12.0
 40
12.0
 40
12.0
 40
13.0
 40
13.0
 40
13.0
 40
14.0
 40
14.0
 40
14.0
 40
15.0
 40
15.0
 40
15.0
 40
16.0
 40
16.0
 40
16.0
 40
17.0
 40
17.0
 40
17.0
 40
17.0
 10
100.4504378777679
 20
166.69157178364
 10
101.9848844191641
 20
167.1313385124438
 10
103.9637485713373
 20
166.7649523658846
 10
103.9637485713373
 20
166.7649523658846
 10
103.9637485713373
 20
166.7649523658846
 10
103.0132460999156
 20
163.911205638077
 10
103.0132460999156
 20
163.911205638077
 10
103.0132460999156
 20
163.911205638077
 10
101.0674548862189
 20
164.3601018759394
 10
99.57090442016032
 20
163.1805004036133
 10
98.40508333886608
 20
162.258247733807
 10
97.65301849830304
 20
159.804132345923
 10
97.3598406791005
 20
158.8699940888517
 10
97.3598406791005
 20
158.8699940888517
 10
96.07137411762282
 20
154.9119212747295
 10
96.07137411762282
 20
154.9119212747295
 10
96.07137411762282
 20
154.9119212747295
 10
100.3012651448482
 20
154.9119212747295
 10
100.3012651448482
 20
154.9119212747295
 10
100.3012651448482
 20
154.9119212747295
 10
99.64152892419852
 20
152.4199098115079
 10
99.64152892419852
 20
152.4199098115079
 10
99.64152892419852
 20
152.4199098115079
 10
95.38097652692731
 20
152.4199098115079
 10
95.38097652692731
 20
152.4199098115079
 10
95.38097652692731
 20
152.4199098115079
 10
87.75353009080013
 20
127.8027915271048
 10
87.75353009080013
 20
127.8027915271048
 10
87.75353009080013
 20
127.8027915271048
 10
85.36538832498108
 20
127.8027915271048
 10
85.36538832498108
 20
127.8027915271048
 10
85.36538832498108
 20
127.8027915271048
 10
93.00006946639998
 20
152.4199098115079
 10
93.00006946639998
 20
152.4199098115079
 10
93.00006946639998
 20
152.4199098115079
 10
89.85297266450198
 20
152.4199098115079
 10
89.85297266450198
 20
152.4199098115079
 10
89.85297266450198
 20
152.4199098115079
 10
90.51270888515164
 20
154.9119212747295
 10
90.51270888515164
 20
154.9119212747295
 10
90.51270888515164
 20
154.9119212747295
 10
93.6904670570955
 20
154.9119212747295
 10
93.6904670570955
 20
154.9119212747295
 10
93.6904670570955
 20
154.9119212747295
 10
94.81598049462158
 20
158.3616699146644
 10
94.81598049462158
 20
158.3616699146644
 10
95.7237637538445
 20
161.2605474231013
 10
96.4968436907311
 20
162.8139420021662
 10
97.15657991138076
 20
163.9844139654337
 10
97.81183750494507
 20
165.1523021053827
 10
99.1047826935081
 20
166.3084769129547
 10
100.4504378777679
 20
166.69157178364
 97
        0
 75
     2
 76
     1
 98
        0
  0
SPLINE
  5
6A6
330
6A2
100
AcDbEntity
  8
LOGO
370
     0
100
AcDbSpline
210
0.0
220
0.0
230
1.0
 70
    11
 71
     3
 72
    38
 73
    34
 74
     0
 42
0.000000001
 43
0.0000000001
 40
0.0
 40
0.0
 40
0.0
 40
0.0
 40
1.0
 40
1.0
 40
1.0
 40
2.0
 40
2.0
 40
2.0
 40
3.0
 40
3.0
 40
3.0
 40
4.0
 40
4.0
 40
4.0
 40
5.0
 40
5.0
 40
5.0
 40
6.0
 40
6.0
 40
6.0
 40
7.0
 40
7.0
 40
7.0
 40
8.0
 40
8.0
 40
8.0
 40
9.0
 40
9.0
 40
9.0
 40
10.0
 40
10.0
 40
10.0
 40
11.0
 40
11.0
 40
11.0
 40
11.0
 10
126.377554584636
 20
154.8151140277308
 30
0.0
 10
126.377554584636
 20
154.8151140277308
 30
0.0
 10
128.8311532078563
 20
154.8151140277308
 30
0.0
 10
128.8311532078563
 20
154.8151140277308
 30
0.0
 10
128.8311532078563
 20
154.8151140277308
 30
0.0
 10
127.7345785914971
 20
151.3062819612468
 30
0.0
 10
127.7345785914971
 20
151.3062819612468
 30
0.0
 10
128.571392836906
 20
152.2922689395754
 30
0.0
 10
129.8860421413442
 20
153.604506675583
 30
0.0
 10
131.0163787157314
 20
154.2664822097754
 30
0.0
 10
132.7044766171327
 20
155.2500576196734
 30
0.0
 10
133.6642808525008
 20
155.3847609420097
 30
0.0
 10
134.7284715499351
 20
155.3565111403944
 30
0.0
 10
134.7284715499351
 20
155.3565111403944
 30
0.0
 10
133.6877075172549
 20
152.0345756272799
 30
0.0
 10
133.6877075172549
 20
152.0345756272799
 30
0.0
 10
133.011434827367
 20
152.3184516825359
 30
0.0
 10
130.930940291334
 20
151.7768823149844
 30
0.0
 10
129.739280976855
 20
150.9162968950455
 30
0.0
 10
128.66613302525
 20
150.1454562717016
 30
0.0
 10
127.9192358313239
 20
149.4857200510519
 30
0.0
 10
127.0393578639405
 20
147.8282835196966
 30
0.0
 10
126.164647543194
 20
146.1699857139017
 30
0.0
 10
125.4742499524985
 20
143.5262176944419
 30
0.0
 10
124.2822461282437
 20
139.6959580071401
 30
0.0
 10
124.2822461282437
 20
139.6959580071401
 30
0.0
 10
120.5753209406769
 20
127.8027915271048
 30
0.0
 10
120.5753209406769
 20
127.8027915271048
 30
0.0
 10
120.5753209406769
 20
127.8027915271048
 30
0.0
 10
118.1964809388044
 20
127.8027915271048
 30
0.0
 10
118.1964809388044
 20
127.8027915271048
 30
0.0
 10
118.1964809388044
 20
127.8027915271048
 30
0.0
 10
126.377554584636
 20
154.8151140277308
 30
0.0
 10
126.377554584636
 20
154.8151140277308
 30
0.0
  0
HATCH
  5
6A7
330
6A2
100
AcDbEntity
  8
LOGO
 62
   250
420
  2234388
100
AcDbHatch
 10
0.0
 20
0.0
 30
0.0
210
0.0
220
0.0
230
1.0
  2
SOLID
 70
     1
 71
     0
 91
        1
 92
        1
 93
        1
 72
     4
 94
        3
 73
     0
 74
     1
 95
       38
 96
       34
 40
0.0
 40
0.0
 40
0.0
 40
0.0
 40
1.0
 40
1.0
 40
1.0
 40
2.0
 40
2.0
 40
2.0
 40
3.0
 40
3.0
 40
3.0
 40
4.0
 40
4.0
 40
4.0
 40
5.0
 40
5.0
 40
5.0
 40
6.0
 40
6.0
 40
6.0
 40
7.0
 40
7.0
 40
7.0
 40
8.0
 40
8.0
 40
8.0
 40
9.0
 40
9.0
 40
9.0
 40
10.0
 40
10.0
 40
10.0
 40
11.0
 40
11.0
 40
11.0
 40
11.0
 10
126.377554584636
 20
154.8151140277308
 10
126.377554584636
 20
154.8151140277308
 10
128.8311532078563
 20
154.8151140277308
 10
128.8311532078563
 20
154.8151140277308
 10
128.8311532078563
 20
154.8151140277308
 10
127.7345785914971
 20
151.3062819612468
 10
127.7345785914971
 20
151.3062819612468
 10
128.571392836906
 20
152.2922689395754
 10
129.8860421413442
 20
153.604506675583
 10
131.0163787157314
 20
154.2664822097754
 10
132.7044766171327
 20
155.2500576196734
 10
133.6642808525008
 20
155.3847609420097
 10
134.7284715499351
 20
155.3565111403944
 10
134.7284715499351
 20
155.3565111403944
 10
133.6877075172549
 20
152.0345756272799
 10
133.6877075172549
 20
152.0345756272799
 10
133.011434827367
 20
152.3184516825359
 10
130.930940291334
 20
151.7768823149844
 10
129.739280976855
 20
150.9162968950455
 10
128.66613302525
 20
150.1454562717016
 10
127.9192358313239
 20
149.4857200510519
 10
127.0393578639405
 20
147.8282835196966
 10
126.164647543194
 20
146.1699857139017
 10
125.4742499524985
 20
143.5262176944419
 10
124.2822461282437
 20
139.6959580071401
 10
124.2822461282437
 20
139.6959580071401
 10
120.5753209406769
 20
127.8027915271048
 10
120.5753209406769
 20
127.8027915271048
 10
120.5753209406769
 20
127.8027915271048
 10
118.1964809388044
 20
127.8027915271048
 10
118.1964809388044
 20
127.8027915271048
 10
118.1964809388044
 20
127.8027915271048
 10
126.377554584636
 20
154.8151140277308
 10
126.377554584636
 20
154.8151140277308
 97
        0
 75
     2
 76
     1
 98
        0
  0
SPLINE
  5
6A8
330
6A2
100
AcDbEntity
  8
LOGO
370
     0
100
AcDbSpline
210
0.0
220
0.0
230
1.0
 70
    11
 71
     3
 72
   104
 73
   100
 74
     0
 42
0.000000001
 43
0.0000000001
 40
0.0
 40
0.0
 40
0.0
 40
0.0
 40
1.0
 40
1.0
 40
1.0
 40
2.0
 40
2.0
 40
2.0
 40
3.0
 40
3.0
 40
3.0
 40
4.0
 40
4.0
 40
4.0
 40
5.0
 40
5.0
 40
5.0
 40
6.0
 40
6.0
 40
6.0
 40
7.0
 40
7.0
 40
7.0
 40
8.0
 40
8.0
 40
8.0
 40
9.0
 40
9.0
 40
9.0
 40
10.0
 40
10.0
 40
10.0
 40
11.0
 40
11.0
 40
11.0
 40
12.0
 40
12.0
 40
12.0
 40
13.0
 40
13.0
 40
13.0
 40
14.0
 40
14.0
 40
14.0
 40
15.0
 40
15.0
 40
15.0
 40
16.0
 40
16.0
 40
16.0
 40
17.0
 40
17.0
 40
17.0
 40
18.0
 40
18.0
 40
18.0
 40
19.0
 40
19.0
 40
19.0
 40
20.0
 40
20.0
 40
20.0
 40
21.0
 40
21.0
 40
21.0
 40
22.0
 40
22.0
 40
22.0
 40
23.0
 40
23.0
 40
23.0
 40
24.0
 40
24.0
 40
24.0
 40
25.0
 40
25.0
 40
25.0
 40
26.0
 40
26.0
 40
26.0
 40
27.0
 40
27.0
 40
27.0
 40
28.0
 40
28.0
 40
28.0
 40
29.0
 40
29.0
 40
29.0
 40
30.0
 40
30.0
 40
30.0
 40
31.0
 40
31.0
 40
31.0
 40
32.0
 40
32.0
 40
32.0
 40
33.0
 40
33.0
 40
33.0
 40
33.0
 10
139.8926730891197
 20
154.8294111834263
 30
0.0
 10
139.8926730891197
 20
154.8294111834263
 30
0.0
 10
142.0344903652445
 20
154.8294111834263
 30
0.0
 10
142.0344903652445
 20
154.8294111834263
 30
0.0
 10
142.0344903652445
 20
154.8294111834263
 30
0.0
 10
140.9516961399171
 20
151.3157559800812
 30
0.0
 10
140.9516961399171
 20
151.3157559800812
 30
0.0
 10
141.8928968473923
 20
152.7887075264977
 30
0.0
 10
142.7341897198865
 20
153.4484437471474
 30
0.0
 10
143.8552245303272
 20
154.2926649527359
 30
0.0
 10
144.9803934580775
 20
155.1296514530327
 30
0.0
 10
146.3139908001845
 20
155.3044901642492
 30
0.0
 10
147.241066606852
 20
155.3044901642492
 30
0.0
 10
148.3855280820469
 20
155.3044901642492
 30
0.0
 10
149.4969166187653
 20
155.0752189084569
 30
0.0
 10
150.0784491203092
 20
153.8172414621372
 30
0.0
 10
150.5228667310863
 20
152.833838307127
 30
0.0
 10
150.5414702589793
 20
152.7201500811143
 30
0.0
 10
150.4140016419347
 20
150.7765981809602
 30
0.0
 10
151.5818897818837
 20
152.7699317437168
 30
0.0
 10
152.4424752018226
 20
153.6256940267945
 30
0.0
 10
153.9038856707499
 20
154.4507949398263
 30
0.0
 10
155.4455669174378
 20
155.3044901642492
 30
0.0
 10
156.339225275853
 20
155.3659851592288
 30
0.0
 10
157.3748216618963
 20
155.2147453676543
 30
0.0
 10
158.911679771723
 20
154.9877134254046
 30
0.0
 10
159.8859534176746
 20
154.4390816074493
 30
0.0
 10
160.3965169054045
 20
152.7816450760939
 30
0.0
 10
160.9070803931344
 20
151.1219692311958
 30
0.0
 10
160.6328506116007
 20
150.2303779314354
 30
0.0
 10
159.9992971339115
 20
147.597634224801
 30
0.0
 10
159.7105979417943
 20
146.4014962832367
 30
0.0
 10
159.2947746424084
 20
144.9400858143094
 30
0.0
 10
158.7463150793409
 20
143.2092687007094
 30
0.0
 10
158.7463150793409
 20
143.2092687007094
 30
0.0
 10
153.9038856707499
 20
127.8027915271048
 30
0.0
 10
153.9038856707499
 20
127.8027915271048
 30
0.0
 10
153.9038856707499
 20
127.8027915271048
 30
0.0
 10
151.3882752878863
 20
127.8027915271048
 30
0.0
 10
151.3882752878863
 20
127.8027915271048
 30
0.0
 10
151.3882752878863
 20
127.8027915271048
 30
0.0
 10
155.6250565106276
 20
141.2751908193897
 30
0.0
 10
155.6250565106276
 20
141.2751908193897
 30
0.0
 10
156.5094131050963
 20
144.0936252951782
 30
0.0
 10
157.109893644309
 20
146.1506931664571
 30
0.0
 10
157.4220195011804
 20
147.4415712963654
 30
0.0
 10
157.8095929989511
 20
149.0530157726519
 30
0.0
 10
157.9656559273867
 20
149.5826995529385
 30
0.0
 10
157.7816877071116
 20
150.7529992613181
 30
0.0
 10
157.6111553680925
 20
151.8430281919372
 30
0.0
 10
157.0582171779396
 20
152.5547853887321
 30
0.0
 10
156.1170164704645
 20
152.5547853887321
 30
0.0
 10
155.1096698860365
 20
152.5547853887321
 30
0.0
 10
154.2962823053817
 20
152.4412694176073
 30
0.0
 10
153.156643967048
 20
151.2945686288697
 30
0.0
 10
152.0170056287143
 20
150.1476955852443
 30
0.0
 10
151.076149431015
 20
148.7930831468137
 30
0.0
 10
150.3337308641742
 20
147.2290087646991
 30
0.0
 10
149.5957909244188
 20
145.6683794803425
 30
0.0
 10
148.8530278478023
 20
143.6822806228776
 30
0.0
 10
148.0964843801539
 20
141.2751908193897
 30
0.0
 10
148.0964843801539
 20
141.2751908193897
 30
0.0
 10
143.8552245303272
 20
127.8027915271048
 30
0.0
 10
143.8552245303272
 20
127.8027915271048
 30
0.0
 10
143.8552245303272
 20
127.8027915271048
 30
0.0
 10
141.486030802177
 20
127.8027915271048
 30
0.0
 10
141.486030802177
 20
127.8027915271048
 30
0.0
 10
141.486030802177
 20
127.8027915271048
 30
0.0
 10
146.3329388378533
 20
143.2092687007094
 30
0.0
 10
146.3329388378533
 20
143.2092687007094
 30
0.0
 10
146.8483254624444
 20
144.8408669988801
 30
0.0
 10
147.2314203331297
 20
146.1837661049335
 30
0.0
 10
147.4867020769946
 20
147.224185627838
 30
0.0
 10
147.9169947869641
 20
149.0197705792876
 30
0.0
 10
148.0306830129768
 20
150.2400242051577
 30
0.0
 10
147.709255392159
 20
151.3157559800812
 30
0.0
 10
147.3874832615654
 20
152.3916600098926
 30
0.0
 10
146.8245542879144
 20
152.6683013598569
 30
0.0
 10
145.8840425999909
 20
152.6683013598569
 30
0.0
 10
145.0989048209514
 20
152.6683013598569
 30
0.0
 10
144.3282364524954
 20
152.3275811915945
 30
0.0
 10
143.4531816219731
 20
151.6538923250251
 30
0.0
 10
142.34627171234
 20
150.8074318058939
 30
0.0
 10
141.901854101563
 20
150.1097995099067
 30
0.0
 10
141.3578731655808
 20
149.289521733736
 30
0.0
 10
140.6299240093235
 20
148.192602607601
 30
0.0
 10
140.2850697237515
 20
147.455696197173
 30
0.0
 10
139.6652966370942
 20
145.8385673095858
 30
0.0
 10
139.0506911970739
 20
144.2214384219986
 30
0.0
 10
138.463991048893
 20
142.3252566160164
 30
0.0
 10
138.0571250036777
 20
141.0154304484394
 30
0.0
 10
138.0571250036777
 20
141.0154304484394
 30
0.0
 10
133.9009590684727
 20
127.8027915271048
 30
0.0
 10
133.9009590684727
 20
127.8027915271048
 30
0.0
 10
133.9009590684727
 20
127.8027915271048
 30
0.0
 10
131.4180771143097
 20
127.8027915271048
 30
0.0
 10
131.4180771143097
 20
127.8027915271048
 30
0.0
 10
131.4180771143097
 20
127.8027915271048
 30
0.0
 10
139.8926730891197
 20
154.8294111834263
 30
0.0
 10
139.8926730891197
 20
154.8294111834263
 30
0.0
  0
HATCH
  5
6A9
330
6A2
100
AcDbEntity
  8
LOGO
 62
   250
420
  2234388
100
AcDbHatch
 10
0.0
 20
0.0
 30
0.0
210
0.0
220
0.0
230
1.0
  2
SOLID
 70
     1
 71
     0
 91
        1
 92
        1
 93
        1
 72
     4
 94
        3
 73
     0
 74
     1
 95
      104
 96
      100
 40
0.0
 40
0.0
 40
0.0
 40
0.0
 40
1.0
 40
1.0
 40
1.0
 40
2.0
 40
2.0
 40
2.0
 40
3.0
 40
3.0
 40
3.0
 40
4.0
 40
4.0
 40
4.0
 40
5.0
 40
5.0
 40
5.0
 40
6.0
 40
6.0
 40
6.0
 40
7.0
 40
7.0
 40
7.0
 40
8.0
 40
8.0
 40
8.0
 40
9.0
 40
9.0
 40
9.0
 40
10.0
 40
10.0
 40
10.0
 40
11.0
 40
11.0
 40
11.0
 40
12.0
 40
12.0
 40
12.0
 40
13.0
 40
13.0
 40
13.0
 40
14.0
 40
14.0
 40
14.0
 40
15.0
 40
15.0
 40
15.0
 40
16.0
 40
16.0
 40
16.0
 40
17.0
 40
17.0
 40
17.0
 40
18.0
 40
18.0
 40
18.0
 40
19.0
 40
19.0
 40
19.0
 40
20.0
 40
20.0
 40
20.0
 40
21.0
 40
21.0
 40
21.0
 40
22.0
 40
22.0
 40
22.0
 40
23.0
 40
23.0
 40
23.0
 40
24.0
 40
24.0
 40
24.0
 40
25.0
 40
25.0
 40
25.0
 40
26.0
 40
26.0
 40
26.0
 40
27.0
 40
27.0
 40
27.0
 40
28.0
 40
28.0
 40
28.0
 40
29.0
 40
29.0
 40
29.0
 40
30.0
 40
30.0
 40
30.0
 40
31.0
 40
31.0
 40
31.0
 40
32.0
 40
32.0
 40
32.0
 40
33.0
 40
33.0
 40
33.0
 40
33.0
 10
139.8926730891197
 20
154.8294111834263
 10
139.8926730891197
 20
154.8294111834263
 10
142.0344903652445
 20
154.8294111834263
 10
142.0344903652445
 20
154.8294111834263
 10
142.0344903652445
 20
154.8294111834263
 10
140.9516961399171
 20
151.3157559800812
 10
140.9516961399171
 20
151.3157559800812
 10
141.8928968473923
 20
152.7887075264977
 10
142.7341897198865
 20
153.4484437471474
 10
143.8552245303272
 20
154.2926649527359
 10
144.9803934580775
 20
155.1296514530327
 10
146.3139908001845
 20
155.3044901642492
 10
147.241066606852
 20
155.3044901642492
 10
148.3855280820469
 20
155.3044901642492
 10
149.4969166187653
 20
155.0752189084569
 10
150.0784491203092
 20
153.8172414621372
 10
150.5228667310863
 20
152.833838307127
 10
150.5414702589793
 20
152.7201500811143
 10
150.4140016419347
 20
150.7765981809602
 10
151.5818897818837
 20
152.7699317437168
 10
152.4424752018226
 20
153.6256940267945
 10
153.9038856707499
 20
154.4507949398263
 10
155.4455669174378
 20
155.3044901642492
 10
156.339225275853
 20
155.3659851592288
 10
157.3748216618963
 20
155.2147453676543
 10
158.911679771723
 20
154.9877134254046
 10
159.8859534176746
 20
154.4390816074493
 10
160.3965169054045
 20
152.7816450760939
 10
160.9070803931344
 20
151.1219692311958
 10
160.6328506116007
 20
150.2303779314354
 10
159.9992971339115
 20
147.597634224801
 10
159.7105979417943
 20
146.4014962832367
 10
159.2947746424084
 20
144.9400858143094
 10
158.7463150793409
 20
143.2092687007094
 10
158.7463150793409
 20
143.2092687007094
 10
153.9038856707499
 20
127.8027915271048
 10
153.9038856707499
 20
127.8027915271048
 10
153.9038856707499
 20
127.8027915271048
 10
151.3882752878863
 20
127.8027915271048
 10
151.3882752878863
 20
127.8027915271048
 10
151.3882752878863
 20
127.8027915271048
 10
155.6250565106276
 20
141.2751908193897
 10
155.6250565106276
 20
141.2751908193897
 10
156.5094131050963
 20
144.0936252951782
 10
157.109893644309
 20
146.1506931664571
 10
157.4220195011804
 20
147.4415712963654
 10
157.8095929989511
 20
149.0530157726519
 10
157.9656559273867
 20
149.5826995529385
 10
157.7816877071116
 20
150.7529992613181
 10
157.6111553680925
 20
151.8430281919372
 10
157.0582171779396
 20
152.5547853887321
 10
156.1170164704645
 20
152.5547853887321
 10
155.1096698860365
 20
152.5547853887321
 10
154.2962823053817
 20
152.4412694176073
 10
153.156643967048
 20
151.2945686288697
 10
152.0170056287143
 20
150.1476955852443
 10
151.076149431015
 20
148.7930831468137
 10
150.3337308641742
 20
147.2290087646991
 10
149.5957909244188
 20
145.6683794803425
 10
148.8530278478023
 20
143.6822806228776
 10
148.0964843801539
 20
141.2751908193897
 10
148.0964843801539
 20
141.2751908193897
 10
143.8552245303272
 20
127.8027915271048
 10
143.8552245303272
 20
127.8027915271048
 10
143.8552245303272
 20
127.8027915271048
 10
141.486030802177
 20
127.8027915271048
 10
141.486030802177
 20
127.8027915271048
 10
141.486030802177
 20
127.8027915271048
 10
146.3329388378533
 20
143.2092687007094
 10
146.3329388378533
 20
143.2092687007094
 10
146.8483254624444
 20
144.8408669988801
 10
147.2314203331297
 20
146.1837661049335
 10
147.4867020769946
 20
147.224185627838
 10
147.9169947869641
 20
149.0197705792876
 10
148.0306830129768
 20
150.2400242051577
 10
147.709255392159
 20
151.3157559800812
 10
147.3874832615654
 20
152.3916600098926
 10
146.8245542879144
 20
152.6683013598569
 10
145.8840425999909
 20
152.6683013598569
 10
145.0989048209514
 20
152.6683013598569
 10
144.3282364524954
 20
152.3275811915945
 10
143.4531816219731
 20
151.6538923250251
 10
142.34627171234
 20
150.8074318058939
 10
141.901854101563
 20
150.1097995099067
 10
141.3578731655808
 20
149.289521733736
 10
140.6299240093235
 20
148.192602607601
 10
140.2850697237515
 20
147.455696197173
 10
139.6652966370942
 20
145.8385673095858
 10
139.0506911970739
 20
144.2214384219986
 10
138.463991048893
 20
142.3252566160164
 10
138.0571250036777
 20
141.0154304484394
 10
138.0571250036777
 20
141.0154304484394
 10
133.9009590684727
 20
127.8027915271048
 10
133.9009590684727
 20
127.8027915271048
 10
133.9009590684727
 20
127.8027915271048
 10
131.4180771143097
 20
127.8027915271048
 10
131.4180771143097
 20
127.8027915271048
 10
131.4180771143097
 20
127.8027915271048
 10
139.8926730891197
 20
154.8294111834263
 10
139.8926730891197
 20
154.8294111834263
 97
        0
 75
     2
 76
     1
 98
        0
  0
SPLINE
  5
6AA
330
6A2
100
AcDbEntity
  8
LOGO
370
     0
100
AcDbSpline
210
0.0
220
0.0
230
1.0
 70
    11
 71
     3
 72
    29
 73
    25
 74
     0
 42
0.000000001
 43
0.0000000001
 40
0.0
 40
0.0
 40
0.0
 40
0.0
 40
1.0
 40
1.0
 40
1.0
 40
2.0
 40
2.0
 40
2.0
 40
3.0
 40
3.0
 40
3.0
 40
4.0
 40
4.0
 40
4.0
 40
5.0
 40
5.0
 40
5.0
 40
6.0
 40
6.0
 40
6.0
 40
7.0
 40
7.0
 40
7.0
 40
8.0
 40
8.0
 40
8.0
 40
8.0
 10
101.6420971922469
 20
132.8388354296931
 30
0.0
 10
101.630039350094
 20
134.7164137077823
 30
0.0
 10
102.2236296937908
 20
138.0598810818841
 30
0.0
 10
103.7487744712405
 20
142.5378191476827
 30
0.0
 10
105.819967243327
 20
148.5896501242061
 30
0.0
 10
107.0602024361932
 20
150.8074318058939
 30
0.0
 10
108.1522984254671
 20
151.8833358357054
 30
0.0
 10
109.741177511439
 20
153.4532668840085
 30
0.0
 10
111.8740375333931
 20
153.5290590346837
 30
0.0
 10
112.5075910110823
 20
153.4532668840085
 30
0.0
 10
113.4012493694975
 20
153.3490526768302
 30
0.0
 10
114.6683563248758
 20
152.7580461564518
 30
0.0
 10
114.7493161221879
 20
150.7838328862519
 30
0.0
 10
114.8106388622796
 20
149.0909118479895
 30
0.0
 10
114.3186789024427
 20
145.9191825971221
 30
0.0
 10
112.6164561002338
 20
140.9489400617108
 30
0.0
 10
110.6444821435766
 20
135.1746117095912
 30
0.0
 10
109.4669477299053
 20
132.8960240524753
 30
0.0
 10
108.5212683953448
 20
131.9072809959403
 30
0.0
 10
106.7346406980658
 20
130.0538184021569
 30
0.0
 10
104.8222669326213
 20
130.2336525051225
 30
0.0
 10
104.5408024457958
 20
130.2336525051225
 30
0.0
 10
104.1721769856939
 20
130.2336525051225
 30
0.0
 10
101.6465758193322
 20
130.6305277668397
 30
0.0
 10
101.6420971922469
 20
132.8388354296931
 30
0.0
  0
SPLINE
  5
6AB
330
6A2
100
AcDbEntity
  8
LOGO
370
     0
100
AcDbSpline
210
0.0
220
0.0
230
1.0
 70
    11
 71
     3
 72
    32
 73
    28
 74
     0
 42
0.000000001
 43
0.0000000001
 40
0.0
 40
0.0
 40
0.0
 40
0.0
 40
1.0
 40
1.0
 40
1.0
 40
2.0
 40
2.0
 40
2.0
 40
3.0
 40
3.0
 40
3.0
 40
4.0
 40
4.0
 40
4.0
 40
5.0
 40
5.0
 40
5.0
 40
6.0
 40
6.0
 40
6.0
 40
7.0
 40
7.0
 40
7.0
 40
8.0
 40
8.0
 40
8.0
 40
9.0
 40
9.0
 40
9.0
 40
9.0
 10
106.2595617172429
 20
153.4105476718098
 30
0.0
 10
104.8222669326213
 20
151.5474388043041
 30
0.0
 10
103.7177685914188
 20
149.8758773721411
 30
0.0
 10
101.9232171692965
 20
144.6141795664062
 30
0.0
 10
100.2754269116635
 20
139.7999999594306
 30
0.0
 10
99.22777268346732
 20
136.3052927937542
 30
0.0
 10
99.06964269637689
 20
132.039572749846
 30
0.0
 10
98.94665270641765
 20
128.8673267343149
 30
0.0
 10
100.8807305877373
 20
127.8027915271048
 30
0.0
 10
103.7129454545577
 20
127.8027915271048
 30
0.0
 10
104.9352661390825
 20
127.8027915271048
 30
0.0
 10
108.0151835347002
 20
127.8827177950895
 30
0.0
 10
110.2045431598849
 20
130.5926316915021
 30
0.0
 10
111.7417457794874
 20
132.4984597712065
 30
0.0
 10
113.155269389579
 20
134.475256864725
 30
0.0
 10
115.0562743324223
 20
140.9489400617108
 30
0.0
 10
116.6361961642235
 20
146.3680788349845
 30
0.0
 10
117.7282921534974
 20
149.8639917848761
 30
0.0
 10
117.6480213757369
 20
151.8595646611754
 30
0.0
 10
117.6480213757369
 20
151.8595646611754
 30
0.0
 10
117.6480213757369
 20
151.8595646611754
 30
0.0
 10
117.6480213757369
 20
151.8595646611754
 30
0.0
 10
117.13229024137
 20
155.18150017429
 30
0.0
 10
114.7162431837115
 20
155.886194920681
 30
0.0
 10
113.3351034925446
 20
155.886194920681
 30
0.0
 10
111.9829026225447
 20
155.886194920681
 30
0.0
 10
108.3414342923792
 20
156.1251124501957
 30
0.0
 10
106.2595617172429
 20
153.4105476718098
 30
0.0
  0
HATCH
  5
6AC
330
6A2
100
AcDbEntity
  8
LOGO
 62
   250
420
  2234388
100
AcDbHatch
 10
0.0
 20
0.0
 30
0.0
210
0.0
220
0.0
230
1.0
  2
SOLID
 70
     1
 71
     0
 91
        2
 92
        1
 93
        1
 72
     4
 94
        3
 73
     0
 74
     1
 95
       29
 96
       25
 40
0.0
 40
0.0
 40
0.0
 40
0.0
 40
1.0
 40
1.0
 40
1.0
 40
2.0
 40
2.0
 40
2.0
 40
3.0
 40
3.0
 40
3.0
 40
4.0
 40
4.0
 40
4.0
 40
5.0
 40
5.0
 40
5.0
 40
6.0
 40
6.0
 40
6.0
 40
7.0
 40
7.0
 40
7.0
 40
8.0
 40
8.0
 40
8.0
 40
8.0
 10
101.6420971922469
 20
132.8388354296931
 10
101.630039350094
 20
134.7164137077823
 10
102.2236296937908
 20
138.0598810818841
 10
103.7487744712405
 20
142.5378191476827
 10
105.819967243327
 20
148.5896501242061
 10
107.0602024361932
 20
150.8074318058939
 10
108.1522984254671
 20
151.8833358357054
 10
109.741177511439
 20
153.4532668840085
 10
111.8740375333931
 20
153.5290590346837
 10
112.5075910110823
 20
153.4532668840085
 10
113.4012493694975
 20
153.3490526768302
 10
114.6683563248758
 20
152.7580461564518
 10
114.7493161221879
 20
150.7838328862519
 10
114.8106388622796
 20
149.0909118479895
 10
114.3186789024427
 20
145.9191825971221
 10
112.6164561002338
 20
140.9489400617108
 10
110.6444821435766
 20
135.1746117095912
 10
109.4669477299053
 20
132.8960240524753
 10
108.5212683953448
 20
131.9072809959403
 10
106.7346406980658
 20
130.0538184021569
 10
104.8222669326213
 20
130.2336525051225
 10
104.5408024457958
 20
130.2336525051225
 10
104.1721769856939
 20
130.2336525051225
 10
101.6465758193322
 20
130.6305277668397
 10
101.6420971922469
 20
132.8388354296931
 97
        0
 92
        1
 93
        1
 72
     4
 94
        3
 73
     0
 74
     1
 95
       32
 96
       28
 40
0.0
 40
0.0
 40
0.0
 40
0.0
 40
1.0
 40
1.0
 40
1.0
 40
2.0
 40
2.0
 40
2.0
 40
3.0
 40
3.0
 40
3.0
 40
4.0
 40
4.0
 40
4.0
 40
5.0
 40
5.0
 40
5.0
 40
6.0
 40
6.0
 40
6.0
 40
7.0
 40
7.0
 40
7.0
 40
8.0
 40
8.0
 40
8.0
 40
9.0
 40
9.0
 40
9.0
 40
9.0
 10
106.2595617172429
 20
153.4105476718098
 10
104.8222669326213
 20
151.5474388043041
 10
103.7177685914188
 20
149.8758773721411
 10
101.9232171692965
 20
144.6141795664062
 10
100.2754269116635
 20
139.7999999594306
 10
99.22777268346732
 20
136.3052927937542
 10
99.06964269637689
 20
132.039572749846
 10
98.94665270641765
 20
128.8673267343149
 10
100.8807305877373
 20
127.8027915271048
 10
103.7129454545577
 20
127.8027915271048
 10
104.9352661390825
 20
127.8027915271048
 10
108.0151835347002
 20
127.8827177950895
 10
110.2045431598849
 20
130.5926316915021
 10
111.7417457794874
 20
132.4984597712065
 10
113.155269389579
 20
134.475256864725
 10
115.0562743324223
 20
140.9489400617108
 10
116.6361961642235
 20
146.3680788349845
 10
117.7282921534974
 20
149.8639917848761
 10
117.6480213757369
 20
151.8595646611754
 10
117.6480213757369
 20
151.8595646611754
 10
117.6480213757369
 20
151.8595646611754
 10
117.6480213757369
 20
151.8595646611754
 10
117.13229024137
 20
155.18150017429
 10
114.7162431837115
 20
155.886194920681
 10
113.3351034925446
 20
155.886194920681
 10
111.9829026225447
 20
155.886194920681
 10
108.3414342923792
 20
156.1251124501957
 10
106.2595617172429
 20
153.4105476718098
 97
        0
 75
     2
 76
     1
 98
        0
  0
ENDBLK
  5
6AD
330
6A2
100
AcDbEntity
  8
0
100
AcDbBlockEnd
  0
BLOCK
  5
1AF9
330
1AF8
100
AcDbEntity
  8
0
100
AcDbBlockBegin
  2
*D6
 70
     1
 10
0.0
 20
0.0
 30
0.0
  3
*D6
  1
*D7
  0
LINE
  5
1AFB
330
1AF8
100
AcDbEntity
  8
DIM
 62
     0
370
    -2
100
AcDbLine
 10
72.22021445472488
 20
247.1762366879535
 30
0.0
 11
72.22021445472488
 21
261.8856473567712
 31
0.0
  0
LINE
  5
1AFC
330
1AF8
100
AcDbEntity
  8
DIM
 62
     0
370
    -2
100
AcDbLine
 10
137.2202144547249
 20
247.1762366879535
 30
0.0
 11
137.2202144547249
 21
261.8856473567712
 31
0.0
  0
LINE
  5
1AFD
330
1AF8
100
AcDbEntity
  8
DIM
 62
     0
370
    -2
100
AcDbLine
 10
73.22021445472488
 20
261.8856473567712
 30
0.0
 11
136.2202144547249
 21
261.8856473567712
 31
0.0
  0
INSERT
  5
1AFE
330
1AF8
100
AcDbEntity
  8
DIM
 62
     0
370
    -2
100
AcDbBlockReference
  2
_DOT
 10
72.22021445472488
 20
261.8856473567712
 30
0.0
 50
180.0
  0
INSERT
  5
1AFF
330
1AF8
100
AcDbEntity
  8
DIM
 62
     0
370
    -2
100
AcDbBlockReference
  2
_DOT
 10
137.2202144547249
 20
261.8856473567712
 30
0.0
  0
MTEXT
  5
1B00
330
1AF8
100
AcDbEntity
  8
DIM
 62
     0
100
AcDbMText
 10
104.7202144547249
 20
267.3856473567712
 30
0.0
 40
3.0
 41
0.0
 46
0.0
 71
     5
 72
     1
  1
\A1;⌀65
  7
ＭＳ ゴシック
 73
     1
 44
1.0
  0
POINT
  5
1B01
330
1AF8
100
AcDbEntity
  8
Defpoints
 62
     0
100
AcDbPoint
 10
72.22021445472488
 20
242.1762366879535
 30
0.0
  0
POINT
  5
1B02
330
1AF8
100
AcDbEntity
  8
Defpoints
 62
     0
100
AcDbPoint
 10
137.2202144547249
 20
242.1762366879535
 30
0.0
  0
POINT
  5
1B03
330
1AF8
100
AcDbEntity
  8
Defpoints
 62
     0
100
AcDbPoint
 10
137.2202144547249
 20
261.8856473567712
 30
0.0
  0
ENDBLK
  5
1AFA
330
1AF8
100
AcDbEntity
  8
0
100
AcDbBlockEnd
  0
BLOCK
  5
1B10
330
1B0F
100
AcDbEntity
  8
0
100
AcDbBlockBegin
  2
*D7
 70
     1
 10
0.0
 20
0.0
 30
0.0
  3
*D7
  1
*D8
  0
LINE
  5
1B12
330
1B0F
100
AcDbEntity
  8
DIM
 62
     0
370
    -2
100
AcDbLine
 10
77.22021445472488
 20
150.0872032182743
 30
0.0
 11
77.22021445472488
 21
158.6611511515453
 31
0.0
  0
LINE
  5
1B13
330
1B0F
100
AcDbEntity
  8
DIM
 62
     0
370
    -2
100
AcDbLine
 10
132.2202144547249
 20
150.0872032182743
 30
0.0
 11
132.2202144547249
 21
158.6611511515453
 31
0.0
  0
LINE
  5
1B14
330
1B0F
100
AcDbEntity
  8
DIM
 62
     0
370
    -2
100
AcDbLine
 10
78.22021445472488
 20
158.6611511515453
 30
0.0
 11
131.2202144547249
 21
158.6611511515453
 31
0.0
  0
INSERT
  5
1B15
330
1B0F
100
AcDbEntity
  8
DIM
 62
     0
370
    -2
100
AcDbBlockReference
  2
_DOT
 10
77.22021445472488
 20
158.6611511515453
 30
0.0
 50
180.0
  0
INSERT
  5
1B16
330
1B0F
100
AcDbEntity
  8
DIM
 62
     0
370
    -2
100
AcDbBlockReference
  2
_DOT
 10
132.2202144547249
 20
158.6611511515453
 30
0.0
  0
MTEXT
  5
1B17
330
1B0F
100
AcDbEntity
  8
DIM
 62
     0
100
AcDbMText
 10
104.7202144547249
 20
164.1611511515453
 30
0.0
 40
3.0
 41
0.0
 46
0.0
 71
     5
 72
     1
  1
\A1;⌀55
  7
ＭＳ ゴシック
 73
     1
 44
1.0
  0
POINT
  5
1B18
330
1B0F
100
AcDbEntity
  8
Defpoints
 62
     0
100
AcDbPoint
 10
77.22021445472488
 20
145.0872032182743
 30
0.0
  0
POINT
  5
1B19
330
1B0F
100
AcDbEntity
  8
Defpoints
 62
     0
100
AcDbPoint
 10
132.2202144547249
 20
145.0872032182743
 30
0.0
  0
POINT
  5
1B1A
330
1B0F
100
AcDbEntity
  8
Defpoints
 62
     0
100
AcDbPoint
 10
132.2202144547249
 20
158.6611511515453
 30
0.0
  0
ENDBLK
  5
1B11
330
1B0F
100
AcDbEntity
  8
0
100
AcDbBlockEnd
  0
BLOCK
  5
1B4F
330
1B4E
100
AcDbEntity
  8
0
100
AcDbBlockBegin
  2
*D8
 70
     1
 10
0.0
 20
0.0
 30
0.0
  3
*D8
  1
*D9
  0
LINE
  5
1B51
330
1B4E
100
AcDbEntity
  8
DIM
 62
     0
370
    -2
100
AcDbLine
 10
137.2202144547249
 20
145.0872032182743
 30
0.0
 11
151.8167885005543
 21
145.0872032182743
 31
0.0
  0
LINE
  5
1B52
330
1B4E
100
AcDbEntity
  8
DIM
 62
     0
370
    -2
100
AcDbLine
 10
129.7202144547249
 20
137.0872032182743
 30
0.0
 11
151.8167885005543
 21
137.0872032182743
 31
0.0
  0
LINE
  5
1B53
330
1B4E
100
AcDbEntity
  8
DIM
 62
     0
370
    -2
100
AcDbLine
 10
151.8167885005543
 20
144.0872032182743
 30
0.0
 11
151.8167885005543
 21
138.0872032182743
 31
0.0
  0
INSERT
  5
1B54
330
1B4E
100
AcDbEntity
  8
DIM
 62
     0
370
    -2
100
AcDbBlockReference
  2
_DOT
 10
151.8167885005543
 20
145.0872032182743
 30
0.0
 50
90.0
  0
INSERT
  5
1B55
330
1B4E
100
AcDbEntity
  8
DIM
 62
     0
370
    -2
100
AcDbBlockReference
  2
_DOT
 10
151.8167885005543
 20
137.0872032182743
 30
0.0
 50
270.0
  0
MTEXT
  5
1B56
330
1B4E
100
AcDbEntity
  8
DIM
 62
     0
100
AcDbMText
 10
146.3167885005543
 20
141.0872032182743
 30
0.0
 40
3.0
 41
0.0
 46
0.0
 71
     5
 72
     1
  1
\A1;8
  7
ＭＳ ゴシック
 11
0.0
 21
1.0
 31
0.0
 73
     1
 44
1.0
  0
POINT
  5
1B57
330
1B4E
100
AcDbEntity
  8
Defpoints
 62
     0
100
AcDbPoint
 10
132.2202144547249
 20
145.0872032182743
 30
0.0
  0
POINT
  5
1B58
330
1B4E
100
AcDbEntity
  8
Defpoints
 62
     0
100
AcDbPoint
 10
124.7202144547249
 20
137.0872032182743
 30
0.0
  0
POINT
  5
1B59
330
1B4E
100
AcDbEntity
  8
Defpoints
 62
     0
100
AcDbPoint
 10
151.8167885005543
 20
137.0872032182743
 30
0.0
  0
ENDBLK
  5
1B50
330
1B4E
100
AcDbEntity
  8
0
100
AcDbBlockEnd
  0
BLOCK
  5
1B67
330
1B66
100
AcDbEntity
  8
0
100
AcDbBlockBegin
  2
*D9
 70
     1
 10
0.0
 20
0.0
 30
0.0
  3
*D9
  1
*D10
  0
LINE
  5
1B69
330
1B66
100
AcDbEntity
  8
DIM
 62
     0
370
    -2
100
AcDbLine
 10
67.2202144547249
 20
118.6042074273937
 30
0.0
 11
57.62364040889554
 21
118.6042074273937
 31
0.0
  0
LINE
  5
1B6A
330
1B66
100
AcDbEntity
  8
DIM
 62
     0
370
    -2
100
AcDbLine
 10
79.76521445472498
 20
107.6042074273937
 30
0.0
 11
57.62364040889554
 21
107.6042074273937
 31
0.0
  0
LINE
  5
1B6B
330
1B66
100
AcDbEntity
  8
DIM
 62
     0
370
    -2
100
AcDbLine
 10
57.62364040889554
 20
117.6042074273937
 30
0.0
 11
57.62364040889554
 21
108.6042074273937
 31
0.0
  0
INSERT
  5
1B6C
330
1B66
100
AcDbEntity
  8
DIM
 62
     0
370
    -2
100
AcDbBlockReference
  2
_DOT
 10
57.62364040889554
 20
118.6042074273937
 30
0.0
 50
90.0
  0
INSERT
  5
1B6D
330
1B66
100
AcDbEntity
  8
DIM
 62
     0
370
    -2
100
AcDbBlockReference
  2
_DOT
 10
57.62364040889554
 20
107.6042074273937
 30
0.0
 50
270.0
  0
MTEXT
  5
1B6E
330
1B66
100
AcDbEntity
  8
DIM
 62
     0
100
AcDbMText
 10
52.12364040889554
 20
113.1042074273937
 30
0.0
 40
3.0
 41
0.0
 46
0.0
 71
     5
 72
     1
  1
\A1;11
  7
ＭＳ ゴシック
 11
0.0
 21
1.0
 31
0.0
 73
     1
 44
1.0
  0
POINT
  5
1B6F
330
1B66
100
AcDbEntity
  8
Defpoints
 62
     0
100
AcDbPoint
 10
72.2202144547249
 20
118.6042074273937
 30
0.0
  0
POINT
  5
1B70
330
1B66
100
AcDbEntity
  8
Defpoints
 62
     0
100
AcDbPoint
 10
84.76521445472498
 20
107.6042074273937
 30
0.0
  0
POINT
  5
1B71
330
1B66
100
AcDbEntity
  8
Defpoints
 62
     0
100
AcDbPoint
 10
57.62364040889554
 20
107.6042074273937
 30
0.0
  0
ENDBLK
  5
1B68
330
1B66
100
AcDbEntity
  8
0
100
AcDbBlockEnd
  0
BLOCK
  5
1B7B
330
1B7A
100
AcDbEntity
  8
0
100
AcDbBlockBegin
  2
*D10
 70
     1
 10
0.0
 20
0.0
 30
0.0
  3
*D10
  1
*D11
  0
LINE
  5
1B7D
330
1B7A
100
AcDbEntity
  8
DIM
 62
     0
370
    -2
100
AcDbLine
 10
136.9702144547249
 20
127.1042074273937
 30
0.0
 11
151.8167885005543
 21
127.1042074273937
 31
0.0
  0
LINE
  5
1B7E
330
1B7A
100
AcDbEntity
  8
DIM
 62
     0
370
    -2
100
AcDbLine
 10
129.6752144547248
 20
107.6042074273937
 30
0.0
 11
151.8167885005543
 21
107.6042074273937
 31
0.0
  0
LINE
  5
1B7F
330
1B7A
100
AcDbEntity
  8
DIM
 62
     0
370
    -2
100
AcDbLine
 10
151.8167885005543
 20
126.1042074273937
 30
0.0
 11
151.8167885005543
 21
108.6042074273937
 31
0.0
  0
INSERT
  5
1B80
330
1B7A
100
AcDbEntity
  8
DIM
 62
     0
370
    -2
100
AcDbBlockReference
  2
_DOT
 10
151.8167885005543
 20
127.1042074273937
 30
0.0
 50
90.0
  0
INSERT
  5
1B81
330
1B7A
100
AcDbEntity
  8
DIM
 62
     0
370
    -2
100
AcDbBlockReference
  2
_DOT
 10
151.8167885005543
 20
107.6042074273937
 30
0.0
 50
270.0
  0
MTEXT
  5
1B82
330
1B7A
100
AcDbEntity
  8
DIM
 62
     0
100
AcDbMText
 10
146.3167885005543
 20
117.3542074273937
 30
0.0
 40
3.0
 41
0.0
 46
0.0
 71
     5
 72
     1
  1
\A1;20
  7
ＭＳ ゴシック
 11
0.0
 21
1.0
 31
0.0
 73
     1
 44
1.0
  0
POINT
  5
1B83
330
1B7A
100
AcDbEntity
  8
Defpoints
 62
     0
100
AcDbPoint
 10
131.9702144547249
 20
127.1042074273937
 30
0.0
  0
POINT
  5
1B84
330
1B7A
100
AcDbEntity
  8
Defpoints
 62
     0
100
AcDbPoint
 10
124.6752144547248
 20
107.6042074273937
 30
0.0
  0
POINT
  5
1B85
330
1B7A
100
AcDbEntity
  8
Defpoints
 62
     0
100
AcDbPoint
 10
151.8167885005543
 20
107.6042074273937
 30
0.0
  0
ENDBLK
  5
1B7C
330
1B7A
100
AcDbEntity
  8
0
100
AcDbBlockEnd
  0
BLOCK
  5
1C16
330
1C15
100
AcDbEntity
  8
0
100
AcDbBlockBegin
  2
*D11
 70
     1
 10
0.0
 20
0.0
 30
0.0
  3
*D11
  1
*D14
  0
LINE
  5
1C18
330
1C15
100
AcDbEntity
  8
DIM
 62
     0
370
    -2
100
AcDbLine
 10
111.5357443910148
 20
64.33720321827425
 30
0.0
 11
166.1781986932653
 21
64.33720321827425
 31
0.0
  0
LINE
  5
1C19
330
1C15
100
AcDbEntity
  8
DIM
 62
     0
370
    -2
100
AcDbLine
 10
137.2202144547249
 20
145.0872032182743
 30
0.0
 11
166.1781986932653
 21
145.0872032182743
 31
0.0
  0
LINE
  5
1C1A
330
1C15
100
AcDbEntity
  8
DIM
 62
     0
370
    -2
100
AcDbLine
 10
166.1781986932653
 20
65.33720321827425
 30
0.0
 11
166.1781986932653
 21
144.0872032182743
 31
0.0
  0
INSERT
  5
1C1B
330
1C15
100
AcDbEntity
  8
DIM
 62
     0
370
    -2
100
AcDbBlockReference
  2
_DOT
 10
166.1781986932653
 20
64.33720321827425
 30
0.0
 50
270.0
  0
INSERT
  5
1C1C
330
1C15
100
AcDbEntity
  8
DIM
 62
     0
370
    -2
100
AcDbBlockReference
  2
_DOT
 10
166.1781986932653
 20
145.0872032182743
 30
0.0
 50
90.0
  0
MTEXT
  5
1C1D
330
1C15
100
AcDbEntity
  8
DIM
 62
     0
100
AcDbMText
 10
160.6781986932653
 20
104.7122032182743
 30
0.0
 40
3.0
 41
0.0
 46
0.0
 71
     5
 72
     1
  1
\A1;81
  7
ＭＳ ゴシック
 11
0.0
 21
1.0
 31
0.0
 73
     1
 44
1.0
  0
POINT
  5
1C1E
330
1C15
100
AcDbEntity
  8
Defpoints
 62
     0
100
AcDbPoint
 10
106.5357443910148
 20
64.33720321827425
 30
0.0
  0
POINT
  5
1C1F
330
1C15
100
AcDbEntity
  8
Defpoints
 62
     0
100
AcDbPoint
 10
132.2202144547249
 20
145.0872032182743
 30
0.0
  0
POINT
  5
1C20
330
1C15
100
AcDbEntity
  8
Defpoints
 62
     0
100
AcDbPoint
 10
166.1781986932653
 20
145.0872032182743
 30
0.0
  0
ENDBLK
  5
1C17
330
1C15
100
AcDbEntity
  8
0
100
AcDbBlockEnd
  0
BLOCK
  5
1C25
330
1C24
100
AcDbEntity
  8
0
100
AcDbBlockBegin
  2
*D12
 70
     1
 10
0.0
 20
0.0
 30
0.0
  3
*D12
  1
*D15
  0
LINE
  5
1C27
330
1C24
100
AcDbEntity
  8
DIM
 62
     0
370
    -2
100
AcDbLine
 10
137.2202144547249
 20
145.0872032182743
 30
0.0
 11
165.0772665764446
 21
145.0872032182743
 31
0.0
  0
LINE
  5
1C28
330
1C24
100
AcDbEntity
  8
DIM
 62
     0
370
    -2
100
AcDbLine
 10
124.9161870965031
 20
65.08720321827425
 30
0.0
 11
165.0772665764446
 21
65.08720321827425
 31
0.0
  0
LINE
  5
1C29
330
1C24
100
AcDbEntity
  8
DIM
 62
     0
370
    -2
100
AcDbLine
 10
165.0772665764446
 20
144.0872032182743
 30
0.0
 11
165.0772665764446
 21
66.08720321827425
 31
0.0
  0
INSERT
  5
1C2A
330
1C24
100
AcDbEntity
  8
DIM
 62
     0
370
    -2
100
AcDbBlockReference
  2
_DOT
 10
165.0772665764446
 20
145.0872032182743
 30
0.0
 50
90.0
  0
INSERT
  5
1C2B
330
1C24
100
AcDbEntity
  8
DIM
 62
     0
370
    -2
100
AcDbBlockReference
  2
_DOT
 10
165.0772665764446
 20
65.08720321827425
 30
0.0
 50
270.0
  0
MTEXT
  5
1C2C
330
1C24
100
AcDbEntity
  8
DIM
 62
     0
100
AcDbMText
 10
159.5772665764446
 20
105.0872032182743
 30
0.0
 40
3.0
 41
0.0
 46
0.0
 71
     5
 72
     1
  1
\A1;80
  7
ＭＳ ゴシック
 11
0.0
 21
1.0
 31
0.0
 73
     1
 44
1.0
  0
POINT
  5
1C2D
330
1C24
100
AcDbEntity
  8
Defpoints
 62
     0
100
AcDbPoint
 10
132.2202144547249
 20
145.0872032182743
 30
0.0
  0
POINT
  5
1C2E
330
1C24
100
AcDbEntity
  8
Defpoints
 62
     0
100
AcDbPoint
 10
119.9161870965031
 20
65.08720321827425
 30
0.0
  0
POINT
  5
1C2F
330
1C24
100
AcDbEntity
  8
Defpoints
 62
     0
100
AcDbPoint
 10
165.0772665764446
 20
65.08720321827425
 30
0.0
  0
ENDBLK
  5
1C26
330
1C24
100
AcDbEntity
  8
0
100
AcDbBlockEnd
  0
BLOCK
  5
1C3C
330
1C3B
100
AcDbEntity
  8
0
100
AcDbBlockBegin
  2
*D13
 70
     1
 10
0.0
 20
0.0
 30
0.0
  3
*D13
  1
*D16
  0
LINE
  5
1C3E
330
1C3B
100
AcDbEntity
  8
DIM
 62
     0
370
    -2
100
AcDbLine
 10
142.2202144547249
 20
118.6042074273937
 30
0.0
 11
151.8167885005543
 21
118.6042074273937
 31
0.0
  0
LINE
  5
1C3F
330
1C3B
100
AcDbEntity
  8
DIM
 62
     0
370
    -2
100
AcDbLine
 10
129.7202144547249
 20
137.0872032182743
 30
0.0
 11
151.8167885005543
 21
137.0872032182743
 31
0.0
  0
LINE
  5
1C40
330
1C3B
100
AcDbEntity
  8
DIM
 62
     0
370
    -2
100
AcDbLine
 10
151.8167885005543
 20
119.6042074273937
 30
0.0
 11
151.8167885005543
 21
136.0872032182743
 31
0.0
  0
INSERT
  5
1C41
330
1C3B
100
AcDbEntity
  8
DIM
 62
     0
370
    -2
100
AcDbBlockReference
  2
_DOT
 10
151.8167885005543
 20
118.6042074273937
 30
0.0
 50
270.0
  0
INSERT
  5
1C42
330
1C3B
100
AcDbEntity
  8
DIM
 62
     0
370
    -2
100
AcDbBlockReference
  2
_DOT
 10
151.8167885005543
 20
137.0872032182743
 30
0.0
 50
90.0
  0
MTEXT
  5
1C43
330
1C3B
100
AcDbEntity
  8
DIM
 62
     0
100
AcDbMText
 10
146.3167885005543
 20
127.845705322834
 30
0.0
 40
3.0
 41
0.0
 46
0.0
 71
     5
 72
     1
  1
\A1;18
  7
ＭＳ ゴシック
 11
0.0
 21
1.0
 31
0.0
 73
     1
 44
1.0
  0
POINT
  5
1C44
330
1C3B
100
AcDbEntity
  8
Defpoints
 62
     0
100
AcDbPoint
 10
137.2202144547249
 20
118.6042074273937
 30
0.0
  0
POINT
  5
1C45
330
1C3B
100
AcDbEntity
  8
Defpoints
 62
     0
100
AcDbPoint
 10
124.7202144547249
 20
137.0872032182743
 30
0.0
  0
POINT
  5
1C46
330
1C3B
100
AcDbEntity
  8
Defpoints
 62
     0
100
AcDbPoint
 10
151.8167885005543
 20
137.0872032182743
 30
0.0
  0
ENDBLK
  5
1C3D
330
1C3B
100
AcDbEntity
  8
0
100
AcDbBlockEnd
  0
BLOCK
  5
1DA1
330
1DA0
100
AcDbEntity
  8
0
100
AcDbBlockBegin
  2
SW_CENTERMARKSYMBOL_0
 70
     0
 10
0.0
 20
0.0
 30
0.0
  3
SW_CENTERMARKSYMBOL_0
  1
SW_CENTERMARKSYMBOL_0
  0
ARC
  5
1DA2
330
1DA0
100
AcDbEntity
  8
0
  6
Continuous
 62
     0
370
     0
100
AcDbCircle
 10
-0.3499999999999892
 20
0.6062177826491044
 30
0.0
 40
0.6999999999999986
100
AcDbArc
 50
300.0000000000002
 51
310.2313891987644
  0
ARC
  5
1DA3
330
1DA0
100
AcDbEntity
  8
0
  6
Continuous
 62
     0
370
     0
100
AcDbCircle
 10
-0.3499999999999892
 20
0.6062177826491044
 30
0.0
 40
0.7000000000000033
100
AcDbArc
 50
289.7686108012352
 51
300.0000000000002
  0
ARC
  5
1DA4
330
1DA0
100
AcDbEntity
  8
0
  6
Continuous
 62
     0
370
     0
100
AcDbCircle
 10
-0.3499999999999892
 20
0.6062177826491044
 30
0.0
 40
0.7000000000000072
100
AcDbArc
 50
0.0
 51
10.23138919876454
  0
ARC
  5
1DA5
330
1DA0
100
AcDbEntity
  8
0
  6
Continuous
 62
     0
370
     0
100
AcDbCircle
 10
-0.3499999999999892
 20
0.6062177826491044
 30
0.0
 40
0.7000000000000072
100
AcDbArc
 50
349.7686108012363
 51
0.0
  0
ARC
  5
1DA6
330
1DA0
100
AcDbEntity
  8
0
  6
Continuous
 62
     0
370
     0
100
AcDbCircle
 10
-0.3499999999999892
 20
0.6062177826491044
 30
0.0
 40
0.7000000000000033
100
AcDbArc
 50
240.0000000000015
 51
250.2313891987664
  0
ARC
  5
1DA7
330
1DA0
100
AcDbEntity
  8
0
  6
Continuous
 62
     0
370
     0
100
AcDbCircle
 10
-0.3499999999999892
 20
0.6062177826491044
 30
0.0
 40
0.6999999999999986
100
AcDbArc
 50
229.7686108012372
 51
240.0000000000015
  0
ARC
  5
1DA8
330
1DA0
100
AcDbEntity
  8
0
  6
Continuous
 62
     0
370
     0
100
AcDbCircle
 10
-0.3499999999999892
 20
0.6062177826491044
 30
0.0
 40
0.7000000000000072
100
AcDbArc
 50
180.0
 51
190.2313891987653
  0
ARC
  5
1DA9
330
1DA0
100
AcDbEntity
  8
0
  6
Continuous
 62
     0
370
     0
100
AcDbCircle
 10
-0.3499999999999892
 20
0.6062177826491044
 30
0.0
 40
0.7000000000000072
100
AcDbArc
 50
169.7686108012355
 51
180.0
  0
ARC
  5
1DAA
330
1DA0
100
AcDbEntity
  8
0
  6
Continuous
 62
     0
370
     0
100
AcDbCircle
 10
-0.3499999999999892
 20
0.6062177826491044
 30
0.0
 40
0.6999999999999986
100
AcDbArc
 50
119.9999999999994
 51
130.2313891987636
  0
ARC
  5
1DAB
330
1DA0
100
AcDbEntity
  8
0
  6
Continuous
 62
     0
370
     0
100
AcDbCircle
 10
-0.3499999999999892
 20
0.6062177826491044
 30
0.0
 40
0.7000000000000033
100
AcDbArc
 50
109.7686108012344
 51
119.9999999999994
  0
ARC
  5
1DAC
330
1DA0
100
AcDbEntity
  8
0
  6
Continuous
 62
     0
370
     0
100
AcDbCircle
 10
-0.3499999999999892
 20
0.6062177826491044
 30
0.0
 40
0.7000000000000127
100
AcDbArc
 50
59.9999999999987
 51
70.23138919876347
  0
ARC
  5
1DAD
330
1DA0
100
AcDbEntity
  8
0
  6
Continuous
 62
     0
370
     0
100
AcDbCircle
 10
-0.3499999999999892
 20
0.6062177826491044
 30
0.0
 40
0.7000000000000062
100
AcDbArc
 50
49.76861080123318
 51
59.9999999999987
  0
ARC
  5
1DAE
330
1DA0
100
AcDbEntity
  8
0
  6
Continuous
 62
     0
370
     0
100
AcDbCircle
 10
-0.3499999999999892
 20
0.6062177826491044
 30
0.0
 40
0.7000000000000052
100
AcDbArc
 50
20.46277839752972
 51
39.53722160246902
  0
ARC
  5
1DAF
330
1DA0
100
AcDbEntity
  8
0
  6
Continuous
 62
     0
370
     0
100
AcDbCircle
 10
-0.3499999999999892
 20
0.6062177826491044
 30
0.0
 40
0.6999999999999895
100
AcDbArc
 50
80.4627783975291
 51
99.53722160247091
  0
ARC
  5
1DB0
330
1DA0
100
AcDbEntity
  8
0
  6
Continuous
 62
     0
370
     0
100
AcDbCircle
 10
-0.3499999999999892
 20
0.6062177826491044
 30
0.0
 40
0.6999999999999912
100
AcDbArc
 50
140.4627783975295
 51
159.5372216024703
  0
ARC
  5
1DB1
330
1DA0
100
AcDbEntity
  8
0
  6
Continuous
 62
     0
370
     0
100
AcDbCircle
 10
-0.3499999999999892
 20
0.6062177826491044
 30
0.0
 40
0.6999999999999912
100
AcDbArc
 50
200.4627783975305
 51
219.5372216024713
  0
ARC
  5
1DB2
330
1DA0
100
AcDbEntity
  8
0
  6
Continuous
 62
     0
370
     0
100
AcDbCircle
 10
-0.3499999999999892
 20
0.6062177826491044
 30
0.0
 40
0.6999999999999895
100
AcDbArc
 50
260.4627783975299
 51
279.5372216024717
  0
ARC
  5
1DB3
330
1DA0
100
AcDbEntity
  8
0
  6
Continuous
 62
     0
370
     0
100
AcDbCircle
 10
-0.3499999999999892
 20
0.6062177826491044
 30
0.0
 40
0.6999999999999912
100
AcDbArc
 50
320.4627783975304
 51
339.5372216024711
  0
LINE
  5
1DB4
330
1DA0
100
AcDbEntity
  8
0
  6
Continuous
 62
     0
370
     0
100
AcDbLine
 10
0.0
 20
0.0
 30
0.0
 11
0.0625000000000209
 21
-0.1082531754730554
 31
0.0
  0
LINE
  5
1DB5
330
1DA0
100
AcDbEntity
  8
0
  6
Continuous
 62
     0
370
     0
100
AcDbLine
 10
0.0
 20
0.0
 30
0.0
 11
-0.0624999999999931
 21
0.1082531754730554
 31
0.0
  0
LINE
  5
1DB6
330
1DA0
100
AcDbEntity
  8
0
  6
Continuous
 62
     0
370
     0
100
AcDbLine
 10
0.125000000000014
 20
-0.2165063509461107
 30
0.0
 11
0.1875000000000071
 21
-0.3247595264191661
 31
0.0
  0
LINE
  5
1DB7
330
1DA0
100
AcDbEntity
  8
0
  6
Continuous
 62
     0
370
     0
100
AcDbLine
 10
-0.1249999999999862
 20
0.2165063509461107
 30
0.0
 11
-0.1874999999999793
 21
0.3247595264191661
 31
0.0
  0
LINE
  5
1DB8
330
1DA0
100
AcDbEntity
  8
0
  6
Continuous
 62
     0
370
     0
100
AcDbLine
 10
-0.3499999999999892
 20
0.6062177826491044
 30
0.0
 11
-0.3499999999999892
 21
0.7312177826490907
 31
0.0
  0
LINE
  5
1DB9
330
1DA0
100
AcDbEntity
  8
0
  6
Continuous
 62
     0
370
     0
100
AcDbLine
 10
-0.3499999999999892
 20
0.6062177826491044
 30
0.0
 11
-0.4749999999999754
 21
0.6062177826491044
 31
0.0
  0
LINE
  5
1DBA
330
1DA0
100
AcDbEntity
  8
0
  6
Continuous
 62
     0
370
     0
100
AcDbLine
 10
-0.3499999999999892
 20
0.6062177826491044
 30
0.0
 11
-0.3499999999999892
 21
0.4812177826490904
 31
0.0
  0
LINE
  5
1DBB
330
1DA0
100
AcDbEntity
  8
0
  6
Continuous
 62
     0
370
     0
100
AcDbLine
 10
-0.3499999999999892
 20
0.6062177826491044
 30
0.0
 11
-0.225000000000003
 21
0.6062177826491044
 31
0.0
  0
LINE
  5
1DBC
330
1DA0
100
AcDbEntity
  8
0
  6
Continuous
 62
     0
370
     0
100
AcDbLine
 10
-0.3499999999999892
 20
0.8562177826491046
 30
0.0
 11
-0.3499999999999892
 21
1.431217782649097
 31
0.0
  0
LINE
  5
1DBD
330
1DA0
100
AcDbEntity
  8
0
  6
Continuous
 62
     0
370
     0
100
AcDbLine
 10
-0.5999999999999894
 20
0.6062177826491044
 30
0.0
 11
-1.174999999999982
 21
0.6062177826491044
 31
0.0
  0
LINE
  5
1DBE
330
1DA0
100
AcDbEntity
  8
0
  6
Continuous
 62
     0
370
     0
100
AcDbLine
 10
-0.3499999999999892
 20
0.3562177826491042
 30
0.0
 11
-0.3499999999999892
 21
-0.218782217350888
 31
0.0
  0
LINE
  5
1DBF
330
1DA0
100
AcDbEntity
  8
0
  6
Continuous
 62
     0
370
     0
100
AcDbLine
 10
-0.099999999999989
 20
0.6062177826491044
 30
0.0
 11
0.4750000000000032
 21
0.6062177826491044
 31
0.0
  0
LINE
  5
1DC0
330
1DA0
100
AcDbEntity
  8
0
  6
Continuous
 62
     0
370
     0
100
AcDbLine
 10
0.350000000000017
 20
0.6062177826491044
 30
0.0
 11
0.4750000000000032
 21
0.6062177826491044
 31
0.0
  0
LINE
  5
1DC1
330
1DA0
100
AcDbEntity
  8
0
  6
Continuous
 62
     0
370
     0
100
AcDbLine
 10
0.350000000000017
 20
0.6062177826491044
 30
0.0
 11
0.225000000000003
 21
0.6062177826491044
 31
0.0
  0
LINE
  5
1DC2
330
1DA0
100
AcDbEntity
  8
0
  6
Continuous
 62
     0
370
     0
100
AcDbLine
 10
0.6000000000000172
 20
0.6062177826491044
 30
0.0
 11
0.7250000000000034
 21
0.6062177826491044
 31
0.0
  0
LINE
  5
1DC3
330
1DA0
100
AcDbEntity
  8
0
  6
Continuous
 62
     0
370
     0
100
AcDbLine
 10
0.1000000000000167
 20
0.6062177826491044
 30
0.0
 11
-0.0249999999999972
 21
0.6062177826491044
 31
0.0
  0
LINE
  5
1DC4
330
1DA0
100
AcDbEntity
  8
0
  6
Continuous
 62
     0
370
     0
100
AcDbLine
 10
-0.6999999999999784
 20
0.0
 30
0.0
 11
-0.7624999999999993
 21
-0.1082531754730554
 31
0.0
  0
LINE
  5
1DC5
330
1DA0
100
AcDbEntity
  8
0
  6
Continuous
 62
     0
370
     0
100
AcDbLine
 10
-0.6999999999999784
 20
0.0
 30
0.0
 11
-0.6374999999999853
 21
0.1082531754730554
 31
0.0
  0
LINE
  5
1DC6
330
1DA0
100
AcDbEntity
  8
0
  6
Continuous
 62
     0
370
     0
100
AcDbLine
 10
-0.8249999999999924
 20
-0.2165063509461107
 30
0.0
 11
-0.8874999999999855
 21
-0.3247595264191661
 31
0.0
  0
LINE
  5
1DC7
330
1DA0
100
AcDbEntity
  8
0
  6
Continuous
 62
     0
370
     0
100
AcDbLine
 10
-0.5749999999999922
 20
0.2165063509461107
 30
0.0
 11
-0.5124999999999991
 21
0.3247595264191661
 31
0.0
  0
LINE
  5
1DC8
330
1DA0
100
AcDbEntity
  8
0
  6
Continuous
 62
     0
370
     0
100
AcDbLine
 10
-1.049999999999995
 20
0.6062177826491044
 30
0.0
 11
-1.174999999999982
 21
0.6062177826491044
 31
0.0
  0
LINE
  5
1DC9
330
1DA0
100
AcDbEntity
  8
0
  6
Continuous
 62
     0
370
     0
100
AcDbLine
 10
-1.049999999999995
 20
0.6062177826491044
 30
0.0
 11
-0.9249999999999814
 21
0.6062177826491044
 31
0.0
  0
LINE
  5
1DCA
330
1DA0
100
AcDbEntity
  8
0
  6
Continuous
 62
     0
370
     0
100
AcDbLine
 10
-1.299999999999996
 20
0.6062177826491044
 30
0.0
 11
-1.424999999999982
 21
0.6062177826491044
 31
0.0
  0
LINE
  5
1DCB
330
1DA0
100
AcDbEntity
  8
0
  6
Continuous
 62
     0
370
     0
100
AcDbLine
 10
-0.7999999999999952
 20
0.6062177826491044
 30
0.0
 11
-0.6749999999999812
 21
0.6062177826491044
 31
0.0
  0
LINE
  5
1DCC
330
1DA0
100
AcDbEntity
  8
0
  6
Continuous
 62
     0
370
     0
100
AcDbLine
 10
-0.6999999999999784
 20
1.212435565298209
 30
0.0
 11
-0.7624999999999715
 21
1.320688740771264
 31
0.0
  0
LINE
  5
1DCD
330
1DA0
100
AcDbEntity
  8
0
  6
Continuous
 62
     0
370
     0
100
AcDbLine
 10
-0.6999999999999784
 20
1.212435565298209
 30
0.0
 11
-0.6374999999999853
 21
1.104182389825153
 31
0.0
  0
LINE
  5
1DCE
330
1DA0
100
AcDbEntity
  8
0
  6
Continuous
 62
     0
370
     0
100
AcDbLine
 10
-0.8249999999999924
 20
1.42894191624432
 30
0.0
 11
-0.8874999999999855
 21
1.537195091717375
 31
0.0
  0
LINE
  5
1DCF
330
1DA0
100
AcDbEntity
  8
0
  6
Continuous
 62
     0
370
     0
100
AcDbLine
 10
-0.5749999999999922
 20
0.9959292143520981
 30
0.0
 11
-0.5124999999999991
 21
0.8876760388790428
 31
0.0
  0
LINE
  5
1DD0
330
1DA0
100
AcDbEntity
  8
0
  6
Continuous
 62
     0
370
     0
100
AcDbLine
 10
0.0000000000000278
 20
1.212435565298209
 30
0.0
 11
0.0625000000000209
 21
1.320688740771264
 31
0.0
  0
LINE
  5
1DD1
330
1DA0
100
AcDbEntity
  8
0
  6
Continuous
 62
     0
370
     0
100
AcDbLine
 10
0.0000000000000278
 20
1.212435565298209
 30
0.0
 11
-0.0624999999999931
 21
1.104182389825153
 31
0.0
  0
LINE
  5
1DD2
330
1DA0
100
AcDbEntity
  8
0
  6
Continuous
 62
     0
370
     0
100
AcDbLine
 10
0.125000000000014
 20
1.42894191624432
 30
0.0
 11
0.1875000000000071
 21
1.537195091717375
 31
0.0
  0
LINE
  5
1DD3
330
1DA0
100
AcDbEntity
  8
0
  6
Continuous
 62
     0
370
     0
100
AcDbLine
 10
-0.1249999999999862
 20
0.9959292143520981
 30
0.0
 11
-0.1874999999999793
 21
0.8876760388790428
 31
0.0
  0
ENDBLK
  5
1DD4
330
1DA0
100
AcDbEntity
  8
0
100
AcDbBlockEnd
  0
BLOCK
  5
1EE5
330
1EE4
100
AcDbEntity
  8
0
100
AcDbBlockBegin
  2
*D15
 70
     1
 10
0.0
 20
0.0
 30
0.0
  3
*D15
  1
*D20
  0
LINE
  5
1EE7
330
1EE4
100
AcDbEntity
  8
DIM
 62
     0
370
    -2
100
AcDbLine
 10
34.60116333323734
 20
233.5481426637592
 30
0.0
 11
34.60116333323734
 21
245.790813593645
 31
0.0
  0
LINE
  5
1EE8
330
1EE4
100
AcDbEntity
  8
DIM
 62
     0
370
    -2
100
AcDbLine
 10
89.60116333323734
 20
233.5481426637592
 30
0.0
 11
89.60116333323734
 21
245.790813593645
 31
0.0
  0
LINE
  5
1EE9
330
1EE4
100
AcDbEntity
  8
DIM
 62
     0
370
    -2
100
AcDbLine
 10
35.60116333323734
 20
245.790813593645
 30
0.0
 11
88.60116333323734
 21
245.790813593645
 31
0.0
  0
INSERT
  5
1EEA
330
1EE4
100
AcDbEntity
  8
DIM
 62
     0
370
    -2
100
AcDbBlockReference
  2
_DOT
 10
34.60116333323734
 20
245.790813593645
 30
0.0
 50
180.0
  0
INSERT
  5
1EEB
330
1EE4
100
AcDbEntity
  8
DIM
 62
     0
370
    -2
100
AcDbBlockReference
  2
_DOT
 10
89.60116333323734
 20
245.790813593645
 30
0.0
  0
MTEXT
  5
1EEC
330
1EE4
100
AcDbEntity
  8
DIM
 62
     0
100
AcDbMText
 10
62.10116333323734
 20
251.305813593645
 30
0.0
 40
3.0
 41
0.0
 46
0.0
 71
     5
 72
     1
  1
\A1;ø55
  7
ＭＳ ゴシック
 73
     1
 44
1.0
  0
POINT
  5
1EED
330
1EE4
100
AcDbEntity
  8
Defpoints
 62
     0
100
AcDbPoint
 10
34.60116333323734
 20
228.5481426637592
 30
0.0
  0
POINT
  5
1EEE
330
1EE4
100
AcDbEntity
  8
Defpoints
 62
     0
100
AcDbPoint
 10
89.60116333323734
 20
228.5481426637592
 30
0.0
  0
POINT
  5
1EEF
330
1EE4
100
AcDbEntity
  8
Defpoints
 62
     0
100
AcDbPoint
 10
89.60116333323734
 20
245.790813593645
 30
0.0
  0
ENDBLK
  5
1EE6
330
1EE4
100
AcDbEntity
  8
0
100
AcDbBlockEnd
  0
BLOCK
  5
1F00
330
1EFF
100
AcDbEntity
  8
0
100
AcDbBlockBegin
  2
*D16
 70
     1
 10
0.0
 20
0.0
 30
0.0
  3
*D16
  1
*D21
  0
LINE
  5
1F02
330
1EFF
100
AcDbEntity
  8
DIM
 62
     0
370
    -2
100
AcDbLine
 10
91.60116333323711
 20
103.2591993197855
 30
0.0
 11
99.20068422577774
 21
103.2591993197855
 31
0.0
  0
LINE
  5
1F03
330
1EFF
100
AcDbEntity
  8
DIM
 62
     0
370
    -2
100
AcDbLine
 10
67.10116333323734
 20
146.2591993197858
 30
0.0
 11
99.20068422577774
 21
146.2591993197858
 31
0.0
  0
LINE
  5
1F04
330
1EFF
100
AcDbEntity
  8
DIM
 62
     0
370
    -2
100
AcDbLine
 10
99.20068422577774
 20
104.2591993197855
 30
0.0
 11
99.20068422577774
 21
145.2591993197858
 31
0.0
  0
INSERT
  5
1F05
330
1EFF
100
AcDbEntity
  8
DIM
 62
     0
370
    -2
100
AcDbBlockReference
  2
_DOT
 10
99.20068422577774
 20
103.2591993197855
 30
0.0
 50
270.0
  0
INSERT
  5
1F06
330
1EFF
100
AcDbEntity
  8
DIM
 62
     0
370
    -2
100
AcDbBlockReference
  2
_DOT
 10
99.20068422577774
 20
146.2591993197858
 30
0.0
 50
90.0
  0
MTEXT
  5
1F07
330
1EFF
100
AcDbEntity
  8
DIM
 62
     0
100
AcDbMText
 10
93.70068422577774
 20
124.7591993197857
 30
0.0
 40
3.0
 41
0.0
 46
0.0
 71
     5
 72
     1
  1
\A1;43
  7
ＭＳ ゴシック
 11
0.0
 21
1.0
 31
0.0
 73
     1
 44
1.0
  0
POINT
  5
1F08
330
1EFF
100
AcDbEntity
  8
Defpoints
 62
     0
100
AcDbPoint
 10
86.60116333323711
 20
103.2591993197855
 30
0.0
  0
POINT
  5
1F09
330
1EFF
100
AcDbEntity
  8
Defpoints
 62
     0
100
AcDbPoint
 10
62.10116333323734
 20
146.2591993197858
 30
0.0
  0
POINT
  5
1F0A
330
1EFF
100
AcDbEntity
  8
Defpoints
 62
     0
100
AcDbPoint
 10
99.20068422577774
 20
146.2591993197858
 30
0.0
  0
ENDBLK
  5
1F01
330
1EFF
100
AcDbEntity
  8
0
100
AcDbBlockEnd
  0
BLOCK
  5
1F0F
330
1F0E
100
AcDbEntity
  8
0
100
AcDbBlockBegin
  2
*D17
 70
     1
 10
0.0
 20
0.0
 30
0.0
  3
*D17
  1
*D22
  0
LINE
  5
1F11
330
1F0E
100
AcDbEntity
  8
DIM
 62
     0
370
    -2
100
AcDbLine
 10
58.60116333323688
 20
147.7591993197856
 30
0.0
 11
58.60116333323688
 21
154.0285517082477
 31
0.0
  0
LINE
  5
1F12
330
1F0E
100
AcDbEntity
  8
DIM
 62
     0
370
    -2
100
AcDbLine
 10
65.60116333323757
 20
147.7591993197856
 30
0.0
 11
65.60116333323757
 21
154.0285517082477
 31
0.0
  0
LINE
  5
1F13
330
1F0E
100
AcDbEntity
  8
DIM
 62
     0
370
    -2
100
AcDbLine
 10
59.60116333323688
 20
154.0285517082477
 30
0.0
 11
64.60116333323757
 21
154.0285517082477
 31
0.0
  0
INSERT
  5
1F14
330
1F0E
100
AcDbEntity
  8
DIM
 62
     0
370
    -2
100
AcDbBlockReference
  2
_DOT
 10
58.60116333323688
 20
154.0285517082477
 30
0.0
 50
180.0
  0
INSERT
  5
1F15
330
1F0E
100
AcDbEntity
  8
DIM
 62
     0
370
    -2
100
AcDbBlockReference
  2
_DOT
 10
65.60116333323757
 20
154.0285517082477
 30
0.0
  0
MTEXT
  5
1F16
330
1F0E
100
AcDbEntity
  8
DIM
 62
     0
100
AcDbMText
 10
62.10116333323722
 20
159.5435517082477
 30
0.0
 40
3.0
 41
0.0
 46
0.0
 71
     5
 72
     1
  1
\A1;ø7
  7
ＭＳ ゴシック
 73
     1
 44
1.0
  0
POINT
  5
1F17
330
1F0E
100
AcDbEntity
  8
Defpoints
 62
     0
100
AcDbPoint
 10
58.60116333323688
 20
142.7591993197856
 30
0.0
  0
POINT
  5
1F18
330
1F0E
100
AcDbEntity
  8
Defpoints
 62
     0
100
AcDbPoint
 10
65.60116333323757
 20
142.7591993197856
 30
0.0
  0
POINT
  5
1F19
330
1F0E
100
AcDbEntity
  8
Defpoints
 62
     0
100
AcDbPoint
 10
65.60116333323757
 20
154.0285517082477
 30
0.0
  0
ENDBLK
  5
1F10
330
1F0E
100
AcDbEntity
  8
0
100
AcDbBlockEnd
  0
BLOCK
  5
1F38
330
1F37
100
AcDbEntity
  8
0
100
AcDbBlockBegin
  2
*D18
 70
     1
 10
0.0
 20
0.0
 30
0.0
  3
*D18
  1
*D23
  0
LINE
  5
1F3A
330
1F37
100
AcDbEntity
  8
DIM
 62
     0
370
    -2
100
AcDbLine
 10
91.60116333323711
 20
103.2591993197855
 30
0.0
 11
99.20068422577774
 21
103.2591993197855
 31
0.0
  0
LINE
  5
1F3B
330
1F37
100
AcDbEntity
  8
DIM
 62
     0
370
    -2
100
AcDbLine
 10
81.35175787820339
 20
96.74078982504352
 30
0.0
 11
99.20068422577774
 21
96.74078982504352
 31
0.0
  0
LINE
  5
1F3C
330
1F37
100
AcDbEntity
  8
DIM
 62
     0
370
    -2
100
AcDbLine
 10
99.20068422577774
 20
102.2591993197855
 30
0.0
 11
99.20068422577774
 21
97.74078982504352
 31
0.0
  0
INSERT
  5
1F3D
330
1F37
100
AcDbEntity
  8
DIM
 62
     0
370
    -2
100
AcDbBlockReference
  2
_DOT
 10
99.20068422577774
 20
103.2591993197855
 30
0.0
 50
90.0
  0
INSERT
  5
1F3E
330
1F37
100
AcDbEntity
  8
DIM
 62
     0
370
    -2
100
AcDbBlockReference
  2
_DOT
 10
99.20068422577774
 20
96.74078982504352
 30
0.0
 50
270.0
  0
MTEXT
  5
1F3F
330
1F37
100
AcDbEntity
  8
DIM
 62
     0
100
AcDbMText
 10
93.70068422577774
 20
99.99999457241452
 30
0.0
 40
3.0
 41
0.0
 46
0.0
 71
     5
 72
     1
  1
\A1;7
  7
ＭＳ ゴシック
 11
0.0
 21
1.0
 31
0.0
 73
     1
 44
1.0
  0
POINT
  5
1F40
330
1F37
100
AcDbEntity
  8
Defpoints
 62
     0
100
AcDbPoint
 10
86.60116333323711
 20
103.2591993197855
 30
0.0
  0
POINT
  5
1F41
330
1F37
100
AcDbEntity
  8
Defpoints
 62
     0
100
AcDbPoint
 10
76.35175787820339
 20
96.74078982504352
 30
0.0
  0
POINT
  5
1F42
330
1F37
100
AcDbEntity
  8
Defpoints
 62
     0
100
AcDbPoint
 10
99.20068422577774
 20
96.74078982504352
 30
0.0
  0
ENDBLK
  5
1F39
330
1F37
100
AcDbEntity
  8
0
100
AcDbBlockEnd
  0
ENDSEC
  0
SECTION
  2
ENTITIES
  0
MTEXT
  5
177
330
A
100
AcDbEntity
  8
TEMPLATE
390
1D
100
AcDbMText
 10
7.920214454773077
 20
34.37317516314283
 30
0.0
 40
1.628841145833333
 41
0.0
 46
0.0
 71
     1
 72
     1
  1
品名
  7
ＭＳ ゴシック
 73
     1
 44
0.7828267384257843
  0
MTEXT
  5
178
330
A
100
AcDbEntity
  8
TEMPLATE
390
1D
100
AcDbMText
 10
7.920214454773077
 20
25.87317516314281
 30
0.0
 40
1.628841145833333
 41
0.0
 46
0.0
 71
     1
 72
     1
  1
仕様
  7
ＭＳ ゴシック
 73
     1
 44
0.7828267384257843
  0
LINE
  5
179
330
A
100
AcDbEntity
  8
TEMPLATE
390
1D
100
AcDbLine
 10
202.2202144547249
 20
26.71466735064285
 30
0.0
 11
7.220214454724874
 21
26.71466735064285
 31
0.0
  0
LWPOLYLINE
  5
17A
330
A
100
AcDbEntity
  8
TEMPLATE
390
1D
100
AcDbPolyline
 90
        5
 70
   128
 43
0.0
 10
202.2202144547249
 20
289.7146673506426
 10
7.220214454724874
 20
289.7146673506426
 10
7.220214454724874
 20
9.714667350642825
 10
202.2202144547249
 20
9.714667350642825
 10
202.2202144547249
 20
289.7146673506426
  0
LINE
  5
17B
330
A
100
AcDbEntity
  8
TEMPLATE
390
1D
100
AcDbLine
 10
202.2202144547249
 20
35.21466735064281
 30
0.0
 11
7.220214454724874
 21
35.21466735064281
 31
0.0
  0
LINE
  5
17C
330
A
100
AcDbEntity
  8
TEMPLATE
390
1D
100
AcDbLine
 10
202.2202144547731
 20
18.21466735064282
 30
0.0
 11
126.920214454773
 21
18.21466735064282
 31
0.0
  0
MTEXT
  5
17D
330
A
100
AcDbEntity
  8
TEMPLATE
390
1D
100
AcDbMText
 10
7.22021445479345
 20
8.529285144957115
 30
0.0
 40
2.171788194444444
 41
0.0
 46
17.37430555555555
 71
     1
 72
     1
  1
{150101XX}
  7
ＭＳ ゴシック
 73
     1
 44
0.7828267384257843
1001
ACAD
1000
ACAD_MTEXT_DEFINED_HEIGHT_BEGIN
1070
    46
1040
17.37430555555555
1000
ACAD_MTEXT_DEFINED_HEIGHT_END
  0
MTEXT
  5
17E
330
A
100
AcDbEntity
  8
TEMPLATE
390
1D
100
AcDbMText
 10
129.9073550799991
 20
15.22362790331201
 30
0.0
 40
2.44326171875
 41
0.0
 46
0.0
 71
     1
 72
     1
  1
大洋金物株式会社 ティーフォルム事業部
  7
ＭＳ ゴシック
 73
     1
 44
0.7828267384257843
  0
MTEXT
  5
180
330
A
100
AcDbEntity
  8
TEMPLATE
390
1D
100
AcDbMText
 10
183.120214454799
 20
23.01492906939281
 30
0.0
 40
2.44326171875
 41
0.0
 46
2.44326171875
 71
     1
 72
     1
  1
{1:1}
  7
ＭＳ ゴシック
 73
     1
 44
0.7828267384257843
1001
ACAD
1000
ACAD_MTEXT_DEFINED_HEIGHT_BEGIN
1070
    46
1040
2.44326171875
1000
ACAD_MTEXT_DEFINED_HEIGHT_END
  0
MTEXT
  5
181
330
A
100
AcDbEntity
  8
TEMPLATE
390
1D
100
AcDbMText
 10
177.820214454799
 20
25.87317516314281
 30
0.0
 40
1.628841145833333
 41
0.0
 46
0.0
 71
     1
 72
     1
  1
縮尺
  7
ＭＳ ゴシック
 73
     1
 44
0.7828267384257843
  0
LINE
  5
182
330
A
100
AcDbEntity
  8
TEMPLATE
390
1D
100
AcDbLine
 10
177.120214454799
 20
18.21466735064282
 30
0.0
 11
177.120214454799
 21
26.71466735064285
 31
0.0
  0
MTEXT
  5
183
330
A
100
AcDbEntity
  8
TEMPLATE
390
1D
100
AcDbMText
 10
152.720214454799
 20
25.87317516314281
 30
0.0
 40
1.628841145833333
 41
0.0
 46
0.0
 71
     1
 72
     1
  1
容量
  7
ＭＳ ゴシック
 73
     1
 44
0.7828267384257843
  0
LINE
  5
184
330
A
100
AcDbEntity
  8
TEMPLATE
390
1D
100
AcDbLine
 10
152.020214454799
 20
18.21466735064282
 30
0.0
 11
152.020214454799
 21
26.71466735064285
 31
0.0
  0
MTEXT
  5
185
330
A
100
AcDbEntity
  8
TEMPLATE
390
1D
100
AcDbMText
 10
127.620214454799
 20
34.37317516314283
 30
0.0
 40
1.628841145833333
 41
0.0
 46
0.0
 71
     1
 72
     1
  1
品番
  7
ＭＳ ゴシック
 73
     1
 44
0.7828267384257843
  0
MTEXT
  5
186
330
A
100
AcDbEntity
  8
TEMPLATE
390
1D
100
AcDbMText
 10
127.620214454799
 20
25.87317516314281
 30
0.0
 40
1.628841145833333
 41
0.0
 46
0.0
 71
     1
 72
     1
  1
重量
  7
ＭＳ ゴシック
 73
     1
 44
0.7828267384257843
  0
MTEXT
  5
187
330
A
100
AcDbEntity
  8
TEMPLATE
390
1D
100
AcDbMText
 10
132.920214454799
 20
31.51492906939282
 30
0.0
 40
2.44326171875
 41
0.0
 46
2.44326171875
 71
     1
 72
     1
  1
{BRS73-0202}
  7
ＭＳ ゴシック
 73
     1
 44
0.7828267384257843
1001
ACAD
1000
ACAD_MTEXT_DEFINED_HEIGHT_BEGIN
1070
    46
1040
2.44326171875
1000
ACAD_MTEXT_DEFINED_HEIGHT_END
  0
LINE
  5
188
330
A
100
AcDbEntity
  8
TEMPLATE
390
1D
100
AcDbLine
 10
126.920214454799
 20
9.714667350642825
 30
0.0
 11
126.920214454799
 21
35.21466735064281
 31
0.0
  0
MTEXT
  5
189
330
A
100
AcDbEntity
  8
TEMPLATE
390
1D
100
AcDbMText
 10
13.22021445477307
 20
31.51492906939282
 30
0.0
 40
2.44326171875
 41
0.0
 46
2.75355595703125
 71
     1
 72
     1
  1
{排水栓　-CLOU, Mini Wash Me-}
  7
ＭＳ ゴシック
 73
     1
 44
0.7828267384257843
1001
ACAD
1000
ACAD_MTEXT_DEFINED_HEIGHT_BEGIN
1070
    46
1040
2.75355595703125
1000
ACAD_MTEXT_DEFINED_HEIGHT_END
  0
INSERT
  5
6B5
330
A
100
AcDbEntity
  8
TEMPLATE
100
AcDbBlockReference
  2
名称未設定-1
 10
187.075074808845
 20
2.594676575665381
 30
0.0
 41
0.0762
 42
0.0762
 43
0.0762
  0
INSERT
  5
68C
330
A
100
AcDbEntity
  8
TEMPLATE
100
AcDbBlockReference
  2
block 2
 10
919.2743017702577
 20
8.373076514336368
 30
0.0
 41
0.3809999999999999
 42
0.3809999999999999
 43
0.3809999999999999
  0
LWPOLYLINE
  5
1AB4
330
A
100
AcDbEntity
  8
drawingBounds
 48
0.5
100
AcDbPolyline
 90
        4
 70
     1
 43
0.0
 10
0.0
 20
0.0
 10
0.0
 20
297.0
 10
209.9999999999995
 20
297.0
 10
209.9999999999995
 20
0.0
  0
MTEXT
  5
1C73
330
A
100
AcDbEntity
  8
TEMPLATE
390
1D
100
AcDbMText
 10
12.95094088674023
 20
23.96813871279344
 30
0.0
 40
2.0
 41
0.0
 46
2.6
 71
     1
 72
     1
  1
{\fMS Gothic|b0|i0|c1|p0;※ \H1.3x;BRS73-0201-020と組み合わせてご使用ください\fYu Gothic|b0|i0|c1|p0;。}
  7
ＭＳ ゴシック
 73
     1
 44
0.9822934569727007
1001
ACAD
1000
ACAD_MTEXT_DEFINED_HEIGHT_BEGIN
1070
    46
1040
2.6
1000
ACAD_MTEXT_DEFINED_HEIGHT_END
  0
MTEXT
  5
1CC2
330
A
100
AcDbEntity
  8
TEMPLATE
390
1D
100
AcDbMText
 10
132.8737119342151
 20
60.99986965330376
 30
0.0
 40
2.0
 41
0.0
 46
23.88302490107518
 71
     1
 72
     1
  1
{\fMS Gothic|b0|i0|c1|p0;\H1.3x;BRS73-0202-022(ホワイト)\PBRS73-0202-023(ブラック)\PBRS73-0202-024(ブルー)\PBRS73-0202-025(グリーン)\PBRS73-0202-026(イエロー)\PBRS73-0202-027(オレンジ)}
  7
ＭＳ ゴシック
 73
     1
 44
0.9822934569727007
1001
ACAD
1000
ACAD_MTEXT_DEFINED_HEIGHT_BEGIN
1070
    46
1040
23.88302490107518
1000
ACAD_MTEXT_DEFINED_HEIGHT_END
  0
ARC
  5
1DD8
102
{ACAD_REACTORS
330
1EFE
102
}
330
A
100
AcDbEntity
  8
MODEL
100
AcDbCircle
 10
86.60116333323711
 20
106.2591993197856
 30
0.0
 40
3.000000000000114
100
AcDbArc
 50
270.0
 51
80.00000000000074
  0
ARC
  5
1DD9
330
A
100
AcDbEntity
  8
MODEL
100
AcDbCircle
 10
37.60116333323688
 20
106.2591993197856
 30
0.0
 40
3.000000000000114
100
AcDbArc
 50
100.0000000000004
 51
270.0
  0
LINE
  5
1DDA
330
A
100
AcDbEntity
  8
MODEL
100
AcDbLine
 10
69.69242961988041
 20
112.2869451187225
 30
0.0
 11
68.90657062256972
 21
112.4255132629809
 31
0.0
  0
LINE
  5
1DDB
330
A
100
AcDbEntity
  8
MODEL
100
AcDbLine
 10
74.15760700683589
 20
111.4996138717533
 30
0.0
 11
73.29891904780519
 21
111.6510237269394
 31
0.0
  0
LINE
  5
1DDC
330
A
100
AcDbEntity
  8
MODEL
100
AcDbLine
 10
76.56193329211831
 20
111.0756662772309
 30
0.0
 11
75.70324533308874
 21
111.2270761324179
 31
0.0
  0
LINE
  5
1DDD
330
A
100
AcDbEntity
  8
MODEL
100
AcDbLine
 10
81.62819225039382
 20
110.1823481316314
 30
0.0
 11
80.76950429136357
 21
110.3337579868179
 31
0.0
  0
LINE
  5
1DDE
330
A
100
AcDbEntity
  8
MODEL
100
AcDbLine
 10
84.07545293362799
 20
109.7508300443496
 30
0.0
 11
83.00209298484063
 21
109.9400923633329
 31
0.0
  0
LINE
  5
1DDF
330
A
100
AcDbEntity
  8
MODEL
100
AcDbLine
 10
87.12210786623794
 20
109.2136225788221
 30
0.0
 11
85.44935366807616
 21
109.5085742760511
 31
0.0
  0
LINE
  5
1DE0
330
A
100
AcDbEntity
  8
MODEL
100
AcDbLine
 10
55.29575604390428
 20
112.4255132629809
 30
0.0
 11
37.08021880023605
 21
109.2136225788221
 31
0.0
  0
LINE
  5
1DE1
330
A
100
AcDbEntity
  8
MODEL
100
AcDbLine
 10
64.10116333323711
 20
103.2591993197856
 30
0.0
 11
64.10116333323711
 21
101.2591993197856
 31
0.0
  0
LINE
  5
1DE2
330
A
100
AcDbEntity
  8
MODEL
100
AcDbLine
 10
74.10116333323711
 20
101.2591993197856
 30
0.0
 11
74.10116333323711
 21
103.2591993197856
 31
0.0
  0
ARC
  5
1DE3
330
A
100
AcDbEntity
  8
MODEL
100
AcDbCircle
 10
69.10116333323711
 20
101.2591993197856
 30
0.0
 40
5.0
100
AcDbArc
 50
180.0
 51
0.0
  0
LINE
  5
1DE4
330
A
100
AcDbEntity
  8
MODEL
100
AcDbLine
 10
50.10116333323734
 20
103.2591993197856
 30
0.0
 11
50.10116333323734
 21
101.2591993197856
 31
0.0
  0
LINE
  5
1DE5
330
A
100
AcDbEntity
  8
MODEL
100
AcDbLine
 10
60.10116333323688
 20
101.2591993197856
 30
0.0
 11
60.10116333323688
 21
103.2591993197856
 31
0.0
  0
ARC
  5
1DE6
330
A
100
AcDbEntity
  8
MODEL
100
AcDbCircle
 10
55.10116333323734
 20
101.2591993197856
 30
0.0
 40
5.0
100
AcDbArc
 50
180.0
 51
0.0
  0
ARC
  5
1DE7
330
A
100
AcDbEntity
  8
MODEL
100
AcDbCircle
 10
69.60116333323666
 20
116.3647442750297
 30
0.0
 40
3.999999999999538
100
AcDbArc
 50
180.0
 51
260.000000000011
  0
ARC
  5
1DE8
330
A
100
AcDbEntity
  8
MODEL
100
AcDbCircle
 10
54.60116333323734
 20
116.3647442750297
 30
0.0
 40
3.999999999999773
100
AcDbArc
 50
279.9999999999892
 51
0.0
  0
LINE
  5
1DE9
330
A
100
AcDbEntity
  8
MODEL
100
AcDbLine
 10
81.10116333323688
 20
101.2591993197856
 30
0.0
 11
81.10116333323688
 21
103.2591993197856
 31
0.0
  0
ARC
  5
1DEA
330
A
100
AcDbEntity
  8
MODEL
100
AcDbCircle
 10
76.10116333323688
 20
101.2591993197856
 30
0.0
 40
5.000000000000418
100
AcDbArc
 50
225.5729959991981
 51
0.0
  0
LINE
  5
1DEB
330
A
100
AcDbEntity
  8
MODEL
100
AcDbLine
 10
43.10116333323688
 20
103.2591993197856
 30
0.0
 11
43.10116333323688
 21
101.2591993197856
 31
0.0
  0
ARC
  5
1DEC
330
A
100
AcDbEntity
  8
MODEL
100
AcDbCircle
 10
48.10116333323688
 20
101.2591993197856
 30
0.0
 40
5.000000000000418
100
AcDbArc
 50
180.0
 51
314.4270040008037
  0
LINE
  5
1DED
330
A
100
AcDbEntity
  8
MODEL
100
AcDbLine
 10
65.60116333323734
 20
116.3647442750297
 30
0.0
 11
65.60116333323734
 21
142.7591993197856
 31
0.0
  0
LINE
  5
1DEE
102
{ACAD_REACTORS
330
1F0D
102
}
330
A
100
AcDbEntity
  8
MODEL
100
AcDbLine
 10
58.60116333323688
 20
142.7591993197856
 30
0.0
 11
58.60116333323688
 21
116.3647442750297
 31
0.0
  0
ARC
  5
1DEF
102
{ACAD_REACTORS
330
1F0D
102
}
330
A
100
AcDbEntity
  8
MODEL
100
AcDbCircle
 10
62.10116333323734
 20
142.7591993197856
 30
0.0
 40
3.500000000000227
100
AcDbArc
 50
0.0
 51
180.0
  0
LINE
  5
1DF0
330
A
100
AcDbEntity
  8
MODEL
100
AcDbLine
 10
71.28147999055139
 20
112.2606093176404
 30
0.0
 11
69.7358416642974
 21
112.5331470569758
 31
0.0
  0
LINE
  5
1DF1
330
A
100
AcDbEntity
  8
MODEL
100
AcDbLine
 10
78.15098366278883
 20
111.0493304761484
 30
0.0
 11
76.6053453365353
 21
111.3218682154842
 31
0.0
  0
LINE
  5
1DF2
330
A
100
AcDbEntity
  8
MODEL
100
AcDbLine
 10
80.81291633578101
 20
110.5799599250703
 30
0.0
 11
79.2672780095277
 21
110.8524976644066
 31
0.0
  0
LINE
  5
1DF3
330
A
100
AcDbEntity
  8
MODEL
100
AcDbLine
 10
83.04550502925807
 20
110.1862943015862
 30
0.0
 11
81.67160429481012
 21
110.4285500698842
 31
0.0
  0
LINE
  5
1DF4
330
A
100
AcDbEntity
  8
MODEL
100
AcDbLine
 10
85.49276571249291
 20
109.7547762143048
 30
0.0
 11
84.11886497804542
 21
109.9970319826033
 31
0.0
  0
LINE
  5
1DF5
330
A
100
AcDbEntity
  8
MODEL
100
AcDbLine
 10
75.74665737750504
 20
111.4732780706703
 30
0.0
 11
74.20101905125287
 21
111.7458158100057
 31
0.0
  0
LINE
  5
1DF6
330
A
100
AcDbEntity
  8
MODEL
100
AcDbLine
 10
86.60116333323711
 20
103.2591993197856
 30
0.0
 11
37.60116333323688
 21
103.2591993197856
 31
0.0
  0
SPLINE
  5
1DF7
330
A
100
AcDbEntity
  8
MODEL
100
AcDbSpline
210
0.0
220
0.0
230
1.0
 70
     8
 71
     3
 72
    18
 73
    14
 74
     0
 42
0.000000001
 43
0.00000001
 40
0.0
 40
0.0
 40
0.0
 40
0.0
 40
0.1250000000000001
 40
0.1250000000000001
 40
0.2500000000000002
 40
0.2500000000000002
 40
0.3750000000000003
 40
0.3750000000000003
 40
0.5000000000000004
 40
0.5000000000000004
 40
0.7500000000000002
 40
0.7500000000000002
 40
1.0
 40
1.0
 40
1.0
 40
1.0
 10
71.14376069335006
 20
111.9816914978114
 30
0.0
 10
71.04850554852558
 20
111.9979833532738
 30
0.0
 10
70.95182371145054
 20
112.014920422147
 30
0.0
 10
70.76479711009554
 20
112.0485251888303
 30
0.0
 10
70.67396860865668
 20
112.0652667117246
 30
0.0
 10
70.49770898913746
 20
112.0986116768917
 30
0.0
 10
70.41253465174944
 20
112.1151788878055
 30
0.0
 10
70.25506778469756
 20
112.1466485305377
 30
0.0
 10
70.18175287588772
 20
112.1617426493116
 30
0.0
 10
69.9786557526252
 20
112.2048066654233
 30
0.0
 10
69.87254282603001
 20
112.2291177565643
 30
0.0
 10
69.72778930568464
 20
112.2652078485066
 30
0.0
 10
69.69060245233575
 20
112.276582736646
 30
0.0
 10
69.69120961126649
 20
112.2800261060492
 30
0.0
  0
SPLINE
  5
1DF8
330
A
100
AcDbEntity
  8
MODEL
100
AcDbSpline
210
0.0
220
0.0
230
1.0
 70
     8
 71
     3
 72
     8
 73
     4
 74
     0
 42
0.000000001
 43
0.00000001
 40
0.0
 40
0.0
 40
0.0
 40
0.0
 40
1.0
 40
1.0
 40
1.0
 40
1.0
 10
73.2920646178334
 20
111.6121503228555
 30
0.0
 10
72.57605135395445
 20
111.7358893173713
 30
0.0
 10
71.85996986846956
 20
111.8591954753241
 30
0.0
 10
71.14376069335006
 20
111.9816914978114
 30
0.0
  0
SPLINE
  5
1DF9
330
A
100
AcDbEntity
  8
MODEL
100
AcDbSpline
210
0.0
220
0.0
230
1.0
 70
     8
 71
     3
 72
     8
 73
     4
 74
     0
 42
0.000000001
 43
0.00000001
 40
0.0
 40
0.0
 40
0.0
 40
0.0
 40
1.0
 40
1.0
 40
1.0
 40
1.0
 10
74.15123255906704
 20
111.4634625820117
 30
0.0
 10
74.66671292714776
 20
111.3741365628461
 30
0.0
 10
75.18216061379874
 20
111.2846226431924
 30
0.0
 10
75.69758537970259
 20
111.1949769416801
 30
0.0
  0
SPLINE
  5
1DFA
330
A
100
AcDbEntity
  8
MODEL
100
AcDbSpline
210
0.0
220
0.0
230
1.0
 70
     8
 71
     3
 72
    18
 73
    14
 74
     0
 42
0.000000001
 43
0.00000001
 40
0.0
 40
0.0
 40
0.0
 40
0.0
 40
0.1250000000000015
 40
0.1250000000000015
 40
0.2500000000000009
 40
0.2500000000000009
 40
0.3750000000000002
 40
0.3750000000000002
 40
0.4999999999999996
 40
0.4999999999999996
 40
0.7499999999999998
 40
0.7499999999999998
 40
1.0
 40
1.0
 40
1.0
 40
1.0
 10
78.01685872269084
 20
110.7907972684088
 30
0.0
 10
77.9216714903528
 20
110.8074136264653
 30
0.0
 10
77.82503385561566
 20
110.8245218958076
 30
0.0
 10
77.63803044517866
 20
110.8581092950784
 30
0.0
 10
77.54718009598449
 20
110.8746677648195
 30
0.0
 10
77.37080782232354
 20
110.9072834679341
 30
0.0
 10
77.28553850998517
 20
110.9233004932457
 30
0.0
 10
77.1278227655462
 20
110.9533689007903
 30
0.0
 10
77.05435362619349
 20
110.96760845691
 30
0.0
 10
76.85072011530136
 20
111.0077144402893
 30
0.0
 10
76.74415440876695
 20
111.0296210777287
 30
0.0
 10
76.59854229802343
 20
111.0610376890544
 30
0.0
 10
76.56097180188775
 20
111.0702133951653
 30
0.0
 10
76.56129168119472
 20
111.0720275208618
 30
0.0
  0
LINE
  5
1DFB
330
A
100
AcDbEntity
  8
MODEL
100
AcDbLine
 10
79.30525019685231
 20
110.5657215134383
 30
0.0
 11
78.01685872269084
 21
110.7907972684088
 31
0.0
  0
SPLINE
  5
1DFC
330
A
100
AcDbEntity
  8
MODEL
100
AcDbSpline
210
0.0
220
0.0
230
1.0
 70
     8
 71
     3
 72
    18
 73
    14
 74
     0
 42
0.000000001
 43
0.00000001
 40
0.0
 40
0.0
 40
0.0
 40
0.0
 40
0.1250000000000001
 40
0.1250000000000001
 40
0.2500000000000002
 40
0.2500000000000002
 40
0.3750000000000002
 40
0.3750000000000002
 40
0.5000000000000003
 40
0.5000000000000003
 40
0.7500000000000001
 40
0.7500000000000001
 40
1.0
 40
1.0
 40
1.0
 40
1.0
 10
80.7690071528414
 20
110.3309385741508
 30
0.0
 10
80.76888308636128
 20
110.3302349581804
 30
0.0
 10
80.75926824620731
 20
110.3310801071733
 30
0.0
 10
80.7218342107349
 20
110.3357480190343
 30
0.0
 10
80.69356163037608
 20
110.3396371321459
 30
0.0
 10
80.61984585267649
 20
110.3502993100928
 30
0.0
 10
80.57476984465305
 20
110.3570142822499
 30
0.0
 10
80.46833541448089
 20
110.3732391798771
 30
0.0
 10
80.40641620322188
 20
110.3828401416776
 30
0.0
 10
80.20362453414148
 20
110.4148011341903
 30
0.0
 10
80.04026208932694
 20
110.4411868323672
 30
0.0
 10
79.68816528401842
 20
110.4996824425138
 30
0.0
 10
79.4957798131193
 20
110.532413934321
 30
0.0
 10
79.30525019685231
 20
110.5657215134383
 30
0.0
  0
SPLINE
  5
1DFD
330
A
100
AcDbEntity
  8
MODEL
100
AcDbSpline
210
0.0
220
0.0
230
1.0
 70
     8
 71
     3
 72
    18
 73
    14
 74
     0
 42
0.000000001
 43
0.00000001
 40
0.0
 40
0.0
 40
0.0
 40
0.0
 40
0.1250000000000007
 40
0.1250000000000007
 40
0.2500000000000015
 40
0.2500000000000015
 40
0.3750000000000022
 40
0.3750000000000022
 40
0.500000000000003
 40
0.500000000000003
 40
0.7500000000000014
 40
0.7500000000000014
 40
1.0
 40
1.0
 40
1.0
 40
1.0
 10
83.08427970130063
 20
109.9040692676084
 30
0.0
 10
82.98910677233292
 20
109.9207537282627
 30
0.0
 10
82.89247459303877
 20
109.9378768155597
 30
0.0
 10
82.70546124899013
 20
109.9713791150693
 30
0.0
 10
82.61459548013616
 20
109.9878392715204
 30
0.0
 10
82.43817193958446
 20
110.020148609195
 30
0.0
 10
82.35286564427227
 20
110.0359565329335
 30
0.0
 10
82.19506091715951
 20
110.0655255973187
 30
0.0
 10
82.12153948591802
 20
110.0794733825964
 30
0.0
 10
81.91773119347229
 20
110.1186048027884
 30
0.0
 10
81.81102794271013
 20
110.1397622778103
 30
0.0
 10
81.66516195212446
 20
110.169771544266
 30
0.0
 10
81.627479923126
 20
110.1783083229497
 30
0.0
 10
81.6277169562525
 20
110.1796526046095
 30
0.0
  0
LINE
  5
1DFE
330
A
100
AcDbEntity
  8
MODEL
100
AcDbLine
 10
83.98605295473865
 20
109.7459446959928
 30
0.0
 11
83.08427970130063
 21
109.9040692676084
 31
0.0
  0
SPLINE
  5
1DFF
330
A
100
AcDbEntity
  8
MODEL
100
AcDbSpline
210
0.0
220
0.0
230
1.0
 70
     8
 71
     3
 72
    18
 73
    14
 74
     0
 42
0.000000001
 43
0.00000001
 40
0.0
 40
0.0
 40
0.0
 40
0.0
 40
0.125
 40
0.125
 40
0.2500000000000001
 40
0.2500000000000001
 40
0.3750000000000001
 40
0.3750000000000001
 40
0.5000000000000001
 40
0.5000000000000001
 40
0.75
 40
0.75
 40
1.0
 40
1.0
 40
1.0
 40
1.0
 10
85.44895611521977
 20
109.5063196417654
 30
0.0
 10
85.44885688773505
 20
109.505756894734
 30
0.0
 10
85.43927138834854
 20
109.5067672322047
 30
0.0
 10
85.40190417693205
 20
109.5118120906122
 30
0.0
 10
85.37366954493248
 20
109.515915637643
 30
0.0
 10
85.30003469836723
 20
109.5270377988672
 30
0.0
 10
85.25500145863091
 20
109.5339969942246
 30
0.0
 10
85.14865549369418
 20
109.5507300767917
 30
0.0
 10
85.08678220073173
 20
109.56059667635
 30
0.0
 10
84.8841244276471
 20
109.5933330013958
 30
0.0
 10
84.72084967735353
 20
109.620226923957
 30
0.0
 10
84.36889230525915
 20
109.6795131235394
 30
0.0
 10
84.17656051517523
 20
109.7125318653015
 30
0.0
 10
83.98605295473865
 20
109.7459446959928
 30
0.0
  0
LINE
  5
1E00
330
A
100
AcDbEntity
  8
MODEL
100
AcDbLine
 10
69.69120961126649
 20
112.2800261060492
 30
0.0
 11
69.7346285585759
 21
112.5262671925515
 31
0.0
  0
SPLINE
  5
1E01
330
A
100
AcDbEntity
  8
MODEL
100
AcDbSpline
210
0.0
220
0.0
230
1.0
 70
     8
 71
     3
 72
    18
 73
    14
 74
     0
 42
0.000000001
 43
0.00000001
 40
0.0
 40
0.0
 40
0.0
 40
0.0
 40
0.1250000000000005
 40
0.1250000000000005
 40
0.250000000000001
 40
0.250000000000001
 40
0.3750000000000015
 40
0.3750000000000015
 40
0.500000000000002
 40
0.500000000000002
 40
0.7500000000000012
 40
0.7500000000000012
 40
1.0
 40
1.0
 40
1.0
 40
1.0
 10
71.18721188900534
 20
112.2281154737706
 30
0.0
 10
71.09195767088252
 20
112.2444117689792
 30
0.0
 10
70.99527653688395
 20
112.2613517206377
 30
0.0
 10
70.80825063938485
 20
112.294958346265
 30
0.0
 10
70.71742212283905
 20
112.311698909581
 30
0.0
 10
70.54116168579097
 20
112.345037853267
 30
0.0
 10
70.45598649943511
 20
112.3615999525227
 30
0.0
 10
70.29851718480612
 20
112.3930557018465
 30
0.0
 10
70.22520068004454
 20
112.4081410107678
 30
0.0
 10
70.02209780092497
 20
112.4511735490741
 30
0.0
 10
69.91597973034371
 20
112.4754578451315
 30
0.0
 10
69.77121621093627
 20
112.5114943080065
 30
0.0
 10
69.73402481808719
 20
112.5228432100966
 30
0.0
 10
69.7346285585759
 20
112.5262671925515
 30
0.0
  0
LWPOLYLINE
  5
1E02
330
A
100
AcDbEntity
  8
MODEL
100
AcDbPolyline
 90
        2
 70
   128
 43
0.0
 10
71.28047036098022
 20
112.2548834238109
 10
71.28047036098022
 20
112.2548834238109
  0
SPLINE
  5
1E03
330
A
100
AcDbEntity
  8
MODEL
100
AcDbSpline
210
0.0
220
0.0
230
1.0
 70
     8
 71
     3
 72
    20
 73
    16
 74
     0
 42
0.000000001
 43
0.00000001
 40
0.0000001972021737
 40
0.0000001972021737
 40
0.0000001972021737
 40
0.0000001972021737
 40
0.0000585665225107
 40
0.0000585665225107
 40
0.0000585665225107
 40
0.0001171331663295
 40
0.0001171331663295
 40
0.0001171331663295
 40
0.0001756976382726
 40
0.0001756976382726
 40
0.0001756976382726
 40
0.0002342545351197
 40
0.0002342545351197
 40
0.0002342545351197
 40
0.0002728846998358
 40
0.0002728846998358
 40
0.0002728846998358
 40
0.0002728846998358
 10
71.28047036098022
 20
112.2548834238109
 30
0.0
 10
71.28042038753941
 20
112.2546000103415
 30
0.0
 10
71.28366449163221
 20
112.2537225063201
 30
0.0
 10
71.28993626738432
 20
112.2523256510462
 30
0.0
 10
71.29622923805212
 20
112.2509240752214
 30
0.0
 10
71.30574431844892
 20
112.248961125434
 30
0.0
 10
71.3176946311776
 20
112.2466042132791
 30
0.0
 10
71.3296444835785
 20
112.2442473919127
 30
0.0
 10
71.34435911425228
 20
112.2414318738515
 30
0.0
 10
71.36062086912969
 20
112.2383957932324
 30
0.0
 10
71.37688053702234
 20
112.235360102255
 30
0.0
 10
71.39513553044574
 20
112.2320203564399
 30
0.0
 10
71.41387435823643
 20
112.2286560172997
 30
0.0
 10
71.42625692433197
 20
112.226432871208
 30
0.0
 10
71.43903407174574
 20
112.2241656003411
 30
0.0
 10
71.45173817600633
 20
112.2219372162626
 30
0.0
  0
SPLINE
  5
1E04
330
A
100
AcDbEntity
  8
MODEL
100
AcDbSpline
210
0.0
220
0.0
230
1.0
 70
     8
 71
     3
 72
     8
 73
     4
 74
     0
 42
0.000000001
 43
0.00000001
 40
0.0
 40
0.0
 40
0.0
 40
0.0
 40
1.0
 40
1.0
 40
1.0
 40
1.0
 10
71.45173817600633
 20
112.2219372162626
 30
0.0
 10
72.08154169615639
 20
112.1114655050382
 30
0.0
 10
72.71132606314907
 20
112.0008841696016
 30
0.0
 10
73.34109937394626
 20
111.8902402437242
 30
0.0
  0
SPLINE
  5
1E05
330
A
100
AcDbEntity
  8
MODEL
100
AcDbSpline
210
0.0
220
0.0
230
1.0
 70
    24
 71
     3
 72
     8
 73
     4
 74
     0
 42
0.000000001
 43
0.00000001
 40
0.0
 40
0.0
 40
0.0
 40
0.0
 40
1.0
 40
1.0
 40
1.0
 40
1.0
 10
73.34109937394626
 20
111.8902402437242
 30
0.0
 10
73.33998126333566
 20
111.8838991233492
 30
0.0
 10
73.33810394829882
 20
111.8732523407106
 30
0.0
 10
73.33550264052772
 20
111.8584995912415
 30
0.0
  0
SPLINE
  5
1E06
330
A
100
AcDbEntity
  8
MODEL
100
AcDbSpline
210
0.0
220
0.0
230
1.0
 70
     8
 71
     3
 72
     8
 73
     4
 74
     0
 42
0.000000001
 43
0.00000001
 40
0.0
 40
0.0
 40
0.0
 40
0.0
 40
1.0
 40
1.0
 40
1.0
 40
1.0
 10
73.33550264052772
 20
111.8584995912415
 30
0.0
 10
72.61949915927929
 20
111.9822557229631
 30
0.0
 10
71.90341260994231
 20
112.1055863238025
 30
0.0
 10
71.18721188900534
 20
112.2281154737706
 30
0.0
  0
LWPOLYLINE
  5
1E07
330
A
100
AcDbEntity
  8
MODEL
100
AcDbPolyline
 90
        2
 70
   128
 43
0.0
 10
69.7346285585759
 20
112.5262671925515
 10
69.7346285585759
 20
112.5262671925515
  0
SPLINE
  5
1E08
330
A
100
AcDbEntity
  8
MODEL
100
AcDbSpline
210
0.0
220
0.0
230
1.0
 70
     8
 71
     3
 72
    18
 73
    14
 74
     0
 42
0.000000001
 43
0.00000001
 40
0.0
 40
0.0
 40
0.0
 40
0.0
 40
0.1249999999999999
 40
0.1249999999999999
 40
0.2499999999999999
 40
0.2499999999999999
 40
0.3749999999999998
 40
0.3749999999999998
 40
0.4999999999999998
 40
0.4999999999999998
 40
0.7499999999999999
 40
0.7499999999999999
 40
1.0
 40
1.0
 40
1.0
 40
1.0
 10
80.81242034968707
 20
110.5771470481531
 30
0.0
 10
80.81229659866588
 20
110.5764452212392
 30
0.0
 10
80.80268639057434
 20
110.5772917454096
 30
0.0
 10
80.76526995921952
 20
110.5819615977602
 30
0.0
 10
80.73701093914931
 20
110.5858512177487
 30
0.0
 10
80.66332787504237
 20
110.5965137778139
 30
0.0
 10
80.61827169324809
 20
110.6032285208211
 30
0.0
 10
80.5118848027187
 20
110.6194518134065
 30
0.0
 10
80.44999163248897
 20
110.6290516702478
 30
0.0
 10
80.24728129621761
 20
110.6610083213531
 30
0.0
 10
80.083983059129
 20
110.6873890492074
 30
0.0
 10
79.73200599145551
 20
110.7458724710431
 30
0.0
 10
79.53977015224476
 20
110.7785787859606
 30
0.0
 10
79.34867343543786
 20
110.811986936977
 30
0.0
  0
LINE
  5
1E09
330
A
100
AcDbEntity
  8
MODEL
100
AcDbLine
 10
80.7690071528414
 20
110.3309385741508
 30
0.0
 11
80.81242034968707
 21
110.5771470481531
 31
0.0
  0
SPLINE
  5
1E0A
330
A
100
AcDbEntity
  8
MODEL
100
AcDbSpline
210
0.0
220
0.0
230
1.0
 70
     8
 71
     3
 72
    23
 73
    19
 74
     0
 42
0.000000001
 43
0.00000001
 40
0.0002728739412111
 40
0.0002728739412111
 40
0.0002728739412111
 40
0.0002728739412111
 40
0.0002927829925415
 40
0.0002927829925415
 40
0.0002927829925415
 40
0.0003513341512647
 40
0.0003513341512647
 40
0.0003513341512647
 40
0.0004098857793748
 40
0.0004098857793748
 40
0.0004098857793748
 40
0.0004684398180858
 40
0.0004684398180858
 40
0.0004684398180858
 40
0.0005269966377768
 40
0.0005269966377768
 40
0.0005269966377768
 40
0.0005453108782458
 40
0.0005453108782458
 40
0.0005453108782458
 40
0.0005453108782458
 10
78.32186694583336
 20
111.0142034793657
 30
0.0
 10
78.31529044016591
 20
111.0153610728479
 30
0.0
 10
78.30870379575484
 20
111.0165244560398
 30
0.0
 10
78.30217204868543
 20
111.0176821419426
 30
0.0
 10
78.28308128835218
 20
111.021065785534
 30
0.0
 10
78.26411386120483
 20
111.0244630166962
 30
0.0
 10
78.24684018528572
 20
111.0275912258057
 30
0.0
 10
78.22956636105076
 20
111.0307194617744
 30
0.0
 10
78.21350988578345
 20
111.033664847267
 30
0.0
 10
78.19999972813733
 20
111.0361808145239
 30
0.0
 10
78.18648901796476
 20
111.0386968846773
 30
0.0
 10
78.17515218039446
 20
111.0408527505978
 30
0.0
 10
78.16692732200434
 20
111.042467006423
 30
0.0
 10
78.1587020801426
 20
111.0440813375107
 30
0.0
 10
78.1533622302359
 20
111.0451984086271
 30
0.0
 10
78.15134959411674
 20
111.0457239001056
 30
0.0
 10
78.15071198236731
 20
111.0458903780586
 30
0.0
 10
78.15039639464456
 20
111.0459999130007
 30
0.0
 10
78.15040550093298
 20
111.046051557329
 30
0.0
  0
LWPOLYLINE
  5
1E0B
330
A
100
AcDbEntity
  8
MODEL
100
AcDbPolyline
 90
        3
 70
   128
 43
0.0
 10
79.09472489925545
 20
110.8781546003942
 10
78.78582235443358
 20
110.9325343066952
 10
78.32186694583336
 20
111.0142034793657
  0
SPLINE
  5
1E0C
330
A
100
AcDbEntity
  8
MODEL
100
AcDbSpline
210
0.0
220
0.0
230
1.0
 70
     8
 71
     3
 72
    20
 73
    16
 74
     0
 42
0.000000001
 43
0.00000001
 40
0.0000001971867495
 40
0.0000001971867495
 40
0.0000001971867495
 40
0.0000001971867495
 40
0.0000585578753428
 40
0.0000585578753428
 40
0.0000585578753428
 40
0.0001171157685584
 40
0.0001171157685584
 40
0.0001171157685584
 40
0.000175673289489
 40
0.000175673289489
 40
0.000175673289489
 40
0.0002342288600358
 40
0.0002342288600358
 40
0.0002342288600358
 40
0.0002728734144529
 40
0.0002728734144529
 40
0.0002728734144529
 40
0.0002728734144529
 10
79.26673740678646
 20
110.8494317539107
 30
0.0
 10
79.26671061791424
 20
110.8492798266679
 30
0.0
 10
79.26338640644897
 20
110.8497004382538
 30
0.0
 10
79.25703836622327
 20
110.8506596419801
 30
0.0
 10
79.25066887770484
 20
110.8516220865949
 30
0.0
 10
79.24107911789272
 20
110.8531534461339
 30
0.0
 10
79.22906355140597
 20
110.8551291002117
 30
0.0
 10
79.21704806688948
 20
110.8571047408117
 30
0.0
 10
79.20227540296335
 20
110.8595792891301
 30
0.0
 10
79.1859693721224
 20
110.8623506042249
 30
0.0
 10
79.16966388242398
 20
110.8651218273493
 30
0.0
 10
79.15137539137075
 20
110.8682663624394
 30
0.0
 10
79.13261884260876
 20
110.8715259657865
 30
0.0
 10
79.12021972045207
 20
110.8736807449299
 30
0.0
 10
79.1074323079429
 20
110.8759175017484
 30
0.0
 10
79.09472489925477
 20
110.8781546003942
 30
0.0
  0
LWPOLYLINE
  5
1E0D
330
A
100
AcDbEntity
  8
MODEL
100
AcDbPolyline
 90
        2
 70
   128
 43
0.0
 10
79.26673740678646
 20
110.8494317539107
 10
79.26673740678646
 20
110.8494317539107
  0
LWPOLYLINE
  5
1E0E
330
A
100
AcDbEntity
  8
MODEL
100
AcDbPolyline
 90
        2
 70
   128
 43
0.0
 10
78.15040550093298
 20
111.046051557329
 10
78.15040550093298
 20
111.046051557329
  0
LWPOLYLINE
  5
1E0F
330
A
100
AcDbEntity
  8
MODEL
100
AcDbPolyline
 90
        2
 70
   128
 43
0.0
 10
76.60470564335768
 20
111.3182403351988
 10
76.60470564335768
 20
111.3182403351988
  0
LWPOLYLINE
  5
1E10
330
A
100
AcDbEntity
  8
MODEL
100
AcDbPolyline
 90
        2
 70
   128
 43
0.0
 10
80.81242034968707
 20
110.5771470481531
 10
80.81242034968707
 20
110.5771470481531
  0
LWPOLYLINE
  5
1E11
330
A
100
AcDbEntity
  8
MODEL
100
AcDbPolyline
 90
        3
 70
   128
 43
0.0
 10
79.34867343543786
 20
110.811986936977
 10
78.5998829969233
 20
110.9428425117061
 10
78.06028381681884
 20
111.0370732152523
  0
SPLINE
  5
1E12
330
A
100
AcDbEntity
  8
MODEL
100
AcDbSpline
210
0.0
220
0.0
230
1.0
 70
     8
 71
     3
 72
    18
 73
    14
 74
     0
 42
0.000000001
 43
0.00000001
 40
0.0
 40
0.0
 40
0.0
 40
0.0
 40
0.1250000000000016
 40
0.1250000000000016
 40
0.2500000000000008
 40
0.2500000000000008
 40
0.3750000000000001
 40
0.3750000000000001
 40
0.4999999999999993
 40
0.4999999999999993
 40
0.7499999999999997
 40
0.7499999999999997
 40
1.0
 40
1.0
 40
1.0
 40
1.0
 10
78.06028381681884
 20
111.0370732152523
 30
0.0
 10
77.96509676628696
 20
111.0536904395198
 30
0.0
 10
77.86845921674924
 20
111.0707989851084
 30
0.0
 10
77.68145574085023
 20
111.1043856399141
 30
0.0
 10
77.59060524007148
 20
111.1209431074703
 30
0.0
 10
77.4142324279974
 20
111.153555549597
 30
0.0
 10
77.32896271516009
 20
111.1695703037321
 30
0.0
 10
77.1712459907749
 20
111.1996332133976
 30
0.0
 10
77.0977762690691
 20
111.2138695266898
 30
0.0
 10
76.89414079538463
 20
111.2539645943001
 30
0.0
 10
76.78757351980678
 20
111.275862735576
 30
0.0
 10
76.6419584979208
 20
111.3072632722105
 30
0.0
 10
76.60438671886962
 20
111.3164316245451
 30
0.0
 10
76.60470564335768
 20
111.3182403351988
 30
0.0
  0
LINE
  5
1E13
330
A
100
AcDbEntity
  8
MODEL
100
AcDbLine
 10
76.56129168119472
 20
111.0720275208618
 30
0.0
 11
76.60470564335768
 21
111.3182403351988
 31
0.0
  0
SPLINE
  5
1E14
330
A
100
AcDbEntity
  8
MODEL
100
AcDbSpline
210
0.0
220
0.0
230
1.0
 70
     8
 71
     3
 72
    18
 73
    14
 74
     0
 42
0.000000001
 43
0.00000001
 40
0.0
 40
0.0
 40
0.0
 40
0.0
 40
0.1249999999999999
 40
0.1249999999999999
 40
0.2499999999999998
 40
0.2499999999999998
 40
0.3749999999999997
 40
0.3749999999999997
 40
0.4999999999999996
 40
0.4999999999999996
 40
0.7499999999999998
 40
0.7499999999999998
 40
1.0
 40
1.0
 40
1.0
 40
1.0
 10
85.4923688970571
 20
109.7525257621395
 30
0.0
 10
85.49226987599789
 20
109.7519641858034
 30
0.0
 10
85.48268887677708
 20
109.7529751677002
 30
0.0
 10
85.44533896432407
 20
109.7580202848234
 30
0.0
 10
85.41711771674684
 20
109.7621233738113
 30
0.0
 10
85.34351520842986
 20
109.773243846555
 30
0.0
 10
85.29850159502942
 20
109.7802017069252
 30
0.0
 10
85.19220275223714
 20
109.7969308655965
 30
0.0
 10
85.13035528399567
 20
109.8067951481457
 30
0.0
 10
84.92777820936593
 20
109.8395235848874
 30
0.0
 10
84.76456724280209
 20
109.8664101872909
 30
0.0
 10
84.41272892576674
 20
109.9256805673048
 30
0.0
 10
84.22054644570701
 20
109.9586731091035
 30
0.0
 10
84.02947195394543
 20
109.9921860768199
 30
0.0
  0
LINE
  5
1E15
330
A
100
AcDbEntity
  8
MODEL
100
AcDbLine
 10
85.44895611521977
 20
109.5063196417654
 30
0.0
 11
85.4923688970571
 21
109.7525257621395
 31
0.0
  0
LINE
  5
1E16
330
A
100
AcDbEntity
  8
MODEL
100
AcDbLine
 10
83.04422714875366
 20
110.1790470811147
 30
0.0
 11
83.04506187651808
 21
110.183781057507
 31
0.0
  0
SPLINE
  5
1E17
330
A
100
AcDbEntity
  8
MODEL
100
AcDbSpline
210
0.0
220
0.0
230
1.0
 70
     8
 71
     3
 72
    20
 73
    16
 74
     0
 42
0.000000001
 43
0.00000001
 40
0.0000001971847228
 40
0.0000001971847228
 40
0.0000001971847228
 40
0.0000001971847228
 40
0.000058556575474
 40
0.000058556575474
 40
0.000058556575474
 40
0.0001171131701448
 40
0.0001171131701448
 40
0.0001171131701448
 40
0.0001756694077684
 40
0.0001756694077684
 40
0.0001756694077684
 40
0.0002342242320946
 40
0.0002342242320946
 40
0.0002342242320946
 40
0.0002728714084433
 40
0.0002728714084433
 40
0.0002728714084433
 40
0.0002728714084433
 10
83.04506187651808
 20
110.183781057507
 30
0.0
 10
83.04503991338518
 20
110.1836564983918
 30
0.0
 10
83.04831268585625
 20
110.1829446095516
 30
0.0
 10
83.05461111975276
 20
110.181704868341
 30
0.0
 10
83.06093083477234
 20
110.1804609382988
 30
0.0
 10
83.07047132126948
 20
110.1786513012502
 30
0.0
 10
83.08244292522298
 20
110.1764278450686
 30
0.0
 10
83.09441445267979
 20
110.1742044030947
 30
0.0
 10
83.10914729376103
 20
110.171505929089
 30
0.0
 10
83.12542181225152
 20
110.1685581285814
 30
0.0
 10
83.14169594043759
 20
110.1656103987702
 30
0.0
 10
83.1599605699071
 20
110.162332142986
 30
0.0
 10
83.1787033995893
 20
110.1589963024766
 30
0.0
 10
83.19109444305334
 20
110.156790950059
 30
0.0
 10
83.20387806179681
 20
110.1545275527541
 30
0.0
 10
83.21658611303931
 20
110.152289088523
 30
0.0
  0
LWPOLYLINE
  5
1E18
330
A
100
AcDbEntity
  8
MODEL
100
AcDbPolyline
 90
        3
 70
   128
 43
0.0
 10
83.21658611303931
 20
110.152289088523
 10
83.63750688444227
 20
110.0781443567834
 10
83.94649279230092
 20
110.0237149925751
  0
SPLINE
  5
1E19
330
A
100
AcDbEntity
  8
MODEL
100
AcDbSpline
210
0.0
220
0.0
230
1.0
 70
     8
 71
     3
 72
    23
 73
    19
 74
     0
 42
0.000000001
 43
0.00000001
 40
0.0000549622725771
 40
0.0000549622725771
 40
0.0000549622725771
 40
0.0000549622725771
 40
0.000058552574312
 40
0.000058552574312
 40
0.000058552574312
 40
0.0001171051464242
 40
0.0001171051464242
 40
0.0001171051464242
 40
0.0001756578429126
 40
0.0001756578429126
 40
0.0001756578429126
 40
0.0002342117713681
 40
0.0002342117713681
 40
0.0002342117713681
 40
0.0002927672304418
 40
0.0002927672304418
 40
0.0002927672304418
 40
0.000327353583508
 40
0.000327353583508
 40
0.000327353583508
 40
0.000327353583508
 10
83.94649279230092
 20
110.0237149925751
 30
0.0
 10
83.94768632774324
 20
110.0235047426244
 30
0.0
 10
83.94887994472313
 20
110.0232945759998
 30
0.0
 10
83.95007325412078
 20
110.0230845611563
 30
0.0
 10
83.9692911814241
 20
110.0197023285063
 30
0.0
 10
83.98870940989266
 20
110.016310999746
 30
0.0
 10
84.0067197529643
 20
110.0131904308682
 30
0.0
 10
84.02473014057207
 20
110.0100698542746
 30
0.0
 10
84.04182935978068
 20
110.0071338958095
 30
0.0
 10
84.05660117150686
 20
110.0046236947004
 30
0.0
 10
84.07137329251125
 20
110.0021134410348
 30
0.0
 10
84.08422531438103
 20
109.9999596252054
 30
0.0
 10
84.09409269423034
 20
109.998338484635
 30
0.0
 10
84.10396032760539
 20
109.9967173024115
 30
0.0
 10
84.11111530742758
 20
109.9955840232837
 30
0.0
 10
84.114964933528
 20
109.9950311603401
 30
0.0
 10
84.11725977746394
 20
109.9947015869897
 30
0.0
 10
84.11843091865788
 20
109.9945703094904
 30
0.0
 10
84.11844341572785
 20
109.9946411838991
 30
0.0
  0
LINE
  5
1E1A
330
A
100
AcDbEntity
  8
MODEL
100
AcDbLine
 10
84.11844341572785
 20
109.9946411838991
 30
0.0
 11
84.11764914544872
 21
109.9901366533058
 31
0.0
  0
LWPOLYLINE
  5
1E1B
330
A
100
AcDbEntity
  8
MODEL
100
AcDbPolyline
 90
        3
 70
   128
 43
0.0
 10
84.02947195394543
 20
109.9921860768199
 10
83.57388098636059
 20
110.0720841978609
 10
83.12769930532139
 20
110.1503140785025
  0
SPLINE
  5
1E1C
330
A
100
AcDbEntity
  8
MODEL
100
AcDbSpline
210
0.0
220
0.0
230
1.0
 70
     8
 71
     3
 72
    18
 73
    14
 74
     0
 42
0.000000001
 43
0.00000001
 40
0.0
 40
0.0
 40
0.0
 40
0.0
 40
0.1249999999999992
 40
0.1249999999999992
 40
0.2499999999999984
 40
0.2499999999999984
 40
0.3749999999999977
 40
0.3749999999999977
 40
0.4999999999999969
 40
0.4999999999999969
 40
0.7499999999999984
 40
0.7499999999999984
 40
1.0
 40
1.0
 40
1.0
 40
1.0
 10
83.12769930532139
 20
110.1503140785025
 30
0.0
 10
83.03252645685328
 20
110.1669989221736
 30
0.0
 10
82.9358942989684
 20
110.1841220412024
 30
0.0
 10
82.7488808633839
 20
110.2176236635045
 30
0.0
 10
82.65801498170984
 20
110.2340831211485
 30
0.0
 10
82.48159108618395
 20
110.26639036213
 30
0.0
 10
82.39628454193237
 20
110.2821968814932
 30
0.0
 10
82.23847922518055
 20
110.3117626353773
 30
0.0
 10
82.16495745114142
 20
110.3257085039681
 30
0.0
 10
81.96114802217633
 20
110.3648335704469
 30
0.0
 10
81.85444389098714
 20
110.3859862214075
 30
0.0
 10
81.70857628334673
 20
110.4159864891357
 30
0.0
 10
81.67089354608018
 20
110.424519213529
 30
0.0
 10
81.67113005419154
 20
110.425860517686
 30
0.0
  0
LINE
  5
1E1D
330
A
100
AcDbEntity
  8
MODEL
100
AcDbLine
 10
81.6277169562525
 20
110.1796526046095
 30
0.0
 11
81.67113005419154
 21
110.425860517686
 31
0.0
  0
LINE
  5
1E1E
330
A
100
AcDbEntity
  8
MODEL
100
AcDbLine
 10
73.2920646178334
 20
111.6121503228555
 30
0.0
 11
73.33550264052772
 21
111.8584995912415
 31
0.0
  0
LINE
  5
1E1F
330
A
100
AcDbEntity
  8
MODEL
100
AcDbLine
 10
74.15123255906704
 20
111.4634625820117
 30
0.0
 11
74.19466710505529
 21
111.7097921330186
 31
0.0
  0
SPLINE
  5
1E20
330
A
100
AcDbEntity
  8
MODEL
100
AcDbSpline
210
0.0
220
0.0
230
1.0
 70
     8
 71
     3
 72
     8
 73
     4
 74
     0
 42
0.000000001
 43
0.00000001
 40
0.0
 40
0.0
 40
0.0
 40
0.0
 40
1.0
 40
1.0
 40
1.0
 40
1.0
 10
75.741015201377
 20
111.441279699768
 30
0.0
 10
75.22559167233206
 20
111.5309328956718
 30
0.0
 10
74.7101447427215
 20
111.6204556376646
 30
0.0
 10
74.19466710505529
 20
111.7097921330186
 30
0.0
  0
LINE
  5
1E21
330
A
100
AcDbEntity
  8
MODEL
100
AcDbLine
 10
75.69758537970259
 20
111.1949769416801
 30
0.0
 11
75.741015201377
 21
111.441279699768
 31
0.0
  0
ARC
  5
1E22
330
A
100
AcDbEntity
  8
MODEL
100
AcDbCircle
 10
178.8207111494873
 20
106.2591993197856
 30
0.0
 40
3.000000000000114
100
AcDbArc
 50
270.0
 51
79.99999999999963
  0
ARC
  5
1E23
330
A
100
AcDbEntity
  8
MODEL
100
AcDbCircle
 10
129.8207111494875
 20
106.2591993197856
 30
0.0
 40
3.000000000000114
100
AcDbArc
 50
99.99999999999595
 51
270.0
  0
LINE
  5
1E24
330
A
100
AcDbEntity
  8
MODEL
100
AcDbLine
 10
179.3416556824881
 20
109.2136225788221
 30
0.0
 11
161.1261184388199
 21
112.4255132629809
 31
0.0
  0
LINE
  5
1E25
330
A
100
AcDbEntity
  8
MODEL
100
AcDbLine
 10
147.5153038601551
 20
112.4255132629809
 30
0.0
 11
129.2997666164869
 21
109.2136225788221
 31
0.0
  0
LINE
  5
1E26
330
A
100
AcDbEntity
  8
MODEL
100
AcDbLine
 10
149.3207111494875
 20
103.2591993197856
 30
0.0
 11
149.3207111494875
 21
101.2591993197856
 31
0.0
  0
LINE
  5
1E27
330
A
100
AcDbEntity
  8
MODEL
100
AcDbLine
 10
159.3207111494875
 20
101.2591993197856
 30
0.0
 11
159.3207111494875
 21
103.2591993197856
 31
0.0
  0
ARC
  5
1E28
330
A
100
AcDbEntity
  8
MODEL
100
AcDbCircle
 10
154.3207111494875
 20
101.2591993197856
 30
0.0
 40
5.0
100
AcDbArc
 50
179.9999999999948
 51
0.000000000005211
  0
LINE
  5
1E29
330
A
100
AcDbEntity
  8
MODEL
100
AcDbLine
 10
161.4450668024696
 20
103.2591993197856
 30
0.0
 11
161.4450668024696
 21
101.2591993197856
 31
0.0
  0
LINE
  5
1E2A
330
A
100
AcDbEntity
  8
MODEL
100
AcDbLine
 10
171.4450668024696
 20
101.2591993197856
 30
0.0
 11
171.4450668024696
 21
103.2591993197856
 31
0.0
  0
ARC
  5
1E2B
330
A
100
AcDbEntity
  8
MODEL
100
AcDbCircle
 10
166.4450668024696
 20
101.2591993197856
 30
0.0
 40
5.0
100
AcDbArc
 50
179.9999999999948
 51
0.000000000005211
  0
LINE
  5
1E2C
330
A
100
AcDbEntity
  8
MODEL
100
AcDbLine
 10
137.1963554965052
 20
103.2591993197856
 30
0.0
 11
137.1963554965052
 21
101.2591993197856
 31
0.0
  0
LINE
  5
1E2D
330
A
100
AcDbEntity
  8
MODEL
100
AcDbLine
 10
147.1963554965052
 20
101.2591993197856
 30
0.0
 11
147.1963554965052
 21
103.2591993197856
 31
0.0
  0
ARC
  5
1E2E
330
A
100
AcDbEntity
  8
MODEL
100
AcDbCircle
 10
142.1963554965052
 20
101.2591993197856
 30
0.0
 40
5.0
100
AcDbArc
 50
179.9999999999948
 51
0.000000000005211
  0
ARC
  5
1E2F
330
A
100
AcDbEntity
  8
MODEL
100
AcDbCircle
 10
161.8207111494875
 20
116.3647442750297
 30
0.0
 40
3.999999999999773
100
AcDbArc
 50
180.0
 51
260.0000000000009
  0
ARC
  5
1E30
330
A
100
AcDbEntity
  8
MODEL
100
AcDbCircle
 10
146.8207111494879
 20
116.3647442750297
 30
0.0
 40
3.999999999999538
100
AcDbArc
 50
279.9999999999931
 51
0.0
  0
LINE
  5
1E31
330
A
100
AcDbEntity
  8
MODEL
100
AcDbLine
 10
157.8207111494875
 20
116.3647442750297
 30
0.0
 11
157.8207111494875
 21
142.7591993197856
 31
0.0
  0
LINE
  5
1E32
330
A
100
AcDbEntity
  8
MODEL
100
AcDbLine
 10
150.820711149487
 20
142.7591993197856
 30
0.0
 11
150.820711149487
 21
116.3647442750297
 31
0.0
  0
ARC
  5
1E33
330
A
100
AcDbEntity
  8
MODEL
100
AcDbCircle
 10
154.3207111494875
 20
142.7591993197856
 30
0.0
 40
3.500000000000227
100
AcDbArc
 50
0.0
 51
180.0
  0
LINE
  5
1E34
330
A
100
AcDbEntity
  8
MODEL
100
AcDbLine
 10
178.8207111492974
 20
103.2591993197856
 30
0.0
 11
129.8207111494875
 21
103.2591993197856
 31
0.0
  0
CIRCLE
  5
1E35
330
A
100
AcDbEntity
  8
MODEL
100
AcDbCircle
 10
62.10116333323734
 20
206.4721601129274
 30
0.0
 40
27.5
  0
CIRCLE
  5
1E36
330
A
100
AcDbEntity
  8
MODEL
100
AcDbCircle
 10
62.10116333323734
 20
206.4721601129274
 30
0.0
 40
3.500000000000227
  0
SPLINE
  5
1E37
330
A
100
AcDbEntity
  8
MODEL
100
AcDbSpline
210
0.0
220
0.0
230
1.0
 70
     8
 71
     3
 72
    18
 73
    14
 74
     0
 42
0.000000001
 43
0.00000001
 40
0.0
 40
0.0
 40
0.0
 40
0.0
 40
0.1249999999999996
 40
0.1249999999999996
 40
0.2499999999999992
 40
0.2499999999999992
 40
0.3749999999999988
 40
0.3749999999999988
 40
0.4999999999999984
 40
0.4999999999999984
 40
0.7499999999999992
 40
0.7499999999999992
 40
1.0
 40
1.0
 40
1.0
 40
1.0
 10
69.69120961126649
 20
207.2569012573415
 30
0.0
 10
69.69090576977149
 20
207.3548647122495
 30
0.0
 10
69.70002192247446
 20
207.4511850848573
 30
0.0
 10
69.73633463948457
 20
207.6406770503661
 30
0.0
 10
69.76397654892165
 20
207.7348301265113
 30
0.0
 10
69.83637505968457
 20
207.91436147223
 30
0.0
 10
69.88076764462406
 20
207.9995093015475
 30
0.0
 10
69.98583181263623
 20
208.1606558683723
 30
0.0
 10
70.04706228024955
 20
208.2369494470038
 30
0.0
 10
70.24795045162162
 20
208.4420706311751
 30
0.0
 10
70.41022375575224
 20
208.5525162032093
 30
0.0
 10
70.76096751084245
 20
208.7003200948341
 30
0.0
 10
70.95307983164233
 20
208.7391900856794
 30
0.0
 10
71.14376069335006
 20
208.7391900856794
 30
0.0
  0
LINE
  5
1E38
330
A
100
AcDbEntity
  8
MODEL
100
AcDbLine
 10
71.14376069335006
 20
208.7391900856794
 30
0.0
 11
71.18721188900534
 21
208.7391900856794
 31
0.0
  0
SPLINE
  5
1E39
330
A
100
AcDbEntity
  8
MODEL
100
AcDbSpline
210
0.0
220
0.0
230
1.0
 70
     8
 71
     3
 72
    18
 73
    14
 74
     0
 42
0.000000001
 43
0.00000001
 40
0.0
 40
0.0
 40
0.0
 40
0.0
 40
0.1250000000000004
 40
0.1250000000000004
 40
0.2500000000000009
 40
0.2500000000000009
 40
0.3750000000000013
 40
0.3750000000000013
 40
0.5000000000000018
 40
0.5000000000000018
 40
0.7500000000000009
 40
0.7500000000000009
 40
1.0
 40
1.0
 40
1.0
 40
1.0
 10
69.7346285585759
 20
207.2569012573415
 30
0.0
 10
69.73432642781839
 20
207.3548646875668
 30
0.0
 10
69.74344455387293
 20
207.4511851100626
 30
0.0
 10
69.77976164157056
 20
207.6406772752609
 30
0.0
 10
69.80740598197693
 20
207.7348305134626
 30
0.0
 10
69.87980941789627
 20
207.9143621240012
 30
0.0
 10
69.92420449080649
 20
207.9995100830054
 30
0.0
 10
70.02927343673517
 20
208.1606568471022
 30
0.0
 10
70.09050617983442
 20
208.2369504609717
 30
0.0
 10
70.29140017543435
 20
208.4420715889753
 30
0.0
 10
70.45367607570009
 20
208.5525168772535
 30
0.0
 10
70.80442151334049
 20
208.7003202772169
 30
0.0
 10
70.99653295062151
 20
208.7391900856794
 30
0.0
 10
71.18721188900534
 20
208.7391900856794
 30
0.0
  0
SPLINE
  5
1E3A
330
A
100
AcDbEntity
  8
MODEL
100
AcDbSpline
210
0.0
220
0.0
230
1.0
 70
     8
 71
     3
 72
     8
 73
     4
 74
     0
 42
0.000000001
 43
0.00000001
 40
0.0
 40
0.0
 40
0.0
 40
0.0
 40
1.0
 40
1.0
 40
1.0
 40
1.0
 10
73.33550264052772
 20
208.7391900856794
 30
0.0
 10
73.33810394829837
 20
208.3033271920083
 30
0.0
 10
73.33998126333566
 20
207.8673615552082
 30
0.0
 10
73.34109937394581
 20
207.4312881783228
 30
0.0
  0
LINE
  5
1E3B
330
A
100
AcDbEntity
  8
MODEL
100
AcDbLine
 10
73.34109937394581
 20
207.4312881783228
 30
0.0
 11
71.45173817600633
 21
207.4312881783242
 31
0.0
  0
SPLINE
  5
1E3C
330
A
100
AcDbEntity
  8
MODEL
100
AcDbSpline
210
0.0
220
0.0
230
1.0
 70
     8
 71
     3
 72
    23
 73
    19
 74
     0
 42
0.000000001
 43
0.00000001
 40
0.0002728859403163
 40
0.0002728859403163
 40
0.0002728859403163
 40
0.0002728859403163
 40
0.0002928086225375
 40
0.0002928086225375
 40
0.0002928086225375
 40
0.000351354018053
 40
0.000351354018053
 40
0.000351354018053
 40
0.0004099003091113
 40
0.0004099003091113
 40
0.0004099003091113
 40
0.0004684535698547
 40
0.0004684535698547
 40
0.0004684535698547
 40
0.0005270153392241
 40
0.0005270153392241
 40
0.0005270153392241
 40
0.0005453333673105
 40
0.0005453333673105
 40
0.0005453333673105
 40
0.0005453333673105
 10
71.45173817600565
 20
207.4312881783228
 30
0.0
 10
71.44515650283122
 20
207.4312881783228
 30
0.0
 10
71.43856515997552
 20
207.4309028376995
 30
0.0
 10
71.43202933516616
 20
207.4301359675458
 30
0.0
 10
71.41294149455601
 20
207.4278963274553
 30
0.0
 10
71.39398168555638
 20
207.4222792203175
 30
0.0
 10
71.37671952210533
 20
207.4137499915412
 30
0.0
 10
71.35945706220721
 20
207.4052206162912
 30
0.0
 10
71.34341621557408
 20
207.3935438513106
 30
0.0
 10
71.32992395285353
 20
207.3796867264198
 30
0.0
 10
71.31643009249822
 20
207.3658279606914
 30
0.0
 10
71.3051132406147
 20
207.3494061739405
 30
0.0
 10
71.29690905421424
 20
207.3317810146866
 30
0.0
 10
71.28870369669315
 20
207.3141533394976
 30
0.0
 10
71.28338555845951
 20
207.2948358054812
 30
0.0
 10
71.28139423879728
 20
207.2754278222412
 30
0.0
 10
71.28076330427987
 20
207.2692785501033
 30
0.0
 10
71.28045447503567
 20
207.2630855456389
 30
0.0
 10
71.28047036098022
 20
207.2569012573415
 30
0.0
  0
SPLINE
  5
1E3D
330
A
100
AcDbEntity
  8
MODEL
100
AcDbSpline
210
0.0
220
0.0
230
1.0
 70
     8
 71
     3
 72
     8
 73
     4
 74
     0
 42
0.000000001
 43
0.00000001
 40
0.0
 40
0.0
 40
0.0
 40
0.0
 40
1.0
 40
1.0
 40
1.0
 40
1.0
 10
71.28047036098022
 20
207.2569012573415
 30
0.0
 10
71.28181423476374
 20
206.7337404943989
 30
0.0
 10
71.28181423476374
 20
206.2105797314559
 30
0.0
 10
71.28047036098022
 20
205.6874189685134
 30
0.0
  0
SPLINE
  5
1E3E
330
A
100
AcDbEntity
  8
MODEL
100
AcDbSpline
210
0.0
220
0.0
230
1.0
 70
     8
 71
     3
 72
    20
 73
    16
 74
     0
 42
0.000000001
 43
0.00000001
 40
0.0000001972021737
 40
0.0000001972021737
 40
0.0000001972021737
 40
0.0000001972021737
 40
0.0000585665225107
 40
0.0000585665225107
 40
0.0000585665225107
 40
0.0001171331663295
 40
0.0001171331663295
 40
0.0001171331663295
 40
0.0001756976382726
 40
0.0001756976382726
 40
0.0001756976382726
 40
0.0002342545351197
 40
0.0002342545351197
 40
0.0002342545351197
 40
0.0002728846998358
 40
0.0002728846998358
 40
0.0002728846998358
 40
0.0002728846998358
 10
71.28047036098022
 20
205.6874189685134
 30
0.0
 10
71.28042038753941
 20
205.6679646536766
 30
0.0
 10
71.28366449163221
 20
205.6482439547101
 30
0.0
 10
71.28993626738432
 20
205.6298791293482
 30
0.0
 10
71.29622923805212
 20
205.6114522416703
 30
0.0
 10
71.30574431844892
 20
205.5938831582755
 30
0.0
 10
71.3176946311776
 20
205.5786269767443
 30
0.0
 10
71.3296444835785
 20
205.5633713828831
 30
0.0
 10
71.34435911425228
 20
205.5500076960382
 30
0.0
 10
71.36062086912969
 20
205.5396431282149
 30
0.0
 10
71.37688053702234
 20
205.52927989055
 30
0.0
 10
71.39513553044574
 20
205.5216291479157
 30
0.0
 10
71.41387435823643
 20
205.5173249093339
 30
0.0
 10
71.42625692433197
 20
205.5144806802639
 30
0.0
 10
71.43903407174574
 20
205.5130320475325
 30
0.0
 10
71.45173817600633
 20
205.5130320475325
 30
0.0
  0
SPLINE
  5
1E3F
330
A
100
AcDbEntity
  8
MODEL
100
AcDbSpline
210
0.0
220
0.0
230
1.0
 70
    24
 71
     3
 72
     8
 73
     4
 74
     0
 42
0.000000001
 43
0.00000001
 40
0.0
 40
0.0
 40
0.0
 40
0.0
 40
1.0
 40
1.0
 40
1.0
 40
1.0
 10
71.45173817600633
 20
205.5130320475325
 30
0.0
 10
72.08154169615639
 20
205.5130320475325
 30
0.0
 10
72.71132606314907
 20
205.5130320475325
 30
0.0
 10
73.34109937394626
 20
205.5130320475325
 30
0.0
  0
SPLINE
  5
1E40
330
A
100
AcDbEntity
  8
MODEL
100
AcDbSpline
210
0.0
220
0.0
230
1.0
 70
     8
 71
     3
 72
     8
 73
     4
 74
     0
 42
0.000000001
 43
0.00000001
 40
0.0
 40
0.0
 40
0.0
 40
0.0
 40
1.0
 40
1.0
 40
1.0
 40
1.0
 10
73.34109937394626
 20
205.5130320475325
 30
0.0
 10
73.33998126333566
 20
205.0769586706467
 30
0.0
 10
73.33810394829882
 20
204.6409930338461
 30
0.0
 10
73.33550264052772
 20
204.2051301401755
 30
0.0
  0
SPLINE
  5
1E41
330
A
100
AcDbEntity
  8
MODEL
100
AcDbSpline
210
0.0
220
0.0
230
1.0
 70
    24
 71
     3
 72
     8
 73
     4
 74
     0
 42
0.000000001
 43
0.00000001
 40
0.0
 40
0.0
 40
0.0
 40
0.0
 40
1.0
 40
1.0
 40
1.0
 40
1.0
 10
73.33550264052772
 20
204.2051301401755
 30
0.0
 10
72.61949915927929
 20
204.2051301401755
 30
0.0
 10
71.90341260994231
 20
204.2051301401755
 30
0.0
 10
71.18721188900534
 20
204.2051301401755
 30
0.0
  0
SPLINE
  5
1E42
330
A
100
AcDbEntity
  8
MODEL
100
AcDbSpline
210
0.0
220
0.0
230
1.0
 70
     8
 71
     3
 72
    18
 73
    14
 74
     0
 42
0.000000001
 43
0.00000001
 40
0.0
 40
0.0
 40
0.0
 40
0.0
 40
0.1250000000000005
 40
0.1250000000000005
 40
0.250000000000001
 40
0.250000000000001
 40
0.3750000000000015
 40
0.3750000000000015
 40
0.500000000000002
 40
0.500000000000002
 40
0.7500000000000012
 40
0.7500000000000012
 40
1.0
 40
1.0
 40
1.0
 40
1.0
 10
71.18721188900534
 20
204.2051301401755
 30
0.0
 10
71.09195767088252
 20
204.2051301401755
 30
0.0
 10
70.99527653688395
 20
204.2147946497391
 30
0.0
 10
70.80825063938485
 20
204.2526763935577
 30
0.0
 10
70.71742212283905
 20
204.2806803734914
 30
0.0
 10
70.54116168579097
 20
204.3549180843354
 30
0.0
 10
70.45598649943511
 20
204.40133501376
 30
0.0
 10
70.29851718480612
 20
204.5086132917784
 30
0.0
 10
70.22520068004454
 20
204.5698449888043
 30
0.0
 10
70.02209780092497
 20
204.7772097428813
 30
0.0
 10
69.91597973034371
 20
204.9402611511312
 30
0.0
 10
69.77121621093627
 20
205.2992349138674
 30
0.0
 10
69.73402481808719
 20
205.4916610466751
 30
0.0
 10
69.7346285585759
 20
205.6874189685134
 30
0.0
  0
SPLINE
  5
1E43
330
A
100
AcDbEntity
  8
MODEL
100
AcDbSpline
210
0.0
220
0.0
230
1.0
 70
     8
 71
     3
 72
     8
 73
     4
 74
     0
 42
0.000000001
 43
0.00000001
 40
0.0
 40
0.0
 40
0.0
 40
0.0
 40
1.0
 40
1.0
 40
1.0
 40
1.0
 10
69.7346285585759
 20
205.6874189685134
 30
0.0
 10
69.73624204798946
 20
206.2105797314559
 30
0.0
 10
69.73624204798946
 20
206.7337404943989
 30
0.0
 10
69.7346285585759
 20
207.2569012573415
 30
0.0
  0
SPLINE
  5
1E44
330
A
100
AcDbEntity
  8
MODEL
100
AcDbSpline
210
0.0
220
0.0
230
1.0
 70
    24
 71
     3
 72
     8
 73
     4
 74
     0
 42
0.000000001
 43
0.00000001
 40
0.0
 40
0.0
 40
0.0
 40
0.0
 40
1.0
 40
1.0
 40
1.0
 40
1.0
 10
71.18721188900534
 20
208.7391900856794
 30
0.0
 10
71.9034207418704
 20
208.7391900856794
 30
0.0
 10
72.61950059925269
 20
208.7391900856794
 30
0.0
 10
73.33550264052772
 20
208.7391900856794
 30
0.0
  0
SPLINE
  5
1E45
330
A
100
AcDbEntity
  8
MODEL
100
AcDbSpline
210
0.0
220
0.0
230
1.0
 70
     8
 71
     3
 72
    18
 73
    14
 74
     0
 42
0.000000001
 43
0.00000001
 40
0.0
 40
0.0
 40
0.0
 40
0.0
 40
0.1250000000000001
 40
0.1250000000000001
 40
0.2500000000000002
 40
0.2500000000000002
 40
0.3750000000000003
 40
0.3750000000000003
 40
0.5000000000000004
 40
0.5000000000000004
 40
0.7500000000000002
 40
0.7500000000000002
 40
1.0
 40
1.0
 40
1.0
 40
1.0
 10
71.14376069335006
 20
204.2051301401755
 30
0.0
 10
71.04850554852558
 20
204.2051301401755
 30
0.0
 10
70.95182371145054
 20
204.2147946809739
 30
0.0
 10
70.76479711009554
 20
204.2526765691166
 30
0.0
 10
70.67396860865668
 20
204.2806806527517
 30
0.0
 10
70.49770898913746
 20
204.3549186128305
 30
0.0
 10
70.41253465174944
 20
204.4013356724402
 30
0.0
 10
70.25506778469756
 20
204.5086141683648
 30
0.0
 10
70.18175287588772
 20
204.5698459588828
 30
0.0
 10
69.9786557526252
 20
204.7772109223122
 30
0.0
 10
69.87254282603001
 20
204.9402621380625
 30
0.0
 10
69.72778930568464
 20
205.2992350142488
 30
0.0
 10
69.69060245233575
 20
205.49166102394
 30
0.0
 10
69.69120961126649
 20
205.6874189685134
 30
0.0
  0
LINE
  5
1E46
330
A
100
AcDbEntity
  8
MODEL
100
AcDbLine
 10
71.14376069335006
 20
204.2051301401755
 30
0.0
 11
71.18721188900534
 21
204.2051301401755
 31
0.0
  0
SPLINE
  5
1E47
330
A
100
AcDbEntity
  8
MODEL
100
AcDbSpline
210
0.0
220
0.0
230
1.0
 70
     8
 71
     3
 72
     8
 73
     4
 74
     0
 42
0.000000001
 43
0.00000001
 40
0.0
 40
0.0
 40
0.0
 40
0.0
 40
1.0
 40
1.0
 40
1.0
 40
1.0
 10
69.69120961126649
 20
205.6874189685134
 30
0.0
 10
69.69283223623827
 20
206.2105797314559
 30
0.0
 10
69.69283223623827
 20
206.7337404943989
 30
0.0
 10
69.69120961126649
 20
207.2569012573415
 30
0.0
  0
SPLINE
  5
1E48
330
A
100
AcDbEntity
  8
MODEL
100
AcDbSpline
210
0.0
220
0.0
230
1.0
 70
     8
 71
     3
 72
     8
 73
     4
 74
     0
 42
0.000000001
 43
0.00000001
 40
0.0
 40
0.0
 40
0.0
 40
0.0
 40
1.0
 40
1.0
 40
1.0
 40
1.0
 10
74.15123255906704
 20
204.2051301401755
 30
0.0
 10
74.16258650521766
 20
206.2406049532035
 30
0.0
 10
74.15826482347282
 20
208.2750906047411
 30
0.0
 10
74.13961897483912
 20
210.3086723745084
 30
0.0
  0
SPLINE
  5
1E49
330
A
100
AcDbEntity
  8
MODEL
100
AcDbSpline
210
0.0
220
0.0
230
1.0
 70
     8
 71
     3
 72
    18
 73
    14
 74
     0
 42
0.000000001
 43
0.00000001
 40
0.0
 40
0.0
 40
0.0
 40
0.0
 40
0.1250000000000015
 40
0.1250000000000015
 40
0.2500000000000009
 40
0.2500000000000009
 40
0.3750000000000002
 40
0.3750000000000002
 40
0.4999999999999996
 40
0.4999999999999996
 40
0.7499999999999998
 40
0.7499999999999998
 40
1.0
 40
1.0
 40
1.0
 40
1.0
 10
78.01685872269084
 20
204.2051301401755
 30
0.0
 10
77.9216714903528
 20
204.2051301401755
 30
0.0
 10
77.82503385561566
 20
204.2147923621294
 30
0.0
 10
77.63803044517866
 20
204.2526640325661
 30
0.0
 10
77.54718009598449
 20
204.2806608704921
 30
0.0
 10
77.37080782232354
 20
204.3548818591955
 30
0.0
 10
77.28553850998517
 20
204.4012907273402
 30
0.0
 10
77.1278227655462
 20
204.5085558497888
 30
0.0
 10
77.05435362619349
 20
204.5697820873477
 30
0.0
 10
76.85072011530136
 20
204.7771347146547
 30
0.0
 10
76.74415440876695
 20
204.940201491848
 30
0.0
 10
76.59854229802343
 20
205.2992332710239
 30
0.0
 10
76.56097180188775
 20
205.4916649162785
 30
0.0
 10
76.56129168119472
 20
205.6874189685134
 30
0.0
  0
SPLINE
  5
1E4A
330
A
100
AcDbEntity
  8
MODEL
100
AcDbSpline
210
0.0
220
0.0
230
1.0
 70
     8
 71
     3
 72
    18
 73
    14
 74
     0
 42
0.000000001
 43
0.00000001
 40
0.0
 40
0.0
 40
0.0
 40
0.0
 40
0.1249999999999995
 40
0.1249999999999995
 40
0.249999999999999
 40
0.249999999999999
 40
0.3749999999999985
 40
0.3749999999999985
 40
0.499999999999998
 40
0.499999999999998
 40
0.749999999999999
 40
0.749999999999999
 40
1.0
 40
1.0
 40
1.0
 40
1.0
 10
76.56129168119472
 20
207.2569012573424
 30
0.0
 10
76.5611316049781
 20
207.3548618546472
 30
0.0
 10
76.57041405296107
 20
207.4511843158064
 30
0.0
 10
76.60709713985082
 20
207.6406874388547
 30
0.0
 10
76.63494589432915
 20
207.7348503477549
 30
0.0
 10
76.70776844319587
 20
207.9143988117214
 30
0.0
 10
76.75237744640393
 20
207.9995554044915
 30
0.0
 10
76.85786380634548
 20
208.1607160438591
 30
0.0
 10
76.91929967581498
 20
208.2370131497175
 30
0.0
 10
77.12072802493165
 20
208.4421336681328
 30
0.0
 10
77.28326658544259
 20
208.5525618254726
 30
0.0
 10
77.63424010026395
 20
208.7003333329342
 30
0.0
 10
77.82631810900469
 20
208.7391900856794
 30
0.0
 10
78.01685872269084
 20
208.7391900856794
 30
0.0
  0
SPLINE
  5
1E4B
330
A
100
AcDbEntity
  8
MODEL
100
AcDbSpline
210
0.0
220
0.0
230
1.0
 70
     8
 71
     3
 72
     8
 73
     4
 74
     0
 42
0.000000001
 43
0.00000001
 40
0.0
 40
0.0
 40
0.0
 40
0.0
 40
1.0
 40
1.0
 40
1.0
 40
1.0
 10
76.56129168119472
 20
205.6874189685134
 30
0.0
 10
76.56214657180911
 20
206.2105797314559
 30
0.0
 10
76.56214657180911
 20
206.7337404943989
 30
0.0
 10
76.56129168119472
 20
207.2569012573424
 30
0.0
  0
SPLINE
  5
1E4C
330
A
100
AcDbEntity
  8
MODEL
100
AcDbSpline
210
0.0
220
0.0
230
1.0
 70
     8
 71
     3
 72
     8
 73
     4
 74
     0
 42
0.000000001
 43
0.00000001
 40
0.0
 40
0.0
 40
0.0
 40
0.0
 40
1.0
 40
1.0
 40
1.0
 40
1.0
 10
81.6277169562525
 20
205.6874189685134
 30
0.0
 10
81.62894884287678
 20
206.7047664759673
 30
0.0
 10
81.62777509264245
 20
207.722022999724
 30
0.0
 10
81.62423657953562
 20
208.7391900856794
 30
0.0
  0
SPLINE
  5
1E4D
330
A
100
AcDbEntity
  8
MODEL
100
AcDbSpline
210
0.0
220
0.0
230
1.0
 70
     8
 71
     3
 72
    18
 73
    14
 74
     0
 42
0.000000001
 43
0.00000001
 40
0.0
 40
0.0
 40
0.0
 40
0.0
 40
0.1250000000000007
 40
0.1250000000000007
 40
0.2500000000000015
 40
0.2500000000000015
 40
0.3750000000000022
 40
0.3750000000000022
 40
0.500000000000003
 40
0.500000000000003
 40
0.7500000000000014
 40
0.7500000000000014
 40
1.0
 40
1.0
 40
1.0
 40
1.0
 10
83.08427970130063
 20
204.2051301401755
 30
0.0
 10
82.98910677233292
 20
204.2051301401755
 30
0.0
 10
82.89247459303877
 20
204.2147918670642
 30
0.0
 10
82.70546124899013
 20
204.252661515003
 30
0.0
 10
82.61459548013616
 20
204.2806569488928
 30
0.0
 10
82.43817193958446
 20
204.3548747760613
 30
0.0
 10
82.35286564427227
 20
204.4012823379865
 30
0.0
 10
82.19506091715951
 20
204.5085454226871
 30
0.0
 10
82.12153948591802
 20
204.5697708668001
 30
0.0
 10
81.91773119347229
 20
204.7771217106158
 30
0.0
 10
81.81102794271013
 20
204.9401920944736
 30
0.0
 10
81.66516195212446
 20
205.2992344203988
 30
0.0
 10
81.627479923126
 20
205.4916663275465
 30
0.0
 10
81.6277169562525
 20
205.6874189685134
 30
0.0
  0
SPLINE
  5
1E4E
330
A
100
AcDbEntity
  8
MODEL
100
AcDbSpline
210
0.0
220
0.0
230
1.0
 70
     8
 71
     3
 72
     8
 73
     4
 74
     0
 42
0.000000001
 43
0.00000001
 40
0.0
 40
0.0
 40
0.0
 40
0.0
 40
1.0
 40
1.0
 40
1.0
 40
1.0
 10
84.07503053897793
 20
205.6874189685134
 30
0.0
 10
84.07612538539095
 20
206.7047475309703
 30
0.0
 10
84.07508411454981
 20
207.7220042476536
 30
0.0
 10
84.07193548079843
 20
208.7391900856794
 30
0.0
  0
SPLINE
  5
1E4F
330
A
100
AcDbEntity
  8
MODEL
100
AcDbSpline
210
0.0
220
0.0
230
1.0
 70
     8
 71
     3
 72
    23
 73
    19
 74
     0
 42
0.000000001
 43
0.00000001
 40
0.0002728712026598
 40
0.0002728712026598
 40
0.0002728712026598
 40
0.0002728712026598
 40
0.0002927769962393
 40
0.0002927769962393
 40
0.0002927769962393
 40
0.0003513294322593
 40
0.0003513294322593
 40
0.0003513294322593
 40
0.0004098823475487
 40
0.0004098823475487
 40
0.0004098823475487
 40
0.0004684366829389
 40
0.0004684366829389
 40
0.0004684366829389
 40
0.000526992465002
 40
0.000526992465002
 40
0.000526992465002
 40
0.0005453058557296
 40
0.0005453058557296
 40
0.0005453058557296
 40
0.0005453058557296
 10
83.90307948546163
 20
205.5130320475325
 30
0.0
 10
83.90965476665863
 20
205.5130320475325
 30
0.0
 10
83.91624137380657
 20
205.5134167359286
 30
0.0
 10
83.9227742922931
 20
205.5141823151478
 30
0.0
 10
83.94187199225624
 20
205.5164203351494
 30
0.0
 10
83.96085692201817
 20
205.5220366149326
 30
0.0
 10
83.97815674221059
 20
205.5305660287884
 30
0.0
 10
83.99545670806404
 20
205.5390955144605
 30
0.0
 10
84.01154866319487
 20
205.5507734214063
 30
0.0
 10
84.02509976867762
 20
205.5646326893327
 30
0.0
 10
84.03865119977311
 20
205.5784922902751
 30
0.0
 10
84.05003539826978
 20
205.5949156062559
 30
0.0
 10
84.05830938129114
 20
205.6125426594861
 30
0.0
 10
84.066583564681
 20
205.6301701395826
 30
0.0
 10
84.07197557725138
 20
205.6494875965348
 30
0.0
 10
84.07403874846321
 20
205.6688953827145
 30
0.0
 10
84.0746923515135
 20
205.6750436791715
 30
0.0
 10
84.07502388454444
 20
205.6812356855769
 30
0.0
 10
84.07503053897793
 20
205.6874189685134
 30
0.0
  0
LINE
  5
1E50
330
A
100
AcDbEntity
  8
MODEL
100
AcDbLine
 10
74.13961897483912
 20
210.3086723745084
 30
0.0
 11
74.1830927041174
 21
210.3086723745084
 31
0.0
  0
SPLINE
  5
1E51
330
A
100
AcDbEntity
  8
MODEL
100
AcDbSpline
210
0.0
220
0.0
230
1.0
 70
     8
 71
     3
 72
     8
 73
     4
 74
     0
 42
0.000000001
 43
0.00000001
 40
0.0
 40
0.0
 40
0.0
 40
0.0
 40
1.0
 40
1.0
 40
1.0
 40
1.0
 10
74.19466710505529
 20
204.2051301401755
 30
0.0
 10
74.20598158206715
 20
206.2405984082136
 30
0.0
 10
74.2016774951176
 20
208.2750844407785
 30
0.0
 10
74.1830927041174
 20
210.3086723745084
 30
0.0
  0
LINE
  5
1E52
330
A
100
AcDbEntity
  8
MODEL
100
AcDbLine
 10
74.15123255906704
 20
204.2051301401755
 30
0.0
 11
74.19466710505529
 21
204.2051301401755
 31
0.0
  0
SPLINE
  5
1E53
330
A
100
AcDbEntity
  8
MODEL
100
AcDbSpline
210
0.0
220
0.0
230
1.0
 70
    24
 71
     3
 72
     8
 73
     4
 74
     0
 42
0.000000001
 43
0.00000001
 40
0.0
 40
0.0
 40
0.0
 40
0.0
 40
1.0
 40
1.0
 40
1.0
 40
1.0
 10
74.1830927041174
 20
210.3086723745084
 30
0.0
 10
74.69903095934026
 20
210.3086723745084
 30
0.0
 10
75.2148891731072
 20
210.3086723745084
 30
0.0
 10
75.73068589659127
 20
210.3086723745084
 30
0.0
  0
SPLINE
  5
1E54
330
A
100
AcDbEntity
  8
MODEL
100
AcDbSpline
210
0.0
220
0.0
230
1.0
 70
     8
 71
     3
 72
     8
 73
     4
 74
     0
 42
0.000000001
 43
0.00000001
 40
0.0
 40
0.0
 40
0.0
 40
0.0
 40
1.0
 40
1.0
 40
1.0
 40
1.0
 10
75.73068589659127
 20
210.3086723745084
 30
0.0
 10
75.74732122455114
 20
208.2748986948498
 30
0.0
 10
75.75108151837506
 20
206.2404024187861
 30
0.0
 10
75.741015201377
 20
204.2051301401755
 30
0.0
  0
SPLINE
  5
1E55
330
A
100
AcDbEntity
  8
MODEL
100
AcDbSpline
210
0.0
220
0.0
230
1.0
 70
    24
 71
     3
 72
     8
 73
     4
 74
     0
 42
0.000000001
 43
0.00000001
 40
0.0
 40
0.0
 40
0.0
 40
0.0
 40
1.0
 40
1.0
 40
1.0
 40
1.0
 10
75.741015201377
 20
204.2051301401755
 30
0.0
 10
75.22559167233206
 20
204.2051301401755
 30
0.0
 10
74.7101447427215
 20
204.2051301401755
 30
0.0
 10
74.19466710505529
 20
204.2051301401755
 30
0.0
  0
SPLINE
  5
1E56
330
A
100
AcDbEntity
  8
MODEL
100
AcDbSpline
210
0.0
220
0.0
230
1.0
 70
     8
 71
     3
 72
    23
 73
    19
 74
     0
 42
0.000000001
 43
0.00000001
 40
0.0002728739412111
 40
0.0002728739412111
 40
0.0002728739412111
 40
0.0002728739412111
 40
0.0002927829925415
 40
0.0002927829925415
 40
0.0002927829925415
 40
0.0003513341512647
 40
0.0003513341512647
 40
0.0003513341512647
 40
0.0004098857793748
 40
0.0004098857793748
 40
0.0004098857793748
 40
0.0004684398180858
 40
0.0004684398180858
 40
0.0004684398180858
 40
0.0005269966377768
 40
0.0005269966377768
 40
0.0005269966377768
 40
0.0005453108782458
 40
0.0005453108782458
 40
0.0005453108782458
 40
0.0005453108782458
 10
78.32186694583336
 20
205.5130320475325
 30
0.0
 10
78.31529044016591
 20
205.5130320475325
 30
0.0
 10
78.30870379575484
 20
205.5134168617117
 30
0.0
 10
78.30217204868543
 20
205.5141826900492
 30
0.0
 10
78.28308128835218
 20
205.5164210261466
 30
0.0
 10
78.26411386120483
 20
205.5220374802041
 30
0.0
 10
78.24684018528572
 20
205.5305668852554
 30
0.0
 10
78.22956636105076
 20
205.5390963635434
 30
0.0
 10
78.21350988578345
 20
205.5507740684727
 30
0.0
 10
78.19999972813733
 20
205.5646329433546
 30
0.0
 10
78.18648901796476
 20
205.5784923850258
 30
0.0
 10
78.17515218039446
 20
205.5949154043044
 30
0.0
 10
78.16692732200434
 20
205.61254208591
 30
0.0
 10
78.1587020801426
 20
205.6301695893333
 30
0.0
 10
78.1533622302359
 20
205.6494870404915
 30
0.0
 10
78.15134959411674
 20
205.6688948404706
 30
0.0
 10
78.15071198236731
 20
205.6750433146992
 30
0.0
 10
78.15039639464456
 20
205.6812355027434
 30
0.0
 10
78.15040550093298
 20
205.6874189685134
 30
0.0
  0
LINE
  5
1E57
330
A
100
AcDbEntity
  8
MODEL
100
AcDbLine
 10
79.09472489925545
 20
205.5130320475303
 30
0.0
 11
78.32186694583336
 21
205.5130320475325
 31
0.0
  0
SPLINE
  5
1E58
330
A
100
AcDbEntity
  8
MODEL
100
AcDbSpline
210
0.0
220
0.0
230
1.0
 70
     8
 71
     3
 72
    20
 73
    16
 74
     0
 42
0.000000001
 43
0.00000001
 40
0.0000001971867495
 40
0.0000001971867495
 40
0.0000001971867495
 40
0.0000001971867495
 40
0.0000585578753428
 40
0.0000585578753428
 40
0.0000585578753428
 40
0.0001171157685584
 40
0.0001171157685584
 40
0.0001171157685584
 40
0.000175673289489
 40
0.000175673289489
 40
0.000175673289489
 40
0.0002342288600358
 40
0.0002342288600358
 40
0.0002342288600358
 40
0.0002728734144529
 40
0.0002728734144529
 40
0.0002728734144529
 40
0.0002728734144529
 10
79.26673740678646
 20
205.6874189685134
 30
0.0
 10
79.26671061791424
 20
205.667966014161
 30
0.0
 10
79.26338640644897
 20
205.6482466098362
 30
0.0
 10
79.25703836622327
 20
205.6298829624304
 30
0.0
 10
79.25066887770484
 20
205.6114572692788
 30
0.0
 10
79.24107911789272
 20
205.5938893221476
 30
0.0
 10
79.22906355140597
 20
205.578633968835
 30
0.0
 10
79.21704806688948
 20
205.5633787195932
 30
0.0
 10
79.20227540296335
 20
205.5500152606808
 30
0.0
 10
79.1859693721224
 20
205.5396503764939
 30
0.0
 10
79.16966388242398
 20
205.5292858362834
 30
0.0
 10
79.15137539137075
 20
205.5216337981512
 30
0.0
 10
79.13261884260876
 20
205.5173280775082
 30
0.0
 10
79.12021972045207
 20
205.5144817566354
 30
0.0
 10
79.1074323079429
 20
205.5130320475325
 30
0.0
 10
79.09472489925477
 20
205.5130320475325
 30
0.0
  0
SPLINE
  5
1E59
330
A
100
AcDbEntity
  8
MODEL
100
AcDbSpline
210
0.0
220
0.0
230
1.0
 70
     8
 71
     3
 72
     8
 73
     4
 74
     0
 42
0.000000001
 43
0.00000001
 40
0.0
 40
0.0
 40
0.0
 40
0.0
 40
1.0
 40
1.0
 40
1.0
 40
1.0
 10
79.26673740678646
 20
207.2569012573424
 30
0.0
 10
79.26745785708457
 20
206.7337404943989
 30
0.0
 10
79.26745785708457
 20
206.2105797314559
 30
0.0
 10
79.26673740678646
 20
205.6874189685134
 30
0.0
  0
SPLINE
  5
1E5A
330
A
100
AcDbEntity
  8
MODEL
100
AcDbSpline
210
0.0
220
0.0
230
1.0
 70
     8
 71
     3
 72
    23
 73
    19
 74
     0
 42
0.000000001
 43
0.00000001
 40
0.0000549656691383
 40
0.0000549656691383
 40
0.0000549656691383
 40
0.0000549656691383
 40
0.0000585515539647
 40
0.0000585515539647
 40
0.0000585515539647
 40
0.0001171031020532
 40
0.0001171031020532
 40
0.0001171031020532
 40
0.0001756548878309
 40
0.0001756548878309
 40
0.0001756548878309
 40
0.0002342087305489
 40
0.0002342087305489
 40
0.0002342087305489
 40
0.0002927650875577
 40
0.0002927650875577
 40
0.0002927650875577
 40
0.0003273591475496
 40
0.0003273591475496
 40
0.0003273591475496
 40
0.0003273591475496
 10
79.09472489925545
 20
207.4312881783228
 30
0.0
 10
79.09591699129263
 20
207.4312881783228
 30
0.0
 10
79.0971091693157
 20
207.4312755745816
 30
0.0
 10
79.09830104560481
 20
207.431250371201
 30
0.0
 10
79.11751916208189
 20
207.4308439854833
 30
0.0
 10
79.13693892751124
 20
207.4270631995103
 30
0.0
 10
79.15495198231704
 20
207.4202211585173
 30
0.0
 10
79.1729651204578
 20
207.4133790858698
 30
0.0
 10
79.1900683230206
 20
207.4032870397093
 30
0.0
 10
79.20484498621002
 20
207.3907807832454
 30
0.0
 10
79.21962216575619
 20
207.378274089762
 30
0.0
 10
79.23248017745576
 20
207.363008094567
 30
0.0
 10
79.24235395093459
 20
207.3462469269186
 30
0.0
 10
79.25222814106613
 20
207.329485051984
 30
0.0
 10
79.25939015698103
 20
207.3107655804085
 30
0.0
 10
79.26324668319879
 20
207.2916386022746
 30
0.0
 10
79.26554611221061
 20
207.2802342642924
 30
0.0
 10
79.2667213805478
 20
207.2685388392035
 30
0.0
 10
79.26673740678646
 20
207.2569012573424
 30
0.0
  0
LINE
  5
1E5B
330
A
100
AcDbEntity
  8
MODEL
100
AcDbLine
 10
78.32186694583382
 20
207.4312881783242
 30
0.0
 11
79.09472489925545
 21
207.4312881783228
 31
0.0
  0
SPLINE
  5
1E5C
330
A
100
AcDbEntity
  8
MODEL
100
AcDbSpline
210
0.0
220
0.0
230
1.0
 70
     8
 71
     3
 72
    20
 73
    16
 74
     0
 42
0.000000001
 43
0.00000001
 40
0.0000001971876518
 40
0.0000001971876518
 40
0.0000001971876518
 40
0.0000001971876518
 40
0.000058558268079
 40
0.000058558268079
 40
0.000058558268079
 40
0.0001171165705282
 40
0.0001171165705282
 40
0.0001171165705282
 40
0.0001756742402339
 40
0.0001756742402339
 40
0.0001756742402339
 40
0.0002342294840477
 40
0.0002342294840477
 40
0.0002342294840477
 40
0.000272873702194
 40
0.000272873702194
 40
0.000272873702194
 40
0.000272873702194
 10
78.15040550093298
 20
207.2569012573424
 30
0.0
 10
78.15037685282371
 20
207.2763542544524
 30
0.0
 10
78.15364272677564
 20
207.2960737060832
 30
0.0
 10
78.15993467819592
 20
207.3144374096889
 30
0.0
 10
78.16624788935499
 20
207.3328631620132
 30
0.0
 10
78.17578212090919
 20
207.3504311807385
 30
0.0
 10
78.1877483805479
 20
207.3656865924352
 30
0.0
 10
78.19971450500319
 20
207.3809418317903
 30
0.0
 10
78.21444269989368
 20
207.3943052905272
 30
0.0
 10
78.23071383146228
 20
207.4046701536997
 30
0.0
 10
78.24698429347589
 20
207.4150345903611
 30
0.0
 10
78.26524638068034
 20
207.4226865499111
 30
0.0
 10
78.28398803034545
 20
207.4269922168089
 30
0.0
 10
78.29637726678087
 20
207.4298384937472
 30
0.0
 10
78.30915958634617
 20
207.4312881783228
 30
0.0
 10
78.32186694583382
 20
207.4312881783228
 30
0.0
  0
SPLINE
  5
1E5D
330
A
100
AcDbEntity
  8
MODEL
100
AcDbSpline
210
0.0
220
0.0
230
1.0
 70
     8
 71
     3
 72
     8
 73
     4
 74
     0
 42
0.000000001
 43
0.00000001
 40
0.0
 40
0.0
 40
0.0
 40
0.0
 40
1.0
 40
1.0
 40
1.0
 40
1.0
 10
78.15040550093298
 20
205.6874189685134
 30
0.0
 10
78.1511759511964
 20
206.2105797314559
 30
0.0
 10
78.1511759511964
 20
206.7337404943989
 30
0.0
 10
78.15040550093298
 20
207.2569012573424
 30
0.0
  0
SPLINE
  5
1E5E
330
A
100
AcDbEntity
  8
MODEL
100
AcDbSpline
210
0.0
220
0.0
230
1.0
 70
     8
 71
     3
 72
     8
 73
     4
 74
     0
 42
0.000000001
 43
0.00000001
 40
0.0
 40
0.0
 40
0.0
 40
0.0
 40
1.0
 40
1.0
 40
1.0
 40
1.0
 10
76.60470564335768
 20
205.6874189685134
 30
0.0
 10
76.60555798225485
 20
206.2105797314559
 30
0.0
 10
76.60555798225485
 20
206.7337404943989
 30
0.0
 10
76.60470564335768
 20
207.2569012573424
 30
0.0
  0
SPLINE
  5
1E5F
330
A
100
AcDbEntity
  8
MODEL
100
AcDbSpline
210
0.0
220
0.0
230
1.0
 70
     8
 71
     3
 72
    18
 73
    14
 74
     0
 42
0.000000001
 43
0.00000001
 40
0.0
 40
0.0
 40
0.0
 40
0.0
 40
0.1249999999999999
 40
0.1249999999999999
 40
0.2499999999999998
 40
0.2499999999999998
 40
0.3749999999999997
 40
0.3749999999999997
 40
0.4999999999999996
 40
0.4999999999999996
 40
0.7499999999999998
 40
0.7499999999999998
 40
1.0
 40
1.0
 40
1.0
 40
1.0
 10
76.60470564335768
 20
207.2569012573424
 30
0.0
 10
76.60454604496206
 20
207.354861844118
 30
0.0
 10
76.61382904729774
 20
207.4511843064813
 30
0.0
 10
76.65051337531875
 20
207.640687449463
 30
0.0
 10
76.67836282559645
 20
207.7348503787432
 30
0.0
 10
76.75118681667394
 20
207.9143988815588
 30
0.0
 10
76.79579656296394
 20
207.9995554953769
 30
0.0
 10
76.90128439418189
 20
208.1607161707382
 30
0.0
 10
76.9627209931812
 20
208.237013288425
 30
0.0
 10
77.16415130944509
 20
208.4421338145423
 30
0.0
 10
77.3266909168897
 20
208.5525619355442
 30
0.0
 10
77.67766552249466
 20
208.700333367706
 30
0.0
 10
77.86974357626175
 20
208.7391900856794
 30
0.0
 10
78.06028381681884
 20
208.7391900856794
 30
0.0
  0
LINE
  5
1E60
330
A
100
AcDbEntity
  8
MODEL
100
AcDbLine
 10
78.06028381681884
 20
208.7391900856794
 30
0.0
 11
79.34867343543786
 21
208.7391900856794
 31
0.0
  0
SPLINE
  5
1E61
330
A
100
AcDbEntity
  8
MODEL
100
AcDbSpline
210
0.0
220
0.0
230
1.0
 70
     8
 71
     3
 72
    16
 73
    12
 74
     0
 42
0.000000001
 43
0.00000001
 40
0.0
 40
0.0
 40
0.0
 40
0.0
 40
0.2499999999999999
 40
0.2499999999999999
 40
0.4999999999999998
 40
0.4999999999999998
 40
0.7499999999999999
 40
0.7499999999999999
 40
0.8749999999999999
 40
0.8749999999999999
 40
1.0
 40
1.0
 40
1.0
 40
1.0
 10
79.34867343543786
 20
208.7391900856794
 30
0.0
 10
79.53952104909789
 20
208.7391900856794
 30
0.0
 10
79.73151675470584
 20
208.7003566803089
 30
0.0
 10
80.08364840718153
 20
208.5525926452544
 30
0.0
 10
80.24705362116859
 20
208.442091835567
 30
0.0
 10
80.51707998016266
 20
208.1690546107122
 30
0.0
 10
80.62635253369038
 20
208.0041195293236
 30
0.0
 10
80.7366813452725
 20
207.7356726839519
 30
0.0
 10
80.76511419448505
 20
207.6412617411431
 30
0.0
 10
80.80268629146443
 20
207.4512763922828
 30
0.0
 10
80.8122966028732
 20
207.3548367728861
 30
0.0
 10
80.81242034968707
 20
207.2569012573424
 30
0.0
  0
SPLINE
  5
1E62
330
A
100
AcDbEntity
  8
MODEL
100
AcDbSpline
210
0.0
220
0.0
230
1.0
 70
     8
 71
     3
 72
     8
 73
     4
 74
     0
 42
0.000000001
 43
0.00000001
 40
0.0
 40
0.0
 40
0.0
 40
0.0
 40
1.0
 40
1.0
 40
1.0
 40
1.0
 10
80.81242034968707
 20
207.2569012573424
 30
0.0
 10
80.81308139156843
 20
206.7337404943989
 30
0.0
 10
80.81308139156843
 20
206.2105797314559
 30
0.0
 10
80.81242034968707
 20
205.6874189685134
 30
0.0
  0
SPLINE
  5
1E63
330
A
100
AcDbEntity
  8
MODEL
100
AcDbSpline
210
0.0
220
0.0
230
1.0
 70
     8
 71
     3
 72
    18
 73
    14
 74
     0
 42
0.000000001
 43
0.00000001
 40
0.0
 40
0.0
 40
0.0
 40
0.0
 40
0.1249999999999999
 40
0.1249999999999999
 40
0.2499999999999999
 40
0.2499999999999999
 40
0.3749999999999998
 40
0.3749999999999998
 40
0.4999999999999998
 40
0.4999999999999998
 40
0.7499999999999999
 40
0.7499999999999999
 40
1.0
 40
1.0
 40
1.0
 40
1.0
 10
80.81242034968707
 20
205.6874189685134
 30
0.0
 10
80.81229659866588
 20
205.5894801234765
 30
0.0
 10
80.80268639057434
 20
205.4931779514652
 30
0.0
 10
80.76526995921952
 20
205.3037130558812
 30
0.0
 10
80.73701093914931
 20
205.2095686643686
 30
0.0
 10
80.66332787504237
 20
205.0300490292923
 30
0.0
 10
80.61827169324809
 20
204.9449050770534
 30
0.0
 10
80.5118848027187
 20
204.7837662847639
 30
0.0
 10
80.44999163248897
 20
204.7074760522039
 30
0.0
 10
80.24728129621761
 20
204.5023652963907
 30
0.0
 10
80.083983059129
 20
204.391931725633
 30
0.0
 10
79.73200599145551
 20
204.2441052756164
 30
0.0
 10
79.53977015224476
 20
204.2051301401755
 30
0.0
 10
79.34867343543786
 20
204.2051301401755
 30
0.0
  0
LINE
  5
1E64
330
A
100
AcDbEntity
  8
MODEL
100
AcDbLine
 10
79.34867343543786
 20
204.2051301401746
 30
0.0
 11
78.06028381681884
 21
204.2051301401755
 31
0.0
  0
SPLINE
  5
1E65
330
A
100
AcDbEntity
  8
MODEL
100
AcDbSpline
210
0.0
220
0.0
230
1.0
 70
     8
 71
     3
 72
    18
 73
    14
 74
     0
 42
0.000000001
 43
0.00000001
 40
0.0
 40
0.0
 40
0.0
 40
0.0
 40
0.1250000000000016
 40
0.1250000000000016
 40
0.2500000000000008
 40
0.2500000000000008
 40
0.3750000000000001
 40
0.3750000000000001
 40
0.4999999999999993
 40
0.4999999999999993
 40
0.7499999999999997
 40
0.7499999999999997
 40
1.0
 40
1.0
 40
1.0
 40
1.0
 10
78.06028381681884
 20
204.2051301401755
 30
0.0
 10
77.96509676628696
 20
204.2051301401755
 30
0.0
 10
77.86845921674924
 20
204.214792355848
 30
0.0
 10
77.68145574085023
 20
204.25266400019
 30
0.0
 10
77.59060524007148
 20
204.2806608199164
 30
0.0
 10
77.4142324279974
 20
204.3548817673075
 30
0.0
 10
77.32896271516009
 20
204.4012906177334
 30
0.0
 10
77.1712459907749
 20
204.5085557122627
 30
0.0
 10
77.0977762690691
 20
204.5697819387908
 30
0.0
 10
76.89414079538463
 20
204.7771345414942
 30
0.0
 10
76.78757351980678
 20
204.940201363903
 30
0.0
 10
76.6419584979208
 20
205.2992332820247
 30
0.0
 10
76.60438671886962
 20
205.4916649328245
 30
0.0
 10
76.60470564335768
 20
205.6874189685134
 30
0.0
  0
LINE
  5
1E66
330
A
100
AcDbEntity
  8
MODEL
100
AcDbLine
 10
78.01685872269084
 20
208.7391900856794
 30
0.0
 11
78.06028381681884
 21
208.7391900856794
 31
0.0
  0
LINE
  5
1E67
330
A
100
AcDbEntity
  8
MODEL
100
AcDbLine
 10
78.01685872269084
 20
204.2051301401755
 30
0.0
 11
78.06028381681884
 21
204.2051301401755
 31
0.0
  0
SPLINE
  5
1E68
330
A
100
AcDbEntity
  8
MODEL
100
AcDbSpline
210
0.0
220
0.0
230
1.0
 70
     8
 71
     3
 72
    20
 73
    16
 74
     0
 42
0.000000001
 43
0.00000001
 40
0.000000197186781
 40
0.000000197186781
 40
0.000000197186781
 40
0.000000197186781
 40
0.0000585578944363
 40
0.0000585578944363
 40
0.0000585578944363
 40
0.0001171158068214
 40
0.0001171158068214
 40
0.0001171158068214
 40
0.0001756733452537
 40
0.0001756733452537
 40
0.0001756733452537
 40
0.0002342289236499
 40
0.0002342289236499
 40
0.0002342289236499
 40
0.0002728734421329
 40
0.0002728734421329
 40
0.0002728734421329
 40
0.0002728734421329
 10
79.22332399310133
 20
205.6874189685134
 30
0.0
 10
79.2232971364397
 20
205.6679660109069
 30
0.0
 10
79.21997285201795
 20
205.6482466035702
 30
0.0
 10
79.21362473992329
 20
205.6298829535951
 30
0.0
 10
79.20725517929466
 20
205.611457257866
 30
0.0
 10
79.19766534648127
 20
205.5938893084797
 30
0.0
 10
79.185649712779
 20
205.5786339536019
 30
0.0
 10
79.1736341614185
 20
205.5633787032668
 30
0.0
 10
79.15886143466449
 20
205.5500152437096
 30
0.0
 10
79.14255535140185
 20
205.5396503601335
 30
0.0
 10
79.12624981196498
 20
205.5292858222372
 30
0.0
 10
79.10796128059954
 20
205.5216337867189
 30
0.0
 10
79.08920470576643
 20
205.5173280695287
 30
0.0
 10
79.07680557944926
 20
205.5144817539406
 30
0.0
 10
79.06401816946553
 20
205.5130320475325
 30
0.0
 10
79.05131076939622
 20
205.5130320475325
 30
0.0
  0
SPLINE
  5
1E69
330
A
100
AcDbEntity
  8
MODEL
100
AcDbSpline
210
0.0
220
0.0
230
1.0
 70
     8
 71
     3
 72
    23
 73
    19
 74
     0
 42
0.000000001
 43
0.00000001
 40
0.0002728732326136
 40
0.0002728732326136
 40
0.0002728732326136
 40
0.0002728732326136
 40
0.0002927810134817
 40
0.0002927810134817
 40
0.0002927810134817
 40
0.000351332334099
 40
0.000351332334099
 40
0.000351332334099
 40
0.0004098844896223
 40
0.0004098844896223
 40
0.0004098844896223
 40
0.000468439005435
 40
0.000468439005435
 40
0.000468439005435
 40
0.0005269958916401
 40
0.0005269958916401
 40
0.0005269958916401
 40
0.0005453099422683
 40
0.0005453099422683
 40
0.0005453099422683
 40
0.0005453099422683
 10
79.0513107693969
 20
207.4312881783228
 30
0.0
 10
79.0578868290377
 20
207.4312881783228
 30
0.0
 10
79.0644743634439
 20
207.43090341313
 30
0.0
 10
79.0710083322247
 20
207.430137682433
 30
0.0
 10
79.0901068503754
 20
207.427899483552
 30
0.0
 10
79.10909380993783
 20
207.4222831561194
 30
0.0
 10
79.12639665962573
 20
207.413753855775
 30
0.0
 10
79.14369976245578
 20
207.4052244306456
 30
0.0
 10
79.15979590741043
 20
207.3935467210624
 30
0.0
 10
79.1733518763547
 20
207.3796877753205
 30
0.0
 10
79.18690838653359
 20
207.3658282762483
 30
0.0
 10
79.19829838697481
 20
207.349405130318
 30
0.0
 10
79.2065783816943
 20
207.331778272802
 30
0.0
 10
79.21485870489644
 20
207.3141507159951
 30
0.0
 10
79.22025713450651
 20
207.2948331724481
 30
0.0
 10
79.22232643935129
 20
207.2754252730272
 30
0.0
 10
79.22298199661466
 20
207.2692768365266
 30
0.0
 10
79.22331545628916
 20
207.26308468604
 30
0.0
 10
79.22332399310133
 20
207.2569012573424
 30
0.0
  0
SPLINE
  5
1E6A
330
A
100
AcDbEntity
  8
MODEL
100
AcDbSpline
210
0.0
220
0.0
230
1.0
 70
     8
 71
     3
 72
     8
 73
     4
 74
     0
 42
0.000000001
 43
0.00000001
 40
0.0
 40
0.0
 40
0.0
 40
0.0
 40
1.0
 40
1.0
 40
1.0
 40
1.0
 10
79.22332399310133
 20
207.2569012573424
 30
0.0
 10
79.22404626639971
 20
206.7337404943989
 30
0.0
 10
79.22404626639971
 20
206.2105797314559
 30
0.0
 10
79.22332399310133
 20
205.6874189685134
 30
0.0
  0
LINE
  5
1E6B
330
A
100
AcDbEntity
  8
MODEL
100
AcDbLine
 10
81.66765734373737
 20
208.7391900856794
 30
0.0
 11
83.04181552649791
 21
208.7391900856794
 31
0.0
  0
SPLINE
  5
1E6C
330
A
100
AcDbEntity
  8
MODEL
100
AcDbSpline
210
0.0
220
0.0
230
1.0
 70
     8
 71
     3
 72
     8
 73
     4
 74
     0
 42
0.000000001
 43
0.00000001
 40
0.0
 40
0.0
 40
0.0
 40
0.0
 40
1.0
 40
1.0
 40
1.0
 40
1.0
 10
83.04181552649791
 20
208.7391900856794
 30
0.0
 10
83.04511732574795
 20
207.7220113523497
 30
0.0
 10
83.0462105013485
 20
206.7047547034297
 30
0.0
 10
83.04506187651808
 20
205.6874189685134
 30
0.0
  0
SPLINE
  5
1E6D
330
A
100
AcDbEntity
  8
MODEL
100
AcDbSpline
210
0.0
220
0.0
230
1.0
 70
     8
 71
     3
 72
    20
 73
    16
 74
     0
 42
0.000000001
 43
0.00000001
 40
0.0000001971847228
 40
0.0000001971847228
 40
0.0000001971847228
 40
0.0000001971847228
 40
0.000058556575474
 40
0.000058556575474
 40
0.000058556575474
 40
0.0001171131701448
 40
0.0001171131701448
 40
0.0001171131701448
 40
0.0001756694077684
 40
0.0001756694077684
 40
0.0001756694077684
 40
0.0002342242320946
 40
0.0002342242320946
 40
0.0002342242320946
 40
0.0002728714084433
 40
0.0002728714084433
 40
0.0002728714084433
 40
0.0002728714084433
 10
83.04506187651808
 20
205.6874189685134
 30
0.0
 10
83.04503991338518
 20
205.6679662462459
 30
0.0
 10
83.04831268585625
 20
205.6482470532812
 30
0.0
 10
83.05461111975276
 20
205.6298835793957
 30
0.0
 10
83.06093083477234
 20
205.6114580590786
 30
0.0
 10
83.07047132126948
 20
205.5938902545165
 30
0.0
 10
83.08244292522298
 20
205.5786349964003
 30
0.0
 10
83.09441445267979
 20
205.5633798357605
 30
0.0
 10
83.10914729376103
 20
205.5500164265788
 30
0.0
 10
83.12542181225152
 20
205.5396515044824
 30
0.0
 10
83.14169594043759
 20
205.5292868309637
 30
0.0
 10
83.1599605699071
 20
205.5216346256764
 30
0.0
 10
83.1787033995893
 20
205.5173286623706
 30
0.0
 10
83.19109444305334
 20
205.514481953556
 30
0.0
 10
83.20387806179681
 20
205.5130320475325
 30
0.0
 10
83.21658611303931
 20
205.5130320475325
 30
0.0
  0
LINE
  5
1E6E
330
A
100
AcDbEntity
  8
MODEL
100
AcDbLine
 10
83.21658611303931
 20
205.5130320475325
 30
0.0
 11
83.94649279230092
 21
205.5130320475325
 31
0.0
  0
SPLINE
  5
1E6F
330
A
100
AcDbEntity
  8
MODEL
100
AcDbSpline
210
0.0
220
0.0
230
1.0
 70
     8
 71
     3
 72
    23
 73
    19
 74
     0
 42
0.000000001
 43
0.00000001
 40
0.0000549622725771
 40
0.0000549622725771
 40
0.0000549622725771
 40
0.0000549622725771
 40
0.000058552574312
 40
0.000058552574312
 40
0.000058552574312
 40
0.0001171051464242
 40
0.0001171051464242
 40
0.0001171051464242
 40
0.0001756578429126
 40
0.0001756578429126
 40
0.0001756578429126
 40
0.0002342117713681
 40
0.0002342117713681
 40
0.0002342117713681
 40
0.0002927672304418
 40
0.0002927672304418
 40
0.0002927672304418
 40
0.000327353583508
 40
0.000327353583508
 40
0.000327353583508
 40
0.000327353583508
 10
83.94649279230092
 20
205.5130320475325
 30
0.0
 10
83.94768632774324
 20
205.5130320475325
 30
0.0
 10
83.94887994472313
 20
205.5130446822943
 30
0.0
 10
83.95007325412078
 20
205.5130699476979
 30
0.0
 10
83.9692911814241
 20
205.5134768402334
 30
0.0
 10
83.98870940989266
 20
205.5172582542293
 30
0.0
 10
84.0067197529643
 20
205.5241010154698
 30
0.0
 10
84.02473014057207
 20
205.5309437936314
 30
0.0
 10
84.04182935978068
 20
205.5410366527883
 30
0.0
 10
84.05660117150686
 20
205.5535437764286
 30
0.0
 10
84.07137329251125
 20
205.5660511619305
 30
0.0
 10
84.08422531438103
 20
205.5813178654073
 30
0.0
 10
84.09409269423034
 20
205.5980796774422
 30
0.0
 10
84.10396032760539
 20
205.6148419201434
 30
0.0
 10
84.11111530742758
 20
205.6335616621302
 30
0.0
 10
84.114964933528
 20
205.6526887612843
 30
0.0
 10
84.11725977746394
 20
205.6640908316065
 30
0.0
 10
84.11843091865788
 20
205.6757838081983
 30
0.0
 10
84.11844341572785
 20
205.6874189685134
 30
0.0
  0
SPLINE
  5
1E70
330
A
100
AcDbEntity
  8
MODEL
100
AcDbSpline
210
0.0
220
0.0
230
1.0
 70
     8
 71
     3
 72
     8
 73
     4
 74
     0
 42
0.000000001
 43
0.00000001
 40
0.0
 40
0.0
 40
0.0
 40
0.0
 40
1.0
 40
1.0
 40
1.0
 40
1.0
 10
84.11844341572785
 20
205.6874189685134
 30
0.0
 10
84.11953610572053
 20
206.7047472504403
 30
0.0
 10
84.11849691399564
 20
207.7220039696424
 30
0.0
 10
84.11535442621269
 20
208.7391900856794
 30
0.0
  0
LINE
  5
1E71
330
A
100
AcDbEntity
  8
MODEL
100
AcDbLine
 10
84.11535442621269
 20
208.7391900856794
 30
0.0
 11
85.48946042024775
 21
208.7391900856794
 31
0.0
  0
SPLINE
  5
1E72
330
A
100
AcDbEntity
  8
MODEL
100
AcDbSpline
210
0.0
220
0.0
230
1.0
 70
     8
 71
     3
 72
     8
 73
     4
 74
     0
 42
0.000000001
 43
0.00000001
 40
0.0
 40
0.0
 40
0.0
 40
0.0
 40
1.0
 40
1.0
 40
1.0
 40
1.0
 10
85.48946042024775
 20
208.7391900856794
 30
0.0
 10
85.49242002279792
 20
207.7219959465458
 30
0.0
 10
85.49339746987337
 20
206.7047391589119
 30
0.0
 10
85.4923688970571
 20
205.6874189685134
 30
0.0
  0
SPLINE
  5
1E73
330
A
100
AcDbEntity
  8
MODEL
100
AcDbSpline
210
0.0
220
0.0
230
1.0
 70
     8
 71
     3
 72
    18
 73
    14
 74
     0
 42
0.000000001
 43
0.00000001
 40
0.0
 40
0.0
 40
0.0
 40
0.0
 40
0.1249999999999999
 40
0.1249999999999999
 40
0.2499999999999998
 40
0.2499999999999998
 40
0.3749999999999997
 40
0.3749999999999997
 40
0.4999999999999996
 40
0.4999999999999996
 40
0.7499999999999998
 40
0.7499999999999998
 40
1.0
 40
1.0
 40
1.0
 40
1.0
 10
85.4923688970571
 20
205.6874189685134
 30
0.0
 10
85.49226987599789
 20
205.5894812028466
 30
0.0
 10
85.48268887677708
 20
205.4931796452172
 30
0.0
 10
85.44533896432407
 20
205.3037151805468
 30
0.0
 10
85.41711771674684
 20
205.2095705727777
 30
0.0
 10
85.34351520842986
 20
205.030049967035
 30
0.0
 10
85.29850159502942
 20
204.9449053037895
 30
0.0
 10
85.19220275223714
 20
204.7837649692076
 30
0.0
 10
85.13035528399567
 20
204.7074738527933
 30
0.0
 10
84.92777820936593
 20
204.5023613984433
 30
0.0
 10
84.76456724280209
 20
204.3919280277817
 30
0.0
 10
84.41272892576674
 20
204.2441035654167
 30
0.0
 10
84.22054644570701
 20
204.2051301401755
 30
0.0
 10
84.02947195394543
 20
204.2051301401755
 30
0.0
  0
LINE
  5
1E74
330
A
100
AcDbEntity
  8
MODEL
100
AcDbLine
 10
84.02947195394543
 20
204.2051301401755
 30
0.0
 11
83.12769930532139
 21
204.2051301401755
 31
0.0
  0
SPLINE
  5
1E75
330
A
100
AcDbEntity
  8
MODEL
100
AcDbSpline
210
0.0
220
0.0
230
1.0
 70
     8
 71
     3
 72
    18
 73
    14
 74
     0
 42
0.000000001
 43
0.00000001
 40
0.0
 40
0.0
 40
0.0
 40
0.0
 40
0.1249999999999992
 40
0.1249999999999992
 40
0.2499999999999984
 40
0.2499999999999984
 40
0.3749999999999977
 40
0.3749999999999977
 40
0.4999999999999969
 40
0.4999999999999969
 40
0.7499999999999984
 40
0.7499999999999984
 40
1.0
 40
1.0
 40
1.0
 40
1.0
 10
83.12769930532139
 20
204.2051301401755
 30
0.0
 10
83.03252645685328
 20
204.2051301401755
 30
0.0
 10
82.9358942989684
 20
204.2147918642725
 30
0.0
 10
82.7488808633839
 20
204.252661501024
 30
0.0
 10
82.65801498170984
 20
204.2806569271877
 30
0.0
 10
82.48159108618395
 20
204.3548747371149
 30
0.0
 10
82.39628454193237
 20
204.4012822922298
 30
0.0
 10
82.23847922518055
 20
204.5085453664358
 30
0.0
 10
82.16495745114142
 20
204.5697708065361
 30
0.0
 10
81.96114802217633
 20
204.7771216412245
 30
0.0
 10
81.85444389098714
 20
204.9401920456537
 30
0.0
 10
81.70857628334673
 20
205.2992344285715
 30
0.0
 10
81.67089354608018
 20
205.4916663361453
 30
0.0
 10
81.67113005419154
 20
205.6874189685134
 30
0.0
  0
SPLINE
  5
1E76
330
A
100
AcDbEntity
  8
MODEL
100
AcDbSpline
210
0.0
220
0.0
230
1.0
 70
     8
 71
     3
 72
     8
 73
     4
 74
     0
 42
0.000000001
 43
0.00000001
 40
0.0
 40
0.0
 40
0.0
 40
0.0
 40
1.0
 40
1.0
 40
1.0
 40
1.0
 10
81.67113005419154
 20
205.6874189685134
 30
0.0
 10
81.67235921183513
 20
206.7047660772703
 30
0.0
 10
81.67118810677223
 20
207.722022605549
 30
0.0
 10
81.66765734373737
 20
208.7391900856794
 30
0.0
  0
LINE
  5
1E77
330
A
100
AcDbEntity
  8
MODEL
100
AcDbLine
 10
83.08427970130063
 20
204.2051301401755
 30
0.0
 11
83.12769930532139
 21
204.2051301401755
 31
0.0
  0
LINE
  5
1E78
330
A
100
AcDbEntity
  8
MODEL
100
AcDbLine
 10
81.62423657953562
 20
208.7391900856794
 30
0.0
 11
81.66765734373737
 21
208.7391900856794
 31
0.0
  0
LINE
  5
1E79
330
A
100
AcDbEntity
  8
MODEL
100
AcDbLine
 10
84.07193548079843
 20
208.7391900856794
 30
0.0
 11
84.11535442621269
 21
208.7391900856794
 31
0.0
  0
CIRCLE
  5
1E96
330
A
100
AcDbEntity
  8
MODEL
  6
STYLE_12
 48
0.25
100
AcDbCircle
 10
55.10116333323754
 20
218.5965157659095
 30
0.0
 40
5.000000000000206
  0
CIRCLE
  5
1E97
330
A
100
AcDbEntity
  8
MODEL
  6
STYLE_12
 48
0.25
100
AcDbCircle
 10
48.1011633332372
 20
206.4721601129274
 30
0.0
 40
5.000000000000206
  0
CIRCLE
  5
1E98
330
A
100
AcDbEntity
  8
MODEL
  6
STYLE_12
 48
0.25
100
AcDbCircle
 10
55.10116333323764
 20
194.3478044599451
 30
0.0
 40
5.000000000000206
  0
CIRCLE
  5
1EA6
330
A
100
AcDbEntity
  8
MODEL
  6
STYLE_12
 48
0.25
100
AcDbCircle
 10
69.101163333237
 20
194.3478044599451
 30
0.0
 40
5.000000000000206
  0
CIRCLE
  5
1EA7
330
A
100
AcDbEntity
  8
MODEL
  6
STYLE_12
 48
0.25
100
AcDbCircle
 10
76.10116333323745
 20
206.4721601129274
 30
0.0
 40
5.000000000000206
  0
CIRCLE
  5
1EA8
330
A
100
AcDbEntity
  8
MODEL
  6
STYLE_12
 48
0.25
100
AcDbCircle
 10
69.10116333323711
 20
218.5965157659095
 30
0.0
 40
5.000000000000206
  0
DIMENSION
  5
1EE1
330
A
100
AcDbEntity
  8
DIM
100
AcDbDimension
  2
*D15
 10
89.60116333323734
 20
245.790813593645
 30
0.0
 11
62.10116333323734
 21
245.790813593645
 31
0.0
 70
   160
 71
     5
 42
55.0
 73
     0
 74
     0
 75
     0
  3
tfrom線あり
100
AcDbAlignedDimension
 13
34.60116333323734
 23
228.5481426637592
 33
0.0
 14
89.60116333323734
 24
228.5481426637592
 34
0.0
100
AcDbRotatedDimension
1001
ACAD
1000
DSTYLE
1002
{
1070
     3
1000
ø<>
1002
}
  0
DIMENSION
  5
1EFC
102
{ACAD_REACTORS
330
1EFE
102
}
102
{ACAD_XDICTIONARY
360
1EFD
102
}
330
A
100
AcDbEntity
  8
DIM
100
AcDbDimension
  2
*D16
 10
99.20068422577774
 20
146.2591993197858
 30
0.0
 11
93.70068422577774
 21
124.7591993197857
 31
0.0
 70
    32
 71
     5
 42
43.00000000000033
 73
     0
 74
     0
 75
     0
  3
tfrom線あり
100
AcDbAlignedDimension
 13
86.60116333323711
 23
103.2591993197855
 33
0.0
 14
62.10116333323734
 24
146.2591993197858
 34
0.0
 50
90.0
100
AcDbRotatedDimension
  0
DIMENSION
  5
1F0B
102
{ACAD_REACTORS
330
1F0D
102
}
102
{ACAD_XDICTIONARY
360
1F0C
102
}
330
A
100
AcDbEntity
  8
DIM
100
AcDbDimension
  2
*D17
 10
65.60116333323757
 20
154.0285517082477
 30
0.0
 11
62.10116333323722
 21
154.0285517082477
 31
0.0
 70
   160
 71
     5
 42
7.000000000000682
 73
     0
 74
     0
 75
     0
  3
tfrom線あり
100
AcDbAlignedDimension
 13
58.60116333323688
 23
142.7591993197856
 33
0.0
 14
65.60116333323757
 24
142.7591993197856
 34
0.0
100
AcDbRotatedDimension
1001
ACAD
1000
DSTYLE
1002
{
1070
     3
1000
ø<>
1002
}
  0
DIMENSION
  5
1F36
330
A
100
AcDbEntity
  8
DIM
100
AcDbDimension
  2
*D18
 10
99.20068422577774
 20
96.74078982504352
 30
0.0
 11
99.20068422577774
 21
99.99999457241452
 31
0.0
 70
   160
 71
     5
 42
6.518409494741989
 73
     0
 74
     0
 75
     0
  3
tfrom線あり
100
AcDbAlignedDimension
 13
86.60116333323711
 23
103.2591993197855
 33
0.0
 14
76.35175787820339
 24
96.74078982504352
 34
0.0
 50
90.0
100
AcDbRotatedDimension
  0
VIEWPORT
  5
349
330
B
100
AcDbEntity
 67
     1
  8
0
100
AcDbViewport
 10
202.5
 20
128.5
 30
0.0
 40
486.0
 41
308.4
 68
     1
 69
     1
 12
202.5
 22
128.5
 13
0.0
 23
0.0
 14
0.5
 24
0.5
 15
0.0
 25
0.0
 16
0.0
 26
0.0
 36
1.0
 17
0.0
 27
0.0
 37
0.0
 42
50.0
 43
0.0
 44
0.0
 45
308.4
 50
0.0
 51
0.0
 72
   100
 90
   557152
  1

281
     0
 71
     1
 74
     0
110
0.0
120
0.0
130
0.0
111
1.0
121
0.0
131
0.0
112
0.0
122
1.0
132
0.0
 79
     0
146
0.0
170
     0
 61
     5
348
26C
292
     1
282
     1
141
0.0
142
0.0
 63
   256
  0
VIEWPORT
  5
34A
330
B
100
AcDbEntity
 67
     1
  8
0
100
AcDbViewport
 10
202.5
 20
128.5
 30
0.0
 40
324.0
 41
205.6
 68
     2
 69
     2
 12
986.6781359294573
 22
1427.077061889956
 13
0.0
 23
0.0
 14
0.5
 24
0.5
 15
0.0
 25
0.0
 16
0.0
 26
0.0
 36
1.0
 17
0.0
 27
0.0
 37
0.0
 42
50.0
 43
0.0
 44
0.0
 45
2890.021615685494
 50
0.0
 51
0.0
 72
   100
 90
   557152
  1

281
     0
 71
     1
 74
     0
110
0.0
120
0.0
130
0.0
111
1.0
121
0.0
131
0.0
112
0.0
122
1.0
132
0.0
 79
     0
146
0.0
170
     0
 61
     5
348
26C
292
     1
282
     1
141
0.0
142
0.0
 63
   256
  0
ENDSEC
  0
SECTION
  2
OBJECTS
  0
DICTIONARY
  5
19
330
0
100
AcDbDictionary
281
     1
  3
ACAD_COLOR
350
674
  3
ACAD_DETAILVIEWSTYLE
350
BBF
  3
ACAD_GROUP
350
1A
  3
ACAD_IMAGE_VARS
350
27B
  3
ACAD_LAYOUT
350
1E
  3
ACAD_MATERIAL
350
263
  3
ACAD_MLEADERSTYLE
350
336
  3
ACAD_MLINESTYLE
350
1B
  3
ACAD_PLOTSETTINGS
350
22
  3
ACAD_PLOTSTYLENAME
350
1F
  3
ACAD_SCALELIST
350
241
  3
ACAD_SECTIONVIEWSTYLE
350
BC0
  3
ACAD_TABLESTYLE
350
278
  3
ACAD_VISUALSTYLE
350
267
  3
ACDB_RECOMPOSE_DATA
350
1F98
  3
AcDbVariableDictionary
350
330
  3
APPDATA
350
27A
  3
DimOffsetDictionary
350
1E8B
  0
SUN
  5
904
330
15
100
AcDbSun
 90
        1
290
     0
 63
     7
421
 16777215
 40
1.0
291
     1
 91
  2455826
 92
 54000000
292
     0
 70
     2
 71
   256
280
     1
  0
DICTIONARY
  5
2E1
330
2
100
AcDbDictionary
280
     1
281
     1
  3
ACAD_LAYERSTATES
360
2E2
  3
ACLYDICTIONARY
360
1AC2
  0
DICTIONARY
  5
1EFD
330
1EFC
100
AcDbDictionary
280
     1
281
     1
  3
ACAD_DIMASSOC
360
1EFE
  0
DICTIONARY
  5
1F0C
330
1F0B
100
AcDbDictionary
280
     1
281
     1
  3
ACAD_DIMASSOC
360
1F0D
  0
DICTIONARY
  5
674
102
{ACAD_REACTORS
330
19
102
}
330
19
100
AcDbDictionary
281
     1
  0
DICTIONARY
  5
BBF
102
{ACAD_REACTORS
330
19
102
}
330
19
100
AcDbDictionary
281
     1
  0
DICTIONARY
  5
1A
102
{ACAD_REACTORS
330
19
102
}
330
19
100
AcDbDictionary
281
     1
  0
RASTERVARIABLES
  5
27B
102
{ACAD_REACTORS
330
19
102
}
330
19
100
AcDbRasterVariables
 90
        0
 70
     1
 71
     1
 72
     1
  0
DICTIONARY
  5
1E
102
{ACAD_REACTORS
330
19
102
}
330
19
100
AcDbDictionary
281
     1
  3
Layout1
350
21
  3
Model
350
20
  0
DICTIONARY
  5
263
102
{ACAD_REACTORS
330
19
102
}
330
19
100
AcDbDictionary
281
     1
  3
ByBlock
350
265
  3
ByLayer
350
264
  3
Global
350
266
  0
DICTIONARY
  5
336
102
{ACAD_REACTORS
330
19
102
}
330
19
100
AcDbDictionary
281
     1
  3
Standard
350
DCC
  0
DICTIONARY
  5
1B
102
{ACAD_REACTORS
330
19
102
}
330
19
100
AcDbDictionary
281
     1
  3
Standard
350
1C
  0
DICTIONARY
  5
22
102
{ACAD_REACTORS
330
19
102
}
330
19
100
AcDbDictionary
281
     1
  0
ACDBDICTIONARYWDFLT
  5
1F
102
{ACAD_REACTORS
330
19
102
}
330
19
100
AcDbDictionary
281
     1
  3
Normal
350
1D
100
AcDbDictionaryWithDefault
340
1D
  0
DICTIONARY
  5
241
102
{ACAD_REACTORS
330
19
102
}
330
19
100
AcDbDictionary
281
     1
  3
*A1
350
DDF
  3
A0
350
242
  3
A1
350
243
  3
A2
350
244
  3
A3
350
245
  3
A4
350
246
  3
A5
350
247
  3
A6
350
248
  3
A7
350
249
  3
A8
350
24A
  3
A9
350
24B
  3
B0
350
24C
  3
B1
350
24D
  3
B2
350
24E
  3
B3
350
24F
  3
B4
350
250
  3
B5
350
251
  3
B6
350
252
  3
B7
350
253
  3
B8
350
254
  3
B9
350
255
  3
C0
350
256
  3
C1
350
257
  3
C2
350
258
  3
C3
350
259
  3
C4
350
25A
  3
C5
350
25B
  3
C6
350
25C
  3
C7
350
25D
  3
C8
350
25E
  3
C9
350
25F
  3
D0
350
260
  3
D1
350
261
  3
D2
350
262
  0
DICTIONARY
  5
BC0
102
{ACAD_REACTORS
330
19
102
}
330
19
100
AcDbDictionary
281
     1
  0
DICTIONARY
  5
278
102
{ACAD_REACTORS
330
19
102
}
330
19
100
AcDbDictionary
281
     1
  3
Standard
350
279
  0
DICTIONARY
  5
267
102
{ACAD_REACTORS
330
19
102
}
330
19
100
AcDbDictionary
281
     1
  3
2dWireframe
350
26C
  3
3D Hidden
350
26E
  3
3dWireframe
350
26D
  3
Basic
350
26F
  3
Brighten
350
273
  3
ColorChange
350
277
  3
Conceptual
350
271
  3
Dim
350
272
  3
EdgeColorOff
350
8FE
  3
Facepattern
350
276
  3
Flat
350
268
  3
FlatWithEdges
350
269
  3
Gouraud
350
26A
  3
GouraudWithEdges
350
26B
  3
Hidden
350
8FB
  3
JitterOff
350
8FC
  3
Linepattern
350
275
  3
OverhangOff
350
8FD
  3
Realistic
350
270
  3
Shaded
350
903
  3
Shaded with edges
350
902
  3
Shades of Gray
350
8FF
  3
Sketchy
350
900
  3
Thicken
350
274
  3
Wireframe
350
8FA
  3
X-Ray
350
901
  0
XRECORD
  5
1F98
102
{ACAD_REACTORS
330
19
102
}
330
19
100
AcDbXrecord
280
     1
 90
        1
330
279
  0
DICTIONARY
  5
330
102
{ACAD_REACTORS
330
19
102
}
330
19
100
AcDbDictionary
281
     1
  3
CANNOSCALE
350
331
  3
CMLEADERSTYLE
350
1ABC
  3
CTABLESTYLE
350
335
  3
HPTRANSPARENCY
350
D6B
  3
XCLIPFRAME
350
896
  0
DICTIONARY
  5
27A
102
{ACAD_REACTORS
330
19
102
}
330
19
100
AcDbDictionary
281
     1
  0
DICTIONARY
  5
1E8B
102
{ACAD_REACTORS
330
19
102
}
330
19
100
AcDbDictionary
281
     1
  3
DIMRAILANGLE
350
1E92
  3
DIMRAILFIRSTOFFSET
350
1E90
  3
DIMRAILOFFSET
350
1E91
  3
DIMRAILSENABLED
350
1E93
  0
DICTIONARY
  5
2E2
102
{ACAD_REACTORS
330
2E1
102
}
330
2E1
100
AcDbDictionary
281
     1
  3
ARGON_LAYERP_9
350
7AA
  0
DICTIONARY
  5
1AC2
102
{ACAD_REACTORS
330
2E1
102
}
330
2E1
100
AcDbDictionary
281
     1
1001
ACAD
1000
<All
  0
DIMASSOC
  5
1EFE
102
{ACAD_REACTORS
330
1EFD
102
}
330
1EFD
100
AcDbDimAssoc
330
1EFC
 90
        1
 70
     0
 71
     1
  1
AcDbOsnapPointRef
 72
    13
331
1DD8
 73
     0
 91
        0
 40
0.0
 10
0.0
 20
0.0
 30
0.0
 75
     0
  0
DIMASSOC
  5
1F0D
102
{ACAD_REACTORS
330
1F0C
102
}
330
1F0C
100
AcDbDimAssoc
330
1F0B
 90
        3
 70
     0
 71
     1
  1
AcDbOsnapPointRef
 72
    13
331
1DEE
 73
     0
 91
        0
 40
0.0
 10
0.0
 20
0.0
 30
0.0
 75
     0
  1
AcDbOsnapPointRef
 72
    13
331
1DEF
 73
     0
 91
        0
 40
0.0
 10
0.0
 20
0.0
 30
0.0
 75
     0
  0
LAYOUT
  5
21
102
{ACAD_REACTORS
330
1E
102
}
330
1E
100
AcDbPlotSettings
  1

  2
none_device
  4
ISO_A3_(420.00_x_297.00_MM)
  6

 40
7.5
 41
20.0
 42
7.5
 43
20.0
 44
420.0
 45
297.0
 46
0.0
 47
0.0
 48
0.0
 49
0.0
140
0.0
141
0.0
142
1.0
143
1.0
 70
     0
 72
     1
 73
     0
 74
     0
  7

 75
     0
 76
     0
 77
     2
 78
   300
147
1.0
148
0.0
149
0.0
100
AcDbLayout
  1
Layout1
 70
     0
 71
     0
 10
-7.5
 20
-20.0
 11
412.5
 21
277.0
 12
0.0
 22
0.0
 32
0.0
 14
0.0
 24
0.0
 34
0.0
 15
0.0
 25
0.0
 35
0.0
146
0.0
 13
0.0
 23
0.0
 33
0.0
 16
0.0
 26
0.0
 36
0.0
 17
0.0
 27
0.0
 37
0.0
 76
     0
330
B
331
349
  0
LAYOUT
  5
20
102
{ACAD_REACTORS
330
1E
102
}
330
1E
100
AcDbPlotSettings
  1

  2
none_device
  4
ISO_A3_(420.00_x_297.00_MM)
  6

 40
7.5
 41
20.0
 42
7.5
 43
20.0
 44
420.0
 45
297.0
 46
0.0
 47
0.0
 48
0.0
 49
0.0
140
0.0
141
0.0
142
1.0
143
1.0
 70
  1024
 72
     1
 73
     0
 74
     0
  7

 75
     0
 76
     0
 77
     2
 78
   300
147
1.0
148
0.0
149
0.0
100
AcDbLayout
  1
Model
 70
     0
 71
     1
 10
0.0
 20
0.0
 11
210.0
 21
297.0000000000001
 12
0.0
 22
0.0
 32
0.0
 14
0.0
 24
0.0
 34
-0.0000000000000142
 15
209.9999999999995
 25
297.0
 35
0.0000000000000071
146
0.0
 13
0.0
 23
0.0
 33
0.0
 16
0.0
 26
0.0
 36
0.0
 17
0.0
 27
0.0
 37
0.0
 76
     0
330
A
331
15
  0
MATERIAL
  5
265
102
{ACAD_REACTORS
330
263
102
}
330
263
100
AcDbMaterial
  1
ByBlock
 72
     1
 94
      127
  0
MATERIAL
  5
264
102
{ACAD_REACTORS
330
263
102
}
330
263
100
AcDbMaterial
  1
ByLayer
 72
     1
 94
      127
  0
MATERIAL
  5
266
102
{ACAD_REACTORS
330
263
102
}
330
263
100
AcDbMaterial
  1
Global
 72
     1
 94
      127
  0
MLEADERSTYLE
  5
DCC
102
{ACAD_REACTORS
330
336
102
}
330
336
100
AcDbMLeaderStyle
170
     2
171
     1
172
     0
 90
        2
 40
0.0
 41
0.0
173
     1
 91
-1056964608
340
11
 92
       -2
290
     1
 42
2.0
291
     1
 43
8.0
  3
Standard
341
0
 44
4.0
300

342
17
174
     1
178
     6
175
     1
176
     0
 93
-1056964608
 45
4.0
292
     0
297
     0
 46
4.0
343
0
 94
-1056964608
 47
1.0
 49
1.0
140
1.0
293
     1
141
0.0
294
     1
177
     0
142
1.0
295
     0
296
     0
143
3.75
1001
ACAD_MLEADERVER
1070
     2
  0
MLINESTYLE
  5
1C
102
{ACAD_REACTORS
330
1B
102
}
330
1B
100
AcDbMlineStyle
  2
Standard
 70
     0
  3

 62
     0
 51
90.0
 52
90.0
 71
     2
 49
0.5
 62
   256
  6
BYLAYER
 49
-0.5
 62
   256
  6
BYLAYER
  0
ACDBPLACEHOLDER
  5
1D
102
{ACAD_REACTORS
330
1F
102
}
330
1F
  0
SCALE
  5
DDF
102
{ACAD_REACTORS
330
241
102
}
330
241
100
AcDbScale
 70
     0
300
1:1_XREF_XREF
140
1.0
141
1.0
290
     0
  0
SCALE
  5
242
102
{ACAD_REACTORS
330
241
102
}
330
241
100
AcDbScale
 70
     0
300
1:1
140
1.0
141
1.0
290
     1
  0
SCALE
  5
243
102
{ACAD_REACTORS
330
241
102
}
330
241
100
AcDbScale
 70
     0
300
1:2
140
1.0
141
2.0
290
     0
  0
SCALE
  5
244
102
{ACAD_REACTORS
330
241
102
}
330
241
100
AcDbScale
 70
     0
300
1:4
140
1.0
141
4.0
290
     0
  0
SCALE
  5
245
102
{ACAD_REACTORS
330
241
102
}
330
241
100
AcDbScale
 70
     0
300
1:5
140
1.0
141
5.0
290
     0
  0
SCALE
  5
246
102
{ACAD_REACTORS
330
241
102
}
330
241
100
AcDbScale
 70
     0
300
1:8
140
1.0
141
8.0
290
     0
  0
SCALE
  5
247
102
{ACAD_REACTORS
330
241
102
}
330
241
100
AcDbScale
 70
     0
300
1:10
140
1.0
141
10.0
290
     0
  0
SCALE
  5
248
102
{ACAD_REACTORS
330
241
102
}
330
241
100
AcDbScale
 70
     0
300
1:16
140
1.0
141
16.0
290
     0
  0
SCALE
  5
249
102
{ACAD_REACTORS
330
241
102
}
330
241
100
AcDbScale
 70
     0
300
1:20
140
1.0
141
20.0
290
     0
  0
SCALE
  5
24A
102
{ACAD_REACTORS
330
241
102
}
330
241
100
AcDbScale
 70
     0
300
1:30
140
1.0
141
30.0
290
     0
  0
SCALE
  5
24B
102
{ACAD_REACTORS
330
241
102
}
330
241
100
AcDbScale
 70
     0
300
1:40
140
1.0
141
40.0
290
     0
  0
SCALE
  5
24C
102
{ACAD_REACTORS
330
241
102
}
330
241
100
AcDbScale
 70
     0
300
1:50
140
1.0
141
50.0
290
     0
  0
SCALE
  5
24D
102
{ACAD_REACTORS
330
241
102
}
330
241
100
AcDbScale
 70
     0
300
1:100
140
1.0
141
100.0
290
     0
  0
SCALE
  5
24E
102
{ACAD_REACTORS
330
241
102
}
330
241
100
AcDbScale
 70
     0
300
2:1
140
2.0
141
1.0
290
     0
  0
SCALE
  5
24F
102
{ACAD_REACTORS
330
241
102
}
330
241
100
AcDbScale
 70
     0
300
4:1
140
4.0
141
1.0
290
     0
  0
SCALE
  5
250
102
{ACAD_REACTORS
330
241
102
}
330
241
100
AcDbScale
 70
     0
300
8:1
140
8.0
141
1.0
290
     0
  0
SCALE
  5
251
102
{ACAD_REACTORS
330
241
102
}
330
241
100
AcDbScale
 70
     0
300
10:1
140
10.0
141
1.0
290
     0
  0
SCALE
  5
252
102
{ACAD_REACTORS
330
241
102
}
330
241
100
AcDbScale
 70
     0
300
100:1
140
100.0
141
1.0
290
     0
  0
SCALE
  5
253
102
{ACAD_REACTORS
330
241
102
}
330
241
100
AcDbScale
 70
     0
300
1/128" = 1'-0"
140
0.0078125
141
12.0
290
     0
  0
SCALE
  5
254
102
{ACAD_REACTORS
330
241
102
}
330
241
100
AcDbScale
 70
     0
300
1/64" = 1'-0"
140
0.015625
141
12.0
290
     0
  0
SCALE
  5
255
102
{ACAD_REACTORS
330
241
102
}
330
241
100
AcDbScale
 70
     0
300
1/32" = 1'-0"
140
0.03125
141
12.0
290
     0
  0
SCALE
  5
256
102
{ACAD_REACTORS
330
241
102
}
330
241
100
AcDbScale
 70
     0
300
1/16" = 1'-0"
140
0.0625
141
12.0
290
     0
  0
SCALE
  5
257
102
{ACAD_REACTORS
330
241
102
}
330
241
100
AcDbScale
 70
     0
300
3/32" = 1'-0"
140
0.09375
141
12.0
290
     0
  0
SCALE
  5
258
102
{ACAD_REACTORS
330
241
102
}
330
241
100
AcDbScale
 70
     0
300
1/8" = 1'-0"
140
0.125
141
12.0
290
     0
  0
SCALE
  5
259
102
{ACAD_REACTORS
330
241
102
}
330
241
100
AcDbScale
 70
     0
300
3/16" = 1'-0"
140
0.1875
141
12.0
290
     0
  0
SCALE
  5
25A
102
{ACAD_REACTORS
330
241
102
}
330
241
100
AcDbScale
 70
     0
300
1/4" = 1'-0"
140
0.25
141
12.0
290
     0
  0
SCALE
  5
25B
102
{ACAD_REACTORS
330
241
102
}
330
241
100
AcDbScale
 70
     0
300
3/8" = 1'-0"
140
0.375
141
12.0
290
     0
  0
SCALE
  5
25C
102
{ACAD_REACTORS
330
241
102
}
330
241
100
AcDbScale
 70
     0
300
1/2" = 1'-0"
140
0.5
141
12.0
290
     0
  0
SCALE
  5
25D
102
{ACAD_REACTORS
330
241
102
}
330
241
100
AcDbScale
 70
     0
300
3/4" = 1'-0"
140
0.75
141
12.0
290
     0
  0
SCALE
  5
25E
102
{ACAD_REACTORS
330
241
102
}
330
241
100
AcDbScale
 70
     0
300
1" = 1'-0"
140
1.0
141
12.0
290
     0
  0
SCALE
  5
25F
102
{ACAD_REACTORS
330
241
102
}
330
241
100
AcDbScale
 70
     0
300
1-1/2" = 1'-0"
140
1.5
141
12.0
290
     0
  0
SCALE
  5
260
102
{ACAD_REACTORS
330
241
102
}
330
241
100
AcDbScale
 70
     0
300
3" = 1'-0"
140
3.0
141
12.0
290
     0
  0
SCALE
  5
261
102
{ACAD_REACTORS
330
241
102
}
330
241
100
AcDbScale
 70
     0
300
6" = 1'-0"
140
6.0
141
12.0
290
     0
  0
SCALE
  5
262
102
{ACAD_REACTORS
330
241
102
}
330
241
100
AcDbScale
 70
     0
300
1'-0" = 1'-0"
140
12.0
141
12.0
290
     0
  0
TABLESTYLE
  5
279
102
{ACAD_REACTORS
330
278
102
}
102
{ACAD_XDICTIONARY
360
1F96
102
}
330
278
100
AcDbTableStyle
  3
Standard
 70
     0
 71
     0
 40
0.06
 41
0.06
280
     0
281
     0
  7
Standard
140
4.5
170
     2
 62
     0
 63
   257
283
     0
 90
        4
 91
        0
  1

274
    -2
284
     1
 64
     0
275
    -2
285
     1
 65
     0
276
    -2
286
     1
 66
     0
277
    -2
287
     1
 67
     0
278
    -2
288
     1
 68
     0
279
    -2
289
     1
 69
     0
  7
Standard
140
6.0
170
     5
 62
     0
 63
   257
283
     0
 90
        4
 91
        0
  1

274
    -2
284
     1
 64
     0
275
    -2
285
     1
 65
     0
276
    -2
286
     1
 66
     0
277
    -2
287
     1
 67
     0
278
    -2
288
     1
 68
     0
279
    -2
289
     1
 69
     0
  7
Standard
140
4.5
170
     5
 62
     0
 63
   257
283
     0
 90
        4
 91
        0
  1

274
    -2
284
     1
 64
     0
275
    -2
285
     1
 65
     0
276
    -2
286
     1
 66
     0
277
    -2
287
     1
 67
     0
278
    -2
288
     1
 68
     0
279
    -2
289
     1
 69
     0
  0
VISUALSTYLE
  5
26C
102
{ACAD_REACTORS
330
267
102
}
330
267
100
AcDbVisualStyle
  2
2dWireframe
 70
     4
 71
     0
 72
     2
 73
     0
 90
        0
 40
-0.6
 41
-30.0
 62
     5
 63
     7
421
 16777215
 74
     1
 91
        4
 64
     7
 65
   257
 75
     1
175
     1
 42
1.0
 92
        0
 66
   257
 43
1.0
 76
     1
 77
     6
 78
     2
 67
     7
 79
     5
170
     0
171
     0
290
     0
174
     0
 93
        1
 44
0.0
173
     0
291
     0
 45
0.0
  0
VISUALSTYLE
  5
26E
102
{ACAD_REACTORS
330
267
102
}
330
267
100
AcDbVisualStyle
  2
3D Hidden
 70
     6
 71
     1
 72
     2
 73
     2
 90
        0
 40
-0.6
 41
-30.0
 62
     5
 63
     7
421
 16777215
 74
     2
 91
        2
 64
     7
 65
   257
 75
     2
175
     1
 42
40.0
 92
        0
 66
   257
 43
1.0
 76
     1
 77
     6
 78
     2
 67
     7
 79
     3
170
     0
171
     0
290
     0
174
     0
 93
        1
 44
0.0
173
     0
291
     0
 45
0.0
  0
VISUALSTYLE
  5
26D
102
{ACAD_REACTORS
330
267
102
}
330
267
100
AcDbVisualStyle
  2
3dWireframe
 70
     5
 71
     0
 72
     2
 73
     0
 90
        0
 40
-0.6
 41
-30.0
 62
     5
 63
     7
421
 16777215
 74
     1
 91
        4
 64
     7
 65
   257
 75
     1
175
     1
 42
1.0
 92
        0
 66
   257
 43
1.0
 76
     1
 77
     6
 78
     2
 67
     7
 79
     5
170
     0
171
     0
290
     0
174
     0
 93
        1
 44
0.0
173
     0
291
     0
 45
0.0
  0
VISUALSTYLE
  5
26F
102
{ACAD_REACTORS
330
267
102
}
330
267
100
AcDbVisualStyle
  2
Basic
 70
     7
 71
     1
 72
     0
 73
     1
 90
        0
 40
-0.6
 41
-30.0
 62
     5
 63
     7
421
 16777215
 74
     0
 91
        4
 64
     7
 65
   257
 75
     1
175
     1
 42
1.0
 92
        8
 66
     7
 43
1.0
 76
     1
 77
     6
 78
     2
 67
     7
 79
     5
170
     0
171
     0
290
     0
174
     0
 93
        1
 44
0.0
173
     0
291
     1
 45
0.0
  0
VISUALSTYLE
  5
273
102
{ACAD_REACTORS
330
267
102
}
330
267
100
AcDbVisualStyle
  2
Brighten
 70
    12
 71
     2
 72
     2
 73
     0
 90
        0
 40
-0.6
 41
-30.0
 62
     5
 63
     7
421
 16777215
 74
     1
 91
        4
 64
     7
 65
   257
 75
     1
175
     1
 42
1.0
 92
        8
 66
     7
 43
1.0
 76
     1
 77
     6
 78
     2
 67
     7
 79
     5
170
     0
171
     0
290
     0
174
     0
 93
        1
 44
50.0
173
     0
291
     1
 45
0.0
  0
VISUALSTYLE
  5
277
102
{ACAD_REACTORS
330
267
102
}
330
267
100
AcDbVisualStyle
  2
ColorChange
 70
    16
 71
     2
 72
     2
 73
     3
 90
        0
 40
-0.6
 41
-30.0
 62
     5
 63
     8
421
  8421504
 74
     1
 91
        4
 64
     7
 65
   257
 75
     1
175
     1
 42
1.0
 92
        8
 66
     8
424
  8421504
 43
1.0
 76
     1
 77
     6
 78
     2
 67
     7
 79
     5
170
     0
171
     0
290
     0
174
     0
 93
        1
 44
0.0
173
     0
291
     1
 45
0.0
  0
VISUALSTYLE
  5
271
102
{ACAD_REACTORS
330
267
102
}
330
267
100
AcDbVisualStyle
  2
Conceptual
 70
     9
 71
     3
 72
     2
 73
     0
 90
        0
 40
-0.6
 41
-30.0
 62
     5
 63
     7
421
 16777215
 74
     2
 91
        2
 64
     7
 65
   257
 75
     1
175
     1
 42
40.0
 92
        8
 66
     7
 43
1.0
 76
     1
 77
     6
 78
     2
 67
     7
 79
     3
170
     0
171
     0
290
     0
174
     0
 93
        1
 44
0.0
173
     0
291
     0
 45
0.0
  0
VISUALSTYLE
  5
272
102
{ACAD_REACTORS
330
267
102
}
330
267
100
AcDbVisualStyle
  2
Dim
 70
    11
 71
     2
 72
     2
 73
     0
 90
        0
 40
-0.6
 41
-30.0
 62
     5
 63
     7
421
 16777215
 74
     1
 91
        4
 64
     7
 65
   257
 75
     1
175
     1
 42
1.0
 92
        8
 66
     7
 43
1.0
 76
     1
 77
     6
 78
     2
 67
     7
 79
     5
170
     0
171
     0
290
     0
174
     0
 93
        1
 44
-50.0
173
     0
291
     1
 45
0.0
  0
VISUALSTYLE
  5
8FE
102
{ACAD_REACTORS
330
267
102
}
330
267
100
AcDbVisualStyle
  2
EdgeColorOff
 70
    22
 71
     2
 72
     2
 73
     0
 90
        0
 40
0.6
 41
30.0
 62
     5
 63
     7
421
 16777215
 74
     1
 91
        4
 64
     7
 65
   257
 75
     1
175
     1
 42
1.0
 92
        8
 66
     7
 43
1.0
 76
     1
 77
     6
 78
     2
 67
     7
 79
     5
170
     0
171
     0
290
     0
174
     0
 93
        1
 44
0.0
173
     0
291
     1
 45
0.0
  0
VISUALSTYLE
  5
276
102
{ACAD_REACTORS
330
267
102
}
330
267
100
AcDbVisualStyle
  2
Facepattern
 70
    15
 71
     2
 72
     2
 73
     0
 90
        0
 40
-0.6
 41
-30.0
 62
     5
 63
     7
421
 16777215
 74
     1
 91
        4
 64
     7
 65
   257
 75
     1
175
     1
 42
1.0
 92
        8
 66
     7
 43
1.0
 76
     1
 77
     6
 78
     2
 67
     7
 79
     5
170
     0
171
     0
290
     0
174
     0
 93
        1
 44
0.0
173
     0
291
     1
 45
0.0
  0
VISUALSTYLE
  5
268
102
{ACAD_REACTORS
330
267
102
}
330
267
100
AcDbVisualStyle
  2
Flat
 70
     0
 71
     2
 72
     1
 73
     1
 90
        2
 40
-0.6
 41
30.0
 62
     5
 63
     7
421
 16777215
 74
     0
 91
        4
 64
     7
 65
   257
 75
     1
175
     1
 42
1.0
 92
        8
 66
     7
 43
1.0
 76
     1
 77
     6
 78
     2
 67
     7
 79
     5
170
     0
171
     0
290
     0
174
     0
 93
       13
 44
0.0
173
     0
291
     1
 45
0.0
  0
VISUALSTYLE
  5
269
102
{ACAD_REACTORS
330
267
102
}
330
267
100
AcDbVisualStyle
  2
FlatWithEdges
 70
     1
 71
     2
 72
     1
 73
     1
 90
        2
 40
-0.6
 41
30.0
 62
     5
 63
     7
421
 16777215
 74
     1
 91
        4
 64
     7
 65
   257
 75
     1
175
     1
 42
1.0
 92
        0
 66
   257
 43
1.0
 76
     1
 77
     6
 78
     2
 67
     7
 79
     5
170
     0
171
     0
290
     0
174
     0
 93
       13
 44
0.0
173
     0
291
     1
 45
0.0
  0
VISUALSTYLE
  5
26A
102
{ACAD_REACTORS
330
267
102
}
330
267
100
AcDbVisualStyle
  2
Gouraud
 70
     2
 71
     2
 72
     2
 73
     1
 90
        2
 40
-0.6
 41
30.0
 62
     5
 63
     7
421
 16777215
 74
     0
 91
        4
 64
     7
 65
   257
 75
     1
175
     1
 42
1.0
 92
        0
 66
     7
 43
1.0
 76
     1
 77
     6
 78
     2
 67
     7
 79
     5
170
     0
171
     0
290
     0
174
     0
 93
       13
 44
0.0
173
     0
291
     1
 45
0.0
  0
VISUALSTYLE
  5
26B
102
{ACAD_REACTORS
330
267
102
}
330
267
100
AcDbVisualStyle
  2
GouraudWithEdges
 70
     3
 71
     2
 72
     2
 73
     1
 90
        2
 40
-0.6
 41
30.0
 62
     5
 63
     7
421
 16777215
 74
     1
 91
        4
 64
     7
 65
   257
 75
     1
175
     1
 42
1.0
 92
        0
 66
   257
 43
1.0
 76
     1
 77
     6
 78
     2
 67
     7
 79
     5
170
     0
171
     0
290
     0
174
     0
 93
       13
 44
0.0
173
     0
291
     1
 45
0.0
  0
VISUALSTYLE
  5
8FB
102
{ACAD_REACTORS
330
267
102
}
330
267
100
AcDbVisualStyle
  2
Hidden
 70
     6
 71
     1
 72
     2
 73
     2
 90
        0
 40
0.6
 41
30.0
 62
     5
 63
     7
421
 16777215
 74
     2
 91
        2
 64
     7
 65
   257
 75
     2
175
     1
 42
40.0
 92
        0
 66
   257
 43
1.0
 76
     1
 77
     6
 78
     2
 67
     7
 79
     3
170
     0
171
     0
290
     0
174
     0
 93
        1
 44
0.0
173
     0
291
     0
 45
0.0
  0
VISUALSTYLE
  5
8FC
102
{ACAD_REACTORS
330
267
102
}
330
267
100
AcDbVisualStyle
  2
JitterOff
 70
    20
 71
     2
 72
     2
 73
     0
 90
        0
 40
0.6
 41
30.0
 62
     5
 63
     7
421
 16777215
 74
     1
 91
        4
 64
     7
 65
   257
 75
     1
175
     1
 42
1.0
 92
       10
 66
     7
 43
1.0
 76
     1
 77
     6
 78
     2
 67
     7
 79
     5
170
     0
171
     0
290
     0
174
     0
 93
        1
 44
0.0
173
     0
291
     1
 45
0.0
  0
VISUALSTYLE
  5
275
102
{ACAD_REACTORS
330
267
102
}
330
267
100
AcDbVisualStyle
  2
Linepattern
 70
    14
 71
     2
 72
     2
 73
     0
 90
        0
 40
-0.6
 41
-30.0
 62
     5
 63
     7
421
 16777215
 74
     1
 91
        4
 64
     7
 65
   257
 75
     7
175
     7
 42
1.0
 92
        8
 66
     7
 43
1.0
 76
     1
 77
     6
 78
     2
 67
     7
 79
     5
170
     0
171
     0
290
     0
174
     0
 93
        1
 44
0.0
173
     0
291
     1
 45
0.0
  0
VISUALSTYLE
  5
8FD
102
{ACAD_REACTORS
330
267
102
}
330
267
100
AcDbVisualStyle
  2
OverhangOff
 70
    21
 71
     2
 72
     2
 73
     0
 90
        0
 40
0.6
 41
30.0
 62
     5
 63
     7
421
 16777215
 74
     1
 91
        4
 64
     7
 65
   257
 75
     1
175
     1
 42
1.0
 92
        9
 66
     7
 43
1.0
 76
     1
 77
     6
 78
     2
 67
     7
 79
     5
170
     0
171
     0
290
     0
174
     0
 93
        1
 44
0.0
173
     0
291
     1
 45
0.0
  0
VISUALSTYLE
  5
270
102
{ACAD_REACTORS
330
267
102
}
330
267
100
AcDbVisualStyle
  2
Realistic
 70
     8
 71
     2
 72
     2
 73
     0
 90
        0
 40
-0.6
 41
-30.0
 62
     5
 63
     7
421
 16777215
 74
     1
 91
        0
 64
     7
 65
   257
 75
     1
175
     1
 42
1.0
 92
        8
 66
     8
424
  7895160
 43
1.0
 76
     1
 77
     6
 78
     2
 67
     7
 79
     5
170
     0
171
     0
290
     0
174
     0
 93
       13
 44
0.0
173
     0
291
     0
 45
0.0
  0
VISUALSTYLE
  5
903
102
{ACAD_REACTORS
330
267
102
}
330
267
100
AcDbVisualStyle
  2
Shaded
 70
    27
 71
     2
 72
     2
 73
     1
 90
        2
 40
0.6
 41
30.0
 62
     5
 63
     7
421
 16777215
 74
     0
 91
        4
 64
     7
 65
   257
 75
     1
175
     1
 42
1.0
 92
        8
 66
   257
 43
1.0
 76
     1
 77
     6
 78
     2
 67
     8
425
  7895160
 79
     3
170
     0
171
     0
290
     0
174
     0
 93
        5
 44
0.0
173
     0
291
     0
 45
0.0
  0
VISUALSTYLE
  5
902
102
{ACAD_REACTORS
330
267
102
}
330
267
100
AcDbVisualStyle
  2
Shaded with edges
 70
    26
 71
     2
 72
     2
 73
     1
 90
        2
 40
0.6
 41
30.0
 62
     5
 63
     7
421
 16777215
 74
     1
 91
       10
 64
     7
 65
   257
 75
     2
175
     1
 42
1.0
 92
        8
 66
   257
 43
1.0
 76
     1
 77
     6
 78
     2
 67
     7
 79
     3
170
     0
171
     0
290
     0
174
     0
 93
        5
 44
0.0
173
     0
291
     0
 45
0.0
  0
VISUALSTYLE
  5
8FF
102
{ACAD_REACTORS
330
267
102
}
330
267
100
AcDbVisualStyle
  2
Shades of Gray
 70
    23
 71
     2
 72
     2
 73
     3
 90
        0
 40
0.6
 41
30.0
 62
     5
 63
     7
421
 16777215
 74
     2
 91
        2
 64
     7
 65
     7
 75
     1
175
     1
 42
40.0
 92
        8
 66
     7
 43
1.0
 76
     1
 77
     6
 78
     2
 67
     7
 79
     3
170
     0
171
     0
290
     0
174
     0
 93
        1
 44
0.0
173
     0
291
     0
 45
0.0
  0
VISUALSTYLE
  5
900
102
{ACAD_REACTORS
330
267
102
}
330
267
100
AcDbVisualStyle
  2
Sketchy
 70
    24
 71
     1
 72
     2
 73
     2
 90
        0
 40
0.6
 41
30.0
 62
     5
 63
     7
421
 16777215
 74
     2
 91
        2
 64
     7
 65
     7
 75
     1
175
     1
 42
40.0
 92
       11
 66
     7
 43
1.0
 76
     1
 77
     6
 78
     2
 67
     7
 79
     6
170
     0
171
     0
290
     0
174
     0
 93
        1
 44
0.0
173
     0
291
     0
 45
0.0
  0
VISUALSTYLE
  5
274
102
{ACAD_REACTORS
330
267
102
}
330
267
100
AcDbVisualStyle
  2
Thicken
 70
    13
 71
     2
 72
     2
 73
     0
 90
        0
 40
-0.6
 41
-30.0
 62
     5
 63
     7
421
 16777215
 74
     1
 91
        4
 64
     7
 65
   257
 75
     1
175
     1
 42
1.0
 92
       12
 66
     7
 43
1.0
 76
     1
 77
     6
 78
     2
 67
     7
 79
     5
170
     0
171
     0
290
     0
174
     0
 93
        1
 44
0.0
173
     0
291
     1
 45
0.0
  0
VISUALSTYLE
  5
8FA
102
{ACAD_REACTORS
330
267
102
}
330
267
100
AcDbVisualStyle
  2
Wireframe
 70
     5
 71
     0
 72
     2
 73
     0
 90
        0
 40
0.6
 41
30.0
 62
     5
 63
     7
421
 16777215
 74
     1
 91
        4
 64
     7
 65
   257
 75
     1
175
     1
 42
1.0
 92
        0
 66
   257
 43
1.0
 76
     1
 77
     6
 78
     2
 67
     7
 79
     3
170
     0
171
     0
290
     0
174
     0
 93
        1
 44
0.0
173
     0
291
     0
 45
0.0
  0
VISUALSTYLE
  5
901
102
{ACAD_REACTORS
330
267
102
}
330
267
100
AcDbVisualStyle
  2
X-Ray
 70
    25
 71
     2
 72
     2
 73
     1
 90
        1
 40
0.5
 41
30.0
 62
     5
 63
     7
421
 16777215
 74
     1
 91
        0
 64
     7
 65
   257
 75
     1
175
     1
 42
1.0
 92
        8
 66
     7
 43
1.0
 76
     1
 77
     6
 78
     2
 67
     7
 79
     3
170
     0
171
     0
290
     0
174
     0
 93
       13
 44
0.0
173
     0
291
     0
 45
0.0
  0
DICTIONARYVAR
  5
331
102
{ACAD_REACTORS
330
330
102
}
330
330
100
DictionaryVariables
280
     0
  1
1:1
  0
DICTIONARYVAR
  5
1ABC
102
{ACAD_REACTORS
330
330
102
}
330
330
100
DictionaryVariables
280
     0
  1
Standard
  0
DICTIONARYVAR
  5
335
102
{ACAD_REACTORS
330
330
102
}
330
330
100
DictionaryVariables
280
     0
  1
Standard
  0
DICTIONARYVAR
  5
D6B
102
{ACAD_REACTORS
330
330
102
}
330
330
100
DictionaryVariables
280
     0
  1
ByLayer
  0
DICTIONARYVAR
  5
896
102
{ACAD_REACTORS
330
330
102
}
330
330
100
DictionaryVariables
280
     0
  1
0
  0
DICTIONARYVAR
  5
1E92
102
{ACAD_REACTORS
330
1E8B
102
}
330
1E8B
100
DictionaryVariables
280
     0
  1
0.261799
  0
DICTIONARYVAR
  5
1E90
102
{ACAD_REACTORS
330
1E8B
102
}
330
1E8B
100
DictionaryVariables
280
     0
  1
0.400000
  0
DICTIONARYVAR
  5
1E91
102
{ACAD_REACTORS
330
1E8B
102
}
330
1E8B
100
DictionaryVariables
280
     0
  1
0.250000
  0
DICTIONARYVAR
  5
1E93
102
{ACAD_REACTORS
330
1E8B
102
}
330
1E8B
100
DictionaryVariables
280
     0
  1
1
  0
XRECORD
  5
7AA
102
{ACAD_REACTORS
330
2E2
102
}
330
2E2
100
AcDbXrecord
280
     1
 91
    34815
301

290
     0
302
MODEL
330
14
 90
        8
 62
     7
370
    -3
331
13
  1
Color_7
440
 33554687
330
4B
 90
        8
 62
     7
370
    20
331
13
  1
Color_7
440
 33554687
330
4C
 90
        8
 62
     7
370
    13
331
13
  1
Color_7
440
 33554687
330
4D
 90
        8
 62
     7
370
    20
331
13
  1
Color_7
440
 33554687
330
667
 90
        8
 62
     7
370
    -3
331
13
  1
Color_7
440
 33554687
330
88C
 90
        8
 62
     4
370
    -3
331
45
  1
Color_4
440
 33554687
330
1AB6
 90
        0
 62
     4
370
    -3
331
40
  1
Color_4
440
 33554687
330
1AF4
 90
        0
 62
     7
370
    -3
331
13
  1
Color_7
440
 33554687
  0
DICTIONARY
  5
1F96
330
279
100
AcDbDictionary
280
     1
281
     1
  3
ACAD_ROUNDTRIP_2008_TABLESTYLE_CELLSTYLEMAP
360
1F97
  0
CELLSTYLEMAP
  5
1F97
102
{ACAD_REACTORS
330
1F96
102
}
330
1F96
100
AcDbCellStyleMap
 90
        3
300
CELLSTYLE
  1
TABLEFORMAT_BEGIN
 90
        5
170
     1
 91
        0
 92
    32768
 62
   257
 93
        1
300
CONTENTFORMAT
  1
CONTENTFORMAT_BEGIN
 90
        0
 91
        0
 92
        4
 93
        0
300

 40
0.0
140
1.0
 94
        5
 62
     0
340
17
144
6.0
309
CONTENTFORMAT_END
171
     1
301
MARGIN
  1
CELLMARGIN_BEGIN
 40
0.06
 40
0.06
 40
0.06
 40
0.06
 40
0.18
 40
0.18
309
CELLMARGIN_END
 94
        6
 95
        1
302
GRIDFORMAT
  1
GRIDFORMAT_BEGIN
 90
        0
 91
        1
 62
     0
 92
       -2
340
0
 93
        0
 40
0.045
309
GRIDFORMAT_END
 95
        2
302
GRIDFORMAT
  1
GRIDFORMAT_BEGIN
 90
        0
 91
        1
 62
     0
 92
       -2
340
0
 93
        0
 40
0.045
309
GRIDFORMAT_END
 95
        4
302
GRIDFORMAT
  1
GRIDFORMAT_BEGIN
 90
        0
 91
        1
 62
     0
 92
       -2
340
0
 93
        0
 40
0.045
309
GRIDFORMAT_END
 95
        8
302
GRIDFORMAT
  1
GRIDFORMAT_BEGIN
 90
        0
 91
        1
 62
     0
 92
       -2
340
0
 93
        0
 40
0.045
309
GRIDFORMAT_END
 95
       16
302
GRIDFORMAT
  1
GRIDFORMAT_BEGIN
 90
        0
 91
        1
 62
     0
 92
       -2
340
0
 93
        0
 40
0.045
309
GRIDFORMAT_END
 95
       32
302
GRIDFORMAT
  1
GRIDFORMAT_BEGIN
 90
        0
 91
        1
 62
     0
 92
       -2
340
0
 93
        0
 40
0.045
309
GRIDFORMAT_END
309
TABLEFORMAT_END
  1
CELLSTYLE_BEGIN
 90
        1
 91
        1
300
_TITLE
309
CELLSTYLE_END
300
CELLSTYLE
  1
TABLEFORMAT_BEGIN
 90
        5
170
     1
 91
        0
 92
        0
 62
   257
 93
        1
300
CONTENTFORMAT
  1
CONTENTFORMAT_BEGIN
 90
        0
 91
        0
 92
        4
 93
        0
300

 40
0.0
140
1.0
 94
        5
 62
     0
340
17
144
4.5
309
CONTENTFORMAT_END
171
     1
301
MARGIN
  1
CELLMARGIN_BEGIN
 40
0.06
 40
0.06
 40
0.06
 40
0.06
 40
0.18
 40
0.18
309
CELLMARGIN_END
 94
        6
 95
        1
302
GRIDFORMAT
  1
GRIDFORMAT_BEGIN
 90
        0
 91
        1
 62
     0
 92
       -2
340
0
 93
        0
 40
0.045
309
GRIDFORMAT_END
 95
        2
302
GRIDFORMAT
  1
GRIDFORMAT_BEGIN
 90
        0
 91
        1
 62
     0
 92
       -2
340
0
 93
        0
 40
0.045
309
GRIDFORMAT_END
 95
        4
302
GRIDFORMAT
  1
GRIDFORMAT_BEGIN
 90
        0
 91
        1
 62
     0
 92
       -2
340
0
 93
        0
 40
0.045
309
GRIDFORMAT_END
 95
        8
302
GRIDFORMAT
  1
GRIDFORMAT_BEGIN
 90
        0
 91
        1
 62
     0
 92
       -2
340
0
 93
        0
 40
0.045
309
GRIDFORMAT_END
 95
       16
302
GRIDFORMAT
  1
GRIDFORMAT_BEGIN
 90
        0
 91
        1
 62
     0
 92
       -2
340
0
 93
        0
 40
0.045
309
GRIDFORMAT_END
 95
       32
302
GRIDFORMAT
  1
GRIDFORMAT_BEGIN
 90
        0
 91
        1
 62
     0
 92
       -2
340
0
 93
        0
 40
0.045
309
GRIDFORMAT_END
309
TABLEFORMAT_END
  1
CELLSTYLE_BEGIN
 90
        2
 91
        1
300
_HEADER
309
CELLSTYLE_END
300
CELLSTYLE
  1
TABLEFORMAT_BEGIN
 90
        5
170
     1
 91
        0
 92
        0
 62
   257
 93
        1
300
CONTENTFORMAT
  1
CONTENTFORMAT_BEGIN
 90
        0
 91
        0
 92
        4
 93
        0
300

 40
0.0
140
1.0
 94
        2
 62
     0
340
17
144
4.5
309
CONTENTFORMAT_END
171
     1
301
MARGIN
  1
CELLMARGIN_BEGIN
 40
0.06
 40
0.06
 40
0.06
 40
0.06
 40
0.18
 40
0.18
309
CELLMARGIN_END
 94
        6
 95
        1
302
GRIDFORMAT
  1
GRIDFORMAT_BEGIN
 90
        0
 91
        1
 62
     0
 92
       -2
340
0
 93
        0
 40
0.045
309
GRIDFORMAT_END
 95
        2
302
GRIDFORMAT
  1
GRIDFORMAT_BEGIN
 90
        0
 91
        1
 62
     0
 92
       -2
340
0
 93
        0
 40
0.045
309
GRIDFORMAT_END
 95
        4
302
GRIDFORMAT
  1
GRIDFORMAT_BEGIN
 90
        0
 91
        1
 62
     0
 92
       -2
340
0
 93
        0
 40
0.045
309
GRIDFORMAT_END
 95
        8
302
GRIDFORMAT
  1
GRIDFORMAT_BEGIN
 90
        0
 91
        1
 62
     0
 92
       -2
340
0
 93
        0
 40
0.045
309
GRIDFORMAT_END
 95
       16
302
GRIDFORMAT
  1
GRIDFORMAT_BEGIN
 90
        0
 91
        1
 62
     0
 92
       -2
340
0
 93
        0
 40
0.045
309
GRIDFORMAT_END
 95
       32
302
GRIDFORMAT
  1
GRIDFORMAT_BEGIN
 90
        0
 91
        1
 62
     0
 92
       -2
340
0
 93
        0
 40
0.045
309
GRIDFORMAT_END
309
TABLEFORMAT_END
  1
CELLSTYLE_BEGIN
 90
        3
 91
        2
300
_DATA
309
CELLSTYLE_END
  0
ENDSEC
  0
EOF
