  0
SECTION
  2
HEADER
  9
$ACADVER
  1
AC1021
  9
$ACADMAINTVER
 70
    25
  9
$DWGCODEPAGE
  3
ANSI_932
  9
$LASTSAVEDBY
  1
howeNelson
  9
$INSBASE
 10
0.0
 20
0.0
 30
0.0
  9
$EXTMIN
 10
36.10107227362437
 20
31.89607416228557
 30
-0.0000000000000071
  9
$EXTMAX
 10
1011.101072273866
 20
1448.573336753213
 30
0.0000000000000142
  9
$LIMMIN
 10
0.0
 20
0.0
  9
$LIMMAX
 10
1050.0
 20
1485.0
  9
$ORTHOMODE
 70
     0
  9
$REGENMODE
 70
     1
  9
$FILLMODE
 70
     1
  9
$QTEXTMODE
 70
     0
  9
$MIRRTEXT
 70
     1
  9
$LTSCALE
 40
50.8
  9
$ATTMODE
 70
     1
  9
$TEXTSIZE
 40
2.5
  9
$TRACEWID
 40
1.0
  9
$TEXTSTYLE
  7
ＭＳ ゴシック
  9
$CLAYER
  8
DIM
  9
$CELTYPE
  6
ByLayer
  9
$CECOLOR
 62
   256
  9
$CELTSCALE
 40
1.0
  9
$DISPSILH
 70
     0
  9
$DIMSCALE
 40
1.0
  9
$DIMASZ
 40
2.0
  9
$DIMEXO
 40
15.0
  9
$DIMDLI
 40
0.9999999999999999
  9
$DIMRND
 40
0.0
  9
$DIMDLE
 40
0.0
  9
$DIMEXE
 40
0.0
  9
$DIMTP
 40
0.0
  9
$DIMTM
 40
0.0
  9
$DIMTXT
 40
12.0
  9
$DIMCEN
 40
0.0
  9
$DIMTSZ
 40
0.0
  9
$DIMTOL
 70
     0
  9
$DIMLIM
 70
     0
  9
$DIMTIH
 70
     0
  9
$DIMTOH
 70
     0
  9
$DIMSE1
 70
     0
  9
$DIMSE2
 70
     0
  9
$DIMTAD
 70
     1
  9
$DIMZIN
 70
    11
  9
$DIMBLK
  1
DOT
  9
$DIMASO
 70
     1
  9
$DIMSHO
 70
     1
  9
$DIMPOST
  1
<>
  9
$DIMAPOST
  1
[]
  9
$DIMALT
 70
     0
  9
$DIMALTD
 70
     1
  9
$DIMALTF
 40
1.0
  9
$DIMLFAC
 40
1.0
  9
$DIMTOFL
 70
     0
  9
$DIMTVP
 40
0.0
  9
$DIMTIX
 70
     1
  9
$DIMSOXD
 70
     0
  9
$DIMSAH
 70
     0
  9
$DIMBLK1
  1

  9
$DIMBLK2
  1

  9
$DIMSTYLE
  2
tfrom線あり
  9
$DIMCLRD
 70
     0
  9
$DIMCLRE
 70
     0
  9
$DIMCLRT
 70
     0
  9
$DIMTFAC
 40
1.0
  9
$DIMGAP
 40
8.0
  9
$DIMJUST
 70
     0
  9
$DIMSD1
 70
     0
  9
$DIMSD2
 70
     0
  9
$DIMTOLJ
 70
     1
  9
$DIMTZIN
 70
    11
  9
$DIMALTZ
 70
    11
  9
$DIMALTTZ
 70
    11
  9
$DIMUPT
 70
     0
  9
$DIMDEC
 70
     0
  9
$DIMTDEC
 70
     1
  9
$DIMALTU
 70
     2
  9
$DIMALTTD
 70
     2
  9
$DIMTXSTY
  7
ＭＳ ゴシック
  9
$DIMAUNIT
 70
     0
  9
$DIMADEC
 70
     2
  9
$DIMALTRND
 40
0.0
  9
$DIMAZIN
 70
     0
  9
$DIMDSEP
 70
    46
  9
$DIMATFIT
 70
     0
  9
$DIMFRAC
 70
     2
  9
$DIMLDRBLK
  1
DOT
  9
$DIMLUNIT
 70
     2
  9
$DIMLWD
 70
    -2
  9
$DIMLWE
 70
    -2
  9
$DIMTMOVE
 70
     0
  9
$DIMFXL
 40
1.0
  9
$DIMFXLON
 70
     0
  9
$DIMJOGANG
 40
0.7853981633974483
  9
$DIMTFILL
 70
     0
  9
$DIMTFILLCLR
 70
     0
  9
$DIMARCSYM
 70
     0
  9
$DIMLTYPE
  6

  9
$DIMLTEX1
  6

  9
$DIMLTEX2
  6

  9
$LUNITS
 70
     2
  9
$LUPREC
 70
     0
  9
$SKETCHINC
 40
0.1
  9
$FILLETRAD
 40
0.0
  9
$AUNITS
 70
     0
  9
$AUPREC
 70
     0
  9
$MENU
  1
acad
  9
$ELEVATION
 40
0.0
  9
$PELEVATION
 40
0.0
  9
$THICKNESS
 40
0.0
  9
$LIMCHECK
 70
     0
  9
$CHAMFERA
 40
0.0
  9
$CHAMFERB
 40
0.0
  9
$CHAMFERC
 40
0.0
  9
$CHAMFERD
 40
0.0
  9
$SKPOLY
 70
     0
  9
$TDCREATE
 40
2447893.375
  9
$TDUCREATE
 40
0.0
  9
$TDUPDATE
 40
2457515.407311979
  9
$TDUUPDATE
 40
2457515.032311979
  9
$TDINDWG
 40
0.1402384028
  9
$TDUSRTIMER
 40
2457515.032136261
  9
$USRTIMER
 70
     1
  9
$ANGBASE
 50
0.0
  9
$ANGDIR
 70
     0
  9
$PDMODE
 70
     1
  9
$PDSIZE
 40
-2.0
  9
$PLINEWID
 40
0.0
  9
$SPLFRAME
 70
     0
  9
$SPLINETYPE
 70
     6
  9
$SPLINESEGS
 70
     8
  9
$HANDSEED
  5
12BA
  9
$SURFTAB1
 70
     6
  9
$SURFTAB2
 70
     6
  9
$SURFTYPE
 70
     6
  9
$SURFU
 70
     6
  9
$SURFV
 70
     6
  9
$UCSBASE
  2

  9
$UCSNAME
  2

  9
$UCSORG
 10
0.0
 20
0.0
 30
0.0
  9
$UCSXDIR
 10
1.0
 20
0.0
 30
0.0
  9
$UCSYDIR
 10
0.0
 20
1.0
 30
0.0
  9
$UCSORTHOREF
  2

  9
$UCSORTHOVIEW
 70
     0
  9
$UCSORGTOP
 10
0.0
 20
0.0
 30
0.0
  9
$UCSORGBOTTOM
 10
0.0
 20
0.0
 30
0.0
  9
$UCSORGLEFT
 10
0.0
 20
0.0
 30
0.0
  9
$UCSORGRIGHT
 10
0.0
 20
0.0
 30
0.0
  9
$UCSORGFRONT
 10
0.0
 20
0.0
 30
0.0
  9
$UCSORGBACK
 10
0.0
 20
0.0
 30
0.0
  9
$PUCSBASE
  2

  9
$PUCSNAME
  2

  9
$PUCSORG
 10
0.0
 20
0.0
 30
0.0
  9
$PUCSXDIR
 10
1.0
 20
0.0
 30
0.0
  9
$PUCSYDIR
 10
0.0
 20
1.0
 30
0.0
  9
$PUCSORTHOREF
  2

  9
$PUCSORTHOVIEW
 70
     0
  9
$PUCSORGTOP
 10
0.0
 20
0.0
 30
0.0
  9
$PUCSORGBOTTOM
 10
0.0
 20
0.0
 30
0.0
  9
$PUCSORGLEFT
 10
0.0
 20
0.0
 30
0.0
  9
$PUCSORGRIGHT
 10
0.0
 20
0.0
 30
0.0
  9
$PUCSORGFRONT
 10
0.0
 20
0.0
 30
0.0
  9
$PUCSORGBACK
 10
0.0
 20
0.0
 30
0.0
  9
$USERI1
 70
     0
  9
$USERI2
 70
     0
  9
$USERI3
 70
     0
  9
$USERI4
 70
     0
  9
$USERI5
 70
     0
  9
$USERR1
 40
0.0
  9
$USERR2
 40
0.0
  9
$USERR3
 40
0.0
  9
$USERR4
 40
0.0
  9
$USERR5
 40
0.0
  9
$WORLDVIEW
 70
     1
  9
$SHADEDGE
 70
     3
  9
$SHADEDIF
 70
    70
  9
$TILEMODE
 70
     1
  9
$MAXACTVP
 70
    64
  9
$PINSBASE
 10
0.0
 20
0.0
 30
0.0
  9
$PLIMCHECK
 70
     0
  9
$PEXTMIN
 10
0.0
 20
0.0
 30
0.0
  9
$PEXTMAX
 10
0.0
 20
0.0
 30
0.0
  9
$PLIMMIN
 10
-95.87226993865028
 20
-25.69999999999999
  9
$PLIMMAX
 10
201.1277300613497
 20
184.3
  9
$UNITMODE
 70
     0
  9
$VISRETAIN
 70
     0
  9
$PLINEGEN
 70
     1
  9
$PSLTSCALE
 70
     0
  9
$TREEDEPTH
 70
  3020
  9
$CMLSTYLE
  2
Standard
  9
$CMLJUST
 70
     0
  9
$CMLSCALE
 40
1.0
  9
$PROXYGRAPHICS
 70
     0
  9
$MEASUREMENT
 70
     1
  9
$CELWEIGHT
370
    -1
  9
$ENDCAPS
280
     0
  9
$JOINSTYLE
280
     0
  9
$LWDISPLAY
290
     1
  9
$INSUNITS
 70
     4
  9
$HYPERLINKBASE
  1

  9
$STYLESHEET
  1

  9
$XEDIT
290
     1
  9
$CEPSNTYPE
380
     0
  9
$PSTYLEMODE
290
     1
  9
$FINGERPRINTGUID
  2

  9
$VERSIONGUID
  2

  9
$EXTNAMES
290
     1
  9
$PSVPSCALE
 40
0.0
  9
$OLESTARTUP
290
     0
  9
$SORTENTS
280
   127
  9
$INDEXCTL
280
     0
  9
$HIDETEXT
280
     1
  9
$XCLIPFRAME
290
     0
  9
$HALOGAP
280
     0
  9
$OBSCOLOR
 70
   257
  9
$OBSLTYPE
280
     0
  9
$INTERSECTIONDISPLAY
280
     0
  9
$INTERSECTIONCOLOR
 70
   257
  9
$DIMASSOC
280
     2
  9
$PROJECTNAME
  1

  9
$CAMERADISPLAY
290
     0
  9
$LENSLENGTH
 40
50.0
  9
$CAMERAHEIGHT
 40
0.0
  9
$STEPSPERSEC
 40
2.0
  9
$STEPSIZE
 40
6.0
  9
$3DDWFPREC
 40
2.0
  9
$PSOLWIDTH
 40
0.25
  9
$PSOLHEIGHT
 40
4.0
  9
$LOFTANG1
 40
1.570796326794897
  9
$LOFTANG2
 40
1.570796326794897
  9
$LOFTMAG1
 40
0.0
  9
$LOFTMAG2
 40
0.0
  9
$LOFTPARAM
 70
     7
  9
$LOFTNORMALS
280
     1
  9
$LATITUDE
 40
37.795
  9
$LONGITUDE
 40
-122.394
  9
$NORTHDIRECTION
 40
0.0
  9
$TIMEZONE
 70
 -8000
  9
$LIGHTGLYPHDISPLAY
280
     1
  9
$TILEMODELIGHTSYNCH
280
     1
  9
$SOLIDHIST
280
     1
  9
$SHOWHIST
280
     1
  9
$DWFFRAME
280
     2
  9
$DGNFRAME
280
     2
  9
$REALWORLDSCALE
290
     1
  9
$INTERFERECOLOR
 62
   256
  9
$CSHADOW
280
     0
  9
$SHADOWPLANELOCATION
 40
0.0
  0
ENDSEC
  0
SECTION
  2
CLASSES
  0
CLASS
  1
LWPOLYLINE
  2
AcDbPolyline
  3
ObjectDBX Classes
 90
        0
 91
        1
280
     0
281
     1
  0
CLASS
  1
IMAGE
  2
AcDbRasterImage
  3
ISM
 90
      127
 91
        9
280
     0
281
     1
  0
CLASS
  1
OLE2FRAME
  2
AcDbOle2Frame
  3
ObjectDBX Classes
 90
        0
 91
        1
280
     0
281
     1
  0
CLASS
  1
HATCH
  2
AcDbHatch
  3
ObjectDBX Classes
 90
        0
 91
        1
280
     0
281
     1
  0
CLASS
  1
DICTIONARYVAR
  2
AcDbDictionaryVar
  3
ObjectDBX Classes
 90
        0
 91
        8
280
     0
281
     0
  0
CLASS
  1
RASTERVARIABLES
  2
AcDbRasterVariables
  3
ISM
 90
        0
 91
        8
280
     0
281
     0
  0
CLASS
  1
IMAGEDEF
  2
AcDbRasterImageDef
  3
ISM
 90
        0
 91
        8
280
     0
281
     0
  0
CLASS
  1
IMAGEDEF_REACTOR
  2
AcDbRasterImageDefReactor
  3
ISM
 90
        1
 91
        8
280
     0
281
     0
  0
CLASS
  1
IDBUFFER
  2
AcDbIdBuffer
  3
ObjectDBX Classes
 90
        0
 91
        8
280
     0
281
     0
  0
CLASS
  1
SPATIAL_FILTER
  2
AcDbSpatialFilter
  3
ObjectDBX Classes
 90
        0
 91
        8
280
     0
281
     0
  0
CLASS
  1
XRECORD
  2
AcDbXrecord
  3
ObjectDBX Classes
 90
        0
 91
        1
280
     0
281
     0
  0
CLASS
  1
SORTENTSTABLE
  2
AcDbSortentsTable
  3
ObjectDBX Classes
 90
        0
 91
        8
280
     0
281
     0
  0
CLASS
  1
LAYER_INDEX
  2
AcDbLayerIndex
  3
ObjectDBX Classes
 90
        0
 91
        8
280
     0
281
     0
  0
CLASS
  1
SPATIAL_INDEX
  2
AcDbSpatialIndex
  3
AutoCAD 2000
 90
        0
 91
        8
280
     0
281
     0
  0
CLASS
  1
OBJECT_PTR
  2
CAseDLPNTableRecord
  3
ASE-LPNTableRecord
 90
        1
 91
        8
280
     0
281
     0
  0
CLASS
  1
LAYOUT
  2
AcDbLayout
  3
ObjectDBX Classes
 90
        0
 91
        1
280
     0
281
     0
  0
CLASS
  1
PLOTSETTINGS
  2
AcDbPlotSettings
  3
ObjectDBX Classes
 90
        0
 91
        8
280
     0
281
     0
  0
CLASS
  1
ACDBDICTIONARYWDFLT
  2
AcDbDictionaryWithDefault
  3
ObjectDBX Classes
 90
        0
 91
        8
280
     0
281
     0
  0
CLASS
  1
ACDBPLACEHOLDER
  2
AcDbPlaceHolder
  3
ObjectDBX Classes
 90
        0
 91
        1
280
     0
281
     0
  0
CLASS
  1
SCALE
  2
AcDbScale
  3
ObjectDBX Classes
 90
     1153
 91
        8
280
     0
281
     0
  0
CLASS
  1
MATERIAL
  2
AcDbMaterial
  3
ObjectDBX Classes
 90
     1153
 91
        8
280
     0
281
     0
  0
CLASS
  1
VISUALSTYLE
  2
AcDbVisualStyle
  3
ObjectDBX Classes
 90
     4095
 91
        8
280
     0
281
     0
  0
CLASS
  1
TABLESTYLE
  2
AcDbTableStyle
  3
ObjectDBX Classes
 90
     4095
 91
        8
280
     0
281
     0
  0
CLASS
  1
DIMASSOC
  2
AcDbDimAssoc
  3
"AcDbDimAssoc|Product Desc:     AcDim ARX App For Dimension|Company:          Autodesk, Inc.|WEB Address:      www.autodesk.com"
 90
        0
 91
        8
280
     0
281
     0
  0
CLASS
  1
CELLSTYLEMAP
  2
AcDbCellStyleMap
  3
ObjectDBX Classes
 90
     1152
 91
        8
280
     0
281
     0
  0
CLASS
  1
SUN
  2
AcDbSun
  3
SCENEOE
 90
     1153
 91
        8
280
     0
281
     0
  0
CLASS
  1
MLEADERSTYLE
  2
AcDbMLeaderStyle
  3
ACDB_MLEADERSTYLE_CLASS
 90
     4095
 91
        8
280
     0
281
     0
  0
ENDSEC
  0
SECTION
  2
TABLES
  0
TABLE
  2
VPORT
  5
7
330
0
100
AcDbSymbolTable
 70
     1
  0
VPORT
  5
15
330
7
100
AcDbSymbolTableRecord
100
AcDbViewportTableRecord
  2
*ACTIVE
 70
     0
 10
0.0
 20
0.0
 11
1.0
 21
1.0
 12
614.621207944645
 22
666.6359909275833
 13
0.0
 23
0.0
 14
1.0
 24
1.0
 15
0.0
 25
0.0
 16
0.0
 26
0.0
 36
1.0
 17
-91.02013567089989
 27
73.59871453016603
 37
-46.86809886248109
 40
1445.010807842746
 41
2.155963302752294
 42
50.0
 43
0.0
 44
0.0
 50
0.0
 51
0.0
 71
    16
 72
  2000
 73
     1
 74
     1
 75
     0
 76
     0
 77
     0
 78
     0
281
     0
 65
     1
110
0.0
120
0.0
130
0.0
111
1.0
121
0.0
131
0.0
112
0.0
122
1.0
132
0.0
 79
     0
146
0.0
348
26C
 60
     3
 61
     5
292
     1
282
     1
141
0.0
142
0.0
 63
   256
361
904
  0
ENDTAB
  0
TABLE
  2
LTYPE
  5
4
330
0
100
AcDbSymbolTable
 70
    19
  0
LTYPE
  5
11
330
4
100
AcDbSymbolTableRecord
100
AcDbLinetypeTableRecord
  2
ByBlock
 70
     0
  3

 72
    65
 73
     0
 40
0.0
  0
LTYPE
  5
12
330
4
100
AcDbSymbolTableRecord
100
AcDbLinetypeTableRecord
  2
ByLayer
 70
     0
  3

 72
    65
 73
     0
 40
0.0
  0
LTYPE
  5
13
330
4
100
AcDbSymbolTableRecord
100
AcDbLinetypeTableRecord
  2
Continuous
 70
     0
  3
Solid line
 72
    65
 73
     0
 40
0.0
  0
LTYPE
  5
3A
330
4
100
AcDbSymbolTableRecord
100
AcDbLinetypeTableRecord
  2
STYLE_01
 70
     0
  3

 72
    65
 73
     2
 40
0.2460629921259842
 49
0.1230314960629921
 74
     0
 49
-0.1230314960629921
 74
     0
  0
LTYPE
  5
3B
330
4
100
AcDbSymbolTableRecord
100
AcDbLinetypeTableRecord
  2
STYLE_02
 70
     0
  3

 72
    65
 73
     2
 40
0.6944250000000001
 49
0.48607
 74
     0
 49
-0.2083550000000001
 74
     0
  0
LTYPE
  5
3C
330
4
100
AcDbSymbolTableRecord
100
AcDbLinetypeTableRecord
  2
STYLE_03
 70
     0
  3

 72
    65
 73
     2
 40
1.25
 49
1.04164
 74
     0
 49
-0.2083599999999999
 74
     0
  0
LTYPE
  5
3D
330
4
100
AcDbSymbolTableRecord
100
AcDbLinetypeTableRecord
  2
STYLE_04
 70
     0
  3

 72
    65
 73
     2
 40
1.52771
 49
1.319425
 74
     0
 49
-0.208285
 74
     0
  0
LTYPE
  5
3E
330
4
100
AcDbSymbolTableRecord
100
AcDbLinetypeTableRecord
  2
STYLE_05
 70
     0
  3

 72
    65
 73
     2
 40
0.20828
 49
0.069425
 74
     0
 49
-0.138855
 74
     0
  0
LTYPE
  5
3F
330
4
100
AcDbSymbolTableRecord
100
AcDbLinetypeTableRecord
  2
STYLE_06
 70
     0
  3

 72
    65
 73
     4
 40
1.04164
 49
0.625
 74
     0
 49
-0.20828
 74
     0
 49
0.06943
 74
     0
 49
-0.13893
 74
     0
  0
LTYPE
  5
40
330
4
100
AcDbSymbolTableRecord
100
AcDbLinetypeTableRecord
  2
STYLE_07
 70
     0
  3

 72
    65
 73
     6
 40
1.875
 49
0.625
 74
     0
 49
-0.20828
 74
     0
 49
0.6250000000000001
 74
     0
 49
-0.2083599999999999
 74
     0
 49
0.06943
 74
     0
 49
-0.1389299999999999
 74
     0
  0
LTYPE
  5
41
330
4
100
AcDbSymbolTableRecord
100
AcDbLinetypeTableRecord
  2
STYLE_08
 70
     0
  3

 72
    65
 73
     6
 40
1.25
 49
0.625
 74
     0
 49
-0.20828
 74
     0
 49
0.06943
 74
     0
 49
-0.13893
 74
     0
 49
0.0694299999999999
 74
     0
 49
-0.13893
 74
     0
  0
LTYPE
  5
42
330
4
100
AcDbSymbolTableRecord
100
AcDbLinetypeTableRecord
  2
STYLE_09
 70
     0
  3

 72
    65
 73
     4
 40
5.0
 49
3.75
 74
     0
 49
-0.2777849999999998
 74
     0
 49
0.6944300000000003
 74
     0
 49
-0.2777849999999998
 74
     0
  0
LTYPE
  5
43
330
4
100
AcDbSymbolTableRecord
100
AcDbLinetypeTableRecord
  2
STYLE_10
 70
     0
  3

 72
    65
 73
     6
 40
5.9375
 49
3.75
 74
     0
 49
-0.2777849999999998
 74
     0
 49
0.6944300000000003
 74
     0
 49
-0.2777849999999998
 74
     0
 49
0.625
 74
     0
 49
-0.3125
 74
     0
  0
LTYPE
  5
44
330
4
100
AcDbSymbolTableRecord
100
AcDbLinetypeTableRecord
  2
STYLE_11
 70
     0
  3

 72
    65
 73
     2
 40
0.0694444881889764
 49
0.0347222440944882
 74
     0
 49
-0.0347222440944882
 74
     0
  0
LTYPE
  5
45
330
4
100
AcDbSymbolTableRecord
100
AcDbLinetypeTableRecord
  2
STYLE_12
 70
     0
  3

 72
    65
 73
     2
 40
0.3937007874015748
 49
0.1968503937007874
 74
     0
 49
-0.1968503937007874
 74
     0
  0
LTYPE
  5
46
330
4
100
AcDbSymbolTableRecord
100
AcDbLinetypeTableRecord
  2
STYLE_13
 70
     0
  3

 72
    65
 73
     2
 40
0.5905511811023622
 49
0.2952755905511811
 74
     0
 49
-0.2952755905511811
 74
     0
  0
LTYPE
  5
47
330
4
100
AcDbSymbolTableRecord
100
AcDbLinetypeTableRecord
  2
STYLE_14
 70
     0
  3

 72
    65
 73
     2
 40
1.968503937007874
 49
0.9842519685039369
 74
     0
 49
-0.9842519685039369
 74
     0
  0
LTYPE
  5
48
330
4
100
AcDbSymbolTableRecord
100
AcDbLinetypeTableRecord
  2
STYLE_15
 70
     0
  3

 72
    65
 73
     2
 40
0.1875
 49
0.125
 74
     0
 49
-0.0625
 74
     0
  0
LTYPE
  5
49
330
4
100
AcDbSymbolTableRecord
100
AcDbLinetypeTableRecord
  2
STYLE_16
 70
     0
  3

 72
    65
 73
     2
 40
0.3690944881889764
 49
0.2460629921259843
 74
     0
 49
-0.1230314960629922
 74
     0
  0
LTYPE
  5
908
330
4
100
AcDbSymbolTableRecord
100
AcDbLinetypeTableRecord
  2
AI-LINETYPE-1
 70
     0
  3
Adobe Illustrator Linetype No. 1
 72
    65
 73
     4
 40
2.116668062491661
 49
1.058334031245831
 74
     0
 49
-0.3527780104152769
 74
     0
 49
0.3527780104152769
 74
     0
 49
-0.3527780104152769
 74
     0
  0
LTYPE
  5
909
330
4
100
AcDbSymbolTableRecord
100
AcDbLinetypeTableRecord
  2
AI-LINETYPE-2
 70
     0
  3
Adobe Illustrator Linetype No. 2
 72
    65
 73
     4
 40
2.116668062491661
 49
1.058334031245831
 74
     0
 49
-0.3527780104152769
 74
     0
 49
0.3527780104152769
 74
     0
 49
-0.3527780104152769
 74
     0
  0
ENDTAB
  0
TABLE
  2
LAYER
  5
2
102
{ACAD_XDICTIONARY
360
2E1
102
}
330
0
100
AcDbSymbolTable
 70
     7
  0
LAYER
  5
14
330
2
100
AcDbSymbolTableRecord
100
AcDbLayerTableRecord
  2
0
 70
     0
 62
     7
  6
Continuous
370
    -3
390
1D
347
266
  0
LAYER
  5
4B
330
2
100
AcDbSymbolTableRecord
100
AcDbLayerTableRecord
  2
TEMPLATE
 70
     0
 62
     7
  6
Continuous
370
    20
390
1D
347
266
  0
LAYER
  5
4C
330
2
100
AcDbSymbolTableRecord
100
AcDbLayerTableRecord
  2
DIM
 70
     0
 62
     7
  6
Continuous
370
    13
390
1D
347
266
  0
LAYER
  5
4D
330
2
100
AcDbSymbolTableRecord
100
AcDbLayerTableRecord
  2
MODEL
 70
     0
 62
     7
  6
Continuous
370
    20
390
1D
347
266
  0
LAYER
  5
667
330
2
100
AcDbSymbolTableRecord
100
AcDbLayerTableRecord
  2
LOGO
 70
     0
 62
     7
  6
Continuous
370
    -3
390
1D
347
266
  0
LAYER
  5
88C
330
2
100
AcDbSymbolTableRecord
100
AcDbLayerTableRecord
  2
HIDDEN
 70
     0
 62
     7
  6
STYLE_12
370
    20
390
1D
347
266
1001
AcAecLayerStandard
1000

1000

  0
LAYER
  5
E85
330
2
100
AcDbSymbolTableRecord
100
AcDbLayerTableRecord
  2
Defpoints
 70
     0
 62
     7
  6
Continuous
290
     0
370
    -3
390
1D
347
266
  0
ENDTAB
  0
TABLE
  2
STYLE
  5
3
330
0
100
AcDbSymbolTable
 70
     4
  0
STYLE
  5
17
330
3
100
AcDbSymbolTableRecord
100
AcDbTextStyleTableRecord
  2
Standard
 70
     0
 40
0.0
 41
1.0
 50
0.0
 71
     0
 42
2.5
  3
txt
  4
BIGFONT.SHX
  0
STYLE
  5
39
330
3
100
AcDbSymbolTableRecord
100
AcDbTextStyleTableRecord
  2
ＭＳ ゴシック
 70
     0
 40
0.0
 41
1.0
 50
0.0
 71
     0
 42
2.5
  3
msgothic.ttc
  4
ＭＳ ゴシック
1001
ACAD
1000
ＭＳ ゴシック
1071
        0
  0
STYLE
  5
384
330
3
100
AcDbSymbolTableRecord
100
AcDbTextStyleTableRecord
  2
ARIAL
 70
     0
 40
0.0
 41
1.0
 50
0.0
 71
     0
 42
12.0
  3
ARIAL.TTF
  4

1001
ACAD
1000
Arial
1071
       34
  0
STYLE
  5
385
330
3
100
AcDbSymbolTableRecord
100
AcDbTextStyleTableRecord
  2
ROMANS
 70
     0
 40
0.0
 41
1.0
 50
0.0
 71
     0
 42
5.0
  3
romans.shx
  4

  0
ENDTAB
  0
TABLE
  2
VIEW
  5
5
330
0
100
AcDbSymbolTable
 70
     0
  0
ENDTAB
  0
TABLE
  2
UCS
  5
6
330
0
100
AcDbSymbolTable
 70
     0
  0
ENDTAB
  0
TABLE
  2
APPID
  5
8
330
0
100
AcDbSymbolTable
 70
     3
  0
APPID
  5
16
330
8
100
AcDbSymbolTableRecord
100
AcDbRegAppTableRecord
  2
ACAD
 70
     0
  0
APPID
  5
7AC
330
8
100
AcDbSymbolTableRecord
100
AcDbRegAppTableRecord
  2
AcAecLayerStandard
 70
     0
  0
APPID
  5
12B3
330
8
100
AcDbSymbolTableRecord
100
AcDbRegAppTableRecord
  2
ACAD_MLEADERVER
 70
     0
  0
ENDTAB
  0
TABLE
  2
DIMSTYLE
  5
9
330
0
100
AcDbSymbolTable
 70
     6
100
AcDbDimStyleTable
  0
DIMSTYLE
105
18
330
9
100
AcDbSymbolTableRecord
100
AcDbDimStyleTableRecord
  2
Standard
 70
     0
178
     0
340
17
  0
DIMSTYLE
105
56
330
9
100
AcDbSymbolTableRecord
100
AcDbDimStyleTableRecord
  2
tform線あり
 70
     0
  3
<>
  4
[]
 41
9.999389648437498
 42
25.0
 43
0.9999999999999999
 44
0.0
 73
     0
 74
     0
 77
     1
 78
    11
140
24.4326171875
141
0.0
143
1.0
146
0.8
147
0.4999999999999999
171
     1
172
     1
174
     1
178
     0
179
     2
271
     1
272
     1
276
     2
284
    11
285
    11
286
    11
289
     0
340
39
341
4E
342
4E
  0
DIMSTYLE
105
57
102
{ACAD_REACTORS
330
ECD
330
F6A
330
FD6
330
1001
330
101E
330
1083
330
109A
330
1107
330
1126
330
1161
330
117F
102
}
330
9
100
AcDbSymbolTableRecord
100
AcDbDimStyleTableRecord
  2
tfrom線あり
 70
     0
  3
<>
  4
[]
 41
2.0
 42
15.0
 43
0.9999999999999999
 44
0.0
 73
     0
 74
     0
 77
     1
 78
    11
140
12.0
141
0.0
143
1.0
147
8.0
171
     1
174
     1
178
     0
179
     2
271
     0
272
     1
276
     2
284
    11
285
    11
286
    11
289
     0
340
39
341
4E
342
4E
  0
DIMSTYLE
105
5C
330
9
100
AcDbSymbolTableRecord
100
AcDbDimStyleTableRecord
  2
JIS
 70
     0
  3
<>
  4
[]
 41
9.0
 42
0.0
 43
6.99999999999994
 44
19.9999999999962
 73
     0
 74
     0
 77
     1
 78
    11
140
24.4326171875
141
0.0
143
1.0
147
10.0
171
     1
174
     1
178
     0
179
     2
271
     1
272
     1
276
     2
284
    11
285
    11
286
    11
289
     0
340
39
341
4E
342
4E
  0
DIMSTYLE
105
383
330
9
100
AcDbSymbolTableRecord
100
AcDbDimStyleTableRecord
  2
ARIAL
 70
     0
 41
10.0
 42
3.0
 43
0.5
 44
3.0
 73
     0
 74
     0
 77
     1
 78
     8
140
12.0
141
0.0
146
0.5
147
4.0
171
     1
172
     1
178
     0
271
     1
289
     0
340
384
  0
DIMSTYLE
105
D5B
330
9
100
AcDbSymbolTableRecord
100
AcDbDimStyleTableRecord
  2
ISO-25
 70
     0
 41
2.5
 42
0.625
 43
3.75
 44
1.25
 73
     0
 74
     0
 77
     1
 78
     8
140
2.5
141
2.5
143
0.03937007874016
147
0.625
171
     3
172
     1
178
     0
271
     2
272
     2
274
     3
278
    44
283
     0
284
     8
340
17
  0
ENDTAB
  0
TABLE
  2
BLOCK_RECORD
  5
1
330
0
100
AcDbSymbolTable
 70
    27
  0
BLOCK_RECORD
  5
A
330
1
100
AcDbSymbolTableRecord
100
AcDbBlockTableRecord
  2
*MODEL_SPACE
340
20
 70
     0
280
     1
281
     0
  0
BLOCK_RECORD
  5
B
330
1
100
AcDbSymbolTableRecord
100
AcDbBlockTableRecord
  2
*PAPER_SPACE
340
21
 70
     0
280
     1
281
     0
  0
BLOCK_RECORD
  5
4E
330
1
100
AcDbSymbolTableRecord
100
AcDbBlockTableRecord
  2
_DOT
340
0
102
{BLKREFS
331
E8F
331
E90
331
E9E
331
E9F
331
ED6
331
ED7
331
F64
331
F65
331
F71
331
F72
331
FAE
331
FAF
331
FC0
331
FC1
331
FDF
331
FE0
331
1009
331
100A
331
1018
331
1019
331
1027
331
1028
331
1061
331
1062
331
108C
331
108D
331
10A3
331
10A4
331
10B6
331
10B7
331
1110
331
1111
331
112F
331
1130
331
116A
331
116B
331
1188
331
1189
331
11D9
331
11DA
331
11EC
331
11ED
102
}
 70
     0
280
     1
281
     0
  0
BLOCK_RECORD
  5
68A
330
1
100
AcDbSymbolTableRecord
100
AcDbBlockTableRecord
  2
名称未設定-1
340
0
102
{BLKREFS
331
6B5
102
}
 70
     1
280
     1
281
     0
  0
BLOCK_RECORD
  5
68D
330
1
100
AcDbSymbolTableRecord
100
AcDbBlockTableRecord
  2
block 2
340
0
102
{BLKREFS
331
68C
102
}
 70
     0
280
     1
281
     0
  0
BLOCK_RECORD
  5
690
330
1
100
AcDbSymbolTableRecord
100
AcDbBlockTableRecord
  2
block 3
340
0
102
{BLKREFS
331
68F
102
}
 70
     0
280
     1
281
     0
  0
BLOCK_RECORD
  5
693
330
1
100
AcDbSymbolTableRecord
100
AcDbBlockTableRecord
  2
block 4
340
0
102
{BLKREFS
331
692
102
}
 70
     0
280
     1
281
     0
  0
BLOCK_RECORD
  5
6A2
330
1
100
AcDbSymbolTableRecord
100
AcDbBlockTableRecord
  2
block 5
340
0
102
{BLKREFS
331
6A1
102
}
 70
     0
280
     1
281
     0
  0
BLOCK_RECORD
  5
E89
330
1
100
AcDbSymbolTableRecord
100
AcDbBlockTableRecord
  2
*D6
340
0
 70
     0
280
     1
281
     0
  0
BLOCK_RECORD
  5
E98
330
1
100
AcDbSymbolTableRecord
100
AcDbBlockTableRecord
  2
*D7
340
0
 70
     0
280
     1
281
     0
  0
BLOCK_RECORD
  5
ED0
330
1
100
AcDbSymbolTableRecord
100
AcDbBlockTableRecord
  2
*D8
340
0
 70
     0
280
     1
281
     0
  0
BLOCK_RECORD
  5
F5E
330
1
100
AcDbSymbolTableRecord
100
AcDbBlockTableRecord
  2
*D9
340
0
 70
     0
280
     1
281
     0
  0
BLOCK_RECORD
  5
F6B
330
1
100
AcDbSymbolTableRecord
100
AcDbBlockTableRecord
  2
*D10
340
0
 70
     0
280
     1
281
     0
  0
BLOCK_RECORD
  5
FA9
330
1
100
AcDbSymbolTableRecord
100
AcDbBlockTableRecord
  2
*D11
340
0
 70
     0
280
     1
281
     0
  0
BLOCK_RECORD
  5
FBA
330
1
100
AcDbSymbolTableRecord
100
AcDbBlockTableRecord
  2
*D12
340
0
 70
     0
280
     1
281
     0
  0
BLOCK_RECORD
  5
FD9
330
1
100
AcDbSymbolTableRecord
100
AcDbBlockTableRecord
  2
*D13
340
0
 70
     0
280
     1
281
     0
  0
BLOCK_RECORD
  5
1003
330
1
100
AcDbSymbolTableRecord
100
AcDbBlockTableRecord
  2
*D14
340
0
 70
     0
280
     1
281
     0
  0
BLOCK_RECORD
  5
1012
330
1
100
AcDbSymbolTableRecord
100
AcDbBlockTableRecord
  2
*D15
340
0
 70
     0
280
     1
281
     0
  0
BLOCK_RECORD
  5
1021
330
1
100
AcDbSymbolTableRecord
100
AcDbBlockTableRecord
  2
*D16
340
0
 70
     0
280
     1
281
     0
  0
BLOCK_RECORD
  5
105B
330
1
100
AcDbSymbolTableRecord
100
AcDbBlockTableRecord
  2
*D17
340
0
 70
     0
280
     1
281
     0
  0
BLOCK_RECORD
  5
1086
330
1
100
AcDbSymbolTableRecord
100
AcDbBlockTableRecord
  2
*D18
340
0
 70
     0
280
     1
281
     0
  0
BLOCK_RECORD
  5
109D
330
1
100
AcDbSymbolTableRecord
100
AcDbBlockTableRecord
  2
*D19
340
0
 70
     0
280
     1
281
     0
  0
BLOCK_RECORD
  5
10B0
330
1
100
AcDbSymbolTableRecord
100
AcDbBlockTableRecord
  2
*D20
340
0
 70
     0
280
     1
281
     0
  0
BLOCK_RECORD
  5
110A
330
1
100
AcDbSymbolTableRecord
100
AcDbBlockTableRecord
  2
*D21
340
0
 70
     0
280
     1
281
     0
  0
BLOCK_RECORD
  5
1129
330
1
100
AcDbSymbolTableRecord
100
AcDbBlockTableRecord
  2
*D22
340
0
 70
     0
280
     1
281
     0
  0
BLOCK_RECORD
  5
1164
330
1
100
AcDbSymbolTableRecord
100
AcDbBlockTableRecord
  2
*D23
340
0
 70
     0
280
     1
281
     0
  0
BLOCK_RECORD
  5
1182
330
1
100
AcDbSymbolTableRecord
100
AcDbBlockTableRecord
  2
*D24
340
0
 70
     0
280
     1
281
     0
  0
BLOCK_RECORD
  5
11D4
330
1
100
AcDbSymbolTableRecord
100
AcDbBlockTableRecord
  2
*D25
340
0
 70
     0
280
     1
281
     0
  0
BLOCK_RECORD
  5
11E6
330
1
100
AcDbSymbolTableRecord
100
AcDbBlockTableRecord
  2
*D26
340
0
 70
     0
280
     1
281
     0
  0
ENDTAB
  0
ENDSEC
  0
SECTION
  2
BLOCKS
  0
BLOCK
  5
D
330
A
100
AcDbEntity
  8
0
390
1D
100
AcDbBlockBegin
  2
*MODEL_SPACE
 70
     0
 10
0.0
 20
0.0
 30
0.0
  3
*MODEL_SPACE
  1
*MODEL_SPACE
  0
ENDBLK
  5
E
330
A
100
AcDbEntity
  8
0
390
1D
100
AcDbBlockEnd
  0
BLOCK
  5
F
330
B
100
AcDbEntity
 67
     1
  8
0
390
1D
100
AcDbBlockBegin
  2
*PAPER_SPACE
 70
     0
 10
0.0
 20
0.0
 30
0.0
  3
*PAPER_SPACE
  1
*PAPER_SPACE
  0
ENDBLK
  5
10
330
B
100
AcDbEntity
 67
     1
  8
0
390
1D
100
AcDbBlockEnd
  0
BLOCK
  5
10F3
330
4E
100
AcDbEntity
  8
0
390
1D
100
AcDbBlockBegin
  2
_DOT
 70
     0
 10
0.0
 20
0.0
 30
0.0
  3
_DOT
  1
_DOT
  0
POLYLINE
  5
10F5
330
4E
100
AcDbEntity
  8
0
  6
ByBlock
 62
     0
370
    -2
390
1D
100
AcDb2dPolyline
 66
     1
 10
0.0
 20
0.0
 30
0.0
 70
     1
 40
0.5
 41
0.5
  0
VERTEX
  5
10F6
330
10F5
100
AcDbEntity
  8
0
  6
ByBlock
 62
     0
370
    -2
390
1D
100
AcDbVertex
100
AcDb2dVertex
 10
-0.25
 20
0.0
 30
0.0
 42
1.0
  0
VERTEX
  5
10F7
330
10F5
100
AcDbEntity
  8
0
  6
ByBlock
 62
     0
370
    -2
390
1D
100
AcDbVertex
100
AcDb2dVertex
 10
0.25
 20
0.0
 30
0.0
 42
1.0
  0
SEQEND
  5
10F8
330
10F5
100
AcDbEntity
  8
0
390
1D
  0
LINE
  5
10F9
330
4E
100
AcDbEntity
  8
0
  6
ByBlock
 62
     0
370
    -2
390
1D
100
AcDbLine
 10
-0.5
 20
0.0
 30
0.0
 11
-1.0
 21
0.0
 31
0.0
  0
ENDBLK
  5
10FA
330
4E
100
AcDbEntity
  8
0
390
1D
100
AcDbBlockEnd
  0
BLOCK
  5
68B
330
68A
100
AcDbEntity
  8
0
100
AcDbBlockBegin
  2
名称未設定-1
 70
     0
 10
0.0
 20
0.0
 30
0.0
  3
名称未設定-1
  1
名称未設定-1
  0
INSERT
  5
68F
330
68A
100
AcDbEntity
  8
LOGO
100
AcDbBlockReference
  2
block 3
 10
0.0
 20
0.0
 30
0.0
  0
ENDBLK
  5
6B1
330
68A
100
AcDbEntity
  8
0
100
AcDbBlockEnd
  0
BLOCK
  5
68E
330
68D
100
AcDbEntity
  8
0
100
AcDbBlockBegin
  2
block 2
 70
     0
 10
0.0
 20
0.0
 30
0.0
  3
block 2
  1
block 2
  0
ENDBLK
  5
6B0
330
68D
100
AcDbEntity
  8
0
100
AcDbBlockEnd
  0
BLOCK
  5
691
330
690
100
AcDbEntity
  8
0
100
AcDbBlockBegin
  2
block 3
 70
     0
 10
0.0
 20
0.0
 30
0.0
  3
block 3
  1
block 3
  0
INSERT
  5
692
330
690
100
AcDbEntity
  8
LOGO
100
AcDbBlockReference
  2
block 4
 10
0.0
 20
0.0
 30
0.0
  0
INSERT
  5
6A1
330
690
100
AcDbEntity
  8
LOGO
100
AcDbBlockReference
  2
block 5
 10
0.0
 20
0.0
 30
0.0
  0
ENDBLK
  5
6AF
330
690
100
AcDbEntity
  8
0
100
AcDbBlockEnd
  0
BLOCK
  5
694
330
693
100
AcDbEntity
  8
0
100
AcDbBlockBegin
  2
block 4
 70
     0
 10
0.0
 20
0.0
 30
0.0
  3
block 4
  1
block 4
  0
POLYLINE
  5
695
330
693
100
AcDbEntity
  8
LOGO
370
     0
100
AcDb2dPolyline
 66
     1
 10
0.0
 20
0.0
 30
0.0
  0
VERTEX
  5
696
330
695
100
AcDbEntity
  8
LOGO
370
     0
100
AcDbVertex
100
AcDb2dVertex
 10
83.79545727667795
 20
167.6444858234922
 30
0.0
  0
VERTEX
  5
697
330
695
100
AcDbEntity
  8
LOGO
370
     0
100
AcDbVertex
100
AcDb2dVertex
 10
83.79545727667795
 20
159.7968976406313
 30
0.0
  0
VERTEX
  5
698
330
695
100
AcDbEntity
  8
LOGO
370
     0
100
AcDbVertex
100
AcDb2dVertex
 10
71.3631329975216
 20
159.7968976406313
 30
0.0
  0
VERTEX
  5
699
330
695
100
AcDbEntity
  8
LOGO
370
     0
100
AcDbVertex
100
AcDb2dVertex
 10
71.3631329975216
 20
127.8027915271048
 30
0.0
  0
VERTEX
  5
69A
330
695
100
AcDbEntity
  8
LOGO
370
     0
100
AcDbVertex
100
AcDb2dVertex
 10
60.43011526263018
 20
127.8027915271048
 30
0.0
  0
VERTEX
  5
69B
330
695
100
AcDbEntity
  8
LOGO
370
     0
100
AcDbVertex
100
AcDb2dVertex
 10
60.43011526263018
 20
159.7968976406313
 30
0.0
  0
VERTEX
  5
69C
330
695
100
AcDbEntity
  8
LOGO
370
     0
100
AcDbVertex
100
AcDb2dVertex
 10
48.21793273020759
 20
159.7968976406313
 30
0.0
  0
VERTEX
  5
69D
330
695
100
AcDbEntity
  8
LOGO
370
     0
100
AcDbVertex
100
AcDb2dVertex
 10
48.21793273020759
 20
167.6444858234922
 30
0.0
  0
VERTEX
  5
69E
330
695
100
AcDbEntity
  8
LOGO
370
     0
100
AcDbVertex
100
AcDb2dVertex
 10
83.79545727667795
 20
167.6444858234922
 30
0.0
  0
SEQEND
  5
69F
330
695
100
AcDbEntity
  8
LOGO
370
     0
  0
HATCH
  5
6A0
330
693
100
AcDbEntity
  8
LOGO
 62
   250
420
  2234388
100
AcDbHatch
 10
0.0
 20
0.0
 30
0.0
210
0.0
220
0.0
230
1.0
  2
SOLID
 70
     1
 71
     0
 91
        1
 92
        1
 93
        8
 72
     1
 10
83.79545727667795
 20
167.6444858234922
 11
83.79545727667795
 21
159.7968976406313
 72
     1
 10
83.79545727667795
 20
159.7968976406313
 11
71.3631329975216
 21
159.7968976406313
 72
     1
 10
71.3631329975216
 20
159.7968976406313
 11
71.3631329975216
 21
127.8027915271048
 72
     1
 10
71.3631329975216
 20
127.8027915271048
 11
60.43011526263018
 21
127.8027915271048
 72
     1
 10
60.43011526263018
 20
127.8027915271048
 11
60.43011526263018
 21
159.7968976406313
 72
     1
 10
60.43011526263018
 20
159.7968976406313
 11
48.21793273020759
 21
159.7968976406313
 72
     1
 10
48.21793273020759
 20
159.7968976406313
 11
48.21793273020759
 21
167.6444858234922
 72
     1
 10
48.21793273020759
 20
167.6444858234922
 11
83.79545727667795
 21
167.6444858234922
 97
        0
 75
     2
 76
     1
 98
        0
  0
ENDBLK
  5
6AE
330
693
100
AcDbEntity
  8
0
100
AcDbBlockEnd
  0
BLOCK
  5
6A3
330
6A2
100
AcDbEntity
  8
0
100
AcDbBlockBegin
  2
block 5
 70
     0
 10
0.0
 20
0.0
 30
0.0
  3
block 5
  1
block 5
  0
SPLINE
  5
6A4
330
6A2
100
AcDbEntity
  8
LOGO
370
     0
100
AcDbSpline
210
0.0
220
0.0
230
1.0
 70
    11
 71
     3
 72
    56
 73
    52
 74
     0
 42
0.000000001
 43
0.0000000001
 40
0.0
 40
0.0
 40
0.0
 40
0.0
 40
1.0
 40
1.0
 40
1.0
 40
2.0
 40
2.0
 40
2.0
 40
3.0
 40
3.0
 40
3.0
 40
4.0
 40
4.0
 40
4.0
 40
5.0
 40
5.0
 40
5.0
 40
6.0
 40
6.0
 40
6.0
 40
7.0
 40
7.0
 40
7.0
 40
8.0
 40
8.0
 40
8.0
 40
9.0
 40
9.0
 40
9.0
 40
10.0
 40
10.0
 40
10.0
 40
11.0
 40
11.0
 40
11.0
 40
12.0
 40
12.0
 40
12.0
 40
13.0
 40
13.0
 40
13.0
 40
14.0
 40
14.0
 40
14.0
 40
15.0
 40
15.0
 40
15.0
 40
16.0
 40
16.0
 40
16.0
 40
17.0
 40
17.0
 40
17.0
 40
17.0
 10
100.4504378777679
 20
166.69157178364
 30
0.0
 10
101.9848844191641
 20
167.1313385124438
 30
0.0
 10
103.9637485713373
 20
166.7649523658846
 30
0.0
 10
103.9637485713373
 20
166.7649523658846
 30
0.0
 10
103.9637485713373
 20
166.7649523658846
 30
0.0
 10
103.0132460999156
 20
163.911205638077
 30
0.0
 10
103.0132460999156
 20
163.911205638077
 30
0.0
 10
103.0132460999156
 20
163.911205638077
 30
0.0
 10
101.0674548862189
 20
164.3601018759394
 30
0.0
 10
99.57090442016032
 20
163.1805004036133
 30
0.0
 10
98.40508333886608
 20
162.258247733807
 30
0.0
 10
97.65301849830304
 20
159.804132345923
 30
0.0
 10
97.3598406791005
 20
158.8699940888517
 30
0.0
 10
97.3598406791005
 20
158.8699940888517
 30
0.0
 10
96.07137411762282
 20
154.9119212747295
 30
0.0
 10
96.07137411762282
 20
154.9119212747295
 30
0.0
 10
96.07137411762282
 20
154.9119212747295
 30
0.0
 10
100.3012651448482
 20
154.9119212747295
 30
0.0
 10
100.3012651448482
 20
154.9119212747295
 30
0.0
 10
100.3012651448482
 20
154.9119212747295
 30
0.0
 10
99.64152892419852
 20
152.4199098115079
 30
0.0
 10
99.64152892419852
 20
152.4199098115079
 30
0.0
 10
99.64152892419852
 20
152.4199098115079
 30
0.0
 10
95.38097652692731
 20
152.4199098115079
 30
0.0
 10
95.38097652692731
 20
152.4199098115079
 30
0.0
 10
95.38097652692731
 20
152.4199098115079
 30
0.0
 10
87.75353009080013
 20
127.8027915271048
 30
0.0
 10
87.75353009080013
 20
127.8027915271048
 30
0.0
 10
87.75353009080013
 20
127.8027915271048
 30
0.0
 10
85.36538832498108
 20
127.8027915271048
 30
0.0
 10
85.36538832498108
 20
127.8027915271048
 30
0.0
 10
85.36538832498108
 20
127.8027915271048
 30
0.0
 10
93.00006946639998
 20
152.4199098115079
 30
0.0
 10
93.00006946639998
 20
152.4199098115079
 30
0.0
 10
93.00006946639998
 20
152.4199098115079
 30
0.0
 10
89.85297266450198
 20
152.4199098115079
 30
0.0
 10
89.85297266450198
 20
152.4199098115079
 30
0.0
 10
89.85297266450198
 20
152.4199098115079
 30
0.0
 10
90.51270888515164
 20
154.9119212747295
 30
0.0
 10
90.51270888515164
 20
154.9119212747295
 30
0.0
 10
90.51270888515164
 20
154.9119212747295
 30
0.0
 10
93.6904670570955
 20
154.9119212747295
 30
0.0
 10
93.6904670570955
 20
154.9119212747295
 30
0.0
 10
93.6904670570955
 20
154.9119212747295
 30
0.0
 10
94.81598049462158
 20
158.3616699146644
 30
0.0
 10
94.81598049462158
 20
158.3616699146644
 30
0.0
 10
95.7237637538445
 20
161.2605474231013
 30
0.0
 10
96.4968436907311
 20
162.8139420021662
 30
0.0
 10
97.15657991138076
 20
163.9844139654337
 30
0.0
 10
97.81183750494507
 20
165.1523021053827
 30
0.0
 10
99.1047826935081
 20
166.3084769129547
 30
0.0
 10
100.4504378777679
 20
166.69157178364
 30
0.0
  0
HATCH
  5
6A5
330
6A2
100
AcDbEntity
  8
LOGO
 62
   250
420
  2234388
100
AcDbHatch
 10
0.0
 20
0.0
 30
0.0
210
0.0
220
0.0
230
1.0
  2
SOLID
 70
     1
 71
     0
 91
        1
 92
        1
 93
        1
 72
     4
 94
        3
 73
     0
 74
     1
 95
       56
 96
       52
 40
0.0
 40
0.0
 40
0.0
 40
0.0
 40
1.0
 40
1.0
 40
1.0
 40
2.0
 40
2.0
 40
2.0
 40
3.0
 40
3.0
 40
3.0
 40
4.0
 40
4.0
 40
4.0
 40
5.0
 40
5.0
 40
5.0
 40
6.0
 40
6.0
 40
6.0
 40
7.0
 40
7.0
 40
7.0
 40
8.0
 40
8.0
 40
8.0
 40
9.0
 40
9.0
 40
9.0
 40
10.0
 40
10.0
 40
10.0
 40
11.0
 40
11.0
 40
11.0
 40
12.0
 40
12.0
 40
12.0
 40
13.0
 40
13.0
 40
13.0
 40
14.0
 40
14.0
 40
14.0
 40
15.0
 40
15.0
 40
15.0
 40
16.0
 40
16.0
 40
16.0
 40
17.0
 40
17.0
 40
17.0
 40
17.0
 10
100.4504378777679
 20
166.69157178364
 10
101.9848844191641
 20
167.1313385124438
 10
103.9637485713373
 20
166.7649523658846
 10
103.9637485713373
 20
166.7649523658846
 10
103.9637485713373
 20
166.7649523658846
 10
103.0132460999156
 20
163.911205638077
 10
103.0132460999156
 20
163.911205638077
 10
103.0132460999156
 20
163.911205638077
 10
101.0674548862189
 20
164.3601018759394
 10
99.57090442016032
 20
163.1805004036133
 10
98.40508333886608
 20
162.258247733807
 10
97.65301849830304
 20
159.804132345923
 10
97.3598406791005
 20
158.8699940888517
 10
97.3598406791005
 20
158.8699940888517
 10
96.07137411762282
 20
154.9119212747295
 10
96.07137411762282
 20
154.9119212747295
 10
96.07137411762282
 20
154.9119212747295
 10
100.3012651448482
 20
154.9119212747295
 10
100.3012651448482
 20
154.9119212747295
 10
100.3012651448482
 20
154.9119212747295
 10
99.64152892419852
 20
152.4199098115079
 10
99.64152892419852
 20
152.4199098115079
 10
99.64152892419852
 20
152.4199098115079
 10
95.38097652692731
 20
152.4199098115079
 10
95.38097652692731
 20
152.4199098115079
 10
95.38097652692731
 20
152.4199098115079
 10
87.75353009080013
 20
127.8027915271048
 10
87.75353009080013
 20
127.8027915271048
 10
87.75353009080013
 20
127.8027915271048
 10
85.36538832498108
 20
127.8027915271048
 10
85.36538832498108
 20
127.8027915271048
 10
85.36538832498108
 20
127.8027915271048
 10
93.00006946639998
 20
152.4199098115079
 10
93.00006946639998
 20
152.4199098115079
 10
93.00006946639998
 20
152.4199098115079
 10
89.85297266450198
 20
152.4199098115079
 10
89.85297266450198
 20
152.4199098115079
 10
89.85297266450198
 20
152.4199098115079
 10
90.51270888515164
 20
154.9119212747295
 10
90.51270888515164
 20
154.9119212747295
 10
90.51270888515164
 20
154.9119212747295
 10
93.6904670570955
 20
154.9119212747295
 10
93.6904670570955
 20
154.9119212747295
 10
93.6904670570955
 20
154.9119212747295
 10
94.81598049462158
 20
158.3616699146644
 10
94.81598049462158
 20
158.3616699146644
 10
95.7237637538445
 20
161.2605474231013
 10
96.4968436907311
 20
162.8139420021662
 10
97.15657991138076
 20
163.9844139654337
 10
97.81183750494507
 20
165.1523021053827
 10
99.1047826935081
 20
166.3084769129547
 10
100.4504378777679
 20
166.69157178364
 97
        0
 75
     2
 76
     1
 98
        0
  0
SPLINE
  5
6A6
330
6A2
100
AcDbEntity
  8
LOGO
370
     0
100
AcDbSpline
210
0.0
220
0.0
230
1.0
 70
    11
 71
     3
 72
    38
 73
    34
 74
     0
 42
0.000000001
 43
0.0000000001
 40
0.0
 40
0.0
 40
0.0
 40
0.0
 40
1.0
 40
1.0
 40
1.0
 40
2.0
 40
2.0
 40
2.0
 40
3.0
 40
3.0
 40
3.0
 40
4.0
 40
4.0
 40
4.0
 40
5.0
 40
5.0
 40
5.0
 40
6.0
 40
6.0
 40
6.0
 40
7.0
 40
7.0
 40
7.0
 40
8.0
 40
8.0
 40
8.0
 40
9.0
 40
9.0
 40
9.0
 40
10.0
 40
10.0
 40
10.0
 40
11.0
 40
11.0
 40
11.0
 40
11.0
 10
126.377554584636
 20
154.8151140277308
 30
0.0
 10
126.377554584636
 20
154.8151140277308
 30
0.0
 10
128.8311532078563
 20
154.8151140277308
 30
0.0
 10
128.8311532078563
 20
154.8151140277308
 30
0.0
 10
128.8311532078563
 20
154.8151140277308
 30
0.0
 10
127.7345785914971
 20
151.3062819612468
 30
0.0
 10
127.7345785914971
 20
151.3062819612468
 30
0.0
 10
128.571392836906
 20
152.2922689395754
 30
0.0
 10
129.8860421413442
 20
153.604506675583
 30
0.0
 10
131.0163787157314
 20
154.2664822097754
 30
0.0
 10
132.7044766171327
 20
155.2500576196734
 30
0.0
 10
133.6642808525008
 20
155.3847609420097
 30
0.0
 10
134.7284715499351
 20
155.3565111403944
 30
0.0
 10
134.7284715499351
 20
155.3565111403944
 30
0.0
 10
133.6877075172549
 20
152.0345756272799
 30
0.0
 10
133.6877075172549
 20
152.0345756272799
 30
0.0
 10
133.011434827367
 20
152.3184516825359
 30
0.0
 10
130.930940291334
 20
151.7768823149844
 30
0.0
 10
129.739280976855
 20
150.9162968950455
 30
0.0
 10
128.66613302525
 20
150.1454562717016
 30
0.0
 10
127.9192358313239
 20
149.4857200510519
 30
0.0
 10
127.0393578639405
 20
147.8282835196966
 30
0.0
 10
126.164647543194
 20
146.1699857139017
 30
0.0
 10
125.4742499524985
 20
143.5262176944419
 30
0.0
 10
124.2822461282437
 20
139.6959580071401
 30
0.0
 10
124.2822461282437
 20
139.6959580071401
 30
0.0
 10
120.5753209406769
 20
127.8027915271048
 30
0.0
 10
120.5753209406769
 20
127.8027915271048
 30
0.0
 10
120.5753209406769
 20
127.8027915271048
 30
0.0
 10
118.1964809388044
 20
127.8027915271048
 30
0.0
 10
118.1964809388044
 20
127.8027915271048
 30
0.0
 10
118.1964809388044
 20
127.8027915271048
 30
0.0
 10
126.377554584636
 20
154.8151140277308
 30
0.0
 10
126.377554584636
 20
154.8151140277308
 30
0.0
  0
HATCH
  5
6A7
330
6A2
100
AcDbEntity
  8
LOGO
 62
   250
420
  2234388
100
AcDbHatch
 10
0.0
 20
0.0
 30
0.0
210
0.0
220
0.0
230
1.0
  2
SOLID
 70
     1
 71
     0
 91
        1
 92
        1
 93
        1
 72
     4
 94
        3
 73
     0
 74
     1
 95
       38
 96
       34
 40
0.0
 40
0.0
 40
0.0
 40
0.0
 40
1.0
 40
1.0
 40
1.0
 40
2.0
 40
2.0
 40
2.0
 40
3.0
 40
3.0
 40
3.0
 40
4.0
 40
4.0
 40
4.0
 40
5.0
 40
5.0
 40
5.0
 40
6.0
 40
6.0
 40
6.0
 40
7.0
 40
7.0
 40
7.0
 40
8.0
 40
8.0
 40
8.0
 40
9.0
 40
9.0
 40
9.0
 40
10.0
 40
10.0
 40
10.0
 40
11.0
 40
11.0
 40
11.0
 40
11.0
 10
126.377554584636
 20
154.8151140277308
 10
126.377554584636
 20
154.8151140277308
 10
128.8311532078563
 20
154.8151140277308
 10
128.8311532078563
 20
154.8151140277308
 10
128.8311532078563
 20
154.8151140277308
 10
127.7345785914971
 20
151.3062819612468
 10
127.7345785914971
 20
151.3062819612468
 10
128.571392836906
 20
152.2922689395754
 10
129.8860421413442
 20
153.604506675583
 10
131.0163787157314
 20
154.2664822097754
 10
132.7044766171327
 20
155.2500576196734
 10
133.6642808525008
 20
155.3847609420097
 10
134.7284715499351
 20
155.3565111403944
 10
134.7284715499351
 20
155.3565111403944
 10
133.6877075172549
 20
152.0345756272799
 10
133.6877075172549
 20
152.0345756272799
 10
133.011434827367
 20
152.3184516825359
 10
130.930940291334
 20
151.7768823149844
 10
129.739280976855
 20
150.9162968950455
 10
128.66613302525
 20
150.1454562717016
 10
127.9192358313239
 20
149.4857200510519
 10
127.0393578639405
 20
147.8282835196966
 10
126.164647543194
 20
146.1699857139017
 10
125.4742499524985
 20
143.5262176944419
 10
124.2822461282437
 20
139.6959580071401
 10
124.2822461282437
 20
139.6959580071401
 10
120.5753209406769
 20
127.8027915271048
 10
120.5753209406769
 20
127.8027915271048
 10
120.5753209406769
 20
127.8027915271048
 10
118.1964809388044
 20
127.8027915271048
 10
118.1964809388044
 20
127.8027915271048
 10
118.1964809388044
 20
127.8027915271048
 10
126.377554584636
 20
154.8151140277308
 10
126.377554584636
 20
154.8151140277308
 97
        0
 75
     2
 76
     1
 98
        0
  0
SPLINE
  5
6A8
330
6A2
100
AcDbEntity
  8
LOGO
370
     0
100
AcDbSpline
210
0.0
220
0.0
230
1.0
 70
    11
 71
     3
 72
   104
 73
   100
 74
     0
 42
0.000000001
 43
0.0000000001
 40
0.0
 40
0.0
 40
0.0
 40
0.0
 40
1.0
 40
1.0
 40
1.0
 40
2.0
 40
2.0
 40
2.0
 40
3.0
 40
3.0
 40
3.0
 40
4.0
 40
4.0
 40
4.0
 40
5.0
 40
5.0
 40
5.0
 40
6.0
 40
6.0
 40
6.0
 40
7.0
 40
7.0
 40
7.0
 40
8.0
 40
8.0
 40
8.0
 40
9.0
 40
9.0
 40
9.0
 40
10.0
 40
10.0
 40
10.0
 40
11.0
 40
11.0
 40
11.0
 40
12.0
 40
12.0
 40
12.0
 40
13.0
 40
13.0
 40
13.0
 40
14.0
 40
14.0
 40
14.0
 40
15.0
 40
15.0
 40
15.0
 40
16.0
 40
16.0
 40
16.0
 40
17.0
 40
17.0
 40
17.0
 40
18.0
 40
18.0
 40
18.0
 40
19.0
 40
19.0
 40
19.0
 40
20.0
 40
20.0
 40
20.0
 40
21.0
 40
21.0
 40
21.0
 40
22.0
 40
22.0
 40
22.0
 40
23.0
 40
23.0
 40
23.0
 40
24.0
 40
24.0
 40
24.0
 40
25.0
 40
25.0
 40
25.0
 40
26.0
 40
26.0
 40
26.0
 40
27.0
 40
27.0
 40
27.0
 40
28.0
 40
28.0
 40
28.0
 40
29.0
 40
29.0
 40
29.0
 40
30.0
 40
30.0
 40
30.0
 40
31.0
 40
31.0
 40
31.0
 40
32.0
 40
32.0
 40
32.0
 40
33.0
 40
33.0
 40
33.0
 40
33.0
 10
139.8926730891197
 20
154.8294111834263
 30
0.0
 10
139.8926730891197
 20
154.8294111834263
 30
0.0
 10
142.0344903652445
 20
154.8294111834263
 30
0.0
 10
142.0344903652445
 20
154.8294111834263
 30
0.0
 10
142.0344903652445
 20
154.8294111834263
 30
0.0
 10
140.9516961399171
 20
151.3157559800812
 30
0.0
 10
140.9516961399171
 20
151.3157559800812
 30
0.0
 10
141.8928968473923
 20
152.7887075264977
 30
0.0
 10
142.7341897198865
 20
153.4484437471474
 30
0.0
 10
143.8552245303272
 20
154.2926649527359
 30
0.0
 10
144.9803934580775
 20
155.1296514530327
 30
0.0
 10
146.3139908001845
 20
155.3044901642492
 30
0.0
 10
147.241066606852
 20
155.3044901642492
 30
0.0
 10
148.3855280820469
 20
155.3044901642492
 30
0.0
 10
149.4969166187653
 20
155.0752189084569
 30
0.0
 10
150.0784491203092
 20
153.8172414621372
 30
0.0
 10
150.5228667310863
 20
152.833838307127
 30
0.0
 10
150.5414702589793
 20
152.7201500811143
 30
0.0
 10
150.4140016419347
 20
150.7765981809602
 30
0.0
 10
151.5818897818837
 20
152.7699317437168
 30
0.0
 10
152.4424752018226
 20
153.6256940267945
 30
0.0
 10
153.9038856707499
 20
154.4507949398263
 30
0.0
 10
155.4455669174378
 20
155.3044901642492
 30
0.0
 10
156.339225275853
 20
155.3659851592288
 30
0.0
 10
157.3748216618963
 20
155.2147453676543
 30
0.0
 10
158.911679771723
 20
154.9877134254046
 30
0.0
 10
159.8859534176746
 20
154.4390816074493
 30
0.0
 10
160.3965169054045
 20
152.7816450760939
 30
0.0
 10
160.9070803931344
 20
151.1219692311958
 30
0.0
 10
160.6328506116007
 20
150.2303779314354
 30
0.0
 10
159.9992971339115
 20
147.597634224801
 30
0.0
 10
159.7105979417943
 20
146.4014962832367
 30
0.0
 10
159.2947746424084
 20
144.9400858143094
 30
0.0
 10
158.7463150793409
 20
143.2092687007094
 30
0.0
 10
158.7463150793409
 20
143.2092687007094
 30
0.0
 10
153.9038856707499
 20
127.8027915271048
 30
0.0
 10
153.9038856707499
 20
127.8027915271048
 30
0.0
 10
153.9038856707499
 20
127.8027915271048
 30
0.0
 10
151.3882752878863
 20
127.8027915271048
 30
0.0
 10
151.3882752878863
 20
127.8027915271048
 30
0.0
 10
151.3882752878863
 20
127.8027915271048
 30
0.0
 10
155.6250565106276
 20
141.2751908193897
 30
0.0
 10
155.6250565106276
 20
141.2751908193897
 30
0.0
 10
156.5094131050963
 20
144.0936252951782
 30
0.0
 10
157.109893644309
 20
146.1506931664571
 30
0.0
 10
157.4220195011804
 20
147.4415712963654
 30
0.0
 10
157.8095929989511
 20
149.0530157726519
 30
0.0
 10
157.9656559273867
 20
149.5826995529385
 30
0.0
 10
157.7816877071116
 20
150.7529992613181
 30
0.0
 10
157.6111553680925
 20
151.8430281919372
 30
0.0
 10
157.0582171779396
 20
152.5547853887321
 30
0.0
 10
156.1170164704645
 20
152.5547853887321
 30
0.0
 10
155.1096698860365
 20
152.5547853887321
 30
0.0
 10
154.2962823053817
 20
152.4412694176073
 30
0.0
 10
153.156643967048
 20
151.2945686288697
 30
0.0
 10
152.0170056287143
 20
150.1476955852443
 30
0.0
 10
151.076149431015
 20
148.7930831468137
 30
0.0
 10
150.3337308641742
 20
147.2290087646991
 30
0.0
 10
149.5957909244188
 20
145.6683794803425
 30
0.0
 10
148.8530278478023
 20
143.6822806228776
 30
0.0
 10
148.0964843801539
 20
141.2751908193897
 30
0.0
 10
148.0964843801539
 20
141.2751908193897
 30
0.0
 10
143.8552245303272
 20
127.8027915271048
 30
0.0
 10
143.8552245303272
 20
127.8027915271048
 30
0.0
 10
143.8552245303272
 20
127.8027915271048
 30
0.0
 10
141.486030802177
 20
127.8027915271048
 30
0.0
 10
141.486030802177
 20
127.8027915271048
 30
0.0
 10
141.486030802177
 20
127.8027915271048
 30
0.0
 10
146.3329388378533
 20
143.2092687007094
 30
0.0
 10
146.3329388378533
 20
143.2092687007094
 30
0.0
 10
146.8483254624444
 20
144.8408669988801
 30
0.0
 10
147.2314203331297
 20
146.1837661049335
 30
0.0
 10
147.4867020769946
 20
147.224185627838
 30
0.0
 10
147.9169947869641
 20
149.0197705792876
 30
0.0
 10
148.0306830129768
 20
150.2400242051577
 30
0.0
 10
147.709255392159
 20
151.3157559800812
 30
0.0
 10
147.3874832615654
 20
152.3916600098926
 30
0.0
 10
146.8245542879144
 20
152.6683013598569
 30
0.0
 10
145.8840425999909
 20
152.6683013598569
 30
0.0
 10
145.0989048209514
 20
152.6683013598569
 30
0.0
 10
144.3282364524954
 20
152.3275811915945
 30
0.0
 10
143.4531816219731
 20
151.6538923250251
 30
0.0
 10
142.34627171234
 20
150.8074318058939
 30
0.0
 10
141.901854101563
 20
150.1097995099067
 30
0.0
 10
141.3578731655808
 20
149.289521733736
 30
0.0
 10
140.6299240093235
 20
148.192602607601
 30
0.0
 10
140.2850697237515
 20
147.455696197173
 30
0.0
 10
139.6652966370942
 20
145.8385673095858
 30
0.0
 10
139.0506911970739
 20
144.2214384219986
 30
0.0
 10
138.463991048893
 20
142.3252566160164
 30
0.0
 10
138.0571250036777
 20
141.0154304484394
 30
0.0
 10
138.0571250036777
 20
141.0154304484394
 30
0.0
 10
133.9009590684727
 20
127.8027915271048
 30
0.0
 10
133.9009590684727
 20
127.8027915271048
 30
0.0
 10
133.9009590684727
 20
127.8027915271048
 30
0.0
 10
131.4180771143097
 20
127.8027915271048
 30
0.0
 10
131.4180771143097
 20
127.8027915271048
 30
0.0
 10
131.4180771143097
 20
127.8027915271048
 30
0.0
 10
139.8926730891197
 20
154.8294111834263
 30
0.0
 10
139.8926730891197
 20
154.8294111834263
 30
0.0
  0
HATCH
  5
6A9
330
6A2
100
AcDbEntity
  8
LOGO
 62
   250
420
  2234388
100
AcDbHatch
 10
0.0
 20
0.0
 30
0.0
210
0.0
220
0.0
230
1.0
  2
SOLID
 70
     1
 71
     0
 91
        1
 92
        1
 93
        1
 72
     4
 94
        3
 73
     0
 74
     1
 95
      104
 96
      100
 40
0.0
 40
0.0
 40
0.0
 40
0.0
 40
1.0
 40
1.0
 40
1.0
 40
2.0
 40
2.0
 40
2.0
 40
3.0
 40
3.0
 40
3.0
 40
4.0
 40
4.0
 40
4.0
 40
5.0
 40
5.0
 40
5.0
 40
6.0
 40
6.0
 40
6.0
 40
7.0
 40
7.0
 40
7.0
 40
8.0
 40
8.0
 40
8.0
 40
9.0
 40
9.0
 40
9.0
 40
10.0
 40
10.0
 40
10.0
 40
11.0
 40
11.0
 40
11.0
 40
12.0
 40
12.0
 40
12.0
 40
13.0
 40
13.0
 40
13.0
 40
14.0
 40
14.0
 40
14.0
 40
15.0
 40
15.0
 40
15.0
 40
16.0
 40
16.0
 40
16.0
 40
17.0
 40
17.0
 40
17.0
 40
18.0
 40
18.0
 40
18.0
 40
19.0
 40
19.0
 40
19.0
 40
20.0
 40
20.0
 40
20.0
 40
21.0
 40
21.0
 40
21.0
 40
22.0
 40
22.0
 40
22.0
 40
23.0
 40
23.0
 40
23.0
 40
24.0
 40
24.0
 40
24.0
 40
25.0
 40
25.0
 40
25.0
 40
26.0
 40
26.0
 40
26.0
 40
27.0
 40
27.0
 40
27.0
 40
28.0
 40
28.0
 40
28.0
 40
29.0
 40
29.0
 40
29.0
 40
30.0
 40
30.0
 40
30.0
 40
31.0
 40
31.0
 40
31.0
 40
32.0
 40
32.0
 40
32.0
 40
33.0
 40
33.0
 40
33.0
 40
33.0
 10
139.8926730891197
 20
154.8294111834263
 10
139.8926730891197
 20
154.8294111834263
 10
142.0344903652445
 20
154.8294111834263
 10
142.0344903652445
 20
154.8294111834263
 10
142.0344903652445
 20
154.8294111834263
 10
140.9516961399171
 20
151.3157559800812
 10
140.9516961399171
 20
151.3157559800812
 10
141.8928968473923
 20
152.7887075264977
 10
142.7341897198865
 20
153.4484437471474
 10
143.8552245303272
 20
154.2926649527359
 10
144.9803934580775
 20
155.1296514530327
 10
146.3139908001845
 20
155.3044901642492
 10
147.241066606852
 20
155.3044901642492
 10
148.3855280820469
 20
155.3044901642492
 10
149.4969166187653
 20
155.0752189084569
 10
150.0784491203092
 20
153.8172414621372
 10
150.5228667310863
 20
152.833838307127
 10
150.5414702589793
 20
152.7201500811143
 10
150.4140016419347
 20
150.7765981809602
 10
151.5818897818837
 20
152.7699317437168
 10
152.4424752018226
 20
153.6256940267945
 10
153.9038856707499
 20
154.4507949398263
 10
155.4455669174378
 20
155.3044901642492
 10
156.339225275853
 20
155.3659851592288
 10
157.3748216618963
 20
155.2147453676543
 10
158.911679771723
 20
154.9877134254046
 10
159.8859534176746
 20
154.4390816074493
 10
160.3965169054045
 20
152.7816450760939
 10
160.9070803931344
 20
151.1219692311958
 10
160.6328506116007
 20
150.2303779314354
 10
159.9992971339115
 20
147.597634224801
 10
159.7105979417943
 20
146.4014962832367
 10
159.2947746424084
 20
144.9400858143094
 10
158.7463150793409
 20
143.2092687007094
 10
158.7463150793409
 20
143.2092687007094
 10
153.9038856707499
 20
127.8027915271048
 10
153.9038856707499
 20
127.8027915271048
 10
153.9038856707499
 20
127.8027915271048
 10
151.3882752878863
 20
127.8027915271048
 10
151.3882752878863
 20
127.8027915271048
 10
151.3882752878863
 20
127.8027915271048
 10
155.6250565106276
 20
141.2751908193897
 10
155.6250565106276
 20
141.2751908193897
 10
156.5094131050963
 20
144.0936252951782
 10
157.109893644309
 20
146.1506931664571
 10
157.4220195011804
 20
147.4415712963654
 10
157.8095929989511
 20
149.0530157726519
 10
157.9656559273867
 20
149.5826995529385
 10
157.7816877071116
 20
150.7529992613181
 10
157.6111553680925
 20
151.8430281919372
 10
157.0582171779396
 20
152.5547853887321
 10
156.1170164704645
 20
152.5547853887321
 10
155.1096698860365
 20
152.5547853887321
 10
154.2962823053817
 20
152.4412694176073
 10
153.156643967048
 20
151.2945686288697
 10
152.0170056287143
 20
150.1476955852443
 10
151.076149431015
 20
148.7930831468137
 10
150.3337308641742
 20
147.2290087646991
 10
149.5957909244188
 20
145.6683794803425
 10
148.8530278478023
 20
143.6822806228776
 10
148.0964843801539
 20
141.2751908193897
 10
148.0964843801539
 20
141.2751908193897
 10
143.8552245303272
 20
127.8027915271048
 10
143.8552245303272
 20
127.8027915271048
 10
143.8552245303272
 20
127.8027915271048
 10
141.486030802177
 20
127.8027915271048
 10
141.486030802177
 20
127.8027915271048
 10
141.486030802177
 20
127.8027915271048
 10
146.3329388378533
 20
143.2092687007094
 10
146.3329388378533
 20
143.2092687007094
 10
146.8483254624444
 20
144.8408669988801
 10
147.2314203331297
 20
146.1837661049335
 10
147.4867020769946
 20
147.224185627838
 10
147.9169947869641
 20
149.0197705792876
 10
148.0306830129768
 20
150.2400242051577
 10
147.709255392159
 20
151.3157559800812
 10
147.3874832615654
 20
152.3916600098926
 10
146.8245542879144
 20
152.6683013598569
 10
145.8840425999909
 20
152.6683013598569
 10
145.0989048209514
 20
152.6683013598569
 10
144.3282364524954
 20
152.3275811915945
 10
143.4531816219731
 20
151.6538923250251
 10
142.34627171234
 20
150.8074318058939
 10
141.901854101563
 20
150.1097995099067
 10
141.3578731655808
 20
149.289521733736
 10
140.6299240093235
 20
148.192602607601
 10
140.2850697237515
 20
147.455696197173
 10
139.6652966370942
 20
145.8385673095858
 10
139.0506911970739
 20
144.2214384219986
 10
138.463991048893
 20
142.3252566160164
 10
138.0571250036777
 20
141.0154304484394
 10
138.0571250036777
 20
141.0154304484394
 10
133.9009590684727
 20
127.8027915271048
 10
133.9009590684727
 20
127.8027915271048
 10
133.9009590684727
 20
127.8027915271048
 10
131.4180771143097
 20
127.8027915271048
 10
131.4180771143097
 20
127.8027915271048
 10
131.4180771143097
 20
127.8027915271048
 10
139.8926730891197
 20
154.8294111834263
 10
139.8926730891197
 20
154.8294111834263
 97
        0
 75
     2
 76
     1
 98
        0
  0
SPLINE
  5
6AA
330
6A2
100
AcDbEntity
  8
LOGO
370
     0
100
AcDbSpline
210
0.0
220
0.0
230
1.0
 70
    11
 71
     3
 72
    29
 73
    25
 74
     0
 42
0.000000001
 43
0.0000000001
 40
0.0
 40
0.0
 40
0.0
 40
0.0
 40
1.0
 40
1.0
 40
1.0
 40
2.0
 40
2.0
 40
2.0
 40
3.0
 40
3.0
 40
3.0
 40
4.0
 40
4.0
 40
4.0
 40
5.0
 40
5.0
 40
5.0
 40
6.0
 40
6.0
 40
6.0
 40
7.0
 40
7.0
 40
7.0
 40
8.0
 40
8.0
 40
8.0
 40
8.0
 10
101.6420971922469
 20
132.8388354296931
 30
0.0
 10
101.630039350094
 20
134.7164137077823
 30
0.0
 10
102.2236296937908
 20
138.0598810818841
 30
0.0
 10
103.7487744712405
 20
142.5378191476827
 30
0.0
 10
105.819967243327
 20
148.5896501242061
 30
0.0
 10
107.0602024361932
 20
150.8074318058939
 30
0.0
 10
108.1522984254671
 20
151.8833358357054
 30
0.0
 10
109.741177511439
 20
153.4532668840085
 30
0.0
 10
111.8740375333931
 20
153.5290590346837
 30
0.0
 10
112.5075910110823
 20
153.4532668840085
 30
0.0
 10
113.4012493694975
 20
153.3490526768302
 30
0.0
 10
114.6683563248758
 20
152.7580461564518
 30
0.0
 10
114.7493161221879
 20
150.7838328862519
 30
0.0
 10
114.8106388622796
 20
149.0909118479895
 30
0.0
 10
114.3186789024427
 20
145.9191825971221
 30
0.0
 10
112.6164561002338
 20
140.9489400617108
 30
0.0
 10
110.6444821435766
 20
135.1746117095912
 30
0.0
 10
109.4669477299053
 20
132.8960240524753
 30
0.0
 10
108.5212683953448
 20
131.9072809959403
 30
0.0
 10
106.7346406980658
 20
130.0538184021569
 30
0.0
 10
104.8222669326213
 20
130.2336525051225
 30
0.0
 10
104.5408024457958
 20
130.2336525051225
 30
0.0
 10
104.1721769856939
 20
130.2336525051225
 30
0.0
 10
101.6465758193322
 20
130.6305277668397
 30
0.0
 10
101.6420971922469
 20
132.8388354296931
 30
0.0
  0
SPLINE
  5
6AB
330
6A2
100
AcDbEntity
  8
LOGO
370
     0
100
AcDbSpline
210
0.0
220
0.0
230
1.0
 70
    11
 71
     3
 72
    32
 73
    28
 74
     0
 42
0.000000001
 43
0.0000000001
 40
0.0
 40
0.0
 40
0.0
 40
0.0
 40
1.0
 40
1.0
 40
1.0
 40
2.0
 40
2.0
 40
2.0
 40
3.0
 40
3.0
 40
3.0
 40
4.0
 40
4.0
 40
4.0
 40
5.0
 40
5.0
 40
5.0
 40
6.0
 40
6.0
 40
6.0
 40
7.0
 40
7.0
 40
7.0
 40
8.0
 40
8.0
 40
8.0
 40
9.0
 40
9.0
 40
9.0
 40
9.0
 10
106.2595617172429
 20
153.4105476718098
 30
0.0
 10
104.8222669326213
 20
151.5474388043041
 30
0.0
 10
103.7177685914188
 20
149.8758773721411
 30
0.0
 10
101.9232171692965
 20
144.6141795664062
 30
0.0
 10
100.2754269116635
 20
139.7999999594306
 30
0.0
 10
99.22777268346732
 20
136.3052927937542
 30
0.0
 10
99.06964269637689
 20
132.039572749846
 30
0.0
 10
98.94665270641765
 20
128.8673267343149
 30
0.0
 10
100.8807305877373
 20
127.8027915271048
 30
0.0
 10
103.7129454545577
 20
127.8027915271048
 30
0.0
 10
104.9352661390825
 20
127.8027915271048
 30
0.0
 10
108.0151835347002
 20
127.8827177950895
 30
0.0
 10
110.2045431598849
 20
130.5926316915021
 30
0.0
 10
111.7417457794874
 20
132.4984597712065
 30
0.0
 10
113.155269389579
 20
134.475256864725
 30
0.0
 10
115.0562743324223
 20
140.9489400617108
 30
0.0
 10
116.6361961642235
 20
146.3680788349845
 30
0.0
 10
117.7282921534974
 20
149.8639917848761
 30
0.0
 10
117.6480213757369
 20
151.8595646611754
 30
0.0
 10
117.6480213757369
 20
151.8595646611754
 30
0.0
 10
117.6480213757369
 20
151.8595646611754
 30
0.0
 10
117.6480213757369
 20
151.8595646611754
 30
0.0
 10
117.13229024137
 20
155.18150017429
 30
0.0
 10
114.7162431837115
 20
155.886194920681
 30
0.0
 10
113.3351034925446
 20
155.886194920681
 30
0.0
 10
111.9829026225447
 20
155.886194920681
 30
0.0
 10
108.3414342923792
 20
156.1251124501957
 30
0.0
 10
106.2595617172429
 20
153.4105476718098
 30
0.0
  0
HATCH
  5
6AC
330
6A2
100
AcDbEntity
  8
LOGO
 62
   250
420
  2234388
100
AcDbHatch
 10
0.0
 20
0.0
 30
0.0
210
0.0
220
0.0
230
1.0
  2
SOLID
 70
     1
 71
     0
 91
        2
 92
        1
 93
        1
 72
     4
 94
        3
 73
     0
 74
     1
 95
       29
 96
       25
 40
0.0
 40
0.0
 40
0.0
 40
0.0
 40
1.0
 40
1.0
 40
1.0
 40
2.0
 40
2.0
 40
2.0
 40
3.0
 40
3.0
 40
3.0
 40
4.0
 40
4.0
 40
4.0
 40
5.0
 40
5.0
 40
5.0
 40
6.0
 40
6.0
 40
6.0
 40
7.0
 40
7.0
 40
7.0
 40
8.0
 40
8.0
 40
8.0
 40
8.0
 10
101.6420971922469
 20
132.8388354296931
 10
101.630039350094
 20
134.7164137077823
 10
102.2236296937908
 20
138.0598810818841
 10
103.7487744712405
 20
142.5378191476827
 10
105.819967243327
 20
148.5896501242061
 10
107.0602024361932
 20
150.8074318058939
 10
108.1522984254671
 20
151.8833358357054
 10
109.741177511439
 20
153.4532668840085
 10
111.8740375333931
 20
153.5290590346837
 10
112.5075910110823
 20
153.4532668840085
 10
113.4012493694975
 20
153.3490526768302
 10
114.6683563248758
 20
152.7580461564518
 10
114.7493161221879
 20
150.7838328862519
 10
114.8106388622796
 20
149.0909118479895
 10
114.3186789024427
 20
145.9191825971221
 10
112.6164561002338
 20
140.9489400617108
 10
110.6444821435766
 20
135.1746117095912
 10
109.4669477299053
 20
132.8960240524753
 10
108.5212683953448
 20
131.9072809959403
 10
106.7346406980658
 20
130.0538184021569
 10
104.8222669326213
 20
130.2336525051225
 10
104.5408024457958
 20
130.2336525051225
 10
104.1721769856939
 20
130.2336525051225
 10
101.6465758193322
 20
130.6305277668397
 10
101.6420971922469
 20
132.8388354296931
 97
        0
 92
        1
 93
        1
 72
     4
 94
        3
 73
     0
 74
     1
 95
       32
 96
       28
 40
0.0
 40
0.0
 40
0.0
 40
0.0
 40
1.0
 40
1.0
 40
1.0
 40
2.0
 40
2.0
 40
2.0
 40
3.0
 40
3.0
 40
3.0
 40
4.0
 40
4.0
 40
4.0
 40
5.0
 40
5.0
 40
5.0
 40
6.0
 40
6.0
 40
6.0
 40
7.0
 40
7.0
 40
7.0
 40
8.0
 40
8.0
 40
8.0
 40
9.0
 40
9.0
 40
9.0
 40
9.0
 10
106.2595617172429
 20
153.4105476718098
 10
104.8222669326213
 20
151.5474388043041
 10
103.7177685914188
 20
149.8758773721411
 10
101.9232171692965
 20
144.6141795664062
 10
100.2754269116635
 20
139.7999999594306
 10
99.22777268346732
 20
136.3052927937542
 10
99.06964269637689
 20
132.039572749846
 10
98.94665270641765
 20
128.8673267343149
 10
100.8807305877373
 20
127.8027915271048
 10
103.7129454545577
 20
127.8027915271048
 10
104.9352661390825
 20
127.8027915271048
 10
108.0151835347002
 20
127.8827177950895
 10
110.2045431598849
 20
130.5926316915021
 10
111.7417457794874
 20
132.4984597712065
 10
113.155269389579
 20
134.475256864725
 10
115.0562743324223
 20
140.9489400617108
 10
116.6361961642235
 20
146.3680788349845
 10
117.7282921534974
 20
149.8639917848761
 10
117.6480213757369
 20
151.8595646611754
 10
117.6480213757369
 20
151.8595646611754
 10
117.6480213757369
 20
151.8595646611754
 10
117.6480213757369
 20
151.8595646611754
 10
117.13229024137
 20
155.18150017429
 10
114.7162431837115
 20
155.886194920681
 10
113.3351034925446
 20
155.886194920681
 10
111.9829026225447
 20
155.886194920681
 10
108.3414342923792
 20
156.1251124501957
 10
106.2595617172429
 20
153.4105476718098
 97
        0
 75
     2
 76
     1
 98
        0
  0
ENDBLK
  5
6AD
330
6A2
100
AcDbEntity
  8
0
100
AcDbBlockEnd
  0
BLOCK
  5
E8A
330
E89
100
AcDbEntity
  8
0
100
AcDbBlockBegin
  2
*D6
 70
     1
 10
0.0
 20
0.0
 30
0.0
  3
*D6
  1
*D7
  0
LINE
  5
E8C
330
E89
100
AcDbEntity
  8
MODEL
  6
Continuous
 62
     0
370
    -2
100
AcDbLine
 10
501.3830447138743
 20
838.6576534467056
 30
0.0
 11
456.2467057498549
 21
838.6576534467056
 31
0.0
  0
LINE
  5
E8D
330
E89
100
AcDbEntity
  8
MODEL
  6
Continuous
 62
     0
370
    -2
100
AcDbLine
 10
501.3830447138743
 20
965.6576534467047
 30
0.0
 11
456.2467057498549
 21
965.6576534467047
 31
0.0
  0
LINE
  5
E8E
330
E89
100
AcDbEntity
  8
MODEL
  6
Continuous
 62
     0
370
    -2
100
AcDbLine
 10
456.2467057498549
 20
844.6576534467056
 30
0.0
 11
456.2467057498549
 21
959.6576534467047
 31
0.0
  0
INSERT
  5
E8F
330
E89
100
AcDbEntity
  8
MODEL
 62
     0
370
    -2
100
AcDbBlockReference
  2
_DOT
 10
456.2467057498549
 20
838.6576534467056
 30
0.0
 41
6.0
 42
6.0
 43
6.0
 50
270.0
  0
INSERT
  5
E90
330
E89
100
AcDbEntity
  8
MODEL
 62
     0
370
    -2
100
AcDbBlockReference
  2
_DOT
 10
456.2467057498549
 20
965.6576534467047
 30
0.0
 41
6.0
 42
6.0
 43
6.0
 50
90.0
  0
MTEXT
  5
E91
330
E89
100
AcDbEntity
  8
MODEL
  6
Continuous
 62
     0
100
AcDbMText
 10
440.2467057498549
 20
902.1576534467051
 30
0.0
 40
12.0
 41
0.0
 46
0.0
 71
     5
 72
     1
  1
\A1;127
  7
ＭＳ ゴシック
 11
0.0
 21
1.0
 31
0.0
 73
     1
 44
1.0
  0
POINT
  5
E92
330
E89
100
AcDbEntity
  8
Defpoints
 62
     0
100
AcDbPoint
 10
506.3830447138743
 20
838.6576534467056
 30
0.0
  0
POINT
  5
E93
330
E89
100
AcDbEntity
  8
Defpoints
 62
     0
100
AcDbPoint
 10
506.3830447138743
 20
965.6576534467047
 30
0.0
  0
POINT
  5
E94
330
E89
100
AcDbEntity
  8
Defpoints
 62
     0
100
AcDbPoint
 10
456.2467057498549
 20
965.6576534467047
 30
0.0
  0
ENDBLK
  5
E8B
330
E89
100
AcDbEntity
  8
0
100
AcDbBlockEnd
  0
BLOCK
  5
E99
330
E98
100
AcDbEntity
  8
0
100
AcDbBlockBegin
  2
*D7
 70
     1
 10
0.0
 20
0.0
 30
0.0
  3
*D7
  1
*D8
  0
LINE
  5
E9B
330
E98
100
AcDbEntity
  8
MODEL
  6
Continuous
 62
     0
370
    -2
100
AcDbLine
 10
501.3830447138743
 20
965.6576534467047
 30
0.0
 11
465.2823238631478
 21
965.6576534467047
 31
0.0
  0
LINE
  5
E9C
330
E98
100
AcDbEntity
  8
MODEL
  6
Continuous
 62
     0
370
    -2
100
AcDbLine
 10
501.3830447138743
 20
1123.657653446706
 30
0.0
 11
465.2823238631478
 21
1123.657653446706
 31
0.0
  0
LINE
  5
E9D
330
E98
100
AcDbEntity
  8
MODEL
  6
Continuous
 62
     0
370
    -2
100
AcDbLine
 10
465.2823238631478
 20
971.6576534467047
 30
0.0
 11
465.2823238631478
 21
1117.657653446706
 31
0.0
  0
INSERT
  5
E9E
330
E98
100
AcDbEntity
  8
MODEL
 62
     0
370
    -2
100
AcDbBlockReference
  2
_DOT
 10
465.2823238631478
 20
965.6576534467047
 30
0.0
 41
6.0
 42
6.0
 43
6.0
 50
270.0
  0
INSERT
  5
E9F
330
E98
100
AcDbEntity
  8
MODEL
 62
     0
370
    -2
100
AcDbBlockReference
  2
_DOT
 10
465.2823238631478
 20
1123.657653446706
 30
0.0
 41
6.0
 42
6.0
 43
6.0
 50
90.0
  0
MTEXT
  5
EA0
330
E98
100
AcDbEntity
  8
MODEL
  6
Continuous
 62
     0
100
AcDbMText
 10
448.2803238631479
 20
1044.657653446705
 30
0.0
 40
12.0
 41
0.0
 46
0.0
 71
     5
 72
     1
  1
\A1;縦管カット
  7
ＭＳ ゴシック
 11
0.0
 21
1.0
 31
0.0
 73
     1
 44
1.0
  0
POINT
  5
EA1
330
E98
100
AcDbEntity
  8
Defpoints
 62
     0
100
AcDbPoint
 10
506.3830447138743
 20
965.6576534467047
 30
0.0
  0
POINT
  5
EA2
330
E98
100
AcDbEntity
  8
Defpoints
 62
     0
100
AcDbPoint
 10
506.3830447138743
 20
1123.657653446706
 30
0.0
  0
POINT
  5
EA3
330
E98
100
AcDbEntity
  8
Defpoints
 62
     0
100
AcDbPoint
 10
465.2823238631478
 20
1123.657653446706
 30
0.0
  0
ENDBLK
  5
E9A
330
E98
100
AcDbEntity
  8
0
100
AcDbBlockEnd
  0
BLOCK
  5
ED1
330
ED0
100
AcDbEntity
  8
0
100
AcDbBlockBegin
  2
*D8
 70
     1
 10
0.0
 20
0.0
 30
0.0
  3
*D8
  1
*D9
  0
LINE
  5
ED3
330
ED0
100
AcDbEntity
  8
DIM
 62
     0
370
    -2
100
AcDbLine
 10
267.1357765155845
 20
1310.251429551457
 30
0.0
 11
267.1357765155845
 21
1343.269334009806
 31
0.0
  0
LINE
  5
ED4
330
ED0
100
AcDbEntity
  8
DIM
 62
     0
370
    -2
100
AcDbLine
 10
317.1357765155842
 20
1310.251429551457
 30
0.0
 11
317.1357765155842
 21
1343.269334009806
 31
0.0
  0
LINE
  5
ED5
330
ED0
100
AcDbEntity
  8
DIM
 62
     0
370
    -2
100
AcDbLine
 10
269.1357765155845
 20
1343.269334009806
 30
0.0
 11
315.1357765155842
 21
1343.269334009806
 31
0.0
  0
INSERT
  5
ED6
330
ED0
100
AcDbEntity
  8
DIM
 62
     0
370
    -2
100
AcDbBlockReference
  2
_DOT
 10
267.1357765155845
 20
1343.269334009806
 30
0.0
 41
2.0
 42
2.0
 43
2.0
 50
180.0
  0
INSERT
  5
ED7
330
ED0
100
AcDbEntity
  8
DIM
 62
     0
370
    -2
100
AcDbBlockReference
  2
_DOT
 10
317.1357765155842
 20
1343.269334009806
 30
0.0
 41
2.0
 42
2.0
 43
2.0
  0
MTEXT
  5
ED8
330
ED0
100
AcDbEntity
  8
DIM
 62
     0
100
AcDbMText
 10
292.1357765155843
 20
1357.329334009806
 30
0.0
 40
12.0
 41
0.0
 46
0.0
 71
     5
 72
     1
  1
\A1;ø50
  7
ＭＳ ゴシック
 73
     1
 44
1.0
  0
POINT
  5
ED9
330
ED0
100
AcDbEntity
  8
Defpoints
 62
     0
100
AcDbPoint
 10
267.1357765155845
 20
1295.251429551457
 30
0.0
  0
POINT
  5
EDA
330
ED0
100
AcDbEntity
  8
Defpoints
 62
     0
100
AcDbPoint
 10
317.1357765155842
 20
1295.251429551457
 30
0.0
  0
POINT
  5
EDB
330
ED0
100
AcDbEntity
  8
Defpoints
 62
     0
100
AcDbPoint
 10
317.1357765155842
 20
1343.269334009806
 30
0.0
  0
ENDBLK
  5
ED2
330
ED0
100
AcDbEntity
  8
0
100
AcDbBlockEnd
  0
BLOCK
  5
F5F
330
F5E
100
AcDbEntity
  8
0
100
AcDbBlockBegin
  2
*D9
 70
     1
 10
0.0
 20
0.0
 30
0.0
  3
*D9
  1
*D11
  0
LINE
  5
F61
330
F5E
100
AcDbEntity
  8
DIM
 62
     0
370
    -2
100
AcDbLine
 10
501.3830447138743
 20
524.4653627585708
 30
0.0
 11
465.2338935923693
 21
524.4653627585708
 31
0.0
  0
LINE
  5
F62
330
F5E
100
AcDbEntity
  8
DIM
 62
     0
370
    -2
100
AcDbLine
 10
501.3830447138743
 20
397.4653627585717
 30
0.0
 11
465.2338935923693
 21
397.4653627585717
 31
0.0
  0
LINE
  5
F63
330
F5E
100
AcDbEntity
  8
DIM
 62
     0
370
    -2
100
AcDbLine
 10
465.2338935923693
 20
522.4653627585708
 30
0.0
 11
465.2338935923693
 21
399.4653627585717
 31
0.0
  0
INSERT
  5
F64
330
F5E
100
AcDbEntity
  8
DIM
 62
     0
370
    -2
100
AcDbBlockReference
  2
_DOT
 10
465.2338935923693
 20
524.4653627585708
 30
0.0
 41
2.0
 42
2.0
 43
2.0
 50
90.0
  0
INSERT
  5
F65
330
F5E
100
AcDbEntity
  8
DIM
 62
     0
370
    -2
100
AcDbBlockReference
  2
_DOT
 10
465.2338935923693
 20
397.4653627585717
 30
0.0
 41
2.0
 42
2.0
 43
2.0
 50
270.0
  0
MTEXT
  5
F66
330
F5E
100
AcDbEntity
  8
DIM
 62
     0
100
AcDbMText
 10
449.2338935923693
 20
460.9653627585712
 30
0.0
 40
12.0
 41
0.0
 46
0.0
 71
     5
 72
     1
  1
\A1;127
  7
ＭＳ ゴシック
 11
0.0
 21
1.0
 31
0.0
 73
     1
 44
1.0
  0
POINT
  5
F67
330
F5E
100
AcDbEntity
  8
Defpoints
 62
     0
100
AcDbPoint
 10
506.3830447138743
 20
524.4653627585708
 30
0.0
  0
POINT
  5
F68
330
F5E
100
AcDbEntity
  8
Defpoints
 62
     0
100
AcDbPoint
 10
506.3830447138743
 20
397.4653627585717
 30
0.0
  0
POINT
  5
F69
330
F5E
100
AcDbEntity
  8
Defpoints
 62
     0
100
AcDbPoint
 10
465.2338935923693
 20
397.4653627585717
 30
0.0
  0
ENDBLK
  5
F60
330
F5E
100
AcDbEntity
  8
0
100
AcDbBlockEnd
  0
BLOCK
  5
F6C
330
F6B
100
AcDbEntity
  8
0
100
AcDbBlockBegin
  2
*D10
 70
     1
 10
0.0
 20
0.0
 30
0.0
  3
*D10
  1
*D12
  0
LINE
  5
F6E
330
F6B
100
AcDbEntity
  8
DIM
 62
     0
370
    -2
100
AcDbLine
 10
248.6142480161104
 20
566.8876984016606
 30
0.0
 11
219.8521470579397
 21
566.8876984016606
 31
0.0
  0
LINE
  5
F6F
330
F6B
100
AcDbEntity
  8
DIM
 62
     0
370
    -2
100
AcDbLine
 10
248.6142480161104
 20
444.8876984016606
 30
0.0
 11
219.8521470579397
 21
444.8876984016606
 31
0.0
  0
LINE
  5
F70
330
F6B
100
AcDbEntity
  8
DIM
 62
     0
370
    -2
100
AcDbLine
 10
219.8521470579397
 20
564.8876984016606
 30
0.0
 11
219.8521470579397
 21
446.8876984016606
 31
0.0
  0
INSERT
  5
F71
330
F6B
100
AcDbEntity
  8
DIM
 62
     0
370
    -2
100
AcDbBlockReference
  2
_DOT
 10
219.8521470579397
 20
566.8876984016606
 30
0.0
 41
2.0
 42
2.0
 43
2.0
 50
90.0
  0
INSERT
  5
F72
330
F6B
100
AcDbEntity
  8
DIM
 62
     0
370
    -2
100
AcDbBlockReference
  2
_DOT
 10
219.8521470579397
 20
444.8876984016606
 30
0.0
 41
2.0
 42
2.0
 43
2.0
 50
270.0
  0
MTEXT
  5
F73
330
F6B
100
AcDbEntity
  8
DIM
 62
     0
100
AcDbMText
 10
205.8521470579397
 20
505.8876984016606
 30
0.0
 40
12.0
 41
0.0
 46
0.0
 71
     5
 72
     1
  1
\A1;122
  7
ＭＳ ゴシック
 11
0.0
 21
1.0
 31
0.0
 73
     1
 44
1.0
  0
POINT
  5
F74
330
F6B
100
AcDbEntity
  8
Defpoints
 62
     0
100
AcDbPoint
 10
263.6142480161104
 20
566.8876984016606
 30
0.0
  0
POINT
  5
F75
330
F6B
100
AcDbEntity
  8
Defpoints
 62
     0
100
AcDbPoint
 10
263.6142480161104
 20
444.8876984016606
 30
0.0
  0
POINT
  5
F76
330
F6B
100
AcDbEntity
  8
Defpoints
 62
     0
100
AcDbPoint
 10
219.8521470579397
 20
444.8876984016606
 30
0.0
  0
ENDBLK
  5
F6D
330
F6B
100
AcDbEntity
  8
0
100
AcDbBlockEnd
  0
BLOCK
  5
FAA
330
FA9
100
AcDbEntity
  8
0
100
AcDbBlockBegin
  2
*D11
 70
     1
 10
0.0
 20
0.0
 30
0.0
  3
*D11
  1
*D14
  0
LINE
  5
FAB
330
FA9
100
AcDbEntity
  8
DIM
 62
     0
370
    -2
100
AcDbLine
 10
1.0
 20
15.0
 30
0.0
 11
1.0
 21
31.95790445834882
 31
0.0
  0
LINE
  5
FAC
330
FA9
100
AcDbEntity
  8
DIM
 62
     0
370
    -2
100
AcDbLine
 10
50.99999999999966
 20
15.0
 30
0.0
 11
50.99999999999966
 21
31.95790445834882
 31
0.0
  0
LINE
  5
FAD
330
FA9
100
AcDbEntity
  8
DIM
 62
     0
370
    -2
100
AcDbLine
 10
3.0
 20
31.95790445834882
 30
0.0
 11
48.99999999999966
 21
31.95790445834882
 31
0.0
  0
INSERT
  5
FAE
330
FA9
100
AcDbEntity
  8
DIM
 62
     0
370
    -2
100
AcDbBlockReference
  2
_DOT
 10
1.0
 20
31.95790445834882
 30
0.0
 41
2.0
 42
2.0
 43
2.0
 50
180.0
  0
INSERT
  5
FAF
330
FA9
100
AcDbEntity
  8
DIM
 62
     0
370
    -2
100
AcDbBlockReference
  2
_DOT
 10
50.99999999999966
 20
31.95790445834882
 30
0.0
 41
2.0
 42
2.0
 43
2.0
  0
MTEXT
  5
FB0
330
FA9
100
AcDbEntity
  8
DIM
 62
     0
100
AcDbMText
 10
25.99999999999983
 20
46.01790445834882
 30
0.0
 40
12.0
 41
0.0
 46
0.0
 71
     5
 72
     1
  1
\A1;ø50
  7
ＭＳ ゴシック
 73
     1
 44
1.0
  0
POINT
  5
FB1
330
FA9
100
AcDbEntity
  8
Defpoints
 62
     0
100
AcDbPoint
 10
1.0
 20
0.0
 30
0.0
  0
POINT
  5
FB2
330
FA9
100
AcDbEntity
  8
Defpoints
 62
     0
100
AcDbPoint
 10
50.99999999999966
 20
0.0
 30
0.0
  0
POINT
  5
FB3
330
FA9
100
AcDbEntity
  8
Defpoints
 62
     0
100
AcDbPoint
 10
50.99999999999966
 20
31.95790445834882
 30
0.0
  0
ENDBLK
  5
FB4
330
FA9
100
AcDbEntity
  8
0
100
AcDbBlockEnd
  0
BLOCK
  5
FBB
330
FBA
100
AcDbEntity
  8
0
100
AcDbBlockBegin
  2
*D12
 70
     1
 10
0.0
 20
0.0
 30
0.0
  3
*D12
  1
*D15
  0
LINE
  5
FBD
330
FBA
100
AcDbEntity
  8
DIM
 62
     0
370
    -2
100
AcDbLine
 10
556.3830447138743
 20
397.4653627585708
 30
0.0
 11
556.3830447138743
 21
364.1422167418021
 31
0.0
  0
LINE
  5
FBE
330
FBA
100
AcDbEntity
  8
DIM
 62
     0
370
    -2
100
AcDbLine
 10
506.3830447138747
 20
397.4653627585708
 30
0.0
 11
506.3830447138747
 21
364.1422167418021
 31
0.0
  0
LINE
  5
FBF
330
FBA
100
AcDbEntity
  8
DIM
 62
     0
370
    -2
100
AcDbLine
 10
554.3830447138743
 20
364.1422167418021
 30
0.0
 11
508.3830447138747
 21
364.1422167418021
 31
0.0
  0
INSERT
  5
FC0
330
FBA
100
AcDbEntity
  8
DIM
 62
     0
370
    -2
100
AcDbBlockReference
  2
_DOT
 10
556.3830447138743
 20
364.1422167418021
 30
0.0
 41
2.0
 42
2.0
 43
2.0
  0
INSERT
  5
FC1
330
FBA
100
AcDbEntity
  8
DIM
 62
     0
370
    -2
100
AcDbBlockReference
  2
_DOT
 10
506.3830447138747
 20
364.1422167418021
 30
0.0
 41
2.0
 42
2.0
 43
2.0
 50
180.0
  0
MTEXT
  5
FC2
330
FBA
100
AcDbEntity
  8
DIM
 62
     0
100
AcDbMText
 10
531.3830447138745
 20
380.2022167418021
 30
0.0
 40
12.0
 41
0.0
 46
0.0
 71
     5
 72
     1
  1
\A1;ø50
  7
ＭＳ ゴシック
 73
     1
 44
1.0
  0
POINT
  5
FC3
330
FBA
100
AcDbEntity
  8
Defpoints
 62
     0
100
AcDbPoint
 10
556.3830447138743
 20
402.4653627585708
 30
0.0
  0
POINT
  5
FC4
330
FBA
100
AcDbEntity
  8
Defpoints
 62
     0
100
AcDbPoint
 10
506.3830447138747
 20
402.4653627585708
 30
0.0
  0
POINT
  5
FC5
330
FBA
100
AcDbEntity
  8
Defpoints
 62
     0
100
AcDbPoint
 10
506.3830447138747
 20
364.1422167418021
 30
0.0
  0
ENDBLK
  5
FBC
330
FBA
100
AcDbEntity
  8
0
100
AcDbBlockEnd
  0
BLOCK
  5
FDA
330
FD9
100
AcDbEntity
  8
0
100
AcDbBlockBegin
  2
*D13
 70
     1
 10
0.0
 20
0.0
 30
0.0
  3
*D13
  1
*D16
  0
LINE
  5
FDC
330
FD9
100
AcDbEntity
  8
DIM
 62
     0
370
    -2
100
AcDbLine
 10
491.3830447138743
 20
724.8876984016615
 30
0.0
 11
433.8974312594569
 21
724.8876984016615
 31
0.0
  0
LINE
  5
FDD
330
FD9
100
AcDbEntity
  8
DIM
 62
     0
370
    -2
100
AcDbLine
 10
491.3830447138743
 20
524.8876984016615
 30
0.0
 11
433.8974312594569
 21
524.8876984016615
 31
0.0
  0
LINE
  5
FDE
330
FD9
100
AcDbEntity
  8
DIM
 62
     0
370
    -2
100
AcDbLine
 10
433.8974312594569
 20
722.8876984016615
 30
0.0
 11
433.8974312594569
 21
526.8876984016615
 31
0.0
  0
INSERT
  5
FDF
330
FD9
100
AcDbEntity
  8
DIM
 62
     0
370
    -2
100
AcDbBlockReference
  2
_DOT
 10
433.8974312594569
 20
724.8876984016615
 30
0.0
 41
2.0
 42
2.0
 43
2.0
 50
90.0
  0
INSERT
  5
FE0
330
FD9
100
AcDbEntity
  8
DIM
 62
     0
370
    -2
100
AcDbBlockReference
  2
_DOT
 10
433.8974312594569
 20
524.8876984016615
 30
0.0
 41
2.0
 42
2.0
 43
2.0
 50
270.0
  0
MTEXT
  5
FE1
330
FD9
100
AcDbEntity
  8
DIM
 62
     0
100
AcDbMText
 10
419.8974312594569
 20
624.8876984016615
 30
0.0
 40
12.0
 41
0.0
 46
0.0
 71
     5
 72
     1
  1
\A1;55～230
  7
ＭＳ ゴシック
 11
0.0
 21
1.0
 31
0.0
 73
     1
 44
1.0
  0
POINT
  5
FE2
330
FD9
100
AcDbEntity
  8
Defpoints
 62
     0
100
AcDbPoint
 10
506.3830447138743
 20
724.8876984016615
 30
0.0
  0
POINT
  5
FE3
330
FD9
100
AcDbEntity
  8
Defpoints
 62
     0
100
AcDbPoint
 10
506.3830447138743
 20
524.8876984016615
 30
0.0
  0
POINT
  5
FE4
330
FD9
100
AcDbEntity
  8
Defpoints
 62
     0
100
AcDbPoint
 10
433.8974312594569
 20
524.8876984016615
 30
0.0
  0
ENDBLK
  5
FDB
330
FD9
100
AcDbEntity
  8
0
100
AcDbBlockEnd
  0
BLOCK
  5
1004
330
1003
100
AcDbEntity
  8
0
100
AcDbBlockBegin
  2
*D14
 70
     1
 10
0.0
 20
0.0
 30
0.0
  3
*D14
  1
*D17
  0
LINE
  5
1006
330
1003
100
AcDbEntity
  8
DIM
 62
     0
370
    -2
100
AcDbLine
 10
317.1357765155843
 20
429.8876984016606
 30
0.0
 11
317.1357765155843
 21
391.9129500904137
 31
0.0
  0
LINE
  5
1007
330
1003
100
AcDbEntity
  8
DIM
 62
     0
370
    -2
100
AcDbLine
 10
267.1357765155848
 20
429.8876984016606
 30
0.0
 11
267.1357765155848
 21
391.9129500904137
 31
0.0
  0
LINE
  5
1008
330
1003
100
AcDbEntity
  8
DIM
 62
     0
370
    -2
100
AcDbLine
 10
315.1357765155843
 20
391.9129500904137
 30
0.0
 11
269.1357765155848
 21
391.9129500904137
 31
0.0
  0
INSERT
  5
1009
330
1003
100
AcDbEntity
  8
DIM
 62
     0
370
    -2
100
AcDbBlockReference
  2
_DOT
 10
317.1357765155843
 20
391.9129500904137
 30
0.0
 41
2.0
 42
2.0
 43
2.0
  0
INSERT
  5
100A
330
1003
100
AcDbEntity
  8
DIM
 62
     0
370
    -2
100
AcDbBlockReference
  2
_DOT
 10
267.1357765155848
 20
391.9129500904137
 30
0.0
 41
2.0
 42
2.0
 43
2.0
 50
180.0
  0
MTEXT
  5
100B
330
1003
100
AcDbEntity
  8
DIM
 62
     0
100
AcDbMText
 10
292.1357765155846
 20
405.9729500904137
 30
0.0
 40
12.0
 41
0.0
 46
0.0
 71
     5
 72
     1
  1
\A1;ø50
  7
ＭＳ ゴシック
 73
     1
 44
1.0
  0
POINT
  5
100C
330
1003
100
AcDbEntity
  8
Defpoints
 62
     0
100
AcDbPoint
 10
317.1357765155843
 20
444.8876984016606
 30
0.0
  0
POINT
  5
100D
330
1003
100
AcDbEntity
  8
Defpoints
 62
     0
100
AcDbPoint
 10
267.1357765155848
 20
444.8876984016606
 30
0.0
  0
POINT
  5
100E
330
1003
100
AcDbEntity
  8
Defpoints
 62
     0
100
AcDbPoint
 10
267.1357765155848
 20
391.9129500904137
 30
0.0
  0
ENDBLK
  5
1005
330
1003
100
AcDbEntity
  8
0
100
AcDbBlockEnd
  0
BLOCK
  5
1013
330
1012
100
AcDbEntity
  8
0
100
AcDbBlockBegin
  2
*D15
 70
     1
 10
0.0
 20
0.0
 30
0.0
  3
*D15
  1
*D18
  0
LINE
  5
1015
330
1012
100
AcDbEntity
  8
DIM
 62
     0
370
    -2
100
AcDbLine
 10
536.3830447138743
 20
402.4653627585708
 30
0.0
 11
824.5435131013928
 21
402.4653627585708
 31
0.0
  0
LINE
  5
1016
330
1012
100
AcDbEntity
  8
DIM
 62
     0
370
    -2
100
AcDbLine
 10
821.3830447138724
 20
447.4653627585717
 30
0.0
 11
824.5435131013928
 21
447.4653627585717
 31
0.0
  0
LINE
  5
1017
330
1012
100
AcDbEntity
  8
DIM
 62
     0
370
    -2
100
AcDbLine
 10
824.5435131013928
 20
404.4653627585708
 30
0.0
 11
824.5435131013928
 21
445.4653627585717
 31
0.0
  0
INSERT
  5
1018
330
1012
100
AcDbEntity
  8
DIM
 62
     0
370
    -2
100
AcDbBlockReference
  2
_DOT
 10
824.5435131013928
 20
402.4653627585708
 30
0.0
 41
2.0
 42
2.0
 43
2.0
 50
270.0
  0
INSERT
  5
1019
330
1012
100
AcDbEntity
  8
DIM
 62
     0
370
    -2
100
AcDbBlockReference
  2
_DOT
 10
824.5435131013928
 20
447.4653627585717
 30
0.0
 41
2.0
 42
2.0
 43
2.0
 50
90.0
  0
MTEXT
  5
101A
330
1012
100
AcDbEntity
  8
DIM
 62
     0
100
AcDbMText
 10
808.5435131013928
 20
424.9653627585712
 30
0.0
 40
12.0
 41
0.0
 46
0.0
 71
     5
 72
     1
  1
\A1;45
  7
ＭＳ ゴシック
 11
0.0
 21
1.0
 31
0.0
 73
     1
 44
1.0
  0
POINT
  5
101B
330
1012
100
AcDbEntity
  8
Defpoints
 62
     0
100
AcDbPoint
 10
531.3830447138743
 20
402.4653627585708
 30
0.0
  0
POINT
  5
101C
330
1012
100
AcDbEntity
  8
Defpoints
 62
     0
100
AcDbPoint
 10
816.3830447138724
 20
447.4653627585717
 30
0.0
  0
POINT
  5
101D
330
1012
100
AcDbEntity
  8
Defpoints
 62
     0
100
AcDbPoint
 10
824.5435131013928
 20
447.4653627585717
 30
0.0
  0
ENDBLK
  5
1014
330
1012
100
AcDbEntity
  8
0
100
AcDbBlockEnd
  0
BLOCK
  5
1022
330
1021
100
AcDbEntity
  8
0
100
AcDbBlockBegin
  2
*D16
 70
     1
 10
0.0
 20
0.0
 30
0.0
  3
*D16
  1
*D19
  0
LINE
  5
1024
330
1021
100
AcDbEntity
  8
DIM
 62
     0
370
    -2
100
AcDbLine
 10
531.3830447138743
 20
429.8876984016606
 30
0.0
 11
531.3830447138743
 21
352.2952399013599
 31
0.0
  0
LINE
  5
1025
330
1021
100
AcDbEntity
  8
DIM
 62
     0
370
    -2
100
AcDbLine
 10
856.3830447138724
 20
493.8876984016615
 30
0.0
 11
856.3830447138724
 21
352.2952399013599
 31
0.0
  0
LINE
  5
1026
330
1021
100
AcDbEntity
  8
DIM
 62
     0
370
    -2
100
AcDbLine
 10
533.3830447138743
 20
352.2952399013599
 30
0.0
 11
854.3830447138724
 21
352.2952399013599
 31
0.0
  0
INSERT
  5
1027
330
1021
100
AcDbEntity
  8
DIM
 62
     0
370
    -2
100
AcDbBlockReference
  2
_DOT
 10
531.3830447138743
 20
352.2952399013599
 30
0.0
 41
2.0
 42
2.0
 43
2.0
 50
180.0
  0
INSERT
  5
1028
330
1021
100
AcDbEntity
  8
DIM
 62
     0
370
    -2
100
AcDbBlockReference
  2
_DOT
 10
856.3830447138724
 20
352.2952399013599
 30
0.0
 41
2.0
 42
2.0
 43
2.0
  0
MTEXT
  5
1029
330
1021
100
AcDbEntity
  8
DIM
 62
     0
100
AcDbMText
 10
693.8830447138733
 20
366.2952399013599
 30
0.0
 40
12.0
 41
0.0
 46
0.0
 71
     5
 72
     1
  1
\A1;115～325
  7
ＭＳ ゴシック
 73
     1
 44
1.0
  0
POINT
  5
102A
330
1021
100
AcDbEntity
  8
Defpoints
 62
     0
100
AcDbPoint
 10
531.3830447138743
 20
444.8876984016606
 30
0.0
  0
POINT
  5
102B
330
1021
100
AcDbEntity
  8
Defpoints
 62
     0
100
AcDbPoint
 10
856.3830447138724
 20
508.8876984016615
 30
0.0
  0
POINT
  5
102C
330
1021
100
AcDbEntity
  8
Defpoints
 62
     0
100
AcDbPoint
 10
856.3830447138724
 20
352.2952399013599
 30
0.0
  0
ENDBLK
  5
1023
330
1021
100
AcDbEntity
  8
0
100
AcDbBlockEnd
  0
BLOCK
  5
105C
330
105B
100
AcDbEntity
  8
0
100
AcDbBlockBegin
  2
*D17
 70
     1
 10
0.0
 20
0.0
 30
0.0
  3
*D17
  1
*D20
  0
LINE
  5
105E
330
105B
100
AcDbEntity
  8
DIM
 62
     0
370
    -2
100
AcDbLine
 10
816.3830447138724
 20
427.4653627585717
 30
0.0
 11
816.3830447138724
 21
380.0727065230848
 31
0.0
  0
LINE
  5
105F
330
105B
100
AcDbEntity
  8
DIM
 62
     0
370
    -2
100
AcDbLine
 10
531.3830447138743
 20
382.4653627585708
 30
0.0
 11
531.3830447138743
 21
380.0727065230848
 31
0.0
  0
LINE
  5
1060
330
105B
100
AcDbEntity
  8
DIM
 62
     0
370
    -2
100
AcDbLine
 10
814.3830447138724
 20
380.0727065230848
 30
0.0
 11
533.3830447138743
 21
380.0727065230848
 31
0.0
  0
INSERT
  5
1061
330
105B
100
AcDbEntity
  8
DIM
 62
     0
370
    -2
100
AcDbBlockReference
  2
_DOT
 10
816.3830447138724
 20
380.0727065230848
 30
0.0
 41
2.0
 42
2.0
 43
2.0
  0
INSERT
  5
1062
330
105B
100
AcDbEntity
  8
DIM
 62
     0
370
    -2
100
AcDbBlockReference
  2
_DOT
 10
531.3830447138743
 20
380.0727065230848
 30
0.0
 41
2.0
 42
2.0
 43
2.0
 50
180.0
  0
MTEXT
  5
1063
330
105B
100
AcDbEntity
  8
DIM
 62
     0
100
AcDbMText
 10
673.8830447138733
 20
396.0727065230848
 30
0.0
 40
12.0
 41
0.0
 46
0.0
 71
     5
 72
     1
  1
\A1;285
  7
ＭＳ ゴシック
 73
     1
 44
1.0
  0
POINT
  5
1064
330
105B
100
AcDbEntity
  8
Defpoints
 62
     0
100
AcDbPoint
 10
816.3830447138724
 20
447.4653627585717
 30
0.0
  0
POINT
  5
1065
330
105B
100
AcDbEntity
  8
Defpoints
 62
     0
100
AcDbPoint
 10
531.3830447138743
 20
402.4653627585708
 30
0.0
  0
POINT
  5
1066
330
105B
100
AcDbEntity
  8
Defpoints
 62
     0
100
AcDbPoint
 10
531.3830447138743
 20
380.0727065230848
 30
0.0
  0
ENDBLK
  5
105D
330
105B
100
AcDbEntity
  8
0
100
AcDbBlockEnd
  0
BLOCK
  5
1087
330
1086
100
AcDbEntity
  8
0
100
AcDbBlockBegin
  2
*D18
 70
     1
 10
0.0
 20
0.0
 30
0.0
  3
*D18
  1
*D21
  0
LINE
  5
1089
330
1086
100
AcDbEntity
  8
DIM
 62
     0
370
    -2
100
AcDbLine
 10
531.3830447138743
 20
429.8876984016606
 30
0.0
 11
531.3830447138743
 21
404.4238059395886
 31
0.0
  0
LINE
  5
108A
330
1086
100
AcDbEntity
  8
DIM
 62
     0
370
    -2
100
AcDbLine
 10
592.3830447138888
 20
487.3876984016615
 30
0.0
 11
592.3830447138888
 21
404.4238059395886
 31
0.0
  0
LINE
  5
108B
330
1086
100
AcDbEntity
  8
DIM
 62
     0
370
    -2
100
AcDbLine
 10
533.3830447138743
 20
404.4238059395886
 30
0.0
 11
590.3830447138888
 21
404.4238059395886
 31
0.0
  0
INSERT
  5
108C
330
1086
100
AcDbEntity
  8
DIM
 62
     0
370
    -2
100
AcDbBlockReference
  2
_DOT
 10
531.3830447138743
 20
404.4238059395886
 30
0.0
 41
2.0
 42
2.0
 43
2.0
 50
180.0
  0
INSERT
  5
108D
330
1086
100
AcDbEntity
  8
DIM
 62
     0
370
    -2
100
AcDbBlockReference
  2
_DOT
 10
592.3830447138888
 20
404.4238059395886
 30
0.0
 41
2.0
 42
2.0
 43
2.0
  0
MTEXT
  5
108E
330
1086
100
AcDbEntity
  8
DIM
 62
     0
100
AcDbMText
 10
561.8830447138815
 20
418.4238059395886
 30
0.0
 40
12.0
 41
0.0
 46
0.0
 71
     5
 72
     1
  1
\A1;61
  7
ＭＳ ゴシック
 73
     1
 44
1.0
  0
POINT
  5
108F
330
1086
100
AcDbEntity
  8
Defpoints
 62
     0
100
AcDbPoint
 10
531.3830447138743
 20
444.8876984016606
 30
0.0
  0
POINT
  5
1090
330
1086
100
AcDbEntity
  8
Defpoints
 62
     0
100
AcDbPoint
 10
592.3830447138888
 20
502.3876984016615
 30
0.0
  0
POINT
  5
1091
330
1086
100
AcDbEntity
  8
Defpoints
 62
     0
100
AcDbPoint
 10
592.3830447138888
 20
404.4238059395886
 30
0.0
  0
ENDBLK
  5
1088
330
1086
100
AcDbEntity
  8
0
100
AcDbBlockEnd
  0
BLOCK
  5
109E
330
109D
100
AcDbEntity
  8
0
100
AcDbBlockBegin
  2
*D19
 70
     1
 10
0.0
 20
0.0
 30
0.0
  3
*D19
  1
*D22
  0
LINE
  5
10A0
330
109D
100
AcDbEntity
  8
DIM
 62
     0
370
    -2
100
AcDbLine
 10
866.1354220726915
 20
559.8876984016624
 30
0.0
 11
903.7855231042726
 21
559.8876984016624
 31
0.0
  0
LINE
  5
10A1
330
109D
100
AcDbEntity
  8
DIM
 62
     0
370
    -2
100
AcDbLine
 10
866.1354220726915
 20
489.8876984016615
 30
0.0
 11
903.7855231042726
 21
489.8876984016615
 31
0.0
  0
LINE
  5
10A2
330
109D
100
AcDbEntity
  8
DIM
 62
     0
370
    -2
100
AcDbLine
 10
903.7855231042726
 20
557.8876984016624
 30
0.0
 11
903.7855231042726
 21
491.8876984016615
 31
0.0
  0
INSERT
  5
10A3
330
109D
100
AcDbEntity
  8
DIM
 62
     0
370
    -2
100
AcDbBlockReference
  2
_DOT
 10
903.7855231042726
 20
559.8876984016624
 30
0.0
 41
2.0
 42
2.0
 43
2.0
 50
90.0
  0
INSERT
  5
10A4
330
109D
100
AcDbEntity
  8
DIM
 62
     0
370
    -2
100
AcDbBlockReference
  2
_DOT
 10
903.7855231042726
 20
489.8876984016615
 30
0.0
 41
2.0
 42
2.0
 43
2.0
 50
270.0
  0
MTEXT
  5
10A5
330
109D
100
AcDbEntity
  8
DIM
 62
     0
100
AcDbMText
 10
889.7855231042726
 20
524.887698401662
 30
0.0
 40
12.0
 41
0.0
 46
0.0
 71
     5
 72
     1
  1
\A1;70
  7
ＭＳ ゴシック
 11
0.0
 21
1.0
 31
0.0
 73
     1
 44
1.0
  0
POINT
  5
10A6
330
109D
100
AcDbEntity
  8
Defpoints
 62
     0
100
AcDbPoint
 10
851.1354220726915
 20
559.8876984016624
 30
0.0
  0
POINT
  5
10A7
330
109D
100
AcDbEntity
  8
Defpoints
 62
     0
100
AcDbPoint
 10
851.1354220726915
 20
489.8876984016615
 30
0.0
  0
POINT
  5
10A8
330
109D
100
AcDbEntity
  8
Defpoints
 62
     0
100
AcDbPoint
 10
903.7855231042726
 20
489.8876984016615
 30
0.0
  0
ENDBLK
  5
109F
330
109D
100
AcDbEntity
  8
0
100
AcDbBlockEnd
  0
BLOCK
  5
10B1
330
10B0
100
AcDbEntity
  8
0
100
AcDbBlockBegin
  2
*D20
 70
     1
 10
0.0
 20
0.0
 30
0.0
  3
*D20
  1
*D23
  0
LINE
  5
10B3
330
10B0
100
AcDbEntity
  8
DIM
 62
     0
370
    -2
100
AcDbLine
 10
871.3830447138724
 20
466.4653627585717
 30
0.0
 11
913.5095991399699
 21
466.4653627585717
 31
0.0
  0
LINE
  5
10B4
330
10B0
100
AcDbEntity
  8
DIM
 62
     0
370
    -2
100
AcDbLine
 10
871.3830447138724
 20
498.4653627585717
 30
0.0
 11
913.5095991399699
 21
498.4653627585717
 31
0.0
  0
LINE
  5
10B5
330
10B0
100
AcDbEntity
  8
DIM
 62
     0
370
    -2
100
AcDbLine
 10
913.5095991399699
 20
468.4653627585717
 30
0.0
 11
913.5095991399699
 21
496.4653627585717
 31
0.0
  0
INSERT
  5
10B6
330
10B0
100
AcDbEntity
  8
DIM
 62
     0
370
    -2
100
AcDbBlockReference
  2
_DOT
 10
913.5095991399699
 20
466.4653627585717
 30
0.0
 41
2.0
 42
2.0
 43
2.0
 50
270.0
  0
INSERT
  5
10B7
330
10B0
100
AcDbEntity
  8
DIM
 62
     0
370
    -2
100
AcDbBlockReference
  2
_DOT
 10
913.5095991399699
 20
498.4653627585717
 30
0.0
 41
2.0
 42
2.0
 43
2.0
 50
90.0
  0
MTEXT
  5
10B8
330
10B0
100
AcDbEntity
  8
DIM
 62
     0
100
AcDbMText
 10
899.4495991399699
 20
482.4653627585717
 30
0.0
 40
12.0
 41
0.0
 46
0.0
 71
     5
 72
     1
  1
\A1;ø32
  7
ＭＳ ゴシック
 11
0.0
 21
1.0
 31
0.0
 73
     1
 44
1.0
  0
POINT
  5
10B9
330
10B0
100
AcDbEntity
  8
Defpoints
 62
     0
100
AcDbPoint
 10
856.3830447138724
 20
466.4653627585717
 30
0.0
  0
POINT
  5
10BA
330
10B0
100
AcDbEntity
  8
Defpoints
 62
     0
100
AcDbPoint
 10
856.3830447138724
 20
498.4653627585717
 30
0.0
  0
POINT
  5
10BB
330
10B0
100
AcDbEntity
  8
Defpoints
 62
     0
100
AcDbPoint
 10
913.5095991399699
 20
498.4653627585717
 30
0.0
  0
ENDBLK
  5
10B2
330
10B0
100
AcDbEntity
  8
0
100
AcDbBlockEnd
  0
BLOCK
  5
110B
330
110A
100
AcDbEntity
  8
0
100
AcDbBlockBegin
  2
*D21
 70
     1
 10
0.0
 20
0.0
 30
0.0
  3
*D21
  1
*D24
  0
LINE
  5
110D
330
110A
100
AcDbEntity
  8
DIM
 62
     0
370
    -2
100
AcDbLine
 10
491.3830447138743
 20
566.8876984016606
 30
0.0
 11
468.9329876701369
 21
566.8876984016606
 31
0.0
  0
LINE
  5
110E
330
110A
100
AcDbEntity
  8
DIM
 62
     0
370
    -2
100
AcDbLine
 10
491.3830447138743
 20
524.8876984016615
 30
0.0
 11
468.9329876701369
 21
524.8876984016615
 31
0.0
  0
LINE
  5
110F
330
110A
100
AcDbEntity
  8
DIM
 62
     0
370
    -2
100
AcDbLine
 10
468.9329876701369
 20
564.8876984016606
 30
0.0
 11
468.9329876701369
 21
526.8876984016615
 31
0.0
  0
INSERT
  5
1110
330
110A
100
AcDbEntity
  8
DIM
 62
     0
370
    -2
100
AcDbBlockReference
  2
_DOT
 10
468.9329876701369
 20
566.8876984016606
 30
0.0
 41
2.0
 42
2.0
 43
2.0
 50
90.0
  0
INSERT
  5
1111
330
110A
100
AcDbEntity
  8
DIM
 62
     0
370
    -2
100
AcDbBlockReference
  2
_DOT
 10
468.9329876701369
 20
524.8876984016615
 30
0.0
 41
2.0
 42
2.0
 43
2.0
 50
270.0
  0
MTEXT
  5
1112
330
110A
100
AcDbEntity
  8
DIM
 62
     0
100
AcDbMText
 10
454.9329876701369
 20
545.887698401661
 30
0.0
 40
12.0
 41
0.0
 46
0.0
 71
     5
 72
     1
  1
\A1;42
  7
ＭＳ ゴシック
 11
0.0
 21
1.0
 31
0.0
 73
     1
 44
1.0
  0
POINT
  5
1113
330
110A
100
AcDbEntity
  8
Defpoints
 62
     0
100
AcDbPoint
 10
506.3830447138743
 20
566.8876984016606
 30
0.0
  0
POINT
  5
1114
330
110A
100
AcDbEntity
  8
Defpoints
 62
     0
100
AcDbPoint
 10
506.3830447138743
 20
524.8876984016615
 30
0.0
  0
POINT
  5
1115
330
110A
100
AcDbEntity
  8
Defpoints
 62
     0
100
AcDbPoint
 10
468.9329876701369
 20
524.8876984016615
 30
0.0
  0
ENDBLK
  5
110C
330
110A
100
AcDbEntity
  8
0
100
AcDbBlockEnd
  0
BLOCK
  5
112A
330
1129
100
AcDbEntity
  8
0
100
AcDbBlockBegin
  2
*D22
 70
     1
 10
0.0
 20
0.0
 30
0.0
  3
*D22
  1
*D25
  0
LINE
  5
112C
330
1129
100
AcDbEntity
  8
DIM
 62
     0
370
    -2
100
AcDbLine
 10
491.3830447138743
 20
444.8876984016606
 30
0.0
 11
468.9329876701369
 21
444.8876984016606
 31
0.0
  0
LINE
  5
112D
330
1129
100
AcDbEntity
  8
DIM
 62
     0
370
    -2
100
AcDbLine
 10
491.3830447138743
 20
524.8876984016615
 30
0.0
 11
468.9329876701369
 21
524.8876984016615
 31
0.0
  0
LINE
  5
112E
330
1129
100
AcDbEntity
  8
DIM
 62
     0
370
    -2
100
AcDbLine
 10
468.9329876701369
 20
446.8876984016606
 30
0.0
 11
468.9329876701369
 21
522.8876984016615
 31
0.0
  0
INSERT
  5
112F
330
1129
100
AcDbEntity
  8
DIM
 62
     0
370
    -2
100
AcDbBlockReference
  2
_DOT
 10
468.9329876701369
 20
444.8876984016606
 30
0.0
 41
2.0
 42
2.0
 43
2.0
 50
270.0
  0
INSERT
  5
1130
330
1129
100
AcDbEntity
  8
DIM
 62
     0
370
    -2
100
AcDbBlockReference
  2
_DOT
 10
468.9329876701369
 20
524.8876984016615
 30
0.0
 41
2.0
 42
2.0
 43
2.0
 50
90.0
  0
MTEXT
  5
1131
330
1129
100
AcDbEntity
  8
DIM
 62
     0
100
AcDbMText
 10
454.9329876701369
 20
484.8876984016611
 30
0.0
 40
12.0
 41
0.0
 46
0.0
 71
     5
 72
     1
  1
\A1;80
  7
ＭＳ ゴシック
 11
0.0
 21
1.0
 31
0.0
 73
     1
 44
1.0
  0
POINT
  5
1132
330
1129
100
AcDbEntity
  8
Defpoints
 62
     0
100
AcDbPoint
 10
506.3830447138743
 20
444.8876984016606
 30
0.0
  0
POINT
  5
1133
330
1129
100
AcDbEntity
  8
Defpoints
 62
     0
100
AcDbPoint
 10
506.3830447138743
 20
524.8876984016615
 30
0.0
  0
POINT
  5
1134
330
1129
100
AcDbEntity
  8
Defpoints
 62
     0
100
AcDbPoint
 10
468.9329876701369
 20
524.8876984016615
 30
0.0
  0
ENDBLK
  5
112B
330
1129
100
AcDbEntity
  8
0
100
AcDbBlockEnd
  0
BLOCK
  5
1165
330
1164
100
AcDbEntity
  8
0
100
AcDbBlockBegin
  2
*D23
 70
     1
 10
0.0
 20
0.0
 30
0.0
  3
*D23
  1
*D26
  0
LINE
  5
1167
330
1164
100
AcDbEntity
  8
DIM
 62
     0
370
    -2
100
AcDbLine
 10
816.3830447138724
 20
574.8876984016624
 30
0.0
 11
816.3830447138724
 21
591.6821608066834
 31
0.0
  0
LINE
  5
1168
330
1164
100
AcDbEntity
  8
DIM
 62
     0
370
    -2
100
AcDbLine
 10
806.3830447138724
 20
574.8876984016624
 30
0.0
 11
806.3830447138724
 21
591.6821608066834
 31
0.0
  0
LINE
  5
1169
330
1164
100
AcDbEntity
  8
DIM
 62
     0
370
    -2
100
AcDbLine
 10
814.3830447138724
 20
591.6821608066834
 30
0.0
 11
808.3830447138724
 21
591.6821608066834
 31
0.0
  0
INSERT
  5
116A
330
1164
100
AcDbEntity
  8
DIM
 62
     0
370
    -2
100
AcDbBlockReference
  2
_DOT
 10
816.3830447138724
 20
591.6821608066834
 30
0.0
 41
2.0
 42
2.0
 43
2.0
  0
INSERT
  5
116B
330
1164
100
AcDbEntity
  8
DIM
 62
     0
370
    -2
100
AcDbBlockReference
  2
_DOT
 10
806.3830447138724
 20
591.6821608066834
 30
0.0
 41
2.0
 42
2.0
 43
2.0
 50
180.0
  0
MTEXT
  5
116C
330
1164
100
AcDbEntity
  8
DIM
 62
     0
100
AcDbMText
 10
811.4329585278231
 20
605.6821608066834
 30
0.0
 40
12.0
 41
0.0
 46
0.0
 71
     5
 72
     1
  1
\A1;10
  7
ＭＳ ゴシック
 73
     1
 44
1.0
  0
POINT
  5
116D
330
1164
100
AcDbEntity
  8
Defpoints
 62
     0
100
AcDbPoint
 10
816.3830447138724
 20
559.8876984016624
 30
0.0
  0
POINT
  5
116E
330
1164
100
AcDbEntity
  8
Defpoints
 62
     0
100
AcDbPoint
 10
806.3830447138724
 20
559.8876984016624
 30
0.0
  0
POINT
  5
116F
330
1164
100
AcDbEntity
  8
Defpoints
 62
     0
100
AcDbPoint
 10
806.3830447138724
 20
591.6821608066834
 30
0.0
  0
ENDBLK
  5
1166
330
1164
100
AcDbEntity
  8
0
100
AcDbBlockEnd
  0
BLOCK
  5
1183
330
1182
100
AcDbEntity
  8
0
100
AcDbBlockBegin
  2
*D24
 70
     1
 10
0.0
 20
0.0
 30
0.0
  3
*D24
  1
*D27
  0
LINE
  5
1185
330
1182
100
AcDbEntity
  8
DIM
 62
     0
370
    -2
100
AcDbLine
 10
607.3830447138888
 20
547.3876984016615
 30
0.0
 11
650.5867232743777
 21
547.3876984016615
 31
0.0
  0
LINE
  5
1186
330
1182
100
AcDbEntity
  8
DIM
 62
     0
370
    -2
100
AcDbLine
 10
607.3830447138888
 20
502.3876984016615
 30
0.0
 11
650.5867232743777
 21
502.3876984016615
 31
0.0
  0
LINE
  5
1187
330
1182
100
AcDbEntity
  8
DIM
 62
     0
370
    -2
100
AcDbLine
 10
650.5867232743777
 20
545.3876984016615
 30
0.0
 11
650.5867232743777
 21
504.3876984016615
 31
0.0
  0
INSERT
  5
1188
330
1182
100
AcDbEntity
  8
DIM
 62
     0
370
    -2
100
AcDbBlockReference
  2
_DOT
 10
650.5867232743777
 20
547.3876984016615
 30
0.0
 41
2.0
 42
2.0
 43
2.0
 50
90.0
  0
INSERT
  5
1189
330
1182
100
AcDbEntity
  8
DIM
 62
     0
370
    -2
100
AcDbBlockReference
  2
_DOT
 10
650.5867232743777
 20
502.3876984016615
 30
0.0
 41
2.0
 42
2.0
 43
2.0
 50
270.0
  0
MTEXT
  5
118A
330
1182
100
AcDbEntity
  8
DIM
 62
     0
100
AcDbMText
 10
636.5267232743778
 20
524.8876984016615
 30
0.0
 40
12.0
 41
0.0
 46
0.0
 71
     5
 72
     1
  1
\A1;ø45
  7
ＭＳ ゴシック
 11
0.0
 21
1.0
 31
0.0
 73
     1
 44
1.0
  0
POINT
  5
118B
330
1182
100
AcDbEntity
  8
Defpoints
 62
     0
100
AcDbPoint
 10
592.3830447138888
 20
547.3876984016615
 30
0.0
  0
POINT
  5
118C
330
1182
100
AcDbEntity
  8
Defpoints
 62
     0
100
AcDbPoint
 10
592.3830447138888
 20
502.3876984016615
 30
0.0
  0
POINT
  5
118D
330
1182
100
AcDbEntity
  8
Defpoints
 62
     0
100
AcDbPoint
 10
650.5867232743777
 20
502.3876984016615
 30
0.0
  0
ENDBLK
  5
1184
330
1182
100
AcDbEntity
  8
0
100
AcDbBlockEnd
  0
BLOCK
  5
11D5
330
11D4
100
AcDbEntity
  8
0
100
AcDbBlockBegin
  2
*D25
 70
     1
 10
0.0
 20
0.0
 30
0.0
  3
*D25
  1
*D29
  0
LINE
  5
11D6
330
11D4
100
AcDbEntity
  8
DIM
 62
     0
370
    -2
100
AcDbLine
 10
15.0
 20
1.0
 30
0.0
 11
57.12655442609741
 21
1.0
 31
0.0
  0
LINE
  5
11D7
330
11D4
100
AcDbEntity
  8
DIM
 62
     0
370
    -2
100
AcDbLine
 10
15.0
 20
33.0
 30
0.0
 11
57.12655442609741
 21
33.0
 31
0.0
  0
LINE
  5
11D8
330
11D4
100
AcDbEntity
  8
DIM
 62
     0
370
    -2
100
AcDbLine
 10
57.12655442609741
 20
3.0
 30
0.0
 11
57.12655442609741
 21
31.0
 31
0.0
  0
INSERT
  5
11D9
330
11D4
100
AcDbEntity
  8
DIM
 62
     0
370
    -2
100
AcDbBlockReference
  2
_DOT
 10
57.12655442609741
 20
1.0
 30
0.0
 41
2.0
 42
2.0
 43
2.0
 50
270.0
  0
INSERT
  5
11DA
330
11D4
100
AcDbEntity
  8
DIM
 62
     0
370
    -2
100
AcDbBlockReference
  2
_DOT
 10
57.12655442609741
 20
33.0
 30
0.0
 41
2.0
 42
2.0
 43
2.0
 50
90.0
  0
MTEXT
  5
11DB
330
11D4
100
AcDbEntity
  8
DIM
 62
     0
100
AcDbMText
 10
43.06655442609741
 20
17.0
 30
0.0
 40
12.0
 41
0.0
 46
0.0
 71
     5
 72
     1
  1
\A1;ø32
  7
ＭＳ ゴシック
 11
0.0
 21
1.0
 31
0.0
 73
     1
 44
1.0
  0
POINT
  5
11DC
330
11D4
100
AcDbEntity
  8
Defpoints
 62
     0
100
AcDbPoint
 10
0.0
 20
1.0
 30
0.0
  0
POINT
  5
11DD
330
11D4
100
AcDbEntity
  8
Defpoints
 62
     0
100
AcDbPoint
 10
0.0
 20
33.0
 30
0.0
  0
POINT
  5
11DE
330
11D4
100
AcDbEntity
  8
Defpoints
 62
     0
100
AcDbPoint
 10
57.12655442609741
 20
33.0
 30
0.0
  0
ENDBLK
  5
11DF
330
11D4
100
AcDbEntity
  8
0
100
AcDbBlockEnd
  0
BLOCK
  5
11E7
330
11E6
100
AcDbEntity
  8
0
100
AcDbBlockBegin
  2
*D26
 70
     1
 10
0.0
 20
0.0
 30
0.0
  3
*D26
  1
*D30
  0
LINE
  5
11E9
330
11E6
100
AcDbEntity
  8
DIM
 62
     0
370
    -2
100
AcDbLine
 10
308.1357765155843
 20
530.0501473941354
 30
0.0
 11
308.1357765155843
 21
552.3335403959974
 31
0.0
  0
LINE
  5
11EA
330
11E6
100
AcDbEntity
  8
DIM
 62
     0
370
    -2
100
AcDbLine
 10
276.1357765155843
 20
530.0501473941354
 30
0.0
 11
276.1357765155843
 21
552.3335403959974
 31
0.0
  0
LINE
  5
11EB
330
11E6
100
AcDbEntity
  8
DIM
 62
     0
370
    -2
100
AcDbLine
 10
306.1357765155843
 20
552.3335403959974
 30
0.0
 11
278.1357765155843
 21
552.3335403959974
 31
0.0
  0
INSERT
  5
11EC
330
11E6
100
AcDbEntity
  8
DIM
 62
     0
370
    -2
100
AcDbBlockReference
  2
_DOT
 10
308.1357765155843
 20
552.3335403959974
 30
0.0
 41
2.0
 42
2.0
 43
2.0
  0
INSERT
  5
11ED
330
11E6
100
AcDbEntity
  8
DIM
 62
     0
370
    -2
100
AcDbBlockReference
  2
_DOT
 10
276.1357765155843
 20
552.3335403959974
 30
0.0
 41
2.0
 42
2.0
 43
2.0
 50
180.0
  0
MTEXT
  5
11EE
330
11E6
100
AcDbEntity
  8
DIM
 62
     0
100
AcDbMText
 10
292.1357765155843
 20
566.3335403959974
 30
0.0
 40
12.0
 41
0.0
 46
0.0
 71
     5
 72
     1
  1
\A1;32
  7
ＭＳ ゴシック
 73
     1
 44
1.0
  0
POINT
  5
11EF
330
11E6
100
AcDbEntity
  8
Defpoints
 62
     0
100
AcDbPoint
 10
308.1357765155843
 20
515.0501473941354
 30
0.0
  0
POINT
  5
11F0
330
11E6
100
AcDbEntity
  8
Defpoints
 62
     0
100
AcDbPoint
 10
276.1357765155843
 20
515.0501473941354
 30
0.0
  0
POINT
  5
11F1
330
11E6
100
AcDbEntity
  8
Defpoints
 62
     0
100
AcDbPoint
 10
276.1357765155843
 20
552.3335403959974
 30
0.0
  0
ENDBLK
  5
11E8
330
11E6
100
AcDbEntity
  8
0
100
AcDbBlockEnd
  0
ENDSEC
  0
SECTION
  2
ENTITIES
  0
MTEXT
  5
177
330
A
100
AcDbEntity
  8
TEMPLATE
390
1D
100
AcDbMText
 10
39.60107227386538
 20
171.8658758157141
 30
0.0
 40
8.144205729166663
 41
0.0
 46
0.0
 71
     1
 72
     1
  1
品名
  7
ＭＳ ゴシック
 73
     1
 44
0.7828267384257843
  0
MTEXT
  5
178
330
A
100
AcDbEntity
  8
TEMPLATE
390
1D
100
AcDbMText
 10
39.60107227386538
 20
129.365875815714
 30
0.0
 40
8.144205729166663
 41
0.0
 46
0.0
 71
     1
 72
     1
  1
仕様
  7
ＭＳ ゴシック
 73
     1
 44
0.7828267384257843
  0
LINE
  5
179
330
A
100
AcDbEntity
  8
TEMPLATE
390
1D
100
AcDbLine
 10
1011.101072273624
 20
133.5733367532142
 30
0.0
 11
36.10107227362437
 21
133.5733367532142
 31
0.0
  0
LWPOLYLINE
  5
17A
330
A
100
AcDbEntity
  8
TEMPLATE
390
1D
100
AcDbPolyline
 90
        5
 70
   128
 43
0.0
 10
1011.101072273624
 20
1448.573336753213
 10
36.10107227362437
 20
1448.573336753213
 10
36.10107227362437
 20
48.57333675321413
 10
1011.101072273624
 20
48.57333675321413
 10
1011.101072273624
 20
1448.573336753213
  0
LINE
  5
17B
330
A
100
AcDbEntity
  8
TEMPLATE
390
1D
100
AcDbLine
 10
1011.101072273624
 20
176.0733367532141
 30
0.0
 11
36.10107227362437
 21
176.0733367532141
 31
0.0
  0
LINE
  5
17C
330
A
100
AcDbEntity
  8
TEMPLATE
390
1D
100
AcDbLine
 10
1011.101072273866
 20
91.07333675321412
 30
0.0
 11
634.601072273865
 21
91.07333675321412
 31
0.0
  0
MTEXT
  5
17D
330
A
100
AcDbEntity
  8
TEMPLATE
390
1D
100
AcDbMText
 10
36.10107227396725
 20
42.64642572478557
 30
0.0
 40
10.85894097222222
 41
0.0
 46
10.85894097222222
 71
     1
 72
     1
  1
{160503N}
  7
ＭＳ ゴシック
 73
     1
 44
0.7828267384257843
1001
ACAD
1000
ACAD_MTEXT_DEFINED_HEIGHT_BEGIN
1070
    46
1040
10.85894097222222
1000
ACAD_MTEXT_DEFINED_HEIGHT_END
  0
MTEXT
  5
17E
330
A
100
AcDbEntity
  8
TEMPLATE
390
1D
100
AcDbMText
 10
649.5367753999956
 20
76.11813951656006
 30
0.0
 40
12.21630859375
 41
0.0
 46
0.0
 71
     1
 72
     1
  1
大洋金物株式会社 ティーフォルム事業部
  7
ＭＳ ゴシック
 73
     1
 44
0.7828267384257843
  0
MTEXT
  5
180
330
A
100
AcDbEntity
  8
TEMPLATE
390
1D
100
AcDbMText
 10
915.601072273995
 20
115.0746453469641
 30
0.0
 40
12.21630859375
 41
0.0
 46
12.21630859375
 71
     1
 72
     1
  1
{1:5}
  7
ＭＳ ゴシック
 73
     1
 44
0.7828267384257843
1001
ACAD
1000
ACAD_MTEXT_DEFINED_HEIGHT_BEGIN
1070
    46
1040
12.21630859375
1000
ACAD_MTEXT_DEFINED_HEIGHT_END
  0
MTEXT
  5
181
330
A
100
AcDbEntity
  8
TEMPLATE
390
1D
100
AcDbMText
 10
889.101072273995
 20
129.365875815714
 30
0.0
 40
8.144205729166663
 41
0.0
 46
0.0
 71
     1
 72
     1
  1
縮尺
  7
ＭＳ ゴシック
 73
     1
 44
0.7828267384257843
  0
LINE
  5
182
330
A
100
AcDbEntity
  8
TEMPLATE
390
1D
100
AcDbLine
 10
885.601072273995
 20
91.07333675321412
 30
0.0
 11
885.601072273995
 21
133.5733367532142
 31
0.0
  0
MTEXT
  5
183
330
A
100
AcDbEntity
  8
TEMPLATE
390
1D
100
AcDbMText
 10
763.601072273995
 20
129.365875815714
 30
0.0
 40
8.144205729166663
 41
0.0
 46
0.0
 71
     1
 72
     1
  1
容量
  7
ＭＳ ゴシック
 73
     1
 44
0.7828267384257843
  0
LINE
  5
184
330
A
100
AcDbEntity
  8
TEMPLATE
390
1D
100
AcDbLine
 10
760.101072273995
 20
91.07333675321412
 30
0.0
 11
760.101072273995
 21
133.5733367532142
 31
0.0
  0
MTEXT
  5
185
330
A
100
AcDbEntity
  8
TEMPLATE
390
1D
100
AcDbMText
 10
638.101072273995
 20
171.8658758157141
 30
0.0
 40
8.144205729166663
 41
0.0
 46
0.0
 71
     1
 72
     1
  1
品番
  7
ＭＳ ゴシック
 73
     1
 44
0.7828267384257843
  0
MTEXT
  5
186
330
A
100
AcDbEntity
  8
TEMPLATE
390
1D
100
AcDbMText
 10
638.101072273995
 20
129.365875815714
 30
0.0
 40
8.144205729166663
 41
0.0
 46
0.0
 71
     1
 72
     1
  1
重量
  7
ＭＳ ゴシック
 73
     1
 44
0.7828267384257843
  0
MTEXT
  5
187
330
A
100
AcDbEntity
  8
TEMPLATE
390
1D
100
AcDbMText
 10
664.601072273995
 20
157.5746453469641
 30
0.0
 40
12.21630859375
 41
0.0
 46
12.21630859375
 71
     1
 72
     1
  1
{BRS73-0501-020}
  7
ＭＳ ゴシック
 73
     1
 44
0.7828267384257843
1001
ACAD
1000
ACAD_MTEXT_DEFINED_HEIGHT_BEGIN
1070
    46
1040
12.21630859375
1000
ACAD_MTEXT_DEFINED_HEIGHT_END
  0
LINE
  5
188
330
A
100
AcDbEntity
  8
TEMPLATE
390
1D
100
AcDbLine
 10
634.601072273995
 20
48.57333675321413
 30
0.0
 11
634.601072273995
 21
176.0733367532141
 31
0.0
  0
MTEXT
  5
189
330
A
100
AcDbEntity
  8
TEMPLATE
390
1D
100
AcDbMText
 10
66.10107227386537
 20
157.5746453469641
 30
0.0
 40
12.21630859375
 41
0.0
 46
13.76777978515625
 71
     1
 72
     1
  1
{ボトルトラップ　-CLOU, InBe-}
  7
ＭＳ ゴシック
 73
     1
 44
0.7828267384257843
1001
ACAD
1000
ACAD_MTEXT_DEFINED_HEIGHT_BEGIN
1070
    46
1040
13.76777978515625
1000
ACAD_MTEXT_DEFINED_HEIGHT_END
  0
INSERT
  5
6B5
330
A
100
AcDbEntity
  8
TEMPLATE
100
AcDbBlockReference
  2
名称未設定-1
 10
935.3753740442249
 20
12.97338287832691
 30
0.0
 41
0.3809999999999999
 42
0.3809999999999999
 43
0.3809999999999999
  0
MTEXT
  5
7D9
330
A
100
AcDbEntity
  8
TEMPLATE
390
1D
100
AcDbMText
 10
62.62717263801819
 20
113.4059880146976
 30
0.0
 40
12.21630859375
 41
0.0
 46
12.39955322265625
 71
     1
 72
     1
  1
{クローム}
  7
ＭＳ ゴシック
 73
     1
 44
0.7828267384257843
1001
ACAD
1000
ACAD_MTEXT_DEFINED_HEIGHT_BEGIN
1070
    46
1040
12.39955322265625
1000
ACAD_MTEXT_DEFINED_HEIGHT_END
  0
INSERT
  5
68C
330
A
100
AcDbEntity
  8
TEMPLATE
100
AcDbBlockReference
  2
block 2
 10
919.2743017702577
 20
8.373076514336368
 30
0.0
 41
0.3809999999999999
 42
0.3809999999999999
 43
0.3809999999999999
  0
LINE
  5
E02
330
A
100
AcDbEntity
  8
MODEL
100
AcDbLine
 10
267.1357765155843
 20
724.8876984016615
 30
0.0
 11
267.1357765155843
 21
712.8876984016615
 31
0.0
  0
LINE
  5
E03
330
A
100
AcDbEntity
  8
MODEL
100
AcDbLine
 10
317.1357765155843
 20
712.8876984016615
 30
0.0
 11
317.1357765155843
 21
724.8876984016615
 31
0.0
  0
LINE
  5
E04
330
A
100
AcDbEntity
  8
MODEL
100
AcDbLine
 10
317.1357765155843
 20
554.8876984016624
 30
0.0
 11
317.1357765155843
 21
566.8876984016606
 31
0.0
  0
LINE
  5
E05
330
A
100
AcDbEntity
  8
MODEL
100
AcDbLine
 10
267.1357765155843
 20
566.8876984016606
 30
0.0
 11
267.1357765155843
 21
554.8876984016624
 31
0.0
  0
LINE
  5
E06
330
A
100
AcDbEntity
  8
MODEL
100
AcDbLine
 10
276.1357765155852
 20
712.8876984016615
 30
0.0
 11
276.1357765155852
 21
566.8876984016606
 31
0.0
  0
LINE
  5
E07
330
A
100
AcDbEntity
  8
MODEL
100
AcDbLine
 10
308.1357765155843
 20
566.8876984016606
 30
0.0
 11
308.1357765155843
 21
712.8876984016615
 31
0.0
  0
LINE
  5
E08
330
A
100
AcDbEntity
  8
MODEL
100
AcDbLine
 10
267.1357765155843
 20
554.8876984016624
 30
0.0
 11
267.1357765155843
 21
549.3825958294929
 31
0.0
  0
LINE
  5
E09
330
A
100
AcDbEntity
  8
MODEL
100
AcDbLine
 10
267.1357765155843
 20
500.3928009738293
 30
0.0
 11
267.1357765155843
 21
444.8876984016606
 31
0.0
  0
LINE
  5
E0A
330
A
100
AcDbEntity
  8
MODEL
100
AcDbLine
 10
317.1357765155843
 20
444.8876984016606
 30
0.0
 11
317.1357765155843
 21
500.3928009738293
 31
0.0
  0
LINE
  5
E0B
330
A
100
AcDbEntity
  8
MODEL
100
AcDbLine
 10
317.1357765155843
 20
549.3825958294929
 30
0.0
 11
317.1357765155843
 21
554.8876984016624
 31
0.0
  0
CIRCLE
  5
E0C
330
A
100
AcDbEntity
  8
MODEL
100
AcDbCircle
 10
292.1357765155843
 20
524.8876984016624
 30
0.0
 40
15.49999999999998
  0
CIRCLE
  5
E0D
330
A
100
AcDbEntity
  8
MODEL
100
AcDbCircle
 10
292.1357765155843
 20
524.8876984016624
 30
0.0
 40
15.99999999999976
  0
CIRCLE
  5
E0E
330
A
100
AcDbEntity
  8
MODEL
100
AcDbCircle
 10
292.1357765155843
 20
524.8876984016624
 30
0.0
 40
35.0
  0
CIRCLE
  5
E0F
330
A
100
AcDbEntity
  8
MODEL
100
AcDbCircle
 10
292.1357765155843
 20
524.8876984016624
 30
0.0
 40
34.49999999999989
  0
LINE
  5
E10
330
A
100
AcDbEntity
  8
MODEL
100
AcDbLine
 10
294.3625461309447
 20
509.0434093017966
 30
0.0
 11
294.4321326814251
 21
508.5482752674261
 31
0.0
  0
SPLINE
  5
E11
330
A
100
AcDbEntity
  8
MODEL
100
AcDbSpline
210
0.0
220
0.0
230
1.0
 70
     8
 71
     3
 72
    12
 73
     8
 74
     0
 42
0.000000001
 43
0.00000001
 40
0.0
 40
0.0
 40
0.0
 40
0.0
 40
0.2143497681795033
 40
0.4287029860488824
 40
0.6429151547894586
 40
0.8565804980658613
 40
0.9999999999999999
 40
0.9999999999999999
 40
0.9999999999999999
 40
0.9999999999999999
 10
294.4321326814251
 20
508.5482752674261
 30
0.0
 10
294.4102553727915
 20
508.5451284360197
 30
0.0
 10
294.3665004034355
 20
508.5388347225635
 30
0.0
 10
294.024712200201
 20
508.4942140611929
 30
0.0
 10
293.5204092361281
 20
508.4427835540328
 30
0.0
 10
292.9578472831425
 20
508.4041472607214
 30
0.0
 10
292.5845826172161
 20
508.3943433567702
 30
0.0
 10
292.4346646545954
 20
508.3904057183036
 30
0.0
  0
LINE
  5
E12
330
A
100
AcDbEntity
  8
MODEL
100
AcDbLine
 10
307.9800656154492
 20
527.1144680170219
 30
0.0
 11
308.4751996498206
 21
527.1840545675022
 31
0.0
  0
SPLINE
  5
E13
330
A
100
AcDbEntity
  8
MODEL
100
AcDbSpline
210
0.0
220
0.0
230
1.0
 70
     8
 71
     3
 72
    12
 73
     8
 74
     0
 42
0.000000001
 43
0.00000001
 40
0.0
 40
0.0
 40
0.0
 40
0.0
 40
0.2143497681795034
 40
0.4287029860488824
 40
0.6429151547894588
 40
0.8565804980658618
 40
1.0
 40
1.0
 40
1.0
 40
1.0
 10
308.4751996498206
 20
527.1840545675022
 30
0.0
 10
308.4783464812252
 20
527.1621772588669
 30
0.0
 10
308.4846401946824
 20
527.1184222895108
 30
0.0
 10
308.5292608560538
 20
526.7766340862772
 30
0.0
 10
308.5806913632122
 20
526.2723311222044
 30
0.0
 10
308.6193276565235
 20
525.7097691692197
 30
0.0
 10
308.6291315604766
 20
525.3365045032933
 30
0.0
 10
308.6330691989414
 20
525.1865865406726
 30
0.0
  0
LINE
  5
E14
330
A
100
AcDbEntity
  8
MODEL
100
AcDbLine
 10
289.909006900224
 20
540.7319875015264
 30
0.0
 11
289.8394203497436
 21
541.2271215358969
 31
0.0
  0
SPLINE
  5
E15
330
A
100
AcDbEntity
  8
MODEL
100
AcDbSpline
210
0.0
220
0.0
230
1.0
 70
     8
 71
     3
 72
    12
 73
     8
 74
     0
 42
0.000000001
 43
0.00000001
 40
0.0
 40
0.0
 40
0.0
 40
0.0
 40
0.2143497681795033
 40
0.4287029860488824
 40
0.6429151547894586
 40
0.8565804980658613
 40
0.9999999999999999
 40
0.9999999999999999
 40
0.9999999999999999
 40
0.9999999999999999
 10
289.8394203497436
 20
541.2271215358969
 30
0.0
 10
289.8612976583771
 20
541.2302683673033
 30
0.0
 10
289.9050526277332
 20
541.2365620807586
 30
0.0
 10
290.2468408309677
 20
541.2811827421292
 30
0.0
 10
290.7511437950405
 20
541.3326132492903
 30
0.0
 10
291.3137057480261
 20
541.3712495426016
 30
0.0
 10
291.6869704139525
 20
541.3810534465529
 30
0.0
 10
291.8368883765733
 20
541.3849910850195
 30
0.0
  0
LINE
  5
E16
330
A
100
AcDbEntity
  8
MODEL
100
AcDbLine
 10
276.2914874157194
 20
522.6609287863002
 30
0.0
 11
275.796353381348
 21
522.5913422358199
 31
0.0
  0
SPLINE
  5
E17
330
A
100
AcDbEntity
  8
MODEL
100
AcDbSpline
210
0.0
220
0.0
230
1.0
 70
     8
 71
     3
 72
    12
 73
     8
 74
     0
 42
0.000000001
 43
0.00000001
 40
0.0
 40
0.0
 40
0.0
 40
0.0
 40
0.2143497681795033
 40
0.4287029860488824
 40
0.6429151547894586
 40
0.8565804980658616
 40
0.9999999999999999
 40
0.9999999999999999
 40
0.9999999999999999
 40
0.9999999999999999
 10
275.796353381348
 20
522.5913422358199
 30
0.0
 10
275.7932065499434
 20
522.6132195444552
 30
0.0
 10
275.7869128364863
 20
522.6569745138113
 30
0.0
 10
275.7422921751148
 20
522.9987627170458
 30
0.0
 10
275.6908616679565
 20
523.5030656811186
 30
0.0
 10
275.6522253746451
 20
524.0656276341042
 30
0.0
 10
275.6424214706921
 20
524.4388923000288
 30
0.0
 10
275.6384838322273
 20
524.5888102626514
 30
0.0
  0
SPLINE
  5
E18
330
A
100
AcDbEntity
  8
MODEL
100
AcDbSpline
210
0.0
220
0.0
230
1.0
 70
     8
 71
     3
 72
    12
 73
     8
 74
     0
 42
0.000000001
 43
0.00000001
 40
0.0
 40
0.0
 40
0.0
 40
0.0
 40
0.2142499626294321
 40
0.4285450548860241
 40
0.6420229910737008
 40
0.8558588622490437
 40
1.0
 40
1.0
 40
1.0
 40
1.0
 10
308.6330691989414
 20
524.5888102626495
 30
0.0
 10
308.6262518667926
 20
524.3641642545535
 30
0.0
 10
308.6126157664893
 20
523.9148249189111
 30
0.0
 10
308.5633866498446
 20
523.3171557220476
 30
0.0
 10
308.5129993621339
 20
522.8670260270765
 30
0.0
 10
308.4801318086282
 20
522.6262541662318
 30
0.0
 10
308.4766155058022
 20
522.6013642702828
 30
0.0
 10
308.4751996498206
 20
522.5913422358199
 30
0.0
  0
LINE
  5
E19
330
A
100
AcDbEntity
  8
MODEL
100
AcDbLine
 10
308.4751996498206
 20
522.5913422358199
 30
0.0
 11
307.9800656154492
 21
522.6609287862993
 31
0.0
  0
SPLINE
  5
E1A
330
A
100
AcDbEntity
  8
MODEL
100
AcDbSpline
210
0.0
220
0.0
230
1.0
 70
     8
 71
     3
 72
    12
 73
     8
 74
     0
 42
0.000000001
 43
0.00000001
 40
0.0
 40
0.0
 40
0.0
 40
0.0
 40
0.2142499626294321
 40
0.4285450548860242
 40
0.6420229910737009
 40
0.8558588622490438
 40
1.0
 40
1.0
 40
1.0
 40
1.0
 10
291.8368883765733
 20
508.3904057183036
 30
0.0
 10
291.6122423684764
 20
508.3972230504542
 30
0.0
 10
291.1629030328339
 20
508.4108591507566
 30
0.0
 10
290.5652338359695
 20
508.4600882673994
 30
0.0
 10
290.1151041410011
 20
508.5104755551101
 30
0.0
 10
289.8743322801555
 20
508.5433431086176
 30
0.0
 10
289.8494423842066
 20
508.5468594114418
 30
0.0
 10
289.8394203497436
 20
508.5482752674261
 30
0.0
  0
LINE
  5
E1B
330
A
100
AcDbEntity
  8
MODEL
100
AcDbLine
 10
289.8394203497436
 20
508.5482752674261
 30
0.0
 11
289.909006900224
 21
509.0434093017966
 31
0.0
  0
SPLINE
  5
E1C
330
A
100
AcDbEntity
  8
MODEL
100
AcDbSpline
210
0.0
220
0.0
230
1.0
 70
     8
 71
     3
 72
    12
 73
     8
 74
     0
 42
0.000000001
 43
0.00000001
 40
0.0
 40
0.0
 40
0.0
 40
0.0
 40
0.2142499626294321
 40
0.4285450548860242
 40
0.6420229910737009
 40
0.8558588622490438
 40
1.0
 40
1.0
 40
1.0
 40
1.0
 10
292.4346646545954
 20
541.3849910850195
 30
0.0
 10
292.6593106626923
 20
541.3781737528689
 30
0.0
 10
293.1086499983347
 20
541.3645376525665
 30
0.0
 10
293.7063191951992
 20
541.3153085359227
 30
0.0
 10
294.1564488901676
 20
541.264921248212
 30
0.0
 10
294.3972207510132
 20
541.2320536947054
 30
0.0
 10
294.4221106469621
 20
541.2285373918803
 30
0.0
 10
294.4321326814251
 20
541.2271215358969
 30
0.0
  0
LINE
  5
E1D
330
A
100
AcDbEntity
  8
MODEL
100
AcDbLine
 10
294.4321326814251
 20
541.2271215358969
 30
0.0
 11
294.3625461309447
 21
540.7319875015264
 31
0.0
  0
LINE
  5
E1E
330
A
100
AcDbEntity
  8
MODEL
100
AcDbLine
 10
275.796353381348
 20
527.1840545675032
 30
0.0
 11
276.2914874157194
 21
527.1144680170228
 31
0.0
  0
SPLINE
  5
E1F
330
A
100
AcDbEntity
  8
MODEL
100
AcDbSpline
210
0.0
220
0.0
230
1.0
 70
     8
 71
     3
 72
    12
 73
     8
 74
     0
 42
0.000000001
 43
0.00000001
 40
0.0
 40
0.0
 40
0.0
 40
0.0
 40
0.214249962629432
 40
0.4285450548860241
 40
0.6420229910737009
 40
0.8558588622490438
 40
1.0
 40
1.0
 40
1.0
 40
1.0
 10
275.6384838322273
 20
525.1865865406726
 30
0.0
 10
275.6453011643761
 20
525.4112325487686
 30
0.0
 10
275.6589372646794
 20
525.860571884411
 30
0.0
 10
275.7081663813241
 20
526.4582410812754
 30
0.0
 10
275.7585536690348
 20
526.9083707762456
 30
0.0
 10
275.7914212225404
 20
527.1491426370903
 30
0.0
 10
275.7949375253664
 20
527.1740325330393
 30
0.0
 10
275.796353381348
 20
527.1840545675032
 30
0.0
  0
ARC
  5
E20
330
A
100
AcDbEntity
  8
MODEL
100
AcDbCircle
 10
292.1357765155843
 20
524.8876984016624
 30
0.0
 40
16.50000000000021
100
AcDbArc
 50
358.9620626910796
 51
1.037937308910981
  0
ARC
  5
E21
330
A
100
AcDbEntity
  8
MODEL
100
AcDbCircle
 10
292.1357765155843
 20
524.8876984016624
 30
0.0
 40
16.49999999999963
100
AcDbArc
 50
178.962062691089
 51
181.0379373089142
  0
ARC
  5
E22
330
A
100
AcDbEntity
  8
MODEL
100
AcDbCircle
 10
292.1357765155843
 20
524.8876984016624
 30
0.0
 40
16.50000000000076
100
AcDbArc
 50
268.962062691086
 51
271.0379373089141
  0
ARC
  5
E23
330
A
100
AcDbEntity
  8
MODEL
100
AcDbCircle
 10
292.1357765155843
 20
524.8876984016624
 30
0.0
 40
16.49999999999963
100
AcDbArc
 50
88.96206269108585
 51
91.03793730891418
  0
ARC
  5
E24
330
A
100
AcDbEntity
  8
MODEL
100
AcDbCircle
 10
292.1357765155843
 20
524.8876984016624
 30
0.0
 40
16.49999999999985
100
AcDbArc
 50
97.99999999999883
 51
172.0000000000011
  0
ARC
  5
E25
330
A
100
AcDbEntity
  8
MODEL
100
AcDbCircle
 10
292.1357765155843
 20
524.8876984016624
 30
0.0
 40
16.49999999999977
100
AcDbArc
 50
7.999999999995711
 51
82.00000000000112
  0
ARC
  5
E26
330
A
100
AcDbEntity
  8
MODEL
100
AcDbCircle
 10
292.1357765155843
 20
524.8876984016624
 30
0.0
 40
16.50000000000042
100
AcDbArc
 50
277.9999999999986
 51
351.9999999999951
  0
ARC
  5
E27
330
A
100
AcDbEntity
  8
MODEL
100
AcDbCircle
 10
292.1357765155843
 20
524.8876984016624
 30
0.0
 40
16.50000000000049
100
AcDbArc
 50
188.0000000000049
 51
262.0000000000014
  0
LINE
  5
E28
330
A
100
AcDbEntity
  8
MODEL
100
AcDbLine
 10
267.1357765155843
 20
724.8876984016615
 30
0.0
 11
317.1357765155843
 21
724.8876984016615
 31
0.0
  0
LINE
  5
E29
330
A
100
AcDbEntity
  8
MODEL
100
AcDbLine
 10
267.1357765155843
 20
712.8876984016615
 30
0.0
 11
317.1357765155843
 21
712.8876984016615
 31
0.0
  0
LINE
  5
E2A
330
A
100
AcDbEntity
  8
MODEL
100
AcDbLine
 10
278.4621730504849
 20
566.8876984016606
 30
0.0
 11
267.1357765155843
 21
566.8876984016606
 31
0.0
  0
LINE
  5
E2B
330
A
100
AcDbEntity
  8
MODEL
100
AcDbLine
 10
317.1357765155843
 20
566.8876984016606
 30
0.0
 11
278.4621730504849
 21
566.8876984016606
 31
0.0
  0
LINE
  5
E2C
330
A
100
AcDbEntity
  8
MODEL
100
AcDbLine
 10
274.1080201382646
 20
554.8876984016624
 30
0.0
 11
267.1357765155843
 21
554.8876984016624
 31
0.0
  0
LINE
  5
E2D
330
A
100
AcDbEntity
  8
MODEL
100
AcDbLine
 10
317.1357765155843
 20
554.8876984016624
 30
0.0
 11
310.1635328929041
 21
554.8876984016624
 31
0.0
  0
CIRCLE
  5
E2E
330
A
100
AcDbEntity
  8
MODEL
100
AcDbCircle
 10
292.1357765155843
 20
524.8876984016624
 30
0.0
 40
15.00000000000023
  0
LINE
  5
E2F
330
A
100
AcDbEntity
  8
MODEL
100
AcDbLine
 10
267.1357765155843
 20
444.8876984016606
 30
0.0
 11
317.1357765155843
 21
444.8876984016606
 31
0.0
  0
LINE
  5
E30
330
A
100
AcDbEntity
  8
MODEL
100
AcDbLine
 10
592.3830447138888
 20
508.8876984016615
 30
0.0
 11
806.3830447138724
 21
508.8876984016615
 31
0.0
  0
LINE
  5
E31
330
A
100
AcDbEntity
  8
MODEL
100
AcDbLine
 10
816.3830447138724
 20
508.8876984016615
 30
0.0
 11
856.3830447138724
 21
508.8876984016615
 31
0.0
  0
LINE
  5
E32
330
A
100
AcDbEntity
  8
MODEL
100
AcDbLine
 10
856.3830447138724
 20
540.8876984016615
 30
0.0
 11
816.3830447138724
 21
540.8876984016615
 31
0.0
  0
LINE
  5
E33
330
A
100
AcDbEntity
  8
MODEL
100
AcDbLine
 10
806.3830447138724
 20
540.8876984016615
 30
0.0
 11
592.3830447138888
 21
540.8876984016615
 31
0.0
  0
LINE
  5
E34
330
A
100
AcDbEntity
  8
MODEL
100
AcDbLine
 10
806.3830447138724
 20
489.8876984016615
 30
0.0
 11
816.3830447138724
 21
489.8876984016615
 31
0.0
  0
LINE
  5
E35
330
A
100
AcDbEntity
  8
MODEL
100
AcDbLine
 10
816.3830447138724
 20
559.8876984016624
 30
0.0
 11
806.3830447138724
 21
559.8876984016624
 31
0.0
  0
LINE
  5
E36
330
A
100
AcDbEntity
  8
MODEL
100
AcDbLine
 10
506.3830447138743
 20
724.8876984016615
 30
0.0
 11
506.3830447138743
 21
712.8876984016615
 31
0.0
  0
LINE
  5
E37
330
A
100
AcDbEntity
  8
MODEL
100
AcDbLine
 10
556.3830447138743
 20
712.8876984016615
 30
0.0
 11
556.3830447138743
 21
724.8876984016615
 31
0.0
  0
LINE
  5
E38
330
A
100
AcDbEntity
  8
MODEL
100
AcDbLine
 10
556.3830447138743
 20
554.8876984016624
 30
0.0
 11
556.3830447138743
 21
566.8876984016606
 31
0.0
  0
LINE
  5
E39
102
{ACAD_REACTORS
330
1109
102
}
330
A
100
AcDbEntity
  8
MODEL
100
AcDbLine
 10
506.3830447138743
 20
566.8876984016606
 30
0.0
 11
506.3830447138743
 21
554.8876984016624
 31
0.0
  0
LINE
  5
E3A
102
{ACAD_REACTORS
330
1085
330
1181
102
}
330
A
100
AcDbEntity
  8
MODEL
100
AcDbLine
 10
580.3830447138897
 20
502.3876984016615
 30
0.0
 11
592.3830447138888
 21
502.3876984016615
 31
0.0
  0
LINE
  5
E3B
330
A
100
AcDbEntity
  8
MODEL
100
AcDbLine
 10
592.3830447138888
 20
547.3876984016615
 30
0.0
 11
580.3830447138897
 21
547.3876984016615
 31
0.0
  0
LINE
  5
E3C
330
A
100
AcDbEntity
  8
MODEL
100
AcDbLine
 10
515.3830447138724
 20
712.8876984016615
 30
0.0
 11
515.3830447138724
 21
566.8876984016606
 31
0.0
  0
LINE
  5
E3D
330
A
100
AcDbEntity
  8
MODEL
100
AcDbLine
 10
547.3830447138724
 20
566.8876984016606
 30
0.0
 11
547.3830447138724
 21
712.8876984016615
 31
0.0
  0
LINE
  5
E3E
330
A
100
AcDbEntity
  8
MODEL
100
AcDbLine
 10
506.3830447138743
 20
554.8876984016624
 30
0.0
 11
506.3830447138743
 21
444.8876984016606
 31
0.0
  0
LINE
  5
E3F
330
A
100
AcDbEntity
  8
MODEL
100
AcDbLine
 10
556.3830447138743
 20
547.3534032599082
 30
0.0
 11
556.3830447138743
 21
554.8876984016624
 31
0.0
  0
LINE
  5
E40
330
A
100
AcDbEntity
  8
MODEL
100
AcDbLine
 10
556.3830447138743
 20
444.8876984016606
 30
0.0
 11
556.3830447138743
 21
502.4238215150008
 31
0.0
  0
LINE
  5
E41
330
A
100
AcDbEntity
  8
MODEL
100
AcDbLine
 10
580.3830447138897
 20
547.3876984016615
 30
0.0
 11
556.3522053449614
 21
547.3876984016615
 31
0.0
  0
LINE
  5
E42
330
A
100
AcDbEntity
  8
MODEL
100
AcDbLine
 10
556.350554332408
 20
502.3876984016615
 30
0.0
 11
580.3830447138897
 21
502.3876984016615
 31
0.0
  0
LINE
  5
E43
102
{ACAD_REACTORS
330
1020
102
}
330
A
100
AcDbEntity
  8
MODEL
100
AcDbLine
 10
856.3830447138724
 20
540.8876984016615
 30
0.0
 11
856.3830447138724
 21
508.8876984016615
 31
0.0
  0
LINE
  5
E44
102
{ACAD_REACTORS
330
1163
102
}
330
A
100
AcDbEntity
  8
MODEL
100
AcDbLine
 10
806.3830447138724
 20
524.8876984016624
 30
0.0
 11
806.3830447138724
 21
559.8876984016624
 31
0.0
  0
LINE
  5
E45
330
A
100
AcDbEntity
  8
MODEL
100
AcDbLine
 10
806.3830447138724
 20
489.8876984016615
 30
0.0
 11
806.3830447138724
 21
524.8876984016624
 31
0.0
  0
LINE
  5
E46
102
{ACAD_REACTORS
330
1163
102
}
330
A
100
AcDbEntity
  8
MODEL
100
AcDbLine
 10
816.3830447138724
 20
524.8876984016624
 30
0.0
 11
816.3830447138724
 21
559.8876984016624
 31
0.0
  0
LINE
  5
E47
330
A
100
AcDbEntity
  8
MODEL
100
AcDbLine
 10
816.3830447138724
 20
489.8876984016615
 30
0.0
 11
816.3830447138724
 21
524.8876984016624
 31
0.0
  0
LINE
  5
E48
330
A
100
AcDbEntity
  8
MODEL
100
AcDbLine
 10
522.5214984545763
 20
724.8876984016615
 30
0.0
 11
556.3830447138743
 21
724.8876984016615
 31
0.0
  0
LINE
  5
E49
102
{ACAD_REACTORS
330
FD8
102
}
330
A
100
AcDbEntity
  8
MODEL
100
AcDbLine
 10
506.3830447138743
 20
724.8876984016615
 30
0.0
 11
522.5214984545763
 21
724.8876984016615
 31
0.0
  0
LINE
  5
E4A
330
A
100
AcDbEntity
  8
MODEL
100
AcDbLine
 10
522.5214984545763
 20
712.8876984016615
 30
0.0
 11
556.3830447138743
 21
712.8876984016615
 31
0.0
  0
LINE
  5
E4B
330
A
100
AcDbEntity
  8
MODEL
100
AcDbLine
 10
506.3830447138743
 20
712.8876984016615
 30
0.0
 11
522.5214984545763
 21
712.8876984016615
 31
0.0
  0
LINE
  5
E4C
330
A
100
AcDbEntity
  8
MODEL
100
AcDbLine
 10
552.312272322154
 20
554.8876984016624
 30
0.0
 11
506.3830447138743
 21
554.8876984016624
 31
0.0
  0
LINE
  5
E4D
330
A
100
AcDbEntity
  8
MODEL
100
AcDbLine
 10
556.3830447138743
 20
554.8876984016624
 30
0.0
 11
552.312272322154
 21
554.8876984016624
 31
0.0
  0
LINE
  5
E4E
330
A
100
AcDbEntity
  8
MODEL
100
AcDbLine
 10
552.312272322154
 20
566.8876984016606
 30
0.0
 11
506.3830447138743
 21
566.8876984016606
 31
0.0
  0
LINE
  5
E4F
330
A
100
AcDbEntity
  8
MODEL
100
AcDbLine
 10
556.3830447138743
 20
566.8876984016606
 30
0.0
 11
552.312272322154
 21
566.8876984016606
 31
0.0
  0
LINE
  5
E50
330
A
100
AcDbEntity
  8
MODEL
100
AcDbLine
 10
580.3830447138897
 20
502.3876984016615
 30
0.0
 11
580.3830447138897
 21
547.3876984016615
 31
0.0
  0
LINE
  5
E51
102
{ACAD_REACTORS
330
1181
102
}
330
A
100
AcDbEntity
  8
MODEL
100
AcDbLine
 10
592.3830447138888
 20
502.3876984016615
 30
0.0
 11
592.3830447138888
 21
547.3876984016615
 31
0.0
  0
SPLINE
  5
E52
330
A
100
AcDbEntity
  8
MODEL
100
AcDbSpline
210
0.0
220
0.0
230
1.0
 70
     8
 71
     3
 72
    46
 73
    42
 74
     0
 42
0.000000001
 43
0.00000001
 40
0.0
 40
0.0
 40
0.0
 40
0.0
 40
0.0078735880789548
 40
0.0287742252162694
 40
0.0469276087909245
 40
0.0838078904647906
 40
0.1025579882926551
 40
0.1217814514321661
 40
0.1607094208821064
 40
0.1804221766022719
 40
0.2096667416288562
 40
0.2391375502860373
 40
0.2692357245005037
 40
0.2995196027870073
 40
0.3295168405349976
 40
0.3596820700436165
 40
0.3904428606455544
 40
0.4214896670051693
 40
0.459761225934828
 40
0.4727577055618416
 40
0.4854510085954282
 40
0.5114328568357926
 40
0.5247775749331067
 40
0.5386920784790762
 40
0.5670252709155622
 40
0.5814205058106453
 40
0.6071518707762664
 40
0.6594392501322933
 40
0.6859528313795303
 40
0.714546439013128
 40
0.7432872846253769
 40
0.7725255877022035
 40
0.8019595303180198
 40
0.8246395590513992
 40
0.8706321153393045
 40
0.8940305281927514
 40
0.9131336974854793
 40
0.9519434443357724
 40
0.9717152870436082
 40
0.9908227004734868
 40
1.0
 40
1.0
 40
1.0
 40
1.0
 10
556.3521944625289
 20
547.3534032599082
 30
0.0
 10
556.3625285179304
 20
547.3648919940933
 30
0.0
 10
556.4002945827232
 20
547.4068778614737
 30
0.0
 10
556.2977434543835
 20
547.2929150478949
 30
0.0
 10
556.0846875376918
 20
547.0558504888477
 30
0.0
 10
555.7074155868903
 20
546.6351157271083
 30
0.0
 10
555.1940975360675
 20
546.05918974625
 30
0.0
 10
554.5777422661366
 20
545.3643859782733
 30
0.0
 10
553.8298864777888
 20
544.5143379071333
 30
0.0
 10
552.8777917688593
 20
543.4174219229999
 30
0.0
 10
551.9574869229335
 20
542.343516920715
 30
0.0
 10
550.8413889133316
 20
541.0146002719648
 30
0.0
 10
549.6569143539062
 20
539.5659751813355
 30
0.0
 10
548.430672069965
 20
538.0109008244153
 30
0.0
 10
547.1918638991582
 20
536.360164320532
 30
0.0
 10
545.9622267418362
 20
534.6040784558727
 30
0.0
 10
544.7716931173389
 20
532.7194808861323
 30
0.0
 10
543.5983398741445
 20
530.533932418447
 30
0.0
 10
542.8359958113732
 20
528.5815357386973
 30
0.0
 10
542.467083742088
 20
526.9871779236519
 30
0.0
 10
542.2738947325805
 20
525.674500842747
 30
0.0
 10
542.2585423712698
 20
524.3259175161302
 30
0.0
 10
542.4323745933369
 20
522.9687350043378
 30
0.0
 10
542.7364769998666
 20
521.5779716559755
 30
0.0
 10
543.213225195387
 20
520.2161319176366
 30
0.0
 10
543.9190153500248
 20
518.651572405236
 30
0.0
 10
545.0008626483112
 20
516.6322406389008
 30
0.0
 10
546.3915888380924
 20
514.5270437130393
 30
0.0
 10
547.8570809774855
 20
512.5192451526827
 30
0.0
 10
549.0029802547641
 20
511.0316957294845
 30
0.0
 10
550.1651671954995
 20
509.582793561417
 30
0.0
 10
551.2979775784478
 20
508.213494516579
 30
0.0
 10
552.295859689726
 20
507.0355378473823
 30
0.0
 10
553.4179044154215
 20
505.7320593713548
 30
0.0
 10
554.3524768844317
 20
504.6658045152099
 30
0.0
 10
555.0899176657357
 20
503.8333220190307
 30
0.0
 10
555.6641655694319
 20
503.1885708215841
 30
0.0
 10
556.0729297028646
 20
502.7326245217109
 30
0.0
 10
556.2937466949633
 20
502.4869276248728
 30
0.0
 10
556.3943298326893
 20
502.3751511125438
 30
0.0
 10
556.3612724561334
 20
502.4118984272691
 30
0.0
 10
556.3505466111618
 20
502.4238215150008
 30
0.0
  0
LINE
  5
E53
330
A
100
AcDbEntity
  8
MODEL
100
AcDbLine
 10
531.3830447138743
 20
554.8876984016624
 30
0.0
 11
556.3830447138743
 21
554.8876984016624
 31
0.0
  0
LINE
  5
E54
330
A
100
AcDbEntity
  8
MODEL
100
AcDbLine
 10
506.3830447138743
 20
554.8876984016624
 30
0.0
 11
531.3830447138743
 21
554.8876984016624
 31
0.0
  0
LINE
  5
E55
102
{ACAD_REACTORS
330
1020
330
1085
102
}
330
A
100
AcDbEntity
  8
MODEL
100
AcDbLine
 10
531.3830447138743
 20
444.8876984016606
 30
0.0
 11
556.3830447138743
 21
444.8876984016606
 31
0.0
  0
LINE
  5
E56
102
{ACAD_REACTORS
330
1128
102
}
330
A
100
AcDbEntity
  8
MODEL
100
AcDbLine
 10
506.3830447138743
 20
444.8876984016606
 30
0.0
 11
531.3830447138743
 21
444.8876984016606
 31
0.0
  0
LINE
  5
E57
330
A
100
AcDbEntity
  8
MODEL
100
AcDbLine
 10
276.1357765155852
 20
1212.89956890218
 30
0.0
 11
276.1357765155852
 21
998.8995689021986
 31
0.0
  0
LINE
  5
E58
330
A
100
AcDbEntity
  8
MODEL
100
AcDbLine
 10
276.1357765155852
 20
988.8995689021986
 30
0.0
 11
276.1357765155852
 21
948.8995689021986
 31
0.0
  0
LINE
  5
E59
330
A
100
AcDbEntity
  8
MODEL
100
AcDbLine
 10
308.1357765155843
 20
948.8995689021986
 30
0.0
 11
308.1357765155843
 21
988.8995689021986
 31
0.0
  0
LINE
  5
E5A
330
A
100
AcDbEntity
  8
MODEL
100
AcDbLine
 10
308.1357765155843
 20
998.8995689021986
 30
0.0
 11
308.1357765155843
 21
1212.89956890218
 31
0.0
  0
LINE
  5
E5B
330
A
100
AcDbEntity
  8
MODEL
100
AcDbLine
 10
257.1357765155843
 20
998.8995689021986
 30
0.0
 11
257.1357765155843
 21
988.8995689021986
 31
0.0
  0
LINE
  5
E5C
330
A
100
AcDbEntity
  8
MODEL
100
AcDbLine
 10
327.1357765155843
 20
988.8995689021986
 30
0.0
 11
327.1357765155843
 21
998.8995689021986
 31
0.0
  0
LINE
  5
E5D
330
A
100
AcDbEntity
  8
MODEL
100
AcDbLine
 10
269.6357765155843
 20
1224.899568902181
 30
0.0
 11
269.6357765155843
 21
1212.89956890218
 31
0.0
  0
LINE
  5
E5E
330
A
100
AcDbEntity
  8
MODEL
100
AcDbLine
 10
314.6357765155843
 20
1212.89956890218
 30
0.0
 11
314.6357765155843
 21
1224.899568902181
 31
0.0
  0
LINE
  5
E5F
330
A
100
AcDbEntity
  8
MODEL
100
AcDbLine
 10
314.6357765155843
 20
1224.899568902181
 30
0.0
 11
314.6357765155843
 21
1263.002321543343
 31
0.0
  0
LINE
  5
E60
330
A
100
AcDbEntity
  8
MODEL
100
AcDbLine
 10
269.6357765155843
 20
1234.901451477174
 30
0.0
 11
269.6357765155843
 21
1224.899568902181
 31
0.0
  0
LINE
  5
E61
330
A
100
AcDbEntity
  8
MODEL
100
AcDbLine
 10
269.6357765155843
 20
1237.521380220517
 30
0.0
 11
269.6357765155843
 21
1237.117201570801
 31
0.0
  0
LINE
  5
E62
330
A
100
AcDbEntity
  8
MODEL
100
AcDbLine
 10
269.6357765155843
 20
1241.214647328025
 30
0.0
 11
269.6357765155843
 21
1240.552815040975
 31
0.0
  0
LINE
  5
E63
330
A
100
AcDbEntity
  8
MODEL
100
AcDbLine
 10
269.6357765155843
 20
1242.760952722722
 30
0.0
 11
269.6357765155843
 21
1241.62358759769
 31
0.0
  0
LINE
  5
E64
330
A
100
AcDbEntity
  8
MODEL
100
AcDbLine
 10
269.6357765155843
 20
1243.868965201432
 30
0.0
 11
269.6357765155843
 21
1243.169892992387
 31
0.0
  0
LINE
  5
E65
330
A
100
AcDbEntity
  8
MODEL
100
AcDbLine
 10
269.6357765155843
 20
1262.957009711716
 30
0.0
 11
269.6357765155843
 21
1244.897705567314
 31
0.0
  0
LINE
  5
E66
330
A
100
AcDbEntity
  8
MODEL
100
AcDbLine
 10
269.6357765155843
 20
1238.549974695605
 30
0.0
 11
269.6357765155843
 21
1237.521380220517
 31
0.0
  0
LINE
  5
E67
330
A
100
AcDbEntity
  8
MODEL
100
AcDbLine
 10
269.6357765155843
 20
1240.552815040975
 30
0.0
 11
269.6357765155843
 21
1239.517684983343
 31
0.0
  0
LINE
  5
E68
330
A
100
AcDbEntity
  8
MODEL
100
AcDbLine
 10
269.6357765155843
 20
1244.897705567314
 30
0.0
 11
269.6357765155843
 21
1243.868965201432
 31
0.0
  0
LINE
  5
E69
330
A
100
AcDbEntity
  8
MODEL
100
AcDbLine
 10
269.6357765155843
 20
1237.117201570801
 30
0.0
 11
269.6357765155843
 21
1234.901451477174
 31
0.0
  0
LINE
  5
E6A
330
A
100
AcDbEntity
  8
MODEL
100
AcDbLine
 10
269.6357765155843
 20
1241.62358759769
 30
0.0
 11
269.6357765155843
 21
1241.214647328025
 31
0.0
  0
LINE
  5
E6B
330
A
100
AcDbEntity
  8
MODEL
100
AcDbLine
 10
269.6357765155843
 20
1243.169892992387
 30
0.0
 11
269.6357765155843
 21
1242.760952722722
 31
0.0
  0
LINE
  5
E6C
330
A
100
AcDbEntity
  8
MODEL
100
AcDbLine
 10
269.6357765155843
 20
1239.517684983343
 30
0.0
 11
269.6357765155843
 21
1238.549974695605
 31
0.0
  0
LINE
  5
E6D
330
A
100
AcDbEntity
  8
MODEL
100
AcDbLine
 10
306.8225601150024
 20
948.8995689021986
 30
0.0
 11
276.1357765155852
 21
948.8995689021986
 31
0.0
  0
LINE
  5
E6E
330
A
100
AcDbEntity
  8
MODEL
100
AcDbLine
 10
308.1357765155843
 20
948.8995689021986
 30
0.0
 11
306.8225601150024
 21
948.8995689021986
 31
0.0
  0
LINE
  5
E6F
330
A
100
AcDbEntity
  8
MODEL
100
AcDbLine
 10
257.1357765155843
 20
988.8995689021986
 30
0.0
 11
327.1357765155843
 21
988.8995689021986
 31
0.0
  0
LINE
  5
E70
330
A
100
AcDbEntity
  8
MODEL
100
AcDbLine
 10
257.1357765155843
 20
998.8995689021986
 30
0.0
 11
327.1357765155843
 21
998.8995689021986
 31
0.0
  0
LINE
  5
E71
330
A
100
AcDbEntity
  8
MODEL
100
AcDbLine
 10
304.9493435443236
 20
1269.649568902199
 30
0.0
 11
279.3222094868451
 21
1269.649568902199
 31
0.0
  0
LINE
  5
E72
330
A
100
AcDbEntity
  8
MODEL
100
AcDbLine
 10
304.9493435443236
 20
1278.149568902198
 30
0.0
 11
279.3222094868451
 21
1278.149568902198
 31
0.0
  0
CIRCLE
  5
E73
330
A
100
AcDbEntity
  8
MODEL
100
AcDbCircle
 10
292.1357765155843
 20
1273.899568902199
 30
0.0
 40
15.99999999999966
  0
CIRCLE
  5
E74
330
A
100
AcDbEntity
  8
MODEL
100
AcDbCircle
 10
292.1357765155843
 20
1273.899568902199
 30
0.0
 40
13.50000000000023
  0
CIRCLE
  5
E75
330
A
100
AcDbEntity
  8
MODEL
100
AcDbCircle
 10
292.1357765155843
 20
1273.899568902199
 30
0.0
 40
24.99999999999982
  0
CIRCLE
  5
E76
330
A
100
AcDbEntity
  8
MODEL
100
AcDbCircle
 10
292.1357765155843
 20
1273.899568902199
 30
0.0
 40
22.50000000000013
  0
CIRCLE
  5
E77
330
A
100
AcDbEntity
  8
MODEL
100
AcDbCircle
 10
292.1357765155843
 20
1273.899568902199
 30
0.0
 40
21.00000000000057
  0
LINE
  5
E78
330
A
100
AcDbEntity
  8
MODEL
100
AcDbLine
 10
292.1878094660696
 20
1294.8205498858
 30
0.0
 11
292.7042716492559
 21
1294.846856036406
 31
0.0
  0
SPLINE
  5
E79
330
A
100
AcDbEntity
  8
MODEL
100
AcDbSpline
210
0.0
220
0.0
230
1.0
 70
     8
 71
     3
 72
    16
 73
    12
 74
     0
 42
0.000000001
 43
0.00000001
 40
0.0
 40
0.0
 40
0.0
 40
0.0
 40
0.1029762396833685
 40
0.2059524790462527
 40
0.3113796356768493
 40
0.4249600243951632
 40
0.5417320820545946
 40
0.657027321345899
 40
0.7755891039556395
 40
0.8863963306485666
 40
1.0
 40
1.0
 40
1.0
 40
1.0
 10
304.5067665909309
 20
1289.237566981698
 30
0.0
 10
303.7262760803213
 20
1289.868027684638
 30
0.0
 10
302.1652950615315
 20
1291.128949088557
 30
0.0
 10
299.4717110964319
 20
1292.551121621323
 30
0.0
 10
296.5142424218501
 20
1293.608278202812
 30
0.0
 10
293.2880620015775
 20
1294.206137260282
 30
0.0
 10
289.9118439193952
 20
1294.265150838049
 30
0.0
 10
286.523523208897
 20
1293.752692311052
 30
0.0
 10
283.3287280639787
 20
1292.697206420051
 30
0.0
 10
280.3352548009306
 20
1291.180656667347
 30
0.0
 10
278.6195730189401
 20
1289.824119214721
 30
0.0
 10
277.751042349042
 20
1289.137398405048
 30
0.0
  0
SPLINE
  5
E7A
330
A
100
AcDbEntity
  8
MODEL
100
AcDbSpline
210
0.0
220
0.0
230
1.0
 70
     8
 71
     3
 72
    11
 73
     7
 74
     0
 42
0.000000001
 43
0.00000001
 40
0.0
 40
0.0
 40
0.0
 40
0.0
 40
0.0861621312975916
 40
0.4327348951308534
 40
0.7119444279629475
 40
1.0
 40
1.0
 40
1.0
 40
1.0
 10
310.915214004698
 20
1279.06167153509
 30
0.0
 10
310.8231176757234
 20
1279.399972841545
 30
0.0
 10
310.3605792651714
 20
1281.099034577443
 30
0.0
 10
309.1688474945594
 20
1283.766685043333
 30
0.0
 10
307.0622104215198
 20
1286.860788648994
 30
0.0
 10
305.3673909793087
 20
1288.437113700586
 30
0.0
 10
304.5067665909309
 20
1289.237566981698
 30
0.0
  0
ARC
  5
E7B
330
A
100
AcDbEntity
  8
MODEL
100
AcDbCircle
 10
292.1357765155843
 20
1273.899568902199
 30
0.0
 40
19.4760000000003
100
AcDbArc
 50
15.36988975546715
 51
105.3765449399748
  0
SPLINE
  5
E7C
330
A
100
AcDbEntity
  8
MODEL
100
AcDbSpline
210
0.0
220
0.0
230
1.0
 70
     8
 71
     3
 72
    11
 73
     7
 74
     0
 42
0.000000001
 43
0.00000001
 40
0.0
 40
0.0
 40
0.0
 40
0.0
 40
0.0861933751499391
 40
0.4328687065536387
 40
0.7119783028103847
 40
1.0
 40
1.0
 40
1.0
 40
1.0
 10
276.7991868226917
 20
1286.272304942497
 30
0.0
 10
277.0286625313119
 20
1286.537397586767
 30
0.0
 10
278.1811043866518
 20
1287.868709997289
 30
0.0
 10
280.4073381209909
 20
1289.758834139473
 30
0.0
 10
283.6410646774701
 20
1291.641454330403
 30
0.0
 10
285.8497804427342
 20
1292.329153634562
 30
0.0
 10
286.9714925941761
 20
1292.678406661205
 30
0.0
  0
SPLINE
  5
E7D
330
A
100
AcDbEntity
  8
MODEL
100
AcDbSpline
210
0.0
220
0.0
230
1.0
 70
     8
 71
     3
 72
     9
 73
     5
 74
     0
 42
0.000000001
 43
0.00000001
 40
0.0
 40
0.0
 40
0.0
 40
0.0
 40
0.97890528832846
 40
1.0
 40
1.0
 40
1.0
 40
1.0
 10
292.7042716492559
 20
1294.846856036406
 30
0.0
 10
293.7128926226077
 20
1294.805830514711
 30
0.0
 10
294.7432486594752
 20
1294.763920922246
 30
0.0
 10
295.7337240617215
 20
1294.505348635687
 30
0.0
 10
295.7546178547499
 20
1294.499894127855
 30
0.0
  0
LWPOLYLINE
  5
E7E
330
A
100
AcDbEntity
  8
MODEL
100
AcDbPolyline
 90
       32
 70
   128
 43
0.0
 10
299.201811447564
 20
1293.508007773883
 10
301.4303166753588
 20
1292.567811426191
 10
304.3776153313855
 20
1290.734027918783
 10
307.0493240155873
 20
1288.361815160305
 10
309.2099198605655
 20
1285.66573481129
 10
310.9345907310516
 20
1282.556399881079
 10
312.072871816118
 20
1279.305329335419
 10
312.6635384778718
 20
1275.809551450313
 10
312.6577310938945
 20
1272.378859277654
 10
312.0562340939485
 20
1268.899552971189
 10
310.914344253083
 20
1265.679310724822
 10
309.1977387307678
 20
1262.61034978679
 10
307.0582419572337
 20
1259.959644503352
 10
304.4267809022057
 20
1257.642529954282
 10
301.5420974462803
 20
1255.864152891534
 10
298.3078086025479
 20
1254.559521164915
 10
295.0029368552285
 20
1253.840583924167
 10
291.5248148840172
 20
1253.686454285678
 10
288.1901980168303
 20
1254.105956459015
 10
284.9742668558455
 20
1255.070877327266
 10
281.8792282091061
 20
1256.607510453726
 10
279.1768312106077
 20
1258.57978674321
 10
276.7773267317588
 20
1261.04938910007
 10
274.8898296317865
 20
1263.796997082004
 10
273.4524956190079
 20
1266.912429952966
 10
272.5909451967735
 20
1270.116288235161
 10
272.2719940345813
 20
1273.515777024534
 10
272.521934543286
 20
1276.815525103598
 10
273.3497435707631
 20
1280.119729865032
 10
274.7699515574876
 20
1283.300902909925
 10
276.7991868226917
 20
1286.272304942497
 10
276.7991868226917
 20
1286.272304942498
  0
CIRCLE
  5
E7F
330
A
100
AcDbEntity
  8
MODEL
100
AcDbCircle
 10
292.1357765155843
 20
1273.899568902199
 30
0.0
 40
20.97599999999984
  0
SPLINE
  5
E80
330
A
100
AcDbEntity
  8
MODEL
100
AcDbSpline
210
0.0
220
0.0
230
1.0
 70
     8
 71
     3
 72
    29
 73
    25
 74
     0
 42
0.000000001
 43
0.00000001
 40
0.0
 40
0.0
 40
0.0
 40
0.0
 40
0.0403442985942817
 40
0.0801078983807121
 40
0.1264438512201649
 40
0.1730025370707321
 40
0.2188847957717735
 40
0.2652529258199519
 40
0.3117969533601586
 40
0.3576640795141419
 40
0.4040623508120722
 40
0.4505896372385765
 40
0.4964456641617636
 40
0.5428720327606923
 40
0.589380499751248
 40
0.6352294637136999
 40
0.6816818782030116
 40
0.7281694524670724
 40
0.7740153916190282
 40
0.8204917936590654
 40
0.8669564074850536
 40
0.9128033607820919
 40
0.9593016856415381
 40
1.0
 40
1.0
 40
1.0
 40
1.0
 10
304.5067665909309
 20
1289.237566981698
 30
0.0
 10
305.4131805721289
 20
1288.422592657275
 30
0.0
 10
307.212961994206
 20
1286.80437440492
 30
0.0
 10
309.3996899727289
 20
1283.646992899653
 30
0.0
 10
311.0411962731868
 20
1279.975269403932
 30
0.0
 10
311.8933792522211
 20
1275.847509200982
 30
0.0
 10
311.8596697961665
 20
1271.63557588918
 30
0.0
 10
310.9397738090428
 20
1267.523957751701
 30
0.0
 10
309.1699258464868
 20
1263.700938096373
 30
0.0
 10
306.6342591701222
 20
1260.336781797217
 30
0.0
 10
303.4473420372805
 20
1257.581181272154
 30
0.0
 10
299.7489800132606
 20
1255.563546528258
 30
0.0
 10
295.7087856543866
 20
1254.37033404556
 30
0.0
 10
291.5076387264161
 20
1254.053965811043
 30
0.0
 10
287.3349520082191
 20
1254.635112729476
 30
0.0
 10
283.3784815614225
 20
1256.08188961047
 30
0.0
 10
279.814834264388
 20
1258.32915902083
 30
0.0
 10
276.8085513983405
 20
1261.28056375125
 30
0.0
 10
274.4908453705638
 20
1264.79876297015
 30
0.0
 10
272.9669718838157
 20
1268.725403142152
 30
0.0
 10
272.3048387055641
 20
1272.889241514195
 30
0.0
 10
272.552863081063
 20
1277.086184707669
 30
0.0
 10
273.5645066712303
 20
1281.015060253417
 30
0.0
 10
274.8815071556809
 20
1283.298553480857
 30
0.0
 10
275.4962063024258
 20
1284.364355168162
 30
0.0
  0
SPLINE
  5
E81
330
A
100
AcDbEntity
  8
MODEL
100
AcDbSpline
210
0.0
220
0.0
230
1.0
 70
     8
 71
     3
 72
    20
 73
    16
 74
     0
 42
0.000000001
 43
0.00000001
 40
0.0
 40
0.0
 40
0.0
 40
0.0
 40
0.0409783322987086
 40
0.1242214777099193
 40
0.2067341316989452
 40
0.2904405035788299
 40
0.3736203537383133
 40
0.4561783047043161
 40
0.5399016253074227
 40
0.6230145612742226
 40
0.7056250240283156
 40
0.7893615298726225
 40
0.8724039503094864
 40
0.9550741257278946
 40
1.0
 40
1.0
 40
1.0
 40
1.0
 10
310.7292674969284
 20
1280.076289457678
 30
0.0
 10
310.9675642529591
 20
1279.430311745168
 30
0.0
 10
311.6899356504035
 20
1277.472098672205
 30
0.0
 10
311.9609238192751
 20
1273.964371010335
 30
0.0
 10
311.5659775863904
 20
1269.785514128806
 30
0.0
 10
310.2517517928926
 20
1265.776657747979
 30
0.0
 10
308.1309225369558
 20
1262.138712133914
 30
0.0
 10
305.2893039298514
 20
1259.027740524381
 30
0.0
 10
301.8563179381507
 20
1256.586566184254
 30
0.0
 10
297.9836343481464
 20
1254.927116952875
 30
0.0
 10
293.8494987418607
 20
1254.119728887638
 30
0.0
 10
289.635947169755
 20
1254.200764068544
 30
0.0
 10
285.5432052411478
 20
1255.180394004629
 30
0.0
 10
282.3116214472392
 20
1256.688361108484
 30
0.0
 10
280.5826540888082
 20
1257.950757640468
 30
0.0
 10
279.9738940969927
 20
1258.395240585002
 30
0.0
  0
SPLINE
  5
E82
330
A
100
AcDbEntity
  8
MODEL
100
AcDbSpline
210
0.0
220
0.0
230
1.0
 70
     8
 71
     3
 72
    26
 73
    22
 74
     0
 42
0.000000001
 43
0.00000001
 40
0.0
 40
0.0
 40
0.0
 40
0.0
 40
0.0490928860548091
 40
0.0974775755882414
 40
0.1518544066317712
 40
0.2064375196860337
 40
0.2602268038055652
 40
0.3146389826871765
 40
0.3692024627713187
 40
0.4229787303876479
 40
0.4774238600892485
 40
0.531965269872653
 40
0.5857332544768759
 40
0.6402089292292598
 40
0.6947258372823838
 40
0.7484902745705149
 40
0.8029940804782403
 40
0.8574840619144392
 40
0.9112496885269298
 40
0.9657792041985505
 40
1.0
 40
1.0
 40
1.0
 40
1.0
 10
310.915214004698
 20
1279.06167153509
 30
0.0
 10
311.1790840865641
 20
1277.839488247526
 30
0.0
 10
311.7030177543064
 20
1275.412752454008
 30
0.0
 10
311.5905362254515
 20
1271.524285539925
 30
0.0
 10
310.7236970228431
 20
1267.598754954256
 30
0.0
 10
308.9710785338046
 20
1263.819404928722
 30
0.0
 10
306.465797280326
 20
1260.494593062845
 30
0.0
 10
303.3157112756115
 20
1257.770989560962
 30
0.0
 10
299.6604351287405
 20
1255.776840211615
 30
0.0
 10
295.6672191679326
 20
1254.597503087588
 30
0.0
 10
291.5149466352485
 20
1254.284816116577
 30
0.0
 10
287.3907963330811
 20
1254.859202838286
 30
0.0
 10
283.4803516684341
 20
1256.289149160885
 30
0.0
 10
279.9581440278097
 20
1258.51028379827
 30
0.0
 10
276.986884657418
 20
1261.427332609151
 30
0.0
 10
274.6959416682447
 20
1264.90469568779
 30
0.0
 10
273.1905355805637
 20
1268.78532921399
 30
0.0
 10
272.5333442393293
 20
1272.901962184252
 30
0.0
 10
272.7886987402352
 20
1277.045533450096
 30
0.0
 10
273.6682820146951
 20
1280.60757475347
 30
0.0
 10
274.7837106865453
 20
1282.572773721929
 30
0.0
 10
275.2138033383552
 20
1283.330525120123
 30
0.0
  0
LINE
  5
E83
330
A
100
AcDbEntity
  8
MODEL
100
AcDbLine
 10
269.6357765155843
 20
1212.89956890218
 30
0.0
 11
314.6357765155843
 21
1212.89956890218
 31
0.0
  0
LINE
  5
E84
330
A
100
AcDbEntity
  8
MODEL
100
AcDbLine
 10
269.6357765155843
 20
1224.899568902181
 30
0.0
 11
314.6357765155843
 21
1224.899568902181
 31
0.0
  0
DIMENSION
  5
ECD
330
A
100
AcDbEntity
  8
DIM
100
AcDbDimension
  2
*D8
 10
317.1357765155842
 20
1343.269334009806
 30
0.0
 11
292.1357765155843
 21
1343.269334009806
 31
0.0
 70
   160
 71
     5
 42
49.99999999999966
 73
     0
 74
     0
 75
     0
  3
tfrom線あり
100
AcDbAlignedDimension
 13
267.1357765155845
 23
1295.251429551457
 33
0.0
 14
317.1357765155842
 24
1295.251429551457
 34
0.0
100
AcDbRotatedDimension
1001
ACAD
1000
DSTYLE
1002
{
1070
     3
1000
ø<>
1002
}
  0
MTEXT
  5
F29
330
A
100
AcDbEntity
  8
TEMPLATE
390
1D
100
AcDbMText
 10
267.8091399877461
 20
765.3066192176007
 30
0.0
 40
12.0
 41
0.0
 46
13.704
 71
     1
 72
     1
  1
{G1 1/4"}
  7
ＭＳ ゴシック
 73
     1
 44
0.7828267384257843
1001
ACAD
1000
ACAD_MTEXT_DEFINED_HEIGHT_BEGIN
1070
    46
1040
13.704
1000
ACAD_MTEXT_DEFINED_HEIGHT_END
  0
MTEXT
  5
F2A
330
A
100
AcDbEntity
  8
TEMPLATE
390
1D
100
AcDbMText
 10
297.2353772109774
 20
732.1990073271867
 30
0.0
 40
10.0
 41
0.0
 46
3.0
 71
     1
 72
     1
  1
{▲}
  7
ＭＳ ゴシック
 11
-1.0
 21
1.224646799147353E-16
 31
0.0
 73
     1
 44
0.7828267384257843
1001
ACAD
1000
ACAD_MTEXT_DEFINED_HEIGHT_BEGIN
1070
    46
1040
3.0
1000
ACAD_MTEXT_DEFINED_HEIGHT_END
  0
DIMENSION
  5
F6A
330
A
100
AcDbEntity
  8
DIM
100
AcDbDimension
  2
*D10
 10
219.8521470579397
 20
444.8876984016606
 30
0.0
 11
219.8521470579397
 21
505.8876984016606
 31
0.0
 70
   160
 71
     5
 42
122.0
 73
     0
 74
     0
 75
     0
  3
tfrom線あり
100
AcDbAlignedDimension
 13
263.6142480161104
 23
566.8876984016606
 33
0.0
 14
263.6142480161104
 24
444.8876984016606
 34
0.0
 50
90.0
100
AcDbRotatedDimension
  0
DIMENSION
  5
FD6
102
{ACAD_REACTORS
330
FD8
102
}
102
{ACAD_XDICTIONARY
360
FD7
102
}
330
A
100
AcDbEntity
  8
DIM
100
AcDbDimension
  2
*D13
 10
433.8974312594569
 20
524.8876984016615
 30
0.0
 11
419.8974312594569
 21
624.8876984016615
 31
0.0
 70
    32
  1
55～230
 71
     5
 42
200.0
 73
     0
 74
     0
 75
     0
  3
tfrom線あり
100
AcDbAlignedDimension
 13
506.3830447138743
 23
724.8876984016615
 33
0.0
 14
506.3830447138743
 24
524.8876984016615
 34
0.0
 50
90.0
100
AcDbRotatedDimension
  0
DIMENSION
  5
1001
330
A
100
AcDbEntity
  8
DIM
100
AcDbDimension
  2
*D14
 10
267.1357765155848
 20
391.9129500904137
 30
0.0
 11
292.1357765155846
 21
391.9129500904137
 31
0.0
 70
   160
 71
     5
 42
49.99999999999955
 73
     0
 74
     0
 75
     0
 52
-270.0
  3
tfrom線あり
100
AcDbAlignedDimension
 13
317.1357765155843
 23
444.8876984016606
 33
0.0
 14
267.1357765155848
 24
444.8876984016606
 34
0.0
 50
180.0
100
AcDbRotatedDimension
1001
ACAD
1000
DSTYLE
1002
{
1070
     3
1000
ø<>
1002
}
  0
DIMENSION
  5
101E
102
{ACAD_REACTORS
330
1020
102
}
102
{ACAD_XDICTIONARY
360
101F
102
}
330
A
100
AcDbEntity
  8
DIM
100
AcDbDimension
  2
*D16
 10
856.3830447138724
 20
352.2952399013599
 30
0.0
 11
693.8830447138733
 21
352.2952399013599
 31
0.0
 70
   160
  1
115～325
 71
     5
 42
324.9999999999982
 73
     0
 74
     0
 75
     0
  3
tfrom線あり
100
AcDbAlignedDimension
 13
531.3830447138743
 23
444.8876984016606
 33
0.0
 14
856.3830447138724
 24
508.8876984016615
 34
0.0
100
AcDbRotatedDimension
  0
DIMENSION
  5
1083
102
{ACAD_REACTORS
330
1085
102
}
102
{ACAD_XDICTIONARY
360
1084
102
}
330
A
100
AcDbEntity
  8
DIM
100
AcDbDimension
  2
*D18
 10
592.3830447138888
 20
404.4238059395886
 30
0.0
 11
561.8830447138815
 21
418.4238059395886
 31
0.0
 70
    32
 71
     5
 42
61.00000000001455
 73
     0
 74
     0
 75
     0
  3
tfrom線あり
100
AcDbAlignedDimension
 13
531.3830447138743
 23
444.8876984016606
 33
0.0
 14
592.3830447138888
 24
502.3876984016615
 34
0.0
100
AcDbRotatedDimension
  0
DIMENSION
  5
109A
330
A
100
AcDbEntity
  8
DIM
100
AcDbDimension
  2
*D19
 10
903.7855231042726
 20
489.8876984016615
 30
0.0
 11
903.7855231042726
 21
524.887698401662
 31
0.0
 70
   160
 71
     5
 42
70.00000000000091
 73
     0
 74
     0
 75
     0
  3
tfrom線あり
100
AcDbAlignedDimension
 13
851.1354220726915
 23
559.8876984016624
 33
0.0
 14
851.1354220726915
 24
489.8876984016615
 34
0.0
 50
90.0
100
AcDbRotatedDimension
  0
DIMENSION
  5
1107
102
{ACAD_REACTORS
330
1109
102
}
102
{ACAD_XDICTIONARY
360
1108
102
}
330
A
100
AcDbEntity
  8
DIM
100
AcDbDimension
  2
*D21
 10
468.9329876701369
 20
524.8876984016615
 30
0.0
 11
454.9329876701369
 21
545.887698401661
 31
0.0
 70
    32
 71
     5
 42
41.99999999999909
 73
     0
 74
     0
 75
     0
  3
tfrom線あり
100
AcDbAlignedDimension
 13
506.3830447138743
 23
566.8876984016606
 33
0.0
 14
506.3830447138743
 24
524.8876984016615
 34
0.0
 50
90.0
100
AcDbRotatedDimension
  0
DIMENSION
  5
1126
102
{ACAD_REACTORS
330
1128
102
}
102
{ACAD_XDICTIONARY
360
1127
102
}
330
A
100
AcDbEntity
  8
DIM
100
AcDbDimension
  2
*D22
 10
468.9329876701369
 20
524.8876984016615
 30
0.0
 11
454.9329876701369
 21
484.8876984016611
 31
0.0
 70
    32
 71
     5
 42
80.00000000000091
 73
     0
 74
     0
 75
     0
  3
tfrom線あり
100
AcDbAlignedDimension
 13
506.3830447138743
 23
444.8876984016606
 33
0.0
 14
506.3830447138743
 24
524.8876984016615
 34
0.0
 50
90.0
100
AcDbRotatedDimension
  0
DIMENSION
  5
1161
102
{ACAD_REACTORS
330
1163
102
}
102
{ACAD_XDICTIONARY
360
1162
102
}
330
A
100
AcDbEntity
  8
DIM
100
AcDbDimension
  2
*D23
 10
806.3830447138724
 20
591.6821608066834
 30
0.0
 11
811.4329585278231
 21
591.6821608066834
 31
0.0
 70
   160
 71
     5
 42
10.0
 73
     0
 74
     0
 75
     0
  3
tfrom線あり
100
AcDbAlignedDimension
 13
816.3830447138724
 23
559.8876984016624
 33
0.0
 14
806.3830447138724
 24
559.8876984016624
 34
0.0
100
AcDbRotatedDimension
  0
DIMENSION
  5
117F
102
{ACAD_REACTORS
330
1181
102
}
102
{ACAD_XDICTIONARY
360
1180
102
}
330
A
100
AcDbEntity
  8
DIM
100
AcDbDimension
  2
*D24
 10
650.5867232743777
 20
502.3876984016615
 30
0.0
 11
636.5267232743778
 21
524.8876984016615
 31
0.0
 70
    32
 71
     5
 42
45.0
 73
     0
 74
     0
 75
     0
  3
tfrom線あり
100
AcDbAlignedDimension
 13
592.3830447138888
 23
547.3876984016615
 33
0.0
 14
592.3830447138888
 24
502.3876984016615
 34
0.0
 50
90.0
100
AcDbRotatedDimension
1001
ACAD
1000
DSTYLE
1002
{
1070
     3
1000
ø<>
1002
}
  0
LINE
  5
11F7
330
A
100
AcDbEntity
  8
DIM
100
AcDbLine
 10
308.1357765155843
 20
645.0598887162674
 30
0.0
 11
340.7970098914022
 21
666.834044300146
 31
0.0
  0
MTEXT
  5
11FC
330
A
100
AcDbEntity
  8
TEMPLATE
390
1D
100
AcDbMText
 10
345.2136922049372
 20
682.7487709521653
 30
0.0
 40
12.21630859375
 41
0.0
 46
12.3384716796875
 71
     1
 72
     1
  1
{ø32}
  7
ＭＳ ゴシック
 73
     1
 44
0.7828267384257843
1001
ACAD
1000
ACAD_MTEXT_DEFINED_HEIGHT_BEGIN
1070
    46
1040
12.3384716796875
1000
ACAD_MTEXT_DEFINED_HEIGHT_END
  0
MTEXT
  5
122D
330
A
100
AcDbEntity
  8
TEMPLATE
390
1D
100
AcDbMText
 10
723.9137339657793
 20
575.8654270194228
 30
0.0
 40
12.21630859375
 41
0.0
 46
12.3384716796875
 71
     1
 72
     1
  1
{ø32}
  7
ＭＳ ゴシック
 73
     1
 44
0.7828267384257843
1001
ACAD
1000
ACAD_MTEXT_DEFINED_HEIGHT_BEGIN
1070
    46
1040
12.3384716796875
1000
ACAD_MTEXT_DEFINED_HEIGHT_END
  0
LINE
  5
1232
330
A
100
AcDbEntity
  8
DIM
100
AcDbLine
 10
686.6890808222238
 20
540.8876984016615
 30
0.0
 11
719.3503141980417
 21
562.6618539855401
 31
0.0
  0
VIEWPORT
  5
349
330
B
100
AcDbEntity
 67
     1
  8
0
100
AcDbViewport
 10
202.5
 20
128.5
 30
0.0
 40
486.0
 41
308.4
 68
     1
 69
     1
 12
202.5
 22
128.5
 13
0.0
 23
0.0
 14
0.5
 24
0.5
 15
0.0
 25
0.0
 16
0.0
 26
0.0
 36
1.0
 17
0.0
 27
0.0
 37
0.0
 42
50.0
 43
0.0
 44
0.0
 45
308.4
 50
0.0
 51
0.0
 72
   100
 90
   557152
  1

281
     0
 71
     1
 74
     0
110
0.0
120
0.0
130
0.0
111
1.0
121
0.0
131
0.0
112
0.0
122
1.0
132
0.0
 79
     0
146
0.0
170
     0
 61
     5
348
26C
292
     1
282
     1
141
0.0
142
0.0
 63
   256
  0
VIEWPORT
  5
34A
330
B
100
AcDbEntity
 67
     1
  8
0
100
AcDbViewport
 10
202.5
 20
128.5
 30
0.0
 40
324.0
 41
205.6
 68
     2
 69
     2
 12
986.6781359294573
 22
1427.077061889956
 13
0.0
 23
0.0
 14
0.5
 24
0.5
 15
0.0
 25
0.0
 16
0.0
 26
0.0
 36
1.0
 17
0.0
 27
0.0
 37
0.0
 42
50.0
 43
0.0
 44
0.0
 45
2890.021615685494
 50
0.0
 51
0.0
 72
   100
 90
   557152
  1

281
     0
 71
     1
 74
     0
110
0.0
120
0.0
130
0.0
111
1.0
121
0.0
131
0.0
112
0.0
122
1.0
132
0.0
 79
     0
146
0.0
170
     0
 61
     5
348
26C
292
     1
282
     1
141
0.0
142
0.0
 63
   256
  0
ENDSEC
  0
SECTION
  2
OBJECTS
  0
DICTIONARY
  5
19
330
0
100
AcDbDictionary
281
     1
  3
ACAD_COLOR
350
674
  3
ACAD_DETAILVIEWSTYLE
350
BBF
  3
ACAD_GROUP
350
1A
  3
ACAD_IMAGE_VARS
350
27B
  3
ACAD_LAYOUT
350
1E
  3
ACAD_MATERIAL
350
263
  3
ACAD_MLEADERSTYLE
350
336
  3
ACAD_MLINESTYLE
350
1B
  3
ACAD_PLOTSETTINGS
350
22
  3
ACAD_PLOTSTYLENAME
350
1F
  3
ACAD_SCALELIST
350
241
  3
ACAD_SECTIONVIEWSTYLE
350
BC0
  3
ACAD_TABLESTYLE
350
278
  3
ACAD_VISUALSTYLE
350
267
  3
ACDB_RECOMPOSE_DATA
350
12B9
  3
AcDbVariableDictionary
350
330
  3
APPDATA
350
27A
  3
DimOffsetDictionary
350
EE7
  0
SUN
  5
904
330
15
100
AcDbSun
 90
        1
290
     0
 63
     7
421
 16777215
 40
1.0
291
     1
 91
  2455826
 92
 54000000
292
     0
 70
     2
 71
   256
280
     1
  0
DICTIONARY
  5
2E1
330
2
100
AcDbDictionary
280
     1
281
     1
  3
ACAD_LAYERSTATES
360
2E2
  3
ACLYDICTIONARY
360
D22
  0
DICTIONARY
  5
FD7
330
FD6
100
AcDbDictionary
280
     1
281
     1
  3
ACAD_DIMASSOC
360
FD8
  0
DICTIONARY
  5
101F
330
101E
100
AcDbDictionary
280
     1
281
     1
  3
ACAD_DIMASSOC
360
1020
  0
DICTIONARY
  5
1084
330
1083
100
AcDbDictionary
280
     1
281
     1
  3
ACAD_DIMASSOC
360
1085
  0
DICTIONARY
  5
1108
330
1107
100
AcDbDictionary
280
     1
281
     1
  3
ACAD_DIMASSOC
360
1109
  0
DICTIONARY
  5
1127
330
1126
100
AcDbDictionary
280
     1
281
     1
  3
ACAD_DIMASSOC
360
1128
  0
DICTIONARY
  5
1162
330
1161
100
AcDbDictionary
280
     1
281
     1
  3
ACAD_DIMASSOC
360
1163
  0
DICTIONARY
  5
1180
330
117F
100
AcDbDictionary
280
     1
281
     1
  3
ACAD_DIMASSOC
360
1181
  0
DICTIONARY
  5
674
102
{ACAD_REACTORS
330
19
102
}
330
19
100
AcDbDictionary
281
     1
  0
DICTIONARY
  5
BBF
102
{ACAD_REACTORS
330
19
102
}
330
19
100
AcDbDictionary
281
     1
  0
DICTIONARY
  5
1A
102
{ACAD_REACTORS
330
19
102
}
330
19
100
AcDbDictionary
281
     1
  0
RASTERVARIABLES
  5
27B
102
{ACAD_REACTORS
330
19
102
}
330
19
100
AcDbRasterVariables
 90
        0
 70
     1
 71
     1
 72
     1
  0
DICTIONARY
  5
1E
102
{ACAD_REACTORS
330
19
102
}
330
19
100
AcDbDictionary
281
     1
  3
Layout1
350
21
  3
Model
350
20
  0
DICTIONARY
  5
263
102
{ACAD_REACTORS
330
19
102
}
330
19
100
AcDbDictionary
281
     1
  3
ByBlock
350
265
  3
ByLayer
350
264
  3
Global
350
266
  0
DICTIONARY
  5
336
102
{ACAD_REACTORS
330
19
102
}
330
19
100
AcDbDictionary
281
     1
  3
Standard
350
D59
  0
DICTIONARY
  5
1B
102
{ACAD_REACTORS
330
19
102
}
330
19
100
AcDbDictionary
281
     1
  3
Standard
350
1C
  0
DICTIONARY
  5
22
102
{ACAD_REACTORS
330
19
102
}
330
19
100
AcDbDictionary
281
     1
  0
ACDBDICTIONARYWDFLT
  5
1F
102
{ACAD_REACTORS
330
19
102
}
330
19
100
AcDbDictionary
281
     1
  3
Normal
350
1D
100
AcDbDictionaryWithDefault
340
1D
  0
DICTIONARY
  5
241
102
{ACAD_REACTORS
330
19
102
}
330
19
100
AcDbDictionary
281
     1
  3
*A1
350
D63
  3
A0
350
242
  3
A1
350
243
  3
A2
350
244
  3
A3
350
245
  3
A4
350
246
  3
A5
350
247
  3
A6
350
248
  3
A7
350
249
  3
A8
350
24A
  3
A9
350
24B
  3
B0
350
24C
  3
B1
350
24D
  3
B2
350
24E
  3
B3
350
24F
  3
B4
350
250
  3
B5
350
251
  3
B6
350
252
  3
B7
350
253
  3
B8
350
254
  3
B9
350
255
  3
C0
350
256
  3
C1
350
257
  3
C2
350
258
  3
C3
350
259
  3
C4
350
25A
  3
C5
350
25B
  3
C6
350
25C
  3
C7
350
25D
  3
C8
350
25E
  3
C9
350
25F
  3
D0
350
260
  3
D1
350
261
  3
D2
350
262
  0
DICTIONARY
  5
BC0
102
{ACAD_REACTORS
330
19
102
}
330
19
100
AcDbDictionary
281
     1
  0
DICTIONARY
  5
278
102
{ACAD_REACTORS
330
19
102
}
330
19
100
AcDbDictionary
281
     1
  3
Standard
350
279
  0
DICTIONARY
  5
267
102
{ACAD_REACTORS
330
19
102
}
330
19
100
AcDbDictionary
281
     1
  3
2dWireframe
350
26C
  3
3D Hidden
350
26E
  3
3dWireframe
350
26D
  3
Basic
350
26F
  3
Brighten
350
273
  3
ColorChange
350
277
  3
Conceptual
350
271
  3
Dim
350
272
  3
EdgeColorOff
350
8FE
  3
Facepattern
350
276
  3
Flat
350
268
  3
FlatWithEdges
350
269
  3
Gouraud
350
26A
  3
GouraudWithEdges
350
26B
  3
Hidden
350
8FB
  3
JitterOff
350
8FC
  3
Linepattern
350
275
  3
OverhangOff
350
8FD
  3
Realistic
350
270
  3
Shaded
350
903
  3
Shaded with edges
350
902
  3
Shades of Gray
350
8FF
  3
Sketchy
350
900
  3
Thicken
350
274
  3
Wireframe
350
8FA
  3
X-Ray
350
901
  0
XRECORD
  5
12B9
102
{ACAD_REACTORS
330
19
102
}
330
19
100
AcDbXrecord
280
     1
 90
        1
330
279
  0
DICTIONARY
  5
330
102
{ACAD_REACTORS
330
19
102
}
330
19
100
AcDbDictionary
281
     1
  3
CANNOSCALE
350
331
  3
CMLEADERSTYLE
350
EA4
  3
CTABLESTYLE
350
335
  3
HPTRANSPARENCY
350
D52
  3
XCLIPFRAME
350
896
  0
DICTIONARY
  5
27A
102
{ACAD_REACTORS
330
19
102
}
330
19
100
AcDbDictionary
281
     1
  0
DICTIONARY
  5
EE7
102
{ACAD_REACTORS
330
19
102
}
330
19
100
AcDbDictionary
281
     1
  3
DIMRAILANGLE
350
10FD
  3
DIMRAILFIRSTOFFSET
350
10FB
  3
DIMRAILOFFSET
350
10FC
  3
DIMRAILSENABLED
350
10FE
  0
DICTIONARY
  5
2E2
102
{ACAD_REACTORS
330
2E1
102
}
330
2E1
100
AcDbDictionary
281
     1
  3
ARGON_LAYERP_9
350
7AA
  0
DICTIONARY
  5
D22
102
{ACAD_REACTORS
330
2E1
102
}
330
2E1
100
AcDbDictionary
281
     1
1001
ACAD
1000
<All
  0
DIMASSOC
  5
FD8
102
{ACAD_REACTORS
330
FD7
102
}
330
FD7
100
AcDbDimAssoc
330
FD6
 90
        1
 70
     0
 71
     1
  1
AcDbOsnapPointRef
 72
    13
331
E49
 73
     0
 91
        0
 40
0.0
 10
0.0
 20
0.0
 30
0.0
 75
     0
  0
DIMASSOC
  5
1020
102
{ACAD_REACTORS
330
101F
102
}
330
101F
100
AcDbDimAssoc
330
101E
 90
        3
 70
     0
 71
     1
  1
AcDbOsnapPointRef
 72
    13
331
E55
 73
     0
 91
        0
 40
0.0
 10
0.0
 20
0.0
 30
0.0
 75
     0
  1
AcDbOsnapPointRef
 72
     1
331
E43
 73
     0
 91
        0
 40
0.0
 10
0.0
 20
0.0
 30
0.0
 75
     0
  0
DIMASSOC
  5
1085
102
{ACAD_REACTORS
330
1084
102
}
330
1084
100
AcDbDimAssoc
330
1083
 90
        3
 70
     0
 71
     1
  1
AcDbOsnapPointRef
 72
    13
331
E55
 73
     0
 91
        0
 40
0.0
 10
0.0
 20
0.0
 30
0.0
 75
     0
  1
AcDbOsnapPointRef
 72
     1
331
E3A
 73
     0
 91
        0
 40
0.0
 10
0.0
 20
0.0
 30
0.0
 75
     0
  0
DIMASSOC
  5
1109
102
{ACAD_REACTORS
330
1108
102
}
330
1108
100
AcDbDimAssoc
330
1107
 90
        1
 70
     0
 71
     1
  1
AcDbOsnapPointRef
 72
    13
331
E39
 73
     0
 91
        0
 40
0.0
 10
0.0
 20
0.0
 30
0.0
 75
     0
  0
DIMASSOC
  5
1128
102
{ACAD_REACTORS
330
1127
102
}
330
1127
100
AcDbDimAssoc
330
1126
 90
        1
 70
     0
 71
     1
  1
AcDbOsnapPointRef
 72
    13
331
E56
 73
     0
 91
        0
 40
0.0
 10
0.0
 20
0.0
 30
0.0
 75
     0
  0
DIMASSOC
  5
1163
102
{ACAD_REACTORS
330
1162
102
}
330
1162
100
AcDbDimAssoc
330
1161
 90
        3
 70
     0
 71
     1
  1
AcDbOsnapPointRef
 72
     1
331
E46
 73
     0
 91
        0
 40
0.0
 10
0.0
 20
0.0
 30
0.0
 75
     0
  1
AcDbOsnapPointRef
 72
     1
331
E44
 73
     0
 91
        0
 40
0.0
 10
0.0
 20
0.0
 30
0.0
 75
     0
  0
DIMASSOC
  5
1181
102
{ACAD_REACTORS
330
1180
102
}
330
1180
100
AcDbDimAssoc
330
117F
 90
        3
 70
     0
 71
     1
  1
AcDbOsnapPointRef
 72
     1
331
E51
 73
     0
 91
        0
 40
0.0
 10
0.0
 20
0.0
 30
0.0
 75
     0
  1
AcDbOsnapPointRef
 72
     1
331
E3A
 73
     0
 91
        0
 40
0.0
 10
0.0
 20
0.0
 30
0.0
 75
     0
  0
LAYOUT
  5
21
102
{ACAD_REACTORS
330
1E
102
}
330
1E
100
AcDbPlotSettings
  1

  2
none_device
  4
ISO_A3_(420.00_x_297.00_MM)
  6

 40
7.5
 41
20.0
 42
7.5
 43
20.0
 44
420.0
 45
297.0
 46
0.0
 47
0.0
 48
0.0
 49
0.0
140
0.0
141
0.0
142
1.0
143
1.0
 70
     0
 72
     1
 73
     0
 74
     0
  7

 75
     0
 76
     0
 77
     2
 78
   300
147
1.0
148
0.0
149
0.0
100
AcDbLayout
  1
Layout1
 70
     0
 71
     0
 10
-7.5
 20
-20.0
 11
412.5
 21
277.0
 12
0.0
 22
0.0
 32
0.0
 14
0.0
 24
0.0
 34
0.0
 15
0.0
 25
0.0
 35
0.0
146
0.0
 13
0.0
 23
0.0
 33
0.0
 16
0.0
 26
0.0
 36
0.0
 17
0.0
 27
0.0
 37
0.0
 76
     0
330
B
331
349
  0
LAYOUT
  5
20
102
{ACAD_REACTORS
330
1E
102
}
330
1E
100
AcDbPlotSettings
  1

  2
none_device
  4
ISO_A3_(420.00_x_297.00_MM)
  6

 40
7.5
 41
20.0
 42
7.5
 43
20.0
 44
420.0
 45
297.0
 46
0.0
 47
0.0
 48
0.0
 49
0.0
140
0.0
141
0.0
142
1.0
143
1.0
 70
  1024
 72
     1
 73
     0
 74
     0
  7

 75
     0
 76
     0
 77
     2
 78
   300
147
1.0
148
0.0
149
0.0
100
AcDbLayout
  1
Model
 70
     0
 71
     1
 10
0.0
 20
0.0
 11
1050.0
 21
1485.0
 12
0.0
 22
0.0
 32
0.0
 14
36.10107227362437
 24
31.89607416228557
 34
-0.0000000000000071
 15
1011.101072273866
 25
1448.573336753213
 35
0.0000000000000142
146
0.0
 13
0.0
 23
0.0
 33
0.0
 16
0.0
 26
0.0
 36
0.0
 17
0.0
 27
0.0
 37
0.0
 76
     0
330
A
331
15
  0
MATERIAL
  5
265
102
{ACAD_REACTORS
330
263
102
}
330
263
100
AcDbMaterial
  1
ByBlock
 72
     1
 94
      127
  0
MATERIAL
  5
264
102
{ACAD_REACTORS
330
263
102
}
330
263
100
AcDbMaterial
  1
ByLayer
 72
     1
 94
      127
  0
MATERIAL
  5
266
102
{ACAD_REACTORS
330
263
102
}
330
263
100
AcDbMaterial
  1
Global
 72
     1
 94
      127
  0
MLEADERSTYLE
  5
D59
102
{ACAD_REACTORS
330
336
102
}
330
336
100
AcDbMLeaderStyle
170
     2
171
     1
172
     0
 90
        2
 40
0.0
 41
0.0
173
     1
 91
-1056964608
340
11
 92
       -2
290
     1
 42
2.0
291
     1
 43
8.0
  3
Standard
341
0
 44
4.0
300

342
17
174
     1
178
     6
175
     1
176
     0
 93
-1056964608
 45
4.0
292
     0
297
     0
 46
4.0
343
0
 94
-1056964608
 47
1.0
 49
1.0
140
1.0
293
     1
141
0.0
294
     1
177
     0
142
1.0
295
     0
296
     0
143
3.75
1001
ACAD_MLEADERVER
1070
     2
  0
MLINESTYLE
  5
1C
102
{ACAD_REACTORS
330
1B
102
}
330
1B
100
AcDbMlineStyle
  2
Standard
 70
     0
  3

 62
     0
 51
90.0
 52
90.0
 71
     2
 49
0.5
 62
   256
  6
BYLAYER
 49
-0.5
 62
   256
  6
BYLAYER
  0
ACDBPLACEHOLDER
  5
1D
102
{ACAD_REACTORS
330
1F
102
}
330
1F
  0
SCALE
  5
D63
102
{ACAD_REACTORS
330
241
102
}
330
241
100
AcDbScale
 70
     0
300
1:1_XREF_XREF
140
1.0
141
1.0
290
     0
  0
SCALE
  5
242
102
{ACAD_REACTORS
330
241
102
}
330
241
100
AcDbScale
 70
     0
300
1:1
140
1.0
141
1.0
290
     1
  0
SCALE
  5
243
102
{ACAD_REACTORS
330
241
102
}
330
241
100
AcDbScale
 70
     0
300
1:2
140
1.0
141
2.0
290
     0
  0
SCALE
  5
244
102
{ACAD_REACTORS
330
241
102
}
330
241
100
AcDbScale
 70
     0
300
1:4
140
1.0
141
4.0
290
     0
  0
SCALE
  5
245
102
{ACAD_REACTORS
330
241
102
}
330
241
100
AcDbScale
 70
     0
300
1:5
140
1.0
141
5.0
290
     0
  0
SCALE
  5
246
102
{ACAD_REACTORS
330
241
102
}
330
241
100
AcDbScale
 70
     0
300
1:8
140
1.0
141
8.0
290
     0
  0
SCALE
  5
247
102
{ACAD_REACTORS
330
241
102
}
330
241
100
AcDbScale
 70
     0
300
1:10
140
1.0
141
10.0
290
     0
  0
SCALE
  5
248
102
{ACAD_REACTORS
330
241
102
}
330
241
100
AcDbScale
 70
     0
300
1:16
140
1.0
141
16.0
290
     0
  0
SCALE
  5
249
102
{ACAD_REACTORS
330
241
102
}
330
241
100
AcDbScale
 70
     0
300
1:20
140
1.0
141
20.0
290
     0
  0
SCALE
  5
24A
102
{ACAD_REACTORS
330
241
102
}
330
241
100
AcDbScale
 70
     0
300
1:30
140
1.0
141
30.0
290
     0
  0
SCALE
  5
24B
102
{ACAD_REACTORS
330
241
102
}
330
241
100
AcDbScale
 70
     0
300
1:40
140
1.0
141
40.0
290
     0
  0
SCALE
  5
24C
102
{ACAD_REACTORS
330
241
102
}
330
241
100
AcDbScale
 70
     0
300
1:50
140
1.0
141
50.0
290
     0
  0
SCALE
  5
24D
102
{ACAD_REACTORS
330
241
102
}
330
241
100
AcDbScale
 70
     0
300
1:100
140
1.0
141
100.0
290
     0
  0
SCALE
  5
24E
102
{ACAD_REACTORS
330
241
102
}
330
241
100
AcDbScale
 70
     0
300
2:1
140
2.0
141
1.0
290
     0
  0
SCALE
  5
24F
102
{ACAD_REACTORS
330
241
102
}
330
241
100
AcDbScale
 70
     0
300
4:1
140
4.0
141
1.0
290
     0
  0
SCALE
  5
250
102
{ACAD_REACTORS
330
241
102
}
330
241
100
AcDbScale
 70
     0
300
8:1
140
8.0
141
1.0
290
     0
  0
SCALE
  5
251
102
{ACAD_REACTORS
330
241
102
}
330
241
100
AcDbScale
 70
     0
300
10:1
140
10.0
141
1.0
290
     0
  0
SCALE
  5
252
102
{ACAD_REACTORS
330
241
102
}
330
241
100
AcDbScale
 70
     0
300
100:1
140
100.0
141
1.0
290
     0
  0
SCALE
  5
253
102
{ACAD_REACTORS
330
241
102
}
330
241
100
AcDbScale
 70
     0
300
1/128" = 1'-0"
140
0.0078125
141
12.0
290
     0
  0
SCALE
  5
254
102
{ACAD_REACTORS
330
241
102
}
330
241
100
AcDbScale
 70
     0
300
1/64" = 1'-0"
140
0.015625
141
12.0
290
     0
  0
SCALE
  5
255
102
{ACAD_REACTORS
330
241
102
}
330
241
100
AcDbScale
 70
     0
300
1/32" = 1'-0"
140
0.03125
141
12.0
290
     0
  0
SCALE
  5
256
102
{ACAD_REACTORS
330
241
102
}
330
241
100
AcDbScale
 70
     0
300
1/16" = 1'-0"
140
0.0625
141
12.0
290
     0
  0
SCALE
  5
257
102
{ACAD_REACTORS
330
241
102
}
330
241
100
AcDbScale
 70
     0
300
3/32" = 1'-0"
140
0.09375
141
12.0
290
     0
  0
SCALE
  5
258
102
{ACAD_REACTORS
330
241
102
}
330
241
100
AcDbScale
 70
     0
300
1/8" = 1'-0"
140
0.125
141
12.0
290
     0
  0
SCALE
  5
259
102
{ACAD_REACTORS
330
241
102
}
330
241
100
AcDbScale
 70
     0
300
3/16" = 1'-0"
140
0.1875
141
12.0
290
     0
  0
SCALE
  5
25A
102
{ACAD_REACTORS
330
241
102
}
330
241
100
AcDbScale
 70
     0
300
1/4" = 1'-0"
140
0.25
141
12.0
290
     0
  0
SCALE
  5
25B
102
{ACAD_REACTORS
330
241
102
}
330
241
100
AcDbScale
 70
     0
300
3/8" = 1'-0"
140
0.375
141
12.0
290
     0
  0
SCALE
  5
25C
102
{ACAD_REACTORS
330
241
102
}
330
241
100
AcDbScale
 70
     0
300
1/2" = 1'-0"
140
0.5
141
12.0
290
     0
  0
SCALE
  5
25D
102
{ACAD_REACTORS
330
241
102
}
330
241
100
AcDbScale
 70
     0
300
3/4" = 1'-0"
140
0.75
141
12.0
290
     0
  0
SCALE
  5
25E
102
{ACAD_REACTORS
330
241
102
}
330
241
100
AcDbScale
 70
     0
300
1" = 1'-0"
140
1.0
141
12.0
290
     0
  0
SCALE
  5
25F
102
{ACAD_REACTORS
330
241
102
}
330
241
100
AcDbScale
 70
     0
300
1-1/2" = 1'-0"
140
1.5
141
12.0
290
     0
  0
SCALE
  5
260
102
{ACAD_REACTORS
330
241
102
}
330
241
100
AcDbScale
 70
     0
300
3" = 1'-0"
140
3.0
141
12.0
290
     0
  0
SCALE
  5
261
102
{ACAD_REACTORS
330
241
102
}
330
241
100
AcDbScale
 70
     0
300
6" = 1'-0"
140
6.0
141
12.0
290
     0
  0
SCALE
  5
262
102
{ACAD_REACTORS
330
241
102
}
330
241
100
AcDbScale
 70
     0
300
1'-0" = 1'-0"
140
12.0
141
12.0
290
     0
  0
TABLESTYLE
  5
279
102
{ACAD_REACTORS
330
278
102
}
102
{ACAD_XDICTIONARY
360
12B7
102
}
330
278
100
AcDbTableStyle
  3
Standard
 70
     0
 71
     0
 40
0.06
 41
0.06
280
     0
281
     0
  7
Standard
140
4.5
170
     2
 62
     0
 63
   257
283
     0
 90
        4
 91
        0
  1

274
    -2
284
     1
 64
     0
275
    -2
285
     1
 65
     0
276
    -2
286
     1
 66
     0
277
    -2
287
     1
 67
     0
278
    -2
288
     1
 68
     0
279
    -2
289
     1
 69
     0
  7
Standard
140
6.0
170
     5
 62
     0
 63
   257
283
     0
 90
        4
 91
        0
  1

274
    -2
284
     1
 64
     0
275
    -2
285
     1
 65
     0
276
    -2
286
     1
 66
     0
277
    -2
287
     1
 67
     0
278
    -2
288
     1
 68
     0
279
    -2
289
     1
 69
     0
  7
Standard
140
4.5
170
     5
 62
     0
 63
   257
283
     0
 90
        4
 91
        0
  1

274
    -2
284
     1
 64
     0
275
    -2
285
     1
 65
     0
276
    -2
286
     1
 66
     0
277
    -2
287
     1
 67
     0
278
    -2
288
     1
 68
     0
279
    -2
289
     1
 69
     0
  0
VISUALSTYLE
  5
26C
102
{ACAD_REACTORS
330
267
102
}
330
267
100
AcDbVisualStyle
  2
2dWireframe
 70
     4
 71
     0
 72
     2
 73
     0
 90
        0
 40
-0.6
 41
-30.0
 62
     5
 63
     7
421
 16777215
 74
     1
 91
        4
 64
     7
 65
   257
 75
     1
175
     1
 42
1.0
 92
        0
 66
   257
 43
1.0
 76
     1
 77
     6
 78
     2
 67
     7
 79
     5
170
     0
171
     0
290
     0
174
     0
 93
        1
 44
0.0
173
     0
291
     0
 45
0.0
  0
VISUALSTYLE
  5
26E
102
{ACAD_REACTORS
330
267
102
}
330
267
100
AcDbVisualStyle
  2
3D Hidden
 70
     6
 71
     1
 72
     2
 73
     2
 90
        0
 40
-0.6
 41
-30.0
 62
     5
 63
     7
421
 16777215
 74
     2
 91
        2
 64
     7
 65
   257
 75
     2
175
     1
 42
40.0
 92
        0
 66
   257
 43
1.0
 76
     1
 77
     6
 78
     2
 67
     7
 79
     3
170
     0
171
     0
290
     0
174
     0
 93
        1
 44
0.0
173
     0
291
     0
 45
0.0
  0
VISUALSTYLE
  5
26D
102
{ACAD_REACTORS
330
267
102
}
330
267
100
AcDbVisualStyle
  2
3dWireframe
 70
     5
 71
     0
 72
     2
 73
     0
 90
        0
 40
-0.6
 41
-30.0
 62
     5
 63
     7
421
 16777215
 74
     1
 91
        4
 64
     7
 65
   257
 75
     1
175
     1
 42
1.0
 92
        0
 66
   257
 43
1.0
 76
     1
 77
     6
 78
     2
 67
     7
 79
     5
170
     0
171
     0
290
     0
174
     0
 93
        1
 44
0.0
173
     0
291
     0
 45
0.0
  0
VISUALSTYLE
  5
26F
102
{ACAD_REACTORS
330
267
102
}
330
267
100
AcDbVisualStyle
  2
Basic
 70
     7
 71
     1
 72
     0
 73
     1
 90
        0
 40
-0.6
 41
-30.0
 62
     5
 63
     7
421
 16777215
 74
     0
 91
        4
 64
     7
 65
   257
 75
     1
175
     1
 42
1.0
 92
        8
 66
     7
 43
1.0
 76
     1
 77
     6
 78
     2
 67
     7
 79
     5
170
     0
171
     0
290
     0
174
     0
 93
        1
 44
0.0
173
     0
291
     1
 45
0.0
  0
VISUALSTYLE
  5
273
102
{ACAD_REACTORS
330
267
102
}
330
267
100
AcDbVisualStyle
  2
Brighten
 70
    12
 71
     2
 72
     2
 73
     0
 90
        0
 40
-0.6
 41
-30.0
 62
     5
 63
     7
421
 16777215
 74
     1
 91
        4
 64
     7
 65
   257
 75
     1
175
     1
 42
1.0
 92
        8
 66
     7
 43
1.0
 76
     1
 77
     6
 78
     2
 67
     7
 79
     5
170
     0
171
     0
290
     0
174
     0
 93
        1
 44
50.0
173
     0
291
     1
 45
0.0
  0
VISUALSTYLE
  5
277
102
{ACAD_REACTORS
330
267
102
}
330
267
100
AcDbVisualStyle
  2
ColorChange
 70
    16
 71
     2
 72
     2
 73
     3
 90
        0
 40
-0.6
 41
-30.0
 62
     5
 63
     8
421
  8421504
 74
     1
 91
        4
 64
     7
 65
   257
 75
     1
175
     1
 42
1.0
 92
        8
 66
     8
424
  8421504
 43
1.0
 76
     1
 77
     6
 78
     2
 67
     7
 79
     5
170
     0
171
     0
290
     0
174
     0
 93
        1
 44
0.0
173
     0
291
     1
 45
0.0
  0
VISUALSTYLE
  5
271
102
{ACAD_REACTORS
330
267
102
}
330
267
100
AcDbVisualStyle
  2
Conceptual
 70
     9
 71
     3
 72
     2
 73
     0
 90
        0
 40
-0.6
 41
-30.0
 62
     5
 63
     7
421
 16777215
 74
     2
 91
        2
 64
     7
 65
   257
 75
     1
175
     1
 42
40.0
 92
        8
 66
     7
 43
1.0
 76
     1
 77
     6
 78
     2
 67
     7
 79
     3
170
     0
171
     0
290
     0
174
     0
 93
        1
 44
0.0
173
     0
291
     0
 45
0.0
  0
VISUALSTYLE
  5
272
102
{ACAD_REACTORS
330
267
102
}
330
267
100
AcDbVisualStyle
  2
Dim
 70
    11
 71
     2
 72
     2
 73
     0
 90
        0
 40
-0.6
 41
-30.0
 62
     5
 63
     7
421
 16777215
 74
     1
 91
        4
 64
     7
 65
   257
 75
     1
175
     1
 42
1.0
 92
        8
 66
     7
 43
1.0
 76
     1
 77
     6
 78
     2
 67
     7
 79
     5
170
     0
171
     0
290
     0
174
     0
 93
        1
 44
-50.0
173
     0
291
     1
 45
0.0
  0
VISUALSTYLE
  5
8FE
102
{ACAD_REACTORS
330
267
102
}
330
267
100
AcDbVisualStyle
  2
EdgeColorOff
 70
    22
 71
     2
 72
     2
 73
     0
 90
        0
 40
0.6
 41
30.0
 62
     5
 63
     7
421
 16777215
 74
     1
 91
        4
 64
     7
 65
   257
 75
     1
175
     1
 42
1.0
 92
        8
 66
     7
 43
1.0
 76
     1
 77
     6
 78
     2
 67
     7
 79
     5
170
     0
171
     0
290
     0
174
     0
 93
        1
 44
0.0
173
     0
291
     1
 45
0.0
  0
VISUALSTYLE
  5
276
102
{ACAD_REACTORS
330
267
102
}
330
267
100
AcDbVisualStyle
  2
Facepattern
 70
    15
 71
     2
 72
     2
 73
     0
 90
        0
 40
-0.6
 41
-30.0
 62
     5
 63
     7
421
 16777215
 74
     1
 91
        4
 64
     7
 65
   257
 75
     1
175
     1
 42
1.0
 92
        8
 66
     7
 43
1.0
 76
     1
 77
     6
 78
     2
 67
     7
 79
     5
170
     0
171
     0
290
     0
174
     0
 93
        1
 44
0.0
173
     0
291
     1
 45
0.0
  0
VISUALSTYLE
  5
268
102
{ACAD_REACTORS
330
267
102
}
330
267
100
AcDbVisualStyle
  2
Flat
 70
     0
 71
     2
 72
     1
 73
     1
 90
        2
 40
-0.6
 41
30.0
 62
     5
 63
     7
421
 16777215
 74
     0
 91
        4
 64
     7
 65
   257
 75
     1
175
     1
 42
1.0
 92
        8
 66
     7
 43
1.0
 76
     1
 77
     6
 78
     2
 67
     7
 79
     5
170
     0
171
     0
290
     0
174
     0
 93
       13
 44
0.0
173
     0
291
     1
 45
0.0
  0
VISUALSTYLE
  5
269
102
{ACAD_REACTORS
330
267
102
}
330
267
100
AcDbVisualStyle
  2
FlatWithEdges
 70
     1
 71
     2
 72
     1
 73
     1
 90
        2
 40
-0.6
 41
30.0
 62
     5
 63
     7
421
 16777215
 74
     1
 91
        4
 64
     7
 65
   257
 75
     1
175
     1
 42
1.0
 92
        0
 66
   257
 43
1.0
 76
     1
 77
     6
 78
     2
 67
     7
 79
     5
170
     0
171
     0
290
     0
174
     0
 93
       13
 44
0.0
173
     0
291
     1
 45
0.0
  0
VISUALSTYLE
  5
26A
102
{ACAD_REACTORS
330
267
102
}
330
267
100
AcDbVisualStyle
  2
Gouraud
 70
     2
 71
     2
 72
     2
 73
     1
 90
        2
 40
-0.6
 41
30.0
 62
     5
 63
     7
421
 16777215
 74
     0
 91
        4
 64
     7
 65
   257
 75
     1
175
     1
 42
1.0
 92
        0
 66
     7
 43
1.0
 76
     1
 77
     6
 78
     2
 67
     7
 79
     5
170
     0
171
     0
290
     0
174
     0
 93
       13
 44
0.0
173
     0
291
     1
 45
0.0
  0
VISUALSTYLE
  5
26B
102
{ACAD_REACTORS
330
267
102
}
330
267
100
AcDbVisualStyle
  2
GouraudWithEdges
 70
     3
 71
     2
 72
     2
 73
     1
 90
        2
 40
-0.6
 41
30.0
 62
     5
 63
     7
421
 16777215
 74
     1
 91
        4
 64
     7
 65
   257
 75
     1
175
     1
 42
1.0
 92
        0
 66
   257
 43
1.0
 76
     1
 77
     6
 78
     2
 67
     7
 79
     5
170
     0
171
     0
290
     0
174
     0
 93
       13
 44
0.0
173
     0
291
     1
 45
0.0
  0
VISUALSTYLE
  5
8FB
102
{ACAD_REACTORS
330
267
102
}
330
267
100
AcDbVisualStyle
  2
Hidden
 70
     6
 71
     1
 72
     2
 73
     2
 90
        0
 40
0.6
 41
30.0
 62
     5
 63
     7
421
 16777215
 74
     2
 91
        2
 64
     7
 65
   257
 75
     2
175
     1
 42
40.0
 92
        0
 66
   257
 43
1.0
 76
     1
 77
     6
 78
     2
 67
     7
 79
     3
170
     0
171
     0
290
     0
174
     0
 93
        1
 44
0.0
173
     0
291
     0
 45
0.0
  0
VISUALSTYLE
  5
8FC
102
{ACAD_REACTORS
330
267
102
}
330
267
100
AcDbVisualStyle
  2
JitterOff
 70
    20
 71
     2
 72
     2
 73
     0
 90
        0
 40
0.6
 41
30.0
 62
     5
 63
     7
421
 16777215
 74
     1
 91
        4
 64
     7
 65
   257
 75
     1
175
     1
 42
1.0
 92
       10
 66
     7
 43
1.0
 76
     1
 77
     6
 78
     2
 67
     7
 79
     5
170
     0
171
     0
290
     0
174
     0
 93
        1
 44
0.0
173
     0
291
     1
 45
0.0
  0
VISUALSTYLE
  5
275
102
{ACAD_REACTORS
330
267
102
}
330
267
100
AcDbVisualStyle
  2
Linepattern
 70
    14
 71
     2
 72
     2
 73
     0
 90
        0
 40
-0.6
 41
-30.0
 62
     5
 63
     7
421
 16777215
 74
     1
 91
        4
 64
     7
 65
   257
 75
     7
175
     7
 42
1.0
 92
        8
 66
     7
 43
1.0
 76
     1
 77
     6
 78
     2
 67
     7
 79
     5
170
     0
171
     0
290
     0
174
     0
 93
        1
 44
0.0
173
     0
291
     1
 45
0.0
  0
VISUALSTYLE
  5
8FD
102
{ACAD_REACTORS
330
267
102
}
330
267
100
AcDbVisualStyle
  2
OverhangOff
 70
    21
 71
     2
 72
     2
 73
     0
 90
        0
 40
0.6
 41
30.0
 62
     5
 63
     7
421
 16777215
 74
     1
 91
        4
 64
     7
 65
   257
 75
     1
175
     1
 42
1.0
 92
        9
 66
     7
 43
1.0
 76
     1
 77
     6
 78
     2
 67
     7
 79
     5
170
     0
171
     0
290
     0
174
     0
 93
        1
 44
0.0
173
     0
291
     1
 45
0.0
  0
VISUALSTYLE
  5
270
102
{ACAD_REACTORS
330
267
102
}
330
267
100
AcDbVisualStyle
  2
Realistic
 70
     8
 71
     2
 72
     2
 73
     0
 90
        0
 40
-0.6
 41
-30.0
 62
     5
 63
     7
421
 16777215
 74
     1
 91
        0
 64
     7
 65
   257
 75
     1
175
     1
 42
1.0
 92
        8
 66
     8
424
  7895160
 43
1.0
 76
     1
 77
     6
 78
     2
 67
     7
 79
     5
170
     0
171
     0
290
     0
174
     0
 93
       13
 44
0.0
173
     0
291
     0
 45
0.0
  0
VISUALSTYLE
  5
903
102
{ACAD_REACTORS
330
267
102
}
330
267
100
AcDbVisualStyle
  2
Shaded
 70
    27
 71
     2
 72
     2
 73
     1
 90
        2
 40
0.6
 41
30.0
 62
     5
 63
     7
421
 16777215
 74
     0
 91
        4
 64
     7
 65
   257
 75
     1
175
     1
 42
1.0
 92
        8
 66
   257
 43
1.0
 76
     1
 77
     6
 78
     2
 67
     8
425
  7895160
 79
     3
170
     0
171
     0
290
     0
174
     0
 93
        5
 44
0.0
173
     0
291
     0
 45
0.0
  0
VISUALSTYLE
  5
902
102
{ACAD_REACTORS
330
267
102
}
330
267
100
AcDbVisualStyle
  2
Shaded with edges
 70
    26
 71
     2
 72
     2
 73
     1
 90
        2
 40
0.6
 41
30.0
 62
     5
 63
     7
421
 16777215
 74
     1
 91
       10
 64
     7
 65
   257
 75
     2
175
     1
 42
1.0
 92
        8
 66
   257
 43
1.0
 76
     1
 77
     6
 78
     2
 67
     7
 79
     3
170
     0
171
     0
290
     0
174
     0
 93
        5
 44
0.0
173
     0
291
     0
 45
0.0
  0
VISUALSTYLE
  5
8FF
102
{ACAD_REACTORS
330
267
102
}
330
267
100
AcDbVisualStyle
  2
Shades of Gray
 70
    23
 71
     2
 72
     2
 73
     3
 90
        0
 40
0.6
 41
30.0
 62
     5
 63
     7
421
 16777215
 74
     2
 91
        2
 64
     7
 65
     7
 75
     1
175
     1
 42
40.0
 92
        8
 66
     7
 43
1.0
 76
     1
 77
     6
 78
     2
 67
     7
 79
     3
170
     0
171
     0
290
     0
174
     0
 93
        1
 44
0.0
173
     0
291
     0
 45
0.0
  0
VISUALSTYLE
  5
900
102
{ACAD_REACTORS
330
267
102
}
330
267
100
AcDbVisualStyle
  2
Sketchy
 70
    24
 71
     1
 72
     2
 73
     2
 90
        0
 40
0.6
 41
30.0
 62
     5
 63
     7
421
 16777215
 74
     2
 91
        2
 64
     7
 65
     7
 75
     1
175
     1
 42
40.0
 92
       11
 66
     7
 43
1.0
 76
     1
 77
     6
 78
     2
 67
     7
 79
     6
170
     0
171
     0
290
     0
174
     0
 93
        1
 44
0.0
173
     0
291
     0
 45
0.0
  0
VISUALSTYLE
  5
274
102
{ACAD_REACTORS
330
267
102
}
330
267
100
AcDbVisualStyle
  2
Thicken
 70
    13
 71
     2
 72
     2
 73
     0
 90
        0
 40
-0.6
 41
-30.0
 62
     5
 63
     7
421
 16777215
 74
     1
 91
        4
 64
     7
 65
   257
 75
     1
175
     1
 42
1.0
 92
       12
 66
     7
 43
1.0
 76
     1
 77
     6
 78
     2
 67
     7
 79
     5
170
     0
171
     0
290
     0
174
     0
 93
        1
 44
0.0
173
     0
291
     1
 45
0.0
  0
VISUALSTYLE
  5
8FA
102
{ACAD_REACTORS
330
267
102
}
330
267
100
AcDbVisualStyle
  2
Wireframe
 70
     5
 71
     0
 72
     2
 73
     0
 90
        0
 40
0.6
 41
30.0
 62
     5
 63
     7
421
 16777215
 74
     1
 91
        4
 64
     7
 65
   257
 75
     1
175
     1
 42
1.0
 92
        0
 66
   257
 43
1.0
 76
     1
 77
     6
 78
     2
 67
     7
 79
     3
170
     0
171
     0
290
     0
174
     0
 93
        1
 44
0.0
173
     0
291
     0
 45
0.0
  0
VISUALSTYLE
  5
901
102
{ACAD_REACTORS
330
267
102
}
330
267
100
AcDbVisualStyle
  2
X-Ray
 70
    25
 71
     2
 72
     2
 73
     1
 90
        1
 40
0.5
 41
30.0
 62
     5
 63
     7
421
 16777215
 74
     1
 91
        0
 64
     7
 65
   257
 75
     1
175
     1
 42
1.0
 92
        8
 66
     7
 43
1.0
 76
     1
 77
     6
 78
     2
 67
     7
 79
     3
170
     0
171
     0
290
     0
174
     0
 93
       13
 44
0.0
173
     0
291
     0
 45
0.0
  0
DICTIONARYVAR
  5
331
102
{ACAD_REACTORS
330
330
102
}
330
330
100
DictionaryVariables
280
     0
  1
1:1
  0
DICTIONARYVAR
  5
EA4
102
{ACAD_REACTORS
330
330
102
}
330
330
100
DictionaryVariables
280
     0
  1
Standard
  0
DICTIONARYVAR
  5
335
102
{ACAD_REACTORS
330
330
102
}
330
330
100
DictionaryVariables
280
     0
  1
Standard
  0
DICTIONARYVAR
  5
D52
102
{ACAD_REACTORS
330
330
102
}
330
330
100
DictionaryVariables
280
     0
  1
ByLayer
  0
DICTIONARYVAR
  5
896
102
{ACAD_REACTORS
330
330
102
}
330
330
100
DictionaryVariables
280
     0
  1
0
  0
DICTIONARYVAR
  5
10FD
102
{ACAD_REACTORS
330
EE7
102
}
330
EE7
100
DictionaryVariables
280
     0
  1
0.261799
  0
DICTIONARYVAR
  5
10FB
102
{ACAD_REACTORS
330
EE7
102
}
330
EE7
100
DictionaryVariables
280
     0
  1
0.400000
  0
DICTIONARYVAR
  5
10FC
102
{ACAD_REACTORS
330
EE7
102
}
330
EE7
100
DictionaryVariables
280
     0
  1
0.250000
  0
DICTIONARYVAR
  5
10FE
102
{ACAD_REACTORS
330
EE7
102
}
330
EE7
100
DictionaryVariables
280
     0
  1
1
  0
XRECORD
  5
7AA
102
{ACAD_REACTORS
330
2E2
102
}
330
2E2
100
AcDbXrecord
280
     1
 91
    34815
301

290
     0
302
MODEL
330
14
 90
        8
 62
     7
370
    -3
331
13
  1
Color_7
440
 33554687
330
4B
 90
        8
 62
     7
370
    20
331
13
  1
Color_7
440
 33554687
330
4C
 90
        8
 62
     7
370
    13
331
13
  1
Color_7
440
 33554687
330
4D
 90
        8
 62
     7
370
    20
331
13
  1
Color_7
440
 33554687
330
667
 90
        8
 62
     7
370
    -3
331
13
  1
Color_7
440
 33554687
330
88C
 90
        8
 62
     7
370
    20
331
45
  1
Color_7
440
 33554687
330
E85
 90
        0
 62
     7
370
    -3
331
13
  1
Color_7
440
 33554687
  0
DICTIONARY
  5
12B7
330
279
100
AcDbDictionary
280
     1
281
     1
  3
ACAD_ROUNDTRIP_2008_TABLESTYLE_CELLSTYLEMAP
360
12B8
  0
CELLSTYLEMAP
  5
12B8
102
{ACAD_REACTORS
330
12B7
102
}
330
12B7
100
AcDbCellStyleMap
 90
        3
300
CELLSTYLE
  1
TABLEFORMAT_BEGIN
 90
        5
170
     1
 91
        0
 92
    32768
 62
   257
 93
        1
300
CONTENTFORMAT
  1
CONTENTFORMAT_BEGIN
 90
        0
 91
        0
 92
        4
 93
        0
300

 40
0.0
140
1.0
 94
        5
 62
     0
340
17
144
6.0
309
CONTENTFORMAT_END
171
     1
301
MARGIN
  1
CELLMARGIN_BEGIN
 40
0.06
 40
0.06
 40
0.06
 40
0.06
 40
0.18
 40
0.18
309
CELLMARGIN_END
 94
        6
 95
        1
302
GRIDFORMAT
  1
GRIDFORMAT_BEGIN
 90
        0
 91
        1
 62
     0
 92
       -2
340
0
 93
        0
 40
0.045
309
GRIDFORMAT_END
 95
        2
302
GRIDFORMAT
  1
GRIDFORMAT_BEGIN
 90
        0
 91
        1
 62
     0
 92
       -2
340
0
 93
        0
 40
0.045
309
GRIDFORMAT_END
 95
        4
302
GRIDFORMAT
  1
GRIDFORMAT_BEGIN
 90
        0
 91
        1
 62
     0
 92
       -2
340
0
 93
        0
 40
0.045
309
GRIDFORMAT_END
 95
        8
302
GRIDFORMAT
  1
GRIDFORMAT_BEGIN
 90
        0
 91
        1
 62
     0
 92
       -2
340
0
 93
        0
 40
0.045
309
GRIDFORMAT_END
 95
       16
302
GRIDFORMAT
  1
GRIDFORMAT_BEGIN
 90
        0
 91
        1
 62
     0
 92
       -2
340
0
 93
        0
 40
0.045
309
GRIDFORMAT_END
 95
       32
302
GRIDFORMAT
  1
GRIDFORMAT_BEGIN
 90
        0
 91
        1
 62
     0
 92
       -2
340
0
 93
        0
 40
0.045
309
GRIDFORMAT_END
309
TABLEFORMAT_END
  1
CELLSTYLE_BEGIN
 90
        1
 91
        1
300
_TITLE
309
CELLSTYLE_END
300
CELLSTYLE
  1
TABLEFORMAT_BEGIN
 90
        5
170
     1
 91
        0
 92
        0
 62
   257
 93
        1
300
CONTENTFORMAT
  1
CONTENTFORMAT_BEGIN
 90
        0
 91
        0
 92
        4
 93
        0
300

 40
0.0
140
1.0
 94
        5
 62
     0
340
17
144
4.5
309
CONTENTFORMAT_END
171
     1
301
MARGIN
  1
CELLMARGIN_BEGIN
 40
0.06
 40
0.06
 40
0.06
 40
0.06
 40
0.18
 40
0.18
309
CELLMARGIN_END
 94
        6
 95
        1
302
GRIDFORMAT
  1
GRIDFORMAT_BEGIN
 90
        0
 91
        1
 62
     0
 92
       -2
340
0
 93
        0
 40
0.045
309
GRIDFORMAT_END
 95
        2
302
GRIDFORMAT
  1
GRIDFORMAT_BEGIN
 90
        0
 91
        1
 62
     0
 92
       -2
340
0
 93
        0
 40
0.045
309
GRIDFORMAT_END
 95
        4
302
GRIDFORMAT
  1
GRIDFORMAT_BEGIN
 90
        0
 91
        1
 62
     0
 92
       -2
340
0
 93
        0
 40
0.045
309
GRIDFORMAT_END
 95
        8
302
GRIDFORMAT
  1
GRIDFORMAT_BEGIN
 90
        0
 91
        1
 62
     0
 92
       -2
340
0
 93
        0
 40
0.045
309
GRIDFORMAT_END
 95
       16
302
GRIDFORMAT
  1
GRIDFORMAT_BEGIN
 90
        0
 91
        1
 62
     0
 92
       -2
340
0
 93
        0
 40
0.045
309
GRIDFORMAT_END
 95
       32
302
GRIDFORMAT
  1
GRIDFORMAT_BEGIN
 90
        0
 91
        1
 62
     0
 92
       -2
340
0
 93
        0
 40
0.045
309
GRIDFORMAT_END
309
TABLEFORMAT_END
  1
CELLSTYLE_BEGIN
 90
        2
 91
        1
300
_HEADER
309
CELLSTYLE_END
300
CELLSTYLE
  1
TABLEFORMAT_BEGIN
 90
        5
170
     1
 91
        0
 92
        0
 62
   257
 93
        1
300
CONTENTFORMAT
  1
CONTENTFORMAT_BEGIN
 90
        0
 91
        0
 92
        4
 93
        0
300

 40
0.0
140
1.0
 94
        2
 62
     0
340
17
144
4.5
309
CONTENTFORMAT_END
171
     1
301
MARGIN
  1
CELLMARGIN_BEGIN
 40
0.06
 40
0.06
 40
0.06
 40
0.06
 40
0.18
 40
0.18
309
CELLMARGIN_END
 94
        6
 95
        1
302
GRIDFORMAT
  1
GRIDFORMAT_BEGIN
 90
        0
 91
        1
 62
     0
 92
       -2
340
0
 93
        0
 40
0.045
309
GRIDFORMAT_END
 95
        2
302
GRIDFORMAT
  1
GRIDFORMAT_BEGIN
 90
        0
 91
        1
 62
     0
 92
       -2
340
0
 93
        0
 40
0.045
309
GRIDFORMAT_END
 95
        4
302
GRIDFORMAT
  1
GRIDFORMAT_BEGIN
 90
        0
 91
        1
 62
     0
 92
       -2
340
0
 93
        0
 40
0.045
309
GRIDFORMAT_END
 95
        8
302
GRIDFORMAT
  1
GRIDFORMAT_BEGIN
 90
        0
 91
        1
 62
     0
 92
       -2
340
0
 93
        0
 40
0.045
309
GRIDFORMAT_END
 95
       16
302
GRIDFORMAT
  1
GRIDFORMAT_BEGIN
 90
        0
 91
        1
 62
     0
 92
       -2
340
0
 93
        0
 40
0.045
309
GRIDFORMAT_END
 95
       32
302
GRIDFORMAT
  1
GRIDFORMAT_BEGIN
 90
        0
 91
        1
 62
     0
 92
       -2
340
0
 93
        0
 40
0.045
309
GRIDFORMAT_END
309
TABLEFORMAT_END
  1
CELLSTYLE_BEGIN
 90
        3
 91
        2
300
_DATA
309
CELLSTYLE_END
  0
ENDSEC
  0
EOF
