  0
SECTION
  2
HEADER
  9
$ACADVER
  1
AC1014
  9
$ACADMAINTVER
 70
     0
  9
$DWGCODEPAGE
  3
ANSI_932
  9
$INSBASE
 10
0.0
 20
0.0
 30
0.0
  9
$EXTMIN
 10
-10.0
 20
-10.0
 30
0.0
  9
$EXTMAX
 10
200.0
 20
287.0
 30
0.0
  9
$LIMMIN
 10
0.0
 20
0.0
  9
$LIMMAX
 10
0.0
 20
0.0
  9
$ORTHOMODE
 70
     0
  9
$REGENMODE
 70
     1
  9
$FILLMODE
 70
     1
  9
$QTEXTMODE
 70
     0
  9
$MIRRTEXT
 70
     1
  9
$DRAGMODE
 70
     2
  9
$LTSCALE
 40
0.1
  9
$OSMODE
 70
     0
  9
$ATTMODE
 70
     1
  9
$TEXTSIZE
 40
0.0
  9
$TRACEWID
 40
0.05
  9
$TEXTSTYLE
  7
STANDARD
  9
$CLAYER
  8
0
  9
$CELTYPE
  6
CONTINUOUS
  9
$CECOLOR
 62
   256
  9
$CELTSCALE
 40
1.0
  9
$DELOBJ
 70
     1
  9
$DISPSILH
 70
     0
  9
$DIMSCALE
 40
1.0
  9
$DIMASZ
 40
2.0
  9
$DIMEXO
 40
2.0
  9
$DIMDLI
 40
0.5
  9
$DIMRND
 40
0.0
  9
$DIMDLE
 40
0.0
  9
$DIMEXE
 40
1.0
  9
$DIMTP
 40
0.0
  9
$DIMTM
 40
0.0
  9
$DIMTXT
 40
3.0
  9
$DIMCEN
 40
0.0
  9
$DIMTSZ
 40
0.0
  9
$DIMTOL
 70
     0
  9
$DIMLIM
 70
     0
  9
$DIMTIH
 70
     0
  9
$DIMTOH
 70
     1
  9
$DIMSE1
 70
     0
  9
$DIMSE2
 70
     0
  9
$DIMTAD
 70
     1
  9
$DIMZIN
 70
     8
  9
$DIMBLK
  1
OPEN30
  9
$DIMASO
 70
     1
  9
$DIMSHO
 70
     1
  9
$DIMPOST
  1

  9
$DIMAPOST
  1

  9
$DIMALT
 70
     0
  9
$DIMALTD
 70
     2
  9
$DIMALTF
 40
25.4
  9
$DIMLFAC
 40
1.0
  9
$DIMTOFL
 70
     0
  9
$DIMTVP
 40
0.0
  9
$DIMTIX
 70
     1
  9
$DIMSOXD
 70
     0
  9
$DIMSAH
 70
     0
  9
$DIMBLK1
  1

  9
$DIMBLK2
  1

  9
$DIMSTYLE
  2
STANDARD
  9
$DIMCLRD
 70
   256
  9
$DIMCLRE
 70
   256
  9
$DIMCLRT
 70
     3
  9
$DIMTFAC
 40
1.0
  9
$DIMGAP
 40
1.0
  9
$DIMJUST
 70
     0
  9
$DIMSD1
 70
     0
  9
$DIMSD2
 70
     0
  9
$DIMTOLJ
 70
     1
  9
$DIMTZIN
 70
     0
  9
$DIMALTZ
 70
     0
  9
$DIMALTTZ
 70
     0
  9
$DIMFIT
 70
     5
  9
$DIMUPT
 70
     0
  9
$DIMUNIT
 70
     2
  9
$DIMDEC
 70
     1
  9
$DIMTDEC
 70
     1
  9
$DIMALTU
 70
     2
  9
$DIMALTTD
 70
     2
  9
$DIMTXSTY
  7
STANDARD
  9
$DIMAUNIT
 70
     0
  9
$LUNITS
 70
     2
  9
$LUPREC
 70
     4
  9
$SKETCHINC
 40
0.1
  9
$FILLETRAD
 40
0.0
  9
$AUNITS
 70
     0
  9
$AUPREC
 70
     0
  9
$MENU
  1
acad
  9
$ELEVATION
 40
0.0
  9
$PELEVATION
 40
0.0
  9
$THICKNESS
 40
0.0
  9
$LIMCHECK
 70
     0
  9
$BLIPMODE
 70
     0
  9
$CHAMFERA
 40
0.0
  9
$CHAMFERB
 40
0.0
  9
$CHAMFERC
 40
0.0
  9
$CHAMFERD
 40
0.0
  9
$SKPOLY
 70
     0
  9
$TDCREATE
 40
2312272.457674340
  9
$TDUPDATE
 40
2454000.783580358
  9
$TDINDWG
 40
0.1917959606
  9
$TDUSRTIMER
 40
0.1917954167
  9
$USRTIMER
 70
     1
  9
$ANGBASE
 50
0.0
  9
$ANGDIR
 70
     0
  9
$PDMODE
 70
     0
  9
$PDSIZE
 40
0.0
  9
$PLINEWID
 40
0.0
  9
$COORDS
 70
     0
  9
$SPLFRAME
 70
     0
  9
$SPLINETYPE
 70
     6
  9
$SPLINESEGS
 70
     8
  9
$ATTDIA
 70
     0
  9
$ATTREQ
 70
     1
  9
$HANDLING
 70
 22529
  9
$HANDSEED
  5
3B56
  9
$SURFTAB1
 70
     6
  9
$SURFTAB2
 70
     6
  9
$SURFTYPE
 70
     6
  9
$SURFU
 70
     6
  9
$SURFV
 70
     6
  9
$UCSNAME
  2

  9
$UCSORG
 10
0.0
 20
0.0
 30
0.0
  9
$UCSXDIR
 10
1.0
 20
0.0
 30
0.0
  9
$UCSYDIR
 10
0.0
 20
1.0
 30
0.0
  9
$PUCSNAME
  2

  9
$PUCSORG
 10
0.0
 20
0.0
 30
0.0
  9
$PUCSXDIR
 10
1.0
 20
0.0
 30
0.0
  9
$PUCSYDIR
 10
0.0
 20
1.0
 30
0.0
  9
$USERI1
 70
     0
  9
$USERI2
 70
     0
  9
$USERI3
 70
     0
  9
$USERI4
 70
     0
  9
$USERI5
 70
     0
  9
$USERR1
 40
12.01
  9
$USERR2
 40
0.0
  9
$USERR3
 40
0.0
  9
$USERR4
 40
0.0
  9
$USERR5
 40
0.0
  9
$WORLDVIEW
 70
     1
  9
$SHADEDGE
 70
     3
  9
$SHADEDIF
 70
    70
  9
$TILEMODE
 70
     1
  9
$MAXACTVP
 70
    16
  9
$PINSBASE
 10
0.0
 20
0.0
 30
0.0
  9
$PLIMCHECK
 70
     0
  9
$PEXTMIN
 10
1.000000000000000E+20
 20
1.000000000000000E+20
 30
1.000000000000000E+20
  9
$PEXTMAX
 10
-1.000000000000000E+20
 20
-1.000000000000000E+20
 30
-1.000000000000000E+20
  9
$PLIMMIN
 10
0.0
 20
0.0
  9
$PLIMMAX
 10
12.0
 20
9.0
  9
$UNITMODE
 70
     0
  9
$VISRETAIN
 70
     0
  9
$PLINEGEN
 70
     1
  9
$PSLTSCALE
 70
     0
  9
$TREEDEPTH
 70
  3020
  9
$PICKSTYLE
 70
     1
  9
$CMLSTYLE
  2
STANDARD
  9
$CMLJUST
 70
     0
  9
$CMLSCALE
 40
1.0
  9
$PROXYGRAPHICS
 70
     0
  9
$MEASUREMENT
 70
     1
  0
ENDSEC
  0
SECTION
  2
CLASSES
  0
CLASS
  1
LWPOLYLINE
  2
AcDbPolyline
  3
AutoCAD 2000
 90
        0
280
     0
281
     1
  0
CLASS
  1
IMAGE
  2
AcDbRasterImage
  3
ISM
 90
      127
280
     0
281
     1
  0
CLASS
  1
OLE2FRAME
  2
AcDbOle2Frame
  3
AutoCAD 2000
 90
        0
280
     0
281
     1
  0
CLASS
  1
HATCH
  2
AcDbHatch
  3
AutoCAD 2000
 90
        0
280
     0
281
     1
  0
CLASS
  1
DICTIONARYVAR
  2
AcDbDictionaryVar
  3
AutoCAD 2000
 90
        0
280
     0
281
     0
  0
CLASS
  1
RASTERVARIABLES
  2
AcDbRasterVariables
  3
ISM
 90
        0
280
     0
281
     0
  0
CLASS
  1
IMAGEDEF
  2
AcDbRasterImageDef
  3
ISM
 90
        0
280
     0
281
     0
  0
CLASS
  1
IMAGEDEF_REACTOR
  2
AcDbRasterImageDefReactor
  3
ISM
 90
        1
280
     0
281
     0
  0
CLASS
  1
IDBUFFER
  2
AcDbIdBuffer
  3
AutoCAD 2000
 90
        0
280
     0
281
     0
  0
CLASS
  1
SPATIAL_FILTER
  2
AcDbSpatialFilter
  3
AutoCAD 2000
 90
        0
280
     0
281
     0
  0
CLASS
  1
XRECORD
  2
AcDbXrecord
  3
AutoCAD 2000
 90
        0
280
     0
281
     0
  0
CLASS
  1
SORTENTSTABLE
  2
AcDbSortentsTable
  3
AutoCAD 2000
 90
        0
280
     0
281
     0
  0
CLASS
  1
LAYER_INDEX
  2
AcDbLayerIndex
  3
AutoCAD 2000
 90
        0
280
     0
281
     0
  0
CLASS
  1
SPATIAL_INDEX
  2
AcDbSpatialIndex
  3
AutoCAD 2000
 90
        0
280
     0
281
     0
  0
CLASS
  1
OBJECT_PTR
  2
CAseDLPNTableRecord
  3
ASE-LPNTableRecord
 90
        1
280
     0
281
     0
  0
CLASS
  1
LAYOUT
  2
AcDbLayout
  3
AutoCAD 2000
 90
        0
280
     0
281
     0
  0
CLASS
  1
PLOTSETTINGS
  2
AcDbPlotSettings
  3
AutoCAD 2000
 90
        0
280
     0
281
     0
  0
CLASS
  1
ACDBDICTIONARYWDFLT
  2
AcDbDictionaryWithDefault
  3
AutoCAD 2000
 90
        0
280
     0
281
     0
  0
CLASS
  1
ACDBPLACEHOLDER
  2
AcDbPlaceHolder
  3
AutoCAD 2000
 90
        0
280
     0
281
     0
  0
CLASS
  1
LONG_TRANSACTION
  2
AcDbLongTransaction
  3
AutoCAD 2000
 90
        0
280
     0
281
     0
  0
CLASS
  1
LWPOLYLINE
  2
AcDbPolyline
  3
AutoCAD 2000
 90
        0
280
     0
281
     1
  0
CLASS
  1
HATCH
  2
AcDbHatch
  3
AutoCAD 2000
 90
        0
280
     0
281
     1
  0
CLASS
  1
XRECORD
  2
AcDbXrecord
  3
AutoCAD 2000
 90
        0
280
     0
281
     0
  0
ENDSEC
  0
SECTION
  2
TABLES
  0
TABLE
  2
VPORT
  5
7
330
0
100
AcDbSymbolTable
 70
     3
  0
VPORT
  5
3B31
330
7
100
AcDbSymbolTableRecord
100
AcDbViewportTableRecord
  2
*ACTIVE
 70
     0
 10
0.0
 20
0.0
 11
1.0
 21
1.0
 12
95.00000048894436
 22
138.500000691507
 13
0.0
 23
0.0
 14
1.0
 24
1.0
 15
0.0
 25
0.0
 16
0.0
 26
0.0
 36
1.0
 17
0.0
 27
0.0
 37
0.0
 40
299.4038152120413
 41
1.563002680965147
 42
50.0
 43
0.0
 44
0.0
 50
0.0
 51
0.0
 71
     0
 72
   100
 73
     1
 74
     1
 75
     0
 76
     0
 77
     0
 78
     0
  0
ENDTAB
  0
TABLE
  2
LTYPE
  5
4
330
0
100
AcDbSymbolTable
 70
     2
  0
LTYPE
  5
11
330
4
100
AcDbSymbolTableRecord
100
AcDbLinetypeTableRecord
  2
BYBLOCK
 70
     0
  3

 72
    65
 73
     0
 40
0.0
  0
LTYPE
  5
12
330
4
100
AcDbSymbolTableRecord
100
AcDbLinetypeTableRecord
  2
BYLAYER
 70
     0
  3

 72
    65
 73
     0
 40
0.0
  0
LTYPE
  5
13
330
4
100
AcDbSymbolTableRecord
100
AcDbLinetypeTableRecord
  2
CONTINUOUS
 70
     0
  3
Solid line
 72
    65
 73
     0
 40
0.0
  0
LTYPE
  5
3407
330
4
100
AcDbSymbolTableRecord
100
AcDbLinetypeTableRecord
  2
CENTER
 70
     0
  3
Center ____ _ ____ _ ____ _ ____ _ ____ _ ____
 72
    65
 73
     4
 40
50.8
 49
31.75
 74
     0
 49
-6.349999999999999
 74
     0
 49
6.349999999999999
 74
     0
 49
-6.349999999999999
 74
     0
  0
ENDTAB
  0
TABLE
  2
LAYER
  5
2
330
0
100
AcDbSymbolTable
 70
     6
  0
LAYER
  5
14
330
2
100
AcDbSymbolTableRecord
100
AcDbLayerTableRecord
  2
0
 70
     0
 62
     7
  6
CONTINUOUS
  0
LAYER
  5
32EF
330
2
100
AcDbSymbolTableRecord
100
AcDbLayerTableRecord
  2
DEFPOINTS
 70
     0
 62
     7
  6
CONTINUOUS
  0
LAYER
  5
340D
330
2
100
AcDbSymbolTableRecord
100
AcDbLayerTableRecord
  2
DIMENSIONS
 70
     0
 62
     2
  6
CONTINUOUS
  0
LAYER
  5
3412
330
2
100
AcDbSymbolTableRecord
100
AcDbLayerTableRecord
  2
SHAPE_OUTLINE_BOLD_LINE_
 70
     0
 62
     7
  6
CONTINUOUS
  0
LAYER
  5
3574
330
2
100
AcDbSymbolTableRecord
100
AcDbLayerTableRecord
  2
FILE_NAME
 70
     0
 62
     1
  6
CONTINUOUS
  0
LAYER
  5
36A1
330
2
100
AcDbSymbolTableRecord
100
AcDbLayerTableRecord
  2
CENTER
 70
     0
 62
     2
  6
CENTER
  0
ENDTAB
  0
TABLE
  2
STYLE
  5
3
330
0
100
AcDbSymbolTable
 70
     1
  0
STYLE
  5
17
330
3
100
AcDbSymbolTableRecord
100
AcDbTextStyleTableRecord
  2
STANDARD
 70
     0
 40
0.0
 41
1.0
 50
0.0
 71
     0
 42
0.0
  3
MS Gothic.ttf
  4

1001
ACAD
1000
MS Gothic
1071
    32817
  0
ENDTAB
  0
TABLE
  2
VIEW
  5
5
330
0
100
AcDbSymbolTable
 70
     0
  0
ENDTAB
  0
TABLE
  2
UCS
  5
6
330
0
100
AcDbSymbolTable
 70
     0
  0
ENDTAB
  0
TABLE
  2
APPID
  5
8
330
0
100
AcDbSymbolTable
 70
     3
  0
APPID
  5
16
330
8
100
AcDbSymbolTableRecord
100
AcDbRegAppTableRecord
  2
ACAD
 70
     0
  0
APPID
  5
3475
330
8
100
AcDbSymbolTableRecord
100
AcDbRegAppTableRecord
  2
DCO15
 70
     0
  0
APPID
  5
3621
330
8
100
AcDbSymbolTableRecord
100
AcDbRegAppTableRecord
  2
ADE
 70
     0
  0
ENDTAB
  0
TABLE
  2
DIMSTYLE
  5
9
330
0
100
AcDbSymbolTable
 70
     1
  0
DIMSTYLE
105
18
102
{ACAD_REACTORS
330
38A0
330
389C
330
389D
330
389E
330
389A
330
389F
330
38A2
330
38A1
102
}
330
9
100
AcDbSymbolTableRecord
100
AcDbDimStyleTableRecord
  2
STANDARD
 70
     0
  3

  4

  5
OPEN30
  6

  7

 40
1.0
 41
2.0
 42
2.0
 43
0.5
 44
1.0
 45
0.0
 46
0.0
 47
0.0
 48
0.0
140
3.0
141
0.0
142
0.0
143
25.4
144
1.0
145
0.0
146
1.0
147
1.0
 71
     0
 72
     0
 73
     0
 74
     1
 75
     0
 76
     0
 77
     1
 78
     8
170
     0
171
     2
172
     0
173
     0
174
     1
175
     0
176
   256
177
   256
178
     3
270
     2
271
     1
272
     1
273
     2
274
     2
340
17
275
     0
280
     0
281
     0
282
     0
283
     1
284
     0
285
     0
286
     0
287
     5
288
     0
  0
ENDTAB
  0
TABLE
  2
BLOCK_RECORD
  5
1
330
0
100
AcDbSymbolTable
 70
    10
  0
BLOCK_RECORD
  5
A
102
{ACAD_XDICTIONARY
360
36A5
102
}
330
1
100
AcDbSymbolTableRecord
100
AcDbBlockTableRecord
  2
*MODEL_SPACE
  0
BLOCK_RECORD
  5
B
102
{ACAD_XDICTIONARY
360
3B54
102
}
330
1
100
AcDbSymbolTableRecord
100
AcDbBlockTableRecord
  2
*PAPER_SPACE
  0
BLOCK_RECORD
  5
143A
330
1
100
AcDbSymbolTableRecord
100
AcDbBlockTableRecord
  2
_OPEN30
  0
BLOCK_RECORD
  5
395F
330
1
100
AcDbSymbolTableRecord
100
AcDbBlockTableRecord
  2
*D2
  0
BLOCK_RECORD
  5
3979
330
1
100
AcDbSymbolTableRecord
100
AcDbBlockTableRecord
  2
*D3
  0
BLOCK_RECORD
  5
3987
330
1
100
AcDbSymbolTableRecord
100
AcDbBlockTableRecord
  2
*D4
  0
BLOCK_RECORD
  5
3994
330
1
100
AcDbSymbolTableRecord
100
AcDbBlockTableRecord
  2
*D5
  0
BLOCK_RECORD
  5
39A1
330
1
100
AcDbSymbolTableRecord
100
AcDbBlockTableRecord
  2
*D6
  0
BLOCK_RECORD
  5
39AF
330
1
100
AcDbSymbolTableRecord
100
AcDbBlockTableRecord
  2
*D7
  0
BLOCK_RECORD
  5
39BD
330
1
100
AcDbSymbolTableRecord
100
AcDbBlockTableRecord
  2
*D8
  0
BLOCK_RECORD
  5
39CA
330
1
100
AcDbSymbolTableRecord
100
AcDbBlockTableRecord
  2
*D9
  0
ENDTAB
  0
ENDSEC
  0
SECTION
  2
BLOCKS
  0
BLOCK
  5
D
330
A
100
AcDbEntity
  8
0
100
AcDbBlockBegin
  2
*MODEL_SPACE
 70
     0
 10
0.0
 20
0.0
 30
0.0
  3
*MODEL_SPACE
  1

  0
ENDBLK
  5
E
330
A
100
AcDbEntity
  8
0
100
AcDbBlockEnd
  0
BLOCK
  5
F
330
B
100
AcDbEntity
 67
     1
  8
0
100
AcDbBlockBegin
  2
*PAPER_SPACE
 70
     0
 10
0.0
 20
0.0
 30
0.0
  3
*PAPER_SPACE
  1

  0
ENDBLK
  5
10
330
B
100
AcDbEntity
 67
     1
  8
0
100
AcDbBlockEnd
  0
BLOCK
  5
143B
330
143A
100
AcDbEntity
  8
0
 62
     0
100
AcDbBlockBegin
  2
_OPEN30
 70
     0
 10
0.0
 20
0.0
 30
0.0
  3
_OPEN30
  1

  0
LINE
  5
143C
330
143A
100
AcDbEntity
  8
0
  6
BYBLOCK
 62
     0
100
AcDbLine
 10
-1.0
 20
0.267949
 30
0.0
 11
0.0
 21
0.0
 31
0.0
  0
LINE
  5
143D
330
143A
100
AcDbEntity
  8
0
  6
BYBLOCK
 62
     0
100
AcDbLine
 10
0.0
 20
0.0
 30
0.0
 11
-1.0
 21
-0.267949
 31
0.0
  0
LINE
  5
143E
330
143A
100
AcDbEntity
  8
0
  6
BYBLOCK
 62
     0
100
AcDbLine
 10
0.0
 20
0.0
 30
0.0
 11
-1.0
 21
0.0
 31
0.0
  0
ENDBLK
  5
143F
330
143A
100
AcDbEntity
  8
0
 62
     0
100
AcDbBlockEnd
  0
BLOCK
  5
396A
330
395F
100
AcDbEntity
  8
0
100
AcDbBlockBegin
  2
*D2
 70
     1
 10
0.0
 20
0.0
 30
0.0
  3
*D2
  1

  0
LINE
  5
3AD8
330
395F
100
AcDbEntity
  8
DIMENSIONS
  6
CONTINUOUS
100
AcDbLine
 10
107.7066695339322
 20
139.0078784194369
 30
0.0
 11
99.54116567324852
 21
139.0078784194369
 31
0.0
  0
LINE
  5
3AD9
330
395F
100
AcDbEntity
  8
DIMENSIONS
  6
CONTINUOUS
100
AcDbLine
 10
107.7066695339322
 20
153.0078784194369
 30
0.0
 11
99.54116567324852
 21
153.0078784194369
 31
0.0
  0
LINE
  5
3ADA
330
395F
100
AcDbEntity
  8
DIMENSIONS
  6
CONTINUOUS
100
AcDbLine
 10
100.5411656732485
 20
141.0078784194369
 30
0.0
 11
100.5411656732485
 21
151.0078784194369
 31
0.0
  0
INSERT
  5
3ADB
330
395F
100
AcDbEntity
  8
DIMENSIONS
  6
CONTINUOUS
100
AcDbBlockReference
  2
_OPEN30
 10
100.5411656732485
 20
139.0078784194369
 30
0.0
 41
2.0
 42
2.0
 43
2.0
 50
270.0
  0
INSERT
  5
3ADC
330
395F
100
AcDbEntity
  8
DIMENSIONS
  6
CONTINUOUS
100
AcDbBlockReference
  2
_OPEN30
 10
100.5411656732485
 20
153.0078784194369
 30
0.0
 41
2.0
 42
2.0
 43
2.0
 50
90.0
  0
MTEXT
  5
3ADD
330
395F
100
AcDbEntity
  8
DIMENSIONS
  6
CONTINUOUS
 62
     3
100
AcDbMText
 10
97.79751085091348
 20
146.0078784194369
 30
0.0
 40
3.0
 41
0.0
 71
     5
 72
     1
  1
\A1;φ14
 11
0.0000000000000001
 21
1.0
 31
0.0
1001
ACAD
1000
MTEXTBEGIN
1070
    73
1070
     1
1070
    44
1040
1.0
1070
    74
1070
     0
1000
MTEXTEND
  0
POINT
  5
3ADE
330
395F
100
AcDbEntity
  8
DEFPOINTS
  6
CONTINUOUS
 62
     0
100
AcDbPoint
 10
109.7066695339322
 20
139.0078784194369
 30
0.0
  0
POINT
  5
3ADF
330
395F
100
AcDbEntity
  8
DEFPOINTS
  6
CONTINUOUS
 62
     0
100
AcDbPoint
 10
109.7066695339322
 20
153.0078784194369
 30
0.0
  0
POINT
  5
3AE0
330
395F
100
AcDbEntity
  8
DEFPOINTS
  6
CONTINUOUS
 62
     0
100
AcDbPoint
 10
100.5411656732485
 20
153.0078784194369
 30
0.0
  0
ENDBLK
  5
396B
330
395F
100
AcDbEntity
  8
0
100
AcDbBlockEnd
  0
BLOCK
  5
3985
330
3979
100
AcDbEntity
  8
0
100
AcDbBlockBegin
  2
*D3
 70
     1
 10
0.0
 20
0.0
 30
0.0
  3
*D3
  1

  0
LINE
  5
3ACD
330
3979
100
AcDbEntity
  8
DIMENSIONS
  6
CONTINUOUS
100
AcDbLine
 10
143.7066695339322
 20
129.0078784194369
 30
0.0
 11
143.7066695339322
 21
121.4930546978176
 31
0.0
  0
LINE
  5
3ACE
330
3979
100
AcDbEntity
  8
DIMENSIONS
  6
CONTINUOUS
100
AcDbLine
 10
145.7066695339322
 20
129.0078784194369
 30
0.0
 11
145.7066695339322
 21
121.4930546978176
 31
0.0
  0
LINE
  5
3ACF
330
3979
100
AcDbEntity
  8
DIMENSIONS
  6
CONTINUOUS
100
AcDbLine
 10
141.7066695339322
 20
122.4930546978176
 30
0.0
 11
139.7066695339322
 21
122.4930546978176
 31
0.0
  0
LINE
  5
3AD0
330
3979
100
AcDbEntity
  8
DIMENSIONS
  6
CONTINUOUS
100
AcDbLine
 10
147.7066695339322
 20
122.4930546978176
 30
0.0
 11
149.7066695339322
 21
122.4930546978176
 31
0.0
  0
LINE
  5
3AD1
330
3979
100
AcDbEntity
  8
DIMENSIONS
  6
CONTINUOUS
100
AcDbLine
 10
143.7066695339322
 20
122.4930546978176
 30
0.0
 11
145.7066695339322
 21
122.4930546978176
 31
0.0
  0
INSERT
  5
3AD2
330
3979
100
AcDbEntity
  8
DIMENSIONS
  6
CONTINUOUS
100
AcDbBlockReference
  2
_OPEN30
 10
143.7066695339322
 20
122.4930546978176
 30
0.0
 41
2.0
 42
2.0
 43
2.0
  0
INSERT
  5
3AD3
330
3979
100
AcDbEntity
  8
DIMENSIONS
  6
CONTINUOUS
100
AcDbBlockReference
  2
_OPEN30
 10
145.7066695339322
 20
122.4930546978176
 30
0.0
 41
2.0
 42
2.0
 43
2.0
 50
180.0
  0
MTEXT
  5
3AD4
330
3979
100
AcDbEntity
  8
DIMENSIONS
  6
CONTINUOUS
 62
     3
100
AcDbMText
 10
144.7066695339322
 20
124.9930546978176
 30
0.0
 40
3.0
 41
0.0
 71
     5
 72
     1
  1
\A1;2
1001
ACAD
1000
MTEXTBEGIN
1070
    73
1070
     1
1070
    44
1040
1.0
1070
    74
1070
     0
1000
MTEXTEND
  0
POINT
  5
3AD5
330
3979
100
AcDbEntity
  8
DEFPOINTS
  6
CONTINUOUS
 62
     0
100
AcDbPoint
 10
143.7066695339322
 20
131.0078784194369
 30
0.0
  0
POINT
  5
3AD6
330
3979
100
AcDbEntity
  8
DEFPOINTS
  6
CONTINUOUS
 62
     0
100
AcDbPoint
 10
145.7066695339322
 20
131.0078784194369
 30
0.0
  0
POINT
  5
3AD7
330
3979
100
AcDbEntity
  8
DEFPOINTS
  6
CONTINUOUS
 62
     0
100
AcDbPoint
 10
145.7066695339322
 20
122.4930546978176
 30
0.0
  0
ENDBLK
  5
3986
330
3979
100
AcDbEntity
  8
0
100
AcDbBlockEnd
  0
BLOCK
  5
3992
330
3987
100
AcDbEntity
  8
0
100
AcDbBlockBegin
  2
*D4
 70
     1
 10
0.0
 20
0.0
 30
0.0
  3
*D4
  1

  0
LINE
  5
3AC4
330
3987
100
AcDbEntity
  8
DIMENSIONS
  6
CONTINUOUS
100
AcDbLine
 10
109.7066695339322
 20
137.0078784194369
 30
0.0
 11
109.7066695339322
 21
114.7216683542861
 31
0.0
  0
LINE
  5
3AC5
330
3987
100
AcDbEntity
  8
DIMENSIONS
  6
CONTINUOUS
100
AcDbLine
 10
145.7066695339322
 20
129.0078784194369
 30
0.0
 11
145.7066695339322
 21
114.7216683542861
 31
0.0
  0
LINE
  5
3AC6
330
3987
100
AcDbEntity
  8
DIMENSIONS
  6
CONTINUOUS
100
AcDbLine
 10
111.7066695339322
 20
115.7216683542861
 30
0.0
 11
143.7066695339322
 21
115.7216683542861
 31
0.0
  0
INSERT
  5
3AC7
330
3987
100
AcDbEntity
  8
DIMENSIONS
  6
CONTINUOUS
100
AcDbBlockReference
  2
_OPEN30
 10
109.7066695339322
 20
115.7216683542861
 30
0.0
 41
2.0
 42
2.0
 43
2.0
 50
180.0
  0
INSERT
  5
3AC8
330
3987
100
AcDbEntity
  8
DIMENSIONS
  6
CONTINUOUS
100
AcDbBlockReference
  2
_OPEN30
 10
145.7066695339322
 20
115.7216683542861
 30
0.0
 41
2.0
 42
2.0
 43
2.0
  0
MTEXT
  5
3AC9
330
3987
100
AcDbEntity
  8
DIMENSIONS
  6
CONTINUOUS
 62
     3
100
AcDbMText
 10
127.7066695339322
 20
118.2216683542861
 30
0.0
 40
3.0
 41
0.0
 71
     5
 72
     1
  1
\A1;36
1001
ACAD
1000
MTEXTBEGIN
1070
    73
1070
     1
1070
    44
1040
1.0
1070
    74
1070
     0
1000
MTEXTEND
  0
POINT
  5
3ACA
330
3987
100
AcDbEntity
  8
DEFPOINTS
  6
CONTINUOUS
 62
     0
100
AcDbPoint
 10
109.7066695339322
 20
139.0078784194369
 30
0.0
  0
POINT
  5
3ACB
330
3987
100
AcDbEntity
  8
DEFPOINTS
  6
CONTINUOUS
 62
     0
100
AcDbPoint
 10
145.7066695339322
 20
131.0078784194369
 30
0.0
  0
POINT
  5
3ACC
330
3987
100
AcDbEntity
  8
DEFPOINTS
  6
CONTINUOUS
 62
     0
100
AcDbPoint
 10
145.7066695339322
 20
115.7216683542861
 30
0.0
  0
ENDBLK
  5
3993
330
3987
100
AcDbEntity
  8
0
100
AcDbBlockEnd
  0
BLOCK
  5
399F
330
3994
100
AcDbEntity
  8
0
100
AcDbBlockBegin
  2
*D5
 70
     1
 10
0.0
 20
0.0
 30
0.0
  3
*D5
  1

  0
LINE
  5
3AE5
330
3994
100
AcDbEntity
  8
DIMENSIONS
  6
CONTINUOUS
100
AcDbLine
 10
113.2066695339322
 20
137.5078784194369
 30
0.0
 11
90.02199017607914
 21
137.5078784194369
 31
0.0
  0
LINE
  5
3AE6
330
3994
100
AcDbEntity
  8
DIMENSIONS
  6
CONTINUOUS
100
AcDbLine
 10
113.2066695339322
 20
165.5078784194369
 30
0.0
 11
90.02199017607916
 21
165.5078784194369
 31
0.0
  0
LINE
  5
3AE7
330
3994
100
AcDbEntity
  8
DIMENSIONS
  6
CONTINUOUS
100
AcDbLine
 10
91.02199017607913
 20
139.5078784194369
 30
0.0
 11
91.02199017607915
 21
163.5078784194369
 31
0.0
  0
INSERT
  5
3AE8
330
3994
100
AcDbEntity
  8
DIMENSIONS
  6
CONTINUOUS
100
AcDbBlockReference
  2
_OPEN30
 10
91.02199017607913
 20
137.5078784194369
 30
0.0
 41
2.0
 42
2.0
 43
2.0
 50
270.0
  0
INSERT
  5
3AE9
330
3994
100
AcDbEntity
  8
DIMENSIONS
  6
CONTINUOUS
100
AcDbBlockReference
  2
_OPEN30
 10
91.02199017607915
 20
165.5078784194369
 30
0.0
 41
2.0
 42
2.0
 43
2.0
 50
90.0
  0
MTEXT
  5
3AEA
330
3994
100
AcDbEntity
  8
DIMENSIONS
  6
CONTINUOUS
 62
     3
100
AcDbMText
 10
88.52199017607913
 20
151.5078784194369
 30
0.0
 40
3.0
 41
0.0
 71
     5
 72
     1
  1
\A1;28
 11
0.0000000000000001
 21
1.0
 31
0.0
1001
ACAD
1000
MTEXTBEGIN
1070
    73
1070
     1
1070
    44
1040
1.0
1070
    74
1070
     0
1000
MTEXTEND
  0
POINT
  5
3AEB
330
3994
100
AcDbEntity
  8
DEFPOINTS
  6
CONTINUOUS
 62
     0
100
AcDbPoint
 10
115.2066695339322
 20
137.5078784194369
 30
0.0
  0
POINT
  5
3AEC
330
3994
100
AcDbEntity
  8
DEFPOINTS
  6
CONTINUOUS
 62
     0
100
AcDbPoint
 10
115.2066695339322
 20
165.5078784194369
 30
0.0
  0
POINT
  5
3AED
330
3994
100
AcDbEntity
  8
DEFPOINTS
  6
CONTINUOUS
 62
     0
100
AcDbPoint
 10
91.02199017607915
 20
165.5078784194369
 30
0.0
  0
ENDBLK
  5
39A0
330
3994
100
AcDbEntity
  8
0
100
AcDbBlockEnd
  0
BLOCK
  5
39AD
330
39A1
100
AcDbEntity
  8
0
100
AcDbBlockBegin
  2
*D6
 70
     1
 10
0.0
 20
0.0
 30
0.0
  3
*D6
  1

  0
LINE
  5
3AB0
330
39A1
100
AcDbEntity
  8
DIMENSIONS
  6
CONTINUOUS
100
AcDbLine
 10
118.7066695339322
 20
167.0078784194369
 30
0.0
 11
118.7066695339322
 21
181.9872918875404
 31
0.0
  0
LINE
  5
3AB1
330
39A1
100
AcDbEntity
  8
DIMENSIONS
  6
CONTINUOUS
100
AcDbLine
 10
114.7066695339322
 20
167.0078784194369
 30
0.0
 11
114.7066695339322
 21
181.9872918875404
 31
0.0
  0
LINE
  5
3AB2
330
39A1
100
AcDbEntity
  8
DIMENSIONS
  6
CONTINUOUS
100
AcDbLine
 10
120.7066695339322
 20
180.9872918875403
 30
0.0
 11
122.7066695339322
 21
180.9872918875403
 31
0.0
  0
LINE
  5
3AB3
330
39A1
100
AcDbEntity
  8
DIMENSIONS
  6
CONTINUOUS
100
AcDbLine
 10
112.7066695339322
 20
180.9872918875403
 30
0.0
 11
110.7066695339322
 21
180.9872918875403
 31
0.0
  0
LINE
  5
3AB4
330
39A1
100
AcDbEntity
  8
DIMENSIONS
  6
CONTINUOUS
100
AcDbLine
 10
118.7066695339322
 20
180.9872918875403
 30
0.0
 11
114.7066695339322
 21
180.9872918875403
 31
0.0
  0
INSERT
  5
3AB5
330
39A1
100
AcDbEntity
  8
DIMENSIONS
  6
CONTINUOUS
100
AcDbBlockReference
  2
_OPEN30
 10
118.7066695339322
 20
180.9872918875403
 30
0.0
 41
2.0
 42
2.0
 43
2.0
 50
180.0
  0
INSERT
  5
3AB6
330
39A1
100
AcDbEntity
  8
DIMENSIONS
  6
CONTINUOUS
100
AcDbBlockReference
  2
_OPEN30
 10
114.7066695339322
 20
180.9872918875403
 30
0.0
 41
2.0
 42
2.0
 43
2.0
  0
MTEXT
  5
3AB7
330
39A1
100
AcDbEntity
  8
DIMENSIONS
  6
CONTINUOUS
 62
     3
100
AcDbMText
 10
116.7066695339322
 20
183.7309467098754
 30
0.0
 40
3.0
 41
0.0
 71
     5
 72
     1
  1
\A1;φ4
1001
ACAD
1000
MTEXTBEGIN
1070
    73
1070
     1
1070
    44
1040
1.0
1070
    74
1070
     0
1000
MTEXTEND
  0
POINT
  5
3AB8
330
39A1
100
AcDbEntity
  8
DEFPOINTS
  6
CONTINUOUS
 62
     0
100
AcDbPoint
 10
118.7066695339322
 20
165.0078784194369
 30
0.0
  0
POINT
  5
3AB9
330
39A1
100
AcDbEntity
  8
DEFPOINTS
  6
CONTINUOUS
 62
     0
100
AcDbPoint
 10
114.7066695339322
 20
165.0078784194369
 30
0.0
  0
POINT
  5
3ABA
330
39A1
100
AcDbEntity
  8
DEFPOINTS
  6
CONTINUOUS
 62
     0
100
AcDbPoint
 10
114.7066695339322
 20
180.9872918875403
 30
0.0
  0
ENDBLK
  5
39AE
330
39A1
100
AcDbEntity
  8
0
100
AcDbBlockEnd
  0
BLOCK
  5
39BB
330
39AF
100
AcDbEntity
  8
0
100
AcDbBlockBegin
  2
*D7
 70
     1
 10
0.0
 20
0.0
 30
0.0
  3
*D7
  1

  0
LINE
  5
3AA5
330
39AF
100
AcDbEntity
  8
DIMENSIONS
  6
CONTINUOUS
100
AcDbLine
 10
147.7066695339322
 20
143.2578784194369
 30
0.0
 11
159.5515889707155
 21
143.2578784194369
 31
0.0
  0
LINE
  5
3AA6
330
39AF
100
AcDbEntity
  8
DIMENSIONS
  6
CONTINUOUS
100
AcDbLine
 10
147.7066695339322
 20
148.7578784194369
 30
0.0
 11
159.5515889707155
 21
148.7578784194369
 31
0.0
  0
LINE
  5
3AA7
330
39AF
100
AcDbEntity
  8
DIMENSIONS
  6
CONTINUOUS
100
AcDbLine
 10
158.5515889707155
 20
141.2578784194369
 30
0.0
 11
158.5515889707155
 21
139.2578784194369
 31
0.0
  0
LINE
  5
3AA8
330
39AF
100
AcDbEntity
  8
DIMENSIONS
  6
CONTINUOUS
100
AcDbLine
 10
158.5515889707155
 20
150.7578784194369
 30
0.0
 11
158.5515889707155
 21
152.7578784194369
 31
0.0
  0
LINE
  5
3AA9
330
39AF
100
AcDbEntity
  8
DIMENSIONS
  6
CONTINUOUS
100
AcDbLine
 10
158.5515889707155
 20
143.2578784194369
 30
0.0
 11
158.5515889707155
 21
148.7578784194369
 31
0.0
  0
INSERT
  5
3AAA
330
39AF
100
AcDbEntity
  8
DIMENSIONS
  6
CONTINUOUS
100
AcDbBlockReference
  2
_OPEN30
 10
158.5515889707155
 20
143.2578784194369
 30
0.0
 41
2.0
 42
2.0
 43
2.0
 50
90.0
  0
INSERT
  5
3AAB
330
39AF
100
AcDbEntity
  8
DIMENSIONS
  6
CONTINUOUS
100
AcDbBlockReference
  2
_OPEN30
 10
158.5515889707155
 20
148.7578784194369
 30
0.0
 41
2.0
 42
2.0
 43
2.0
 50
270.0
  0
MTEXT
  5
3AAC
330
39AF
100
AcDbEntity
  8
DIMENSIONS
  6
CONTINUOUS
 62
     3
100
AcDbMText
 10
155.8079341483805
 20
146.0078784194369
 30
0.0
 40
3.0
 41
0.0
 71
     5
 72
     1
  1
\A1;φ5.5
 11
0.0000000000000001
 21
1.0
 31
0.0
1001
ACAD
1000
MTEXTBEGIN
1070
    73
1070
     1
1070
    44
1040
1.0
1070
    74
1070
     0
1000
MTEXTEND
  0
POINT
  5
3AAD
330
39AF
100
AcDbEntity
  8
DEFPOINTS
  6
CONTINUOUS
 62
     0
100
AcDbPoint
 10
145.7066695339322
 20
143.2578784194369
 30
0.0
  0
POINT
  5
3AAE
330
39AF
100
AcDbEntity
  8
DEFPOINTS
  6
CONTINUOUS
 62
     0
100
AcDbPoint
 10
145.7066695339322
 20
148.7578784194369
 30
0.0
  0
POINT
  5
3AAF
330
39AF
100
AcDbEntity
  8
DEFPOINTS
  6
CONTINUOUS
 62
     0
100
AcDbPoint
 10
158.5515889707155
 20
148.7578784194369
 30
0.0
  0
ENDBLK
  5
39BC
330
39AF
100
AcDbEntity
  8
0
100
AcDbBlockEnd
  0
BLOCK
  5
39C8
330
39BD
100
AcDbEntity
  8
0
100
AcDbBlockBegin
  2
*D8
 70
     1
 10
0.0
 20
0.0
 30
0.0
  3
*D8
  1

  0
LINE
  5
3A9C
330
39BD
100
AcDbEntity
  8
DIMENSIONS
  6
CONTINUOUS
100
AcDbLine
 10
73.67054468131977
 20
144.0078784194369
 30
0.0
 11
73.67054468131977
 21
121.4930546978176
 31
0.0
  0
LINE
  5
3A9D
330
39BD
100
AcDbEntity
  8
DIMENSIONS
  6
CONTINUOUS
100
AcDbLine
 10
43.67054468131977
 20
144.0078784194369
 30
0.0
 11
43.67054468131977
 21
121.4930546978176
 31
0.0
  0
LINE
  5
3A9E
330
39BD
100
AcDbEntity
  8
DIMENSIONS
  6
CONTINUOUS
100
AcDbLine
 10
71.67054468131976
 20
122.4930546978176
 30
0.0
 11
45.67054468131977
 21
122.4930546978176
 31
0.0
  0
INSERT
  5
3A9F
330
39BD
100
AcDbEntity
  8
DIMENSIONS
  6
CONTINUOUS
100
AcDbBlockReference
  2
_OPEN30
 10
73.67054468131977
 20
122.4930546978176
 30
0.0
 41
2.0
 42
2.0
 43
2.0
  0
INSERT
  5
3AA0
330
39BD
100
AcDbEntity
  8
DIMENSIONS
  6
CONTINUOUS
100
AcDbBlockReference
  2
_OPEN30
 10
43.67054468131977
 20
122.4930546978176
 30
0.0
 41
2.0
 42
2.0
 43
2.0
 50
180.0
  0
MTEXT
  5
3AA1
330
39BD
100
AcDbEntity
  8
DIMENSIONS
  6
CONTINUOUS
 62
     3
100
AcDbMText
 10
58.67054468131977
 20
125.2367095201527
 30
0.0
 40
3.0
 41
0.0
 71
     5
 72
     1
  1
\A1;φ30
1001
ACAD
1000
MTEXTBEGIN
1070
    73
1070
     1
1070
    44
1040
1.0
1070
    74
1070
     0
1000
MTEXTEND
  0
POINT
  5
3AA2
330
39BD
100
AcDbEntity
  8
DEFPOINTS
  6
CONTINUOUS
 62
     0
100
AcDbPoint
 10
73.67054468131977
 20
146.0078784194369
 30
0.0
  0
POINT
  5
3AA3
330
39BD
100
AcDbEntity
  8
DEFPOINTS
  6
CONTINUOUS
 62
     0
100
AcDbPoint
 10
43.67054468131977
 20
146.0078784194369
 30
0.0
  0
POINT
  5
3AA4
330
39BD
100
AcDbEntity
  8
DEFPOINTS
  6
CONTINUOUS
 62
     0
100
AcDbPoint
 10
43.67054468131977
 20
122.4930546978176
 30
0.0
  0
ENDBLK
  5
39C9
330
39BD
100
AcDbEntity
  8
0
100
AcDbBlockEnd
  0
BLOCK
  5
39D5
330
39CA
100
AcDbEntity
  8
0
100
AcDbBlockBegin
  2
*D9
 70
     1
 10
0.0
 20
0.0
 30
0.0
  3
*D9
  1

  0
LINE
  5
3A93
330
39CA
100
AcDbEntity
  8
DIMENSIONS
  6
CONTINUOUS
100
AcDbLine
 10
116.7066695339322
 20
169.344924302861
 30
0.0
 11
116.7066695339322
 21
173.7097479769582
 31
0.0
  0
LINE
  5
3A94
330
39CA
100
AcDbEntity
  8
DIMENSIONS
  6
CONTINUOUS
100
AcDbLine
 10
145.7066695339322
 20
163.0078784194369
 30
0.0
 11
145.7066695339322
 21
173.7097479769582
 31
0.0
  0
LINE
  5
3A95
330
39CA
100
AcDbEntity
  8
DIMENSIONS
  6
CONTINUOUS
100
AcDbLine
 10
118.7066695339322
 20
172.7097479769582
 30
0.0
 11
143.7066695339322
 21
172.7097479769582
 31
0.0
  0
INSERT
  5
3A96
330
39CA
100
AcDbEntity
  8
DIMENSIONS
  6
CONTINUOUS
100
AcDbBlockReference
  2
_OPEN30
 10
116.7066695339322
 20
172.7097479769582
 30
0.0
 41
2.0
 42
2.0
 43
2.0
 50
180.0
  0
INSERT
  5
3A97
330
39CA
100
AcDbEntity
  8
DIMENSIONS
  6
CONTINUOUS
100
AcDbBlockReference
  2
_OPEN30
 10
145.7066695339322
 20
172.7097479769582
 30
0.0
 41
2.0
 42
2.0
 43
2.0
  0
MTEXT
  5
3A98
330
39CA
100
AcDbEntity
  8
DIMENSIONS
  6
CONTINUOUS
 62
     3
100
AcDbMText
 10
131.2066695339322
 20
175.2097479769583
 30
0.0
 40
3.0
 41
0.0
 71
     5
 72
     1
  1
\A1;29
1001
ACAD
1000
MTEXTBEGIN
1070
    73
1070
     1
1070
    44
1040
1.0
1070
    74
1070
     0
1000
MTEXTEND
  0
POINT
  5
3A99
330
39CA
100
AcDbEntity
  8
DEFPOINTS
  6
CONTINUOUS
 62
     0
100
AcDbPoint
 10
116.7066695339322
 20
167.344924302861
 30
0.0
  0
POINT
  5
3A9A
330
39CA
100
AcDbEntity
  8
DEFPOINTS
  6
CONTINUOUS
 62
     0
100
AcDbPoint
 10
145.7066695339322
 20
161.0078784194369
 30
0.0
  0
POINT
  5
3A9B
330
39CA
100
AcDbEntity
  8
DEFPOINTS
  6
CONTINUOUS
 62
     0
100
AcDbPoint
 10
145.7066695339322
 20
172.7097479769582
 30
0.0
  0
ENDBLK
  5
39D6
330
39CA
100
AcDbEntity
  8
0
100
AcDbBlockEnd
  0
ENDSEC
  0
SECTION
  2
ENTITIES
  0
TEXT
  5
35F8
330
A
100
AcDbEntity
  8
FILE_NAME
  6
CONTINUOUS
100
AcDbText
 10
0.0
 20
10.0
 30
0.0
 40
5.0
  1
14-5605-02-002
 41
0.75
100
AcDbText
  0
TEXT
  5
3607
330
A
100
AcDbEntity
  8
FILE_NAME
  6
CONTINUOUS
100
AcDbText
 10
0.0
 20
0.0
 30
0.0
 40
5.0
  1
12-14-5605-02-002_1
 41
0.75
100
AcDbText
  0
TEXT
  5
36B6
330
A
100
AcDbEntity
  8
FILE_NAME
  6
CONTINUOUS
100
AcDbText
 10
0.0
 20
20.0
 30
0.0
 40
5.0
  1
コート掛け 14-5605-02-002
 41
0.75
100
AcDbText
  0
DIMENSION
  5
389A
330
A
100
AcDbEntity
  8
DIMENSIONS
  6
CONTINUOUS
100
AcDbDimension
  2
*D2
 10
100.5411656732485
 20
153.0078784194369
 30
0.0
 11
97.79751085091348
 21
146.0078784194369
 31
0.0
 70
    32
  1
φ<>
  3
STANDARD
100
AcDbAlignedDimension
 13
109.7066695339322
 23
139.0078784194369
 33
0.0
 14
109.7066695339322
 24
153.0078784194369
 34
0.0
 50
90.0
100
AcDbRotatedDimension
  0
DIMENSION
  5
389C
330
A
100
AcDbEntity
  8
DIMENSIONS
  6
CONTINUOUS
100
AcDbDimension
  2
*D3
 10
145.7066695339322
 20
122.4930546978176
 30
0.0
 11
144.7066695339322
 21
124.9930546978176
 31
0.0
 70
    32
  1
<>
  3
STANDARD
100
AcDbAlignedDimension
 13
143.7066695339322
 23
131.0078784194369
 33
0.0
 14
145.7066695339322
 24
131.0078784194369
 34
0.0
100
AcDbRotatedDimension
1001
ACAD
1000
DSTYLE
1002
{
1070
   172
1070
     1
1002
}
  0
DIMENSION
  5
389D
330
A
100
AcDbEntity
  8
DIMENSIONS
  6
CONTINUOUS
100
AcDbDimension
  2
*D4
 10
145.7066695339322
 20
115.7216683542861
 30
0.0
 11
127.7066695339322
 21
118.2216683542861
 31
0.0
 70
    32
  1
<>
  3
STANDARD
100
AcDbAlignedDimension
 13
109.7066695339322
 23
139.0078784194369
 33
0.0
 14
145.7066695339322
 24
131.0078784194369
 34
0.0
100
AcDbRotatedDimension
  0
DIMENSION
  5
389E
330
A
100
AcDbEntity
  8
DIMENSIONS
  6
CONTINUOUS
100
AcDbDimension
  2
*D5
 10
91.02199017607915
 20
165.5078784194369
 30
0.0
 11
88.52199017607913
 21
151.5078784194369
 31
0.0
 70
    32
  3
STANDARD
100
AcDbAlignedDimension
 13
115.2066695339322
 23
137.5078784194369
 33
0.0
 14
115.2066695339322
 24
165.5078784194369
 34
0.0
 50
90.0
100
AcDbRotatedDimension
  0
DIMENSION
  5
389F
330
A
100
AcDbEntity
  8
DIMENSIONS
  6
CONTINUOUS
100
AcDbDimension
  2
*D6
 10
114.7066695339322
 20
180.9872918875403
 30
0.0
 11
116.7066695339322
 21
183.7309467098754
 31
0.0
 70
    32
  1
φ<>
  3
STANDARD
100
AcDbAlignedDimension
 13
118.7066695339322
 23
165.0078784194369
 33
0.0
 14
114.7066695339322
 24
165.0078784194369
 34
0.0
100
AcDbRotatedDimension
1001
ACAD
1000
DSTYLE
1002
{
1070
   172
1070
     1
1002
}
  0
DIMENSION
  5
38A0
330
A
100
AcDbEntity
  8
DIMENSIONS
  6
CONTINUOUS
100
AcDbDimension
  2
*D7
 10
158.5515889707155
 20
148.7578784194369
 30
0.0
 11
155.8079341483805
 21
146.0078784194369
 31
0.0
 70
    32
  1
φ<>
  3
STANDARD
100
AcDbAlignedDimension
 13
145.7066695339322
 23
143.2578784194369
 33
0.0
 14
145.7066695339322
 24
148.7578784194369
 34
0.0
 50
90.0
100
AcDbRotatedDimension
1001
ACAD
1000
DSTYLE
1002
{
1070
   172
1070
     1
1002
}
  0
DIMENSION
  5
38A1
330
A
100
AcDbEntity
  8
DIMENSIONS
  6
CONTINUOUS
100
AcDbDimension
  2
*D8
 10
43.67054468131977
 20
122.4930546978176
 30
0.0
 11
58.67054468131977
 21
125.2367095201527
 31
0.0
 70
    32
  1
φ<>
  3
STANDARD
100
AcDbAlignedDimension
 13
73.67054468131977
 23
146.0078784194369
 33
0.0
 14
43.67054468131977
 24
146.0078784194369
 34
0.0
100
AcDbRotatedDimension
  0
DIMENSION
  5
38A2
330
A
100
AcDbEntity
  8
DIMENSIONS
  6
CONTINUOUS
100
AcDbDimension
  2
*D9
 10
145.7066695339322
 20
172.7097479769582
 30
0.0
 11
131.2066695339322
 21
175.2097479769583
 31
0.0
 70
    32
  1
<>
  3
STANDARD
100
AcDbAlignedDimension
 13
116.7066695339322
 23
167.344924302861
 33
0.0
 14
145.7066695339322
 24
161.0078784194369
 34
0.0
100
AcDbRotatedDimension
  0
ARC
  5
38CB
330
A
100
AcDbEntity
  8
SHAPE_OUTLINE_BOLD_LINE_
100
AcDbCircle
 10
58.67054468131977
 20
146.0078784194369
 30
0.0
 40
7.0
100
AcDbArc
 50
73.39845040098015
 51
106.6015495990198
  0
ARC
  5
38CC
330
A
100
AcDbEntity
  8
SHAPE_OUTLINE_BOLD_LINE_
100
AcDbCircle
 10
58.67054468131977
 20
146.0078784194369
 30
0.0
 40
7.0
100
AcDbArc
 50
286.6015495990198
 51
73.39845040098015
  0
ARC
  5
38CD
330
A
100
AcDbEntity
  8
SHAPE_OUTLINE_BOLD_LINE_
100
AcDbCircle
 10
58.67054468131977
 20
146.0078784194369
 30
0.0
 40
7.0
100
AcDbArc
 50
106.6015495990198
 51
253.3984504009801
  0
ARC
  5
38CE
330
A
100
AcDbEntity
  8
SHAPE_OUTLINE_BOLD_LINE_
100
AcDbCircle
 10
58.67054468131977
 20
146.0078784194369
 30
0.0
 40
7.0
100
AcDbArc
 50
253.3984504009801
 51
286.6015495990198
  0
ARC
  5
38CF
330
A
100
AcDbEntity
  8
SHAPE_OUTLINE_BOLD_LINE_
100
AcDbCircle
 10
58.67054468131977
 20
146.0078784194369
 30
0.0
 40
15.0
100
AcDbArc
 50
0.0
 51
82.33774433923434
  0
ARC
  5
38D0
330
A
100
AcDbEntity
  8
SHAPE_OUTLINE_BOLD_LINE_
100
AcDbCircle
 10
58.67054468131977
 20
146.0078784194369
 30
0.0
 40
15.0
100
AcDbArc
 50
97.66225566076565
 51
180.0
  0
ARC
  5
38D1
330
A
100
AcDbEntity
  8
SHAPE_OUTLINE_BOLD_LINE_
100
AcDbCircle
 10
58.67054468131977
 20
146.0078784194369
 30
0.0
 40
15.0
100
AcDbArc
 50
180.0
 51
0.0
  0
LINE
  5
38D2
330
A
100
AcDbEntity
  8
SHAPE_OUTLINE_BOLD_LINE_
100
AcDbLine
 10
143.7066695339322
 20
131.0078784194369
 30
0.0
 11
145.7066695339322
 21
131.0078784194369
 31
0.0
  0
LINE
  5
38D3
330
A
100
AcDbEntity
  8
SHAPE_OUTLINE_BOLD_LINE_
100
AcDbLine
 10
145.7066695339322
 20
161.0078784194369
 30
0.0
 11
143.7066695339322
 21
161.0078784194369
 31
0.0
  0
LINE
  5
38D4
330
A
100
AcDbEntity
  8
SHAPE_OUTLINE_BOLD_LINE_
100
AcDbLine
 10
143.7066695339322
 20
161.0078784194369
 30
0.0
 11
143.7066695339322
 21
153.0078784194369
 31
0.0
  0
LINE
  5
38D6
330
A
100
AcDbEntity
  8
SHAPE_OUTLINE_BOLD_LINE_
100
AcDbLine
 10
109.7066695339322
 20
153.0078784194369
 30
0.0
 11
109.7066695339322
 21
139.0078784194369
 31
0.0
  0
LINE
  5
38D7
330
A
100
AcDbEntity
  8
SHAPE_OUTLINE_BOLD_LINE_
100
AcDbLine
 10
109.7066695339322
 20
139.0078784194369
 30
0.0
 11
114.7066695339322
 21
139.0078784194369
 31
0.0
  0
LINE
  5
38D8
330
A
100
AcDbEntity
  8
SHAPE_OUTLINE_BOLD_LINE_
100
AcDbLine
 10
143.7066695339322
 20
139.0078784194369
 30
0.0
 11
143.7066695339322
 21
137.0712704661462
 31
0.0
  0
LINE
  5
38D9
330
A
100
AcDbEntity
  8
CENTER
100
AcDbLine
 10
106.749385853757
 20
146.0078784194369
 30
0.0
 11
149.3561766533189
 21
146.0078784194369
 31
0.0
  0
LINE
  5
38DA
330
A
100
AcDbEntity
  8
SHAPE_OUTLINE_BOLD_LINE_
100
AcDbLine
 10
114.7066695339322
 20
153.0078784194369
 30
0.0
 11
114.7066695339322
 21
165.0078784194369
 31
0.0
  0
LINE
  5
38DC
330
A
100
AcDbEntity
  8
SHAPE_OUTLINE_BOLD_LINE_
100
AcDbLine
 10
115.2066695339322
 20
165.5078784194369
 30
0.0
 11
118.2066695339322
 21
165.5078784194369
 31
0.0
  0
LINE
  5
38DD
330
A
100
AcDbEntity
  8
SHAPE_OUTLINE_BOLD_LINE_
100
AcDbLine
 10
118.7066695339322
 20
165.0078784194369
 30
0.0
 11
118.7066695339322
 21
153.0078784194369
 31
0.0
  0
LINE
  5
38DF
330
A
100
AcDbEntity
  8
SHAPE_OUTLINE_BOLD_LINE_
100
AcDbLine
 10
114.7066695339322
 20
139.0078784194369
 30
0.0
 11
114.7066695339322
 21
138.0078784194369
 31
0.0
  0
LINE
  5
38E0
330
A
100
AcDbEntity
  8
SHAPE_OUTLINE_BOLD_LINE_
100
AcDbLine
 10
114.7066695339322
 20
139.0078784194369
 30
0.0
 11
118.7066695339322
 21
139.0078784194369
 31
0.0
  0
LINE
  5
38E1
330
A
100
AcDbEntity
  8
SHAPE_OUTLINE_BOLD_LINE_
100
AcDbLine
 10
115.2066695339322
 20
137.5078784194369
 30
0.0
 11
118.2066695339322
 21
137.5078784194369
 31
0.0
  0
LINE
  5
38E2
330
A
100
AcDbEntity
  8
SHAPE_OUTLINE_BOLD_LINE_
100
AcDbLine
 10
118.7066695339322
 20
138.0078784194369
 30
0.0
 11
118.7066695339322
 21
139.0078784194369
 31
0.0
  0
LINE
  5
38E3
330
A
100
AcDbEntity
  8
SHAPE_OUTLINE_BOLD_LINE_
100
AcDbLine
 10
115.2066695339322
 20
165.5078784194369
 30
0.0
 11
114.7066695339322
 21
165.0078784194369
 31
0.0
  0
LINE
  5
38E4
330
A
100
AcDbEntity
  8
SHAPE_OUTLINE_BOLD_LINE_
100
AcDbLine
 10
118.7066695339322
 20
165.0078784194369
 30
0.0
 11
118.2066695339322
 21
165.5078784194369
 31
0.0
  0
LINE
  5
38E5
330
A
100
AcDbEntity
  8
SHAPE_OUTLINE_BOLD_LINE_
100
AcDbLine
 10
115.2066695339322
 20
137.5078784194369
 30
0.0
 11
114.7066695339322
 21
138.0078784194369
 31
0.0
  0
LINE
  5
38E6
330
A
100
AcDbEntity
  8
SHAPE_OUTLINE_BOLD_LINE_
100
AcDbLine
 10
118.7066695339322
 20
138.0078784194369
 30
0.0
 11
118.2066695339322
 21
137.5078784194369
 31
0.0
  0
LINE
  5
38E7
330
A
100
AcDbEntity
  8
SHAPE_OUTLINE_BOLD_LINE_
100
AcDbLine
 10
114.7066695339322
 20
165.0078784194369
 30
0.0
 11
118.7066695339322
 21
165.0078784194369
 31
0.0
  0
LINE
  5
38E8
330
A
100
AcDbEntity
  8
SHAPE_OUTLINE_BOLD_LINE_
100
AcDbLine
 10
114.7066695339322
 20
138.0078784194369
 30
0.0
 11
118.7066695339322
 21
138.0078784194369
 31
0.0
  0
LINE
  5
38E9
330
A
100
AcDbEntity
  8
CENTER
100
AcDbLine
 10
116.7066695339322
 20
167.344924302861
 30
0.0
 11
116.7066695339322
 21
135.0008712010781
 31
0.0
  0
LINE
  5
38EA
330
A
100
AcDbEntity
  8
SHAPE_OUTLINE_BOLD_LINE_
100
AcDbLine
 10
57.17054468131976
 20
165.5078784194369
 30
0.0
 11
60.17054468131977
 21
165.5078784194369
 31
0.0
  0
LINE
  5
38EB
330
A
100
AcDbEntity
  8
SHAPE_OUTLINE_BOLD_LINE_
100
AcDbLine
 10
57.17054468131976
 20
137.5078784194369
 30
0.0
 11
60.17054468131977
 21
137.5078784194369
 31
0.0
  0
LINE
  5
38EC
330
A
100
AcDbEntity
  8
SHAPE_OUTLINE_BOLD_LINE_
100
AcDbLine
 10
57.17054468131976
 20
165.5078784194369
 30
0.0
 11
56.67054468131976
 21
165.0078784194369
 31
0.0
  0
LINE
  5
38ED
330
A
100
AcDbEntity
  8
SHAPE_OUTLINE_BOLD_LINE_
100
AcDbLine
 10
60.67054468131977
 20
165.0078784194369
 30
0.0
 11
60.17054468131977
 21
165.5078784194369
 31
0.0
  0
LINE
  5
38EE
330
A
100
AcDbEntity
  8
SHAPE_OUTLINE_BOLD_LINE_
100
AcDbLine
 10
57.17054468131976
 20
137.5078784194369
 30
0.0
 11
56.67054468131976
 21
138.0078784194369
 31
0.0
  0
LINE
  5
38EF
330
A
100
AcDbEntity
  8
SHAPE_OUTLINE_BOLD_LINE_
100
AcDbLine
 10
60.67054468131977
 20
138.0078784194369
 30
0.0
 11
60.17054468131977
 21
137.5078784194369
 31
0.0
  0
LINE
  5
38F0
330
A
100
AcDbEntity
  8
SHAPE_OUTLINE_BOLD_LINE_
100
AcDbLine
 10
56.67054468131976
 20
165.0078784194369
 30
0.0
 11
60.67054468131977
 21
165.0078784194369
 31
0.0
  0
LINE
  5
38F1
330
A
100
AcDbEntity
  8
SHAPE_OUTLINE_BOLD_LINE_
100
AcDbLine
 10
56.67054468131976
 20
138.0078784194369
 30
0.0
 11
60.67054468131977
 21
138.0078784194369
 31
0.0
  0
LINE
  5
38F2
330
A
100
AcDbEntity
  8
SHAPE_OUTLINE_BOLD_LINE_
100
AcDbLine
 10
56.67054468131976
 20
165.0078784194369
 30
0.0
 11
56.67054468131976
 21
160.8739471667553
 31
0.0
  0
LINE
  5
38F3
330
A
100
AcDbEntity
  8
SHAPE_OUTLINE_BOLD_LINE_
100
AcDbLine
 10
60.67054468131977
 20
165.0078784194369
 30
0.0
 11
60.67054468131977
 21
160.8739471667553
 31
0.0
  0
LINE
  5
38F4
330
A
100
AcDbEntity
  8
SHAPE_OUTLINE_BOLD_LINE_
100
AcDbLine
 10
56.67054468131976
 20
139.2996744869375
 30
0.0
 11
56.67054468131976
 21
138.0078784194369
 31
0.0
  0
LINE
  5
38F5
330
A
100
AcDbEntity
  8
SHAPE_OUTLINE_BOLD_LINE_
100
AcDbLine
 10
60.67054468131977
 20
139.2996744869375
 30
0.0
 11
60.67054468131977
 21
138.0078784194369
 31
0.0
  0
LINE
  5
38F6
330
A
100
AcDbEntity
  8
SHAPE_OUTLINE_BOLD_LINE_
100
AcDbLine
 10
56.67054468131976
 20
160.8739471667553
 30
0.0
 11
56.67054468131976
 21
152.7160823519362
 31
0.0
  0
LINE
  5
38F7
330
A
100
AcDbEntity
  8
SHAPE_OUTLINE_BOLD_LINE_
100
AcDbLine
 10
60.67054468131977
 20
160.8739471667553
 30
0.0
 11
60.67054468131977
 21
152.7160823519362
 31
0.0
  0
LINE
  5
38F8
330
A
100
AcDbEntity
  8
CENTER
100
AcDbLine
 10
41.86736867155076
 20
146.0078784194369
 30
0.0
 11
75.66022278055465
 21
146.0078784194369
 31
0.0
  0
LINE
  5
38F9
330
A
100
AcDbEntity
  8
CENTER
100
AcDbLine
 10
58.67054468131977
 20
167.5420829421293
 30
0.0
 11
58.67054468131977
 21
128.7763673588907
 31
0.0
  0
LINE
  5
3905
330
A
100
AcDbEntity
  8
SHAPE_OUTLINE_BOLD_LINE_
100
AcDbLine
 10
145.7066695339322
 20
131.0078784194369
 30
0.0
 11
145.7066695339322
 21
137.5820213746735
 31
0.0
  0
LINE
  5
3906
330
A
100
AcDbEntity
  8
SHAPE_OUTLINE_BOLD_LINE_
100
AcDbLine
 10
143.7066695339322
 20
153.0078784194369
 30
0.0
 11
109.7066695339322
 21
153.0078784194369
 31
0.0
  0
LINE
  5
3907
330
A
100
AcDbEntity
  8
SHAPE_OUTLINE_BOLD_LINE_
100
AcDbLine
 10
118.7066695339322
 20
139.0078784194369
 30
0.0
 11
120.1005077774223
 21
139.0078784194369
 31
0.0
  0
LINE
  5
3908
330
A
100
AcDbEntity
  8
SHAPE_OUTLINE_BOLD_LINE_
100
AcDbLine
 10
120.5251048812913
 20
153.0078784194369
 30
0.0
 11
118.7066695339322
 21
153.0078784194369
 31
0.0
  0
LINE
  5
3909
330
A
100
AcDbEntity
  8
SHAPE_OUTLINE_BOLD_LINE_
100
AcDbLine
 10
120.1005077774223
 20
139.0078784194369
 30
0.0
 11
143.7066695339322
 21
139.0078784194369
 31
0.0
  0
LINE
  5
3925
330
A
100
AcDbEntity
  8
SHAPE_OUTLINE_BOLD_LINE_
100
AcDbLine
 10
143.7066695339321
 20
153.0078784194369
 30
0.0
 11
143.7066695339322
 21
131.0078784194369
 31
0.0
  0
LINE
  5
3926
330
A
100
AcDbEntity
  8
SHAPE_OUTLINE_BOLD_LINE_
100
AcDbLine
 10
145.7066695339322
 20
137.5820213746735
 30
0.0
 11
145.7066695339322
 21
161.0078784194369
 31
0.0
  0
ENDSEC
  0
SECTION
  2
OBJECTS
  0
DICTIONARY
  5
19
330
0
100
AcDbDictionary
  3
ACAD_GROUP
350
1A
  3
ACAD_LAYOUT
350
157A
  3
ACAD_MLINESTYLE
350
1B
  3
ACAD_PLOTSETTINGS
350
157B
  3
ACAD_PLOTSTYLENAME
350
1578
  3
ACDBHEADERROUNDTRIPXREC
350
3B32
  3
ACDBVARIABLEDICTIONARY
350
3478
  3
ADE_QUERY_LIBRARY
350
3622
1001
ADE
1000
ADE02C004
1000
[Query]
1000
CaseSensitiveMatch=0
1000
SaveCurrQueryInSession=1
1000
MkSelSetWithQryObj=0
1000
ShowBlockAsInsPt=0
1000
CreateAssociativeHatchObjects=0
1000
ReferenceBoundaryForAreaLocation=1
1000
ShowImageAsBoundary=1
1000
DefaultJoinOperator=2
1000
ColorForAdd=red
1000
ColorForRemove=red
1000
BlockLocnForQuery=1
1000
TextLocnForQuery=1
1000
[Save Back]
1000
RedefineBlockDefinitions=1
1000
RedefineLayerDefinitions=1
1000
RedefineTextStyleDefinitions=1
1000
RemoveUnusedGroups=1
1000
EraseSavedBackObjects=1
1000
RemoveLockAfterSave=1
1000
CreateHistoryFileOfChanges=0
1000
CreateBackupFileOfSourceDwg=1
1000
DontAddObjectsToSaveSet=0
1000
MarkObjectsForEditingWithoutPrompting=0
1000
[Coordinate Transformation]
1000
RestoreLastActiveDwgsOnStartup=1
1000
ActivateDwgsOnAttach=1
1000
AdjustSizesAndScalesForChangesInUnits=1
1000
AdjustRotationsForMapDistortions=1
1000
AdjustSizesAndScalesForMapDistortions=1
1000
AdjustElevations=1
1000
AdjustZeroRotationObjects=1
1000
ReconnectDbOnWSOpen=1
1000
NoOfSQLConditionsInHistory=10
  0
DICTIONARY
  5
36A5
330
A
100
AcDbDictionary
280
     1
  3
ACAD_LAYOUTSELFREF
360
3B53
  3
ACAD_SORTENTS
360
36A6
  0
DICTIONARY
  5
3B54
330
B
100
AcDbDictionary
280
     1
  3
ACAD_LAYOUTSELFREF
360
3B55
  0
DICTIONARY
  5
1A
102
{ACAD_REACTORS
330
19
102
}
330
19
100
AcDbDictionary
  0
DICTIONARY
  5
157A
102
{ACAD_REACTORS
330
19
102
}
330
19
100
AcDbDictionary
  0
DICTIONARY
  5
1B
102
{ACAD_REACTORS
330
19
102
}
330
19
100
AcDbDictionary
  3
STANDARD
350
1C
  0
DICTIONARY
  5
157B
102
{ACAD_REACTORS
330
19
102
}
330
19
100
AcDbDictionary
  0
ACDBDICTIONARYWDFLT
  5
1578
102
{ACAD_REACTORS
330
19
102
}
330
19
100
AcDbDictionary
281
     1
  3
Normal
350
1579
100
AcDbDictionaryWithDefault
340
1579
  0
DICTIONARY
  5
3B32
102
{ACAD_REACTORS
330
19
102
}
330
19
100
AcDbDictionary
  3
CEPSNTYPE
350
3B3C
  3
DIMSTYLEDATA
350
3B40
  3
FINGERPRINTGUID
350
3B3D
  3
HYPERLINKBASE
350
3B35
  3
INSUNITS
350
3B3B
  3
LAYOUTDICT
350
3B37
  3
LWETCUNION
350
3B3A
  3
PLOTSETDICT
350
3B38
  3
PLOTSTYLNAMDICT
350
3B39
  3
PSVPSCALE
350
3B3F
  3
PUCSBASE
350
3B43
  3
PUCSORGBACK
350
3B49
  3
PUCSORGBOTTOM
350
3B45
  3
PUCSORGFRONT
350
3B48
  3
PUCSORGLEFT
350
3B46
  3
PUCSORGRIGHT
350
3B47
  3
PUCSORGTOP
350
3B44
  3
PUCSORTHOREF
350
3B41
  3
PUCSORTHOVIEW
350
3B42
  3
STYLESHEET
350
3B36
  3
TSTACKALIGN
350
3B33
  3
TSTACKSIZE
350
3B34
  3
UCSBASE
350
3B4C
  3
UCSORGBACK
350
3B52
  3
UCSORGBOTTOM
350
3B4E
  3
UCSORGFRONT
350
3B51
  3
UCSORGLEFT
350
3B4F
  3
UCSORGRIGHT
350
3B50
  3
UCSORGTOP
350
3B4D
  3
UCSORTHOREF
350
3B4A
  3
UCSORTHOVIEW
350
3B4B
  3
VERSIONGUID
350
3B3E
  0
DICTIONARY
  5
3478
102
{ACAD_REACTORS
330
19
102
}
330
19
100
AcDbDictionary
  3
DIMASSOC
350
3479
  3
SORTENTS
350
36A9
  0
DICTIONARY
  5
3622
102
{ACAD_REACTORS
330
19
102
}
330
19
100
AcDbDictionary
  3
_CURRQRY
350
3701
  0
XRECORD
  5
3B53
102
{ACAD_REACTORS
330
36A5
102
}
330
36A5
100
AcDbXrecord
340
A
  0
SORTENTSTABLE
  5
36A6
102
{ACAD_REACTORS
330
36A5
102
}
330
36A5
100
AcDbSortentsTable
330
A
331
3607
  5
3634
331
35F8
  5
35FD
  0
XRECORD
  5
3B55
102
{ACAD_REACTORS
330
3B54
102
}
330
3B54
100
AcDbXrecord
340
B
  0
MLINESTYLE
  5
1C
102
{ACAD_REACTORS
330
1B
102
}
330
1B
100
AcDbMlineStyle
  2
STANDARD
 70
     0
  3

 62
     0
 51
90.0
 52
90.0
 71
     2
 49
0.5
 62
   256
  6
BYLAYER
 49
-0.5
 62
   256
  6
BYLAYER
  0
ACDBPLACEHOLDER
  5
1579
102
{ACAD_REACTORS
330
1578
102
}
330
1578
100
AcDbPlaceHolder
280
     0
  0
XRECORD
  5
3B3C
102
{ACAD_REACTORS
330
3B32
102
}
330
3B32
100
AcDbXrecord
 90
        0
  0
XRECORD
  5
3B40
102
{ACAD_REACTORS
330
3B32
102
}
330
3B32
100
AcDbXrecord
1000
DSTYLE
1002
{
1070
   279
 70
     2
1070
   341
340
143A
1070
   342
340
143A
1070
   371
 70
    -1
1070
   372
 70
    -1
1002
}
  0
XRECORD
  5
3B3D
102
{ACAD_REACTORS
330
3B32
102
}
330
3B32
100
AcDbXrecord
  1
{5653D33C-3AEF-40FE-8495-DE925CF19E35}
  0
XRECORD
  5
3B35
102
{ACAD_REACTORS
330
3B32
102
}
330
3B32
100
AcDbXrecord
  1

  0
XRECORD
  5
3B3B
102
{ACAD_REACTORS
330
3B32
102
}
330
3B32
100
AcDbXrecord
 90
        0
  0
XRECORD
  5
3B37
102
{ACAD_REACTORS
330
3B32
102
}
330
3B32
100
AcDbXrecord
340
157A
  0
XRECORD
  5
3B3A
102
{ACAD_REACTORS
330
3B32
102
}
330
3B32
100
AcDbXrecord
 90
    10781
  0
XRECORD
  5
3B38
102
{ACAD_REACTORS
330
3B32
102
}
330
3B32
100
AcDbXrecord
340
157B
  0
XRECORD
  5
3B39
102
{ACAD_REACTORS
330
3B32
102
}
330
3B32
100
AcDbXrecord
340
1578
  0
XRECORD
  5
3B3F
102
{ACAD_REACTORS
330
3B32
102
}
330
3B32
100
AcDbXrecord
 40
0.0
  0
XRECORD
  5
3B43
102
{ACAD_REACTORS
330
3B32
102
}
330
3B32
100
AcDbXrecord
340
0
  0
XRECORD
  5
3B49
102
{ACAD_REACTORS
330
3B32
102
}
330
3B32
100
AcDbXrecord
 10
0.0
 20
0.0
 30
0.0
  0
XRECORD
  5
3B45
102
{ACAD_REACTORS
330
3B32
102
}
330
3B32
100
AcDbXrecord
 10
0.0
 20
0.0
 30
0.0
  0
XRECORD
  5
3B48
102
{ACAD_REACTORS
330
3B32
102
}
330
3B32
100
AcDbXrecord
 10
0.0
 20
0.0
 30
0.0
  0
XRECORD
  5
3B46
102
{ACAD_REACTORS
330
3B32
102
}
330
3B32
100
AcDbXrecord
 10
0.0
 20
0.0
 30
0.0
  0
XRECORD
  5
3B47
102
{ACAD_REACTORS
330
3B32
102
}
330
3B32
100
AcDbXrecord
 10
0.0
 20
0.0
 30
0.0
  0
XRECORD
  5
3B44
102
{ACAD_REACTORS
330
3B32
102
}
330
3B32
100
AcDbXrecord
 10
0.0
 20
0.0
 30
0.0
  0
XRECORD
  5
3B41
102
{ACAD_REACTORS
330
3B32
102
}
330
3B32
100
AcDbXrecord
340
0
  0
XRECORD
  5
3B42
102
{ACAD_REACTORS
330
3B32
102
}
330
3B32
100
AcDbXrecord
 70
     0
  0
XRECORD
  5
3B36
102
{ACAD_REACTORS
330
3B32
102
}
330
3B32
100
AcDbXrecord
  1
スガツネWeb_mono.ctb
  0
XRECORD
  5
3B33
102
{ACAD_REACTORS
330
3B32
102
}
330
3B32
100
AcDbXrecord
 90
        1
  0
XRECORD
  5
3B34
102
{ACAD_REACTORS
330
3B32
102
}
330
3B32
100
AcDbXrecord
 90
       70
  0
XRECORD
  5
3B4C
102
{ACAD_REACTORS
330
3B32
102
}
330
3B32
100
AcDbXrecord
340
0
  0
XRECORD
  5
3B52
102
{ACAD_REACTORS
330
3B32
102
}
330
3B32
100
AcDbXrecord
 10
0.0
 20
0.0
 30
0.0
  0
XRECORD
  5
3B4E
102
{ACAD_REACTORS
330
3B32
102
}
330
3B32
100
AcDbXrecord
 10
0.0
 20
0.0
 30
0.0
  0
XRECORD
  5
3B51
102
{ACAD_REACTORS
330
3B32
102
}
330
3B32
100
AcDbXrecord
 10
0.0
 20
0.0
 30
0.0
  0
XRECORD
  5
3B4F
102
{ACAD_REACTORS
330
3B32
102
}
330
3B32
100
AcDbXrecord
 10
0.0
 20
0.0
 30
0.0
  0
XRECORD
  5
3B50
102
{ACAD_REACTORS
330
3B32
102
}
330
3B32
100
AcDbXrecord
 10
0.0
 20
0.0
 30
0.0
  0
XRECORD
  5
3B4D
102
{ACAD_REACTORS
330
3B32
102
}
330
3B32
100
AcDbXrecord
 10
0.0
 20
0.0
 30
0.0
  0
XRECORD
  5
3B4A
102
{ACAD_REACTORS
330
3B32
102
}
330
3B32
100
AcDbXrecord
340
0
  0
XRECORD
  5
3B4B
102
{ACAD_REACTORS
330
3B32
102
}
330
3B32
100
AcDbXrecord
 70
     0
  0
XRECORD
  5
3B3E
102
{ACAD_REACTORS
330
3B32
102
}
330
3B32
100
AcDbXrecord
  1
{246067EC-8FFA-48BF-9576-1791ECF6C9FA}
  0
DICTIONARYVAR
  5
3479
102
{ACAD_REACTORS
330
3478
102
}
330
3478
100
DictionaryVariables
280
     0
  1
1
  0
DICTIONARYVAR
  5
36A9
102
{ACAD_REACTORS
330
3478
102
}
330
3478
100
DictionaryVariables
280
     0
  1
127
  0
XRECORD
  5
3701
102
{ACAD_REACTORS
330
3622
102
}
330
3622
100
AcDbXrecord
1000
ADE02C001
1070
     1
1070
     0
1002
{
1002
}
1002
{
1002
}
1002
{
1002
}
1000

  0
ENDSEC
  0
EOF
