  0
SECTION
  2
HEADER
  9
$ACADVER
  1
AC1014
  9
$ACADMAINTVER
 70
     0
  9
$DWGCODEPAGE
  3
ANSI_932
  9
$INSBASE
 10
0.0
 20
0.0
 30
0.0
  9
$EXTMIN
 10
-10.0
 20
-10.0
 30
0.0
  9
$EXTMAX
 10
200.0
 20
287.0
 30
0.0
  9
$LIMMIN
 10
0.0
 20
0.0
  9
$LIMMAX
 10
0.0
 20
0.0
  9
$ORTHOMODE
 70
     0
  9
$REGENMODE
 70
     1
  9
$FILLMODE
 70
     1
  9
$QTEXTMODE
 70
     0
  9
$MIRRTEXT
 70
     1
  9
$DRAGMODE
 70
     2
  9
$LTSCALE
 40
0.1
  9
$OSMODE
 70
     0
  9
$ATTMODE
 70
     1
  9
$TEXTSIZE
 40
0.0
  9
$TRACEWID
 40
0.05
  9
$TEXTSTYLE
  7
STANDARD
  9
$CLAYER
  8
0
  9
$CELTYPE
  6
CONTINUOUS
  9
$CECOLOR
 62
   256
  9
$CELTSCALE
 40
1.0
  9
$DELOBJ
 70
     1
  9
$DISPSILH
 70
     0
  9
$DIMSCALE
 40
1.0
  9
$DIMASZ
 40
2.0
  9
$DIMEXO
 40
2.0
  9
$DIMDLI
 40
0.5
  9
$DIMRND
 40
0.0
  9
$DIMDLE
 40
0.0
  9
$DIMEXE
 40
1.0
  9
$DIMTP
 40
0.0
  9
$DIMTM
 40
0.0
  9
$DIMTXT
 40
3.0
  9
$DIMCEN
 40
0.0
  9
$DIMTSZ
 40
0.0
  9
$DIMTOL
 70
     0
  9
$DIMLIM
 70
     0
  9
$DIMTIH
 70
     0
  9
$DIMTOH
 70
     1
  9
$DIMSE1
 70
     0
  9
$DIMSE2
 70
     0
  9
$DIMTAD
 70
     1
  9
$DIMZIN
 70
     8
  9
$DIMBLK
  1
OPEN30
  9
$DIMASO
 70
     1
  9
$DIMSHO
 70
     1
  9
$DIMPOST
  1

  9
$DIMAPOST
  1

  9
$DIMALT
 70
     0
  9
$DIMALTD
 70
     2
  9
$DIMALTF
 40
25.4
  9
$DIMLFAC
 40
1.0
  9
$DIMTOFL
 70
     0
  9
$DIMTVP
 40
0.0
  9
$DIMTIX
 70
     1
  9
$DIMSOXD
 70
     0
  9
$DIMSAH
 70
     0
  9
$DIMBLK1
  1

  9
$DIMBLK2
  1

  9
$DIMSTYLE
  2
STANDARD
  9
$DIMCLRD
 70
   256
  9
$DIMCLRE
 70
   256
  9
$DIMCLRT
 70
     3
  9
$DIMTFAC
 40
1.0
  9
$DIMGAP
 40
1.0
  9
$DIMJUST
 70
     0
  9
$DIMSD1
 70
     0
  9
$DIMSD2
 70
     0
  9
$DIMTOLJ
 70
     1
  9
$DIMTZIN
 70
     0
  9
$DIMALTZ
 70
     0
  9
$DIMALTTZ
 70
     0
  9
$DIMFIT
 70
     5
  9
$DIMUPT
 70
     0
  9
$DIMUNIT
 70
     2
  9
$DIMDEC
 70
     1
  9
$DIMTDEC
 70
     1
  9
$DIMALTU
 70
     2
  9
$DIMALTTD
 70
     2
  9
$DIMTXSTY
  7
STANDARD
  9
$DIMAUNIT
 70
     0
  9
$LUNITS
 70
     2
  9
$LUPREC
 70
     4
  9
$SKETCHINC
 40
0.1
  9
$FILLETRAD
 40
0.0
  9
$AUNITS
 70
     0
  9
$AUPREC
 70
     0
  9
$MENU
  1
acad
  9
$ELEVATION
 40
0.0
  9
$PELEVATION
 40
0.0
  9
$THICKNESS
 40
0.0
  9
$LIMCHECK
 70
     0
  9
$BLIPMODE
 70
     0
  9
$CHAMFERA
 40
0.0
  9
$CHAMFERB
 40
0.0
  9
$CHAMFERC
 40
0.0
  9
$CHAMFERD
 40
0.0
  9
$SKPOLY
 70
     0
  9
$TDCREATE
 40
2312272.457674340
  9
$TDUPDATE
 40
2454000.783596817
  9
$TDINDWG
 40
0.1630866319
  9
$TDUSRTIMER
 40
0.1630860880
  9
$USRTIMER
 70
     1
  9
$ANGBASE
 50
0.0
  9
$ANGDIR
 70
     0
  9
$PDMODE
 70
     0
  9
$PDSIZE
 40
0.0
  9
$PLINEWID
 40
0.0
  9
$COORDS
 70
     0
  9
$SPLFRAME
 70
     0
  9
$SPLINETYPE
 70
     6
  9
$SPLINESEGS
 70
     8
  9
$ATTDIA
 70
     0
  9
$ATTREQ
 70
     1
  9
$HANDLING
 70
 22529
  9
$HANDSEED
  5
3A6D
  9
$SURFTAB1
 70
     6
  9
$SURFTAB2
 70
     6
  9
$SURFTYPE
 70
     6
  9
$SURFU
 70
     6
  9
$SURFV
 70
     6
  9
$UCSNAME
  2

  9
$UCSORG
 10
0.0
 20
0.0
 30
0.0
  9
$UCSXDIR
 10
1.0
 20
0.0
 30
0.0
  9
$UCSYDIR
 10
0.0
 20
1.0
 30
0.0
  9
$PUCSNAME
  2

  9
$PUCSORG
 10
0.0
 20
0.0
 30
0.0
  9
$PUCSXDIR
 10
1.0
 20
0.0
 30
0.0
  9
$PUCSYDIR
 10
0.0
 20
1.0
 30
0.0
  9
$USERI1
 70
     0
  9
$USERI2
 70
     0
  9
$USERI3
 70
     0
  9
$USERI4
 70
     0
  9
$USERI5
 70
     0
  9
$USERR1
 40
12.01
  9
$USERR2
 40
0.0
  9
$USERR3
 40
0.0
  9
$USERR4
 40
0.0
  9
$USERR5
 40
0.0
  9
$WORLDVIEW
 70
     1
  9
$SHADEDGE
 70
     3
  9
$SHADEDIF
 70
    70
  9
$TILEMODE
 70
     1
  9
$MAXACTVP
 70
    16
  9
$PINSBASE
 10
0.0
 20
0.0
 30
0.0
  9
$PLIMCHECK
 70
     0
  9
$PEXTMIN
 10
1.000000000000000E+20
 20
1.000000000000000E+20
 30
1.000000000000000E+20
  9
$PEXTMAX
 10
-1.000000000000000E+20
 20
-1.000000000000000E+20
 30
-1.000000000000000E+20
  9
$PLIMMIN
 10
0.0
 20
0.0
  9
$PLIMMAX
 10
12.0
 20
9.0
  9
$UNITMODE
 70
     0
  9
$VISRETAIN
 70
     0
  9
$PLINEGEN
 70
     1
  9
$PSLTSCALE
 70
     0
  9
$TREEDEPTH
 70
  3020
  9
$PICKSTYLE
 70
     1
  9
$CMLSTYLE
  2
STANDARD
  9
$CMLJUST
 70
     0
  9
$CMLSCALE
 40
1.0
  9
$PROXYGRAPHICS
 70
     0
  9
$MEASUREMENT
 70
     1
  0
ENDSEC
  0
SECTION
  2
CLASSES
  0
CLASS
  1
LWPOLYLINE
  2
AcDbPolyline
  3
AutoCAD 2000
 90
        0
280
     0
281
     1
  0
CLASS
  1
IMAGE
  2
AcDbRasterImage
  3
ISM
 90
      127
280
     0
281
     1
  0
CLASS
  1
OLE2FRAME
  2
AcDbOle2Frame
  3
AutoCAD 2000
 90
        0
280
     0
281
     1
  0
CLASS
  1
HATCH
  2
AcDbHatch
  3
AutoCAD 2000
 90
        0
280
     0
281
     1
  0
CLASS
  1
DICTIONARYVAR
  2
AcDbDictionaryVar
  3
AutoCAD 2000
 90
        0
280
     0
281
     0
  0
CLASS
  1
RASTERVARIABLES
  2
AcDbRasterVariables
  3
ISM
 90
        0
280
     0
281
     0
  0
CLASS
  1
IMAGEDEF
  2
AcDbRasterImageDef
  3
ISM
 90
        0
280
     0
281
     0
  0
CLASS
  1
IMAGEDEF_REACTOR
  2
AcDbRasterImageDefReactor
  3
ISM
 90
        1
280
     0
281
     0
  0
CLASS
  1
IDBUFFER
  2
AcDbIdBuffer
  3
AutoCAD 2000
 90
        0
280
     0
281
     0
  0
CLASS
  1
SPATIAL_FILTER
  2
AcDbSpatialFilter
  3
AutoCAD 2000
 90
        0
280
     0
281
     0
  0
CLASS
  1
XRECORD
  2
AcDbXrecord
  3
AutoCAD 2000
 90
        0
280
     0
281
     0
  0
CLASS
  1
SORTENTSTABLE
  2
AcDbSortentsTable
  3
AutoCAD 2000
 90
        0
280
     0
281
     0
  0
CLASS
  1
LAYER_INDEX
  2
AcDbLayerIndex
  3
AutoCAD 2000
 90
        0
280
     0
281
     0
  0
CLASS
  1
SPATIAL_INDEX
  2
AcDbSpatialIndex
  3
AutoCAD 2000
 90
        0
280
     0
281
     0
  0
CLASS
  1
OBJECT_PTR
  2
CAseDLPNTableRecord
  3
ASE-LPNTableRecord
 90
        1
280
     0
281
     0
  0
CLASS
  1
LAYOUT
  2
AcDbLayout
  3
AutoCAD 2000
 90
        0
280
     0
281
     0
  0
CLASS
  1
PLOTSETTINGS
  2
AcDbPlotSettings
  3
AutoCAD 2000
 90
        0
280
     0
281
     0
  0
CLASS
  1
ACDBDICTIONARYWDFLT
  2
AcDbDictionaryWithDefault
  3
AutoCAD 2000
 90
        0
280
     0
281
     0
  0
CLASS
  1
ACDBPLACEHOLDER
  2
AcDbPlaceHolder
  3
AutoCAD 2000
 90
        0
280
     0
281
     0
  0
CLASS
  1
LONG_TRANSACTION
  2
AcDbLongTransaction
  3
AutoCAD 2000
 90
        0
280
     0
281
     0
  0
CLASS
  1
LWPOLYLINE
  2
AcDbPolyline
  3
AutoCAD 2000
 90
        0
280
     0
281
     1
  0
CLASS
  1
HATCH
  2
AcDbHatch
  3
AutoCAD 2000
 90
        0
280
     0
281
     1
  0
CLASS
  1
XRECORD
  2
AcDbXrecord
  3
AutoCAD 2000
 90
        0
280
     0
281
     0
  0
ENDSEC
  0
SECTION
  2
TABLES
  0
TABLE
  2
VPORT
  5
7
330
0
100
AcDbSymbolTable
 70
     3
  0
VPORT
  5
3A48
330
7
100
AcDbSymbolTableRecord
100
AcDbViewportTableRecord
  2
*ACTIVE
 70
     0
 10
0.0
 20
0.0
 11
1.0
 21
1.0
 12
95.00000048894436
 22
138.500000691507
 13
0.0
 23
0.0
 14
1.0
 24
1.0
 15
0.0
 25
0.0
 16
0.0
 26
0.0
 36
1.0
 17
0.0
 27
0.0
 37
0.0
 40
299.4038152120413
 41
1.563002680965147
 42
50.0
 43
0.0
 44
0.0
 50
0.0
 51
0.0
 71
     0
 72
   100
 73
     1
 74
     1
 75
     0
 76
     0
 77
     0
 78
     0
  0
ENDTAB
  0
TABLE
  2
LTYPE
  5
4
330
0
100
AcDbSymbolTable
 70
     3
  0
LTYPE
  5
11
330
4
100
AcDbSymbolTableRecord
100
AcDbLinetypeTableRecord
  2
BYBLOCK
 70
     0
  3

 72
    65
 73
     0
 40
0.0
  0
LTYPE
  5
12
330
4
100
AcDbSymbolTableRecord
100
AcDbLinetypeTableRecord
  2
BYLAYER
 70
     0
  3

 72
    65
 73
     0
 40
0.0
  0
LTYPE
  5
13
330
4
100
AcDbSymbolTableRecord
100
AcDbLinetypeTableRecord
  2
CONTINUOUS
 70
     0
  3
Solid line
 72
    65
 73
     0
 40
0.0
  0
LTYPE
  5
1D
330
4
100
AcDbSymbolTableRecord
100
AcDbLinetypeTableRecord
  2
DASHED
 70
     0
  3
Dashed
 72
    65
 73
     2
 40
15.0
 49
7.0
 74
     0
 49
-8.0
 74
     0
  0
LTYPE
  5
3407
330
4
100
AcDbSymbolTableRecord
100
AcDbLinetypeTableRecord
  2
CENTER
 70
     0
  3
Center ____ _ ____ _ ____ _ ____ _ ____ _ ____
 72
    65
 73
     4
 40
50.8
 49
31.75
 74
     0
 49
-6.349999999999999
 74
     0
 49
6.349999999999999
 74
     0
 49
-6.349999999999999
 74
     0
  0
ENDTAB
  0
TABLE
  2
LAYER
  5
2
330
0
100
AcDbSymbolTable
 70
     7
  0
LAYER
  5
14
330
2
100
AcDbSymbolTableRecord
100
AcDbLayerTableRecord
  2
0
 70
     0
 62
     7
  6
CONTINUOUS
  0
LAYER
  5
32EF
330
2
100
AcDbSymbolTableRecord
100
AcDbLayerTableRecord
  2
DEFPOINTS
 70
     0
 62
     7
  6
CONTINUOUS
  0
LAYER
  5
340D
330
2
100
AcDbSymbolTableRecord
100
AcDbLayerTableRecord
  2
DIMENSIONS
 70
     0
 62
     2
  6
CONTINUOUS
  0
LAYER
  5
3412
330
2
100
AcDbSymbolTableRecord
100
AcDbLayerTableRecord
  2
SHAPE_OUTLINE_BOLD_LINE_
 70
     0
 62
     7
  6
CONTINUOUS
  0
LAYER
  5
341C
330
2
100
AcDbSymbolTableRecord
100
AcDbLayerTableRecord
  2
SHAPE_OUTLINE_THIN_LINE_
 70
     0
 62
     2
  6
CONTINUOUS
  0
LAYER
  5
3574
330
2
100
AcDbSymbolTableRecord
100
AcDbLayerTableRecord
  2
FILE_NAME
 70
     0
 62
     1
  6
CONTINUOUS
  0
LAYER
  5
36A1
330
2
100
AcDbSymbolTableRecord
100
AcDbLayerTableRecord
  2
CENTER
 70
     0
 62
     2
  6
CENTER
  0
ENDTAB
  0
TABLE
  2
STYLE
  5
3
330
0
100
AcDbSymbolTable
 70
     1
  0
STYLE
  5
17
330
3
100
AcDbSymbolTableRecord
100
AcDbTextStyleTableRecord
  2
STANDARD
 70
     0
 40
0.0
 41
1.0
 50
0.0
 71
     0
 42
0.0
  3
MS Gothic.ttf
  4

1001
ACAD
1000
MS Gothic
1071
    32817
  0
ENDTAB
  0
TABLE
  2
VIEW
  5
5
330
0
100
AcDbSymbolTable
 70
     0
  0
ENDTAB
  0
TABLE
  2
UCS
  5
6
330
0
100
AcDbSymbolTable
 70
     0
  0
ENDTAB
  0
TABLE
  2
APPID
  5
8
330
0
100
AcDbSymbolTable
 70
     3
  0
APPID
  5
16
330
8
100
AcDbSymbolTableRecord
100
AcDbRegAppTableRecord
  2
ACAD
 70
     0
  0
APPID
  5
3475
330
8
100
AcDbSymbolTableRecord
100
AcDbRegAppTableRecord
  2
DCO15
 70
     0
  0
APPID
  5
3621
330
8
100
AcDbSymbolTableRecord
100
AcDbRegAppTableRecord
  2
ADE
 70
     0
  0
ENDTAB
  0
TABLE
  2
DIMSTYLE
  5
9
330
0
100
AcDbSymbolTable
 70
     1
  0
DIMSTYLE
105
18
102
{ACAD_REACTORS
330
3889
330
3888
330
3887
330
3886
102
}
330
9
100
AcDbSymbolTableRecord
100
AcDbDimStyleTableRecord
  2
STANDARD
 70
     0
  3

  4

  5
OPEN30
  6

  7

 40
1.0
 41
2.0
 42
2.0
 43
0.5
 44
1.0
 45
0.0
 46
0.0
 47
0.0
 48
0.0
140
3.0
141
0.0
142
0.0
143
25.4
144
1.0
145
0.0
146
1.0
147
1.0
 71
     0
 72
     0
 73
     0
 74
     1
 75
     0
 76
     0
 77
     1
 78
     8
170
     0
171
     2
172
     0
173
     0
174
     1
175
     0
176
   256
177
   256
178
     3
270
     2
271
     1
272
     1
273
     2
274
     2
340
17
275
     0
280
     0
281
     0
282
     0
283
     1
284
     0
285
     0
286
     0
287
     5
288
     0
  0
ENDTAB
  0
TABLE
  2
BLOCK_RECORD
  5
1
330
0
100
AcDbSymbolTable
 70
     6
  0
BLOCK_RECORD
  5
A
102
{ACAD_XDICTIONARY
360
36A5
102
}
330
1
100
AcDbSymbolTableRecord
100
AcDbBlockTableRecord
  2
*MODEL_SPACE
  0
BLOCK_RECORD
  5
B
102
{ACAD_XDICTIONARY
360
3A6B
102
}
330
1
100
AcDbSymbolTableRecord
100
AcDbBlockTableRecord
  2
*PAPER_SPACE
  0
BLOCK_RECORD
  5
143A
330
1
100
AcDbSymbolTableRecord
100
AcDbBlockTableRecord
  2
_OPEN30
  0
BLOCK_RECORD
  5
3916
330
1
100
AcDbSymbolTableRecord
100
AcDbBlockTableRecord
  2
*D2
  0
BLOCK_RECORD
  5
3923
330
1
100
AcDbSymbolTableRecord
100
AcDbBlockTableRecord
  2
*D3
  0
BLOCK_RECORD
  5
3930
330
1
100
AcDbSymbolTableRecord
100
AcDbBlockTableRecord
  2
*D4
  0
BLOCK_RECORD
  5
393D
330
1
100
AcDbSymbolTableRecord
100
AcDbBlockTableRecord
  2
*D5
  0
ENDTAB
  0
ENDSEC
  0
SECTION
  2
BLOCKS
  0
BLOCK
  5
D
330
A
100
AcDbEntity
  8
0
100
AcDbBlockBegin
  2
*MODEL_SPACE
 70
     0
 10
0.0
 20
0.0
 30
0.0
  3
*MODEL_SPACE
  1

  0
ENDBLK
  5
E
330
A
100
AcDbEntity
  8
0
100
AcDbBlockEnd
  0
BLOCK
  5
F
330
B
100
AcDbEntity
 67
     1
  8
0
100
AcDbBlockBegin
  2
*PAPER_SPACE
 70
     0
 10
0.0
 20
0.0
 30
0.0
  3
*PAPER_SPACE
  1

  0
ENDBLK
  5
10
330
B
100
AcDbEntity
 67
     1
  8
0
100
AcDbBlockEnd
  0
BLOCK
  5
143B
330
143A
100
AcDbEntity
  8
0
 62
     0
100
AcDbBlockBegin
  2
_OPEN30
 70
     0
 10
0.0
 20
0.0
 30
0.0
  3
_OPEN30
  1

  0
LINE
  5
143C
330
143A
100
AcDbEntity
  8
0
  6
BYBLOCK
 62
     0
100
AcDbLine
 10
-1.0
 20
0.267949
 30
0.0
 11
0.0
 21
0.0
 31
0.0
  0
LINE
  5
143D
330
143A
100
AcDbEntity
  8
0
  6
BYBLOCK
 62
     0
100
AcDbLine
 10
0.0
 20
0.0
 30
0.0
 11
-1.0
 21
-0.267949
 31
0.0
  0
LINE
  5
143E
330
143A
100
AcDbEntity
  8
0
  6
BYBLOCK
 62
     0
100
AcDbLine
 10
0.0
 20
0.0
 30
0.0
 11
-1.0
 21
0.0
 31
0.0
  0
ENDBLK
  5
143F
330
143A
100
AcDbEntity
  8
0
 62
     0
100
AcDbBlockEnd
  0
BLOCK
  5
3921
330
3916
100
AcDbEntity
  8
0
100
AcDbBlockBegin
  2
*D2
 70
     1
 10
0.0
 20
0.0
 30
0.0
  3
*D2
  1

  0
LINE
  5
39F9
330
3916
100
AcDbEntity
  8
DIMENSIONS
  6
CONTINUOUS
100
AcDbLine
 10
17.82131900905125
 20
103.8738657213116
 30
0.0
 11
17.82131900905125
 21
85.26910489253449
 31
0.0
  0
LINE
  5
39FA
330
3916
100
AcDbEntity
  8
DIMENSIONS
  6
CONTINUOUS
100
AcDbLine
 10
3.821319009051251
 20
103.8738657213116
 30
0.0
 11
3.821319009051249
 21
85.26910489253449
 31
0.0
  0
LINE
  5
39FB
330
3916
100
AcDbEntity
  8
DIMENSIONS
  6
CONTINUOUS
100
AcDbLine
 10
15.82131900905125
 20
86.26910489253448
 30
0.0
 11
5.821319009051249
 21
86.26910489253448
 31
0.0
  0
INSERT
  5
39FC
330
3916
100
AcDbEntity
  8
DIMENSIONS
  6
CONTINUOUS
100
AcDbBlockReference
  2
_OPEN30
 10
17.82131900905125
 20
86.26910489253448
 30
0.0
 41
2.0
 42
2.0
 43
2.0
  0
INSERT
  5
39FD
330
3916
100
AcDbEntity
  8
DIMENSIONS
  6
CONTINUOUS
100
AcDbBlockReference
  2
_OPEN30
 10
3.821319009051249
 20
86.26910489253448
 30
0.0
 41
2.0
 42
2.0
 43
2.0
 50
180.0
  0
MTEXT
  5
39FE
330
3916
100
AcDbEntity
  8
DIMENSIONS
  6
CONTINUOUS
 62
     3
100
AcDbMText
 10
10.82131900905125
 20
89.01275971486951
 30
0.0
 40
3.0
 41
0.0
 71
     5
 72
     1
  1
\A1;φ14
1001
ACAD
1000
MTEXTBEGIN
1070
    73
1070
     1
1070
    44
1040
1.0
1070
    74
1070
     0
1000
MTEXTEND
  0
POINT
  5
39FF
330
3916
100
AcDbEntity
  8
DEFPOINTS
  6
CONTINUOUS
 62
     0
100
AcDbPoint
 10
17.82131900905125
 20
105.8738657213116
 30
0.0
  0
POINT
  5
3A00
330
3916
100
AcDbEntity
  8
DEFPOINTS
  6
CONTINUOUS
 62
     0
100
AcDbPoint
 10
3.821319009051251
 20
105.8738657213116
 30
0.0
  0
POINT
  5
3A01
330
3916
100
AcDbEntity
  8
DEFPOINTS
  6
CONTINUOUS
 62
     0
100
AcDbPoint
 10
3.821319009051249
 20
86.26910489253448
 30
0.0
  0
ENDBLK
  5
3922
330
3916
100
AcDbEntity
  8
0
100
AcDbBlockEnd
  0
BLOCK
  5
392E
330
3923
100
AcDbEntity
  8
0
100
AcDbBlockBegin
  2
*D3
 70
     1
 10
0.0
 20
0.0
 30
0.0
  3
*D3
  1

  0
LINE
  5
39F0
330
3923
100
AcDbEntity
  8
DIMENSIONS
  6
CONTINUOUS
100
AcDbLine
 10
54.89922643515876
 20
142.1581369687735
 30
0.0
 11
54.89922643515876
 21
85.26910489253449
 31
0.0
  0
LINE
  5
39F1
330
3923
100
AcDbEntity
  8
DIMENSIONS
  6
CONTINUOUS
100
AcDbLine
 10
159.8992264351587
 20
96.87386572131167
 30
0.0
 11
159.8992264351587
 21
85.26910489253449
 31
0.0
  0
LINE
  5
39F2
330
3923
100
AcDbEntity
  8
DIMENSIONS
  6
CONTINUOUS
100
AcDbLine
 10
56.89922643515877
 20
86.26910489253448
 30
0.0
 11
157.8992264351587
 21
86.26910489253448
 31
0.0
  0
INSERT
  5
39F3
330
3923
100
AcDbEntity
  8
DIMENSIONS
  6
CONTINUOUS
100
AcDbBlockReference
  2
_OPEN30
 10
54.89922643515876
 20
86.26910489253448
 30
0.0
 41
2.0
 42
2.0
 43
2.0
 50
180.0
  0
INSERT
  5
39F4
330
3923
100
AcDbEntity
  8
DIMENSIONS
  6
CONTINUOUS
100
AcDbBlockReference
  2
_OPEN30
 10
159.8992264351587
 20
86.26910489253448
 30
0.0
 41
2.0
 42
2.0
 43
2.0
  0
MTEXT
  5
39F5
330
3923
100
AcDbEntity
  8
DIMENSIONS
  6
CONTINUOUS
 62
     3
100
AcDbMText
 10
107.3992264351587
 20
88.76910489253448
 30
0.0
 40
3.0
 41
0.0
 71
     5
 72
     1
  1
\A1;105
1001
ACAD
1000
MTEXTBEGIN
1070
    73
1070
     1
1070
    44
1040
1.0
1070
    74
1070
     0
1000
MTEXTEND
  0
POINT
  5
39F6
330
3923
100
AcDbEntity
  8
DEFPOINTS
  6
CONTINUOUS
 62
     0
100
AcDbPoint
 10
54.89922643515876
 20
144.1581369687735
 30
0.0
  0
POINT
  5
39F7
330
3923
100
AcDbEntity
  8
DEFPOINTS
  6
CONTINUOUS
 62
     0
100
AcDbPoint
 10
159.8992264351587
 20
98.87386572131166
 30
0.0
  0
POINT
  5
39F8
330
3923
100
AcDbEntity
  8
DEFPOINTS
  6
CONTINUOUS
 62
     0
100
AcDbPoint
 10
159.8992264351587
 20
86.26910489253448
 30
0.0
  0
ENDBLK
  5
392F
330
3923
100
AcDbEntity
  8
0
100
AcDbBlockEnd
  0
BLOCK
  5
393B
330
3930
100
AcDbEntity
  8
0
100
AcDbBlockBegin
  2
*D4
 70
     1
 10
0.0
 20
0.0
 30
0.0
  3
*D4
  1

  0
LINE
  5
39E7
330
3930
100
AcDbEntity
  8
DIMENSIONS
  6
CONTINUOUS
100
AcDbLine
 10
104.6149551876968
 20
191.8738657213116
 30
0.0
 11
188.4909971474325
 21
191.8738657213116
 31
0.0
  0
LINE
  5
39E8
330
3930
100
AcDbEntity
  8
DIMENSIONS
  6
CONTINUOUS
100
AcDbLine
 10
161.8992264351587
 20
98.87386572131164
 30
0.0
 11
188.4909971474325
 21
98.87386572131164
 31
0.0
  0
LINE
  5
39E9
330
3930
100
AcDbEntity
  8
DIMENSIONS
  6
CONTINUOUS
100
AcDbLine
 10
187.4909971474325
 20
189.8738657213116
 30
0.0
 11
187.4909971474325
 21
100.8738657213116
 31
0.0
  0
INSERT
  5
39EA
330
3930
100
AcDbEntity
  8
DIMENSIONS
  6
CONTINUOUS
100
AcDbBlockReference
  2
_OPEN30
 10
187.4909971474325
 20
191.8738657213116
 30
0.0
 41
2.0
 42
2.0
 43
2.0
 50
90.0
  0
INSERT
  5
39EB
330
3930
100
AcDbEntity
  8
DIMENSIONS
  6
CONTINUOUS
100
AcDbBlockReference
  2
_OPEN30
 10
187.4909971474325
 20
98.87386572131164
 30
0.0
 41
2.0
 42
2.0
 43
2.0
 50
270.0
  0
MTEXT
  5
39EC
330
3930
100
AcDbEntity
  8
DIMENSIONS
  6
CONTINUOUS
 62
     3
100
AcDbMText
 10
184.9909971474325
 20
145.3738657213117
 30
0.0
 40
3.0
 41
0.0
 71
     5
 72
     1
  1
\A1;93
 11
0.0000000000000001
 21
1.0
 31
0.0
1001
ACAD
1000
MTEXTBEGIN
1070
    73
1070
     1
1070
    44
1040
1.0
1070
    74
1070
     0
1000
MTEXTEND
  0
POINT
  5
39ED
330
3930
100
AcDbEntity
  8
DEFPOINTS
  6
CONTINUOUS
 62
     0
100
AcDbPoint
 10
102.6149551876968
 20
191.8738657213116
 30
0.0
  0
POINT
  5
39EE
330
3930
100
AcDbEntity
  8
DEFPOINTS
  6
CONTINUOUS
 62
     0
100
AcDbPoint
 10
159.8992264351587
 20
98.87386572131166
 30
0.0
  0
POINT
  5
39EF
330
3930
100
AcDbEntity
  8
DEFPOINTS
  6
CONTINUOUS
 62
     0
100
AcDbPoint
 10
187.4909971474325
 20
98.87386572131164
 30
0.0
  0
ENDBLK
  5
393C
330
3930
100
AcDbEntity
  8
0
100
AcDbBlockEnd
  0
BLOCK
  5
3948
330
393D
100
AcDbEntity
  8
0
100
AcDbBlockBegin
  2
*D5
 70
     1
 10
0.0
 20
0.0
 30
0.0
  3
*D5
  1

  0
LINE
  5
39DE
330
393D
100
AcDbEntity
  8
DIMENSIONS
  6
CONTINUOUS
100
AcDbLine
 10
165.5913951098575
 20
105.8738657213116
 30
0.0
 11
178.6053398686365
 21
105.8738657213116
 31
0.0
  0
LINE
  5
39DF
330
393D
100
AcDbEntity
  8
DIMENSIONS
  6
CONTINUOUS
100
AcDbLine
 10
165.5913951098575
 20
165.8738657213116
 30
0.0
 11
178.6053398686365
 21
165.8738657213116
 31
0.0
  0
LINE
  5
39E0
330
393D
100
AcDbEntity
  8
DIMENSIONS
  6
CONTINUOUS
100
AcDbLine
 10
177.6053398686365
 20
107.8738657213116
 30
0.0
 11
177.6053398686365
 21
163.8738657213116
 31
0.0
  0
INSERT
  5
39E1
330
393D
100
AcDbEntity
  8
DIMENSIONS
  6
CONTINUOUS
100
AcDbBlockReference
  2
_OPEN30
 10
177.6053398686365
 20
105.8738657213116
 30
0.0
 41
2.0
 42
2.0
 43
2.0
 50
270.0
  0
INSERT
  5
39E2
330
393D
100
AcDbEntity
  8
DIMENSIONS
  6
CONTINUOUS
100
AcDbBlockReference
  2
_OPEN30
 10
177.6053398686365
 20
165.8738657213116
 30
0.0
 41
2.0
 42
2.0
 43
2.0
 50
90.0
  0
MTEXT
  5
39E3
330
393D
100
AcDbEntity
  8
DIMENSIONS
  6
CONTINUOUS
 62
     3
100
AcDbMText
 10
175.1053398686365
 20
135.8738657213116
 30
0.0
 40
3.0
 41
0.0
 71
     5
 72
     1
  1
\A1;60
 11
0.0000000000000001
 21
1.0
 31
0.0
1001
ACAD
1000
MTEXTBEGIN
1070
    73
1070
     1
1070
    44
1040
1.0
1070
    74
1070
     0
1000
MTEXTEND
  0
POINT
  5
39E4
330
393D
100
AcDbEntity
  8
DEFPOINTS
  6
CONTINUOUS
 62
     0
100
AcDbPoint
 10
163.5913951098575
 20
105.8738657213116
 30
0.0
  0
POINT
  5
39E5
330
393D
100
AcDbEntity
  8
DEFPOINTS
  6
CONTINUOUS
 62
     0
100
AcDbPoint
 10
163.5913951098575
 20
165.8738657213116
 30
0.0
  0
POINT
  5
39E6
330
393D
100
AcDbEntity
  8
DEFPOINTS
  6
CONTINUOUS
 62
     0
100
AcDbPoint
 10
177.6053398686365
 20
165.8738657213116
 30
0.0
  0
ENDBLK
  5
3949
330
393D
100
AcDbEntity
  8
0
100
AcDbBlockEnd
  0
ENDSEC
  0
SECTION
  2
ENTITIES
  0
TEXT
  5
35F8
330
A
100
AcDbEntity
  8
FILE_NAME
  6
CONTINUOUS
100
AcDbText
 10
0.0
 20
10.0
 30
0.0
 40
5.0
  1
14-5615-02-006
 41
0.75
100
AcDbText
  0
TEXT
  5
3607
330
A
100
AcDbEntity
  8
FILE_NAME
  6
CONTINUOUS
100
AcDbText
 10
0.0
 20
0.0
 30
0.0
 40
5.0
  1
12-14-5615-02-006_1
 41
0.75
100
AcDbText
  0
TEXT
  5
36B6
330
A
100
AcDbEntity
  8
FILE_NAME
  6
CONTINUOUS
100
AcDbText
 10
0.0
 20
20.0
 30
0.0
 40
5.0
  1
帽子掛け 14-5615-02-006
 41
0.75
100
AcDbText
  0
DIMENSION
  5
3886
330
A
100
AcDbEntity
  8
DIMENSIONS
  6
CONTINUOUS
100
AcDbDimension
  2
*D2
 10
3.821319009051249
 20
86.26910489253448
 30
0.0
 11
10.82131900905125
 21
89.01275971486951
 31
0.0
 70
    32
  1
φ<>
  3
STANDARD
100
AcDbAlignedDimension
 13
17.82131900905125
 23
105.8738657213116
 33
0.0
 14
3.821319009051251
 24
105.8738657213116
 34
0.0
100
AcDbRotatedDimension
  0
DIMENSION
  5
3887
330
A
100
AcDbEntity
  8
DIMENSIONS
  6
CONTINUOUS
100
AcDbDimension
  2
*D3
 10
159.8992264351587
 20
86.26910489253448
 30
0.0
 11
107.3992264351587
 21
88.76910489253448
 31
0.0
 70
    32
  1
<>
  3
STANDARD
100
AcDbAlignedDimension
 13
54.89922643515876
 23
144.1581369687735
 33
0.0
 14
159.8992264351587
 24
98.87386572131166
 34
0.0
100
AcDbRotatedDimension
  0
DIMENSION
  5
3888
330
A
100
AcDbEntity
  8
DIMENSIONS
  6
CONTINUOUS
100
AcDbDimension
  2
*D4
 10
187.4909971474325
 20
98.87386572131164
 30
0.0
 11
184.9909971474325
 21
145.3738657213117
 31
0.0
 70
    32
  1
<>
  3
STANDARD
100
AcDbAlignedDimension
 13
102.6149551876968
 23
191.8738657213116
 33
0.0
 14
159.8992264351587
 24
98.87386572131166
 34
0.0
 50
90.0
100
AcDbRotatedDimension
  0
DIMENSION
  5
3889
330
A
100
AcDbEntity
  8
DIMENSIONS
  6
CONTINUOUS
100
AcDbDimension
  2
*D5
 10
177.6053398686365
 20
165.8738657213116
 30
0.0
 11
175.1053398686365
 21
135.8738657213116
 31
0.0
 70
    32
  1
<>
  3
STANDARD
100
AcDbAlignedDimension
 13
163.5913951098575
 23
105.8738657213116
 33
0.0
 14
163.5913951098575
 24
165.8738657213116
 34
0.0
 50
90.0
100
AcDbRotatedDimension
  0
ARC
  5
38A1
330
A
100
AcDbEntity
  8
SHAPE_OUTLINE_BOLD_LINE_
100
AcDbCircle
 10
10.82131900905125
 20
105.8738657213116
 30
0.0
 40
7.0
100
AcDbArc
 50
270.0
 51
0.0
  0
ARC
  5
38A2
330
A
100
AcDbEntity
  8
SHAPE_OUTLINE_BOLD_LINE_
100
AcDbCircle
 10
10.82131900905125
 20
105.8738657213116
 30
0.0
 40
7.0
100
AcDbArc
 50
180.0
 51
270.0
  0
ARC
  5
38A3
330
A
100
AcDbEntity
  8
SHAPE_OUTLINE_BOLD_LINE_
100
AcDbCircle
 10
10.82131900905125
 20
184.8738657213116
 30
0.0
 40
7.0
100
AcDbArc
 50
0.0
 51
90.0
  0
ARC
  5
38A4
330
A
100
AcDbEntity
  8
SHAPE_OUTLINE_BOLD_LINE_
100
AcDbCircle
 10
10.82131900905125
 20
184.8738657213116
 30
0.0
 40
7.0
100
AcDbArc
 50
90.0
 51
180.0
  0
ARC
  5
38A9
330
A
100
AcDbEntity
  8
SHAPE_OUTLINE_BOLD_LINE_
100
AcDbCircle
 10
132.3845078093973
 20
178.8738657213116
 30
0.0
 40
6.0
100
AcDbArc
 50
224.9999999999997
 51
270.0
  0
ARC
  5
38AA
330
A
100
AcDbEntity
  8
SHAPE_OUTLINE_BOLD_LINE_
100
AcDbCircle
 10
132.3845078093973
 20
178.8738657213116
 30
0.0
 40
20.0
100
AcDbArc
 50
224.9999999999997
 51
270.0
  0
CIRCLE
  5
38AF
330
A
100
AcDbEntity
  8
SHAPE_OUTLINE_THIN_LINE_
  6
DASHED
100
AcDbCircle
 10
10.82131900905125
 20
165.8738657213116
 30
0.0
 40
7.0
  0
ARC
  5
38B1
330
A
100
AcDbEntity
  8
SHAPE_OUTLINE_THIN_LINE_
  6
DASHED
100
AcDbCircle
 10
10.82131900905125
 20
105.8738657213116
 30
0.0
 40
7.0
100
AcDbArc
 50
0.0
 51
180.0
  0
ARC
  5
38B2
330
A
100
AcDbEntity
  8
SHAPE_OUTLINE_BOLD_LINE_
100
AcDbCircle
 10
102.6149551876968
 20
171.8738657213116
 30
0.0
 40
6.000000000000009
100
AcDbArc
 50
44.99999999999971
 51
135.0000000000002
  0
ARC
  5
38B3
330
A
100
AcDbEntity
  8
SHAPE_OUTLINE_BOLD_LINE_
100
AcDbCircle
 10
74.89922643515876
 20
144.1581369687735
 30
0.0
 40
6.0
100
AcDbArc
 50
135.0000000000002
 51
224.9999999999997
  0
ARC
  5
38B4
330
A
100
AcDbEntity
  8
SHAPE_OUTLINE_BOLD_LINE_
100
AcDbCircle
 10
100.1834976826206
 20
118.8738657213116
 30
0.0
 40
6.0
100
AcDbArc
 50
224.9999999999997
 51
270.0
  0
ARC
  5
38B5
330
A
100
AcDbEntity
  8
SHAPE_OUTLINE_BOLD_LINE_
100
AcDbCircle
 10
100.1834976826206
 20
118.8738657213116
 30
0.0
 40
20.0
100
AcDbArc
 50
224.9999999999997
 51
270.0
  0
ARC
  5
38B6
330
A
100
AcDbEntity
  8
SHAPE_OUTLINE_BOLD_LINE_
100
AcDbCircle
 10
74.89922643515876
 20
144.1581369687735
 30
0.0
 40
20.0
100
AcDbArc
 50
180.0
 51
224.9999999999997
  0
ARC
  5
38B7
330
A
100
AcDbEntity
  8
SHAPE_OUTLINE_BOLD_LINE_
100
AcDbCircle
 10
74.89922643515876
 20
144.1581369687735
 30
0.0
 40
20.0
100
AcDbArc
 50
135.0000000000002
 51
180.0
  0
ARC
  5
38B8
330
A
100
AcDbEntity
  8
SHAPE_OUTLINE_BOLD_LINE_
100
AcDbCircle
 10
102.6149551876968
 20
171.8738657213116
 30
0.0
 40
20.0
100
AcDbArc
 50
90.0
 51
135.0000000000002
  0
ARC
  5
38B9
330
A
100
AcDbEntity
  8
SHAPE_OUTLINE_BOLD_LINE_
100
AcDbCircle
 10
102.6149551876968
 20
171.8738657213116
 30
0.0
 40
20.00000000000001
100
AcDbArc
 50
44.99999999999971
 51
90.0
  0
LINE
  5
38C6
330
A
100
AcDbEntity
  8
CENTER
100
AcDbLine
 10
10.82131900905125
 20
197.7696053252552
 30
0.0
 11
10.82131900905125
 21
96.32070245861569
 31
0.0
  0
LINE
  5
38C7
330
A
100
AcDbEntity
  8
SHAPE_OUTLINE_BOLD_LINE_
100
AcDbLine
 10
149.2992264351587
 20
158.8738657213116
 30
0.0
 11
148.8992264351587
 21
158.8738657213116
 31
0.0
  0
LINE
  5
38C8
330
A
100
AcDbEntity
  8
SHAPE_OUTLINE_BOLD_LINE_
100
AcDbLine
 10
152.4992264351587
 20
158.8738657213116
 30
0.0
 11
149.2992264351587
 21
158.8738657213116
 31
0.0
  0
LINE
  5
38CA
330
A
100
AcDbEntity
  8
SHAPE_OUTLINE_BOLD_LINE_
100
AcDbLine
 10
148.8992264351587
 20
158.8738657213116
 30
0.0
 11
135.0954465969484
 21
158.8738657213116
 31
0.0
  0
LINE
  5
38CD
330
A
100
AcDbEntity
  8
SHAPE_OUTLINE_BOLD_LINE_
100
AcDbLine
 10
152.8992264351587
 20
158.8738657213116
 30
0.0
 11
152.4992264351587
 21
158.8738657213116
 31
0.0
  0
LINE
  5
38CF
330
A
100
AcDbEntity
  8
SHAPE_OUTLINE_BOLD_LINE_
100
AcDbLine
 10
159.8992264351587
 20
160.0738657213116
 30
0.0
 11
159.8992264351587
 21
158.8738657213116
 31
0.0
  0
LINE
  5
38D1
330
A
100
AcDbEntity
  8
SHAPE_OUTLINE_BOLD_LINE_
100
AcDbLine
 10
159.8992264351587
 20
171.6738657213116
 30
0.0
 11
159.8992264351587
 21
171.2738657213116
 31
0.0
  0
LINE
  5
38D3
330
A
100
AcDbEntity
  8
SHAPE_OUTLINE_BOLD_LINE_
100
AcDbLine
 10
159.8992264351587
 20
160.4738657213116
 30
0.0
 11
159.8992264351587
 21
160.0738657213116
 31
0.0
  0
LINE
  5
38D4
330
A
100
AcDbEntity
  8
SHAPE_OUTLINE_BOLD_LINE_
100
AcDbLine
 10
159.8992264351587
 20
172.8738657213116
 30
0.0
 11
159.8992264351587
 21
171.6738657213116
 31
0.0
  0
LINE
  5
38D5
330
A
100
AcDbEntity
  8
SHAPE_OUTLINE_BOLD_LINE_
100
AcDbLine
 10
135.0954465969484
 20
158.8738657213116
 30
0.0
 11
132.3845078093973
 21
158.8738657213116
 31
0.0
  0
LINE
  5
38D6
330
A
100
AcDbEntity
  8
SHAPE_OUTLINE_BOLD_LINE_
100
AcDbLine
 10
134.7012537438847
 20
172.8738657213116
 30
0.0
 11
159.8992264351587
 21
172.8738657213116
 31
0.0
  0
LINE
  5
38D7
330
A
100
AcDbEntity
  8
SHAPE_OUTLINE_BOLD_LINE_
100
AcDbLine
 10
159.8992264351587
 20
163.1238657213116
 30
0.0
 11
159.8992264351587
 21
160.4738657213116
 31
0.0
  0
LINE
  5
38DB
330
A
100
AcDbEntity
  8
SHAPE_OUTLINE_BOLD_LINE_
100
AcDbLine
 10
159.8992264351587
 20
168.6238657213116
 30
0.0
 11
159.8992264351587
 21
163.1238657213116
 31
0.0
  0
LINE
  5
38E0
330
A
100
AcDbEntity
  8
SHAPE_OUTLINE_BOLD_LINE_
100
AcDbLine
 10
159.8992264351587
 20
112.8738657213116
 30
0.0
 11
159.8992264351587
 21
98.87386572131166
 31
0.0
  0
LINE
  5
38EB
330
A
100
AcDbEntity
  8
SHAPE_OUTLINE_BOLD_LINE_
100
AcDbLine
 10
159.8992264351587
 20
171.2738657213116
 30
0.0
 11
159.8992264351587
 21
168.6238657213116
 31
0.0
  0
LINE
  5
38EE
330
A
100
AcDbEntity
  8
SHAPE_OUTLINE_BOLD_LINE_
100
AcDbLine
 10
3.821319009051251
 20
184.8738657213116
 30
0.0
 11
3.821319009051251
 21
105.8738657213116
 31
0.0
  0
LINE
  5
38EF
330
A
100
AcDbEntity
  8
SHAPE_OUTLINE_BOLD_LINE_
100
AcDbLine
 10
17.82131900905125
 20
105.8738657213116
 30
0.0
 11
17.82131900905125
 21
184.8738657213116
 31
0.0
  0
LINE
  5
38F5
330
A
100
AcDbEntity
  8
SHAPE_OUTLINE_BOLD_LINE_
100
AcDbLine
 10
159.8992264351587
 20
158.8738657213116
 30
0.0
 11
152.8992264351587
 21
158.8738657213116
 31
0.0
  0
LINE
  5
38F6
330
A
100
AcDbEntity
  8
SHAPE_OUTLINE_BOLD_LINE_
100
AcDbLine
 10
118.2423721856664
 20
164.7317300975807
 30
0.0
 11
106.8575958748161
 21
176.1165064084309
 31
0.0
  0
LINE
  5
38F7
330
A
100
AcDbEntity
  8
SHAPE_OUTLINE_BOLD_LINE_
100
AcDbLine
 10
98.37231450057755
 20
176.1165064084309
 30
0.0
 11
70.65658574803944
 21
148.4007776558928
 31
0.0
  0
LINE
  5
38F8
330
A
100
AcDbEntity
  8
SHAPE_OUTLINE_BOLD_LINE_
100
AcDbLine
 10
70.65658574803944
 20
139.9154962816542
 30
0.0
 11
95.94085699550134
 21
114.6312250341923
 31
0.0
  0
LINE
  5
38F9
330
A
100
AcDbEntity
  8
SHAPE_OUTLINE_BOLD_LINE_
100
AcDbLine
 10
100.1834976826206
 20
112.8738657213116
 30
0.0
 11
159.8992264351587
 21
112.8738657213116
 31
0.0
  0
LINE
  5
38FA
330
A
100
AcDbEntity
  8
SHAPE_OUTLINE_BOLD_LINE_
100
AcDbLine
 10
159.8992264351587
 20
98.87386572131166
 30
0.0
 11
100.1834976826206
 21
98.87386572131166
 31
0.0
  0
LINE
  5
38FB
330
A
100
AcDbEntity
  8
SHAPE_OUTLINE_BOLD_LINE_
100
AcDbLine
 10
86.04136205888972
 20
104.7317300975806
 30
0.0
 11
60.75709081142782
 21
130.0160013450426
 31
0.0
  0
LINE
  5
38FC
330
A
100
AcDbEntity
  8
SHAPE_OUTLINE_BOLD_LINE_
100
AcDbLine
 10
60.75709081142782
 20
158.3002725925045
 30
0.0
 11
88.4728195639659
 21
186.0160013450425
 31
0.0
  0
LINE
  5
38FD
330
A
100
AcDbEntity
  8
SHAPE_OUTLINE_BOLD_LINE_
100
AcDbLine
 10
116.7570908114278
 20
186.0160013450425
 30
0.0
 11
128.141867122278
 21
174.6312250341923
 31
0.0
  0
LINE
  5
38FE
330
A
100
AcDbEntity
  8
SHAPE_OUTLINE_BOLD_LINE_
100
AcDbLine
 10
132.3845078093973
 20
172.8738657213116
 30
0.0
 11
134.7012537438847
 21
172.8738657213116
 31
0.0
  0
LWPOLYLINE
  5
3996
330
A
100
AcDbEntity
  8
CENTER
100
AcDbPolyline
 90
       10
 70
   128
 43
0.0
 10
163.5913951098575
 20
105.8738657213116
 10
100.1834976826206
 20
105.8738657213116
 42
-0.1989123673796592
 10
90.99110952719547
 20
109.6814775658865
 10
65.70683827973363
 20
134.9657488133484
 42
-0.4142135623730922
 10
65.70683827973363
 20
153.3505251241986
 10
93.42256703227173
 20
181.0662538767367
 42
-0.4142135623730979
 10
111.807343343122
 20
181.0662538767367
 10
123.1921196539721
 20
169.6814775658865
 42
0.1989123673796592
 10
132.3845078093973
 20
165.8738657213116
 10
163.5913951098575
 20
165.8738657213116
  0
ENDSEC
  0
SECTION
  2
OBJECTS
  0
DICTIONARY
  5
19
330
0
100
AcDbDictionary
  3
ACAD_GROUP
350
1A
  3
ACAD_LAYOUT
350
157A
  3
ACAD_MLINESTYLE
350
1B
  3
ACAD_PLOTSETTINGS
350
157B
  3
ACAD_PLOTSTYLENAME
350
1578
  3
ACDBHEADERROUNDTRIPXREC
350
3A49
  3
ACDBVARIABLEDICTIONARY
350
3478
  3
ADE_QUERY_LIBRARY
350
3622
  3
ASE_INDEX_DICTIONARY
350
36F0
1001
ADE
1000
ADE02C004
1000
[Query]
1000
CaseSensitiveMatch=0
1000
SaveCurrQueryInSession=1
1000
MkSelSetWithQryObj=0
1000
ShowBlockAsInsPt=0
1000
CreateAssociativeHatchObjects=0
1000
ReferenceBoundaryForAreaLocation=1
1000
ShowImageAsBoundary=1
1000
DefaultJoinOperator=2
1000
ColorForAdd=red
1000
ColorForRemove=red
1000
BlockLocnForQuery=1
1000
TextLocnForQuery=1
1000
[Save Back]
1000
RedefineBlockDefinitions=1
1000
RedefineLayerDefinitions=1
1000
RedefineTextStyleDefinitions=1
1000
RemoveUnusedGroups=1
1000
EraseSavedBackObjects=1
1000
RemoveLockAfterSave=1
1000
CreateHistoryFileOfChanges=0
1000
CreateBackupFileOfSourceDwg=1
1000
DontAddObjectsToSaveSet=0
1000
MarkObjectsForEditingWithoutPrompting=0
1000
[Coordinate Transformation]
1000
RestoreLastActiveDwgsOnStartup=1
1000
ActivateDwgsOnAttach=1
1000
AdjustSizesAndScalesForChangesInUnits=1
1000
AdjustRotationsForMapDistortions=1
1000
AdjustSizesAndScalesForMapDistortions=1
1000
AdjustElevations=1
1000
AdjustZeroRotationObjects=1
1000
ReconnectDbOnWSOpen=1
1000
NoOfSQLConditionsInHistory=10
  0
DICTIONARY
  5
36A5
330
A
100
AcDbDictionary
280
     1
  3
ACAD_LAYOUTSELFREF
360
3A6A
  3
ACAD_SORTENTS
360
36A6
  0
DICTIONARY
  5
3A6B
330
B
100
AcDbDictionary
280
     1
  3
ACAD_LAYOUTSELFREF
360
3A6C
  0
DICTIONARY
  5
1A
102
{ACAD_REACTORS
330
19
102
}
330
19
100
AcDbDictionary
  0
DICTIONARY
  5
157A
102
{ACAD_REACTORS
330
19
102
}
330
19
100
AcDbDictionary
  0
DICTIONARY
  5
1B
102
{ACAD_REACTORS
330
19
102
}
330
19
100
AcDbDictionary
  3
STANDARD
350
1C
  0
DICTIONARY
  5
157B
102
{ACAD_REACTORS
330
19
102
}
330
19
100
AcDbDictionary
  0
ACDBDICTIONARYWDFLT
  5
1578
102
{ACAD_REACTORS
330
19
102
}
330
19
100
AcDbDictionary
281
     1
  3
Normal
350
1579
100
AcDbDictionaryWithDefault
340
1579
  0
DICTIONARY
  5
3A49
102
{ACAD_REACTORS
330
19
102
}
330
19
100
AcDbDictionary
  3
CEPSNTYPE
350
3A53
  3
DIMSTYLEDATA
350
3A57
  3
FINGERPRINTGUID
350
3A54
  3
HYPERLINKBASE
350
3A4C
  3
INSUNITS
350
3A52
  3
LAYOUTDICT
350
3A4E
  3
LWETCUNION
350
3A51
  3
PLOTSETDICT
350
3A4F
  3
PLOTSTYLNAMDICT
350
3A50
  3
PSVPSCALE
350
3A56
  3
PUCSBASE
350
3A5A
  3
PUCSORGBACK
350
3A60
  3
PUCSORGBOTTOM
350
3A5C
  3
PUCSORGFRONT
350
3A5F
  3
PUCSORGLEFT
350
3A5D
  3
PUCSORGRIGHT
350
3A5E
  3
PUCSORGTOP
350
3A5B
  3
PUCSORTHOREF
350
3A58
  3
PUCSORTHOVIEW
350
3A59
  3
STYLESHEET
350
3A4D
  3
TSTACKALIGN
350
3A4A
  3
TSTACKSIZE
350
3A4B
  3
UCSBASE
350
3A63
  3
UCSORGBACK
350
3A69
  3
UCSORGBOTTOM
350
3A65
  3
UCSORGFRONT
350
3A68
  3
UCSORGLEFT
350
3A66
  3
UCSORGRIGHT
350
3A67
  3
UCSORGTOP
350
3A64
  3
UCSORTHOREF
350
3A61
  3
UCSORTHOVIEW
350
3A62
  3
VERSIONGUID
350
3A55
  0
DICTIONARY
  5
3478
102
{ACAD_REACTORS
330
19
102
}
330
19
100
AcDbDictionary
  3
DIMASSOC
350
3479
  3
SORTENTS
350
36A9
  0
DICTIONARY
  5
3622
102
{ACAD_REACTORS
330
19
102
}
330
19
100
AcDbDictionary
  3
_CURRQRY
350
3701
  0
DICTIONARY
  5
36F0
102
{ACAD_REACTORS
330
19
102
}
330
19
100
AcDbDictionary
  3
ASEBLOCKHIERARCHYINDEXRECORD
350
36F1
1001
DCO15
1040
1567163039.828
  0
XRECORD
  5
3A6A
102
{ACAD_REACTORS
330
36A5
102
}
330
36A5
100
AcDbXrecord
340
A
  0
SORTENTSTABLE
  5
36A6
102
{ACAD_REACTORS
330
36A5
102
}
330
36A5
100
AcDbSortentsTable
330
A
331
35F8
  5
35FD
331
3607
  5
3634
  0
XRECORD
  5
3A6C
102
{ACAD_REACTORS
330
3A6B
102
}
330
3A6B
100
AcDbXrecord
340
B
  0
MLINESTYLE
  5
1C
102
{ACAD_REACTORS
330
1B
102
}
330
1B
100
AcDbMlineStyle
  2
STANDARD
 70
     0
  3

 62
     0
 51
90.0
 52
90.0
 71
     2
 49
0.5
 62
   256
  6
BYLAYER
 49
-0.5
 62
   256
  6
BYLAYER
  0
ACDBPLACEHOLDER
  5
1579
102
{ACAD_REACTORS
330
1578
102
}
330
1578
100
AcDbPlaceHolder
280
     0
  0
XRECORD
  5
3A53
102
{ACAD_REACTORS
330
3A49
102
}
330
3A49
100
AcDbXrecord
 90
        0
  0
XRECORD
  5
3A57
102
{ACAD_REACTORS
330
3A49
102
}
330
3A49
100
AcDbXrecord
1000
DSTYLE
1002
{
1070
   279
 70
     2
1070
   341
340
143A
1070
   342
340
143A
1070
   371
 70
    -1
1070
   372
 70
    -1
1002
}
  0
XRECORD
  5
3A54
102
{ACAD_REACTORS
330
3A49
102
}
330
3A49
100
AcDbXrecord
  1
{5653D33C-3AEF-40FE-8495-DE925CF19E35}
  0
XRECORD
  5
3A4C
102
{ACAD_REACTORS
330
3A49
102
}
330
3A49
100
AcDbXrecord
  1

  0
XRECORD
  5
3A52
102
{ACAD_REACTORS
330
3A49
102
}
330
3A49
100
AcDbXrecord
 90
        0
  0
XRECORD
  5
3A4E
102
{ACAD_REACTORS
330
3A49
102
}
330
3A49
100
AcDbXrecord
340
157A
  0
XRECORD
  5
3A51
102
{ACAD_REACTORS
330
3A49
102
}
330
3A49
100
AcDbXrecord
 90
    10781
  0
XRECORD
  5
3A4F
102
{ACAD_REACTORS
330
3A49
102
}
330
3A49
100
AcDbXrecord
340
157B
  0
XRECORD
  5
3A50
102
{ACAD_REACTORS
330
3A49
102
}
330
3A49
100
AcDbXrecord
340
1578
  0
XRECORD
  5
3A56
102
{ACAD_REACTORS
330
3A49
102
}
330
3A49
100
AcDbXrecord
 40
0.0
  0
XRECORD
  5
3A5A
102
{ACAD_REACTORS
330
3A49
102
}
330
3A49
100
AcDbXrecord
340
0
  0
XRECORD
  5
3A60
102
{ACAD_REACTORS
330
3A49
102
}
330
3A49
100
AcDbXrecord
 10
0.0
 20
0.0
 30
0.0
  0
XRECORD
  5
3A5C
102
{ACAD_REACTORS
330
3A49
102
}
330
3A49
100
AcDbXrecord
 10
0.0
 20
0.0
 30
0.0
  0
XRECORD
  5
3A5F
102
{ACAD_REACTORS
330
3A49
102
}
330
3A49
100
AcDbXrecord
 10
0.0
 20
0.0
 30
0.0
  0
XRECORD
  5
3A5D
102
{ACAD_REACTORS
330
3A49
102
}
330
3A49
100
AcDbXrecord
 10
0.0
 20
0.0
 30
0.0
  0
XRECORD
  5
3A5E
102
{ACAD_REACTORS
330
3A49
102
}
330
3A49
100
AcDbXrecord
 10
0.0
 20
0.0
 30
0.0
  0
XRECORD
  5
3A5B
102
{ACAD_REACTORS
330
3A49
102
}
330
3A49
100
AcDbXrecord
 10
0.0
 20
0.0
 30
0.0
  0
XRECORD
  5
3A58
102
{ACAD_REACTORS
330
3A49
102
}
330
3A49
100
AcDbXrecord
340
0
  0
XRECORD
  5
3A59
102
{ACAD_REACTORS
330
3A49
102
}
330
3A49
100
AcDbXrecord
 70
     0
  0
XRECORD
  5
3A4D
102
{ACAD_REACTORS
330
3A49
102
}
330
3A49
100
AcDbXrecord
  1
スガツネWeb_mono.ctb
  0
XRECORD
  5
3A4A
102
{ACAD_REACTORS
330
3A49
102
}
330
3A49
100
AcDbXrecord
 90
        1
  0
XRECORD
  5
3A4B
102
{ACAD_REACTORS
330
3A49
102
}
330
3A49
100
AcDbXrecord
 90
       70
  0
XRECORD
  5
3A63
102
{ACAD_REACTORS
330
3A49
102
}
330
3A49
100
AcDbXrecord
340
0
  0
XRECORD
  5
3A69
102
{ACAD_REACTORS
330
3A49
102
}
330
3A49
100
AcDbXrecord
 10
0.0
 20
0.0
 30
0.0
  0
XRECORD
  5
3A65
102
{ACAD_REACTORS
330
3A49
102
}
330
3A49
100
AcDbXrecord
 10
0.0
 20
0.0
 30
0.0
  0
XRECORD
  5
3A68
102
{ACAD_REACTORS
330
3A49
102
}
330
3A49
100
AcDbXrecord
 10
0.0
 20
0.0
 30
0.0
  0
XRECORD
  5
3A66
102
{ACAD_REACTORS
330
3A49
102
}
330
3A49
100
AcDbXrecord
 10
0.0
 20
0.0
 30
0.0
  0
XRECORD
  5
3A67
102
{ACAD_REACTORS
330
3A49
102
}
330
3A49
100
AcDbXrecord
 10
0.0
 20
0.0
 30
0.0
  0
XRECORD
  5
3A64
102
{ACAD_REACTORS
330
3A49
102
}
330
3A49
100
AcDbXrecord
 10
0.0
 20
0.0
 30
0.0
  0
XRECORD
  5
3A61
102
{ACAD_REACTORS
330
3A49
102
}
330
3A49
100
AcDbXrecord
340
0
  0
XRECORD
  5
3A62
102
{ACAD_REACTORS
330
3A49
102
}
330
3A49
100
AcDbXrecord
 70
     0
  0
XRECORD
  5
3A55
102
{ACAD_REACTORS
330
3A49
102
}
330
3A49
100
AcDbXrecord
  1
{2145F9F2-878D-4F35-8F9B-75FC66A3FFF6}
  0
DICTIONARYVAR
  5
3479
102
{ACAD_REACTORS
330
3478
102
}
330
3478
100
DictionaryVariables
280
     0
  1
1
  0
DICTIONARYVAR
  5
36A9
102
{ACAD_REACTORS
330
3478
102
}
330
3478
100
DictionaryVariables
280
     0
  1
127
  0
XRECORD
  5
3701
102
{ACAD_REACTORS
330
3622
102
}
330
3622
100
AcDbXrecord
1000
ADE02C001
1070
     1
1070
     0
1002
{
1002
}
1002
{
1002
}
1002
{
1002
}
1000

  0
XRECORD
  5
36F1
102
{ACAD_REACTORS
330
36F0
102
}
330
36F0
100
AcDbXrecord
  0
ENDSEC
  0
EOF
