  0
SECTION
  2
HEADER
  9
$ACADVER
  1
AC1014
  9
$ACADMAINTVER
 70
     0
  9
$DWGCODEPAGE
  3
ANSI_932
  9
$INSBASE
 10
0.0
 20
0.0
 30
0.0
  9
$EXTMIN
 10
-10.0
 20
-10.00000000000005
 30
0.0
  9
$EXTMAX
 10
287.0
 20
200.0
 30
0.0
  9
$LIMMIN
 10
0.0
 20
0.0
  9
$LIMMAX
 10
0.0
 20
0.0
  9
$ORTHOMODE
 70
     0
  9
$REGENMODE
 70
     1
  9
$FILLMODE
 70
     1
  9
$QTEXTMODE
 70
     0
  9
$MIRRTEXT
 70
     1
  9
$DRAGMODE
 70
     2
  9
$LTSCALE
 40
0.1
  9
$OSMODE
 70
     0
  9
$ATTMODE
 70
     1
  9
$TEXTSIZE
 40
0.0
  9
$TRACEWID
 40
0.05
  9
$TEXTSTYLE
  7
STANDARD
  9
$CLAYER
  8
0
  9
$CELTYPE
  6
CONTINUOUS
  9
$CECOLOR
 62
   256
  9
$CELTSCALE
 40
1.0
  9
$DELOBJ
 70
     1
  9
$DISPSILH
 70
     0
  9
$DIMSCALE
 40
1.0
  9
$DIMASZ
 40
2.0
  9
$DIMEXO
 40
2.0
  9
$DIMDLI
 40
0.5
  9
$DIMRND
 40
0.0
  9
$DIMDLE
 40
0.0
  9
$DIMEXE
 40
1.0
  9
$DIMTP
 40
0.0
  9
$DIMTM
 40
0.0
  9
$DIMTXT
 40
3.0
  9
$DIMCEN
 40
0.0
  9
$DIMTSZ
 40
0.0
  9
$DIMTOL
 70
     0
  9
$DIMLIM
 70
     0
  9
$DIMTIH
 70
     0
  9
$DIMTOH
 70
     1
  9
$DIMSE1
 70
     0
  9
$DIMSE2
 70
     0
  9
$DIMTAD
 70
     1
  9
$DIMZIN
 70
     8
  9
$DIMBLK
  1
OPEN30
  9
$DIMASO
 70
     1
  9
$DIMSHO
 70
     1
  9
$DIMPOST
  1

  9
$DIMAPOST
  1

  9
$DIMALT
 70
     0
  9
$DIMALTD
 70
     2
  9
$DIMALTF
 40
25.4
  9
$DIMLFAC
 40
1.0
  9
$DIMTOFL
 70
     0
  9
$DIMTVP
 40
0.0
  9
$DIMTIX
 70
     1
  9
$DIMSOXD
 70
     0
  9
$DIMSAH
 70
     0
  9
$DIMBLK1
  1

  9
$DIMBLK2
  1

  9
$DIMSTYLE
  2
STANDARD
  9
$DIMCLRD
 70
   256
  9
$DIMCLRE
 70
   256
  9
$DIMCLRT
 70
     3
  9
$DIMTFAC
 40
1.0
  9
$DIMGAP
 40
1.0
  9
$DIMJUST
 70
     0
  9
$DIMSD1
 70
     0
  9
$DIMSD2
 70
     0
  9
$DIMTOLJ
 70
     1
  9
$DIMTZIN
 70
     0
  9
$DIMALTZ
 70
     0
  9
$DIMALTTZ
 70
     0
  9
$DIMFIT
 70
     5
  9
$DIMUPT
 70
     0
  9
$DIMUNIT
 70
     2
  9
$DIMDEC
 70
     1
  9
$DIMTDEC
 70
     1
  9
$DIMALTU
 70
     2
  9
$DIMALTTD
 70
     2
  9
$DIMTXSTY
  7
STANDARD
  9
$DIMAUNIT
 70
     0
  9
$LUNITS
 70
     2
  9
$LUPREC
 70
     4
  9
$SKETCHINC
 40
0.1
  9
$FILLETRAD
 40
0.0
  9
$AUNITS
 70
     0
  9
$AUPREC
 70
     0
  9
$MENU
  1
acad
  9
$ELEVATION
 40
0.0
  9
$PELEVATION
 40
0.0
  9
$THICKNESS
 40
0.0
  9
$LIMCHECK
 70
     0
  9
$BLIPMODE
 70
     0
  9
$CHAMFERA
 40
0.0
  9
$CHAMFERB
 40
0.0
  9
$CHAMFERC
 40
0.0
  9
$CHAMFERD
 40
0.0
  9
$SKPOLY
 70
     0
  9
$TDCREATE
 40
2312272.457674340
  9
$TDUPDATE
 40
2454000.783602604
  9
$TDINDWG
 40
0.1643294213
  9
$TDUSRTIMER
 40
0.1643288773
  9
$USRTIMER
 70
     1
  9
$ANGBASE
 50
0.0
  9
$ANGDIR
 70
     0
  9
$PDMODE
 70
     0
  9
$PDSIZE
 40
0.0
  9
$PLINEWID
 40
0.0
  9
$COORDS
 70
     0
  9
$SPLFRAME
 70
     0
  9
$SPLINETYPE
 70
     6
  9
$SPLINESEGS
 70
     8
  9
$ATTDIA
 70
     0
  9
$ATTREQ
 70
     1
  9
$HANDLING
 70
 22529
  9
$HANDSEED
  5
3B50
  9
$SURFTAB1
 70
     6
  9
$SURFTAB2
 70
     6
  9
$SURFTYPE
 70
     6
  9
$SURFU
 70
     6
  9
$SURFV
 70
     6
  9
$UCSNAME
  2

  9
$UCSORG
 10
0.0
 20
0.0
 30
0.0
  9
$UCSXDIR
 10
1.0
 20
0.0
 30
0.0
  9
$UCSYDIR
 10
0.0
 20
1.0
 30
0.0
  9
$PUCSNAME
  2

  9
$PUCSORG
 10
0.0
 20
0.0
 30
0.0
  9
$PUCSXDIR
 10
1.0
 20
0.0
 30
0.0
  9
$PUCSYDIR
 10
0.0
 20
1.0
 30
0.0
  9
$USERI1
 70
     0
  9
$USERI2
 70
     0
  9
$USERI3
 70
     0
  9
$USERI4
 70
     0
  9
$USERI5
 70
     0
  9
$USERR1
 40
12.01
  9
$USERR2
 40
0.0
  9
$USERR3
 40
0.0
  9
$USERR4
 40
0.0
  9
$USERR5
 40
0.0
  9
$WORLDVIEW
 70
     1
  9
$SHADEDGE
 70
     3
  9
$SHADEDIF
 70
    70
  9
$TILEMODE
 70
     1
  9
$MAXACTVP
 70
    16
  9
$PINSBASE
 10
0.0
 20
0.0
 30
0.0
  9
$PLIMCHECK
 70
     0
  9
$PEXTMIN
 10
1.000000000000000E+20
 20
1.000000000000000E+20
 30
1.000000000000000E+20
  9
$PEXTMAX
 10
-1.000000000000000E+20
 20
-1.000000000000000E+20
 30
-1.000000000000000E+20
  9
$PLIMMIN
 10
0.0
 20
0.0
  9
$PLIMMAX
 10
12.0
 20
9.0
  9
$UNITMODE
 70
     0
  9
$VISRETAIN
 70
     0
  9
$PLINEGEN
 70
     1
  9
$PSLTSCALE
 70
     0
  9
$TREEDEPTH
 70
  3020
  9
$PICKSTYLE
 70
     1
  9
$CMLSTYLE
  2
STANDARD
  9
$CMLJUST
 70
     0
  9
$CMLSCALE
 40
1.0
  9
$PROXYGRAPHICS
 70
     0
  9
$MEASUREMENT
 70
     1
  0
ENDSEC
  0
SECTION
  2
CLASSES
  0
CLASS
  1
LWPOLYLINE
  2
AcDbPolyline
  3
AutoCAD 2000
 90
        0
280
     0
281
     1
  0
CLASS
  1
IMAGE
  2
AcDbRasterImage
  3
ISM
 90
      127
280
     0
281
     1
  0
CLASS
  1
OLE2FRAME
  2
AcDbOle2Frame
  3
AutoCAD 2000
 90
        0
280
     0
281
     1
  0
CLASS
  1
HATCH
  2
AcDbHatch
  3
AutoCAD 2000
 90
        0
280
     0
281
     1
  0
CLASS
  1
DICTIONARYVAR
  2
AcDbDictionaryVar
  3
AutoCAD 2000
 90
        0
280
     0
281
     0
  0
CLASS
  1
RASTERVARIABLES
  2
AcDbRasterVariables
  3
ISM
 90
        0
280
     0
281
     0
  0
CLASS
  1
IMAGEDEF
  2
AcDbRasterImageDef
  3
ISM
 90
        0
280
     0
281
     0
  0
CLASS
  1
IMAGEDEF_REACTOR
  2
AcDbRasterImageDefReactor
  3
ISM
 90
        1
280
     0
281
     0
  0
CLASS
  1
IDBUFFER
  2
AcDbIdBuffer
  3
AutoCAD 2000
 90
        0
280
     0
281
     0
  0
CLASS
  1
SPATIAL_FILTER
  2
AcDbSpatialFilter
  3
AutoCAD 2000
 90
        0
280
     0
281
     0
  0
CLASS
  1
XRECORD
  2
AcDbXrecord
  3
AutoCAD 2000
 90
        0
280
     0
281
     0
  0
CLASS
  1
SORTENTSTABLE
  2
AcDbSortentsTable
  3
AutoCAD 2000
 90
        0
280
     0
281
     0
  0
CLASS
  1
LAYER_INDEX
  2
AcDbLayerIndex
  3
AutoCAD 2000
 90
        0
280
     0
281
     0
  0
CLASS
  1
SPATIAL_INDEX
  2
AcDbSpatialIndex
  3
AutoCAD 2000
 90
        0
280
     0
281
     0
  0
CLASS
  1
OBJECT_PTR
  2
CAseDLPNTableRecord
  3
ASE-LPNTableRecord
 90
        1
280
     0
281
     0
  0
CLASS
  1
LAYOUT
  2
AcDbLayout
  3
AutoCAD 2000
 90
        0
280
     0
281
     0
  0
CLASS
  1
PLOTSETTINGS
  2
AcDbPlotSettings
  3
AutoCAD 2000
 90
        0
280
     0
281
     0
  0
CLASS
  1
ACDBDICTIONARYWDFLT
  2
AcDbDictionaryWithDefault
  3
AutoCAD 2000
 90
        0
280
     0
281
     0
  0
CLASS
  1
ACDBPLACEHOLDER
  2
AcDbPlaceHolder
  3
AutoCAD 2000
 90
        0
280
     0
281
     0
  0
CLASS
  1
LONG_TRANSACTION
  2
AcDbLongTransaction
  3
AutoCAD 2000
 90
        0
280
     0
281
     0
  0
CLASS
  1
LWPOLYLINE
  2
AcDbPolyline
  3
AutoCAD 2000
 90
        0
280
     0
281
     1
  0
CLASS
  1
HATCH
  2
AcDbHatch
  3
AutoCAD 2000
 90
        0
280
     0
281
     1
  0
CLASS
  1
XRECORD
  2
AcDbXrecord
  3
AutoCAD 2000
 90
        0
280
     0
281
     0
  0
ENDSEC
  0
SECTION
  2
TABLES
  0
TABLE
  2
VPORT
  5
7
330
0
100
AcDbSymbolTable
 70
     3
  0
VPORT
  5
3B2B
330
7
100
AcDbSymbolTableRecord
100
AcDbViewportTableRecord
  2
*ACTIVE
 70
     0
 10
0.0
 20
0.0
 11
1.0
 21
1.0
 12
138.500000691507
 22
95.00000048894433
 13
0.0
 23
0.0
 14
1.0
 24
1.0
 15
0.0
 25
0.0
 16
0.0
 26
0.0
 36
1.0
 17
0.0
 27
0.0
 37
0.0
 40
211.6996673216453
 41
1.563002680965147
 42
50.0
 43
0.0
 44
0.0
 50
0.0
 51
0.0
 71
     0
 72
   100
 73
     1
 74
     1
 75
     0
 76
     0
 77
     0
 78
     0
  0
ENDTAB
  0
TABLE
  2
LTYPE
  5
4
330
0
100
AcDbSymbolTable
 70
     2
  0
LTYPE
  5
11
330
4
100
AcDbSymbolTableRecord
100
AcDbLinetypeTableRecord
  2
BYBLOCK
 70
     0
  3

 72
    65
 73
     0
 40
0.0
  0
LTYPE
  5
12
330
4
100
AcDbSymbolTableRecord
100
AcDbLinetypeTableRecord
  2
BYLAYER
 70
     0
  3

 72
    65
 73
     0
 40
0.0
  0
LTYPE
  5
13
330
4
100
AcDbSymbolTableRecord
100
AcDbLinetypeTableRecord
  2
CONTINUOUS
 70
     0
  3
Solid line
 72
    65
 73
     0
 40
0.0
  0
LTYPE
  5
3407
330
4
100
AcDbSymbolTableRecord
100
AcDbLinetypeTableRecord
  2
CENTER
 70
     0
  3
Center ____ _ ____ _ ____ _ ____ _ ____ _ ____
 72
    65
 73
     4
 40
50.8
 49
31.75
 74
     0
 49
-6.349999999999999
 74
     0
 49
6.349999999999999
 74
     0
 49
-6.349999999999999
 74
     0
  0
ENDTAB
  0
TABLE
  2
LAYER
  5
2
330
0
100
AcDbSymbolTable
 70
     6
  0
LAYER
  5
14
330
2
100
AcDbSymbolTableRecord
100
AcDbLayerTableRecord
  2
0
 70
     0
 62
     7
  6
CONTINUOUS
  0
LAYER
  5
32EF
330
2
100
AcDbSymbolTableRecord
100
AcDbLayerTableRecord
  2
DEFPOINTS
 70
     0
 62
     7
  6
CONTINUOUS
  0
LAYER
  5
340D
330
2
100
AcDbSymbolTableRecord
100
AcDbLayerTableRecord
  2
DIMENSIONS
 70
     0
 62
     2
  6
CONTINUOUS
  0
LAYER
  5
3412
330
2
100
AcDbSymbolTableRecord
100
AcDbLayerTableRecord
  2
SHAPE_OUTLINE_BOLD_LINE_
 70
     0
 62
     7
  6
CONTINUOUS
  0
LAYER
  5
3574
330
2
100
AcDbSymbolTableRecord
100
AcDbLayerTableRecord
  2
FILE_NAME
 70
     0
 62
     1
  6
CONTINUOUS
  0
LAYER
  5
36A1
330
2
100
AcDbSymbolTableRecord
100
AcDbLayerTableRecord
  2
CENTER
 70
     0
 62
     2
  6
CENTER
  0
ENDTAB
  0
TABLE
  2
STYLE
  5
3
330
0
100
AcDbSymbolTable
 70
     1
  0
STYLE
  5
17
330
3
100
AcDbSymbolTableRecord
100
AcDbTextStyleTableRecord
  2
STANDARD
 70
     0
 40
0.0
 41
1.0
 50
0.0
 71
     0
 42
0.0
  3
MS Gothic.ttf
  4

1001
ACAD
1000
MS Gothic
1071
    32817
  0
ENDTAB
  0
TABLE
  2
VIEW
  5
5
330
0
100
AcDbSymbolTable
 70
     0
  0
ENDTAB
  0
TABLE
  2
UCS
  5
6
330
0
100
AcDbSymbolTable
 70
     0
  0
ENDTAB
  0
TABLE
  2
APPID
  5
8
330
0
100
AcDbSymbolTable
 70
     3
  0
APPID
  5
16
330
8
100
AcDbSymbolTableRecord
100
AcDbRegAppTableRecord
  2
ACAD
 70
     0
  0
APPID
  5
3475
330
8
100
AcDbSymbolTableRecord
100
AcDbRegAppTableRecord
  2
DCO15
 70
     0
  0
APPID
  5
3621
330
8
100
AcDbSymbolTableRecord
100
AcDbRegAppTableRecord
  2
ADE
 70
     0
  0
ENDTAB
  0
TABLE
  2
DIMSTYLE
  5
9
330
0
100
AcDbSymbolTable
 70
     1
  0
DIMSTYLE
105
18
102
{ACAD_REACTORS
330
389F
330
38A3
330
389C
330
389E
330
389D
330
38A0
330
38A2
102
}
330
9
100
AcDbSymbolTableRecord
100
AcDbDimStyleTableRecord
  2
STANDARD
 70
     0
  3

  4

  5
OPEN30
  6

  7

 40
1.0
 41
2.0
 42
2.0
 43
0.5
 44
1.0
 45
0.0
 46
0.0
 47
0.0
 48
0.0
140
3.0
141
0.0
142
0.0
143
25.4
144
1.0
145
0.0
146
1.0
147
1.0
 71
     0
 72
     0
 73
     0
 74
     1
 75
     0
 76
     0
 77
     1
 78
     8
170
     0
171
     2
172
     0
173
     0
174
     1
175
     0
176
   256
177
   256
178
     3
270
     2
271
     1
272
     1
273
     2
274
     2
340
17
275
     0
280
     0
281
     0
282
     0
283
     1
284
     0
285
     0
286
     0
287
     5
288
     0
  0
ENDTAB
  0
TABLE
  2
BLOCK_RECORD
  5
1
330
0
100
AcDbSymbolTable
 70
     9
  0
BLOCK_RECORD
  5
A
102
{ACAD_XDICTIONARY
360
36A5
102
}
330
1
100
AcDbSymbolTableRecord
100
AcDbBlockTableRecord
  2
*MODEL_SPACE
  0
BLOCK_RECORD
  5
B
102
{ACAD_XDICTIONARY
360
3B4E
102
}
330
1
100
AcDbSymbolTableRecord
100
AcDbBlockTableRecord
  2
*PAPER_SPACE
  0
BLOCK_RECORD
  5
143A
330
1
100
AcDbSymbolTableRecord
100
AcDbBlockTableRecord
  2
_OPEN30
  0
BLOCK_RECORD
  5
3928
330
1
100
AcDbSymbolTableRecord
100
AcDbBlockTableRecord
  2
*D1
  0
BLOCK_RECORD
  5
3935
330
1
100
AcDbSymbolTableRecord
100
AcDbBlockTableRecord
  2
*D2
  0
BLOCK_RECORD
  5
3942
330
1
100
AcDbSymbolTableRecord
100
AcDbBlockTableRecord
  2
*D3
  0
BLOCK_RECORD
  5
3950
330
1
100
AcDbSymbolTableRecord
100
AcDbBlockTableRecord
  2
*D4
  0
BLOCK_RECORD
  5
395D
330
1
100
AcDbSymbolTableRecord
100
AcDbBlockTableRecord
  2
*D5
  0
BLOCK_RECORD
  5
3977
330
1
100
AcDbSymbolTableRecord
100
AcDbBlockTableRecord
  2
*D6
  0
BLOCK_RECORD
  5
3984
330
1
100
AcDbSymbolTableRecord
100
AcDbBlockTableRecord
  2
*D7
  0
ENDTAB
  0
ENDSEC
  0
SECTION
  2
BLOCKS
  0
BLOCK
  5
D
330
A
100
AcDbEntity
  8
0
100
AcDbBlockBegin
  2
*MODEL_SPACE
 70
     0
 10
0.0
 20
0.0
 30
0.0
  3
*MODEL_SPACE
  1

  0
ENDBLK
  5
E
330
A
100
AcDbEntity
  8
0
100
AcDbBlockEnd
  0
BLOCK
  5
F
330
B
100
AcDbEntity
 67
     1
  8
0
100
AcDbBlockBegin
  2
*PAPER_SPACE
 70
     0
 10
0.0
 20
0.0
 30
0.0
  3
*PAPER_SPACE
  1

  0
ENDBLK
  5
10
330
B
100
AcDbEntity
 67
     1
  8
0
100
AcDbBlockEnd
  0
BLOCK
  5
143B
330
143A
100
AcDbEntity
  8
0
 62
     0
100
AcDbBlockBegin
  2
_OPEN30
 70
     0
 10
0.0
 20
0.0
 30
0.0
  3
_OPEN30
  1

  0
LINE
  5
143C
330
143A
100
AcDbEntity
  8
0
  6
BYBLOCK
 62
     0
100
AcDbLine
 10
-1.0
 20
0.267949
 30
0.0
 11
0.0
 21
0.0
 31
0.0
  0
LINE
  5
143D
330
143A
100
AcDbEntity
  8
0
  6
BYBLOCK
 62
     0
100
AcDbLine
 10
0.0
 20
0.0
 30
0.0
 11
-1.0
 21
-0.267949
 31
0.0
  0
LINE
  5
143E
330
143A
100
AcDbEntity
  8
0
  6
BYBLOCK
 62
     0
100
AcDbLine
 10
0.0
 20
0.0
 30
0.0
 11
-1.0
 21
0.0
 31
0.0
  0
ENDBLK
  5
143F
330
143A
100
AcDbEntity
  8
0
 62
     0
100
AcDbBlockEnd
  0
BLOCK
  5
3933
330
3928
100
AcDbEntity
  8
0
100
AcDbBlockBegin
  2
*D1
 70
     1
 10
0.0
 20
0.0
 30
0.0
  3
*D1
  1

  0
LINE
  5
3AD1
330
3928
100
AcDbEntity
  8
DIMENSIONS
  6
CONTINUOUS
100
AcDbLine
 10
181.9360118744837
 20
133.6646885834098
 30
0.0
 11
181.9360118744837
 21
149.555861064931
 31
0.0
  0
LINE
  5
3AD2
330
3928
100
AcDbEntity
  8
DIMENSIONS
  6
CONTINUOUS
100
AcDbLine
 10
169.9360118744837
 20
133.6646885834098
 30
0.0
 11
169.9360118744837
 21
149.555861064931
 31
0.0
  0
LINE
  5
3AD3
330
3928
100
AcDbEntity
  8
DIMENSIONS
  6
CONTINUOUS
100
AcDbLine
 10
179.9360118744837
 20
148.555861064931
 30
0.0
 11
171.9360118744837
 21
148.555861064931
 31
0.0
  0
INSERT
  5
3AD4
330
3928
100
AcDbEntity
  8
DIMENSIONS
  6
CONTINUOUS
100
AcDbBlockReference
  2
_OPEN30
 10
181.9360118744837
 20
148.555861064931
 30
0.0
 41
2.0
 42
2.0
 43
2.0
  0
INSERT
  5
3AD5
330
3928
100
AcDbEntity
  8
DIMENSIONS
  6
CONTINUOUS
100
AcDbBlockReference
  2
_OPEN30
 10
169.9360118744837
 20
148.555861064931
 30
0.0
 41
2.0
 42
2.0
 43
2.0
 50
180.0
  0
MTEXT
  5
3AD6
330
3928
100
AcDbEntity
  8
DIMENSIONS
  6
CONTINUOUS
 62
     3
100
AcDbMText
 10
175.9360118744837
 20
151.055861064931
 30
0.0
 40
3.0
 41
0.0
 71
     5
 72
     1
  1
\A1;12
1001
ACAD
1000
MTEXTBEGIN
1070
    73
1070
     1
1070
    44
1040
1.0
1070
    74
1070
     0
1000
MTEXTEND
  0
POINT
  5
3AD7
330
3928
100
AcDbEntity
  8
DEFPOINTS
  6
CONTINUOUS
 62
     0
100
AcDbPoint
 10
181.9360118744837
 20
131.6646885834098
 30
0.0
  0
POINT
  5
3AD8
330
3928
100
AcDbEntity
  8
DEFPOINTS
  6
CONTINUOUS
 62
     0
100
AcDbPoint
 10
169.9360118744837
 20
131.6646885834098
 30
0.0
  0
POINT
  5
3AD9
330
3928
100
AcDbEntity
  8
DEFPOINTS
  6
CONTINUOUS
 62
     0
100
AcDbPoint
 10
169.9360118744837
 20
148.555861064931
 30
0.0
  0
ENDBLK
  5
3934
330
3928
100
AcDbEntity
  8
0
100
AcDbBlockEnd
  0
BLOCK
  5
3940
330
3935
100
AcDbEntity
  8
0
100
AcDbBlockBegin
  2
*D2
 70
     1
 10
0.0
 20
0.0
 30
0.0
  3
*D2
  1

  0
LINE
  5
3AC8
330
3935
100
AcDbEntity
  8
DIMENSIONS
  6
CONTINUOUS
100
AcDbLine
 10
221.9360118744837
 20
115.6646885834098
 30
0.0
 11
221.9360118744837
 21
149.555861064931
 31
0.0
  0
LINE
  5
3AC9
330
3935
100
AcDbEntity
  8
DIMENSIONS
  6
CONTINUOUS
100
AcDbLine
 10
206.9360118744837
 20
115.1646885834098
 30
0.0
 11
206.9360118744837
 21
149.555861064931
 31
0.0
  0
LINE
  5
3ACA
330
3935
100
AcDbEntity
  8
DIMENSIONS
  6
CONTINUOUS
100
AcDbLine
 10
219.9360118744837
 20
148.555861064931
 30
0.0
 11
208.9360118744837
 21
148.555861064931
 31
0.0
  0
INSERT
  5
3ACB
330
3935
100
AcDbEntity
  8
DIMENSIONS
  6
CONTINUOUS
100
AcDbBlockReference
  2
_OPEN30
 10
221.9360118744837
 20
148.555861064931
 30
0.0
 41
2.0
 42
2.0
 43
2.0
  0
INSERT
  5
3ACC
330
3935
100
AcDbEntity
  8
DIMENSIONS
  6
CONTINUOUS
100
AcDbBlockReference
  2
_OPEN30
 10
206.9360118744837
 20
148.555861064931
 30
0.0
 41
2.0
 42
2.0
 43
2.0
 50
180.0
  0
MTEXT
  5
3ACD
330
3935
100
AcDbEntity
  8
DIMENSIONS
  6
CONTINUOUS
 62
     3
100
AcDbMText
 10
214.4360118744837
 20
151.055861064931
 30
0.0
 40
3.0
 41
0.0
 71
     5
 72
     1
  1
\A1;15
1001
ACAD
1000
MTEXTBEGIN
1070
    73
1070
     1
1070
    44
1040
1.0
1070
    74
1070
     0
1000
MTEXTEND
  0
POINT
  5
3ACE
330
3935
100
AcDbEntity
  8
DEFPOINTS
  6
CONTINUOUS
 62
     0
100
AcDbPoint
 10
221.9360118744837
 20
113.6646885834098
 30
0.0
  0
POINT
  5
3ACF
330
3935
100
AcDbEntity
  8
DEFPOINTS
  6
CONTINUOUS
 62
     0
100
AcDbPoint
 10
206.9360118744837
 20
113.1646885834098
 30
0.0
  0
POINT
  5
3AD0
330
3935
100
AcDbEntity
  8
DEFPOINTS
  6
CONTINUOUS
 62
     0
100
AcDbPoint
 10
206.9360118744837
 20
148.555861064931
 30
0.0
  0
ENDBLK
  5
3941
330
3935
100
AcDbEntity
  8
0
100
AcDbBlockEnd
  0
BLOCK
  5
394D
330
3942
100
AcDbEntity
  8
0
100
AcDbBlockBegin
  2
*D3
 70
     1
 10
0.0
 20
0.0
 30
0.0
  3
*D3
  1

  0
LINE
  5
3ABF
330
3942
100
AcDbEntity
  8
DIMENSIONS
  6
CONTINUOUS
100
AcDbLine
 10
206.9360118744837
 20
115.1646885834098
 30
0.0
 11
206.9360118744837
 21
149.555861064931
 31
0.0
  0
LINE
  5
3AC0
330
3942
100
AcDbEntity
  8
DIMENSIONS
  6
CONTINUOUS
100
AcDbLine
 10
181.9360118744837
 20
133.6646885834098
 30
0.0
 11
181.9360118744837
 21
149.555861064931
 31
0.0
  0
LINE
  5
3AC1
330
3942
100
AcDbEntity
  8
DIMENSIONS
  6
CONTINUOUS
100
AcDbLine
 10
204.9360118744837
 20
148.555861064931
 30
0.0
 11
183.9360118744837
 21
148.555861064931
 31
0.0
  0
INSERT
  5
3AC2
330
3942
100
AcDbEntity
  8
DIMENSIONS
  6
CONTINUOUS
100
AcDbBlockReference
  2
_OPEN30
 10
206.9360118744837
 20
148.555861064931
 30
0.0
 41
2.0
 42
2.0
 43
2.0
  0
INSERT
  5
3AC3
330
3942
100
AcDbEntity
  8
DIMENSIONS
  6
CONTINUOUS
100
AcDbBlockReference
  2
_OPEN30
 10
181.9360118744837
 20
148.555861064931
 30
0.0
 41
2.0
 42
2.0
 43
2.0
 50
180.0
  0
MTEXT
  5
3AC4
330
3942
100
AcDbEntity
  8
DIMENSIONS
  6
CONTINUOUS
 62
     3
100
AcDbMText
 10
194.4360118744837
 20
151.055861064931
 30
0.0
 40
3.0
 41
0.0
 71
     5
 72
     1
  1
\A1;25
1001
ACAD
1000
MTEXTBEGIN
1070
    73
1070
     1
1070
    44
1040
1.0
1070
    74
1070
     0
1000
MTEXTEND
  0
POINT
  5
3AC5
330
3942
100
AcDbEntity
  8
DEFPOINTS
  6
CONTINUOUS
 62
     0
100
AcDbPoint
 10
206.9360118744837
 20
113.1646885834098
 30
0.0
  0
POINT
  5
3AC6
330
3942
100
AcDbEntity
  8
DEFPOINTS
  6
CONTINUOUS
 62
     0
100
AcDbPoint
 10
181.9360118744837
 20
131.6646885834098
 30
0.0
  0
POINT
  5
3AC7
330
3942
100
AcDbEntity
  8
DEFPOINTS
  6
CONTINUOUS
 62
     0
100
AcDbPoint
 10
181.9360118744837
 20
148.555861064931
 30
0.0
  0
ENDBLK
  5
394E
330
3942
100
AcDbEntity
  8
0
100
AcDbBlockEnd
  0
BLOCK
  5
395B
330
3950
100
AcDbEntity
  8
0
100
AcDbBlockBegin
  2
*D4
 70
     1
 10
0.0
 20
0.0
 30
0.0
  3
*D4
  1

  0
LINE
  5
3AB6
330
3950
100
AcDbEntity
  8
DIMENSIONS
  6
CONTINUOUS
100
AcDbLine
 10
118.95876957194
 20
99.66468858340983
 30
0.0
 11
118.95876957194
 21
149.555861064931
 31
0.0
  0
LINE
  5
3AB7
330
3950
100
AcDbEntity
  8
DIMENSIONS
  6
CONTINUOUS
100
AcDbLine
 10
38.95876957194008
 20
99.66468858340983
 30
0.0
 11
38.95876957194008
 21
149.555861064931
 31
0.0
  0
LINE
  5
3AB8
330
3950
100
AcDbEntity
  8
DIMENSIONS
  6
CONTINUOUS
100
AcDbLine
 10
116.95876957194
 20
148.555861064931
 30
0.0
 11
40.95876957194008
 21
148.555861064931
 31
0.0
  0
INSERT
  5
3AB9
330
3950
100
AcDbEntity
  8
DIMENSIONS
  6
CONTINUOUS
100
AcDbBlockReference
  2
_OPEN30
 10
118.95876957194
 20
148.555861064931
 30
0.0
 41
2.0
 42
2.0
 43
2.0
  0
INSERT
  5
3ABA
330
3950
100
AcDbEntity
  8
DIMENSIONS
  6
CONTINUOUS
100
AcDbBlockReference
  2
_OPEN30
 10
38.95876957194008
 20
148.555861064931
 30
0.0
 41
2.0
 42
2.0
 43
2.0
 50
180.0
  0
MTEXT
  5
3ABB
330
3950
100
AcDbEntity
  8
DIMENSIONS
  6
CONTINUOUS
 62
     3
100
AcDbMText
 10
78.95876957194008
 20
151.299515887266
 30
0.0
 40
3.0
 41
0.0
 71
     5
 72
     1
  1
\A1;φ80
1001
ACAD
1000
MTEXTBEGIN
1070
    73
1070
     1
1070
    44
1040
1.0
1070
    74
1070
     0
1000
MTEXTEND
  0
POINT
  5
3ABC
330
3950
100
AcDbEntity
  8
DEFPOINTS
  6
CONTINUOUS
 62
     0
100
AcDbPoint
 10
118.95876957194
 20
97.66468858340983
 30
0.0
  0
POINT
  5
3ABD
330
3950
100
AcDbEntity
  8
DEFPOINTS
  6
CONTINUOUS
 62
     0
100
AcDbPoint
 10
38.95876957194008
 20
97.66468858340983
 30
0.0
  0
POINT
  5
3ABE
330
3950
100
AcDbEntity
  8
DEFPOINTS
  6
CONTINUOUS
 62
     0
100
AcDbPoint
 10
38.95876957194008
 20
148.555861064931
 30
0.0
  0
ENDBLK
  5
395C
330
3950
100
AcDbEntity
  8
0
100
AcDbBlockEnd
  0
BLOCK
  5
3968
330
395D
100
AcDbEntity
  8
0
100
AcDbBlockBegin
  2
*D5
 70
     1
 10
0.0
 20
0.0
 30
0.0
  3
*D5
  1

  0
LINE
  5
3ADE
330
395D
100
AcDbEntity
  8
DIMENSIONS
  6
CONTINUOUS
100
AcDbLine
 10
223.9360118744837
 20
81.66468858340982
 30
0.0
 11
245.7866373738187
 21
81.66468858340982
 31
0.0
  0
LINE
  5
3ADF
330
395D
100
AcDbEntity
  8
DIMENSIONS
  6
CONTINUOUS
100
AcDbLine
 10
223.9360118744837
 20
113.6646885834098
 30
0.0
 11
245.7866373738187
 21
113.6646885834098
 31
0.0
  0
LINE
  5
3AE0
330
395D
100
AcDbEntity
  8
DIMENSIONS
  6
CONTINUOUS
100
AcDbLine
 10
244.7866373738187
 20
83.66468858340981
 30
0.0
 11
244.7866373738187
 21
111.6646885834098
 31
0.0
  0
INSERT
  5
3AE1
330
395D
100
AcDbEntity
  8
DIMENSIONS
  6
CONTINUOUS
100
AcDbBlockReference
  2
_OPEN30
 10
244.7866373738187
 20
81.66468858340982
 30
0.0
 41
2.0
 42
2.0
 43
2.0
 50
270.0
  0
INSERT
  5
3AE2
330
395D
100
AcDbEntity
  8
DIMENSIONS
  6
CONTINUOUS
100
AcDbBlockReference
  2
_OPEN30
 10
244.7866373738187
 20
113.6646885834098
 30
0.0
 41
2.0
 42
2.0
 43
2.0
 50
90.0
  0
MTEXT
  5
3AE3
330
395D
100
AcDbEntity
  8
DIMENSIONS
  6
CONTINUOUS
 62
     3
100
AcDbMText
 10
242.0429825514836
 20
97.66468858340985
 30
0.0
 40
3.0
 41
0.0
 71
     5
 72
     1
  1
\A1;φ32
 11
0.0000000000000001
 21
1.0
 31
0.0
1001
ACAD
1000
MTEXTBEGIN
1070
    73
1070
     1
1070
    44
1040
1.0
1070
    74
1070
     0
1000
MTEXTEND
  0
POINT
  5
3AE4
330
395D
100
AcDbEntity
  8
DEFPOINTS
  6
CONTINUOUS
 62
     0
100
AcDbPoint
 10
221.9360118744837
 20
81.66468858340982
 30
0.0
  0
POINT
  5
3AE5
330
395D
100
AcDbEntity
  8
DEFPOINTS
  6
CONTINUOUS
 62
     0
100
AcDbPoint
 10
221.9360118744837
 20
113.6646885834098
 30
0.0
  0
POINT
  5
3AE6
330
395D
100
AcDbEntity
  8
DEFPOINTS
  6
CONTINUOUS
 62
     0
100
AcDbPoint
 10
244.7866373738187
 20
113.6646885834098
 30
0.0
  0
ENDBLK
  5
3969
330
395D
100
AcDbEntity
  8
0
100
AcDbBlockEnd
  0
BLOCK
  5
3982
330
3977
100
AcDbEntity
  8
0
100
AcDbBlockBegin
  2
*D6
 70
     1
 10
0.0
 20
0.0
 30
0.0
  3
*D6
  1

  0
LINE
  5
3AA4
330
3977
100
AcDbEntity
  8
DIMENSIONS
  6
CONTINUOUS
100
AcDbLine
 10
204.9360118744837
 20
90.66468858340982
 30
0.0
 11
188.1645055343589
 21
90.66468858340982
 31
0.0
  0
LINE
  5
3AA5
330
3977
100
AcDbEntity
  8
DIMENSIONS
  6
CONTINUOUS
100
AcDbLine
 10
183.9360118744837
 20
104.6646885834098
 30
0.0
 11
190.1645055343589
 21
104.6646885834098
 31
0.0
  0
LINE
  5
3AA6
330
3977
100
AcDbEntity
  8
DIMENSIONS
  6
CONTINUOUS
100
AcDbLine
 10
189.1645055343589
 20
92.66468858340983
 30
0.0
 11
189.1645055343589
 21
102.6646885834098
 31
0.0
  0
INSERT
  5
3AA7
330
3977
100
AcDbEntity
  8
DIMENSIONS
  6
CONTINUOUS
100
AcDbBlockReference
  2
_OPEN30
 10
189.1645055343589
 20
90.66468858340982
 30
0.0
 41
2.0
 42
2.0
 43
2.0
 50
270.0
  0
INSERT
  5
3AA8
330
3977
100
AcDbEntity
  8
DIMENSIONS
  6
CONTINUOUS
100
AcDbBlockReference
  2
_OPEN30
 10
189.1645055343589
 20
104.6646885834098
 30
0.0
 41
2.0
 42
2.0
 43
2.0
 50
90.0
  0
MTEXT
  5
3AA9
330
3977
100
AcDbEntity
  8
DIMENSIONS
  6
CONTINUOUS
 62
     3
100
AcDbMText
 10
186.4208507120238
 20
97.66468858340985
 30
0.0
 40
3.0
 41
0.0
 71
     5
 72
     1
  1
\A1;φ14
 11
0.0000000000000001
 21
1.0
 31
0.0
1001
ACAD
1000
MTEXTBEGIN
1070
    73
1070
     1
1070
    44
1040
1.0
1070
    74
1070
     0
1000
MTEXTEND
  0
POINT
  5
3AAA
330
3977
100
AcDbEntity
  8
DEFPOINTS
  6
CONTINUOUS
 62
     0
100
AcDbPoint
 10
206.9360118744837
 20
90.66468858340982
 30
0.0
  0
POINT
  5
3AAB
330
3977
100
AcDbEntity
  8
DEFPOINTS
  6
CONTINUOUS
 62
     0
100
AcDbPoint
 10
181.9360118744837
 20
104.6646885834098
 30
0.0
  0
POINT
  5
3AAC
330
3977
100
AcDbEntity
  8
DEFPOINTS
  6
CONTINUOUS
 62
     0
100
AcDbPoint
 10
189.1645055343589
 20
104.6646885834098
 30
0.0
  0
ENDBLK
  5
3983
330
3977
100
AcDbEntity
  8
0
100
AcDbBlockEnd
  0
BLOCK
  5
398F
330
3984
100
AcDbEntity
  8
0
100
AcDbBlockBegin
  2
*D7
 70
     1
 10
0.0
 20
0.0
 30
0.0
  3
*D7
  1

  0
LINE
  5
3A9B
330
3984
100
AcDbEntity
  8
DIMENSIONS
  6
CONTINUOUS
100
AcDbLine
 10
221.9360118744837
 20
115.6646885834098
 30
0.0
 11
221.9360118744837
 21
160.835732141594
 31
0.0
  0
LINE
  5
3A9C
330
3984
100
AcDbEntity
  8
DIMENSIONS
  6
CONTINUOUS
100
AcDbLine
 10
169.9360118744837
 20
133.6646885834098
 30
0.0
 11
169.9360118744837
 21
160.835732141594
 31
0.0
  0
LINE
  5
3A9D
330
3984
100
AcDbEntity
  8
DIMENSIONS
  6
CONTINUOUS
100
AcDbLine
 10
219.9360118744837
 20
159.835732141594
 30
0.0
 11
171.9360118744837
 21
159.835732141594
 31
0.0
  0
INSERT
  5
3A9E
330
3984
100
AcDbEntity
  8
DIMENSIONS
  6
CONTINUOUS
100
AcDbBlockReference
  2
_OPEN30
 10
221.9360118744837
 20
159.835732141594
 30
0.0
 41
2.0
 42
2.0
 43
2.0
  0
INSERT
  5
3A9F
330
3984
100
AcDbEntity
  8
DIMENSIONS
  6
CONTINUOUS
100
AcDbBlockReference
  2
_OPEN30
 10
169.9360118744837
 20
159.835732141594
 30
0.0
 41
2.0
 42
2.0
 43
2.0
 50
180.0
  0
MTEXT
  5
3AA0
330
3984
100
AcDbEntity
  8
DIMENSIONS
  6
CONTINUOUS
 62
     3
100
AcDbMText
 10
195.9360118744837
 20
162.335732141594
 30
0.0
 40
3.0
 41
0.0
 71
     5
 72
     1
  1
\A1;52
1001
ACAD
1000
MTEXTBEGIN
1070
    73
1070
     1
1070
    44
1040
1.0
1070
    74
1070
     0
1000
MTEXTEND
  0
POINT
  5
3AA1
330
3984
100
AcDbEntity
  8
DEFPOINTS
  6
CONTINUOUS
 62
     0
100
AcDbPoint
 10
221.9360118744837
 20
113.6646885834098
 30
0.0
  0
POINT
  5
3AA2
330
3984
100
AcDbEntity
  8
DEFPOINTS
  6
CONTINUOUS
 62
     0
100
AcDbPoint
 10
169.9360118744837
 20
131.6646885834098
 30
0.0
  0
POINT
  5
3AA3
330
3984
100
AcDbEntity
  8
DEFPOINTS
  6
CONTINUOUS
 62
     0
100
AcDbPoint
 10
169.9360118744837
 20
159.835732141594
 30
0.0
  0
ENDBLK
  5
3990
330
3984
100
AcDbEntity
  8
0
100
AcDbBlockEnd
  0
ENDSEC
  0
SECTION
  2
ENTITIES
  0
TEXT
  5
35F8
330
A
100
AcDbEntity
  8
FILE_NAME
  6
CONTINUOUS
100
AcDbText
 10
0.0
 20
10.0
 30
0.0
 40
5.0
  1
14-5625-02-000
 41
0.75
100
AcDbText
  0
TEXT
  5
3607
330
A
100
AcDbEntity
  8
FILE_NAME
  6
CONTINUOUS
100
AcDbText
 10
0.0
 20
0.0
 30
0.0
 40
5.0
  1
12-14-5625-02-000_1
 41
0.75
100
AcDbText
  0
TEXT
  5
36B6
330
A
100
AcDbEntity
  8
FILE_NAME
  6
CONTINUOUS
100
AcDbText
 10
0.0
 20
20.0
 30
0.0
 40
5.0
  1
コート掛け 14-5625-02-000
 41
0.75
100
AcDbText
  0
DIMENSION
  5
389C
330
A
100
AcDbEntity
  8
DIMENSIONS
  6
CONTINUOUS
100
AcDbDimension
  2
*D1
 10
169.9360118744837
 20
148.555861064931
 30
0.0
 11
175.9360118744837
 21
151.055861064931
 31
0.0
 70
    32
  1
<>
  3
STANDARD
100
AcDbAlignedDimension
 13
181.9360118744837
 23
131.6646885834098
 33
0.0
 14
169.9360118744837
 24
131.6646885834098
 34
0.0
100
AcDbRotatedDimension
  0
DIMENSION
  5
389D
330
A
100
AcDbEntity
  8
DIMENSIONS
  6
CONTINUOUS
100
AcDbDimension
  2
*D2
 10
206.9360118744837
 20
148.555861064931
 30
0.0
 11
214.4360118744837
 21
151.055861064931
 31
0.0
 70
    32
  1
<>
  3
STANDARD
100
AcDbAlignedDimension
 13
221.9360118744837
 23
113.6646885834098
 33
0.0
 14
206.9360118744837
 24
113.1646885834098
 34
0.0
100
AcDbRotatedDimension
  0
DIMENSION
  5
389E
330
A
100
AcDbEntity
  8
DIMENSIONS
  6
CONTINUOUS
100
AcDbDimension
  2
*D3
 10
181.9360118744837
 20
148.555861064931
 30
0.0
 11
194.4360118744837
 21
151.055861064931
 31
0.0
 70
    32
  1
<>
  3
STANDARD
100
AcDbAlignedDimension
 13
206.9360118744837
 23
113.1646885834098
 33
0.0
 14
181.9360118744837
 24
131.6646885834098
 34
0.0
100
AcDbRotatedDimension
  0
DIMENSION
  5
389F
330
A
100
AcDbEntity
  8
DIMENSIONS
  6
CONTINUOUS
100
AcDbDimension
  2
*D4
 10
38.95876957194008
 20
148.555861064931
 30
0.0
 11
78.95876957194008
 21
151.299515887266
 31
0.0
 70
    32
  1
φ<>
  3
STANDARD
100
AcDbAlignedDimension
 13
118.95876957194
 23
97.66468858340983
 33
0.0
 14
38.95876957194008
 24
97.66468858340983
 34
0.0
100
AcDbRotatedDimension
  0
DIMENSION
  5
38A0
330
A
100
AcDbEntity
  8
DIMENSIONS
  6
CONTINUOUS
100
AcDbDimension
  2
*D5
 10
244.7866373738187
 20
113.6646885834098
 30
0.0
 11
242.0429825514836
 21
97.66468858340985
 31
0.0
 70
    32
  1
φ<>
  3
STANDARD
100
AcDbAlignedDimension
 13
221.9360118744837
 23
81.66468858340982
 33
0.0
 14
221.9360118744837
 24
113.6646885834098
 34
0.0
 50
90.0
100
AcDbRotatedDimension
  0
DIMENSION
  5
38A2
330
A
100
AcDbEntity
  8
DIMENSIONS
  6
CONTINUOUS
100
AcDbDimension
  2
*D6
 10
189.1645055343589
 20
104.6646885834098
 30
0.0
 11
186.4208507120238
 21
97.66468858340985
 31
0.0
 70
    32
  1
φ<>
  3
STANDARD
100
AcDbAlignedDimension
 13
206.9360118744837
 23
90.66468858340982
 33
0.0
 14
181.9360118744837
 24
104.6646885834098
 34
0.0
 50
90.0
100
AcDbRotatedDimension
  0
DIMENSION
  5
38A3
330
A
100
AcDbEntity
  8
DIMENSIONS
  6
CONTINUOUS
100
AcDbDimension
  2
*D7
 10
169.9360118744837
 20
159.835732141594
 30
0.0
 11
195.9360118744837
 21
162.335732141594
 31
0.0
 70
    32
  1
<>
  3
STANDARD
100
AcDbAlignedDimension
 13
221.9360118744837
 23
113.6646885834098
 33
0.0
 14
169.9360118744837
 24
131.6646885834098
 34
0.0
100
AcDbRotatedDimension
  0
ARC
  5
38BA
330
A
100
AcDbEntity
  8
SHAPE_OUTLINE_BOLD_LINE_
100
AcDbCircle
 10
175.9360118744837
 20
131.6646885834098
 30
0.0
 40
6.0
100
AcDbArc
 50
0.0
 51
90.0
  0
ARC
  5
38BB
330
A
100
AcDbEntity
  8
SHAPE_OUTLINE_BOLD_LINE_
100
AcDbCircle
 10
175.9360118744837
 20
131.6646885834098
 30
0.0
 40
6.0
100
AcDbArc
 50
90.0
 51
180.0
  0
ARC
  5
38BC
330
A
100
AcDbEntity
  8
SHAPE_OUTLINE_BOLD_LINE_
100
AcDbCircle
 10
175.9360118744837
 20
63.66468858340983
 30
0.0
 40
6.0
100
AcDbArc
 50
270.0
 51
0.0
  0
ARC
  5
38BD
330
A
100
AcDbEntity
  8
SHAPE_OUTLINE_BOLD_LINE_
100
AcDbCircle
 10
175.9360118744837
 20
63.66468858340983
 30
0.0
 40
6.0
100
AcDbArc
 50
180.0
 51
270.0
  0
ARC
  5
38C5
330
A
100
AcDbEntity
  8
SHAPE_OUTLINE_BOLD_LINE_
100
AcDbCircle
 10
78.95876957194008
 20
97.66468858340983
 30
0.0
 40
40.0
100
AcDbArc
 50
90.0
 51
180.0
  0
ARC
  5
38C6
330
A
100
AcDbEntity
  8
SHAPE_OUTLINE_BOLD_LINE_
100
AcDbCircle
 10
78.95876957194008
 20
97.66468858340983
 30
0.0
 40
40.0
100
AcDbArc
 50
0.0
 51
90.0
  0
ARC
  5
38C7
330
A
100
AcDbEntity
  8
SHAPE_OUTLINE_BOLD_LINE_
100
AcDbCircle
 10
78.95876957194008
 20
97.66468858340983
 30
0.0
 40
40.0
100
AcDbArc
 50
180.0
 51
0.0
  0
LINE
  5
38D9
330
A
100
AcDbEntity
  8
SHAPE_OUTLINE_BOLD_LINE_
100
AcDbLine
 10
206.9360118744837
 20
108.1625949001473
 30
0.0
 11
206.9360118744837
 21
82.16468858340984
 31
0.0
  0
LINE
  5
38DA
330
A
100
AcDbEntity
  8
SHAPE_OUTLINE_BOLD_LINE_
100
AcDbLine
 10
221.9360118744837
 20
106.8337636515861
 30
0.0
 11
221.9360118744837
 21
113.6646885834098
 31
0.0
  0
LINE
  5
38DB
330
A
100
AcDbEntity
  8
SHAPE_OUTLINE_BOLD_LINE_
100
AcDbLine
 10
169.9360118744837
 20
131.6646885834098
 30
0.0
 11
169.9360118744837
 21
63.66468858340983
 31
0.0
  0
LINE
  5
38DC
330
A
100
AcDbEntity
  8
SHAPE_OUTLINE_BOLD_LINE_
100
AcDbLine
 10
181.9360118744837
 20
104.6646885834098
 30
0.0
 11
181.9360118744837
 21
131.6646885834098
 31
0.0
  0
LINE
  5
38DD
330
A
100
AcDbEntity
  8
SHAPE_OUTLINE_BOLD_LINE_
100
AcDbLine
 10
207.4360118744837
 20
81.66468858340982
 30
0.0
 11
209.9360118744836
 21
81.66468858340982
 31
0.0
  0
LINE
  5
38DF
330
A
100
AcDbEntity
  8
SHAPE_OUTLINE_BOLD_LINE_
100
AcDbLine
 10
221.9360118744837
 20
113.6646885834098
 30
0.0
 11
207.4360118744837
 21
113.6646885834098
 31
0.0
  0
LINE
  5
38E1
330
A
100
AcDbEntity
  8
SHAPE_OUTLINE_BOLD_LINE_
100
AcDbLine
 10
181.9360118744837
 20
104.6646885834098
 30
0.0
 11
206.9360118744837
 21
104.6646885834098
 31
0.0
  0
LINE
  5
38E2
330
A
100
AcDbEntity
  8
SHAPE_OUTLINE_BOLD_LINE_
100
AcDbLine
 10
181.9360118744837
 20
90.66468858340982
 30
0.0
 11
181.9360118744837
 21
104.6646885834098
 31
0.0
  0
LINE
  5
38E3
330
A
100
AcDbEntity
  8
SHAPE_OUTLINE_BOLD_LINE_
100
AcDbLine
 10
206.9360118744837
 20
113.1646885834098
 30
0.0
 11
206.9360118744837
 21
108.1625949001473
 31
0.0
  0
LINE
  5
38E4
330
A
100
AcDbEntity
  8
SHAPE_OUTLINE_BOLD_LINE_
100
AcDbLine
 10
206.9360118744837
 20
90.66468858340982
 30
0.0
 11
181.9360118744837
 21
90.66468858340982
 31
0.0
  0
LINE
  5
38E6
330
A
100
AcDbEntity
  8
SHAPE_OUTLINE_BOLD_LINE_
100
AcDbLine
 10
181.9360118744837
 20
63.66468858340983
 30
0.0
 11
181.9360118744837
 21
90.66468858340982
 31
0.0
  0
LINE
  5
38E7
330
A
100
AcDbEntity
  8
CENTER
100
AcDbLine
 10
167.4781805491824
 20
97.66468858340983
 30
0.0
 11
225.0685419949655
 21
97.66468858340983
 31
0.0
  0
LINE
  5
38E8
330
A
100
AcDbEntity
  8
CENTER
100
AcDbLine
 10
122.95876957194
 20
97.66468858340983
 30
0.0
 11
34.95876957194008
 21
97.66468858340983
 31
0.0
  0
LINE
  5
38E9
330
A
100
AcDbEntity
  8
CENTER
100
AcDbLine
 10
78.95876957194008
 20
141.6646885834098
 30
0.0
 11
78.95876957194008
 21
53.66468858340983
 31
0.0
  0
LINE
  5
38EA
330
A
100
AcDbEntity
  8
SHAPE_OUTLINE_BOLD_LINE_
100
AcDbLine
 10
221.9360118744837
 20
81.66468858340984
 30
0.0
 11
221.9360118744837
 21
106.8337636515861
 31
0.0
  0
LINE
  5
38F1
330
A
100
AcDbEntity
  8
SHAPE_OUTLINE_BOLD_LINE_
100
AcDbLine
 10
213.9360118744837
 20
81.66468858340982
 30
0.0
 11
221.9360118744837
 21
81.66468858340982
 31
0.0
  0
LINE
  5
38F7
330
A
100
AcDbEntity
  8
SHAPE_OUTLINE_BOLD_LINE_
100
AcDbLine
 10
209.9360118744836
 20
81.66468858340982
 30
0.0
 11
210.3360118744836
 21
81.66468858340982
 31
0.0
  0
LINE
  5
38F8
330
A
100
AcDbEntity
  8
SHAPE_OUTLINE_BOLD_LINE_
100
AcDbLine
 10
210.3360118744836
 20
81.66468858340982
 30
0.0
 11
213.5360118744836
 21
81.66468858340982
 31
0.0
  0
LINE
  5
38F9
330
A
100
AcDbEntity
  8
SHAPE_OUTLINE_BOLD_LINE_
100
AcDbLine
 10
213.5360118744836
 20
81.66468858340982
 30
0.0
 11
213.9360118744837
 21
81.66468858340982
 31
0.0
  0
LINE
  5
3912
330
A
100
AcDbEntity
  8
SHAPE_OUTLINE_BOLD_LINE_
100
AcDbLine
 10
206.9360118744837
 20
113.1646885834098
 30
0.0
 11
207.4360118744837
 21
113.6646885834098
 31
0.0
  0
LINE
  5
3913
330
A
100
AcDbEntity
  8
SHAPE_OUTLINE_BOLD_LINE_
100
AcDbLine
 10
206.9360118744837
 20
82.16468858340983
 30
0.0
 11
207.4360118744837
 21
81.66468858340982
 31
0.0
  0
LINE
  5
3914
330
A
100
AcDbEntity
  8
SHAPE_OUTLINE_BOLD_LINE_
100
AcDbLine
 10
207.4360118744837
 20
113.6646885834098
 30
0.0
 11
207.4360118744837
 21
81.66468858340982
 31
0.0
  0
ENDSEC
  0
SECTION
  2
OBJECTS
  0
DICTIONARY
  5
19
330
0
100
AcDbDictionary
  3
ACAD_GROUP
350
1A
  3
ACAD_LAYOUT
350
157A
  3
ACAD_MLINESTYLE
350
1B
  3
ACAD_PLOTSETTINGS
350
157B
  3
ACAD_PLOTSTYLENAME
350
1578
  3
ACDBHEADERROUNDTRIPXREC
350
3B2C
  3
ACDBVARIABLEDICTIONARY
350
3478
  3
ADE_QUERY_LIBRARY
350
3622
1001
ADE
1000
ADE02C004
1000
[Query]
1000
CaseSensitiveMatch=0
1000
SaveCurrQueryInSession=1
1000
MkSelSetWithQryObj=0
1000
ShowBlockAsInsPt=0
1000
CreateAssociativeHatchObjects=0
1000
ReferenceBoundaryForAreaLocation=1
1000
ShowImageAsBoundary=1
1000
DefaultJoinOperator=2
1000
ColorForAdd=red
1000
ColorForRemove=red
1000
BlockLocnForQuery=1
1000
TextLocnForQuery=1
1000
[Save Back]
1000
RedefineBlockDefinitions=1
1000
RedefineLayerDefinitions=1
1000
RedefineTextStyleDefinitions=1
1000
RemoveUnusedGroups=1
1000
EraseSavedBackObjects=1
1000
RemoveLockAfterSave=1
1000
CreateHistoryFileOfChanges=0
1000
CreateBackupFileOfSourceDwg=1
1000
DontAddObjectsToSaveSet=0
1000
MarkObjectsForEditingWithoutPrompting=0
1000
[Coordinate Transformation]
1000
RestoreLastActiveDwgsOnStartup=1
1000
ActivateDwgsOnAttach=1
1000
AdjustSizesAndScalesForChangesInUnits=1
1000
AdjustRotationsForMapDistortions=1
1000
AdjustSizesAndScalesForMapDistortions=1
1000
AdjustElevations=1
1000
AdjustZeroRotationObjects=1
1000
ReconnectDbOnWSOpen=1
1000
NoOfSQLConditionsInHistory=10
  0
DICTIONARY
  5
36A5
330
A
100
AcDbDictionary
280
     1
  3
ACAD_LAYOUTSELFREF
360
3B4D
  3
ACAD_SORTENTS
360
36A6
  0
DICTIONARY
  5
3B4E
330
B
100
AcDbDictionary
280
     1
  3
ACAD_LAYOUTSELFREF
360
3B4F
  0
DICTIONARY
  5
1A
102
{ACAD_REACTORS
330
19
102
}
330
19
100
AcDbDictionary
  0
DICTIONARY
  5
157A
102
{ACAD_REACTORS
330
19
102
}
330
19
100
AcDbDictionary
  0
DICTIONARY
  5
1B
102
{ACAD_REACTORS
330
19
102
}
330
19
100
AcDbDictionary
  3
STANDARD
350
1C
  0
DICTIONARY
  5
157B
102
{ACAD_REACTORS
330
19
102
}
330
19
100
AcDbDictionary
  0
ACDBDICTIONARYWDFLT
  5
1578
102
{ACAD_REACTORS
330
19
102
}
330
19
100
AcDbDictionary
281
     1
  3
Normal
350
1579
100
AcDbDictionaryWithDefault
340
1579
  0
DICTIONARY
  5
3B2C
102
{ACAD_REACTORS
330
19
102
}
330
19
100
AcDbDictionary
  3
CEPSNTYPE
350
3B36
  3
DIMSTYLEDATA
350
3B3A
  3
FINGERPRINTGUID
350
3B37
  3
HYPERLINKBASE
350
3B2F
  3
INSUNITS
350
3B35
  3
LAYOUTDICT
350
3B31
  3
LWETCUNION
350
3B34
  3
PLOTSETDICT
350
3B32
  3
PLOTSTYLNAMDICT
350
3B33
  3
PSVPSCALE
350
3B39
  3
PUCSBASE
350
3B3D
  3
PUCSORGBACK
350
3B43
  3
PUCSORGBOTTOM
350
3B3F
  3
PUCSORGFRONT
350
3B42
  3
PUCSORGLEFT
350
3B40
  3
PUCSORGRIGHT
350
3B41
  3
PUCSORGTOP
350
3B3E
  3
PUCSORTHOREF
350
3B3B
  3
PUCSORTHOVIEW
350
3B3C
  3
STYLESHEET
350
3B30
  3
TSTACKALIGN
350
3B2D
  3
TSTACKSIZE
350
3B2E
  3
UCSBASE
350
3B46
  3
UCSORGBACK
350
3B4C
  3
UCSORGBOTTOM
350
3B48
  3
UCSORGFRONT
350
3B4B
  3
UCSORGLEFT
350
3B49
  3
UCSORGRIGHT
350
3B4A
  3
UCSORGTOP
350
3B47
  3
UCSORTHOREF
350
3B44
  3
UCSORTHOVIEW
350
3B45
  3
VERSIONGUID
350
3B38
  0
DICTIONARY
  5
3478
102
{ACAD_REACTORS
330
19
102
}
330
19
100
AcDbDictionary
  3
DIMASSOC
350
3479
  3
SORTENTS
350
36A9
  0
DICTIONARY
  5
3622
102
{ACAD_REACTORS
330
19
102
}
330
19
100
AcDbDictionary
  3
_CURRQRY
350
3701
  0
XRECORD
  5
3B4D
102
{ACAD_REACTORS
330
36A5
102
}
330
36A5
100
AcDbXrecord
340
A
  0
SORTENTSTABLE
  5
36A6
102
{ACAD_REACTORS
330
36A5
102
}
330
36A5
100
AcDbSortentsTable
330
A
331
3607
  5
3634
331
35F8
  5
35FD
  0
XRECORD
  5
3B4F
102
{ACAD_REACTORS
330
3B4E
102
}
330
3B4E
100
AcDbXrecord
340
B
  0
MLINESTYLE
  5
1C
102
{ACAD_REACTORS
330
1B
102
}
330
1B
100
AcDbMlineStyle
  2
STANDARD
 70
     0
  3

 62
     0
 51
90.0
 52
90.0
 71
     2
 49
0.5
 62
   256
  6
BYLAYER
 49
-0.5
 62
   256
  6
BYLAYER
  0
ACDBPLACEHOLDER
  5
1579
102
{ACAD_REACTORS
330
1578
102
}
330
1578
100
AcDbPlaceHolder
280
     0
  0
XRECORD
  5
3B36
102
{ACAD_REACTORS
330
3B2C
102
}
330
3B2C
100
AcDbXrecord
 90
        0
  0
XRECORD
  5
3B3A
102
{ACAD_REACTORS
330
3B2C
102
}
330
3B2C
100
AcDbXrecord
1000
DSTYLE
1002
{
1070
   279
 70
     2
1070
   341
340
143A
1070
   342
340
143A
1070
   371
 70
    -1
1070
   372
 70
    -1
1002
}
  0
XRECORD
  5
3B37
102
{ACAD_REACTORS
330
3B2C
102
}
330
3B2C
100
AcDbXrecord
  1
{5653D33C-3AEF-40FE-8495-DE925CF19E35}
  0
XRECORD
  5
3B2F
102
{ACAD_REACTORS
330
3B2C
102
}
330
3B2C
100
AcDbXrecord
  1

  0
XRECORD
  5
3B35
102
{ACAD_REACTORS
330
3B2C
102
}
330
3B2C
100
AcDbXrecord
 90
        0
  0
XRECORD
  5
3B31
102
{ACAD_REACTORS
330
3B2C
102
}
330
3B2C
100
AcDbXrecord
340
157A
  0
XRECORD
  5
3B34
102
{ACAD_REACTORS
330
3B2C
102
}
330
3B2C
100
AcDbXrecord
 90
    10781
  0
XRECORD
  5
3B32
102
{ACAD_REACTORS
330
3B2C
102
}
330
3B2C
100
AcDbXrecord
340
157B
  0
XRECORD
  5
3B33
102
{ACAD_REACTORS
330
3B2C
102
}
330
3B2C
100
AcDbXrecord
340
1578
  0
XRECORD
  5
3B39
102
{ACAD_REACTORS
330
3B2C
102
}
330
3B2C
100
AcDbXrecord
 40
0.0
  0
XRECORD
  5
3B3D
102
{ACAD_REACTORS
330
3B2C
102
}
330
3B2C
100
AcDbXrecord
340
0
  0
XRECORD
  5
3B43
102
{ACAD_REACTORS
330
3B2C
102
}
330
3B2C
100
AcDbXrecord
 10
0.0
 20
0.0
 30
0.0
  0
XRECORD
  5
3B3F
102
{ACAD_REACTORS
330
3B2C
102
}
330
3B2C
100
AcDbXrecord
 10
0.0
 20
0.0
 30
0.0
  0
XRECORD
  5
3B42
102
{ACAD_REACTORS
330
3B2C
102
}
330
3B2C
100
AcDbXrecord
 10
0.0
 20
0.0
 30
0.0
  0
XRECORD
  5
3B40
102
{ACAD_REACTORS
330
3B2C
102
}
330
3B2C
100
AcDbXrecord
 10
0.0
 20
0.0
 30
0.0
  0
XRECORD
  5
3B41
102
{ACAD_REACTORS
330
3B2C
102
}
330
3B2C
100
AcDbXrecord
 10
0.0
 20
0.0
 30
0.0
  0
XRECORD
  5
3B3E
102
{ACAD_REACTORS
330
3B2C
102
}
330
3B2C
100
AcDbXrecord
 10
0.0
 20
0.0
 30
0.0
  0
XRECORD
  5
3B3B
102
{ACAD_REACTORS
330
3B2C
102
}
330
3B2C
100
AcDbXrecord
340
0
  0
XRECORD
  5
3B3C
102
{ACAD_REACTORS
330
3B2C
102
}
330
3B2C
100
AcDbXrecord
 70
     0
  0
XRECORD
  5
3B30
102
{ACAD_REACTORS
330
3B2C
102
}
330
3B2C
100
AcDbXrecord
  1
スガツネWeb_mono.ctb
  0
XRECORD
  5
3B2D
102
{ACAD_REACTORS
330
3B2C
102
}
330
3B2C
100
AcDbXrecord
 90
        1
  0
XRECORD
  5
3B2E
102
{ACAD_REACTORS
330
3B2C
102
}
330
3B2C
100
AcDbXrecord
 90
       70
  0
XRECORD
  5
3B46
102
{ACAD_REACTORS
330
3B2C
102
}
330
3B2C
100
AcDbXrecord
340
0
  0
XRECORD
  5
3B4C
102
{ACAD_REACTORS
330
3B2C
102
}
330
3B2C
100
AcDbXrecord
 10
0.0
 20
0.0
 30
0.0
  0
XRECORD
  5
3B48
102
{ACAD_REACTORS
330
3B2C
102
}
330
3B2C
100
AcDbXrecord
 10
0.0
 20
0.0
 30
0.0
  0
XRECORD
  5
3B4B
102
{ACAD_REACTORS
330
3B2C
102
}
330
3B2C
100
AcDbXrecord
 10
0.0
 20
0.0
 30
0.0
  0
XRECORD
  5
3B49
102
{ACAD_REACTORS
330
3B2C
102
}
330
3B2C
100
AcDbXrecord
 10
0.0
 20
0.0
 30
0.0
  0
XRECORD
  5
3B4A
102
{ACAD_REACTORS
330
3B2C
102
}
330
3B2C
100
AcDbXrecord
 10
0.0
 20
0.0
 30
0.0
  0
XRECORD
  5
3B47
102
{ACAD_REACTORS
330
3B2C
102
}
330
3B2C
100
AcDbXrecord
 10
0.0
 20
0.0
 30
0.0
  0
XRECORD
  5
3B44
102
{ACAD_REACTORS
330
3B2C
102
}
330
3B2C
100
AcDbXrecord
340
0
  0
XRECORD
  5
3B45
102
{ACAD_REACTORS
330
3B2C
102
}
330
3B2C
100
AcDbXrecord
 70
     0
  0
XRECORD
  5
3B38
102
{ACAD_REACTORS
330
3B2C
102
}
330
3B2C
100
AcDbXrecord
  1
{340BBC63-F7BB-46E9-9D93-EE5A5F5459EC}
  0
DICTIONARYVAR
  5
3479
102
{ACAD_REACTORS
330
3478
102
}
330
3478
100
DictionaryVariables
280
     0
  1
1
  0
DICTIONARYVAR
  5
36A9
102
{ACAD_REACTORS
330
3478
102
}
330
3478
100
DictionaryVariables
280
     0
  1
127
  0
XRECORD
  5
3701
102
{ACAD_REACTORS
330
3622
102
}
330
3622
100
AcDbXrecord
1000
ADE02C001
1070
     1
1070
     0
1002
{
1002
}
1002
{
1002
}
1002
{
1002
}
1000

  0
ENDSEC
  0
EOF
