  0
SECTION
  2
HEADER
  9
$ACADVER
  1
AC1014
  9
$ACADMAINTVER
 70
     0
  9
$DWGCODEPAGE
  3
ANSI_932
  9
$INSBASE
 10
0.0
 20
0.0
 30
0.0
  9
$EXTMIN
 10
-10.0
 20
-10.00000000000005
 30
0.0
  9
$EXTMAX
 10
410.0000000000001
 20
286.9999999999999
 30
0.0
  9
$LIMMIN
 10
0.0
 20
0.0
  9
$LIMMAX
 10
0.0
 20
0.0
  9
$ORTHOMODE
 70
     1
  9
$REGENMODE
 70
     1
  9
$FILLMODE
 70
     1
  9
$QTEXTMODE
 70
     0
  9
$MIRRTEXT
 70
     1
  9
$DRAGMODE
 70
     2
  9
$LTSCALE
 40
0.1
  9
$OSMODE
 70
     0
  9
$ATTMODE
 70
     1
  9
$TEXTSIZE
 40
0.0
  9
$TRACEWID
 40
0.05
  9
$TEXTSTYLE
  7
STANDARD
  9
$CLAYER
  8
0
  9
$CELTYPE
  6
BYLAYER
  9
$CECOLOR
 62
   256
  9
$CELTSCALE
 40
1.0
  9
$DELOBJ
 70
     1
  9
$DISPSILH
 70
     0
  9
$DIMSCALE
 40
1.0
  9
$DIMASZ
 40
2.0
  9
$DIMEXO
 40
2.0
  9
$DIMDLI
 40
0.5
  9
$DIMRND
 40
0.0
  9
$DIMDLE
 40
0.0
  9
$DIMEXE
 40
1.0
  9
$DIMTP
 40
0.0
  9
$DIMTM
 40
0.0
  9
$DIMTXT
 40
3.0
  9
$DIMCEN
 40
0.0
  9
$DIMTSZ
 40
0.0
  9
$DIMTOL
 70
     0
  9
$DIMLIM
 70
     0
  9
$DIMTIH
 70
     0
  9
$DIMTOH
 70
     1
  9
$DIMSE1
 70
     0
  9
$DIMSE2
 70
     0
  9
$DIMTAD
 70
     1
  9
$DIMZIN
 70
     8
  9
$DIMBLK
  1
OPEN30
  9
$DIMASO
 70
     1
  9
$DIMSHO
 70
     1
  9
$DIMPOST
  1

  9
$DIMAPOST
  1

  9
$DIMALT
 70
     0
  9
$DIMALTD
 70
     2
  9
$DIMALTF
 40
25.4
  9
$DIMLFAC
 40
1.0
  9
$DIMTOFL
 70
     0
  9
$DIMTVP
 40
0.0
  9
$DIMTIX
 70
     1
  9
$DIMSOXD
 70
     0
  9
$DIMSAH
 70
     0
  9
$DIMBLK1
  1

  9
$DIMBLK2
  1

  9
$DIMSTYLE
  2
STANDARD
  9
$DIMCLRD
 70
   256
  9
$DIMCLRE
 70
   256
  9
$DIMCLRT
 70
     3
  9
$DIMTFAC
 40
1.0
  9
$DIMGAP
 40
1.0
  9
$DIMJUST
 70
     0
  9
$DIMSD1
 70
     0
  9
$DIMSD2
 70
     0
  9
$DIMTOLJ
 70
     1
  9
$DIMTZIN
 70
     0
  9
$DIMALTZ
 70
     0
  9
$DIMALTTZ
 70
     0
  9
$DIMFIT
 70
     5
  9
$DIMUPT
 70
     0
  9
$DIMUNIT
 70
     2
  9
$DIMDEC
 70
     1
  9
$DIMTDEC
 70
     1
  9
$DIMALTU
 70
     2
  9
$DIMALTTD
 70
     2
  9
$DIMTXSTY
  7
STANDARD
  9
$DIMAUNIT
 70
     0
  9
$LUNITS
 70
     2
  9
$LUPREC
 70
     4
  9
$SKETCHINC
 40
0.1
  9
$FILLETRAD
 40
0.0
  9
$AUNITS
 70
     0
  9
$AUPREC
 70
     0
  9
$MENU
  1
acad
  9
$ELEVATION
 40
0.0
  9
$PELEVATION
 40
0.0
  9
$THICKNESS
 40
0.0
  9
$LIMCHECK
 70
     0
  9
$BLIPMODE
 70
     0
  9
$CHAMFERA
 40
0.0
  9
$CHAMFERB
 40
0.0
  9
$CHAMFERC
 40
0.0
  9
$CHAMFERD
 40
0.0
  9
$SKPOLY
 70
     0
  9
$TDCREATE
 40
2312272.457674340
  9
$TDUPDATE
 40
2454126.779108252
  9
$TDINDWG
 40
0.1870533333
  9
$TDUSRTIMER
 40
0.1870527894
  9
$USRTIMER
 70
     1
  9
$ANGBASE
 50
0.0
  9
$ANGDIR
 70
     0
  9
$PDMODE
 70
     0
  9
$PDSIZE
 40
0.0
  9
$PLINEWID
 40
0.0
  9
$COORDS
 70
     2
  9
$SPLFRAME
 70
     0
  9
$SPLINETYPE
 70
     6
  9
$SPLINESEGS
 70
     8
  9
$ATTDIA
 70
     0
  9
$ATTREQ
 70
     1
  9
$HANDLING
 70
 22529
  9
$HANDSEED
  5
3FF6
  9
$SURFTAB1
 70
     6
  9
$SURFTAB2
 70
     6
  9
$SURFTYPE
 70
     6
  9
$SURFU
 70
     6
  9
$SURFV
 70
     6
  9
$UCSNAME
  2

  9
$UCSORG
 10
0.0
 20
0.0
 30
0.0
  9
$UCSXDIR
 10
1.0
 20
0.0
 30
0.0
  9
$UCSYDIR
 10
0.0
 20
1.0
 30
0.0
  9
$PUCSNAME
  2

  9
$PUCSORG
 10
0.0
 20
0.0
 30
0.0
  9
$PUCSXDIR
 10
1.0
 20
0.0
 30
0.0
  9
$PUCSYDIR
 10
0.0
 20
1.0
 30
0.0
  9
$USERI1
 70
     0
  9
$USERI2
 70
     0
  9
$USERI3
 70
     0
  9
$USERI4
 70
     0
  9
$USERI5
 70
     0
  9
$USERR1
 40
12.01
  9
$USERR2
 40
0.0
  9
$USERR3
 40
0.0
  9
$USERR4
 40
0.0
  9
$USERR5
 40
0.0
  9
$WORLDVIEW
 70
     1
  9
$SHADEDGE
 70
     3
  9
$SHADEDIF
 70
    70
  9
$TILEMODE
 70
     1
  9
$MAXACTVP
 70
    16
  9
$PINSBASE
 10
0.0
 20
0.0
 30
0.0
  9
$PLIMCHECK
 70
     0
  9
$PEXTMIN
 10
29.06183350086212
 20
20.36233246326446
 30
0.0
  9
$PEXTMAX
 10
261.556501507759
 20
183.2609921693801
 30
0.0
  9
$PLIMMIN
 10
-3.17498779296875
 20
-3.174999952316284
  9
$PLIMMAX
 10
293.7933349609375
 20
206.7983276844024
  9
$UNITMODE
 70
     0
  9
$VISRETAIN
 70
     0
  9
$PLINEGEN
 70
     1
  9
$PSLTSCALE
 70
     0
  9
$TREEDEPTH
 70
  3020
  9
$PICKSTYLE
 70
     1
  9
$CMLSTYLE
  2
STANDARD
  9
$CMLJUST
 70
     0
  9
$CMLSCALE
 40
1.0
  9
$PROXYGRAPHICS
 70
     0
  9
$MEASUREMENT
 70
     1
  0
ENDSEC
  0
SECTION
  2
CLASSES
  0
CLASS
  1
LWPOLYLINE
  2
AcDbPolyline
  3
AutoCAD 2000
 90
        0
280
     0
281
     1
  0
CLASS
  1
IMAGE
  2
AcDbRasterImage
  3
ISM
 90
      127
280
     0
281
     1
  0
CLASS
  1
OLE2FRAME
  2
AcDbOle2Frame
  3
AutoCAD 2000
 90
        0
280
     0
281
     1
  0
CLASS
  1
HATCH
  2
AcDbHatch
  3
AutoCAD 2000
 90
        0
280
     0
281
     1
  0
CLASS
  1
DICTIONARYVAR
  2
AcDbDictionaryVar
  3
AutoCAD 2000
 90
        0
280
     0
281
     0
  0
CLASS
  1
RASTERVARIABLES
  2
AcDbRasterVariables
  3
ISM
 90
        0
280
     0
281
     0
  0
CLASS
  1
IMAGEDEF
  2
AcDbRasterImageDef
  3
ISM
 90
        0
280
     0
281
     0
  0
CLASS
  1
IMAGEDEF_REACTOR
  2
AcDbRasterImageDefReactor
  3
ISM
 90
        1
280
     0
281
     0
  0
CLASS
  1
IDBUFFER
  2
AcDbIdBuffer
  3
AutoCAD 2000
 90
        0
280
     0
281
     0
  0
CLASS
  1
SPATIAL_FILTER
  2
AcDbSpatialFilter
  3
AutoCAD 2000
 90
        0
280
     0
281
     0
  0
CLASS
  1
XRECORD
  2
AcDbXrecord
  3
AutoCAD 2000
 90
        0
280
     0
281
     0
  0
CLASS
  1
SORTENTSTABLE
  2
AcDbSortentsTable
  3
AutoCAD 2000
 90
        0
280
     0
281
     0
  0
CLASS
  1
LAYER_INDEX
  2
AcDbLayerIndex
  3
AutoCAD 2000
 90
        0
280
     0
281
     0
  0
CLASS
  1
SPATIAL_INDEX
  2
AcDbSpatialIndex
  3
AutoCAD 2000
 90
        0
280
     0
281
     0
  0
CLASS
  1
OBJECT_PTR
  2
CAseDLPNTableRecord
  3
ASE-LPNTableRecord
 90
        1
280
     0
281
     0
  0
CLASS
  1
LAYOUT
  2
AcDbLayout
  3
AutoCAD 2000
 90
        0
280
     0
281
     0
  0
CLASS
  1
PLOTSETTINGS
  2
AcDbPlotSettings
  3
AutoCAD 2000
 90
        0
280
     0
281
     0
  0
CLASS
  1
ACDBDICTIONARYWDFLT
  2
AcDbDictionaryWithDefault
  3
AutoCAD 2000
 90
        0
280
     0
281
     0
  0
CLASS
  1
ACDBPLACEHOLDER
  2
AcDbPlaceHolder
  3
AutoCAD 2000
 90
        0
280
     0
281
     0
  0
CLASS
  1
LONG_TRANSACTION
  2
AcDbLongTransaction
  3
AutoCAD 2000
 90
        0
280
     0
281
     0
  0
CLASS
  1
LWPOLYLINE
  2
AcDbPolyline
  3
AutoCAD 2000
 90
        0
280
     0
281
     1
  0
CLASS
  1
HATCH
  2
AcDbHatch
  3
AutoCAD 2000
 90
        0
280
     0
281
     1
  0
CLASS
  1
XRECORD
  2
AcDbXrecord
  3
AutoCAD 2000
 90
        0
280
     0
281
     0
  0
ENDSEC
  0
SECTION
  2
TABLES
  0
TABLE
  2
VPORT
  5
7
330
0
100
AcDbSymbolTable
 70
     3
  0
VPORT
  5
3FD1
330
7
100
AcDbSymbolTableRecord
100
AcDbViewportTableRecord
  2
*ACTIVE
 70
     0
 10
0.0
 20
0.0
 11
1.0
 21
1.0
 12
199.9839816944644
 22
138.4886727696569
 13
0.0
 23
0.0
 14
1.0
 24
1.0
 15
0.0
 25
0.0
 16
0.0
 26
0.0
 36
1.0
 17
0.0
 27
0.0
 37
0.0
 40
299.3251584458663
 41
1.683053040103492
 42
50.0
 43
0.0
 44
0.0
 50
0.0
 51
0.0
 71
     0
 72
   100
 73
     1
 74
     1
 75
     0
 76
     0
 77
     0
 78
     0
  0
ENDTAB
  0
TABLE
  2
LTYPE
  5
4
330
0
100
AcDbSymbolTable
 70
     3
  0
LTYPE
  5
11
330
4
100
AcDbSymbolTableRecord
100
AcDbLinetypeTableRecord
  2
BYBLOCK
 70
     0
  3

 72
    65
 73
     0
 40
0.0
  0
LTYPE
  5
12
330
4
100
AcDbSymbolTableRecord
100
AcDbLinetypeTableRecord
  2
BYLAYER
 70
     0
  3

 72
    65
 73
     0
 40
0.0
  0
LTYPE
  5
13
330
4
100
AcDbSymbolTableRecord
100
AcDbLinetypeTableRecord
  2
CONTINUOUS
 70
     0
  3
Solid line
 72
    65
 73
     0
 40
0.0
  0
LTYPE
  5
1D
330
4
100
AcDbSymbolTableRecord
100
AcDbLinetypeTableRecord
  2
DASHED
 70
     0
  3
Dashed
 72
    65
 73
     2
 40
15.0
 49
7.0
 74
     0
 49
-8.0
 74
     0
  0
LTYPE
  5
3407
330
4
100
AcDbSymbolTableRecord
100
AcDbLinetypeTableRecord
  2
CENTER
 70
     0
  3
Center ____ _ ____ _ ____ _ ____ _ ____ _ ____
 72
    65
 73
     4
 40
50.8
 49
31.75
 74
     0
 49
-6.349999999999999
 74
     0
 49
6.349999999999999
 74
     0
 49
-6.349999999999999
 74
     0
  0
ENDTAB
  0
TABLE
  2
LAYER
  5
2
330
0
100
AcDbSymbolTable
 70
     7
  0
LAYER
  5
14
330
2
100
AcDbSymbolTableRecord
100
AcDbLayerTableRecord
  2
0
 70
     0
 62
     7
  6
CONTINUOUS
  0
LAYER
  5
32EF
330
2
100
AcDbSymbolTableRecord
100
AcDbLayerTableRecord
  2
DEFPOINTS
 70
     0
 62
     7
  6
CONTINUOUS
  0
LAYER
  5
340D
330
2
100
AcDbSymbolTableRecord
100
AcDbLayerTableRecord
  2
DIMENSIONS
 70
     0
 62
     2
  6
CONTINUOUS
  0
LAYER
  5
3412
330
2
100
AcDbSymbolTableRecord
100
AcDbLayerTableRecord
  2
SHAPE_OUTLINE_BOLD_LINE_
 70
     0
 62
     7
  6
CONTINUOUS
  0
LAYER
  5
341C
330
2
100
AcDbSymbolTableRecord
100
AcDbLayerTableRecord
  2
SHAPE_OUTLINE_THIN_LINE_
 70
     0
 62
     2
  6
CONTINUOUS
  0
LAYER
  5
3574
330
2
100
AcDbSymbolTableRecord
100
AcDbLayerTableRecord
  2
FILE_NAME
 70
     0
 62
     1
  6
CONTINUOUS
  0
LAYER
  5
36A1
330
2
100
AcDbSymbolTableRecord
100
AcDbLayerTableRecord
  2
CENTER
 70
     0
 62
     2
  6
CENTER
  0
ENDTAB
  0
TABLE
  2
STYLE
  5
3
330
0
100
AcDbSymbolTable
 70
     1
  0
STYLE
  5
17
330
3
100
AcDbSymbolTableRecord
100
AcDbTextStyleTableRecord
  2
STANDARD
 70
     0
 40
0.0
 41
1.0
 50
0.0
 71
     0
 42
0.0
  3
MS Gothic.ttf
  4

1001
ACAD
1000
MS Gothic
1071
    32817
  0
ENDTAB
  0
TABLE
  2
VIEW
  5
5
330
0
100
AcDbSymbolTable
 70
     0
  0
ENDTAB
  0
TABLE
  2
UCS
  5
6
330
0
100
AcDbSymbolTable
 70
     0
  0
ENDTAB
  0
TABLE
  2
APPID
  5
8
330
0
100
AcDbSymbolTable
 70
     3
  0
APPID
  5
16
330
8
100
AcDbSymbolTableRecord
100
AcDbRegAppTableRecord
  2
ACAD
 70
     0
  0
APPID
  5
3475
330
8
100
AcDbSymbolTableRecord
100
AcDbRegAppTableRecord
  2
DCO15
 70
     0
  0
APPID
  5
3621
330
8
100
AcDbSymbolTableRecord
100
AcDbRegAppTableRecord
  2
ADE
 70
     0
  0
ENDTAB
  0
TABLE
  2
DIMSTYLE
  5
9
330
0
100
AcDbSymbolTable
 70
     1
  0
DIMSTYLE
105
18
102
{ACAD_REACTORS
330
3E04
330
3E11
330
3E1E
330
3E2B
330
3E38
330
3E5B
330
3E7A
330
3ED8
330
3F65
102
}
330
9
100
AcDbSymbolTableRecord
100
AcDbDimStyleTableRecord
  2
STANDARD
 70
     0
  3

  4

  5
OPEN30
  6

  7

 40
1.0
 41
2.0
 42
2.0
 43
0.5
 44
1.0
 45
0.0
 46
0.0
 47
0.0
 48
0.0
140
3.0
141
0.0
142
0.0
143
25.4
144
1.0
145
0.0
146
1.0
147
1.0
 71
     0
 72
     0
 73
     0
 74
     1
 75
     0
 76
     0
 77
     1
 78
     8
170
     0
171
     2
172
     0
173
     0
174
     1
175
     0
176
   256
177
   256
178
     3
270
     2
271
     1
272
     1
273
     2
274
     2
340
17
275
     0
280
     0
281
     0
282
     0
283
     1
284
     0
285
     0
286
     0
287
     5
288
     0
  0
ENDTAB
  0
TABLE
  2
BLOCK_RECORD
  5
1
330
0
100
AcDbSymbolTable
 70
    11
  0
BLOCK_RECORD
  5
A
102
{ACAD_XDICTIONARY
360
36A5
102
}
330
1
100
AcDbSymbolTableRecord
100
AcDbBlockTableRecord
  2
*MODEL_SPACE
  0
BLOCK_RECORD
  5
B
102
{ACAD_XDICTIONARY
360
3FF4
102
}
330
1
100
AcDbSymbolTableRecord
100
AcDbBlockTableRecord
  2
*PAPER_SPACE
  0
BLOCK_RECORD
  5
143A
330
1
100
AcDbSymbolTableRecord
100
AcDbBlockTableRecord
  2
_OPEN30
  0
BLOCK_RECORD
  5
3E05
330
1
100
AcDbSymbolTableRecord
100
AcDbBlockTableRecord
  2
*D2
  0
BLOCK_RECORD
  5
3E12
330
1
100
AcDbSymbolTableRecord
100
AcDbBlockTableRecord
  2
*D3
  0
BLOCK_RECORD
  5
3E1F
330
1
100
AcDbSymbolTableRecord
100
AcDbBlockTableRecord
  2
*D4
  0
BLOCK_RECORD
  5
3E2C
330
1
100
AcDbSymbolTableRecord
100
AcDbBlockTableRecord
  2
*D5
  0
BLOCK_RECORD
  5
3E39
330
1
100
AcDbSymbolTableRecord
100
AcDbBlockTableRecord
  2
*D6
  0
BLOCK_RECORD
  5
3E5C
330
1
100
AcDbSymbolTableRecord
100
AcDbBlockTableRecord
  2
*D7
  0
BLOCK_RECORD
  5
3E7B
330
1
100
AcDbSymbolTableRecord
100
AcDbBlockTableRecord
  2
*D8
  0
BLOCK_RECORD
  5
3ED9
330
1
100
AcDbSymbolTableRecord
100
AcDbBlockTableRecord
  2
*D9
  0
BLOCK_RECORD
  5
3F66
330
1
100
AcDbSymbolTableRecord
100
AcDbBlockTableRecord
  2
*D10
  0
ENDTAB
  0
ENDSEC
  0
SECTION
  2
BLOCKS
  0
BLOCK
  5
D
330
A
100
AcDbEntity
  8
0
100
AcDbBlockBegin
  2
*MODEL_SPACE
 70
     0
 10
0.0
 20
0.0
 30
0.0
  3
*MODEL_SPACE
  1

  0
ENDBLK
  5
E
330
A
100
AcDbEntity
  8
0
100
AcDbBlockEnd
  0
BLOCK
  5
F
330
B
100
AcDbEntity
 67
     1
  8
0
100
AcDbBlockBegin
  2
*PAPER_SPACE
 70
     0
 10
0.0
 20
0.0
 30
0.0
  3
*PAPER_SPACE
  1

  0
ENDBLK
  5
10
330
B
100
AcDbEntity
 67
     1
  8
0
100
AcDbBlockEnd
  0
BLOCK
  5
143B
330
143A
100
AcDbEntity
  8
0
 62
     0
100
AcDbBlockBegin
  2
_OPEN30
 70
     0
 10
0.0
 20
0.0
 30
0.0
  3
_OPEN30
  1

  0
LINE
  5
143C
330
143A
100
AcDbEntity
  8
0
  6
BYBLOCK
 62
     0
100
AcDbLine
 10
-1.0
 20
0.267949
 30
0.0
 11
0.0
 21
0.0
 31
0.0
  0
LINE
  5
143D
330
143A
100
AcDbEntity
  8
0
  6
BYBLOCK
 62
     0
100
AcDbLine
 10
0.0
 20
0.0
 30
0.0
 11
-1.0
 21
-0.267949
 31
0.0
  0
LINE
  5
143E
330
143A
100
AcDbEntity
  8
0
  6
BYBLOCK
 62
     0
100
AcDbLine
 10
0.0
 20
0.0
 30
0.0
 11
-1.0
 21
0.0
 31
0.0
  0
ENDBLK
  5
143F
330
143A
100
AcDbEntity
  8
0
 62
     0
100
AcDbBlockEnd
  0
BLOCK
  5
3E0F
330
3E05
100
AcDbEntity
  8
0
100
AcDbBlockBegin
  2
*D2
 70
     1
 10
0.0
 20
0.0
 30
0.0
  3
*D2
  1

  0
LINE
  5
3E06
330
3E05
100
AcDbEntity
  8
DIMENSIONS
100
AcDbLine
 10
100.0832494285696
 20
140.2267597188573
 30
0.0
 11
91.08324942856961
 21
140.2267597188573
 31
0.0
  0
LINE
  5
3E07
330
3E05
100
AcDbEntity
  8
DIMENSIONS
100
AcDbLine
 10
108.5064373695963
 20
150.2267597188573
 30
0.0
 11
91.08324942856961
 21
150.2267597188573
 31
0.0
  0
LINE
  5
3E08
330
3E05
100
AcDbEntity
  8
DIMENSIONS
100
AcDbLine
 10
92.08324942856961
 20
142.2267597188573
 30
0.0
 11
92.08324942856961
 21
148.2267597188573
 31
0.0
  0
INSERT
  5
3E09
330
3E05
100
AcDbEntity
  8
DIMENSIONS
100
AcDbBlockReference
  2
_OPEN30
 10
92.08324942856961
 20
140.2267597188573
 30
0.0
 41
2.0
 42
2.0
 43
2.0
 50
270.0
  0
INSERT
  5
3E0A
330
3E05
100
AcDbEntity
  8
DIMENSIONS
100
AcDbBlockReference
  2
_OPEN30
 10
92.08324942856961
 20
150.2267597188573
 30
0.0
 41
2.0
 42
2.0
 43
2.0
 50
90.0
  0
MTEXT
  5
3E0B
330
3E05
100
AcDbEntity
  8
DIMENSIONS
 62
     3
100
AcDbMText
 10
89.58324942856959
 20
145.2267597188573
 30
0.0
 40
3.0
 41
0.0
 71
     5
 72
     1
  1
\A1;10
 11
0.0000000000000001
 21
1.0
 31
0.0
1001
ACAD
1000
MTEXTBEGIN
1070
    73
1070
     1
1070
    44
1040
1.0
1070
    74
1070
     0
1000
MTEXTEND
  0
POINT
  5
3E0C
330
3E05
100
AcDbEntity
  8
DEFPOINTS
 62
     0
100
AcDbPoint
 10
102.0832494285696
 20
140.2267597188573
 30
0.0
  0
POINT
  5
3E0D
330
3E05
100
AcDbEntity
  8
DEFPOINTS
 62
     0
100
AcDbPoint
 10
110.5064373695963
 20
150.2267597188573
 30
0.0
  0
POINT
  5
3E0E
330
3E05
100
AcDbEntity
  8
DEFPOINTS
 62
     0
100
AcDbPoint
 10
92.08324942856961
 20
150.2267597188573
 30
0.0
  0
ENDBLK
  5
3E10
330
3E05
100
AcDbEntity
  8
0
100
AcDbBlockEnd
  0
BLOCK
  5
3E1C
330
3E12
100
AcDbEntity
  8
0
100
AcDbBlockBegin
  2
*D3
 70
     1
 10
0.0
 20
0.0
 30
0.0
  3
*D3
  1

  0
LINE
  5
3E13
330
3E12
100
AcDbEntity
  8
DIMENSIONS
100
AcDbLine
 10
114.0832494285696
 20
143.6100075209943
 30
0.0
 11
114.0832494285696
 21
123.2267597188573
 31
0.0
  0
LINE
  5
3E14
330
3E12
100
AcDbEntity
  8
DIMENSIONS
100
AcDbLine
 10
134.0832494285696
 20
138.2267597188573
 30
0.0
 11
134.0832494285696
 21
123.2267597188573
 31
0.0
  0
LINE
  5
3E15
330
3E12
100
AcDbEntity
  8
DIMENSIONS
100
AcDbLine
 10
116.0832494285696
 20
124.2267597188573
 30
0.0
 11
132.0832494285696
 21
124.2267597188573
 31
0.0
  0
INSERT
  5
3E16
330
3E12
100
AcDbEntity
  8
DIMENSIONS
100
AcDbBlockReference
  2
_OPEN30
 10
114.0832494285696
 20
124.2267597188573
 30
0.0
 41
2.0
 42
2.0
 43
2.0
 50
180.0
  0
INSERT
  5
3E17
330
3E12
100
AcDbEntity
  8
DIMENSIONS
100
AcDbBlockReference
  2
_OPEN30
 10
134.0832494285696
 20
124.2267597188573
 30
0.0
 41
2.0
 42
2.0
 43
2.0
  0
MTEXT
  5
3E18
330
3E12
100
AcDbEntity
  8
DIMENSIONS
 62
     3
100
AcDbMText
 10
124.0832494285696
 20
126.7267597188573
 30
0.0
 40
3.0
 41
0.0
 71
     5
 72
     1
  1
\A1;20
1001
ACAD
1000
MTEXTBEGIN
1070
    73
1070
     1
1070
    44
1040
1.0
1070
    74
1070
     0
1000
MTEXTEND
  0
POINT
  5
3E19
330
3E12
100
AcDbEntity
  8
DEFPOINTS
 62
     0
100
AcDbPoint
 10
114.0832494285696
 20
145.6100075209943
 30
0.0
  0
POINT
  5
3E1A
330
3E12
100
AcDbEntity
  8
DEFPOINTS
 62
     0
100
AcDbPoint
 10
134.0832494285696
 20
140.2267597188573
 30
0.0
  0
POINT
  5
3E1B
330
3E12
100
AcDbEntity
  8
DEFPOINTS
 62
     0
100
AcDbPoint
 10
134.0832494285696
 20
124.2267597188573
 30
0.0
  0
ENDBLK
  5
3E1D
330
3E12
100
AcDbEntity
  8
0
100
AcDbBlockEnd
  0
BLOCK
  5
3E29
330
3E1F
100
AcDbEntity
  8
0
100
AcDbBlockBegin
  2
*D4
 70
     1
 10
0.0
 20
0.0
 30
0.0
  3
*D4
  1

  0
LINE
  5
3E20
330
3E1F
100
AcDbEntity
  8
DIMENSIONS
100
AcDbLine
 10
183.4591812463254
 20
140.2267597188573
 30
0.0
 11
167.4591812463254
 21
140.2267597188573
 31
0.0
  0
LINE
  5
3E21
330
3E1F
100
AcDbEntity
  8
DIMENSIONS
100
AcDbLine
 10
183.4591812463254
 20
215.2267597188572
 30
0.0
 11
167.4591812463254
 21
215.2267597188572
 31
0.0
  0
LINE
  5
3E22
330
3E1F
100
AcDbEntity
  8
DIMENSIONS
100
AcDbLine
 10
168.4591812463254
 20
142.2267597188573
 30
0.0
 11
168.4591812463254
 21
213.2267597188572
 31
0.0
  0
INSERT
  5
3E23
330
3E1F
100
AcDbEntity
  8
DIMENSIONS
100
AcDbBlockReference
  2
_OPEN30
 10
168.4591812463254
 20
140.2267597188573
 30
0.0
 41
2.0
 42
2.0
 43
2.0
 50
270.0
  0
INSERT
  5
3E24
330
3E1F
100
AcDbEntity
  8
DIMENSIONS
100
AcDbBlockReference
  2
_OPEN30
 10
168.4591812463254
 20
215.2267597188572
 30
0.0
 41
2.0
 42
2.0
 43
2.0
 50
90.0
  0
MTEXT
  5
3E25
330
3E1F
100
AcDbEntity
  8
DIMENSIONS
 62
     3
100
AcDbMText
 10
165.9591812463254
 20
177.7267597188573
 30
0.0
 40
3.0
 41
0.0
 71
     5
 72
     1
  1
\A1;75
 11
0.0000000000000001
 21
1.0
 31
0.0
1001
ACAD
1000
MTEXTBEGIN
1070
    73
1070
     1
1070
    44
1040
1.0
1070
    74
1070
     0
1000
MTEXTEND
  0
POINT
  5
3E26
330
3E1F
100
AcDbEntity
  8
DEFPOINTS
 62
     0
100
AcDbPoint
 10
185.4591812463254
 20
140.2267597188573
 30
0.0
  0
POINT
  5
3E27
330
3E1F
100
AcDbEntity
  8
DEFPOINTS
 62
     0
100
AcDbPoint
 10
185.4591812463254
 20
215.2267597188572
 30
0.0
  0
POINT
  5
3E28
330
3E1F
100
AcDbEntity
  8
DEFPOINTS
 62
     0
100
AcDbPoint
 10
168.4591812463254
 20
215.2267597188572
 30
0.0
  0
ENDBLK
  5
3E2A
330
3E1F
100
AcDbEntity
  8
0
100
AcDbBlockEnd
  0
BLOCK
  5
3E36
330
3E2C
100
AcDbEntity
  8
0
100
AcDbBlockBegin
  2
*D5
 70
     1
 10
0.0
 20
0.0
 30
0.0
  3
*D5
  1

  0
LINE
  5
3E2D
330
3E2C
100
AcDbEntity
  8
DIMENSIONS
100
AcDbLine
 10
178.9591812463254
 20
134.2267597188573
 30
0.0
 11
160.4591812463254
 21
134.2267597188573
 31
0.0
  0
LINE
  5
3E2E
330
3E2C
100
AcDbEntity
  8
DIMENSIONS
100
AcDbLine
 10
202.9591812463254
 20
239.2267597188572
 30
0.0
 11
160.4591812463254
 21
239.2267597188572
 31
0.0
  0
LINE
  5
3E2F
330
3E2C
100
AcDbEntity
  8
DIMENSIONS
100
AcDbLine
 10
161.4591812463254
 20
136.2267597188573
 30
0.0
 11
161.4591812463254
 21
237.2267597188572
 31
0.0
  0
INSERT
  5
3E30
330
3E2C
100
AcDbEntity
  8
DIMENSIONS
100
AcDbBlockReference
  2
_OPEN30
 10
161.4591812463254
 20
134.2267597188573
 30
0.0
 41
2.0
 42
2.0
 43
2.0
 50
270.0
  0
INSERT
  5
3E31
330
3E2C
100
AcDbEntity
  8
DIMENSIONS
100
AcDbBlockReference
  2
_OPEN30
 10
161.4591812463254
 20
239.2267597188572
 30
0.0
 41
2.0
 42
2.0
 43
2.0
 50
90.0
  0
MTEXT
  5
3E32
330
3E2C
100
AcDbEntity
  8
DIMENSIONS
 62
     3
100
AcDbMText
 10
158.9591812463254
 20
186.7267597188573
 30
0.0
 40
3.0
 41
0.0
 71
     5
 72
     1
  1
\A1;105
 11
0.0000000000000001
 21
1.0
 31
0.0
1001
ACAD
1000
MTEXTBEGIN
1070
    73
1070
     1
1070
    44
1040
1.0
1070
    74
1070
     0
1000
MTEXTEND
  0
POINT
  5
3E33
330
3E2C
100
AcDbEntity
  8
DEFPOINTS
 62
     0
100
AcDbPoint
 10
180.9591812463254
 20
134.2267597188573
 30
0.0
  0
POINT
  5
3E34
330
3E2C
100
AcDbEntity
  8
DEFPOINTS
 62
     0
100
AcDbPoint
 10
204.9591812463254
 20
239.2267597188572
 30
0.0
  0
POINT
  5
3E35
330
3E2C
100
AcDbEntity
  8
DEFPOINTS
 62
     0
100
AcDbPoint
 10
161.4591812463254
 20
239.2267597188572
 30
0.0
  0
ENDBLK
  5
3E37
330
3E2C
100
AcDbEntity
  8
0
100
AcDbBlockEnd
  0
BLOCK
  5
3E43
330
3E39
100
AcDbEntity
  8
0
100
AcDbBlockBegin
  2
*D6
 70
     1
 10
0.0
 20
0.0
 30
0.0
  3
*D6
  1

  0
LINE
  5
3E45
330
3E39
100
AcDbEntity
  8
DIMENSIONS
100
AcDbLine
 10
197.9591812463254
 20
138.2267597188573
 30
0.0
 11
197.9591812463254
 21
123.2267597188573
 31
0.0
  0
LINE
  5
3E46
330
3E39
100
AcDbEntity
  8
DIMENSIONS
100
AcDbLine
 10
302.9591812463254
 20
138.2267597188573
 30
0.0
 11
302.9591812463254
 21
123.2267597188573
 31
0.0
  0
LINE
  5
3E47
330
3E39
100
AcDbEntity
  8
DIMENSIONS
100
AcDbLine
 10
199.9591812463254
 20
124.2267597188573
 30
0.0
 11
300.9591812463254
 21
124.2267597188573
 31
0.0
  0
INSERT
  5
3E48
330
3E39
100
AcDbEntity
  8
DIMENSIONS
100
AcDbBlockReference
  2
_OPEN30
 10
197.9591812463254
 20
124.2267597188573
 30
0.0
 41
2.0
 42
2.0
 43
2.0
 50
180.0
  0
INSERT
  5
3E49
330
3E39
100
AcDbEntity
  8
DIMENSIONS
100
AcDbBlockReference
  2
_OPEN30
 10
302.9591812463254
 20
124.2267597188573
 30
0.0
 41
2.0
 42
2.0
 43
2.0
  0
MTEXT
  5
3E4A
330
3E39
100
AcDbEntity
  8
DIMENSIONS
 62
     3
100
AcDbMText
 10
250.4591812463254
 20
126.7267597188573
 30
0.0
 40
3.0
 41
0.0
 71
     5
 72
     1
  1
\A1;105
1001
ACAD
1000
MTEXTBEGIN
1070
    73
1070
     1
1070
    44
1040
1.0
1070
    74
1070
     0
1000
MTEXTEND
  0
POINT
  5
3E4B
330
3E39
100
AcDbEntity
  8
DEFPOINTS
 62
     0
100
AcDbPoint
 10
197.9591812463254
 20
140.2267597188573
 30
0.0
  0
POINT
  5
3E4C
330
3E39
100
AcDbEntity
  8
DEFPOINTS
 62
     0
100
AcDbPoint
 10
302.9591812463254
 20
140.2267597188573
 30
0.0
  0
POINT
  5
3E4D
330
3E39
100
AcDbEntity
  8
DEFPOINTS
 62
     0
100
AcDbPoint
 10
302.9591812463254
 20
124.2267597188573
 30
0.0
  0
ENDBLK
  5
3E44
330
3E39
100
AcDbEntity
  8
0
100
AcDbBlockEnd
  0
BLOCK
  5
3E66
330
3E5C
100
AcDbEntity
  8
0
100
AcDbBlockBegin
  2
*D7
 70
     1
 10
0.0
 20
0.0
 30
0.0
  3
*D7
  1

  0
LINE
  5
3E68
330
3E5C
100
AcDbEntity
  8
DIMENSIONS
100
AcDbLine
 10
312.9591812463254
 20
130.1321474209933
 30
0.0
 11
312.9591812463254
 21
116.2267597188573
 31
0.0
  0
LINE
  5
3E69
330
3E5C
100
AcDbEntity
  8
DIMENSIONS
100
AcDbLine
 10
187.9591812463254
 20
126.1436271887363
 30
0.0
 11
187.9591812463254
 21
116.2267597188573
 31
0.0
  0
LINE
  5
3E6A
330
3E5C
100
AcDbEntity
  8
DIMENSIONS
100
AcDbLine
 10
310.9591812463254
 20
117.2267597188573
 30
0.0
 11
189.9591812463254
 21
117.2267597188573
 31
0.0
  0
INSERT
  5
3E6B
330
3E5C
100
AcDbEntity
  8
DIMENSIONS
100
AcDbBlockReference
  2
_OPEN30
 10
312.9591812463254
 20
117.2267597188573
 30
0.0
 41
2.0
 42
2.0
 43
2.0
  0
INSERT
  5
3E6C
330
3E5C
100
AcDbEntity
  8
DIMENSIONS
100
AcDbBlockReference
  2
_OPEN30
 10
187.9591812463254
 20
117.2267597188573
 30
0.0
 41
2.0
 42
2.0
 43
2.0
 50
180.0
  0
MTEXT
  5
3E6D
330
3E5C
100
AcDbEntity
  8
DIMENSIONS
 62
     3
100
AcDbMText
 10
250.4591812463254
 20
119.7267597188573
 30
0.0
 40
3.0
 41
0.0
 71
     5
 72
     1
  1
\A1;125
1001
ACAD
1000
MTEXTBEGIN
1070
    73
1070
     1
1070
    44
1040
1.0
1070
    74
1070
     0
1000
MTEXTEND
  0
POINT
  5
3E6E
330
3E5C
100
AcDbEntity
  8
DEFPOINTS
 62
     0
100
AcDbPoint
 10
312.9591812463254
 20
132.1321474209933
 30
0.0
  0
POINT
  5
3E6F
330
3E5C
100
AcDbEntity
  8
DEFPOINTS
 62
     0
100
AcDbPoint
 10
187.9591812463254
 20
128.1436271887363
 30
0.0
  0
POINT
  5
3E70
330
3E5C
100
AcDbEntity
  8
DEFPOINTS
 62
     0
100
AcDbPoint
 10
187.9591812463254
 20
117.2267597188573
 30
0.0
  0
ENDBLK
  5
3E67
330
3E5C
100
AcDbEntity
  8
0
100
AcDbBlockEnd
  0
BLOCK
  5
3E85
330
3E7B
100
AcDbEntity
  8
0
100
AcDbBlockBegin
  2
*D8
 70
     1
 10
0.0
 20
0.0
 30
0.0
  3
*D8
  1

  0
LINE
  5
3E7C
330
3E7B
100
AcDbEntity
  8
DIMENSIONS
100
AcDbLine
 10
322.4591812463254
 20
145.2267597188573
 30
0.0
 11
322.4591812463254
 21
109.2267597188573
 31
0.0
  0
LINE
  5
3E7D
330
3E7B
100
AcDbEntity
  8
DIMENSIONS
100
AcDbLine
 10
178.4591812463254
 20
145.2267597188573
 30
0.0
 11
178.4591812463254
 21
109.2267597188573
 31
0.0
  0
LINE
  5
3E7E
330
3E7B
100
AcDbEntity
  8
DIMENSIONS
100
AcDbLine
 10
320.4591812463254
 20
110.2267597188573
 30
0.0
 11
180.4591812463254
 21
110.2267597188573
 31
0.0
  0
INSERT
  5
3E7F
330
3E7B
100
AcDbEntity
  8
DIMENSIONS
100
AcDbBlockReference
  2
_OPEN30
 10
322.4591812463254
 20
110.2267597188573
 30
0.0
 41
2.0
 42
2.0
 43
2.0
  0
INSERT
  5
3E80
330
3E7B
100
AcDbEntity
  8
DIMENSIONS
100
AcDbBlockReference
  2
_OPEN30
 10
178.4591812463254
 20
110.2267597188573
 30
0.0
 41
2.0
 42
2.0
 43
2.0
 50
180.0
  0
MTEXT
  5
3E81
330
3E7B
100
AcDbEntity
  8
DIMENSIONS
 62
     3
100
AcDbMText
 10
250.4591812463254
 20
112.7267597188573
 30
0.0
 40
3.0
 41
0.0
 71
     5
 72
     1
  1
\A1;144
1001
ACAD
1000
MTEXTBEGIN
1070
    73
1070
     1
1070
    44
1040
1.0
1070
    74
1070
     0
1000
MTEXTEND
  0
POINT
  5
3E82
330
3E7B
100
AcDbEntity
  8
DEFPOINTS
 62
     0
100
AcDbPoint
 10
322.4591812463254
 20
147.2267597188573
 30
0.0
  0
POINT
  5
3E83
330
3E7B
100
AcDbEntity
  8
DEFPOINTS
 62
     0
100
AcDbPoint
 10
178.4591812463254
 20
147.2267597188573
 30
0.0
  0
POINT
  5
3E84
330
3E7B
100
AcDbEntity
  8
DEFPOINTS
 62
     0
100
AcDbPoint
 10
178.4591812463254
 20
110.2267597188573
 30
0.0
  0
ENDBLK
  5
3E86
330
3E7B
100
AcDbEntity
  8
0
100
AcDbBlockEnd
  0
BLOCK
  5
3EE3
330
3ED9
100
AcDbEntity
  8
0
100
AcDbBlockBegin
  2
*D9
 70
     1
 10
0.0
 20
0.0
 30
0.0
  3
*D9
  1

  0
LINE
  5
3EE5
330
3ED9
100
AcDbEntity
  8
DIMENSIONS
100
AcDbLine
 10
244.5869616680448
 20
60.38481375228821
 30
0.0
 11
157.76313346822
 21
60.38481375228823
 31
0.0
  0
LINE
  5
3EE6
330
3ED9
100
AcDbEntity
  8
DIMENSIONS
100
AcDbLine
 10
186.4591812463254
 20
94.38481375228821
 30
0.0
 11
157.76313346822
 21
94.38481375228823
 31
0.0
  0
LINE
  5
3EE7
330
3ED9
100
AcDbEntity
  8
DIMENSIONS
100
AcDbLine
 10
158.76313346822
 20
62.38481375228824
 30
0.0
 11
158.76313346822
 21
92.38481375228822
 31
0.0
  0
INSERT
  5
3EE8
330
3ED9
100
AcDbEntity
  8
DIMENSIONS
100
AcDbBlockReference
  2
_OPEN30
 10
158.76313346822
 20
60.38481375228823
 30
0.0
 41
2.0
 42
2.0
 43
2.0
 50
270.0
  0
INSERT
  5
3EE9
330
3ED9
100
AcDbEntity
  8
DIMENSIONS
100
AcDbBlockReference
  2
_OPEN30
 10
158.76313346822
 20
94.38481375228823
 30
0.0
 41
2.0
 42
2.0
 43
2.0
 50
90.0
  0
MTEXT
  5
3EEA
330
3ED9
100
AcDbEntity
  8
DIMENSIONS
 62
     3
100
AcDbMText
 10
156.26313346822
 20
77.38481375228825
 30
0.0
 40
3.0
 41
0.0
 71
     5
 72
     1
  1
\A1;34
 11
0.0000000000000001
 21
1.0
 31
0.0
1001
ACAD
1000
MTEXTBEGIN
1070
    73
1070
     1
1070
    44
1040
1.0
1070
    74
1070
     0
1000
MTEXTEND
  0
POINT
  5
3EEB
330
3ED9
100
AcDbEntity
  8
DEFPOINTS
 62
     0
100
AcDbPoint
 10
246.5869616680448
 20
60.38481375228821
 30
0.0
  0
POINT
  5
3EEC
330
3ED9
100
AcDbEntity
  8
DEFPOINTS
 62
     0
100
AcDbPoint
 10
188.4591812463254
 20
94.38481375228821
 30
0.0
  0
POINT
  5
3EED
330
3ED9
100
AcDbEntity
  8
DEFPOINTS
 62
     0
100
AcDbPoint
 10
158.76313346822
 20
94.38481375228823
 30
0.0
  0
ENDBLK
  5
3EE4
330
3ED9
100
AcDbEntity
  8
0
100
AcDbBlockEnd
  0
BLOCK
  5
3F70
330
3F66
100
AcDbEntity
  8
0
100
AcDbBlockBegin
  2
*D10
 70
     1
 10
0.0
 20
0.0
 30
0.0
  3
*D10
  1

  0
LINE
  5
3F7F
330
3F66
100
AcDbEntity
  8
DIMENSIONS
100
AcDbLine
 10
305.9995723617837
 20
136.1276687826008
 30
0.0
 11
305.9995723617837
 21
123.1276687826008
 31
0.0
  0
LINE
  5
3F80
330
3F66
100
AcDbEntity
  8
DIMENSIONS
100
AcDbLine
 10
319.9995723617837
 20
136.1276687826008
 30
0.0
 11
319.9995723617837
 21
123.1276687826008
 31
0.0
  0
LINE
  5
3F81
330
3F66
100
AcDbEntity
  8
DIMENSIONS
100
AcDbLine
 10
307.9995723617837
 20
124.1276687826008
 30
0.0
 11
317.9995723617837
 21
124.1276687826008
 31
0.0
  0
INSERT
  5
3F82
330
3F66
100
AcDbEntity
  8
DIMENSIONS
100
AcDbBlockReference
  2
_OPEN30
 10
305.9995723617837
 20
124.1276687826008
 30
0.0
 41
2.0
 42
2.0
 43
2.0
 50
180.0
  0
INSERT
  5
3F83
330
3F66
100
AcDbEntity
  8
DIMENSIONS
100
AcDbBlockReference
  2
_OPEN30
 10
319.9995723617837
 20
124.1276687826008
 30
0.0
 41
2.0
 42
2.0
 43
2.0
  0
MTEXT
  5
3F84
330
3F66
100
AcDbEntity
  8
DIMENSIONS
 62
     3
100
AcDbMText
 10
312.9995723617837
 20
126.8713236049358
 30
0.0
 40
3.0
 41
0.0
 71
     5
 72
     1
  1
\A1;φ14
1001
ACAD
1000
MTEXTBEGIN
1070
    73
1070
     1
1070
    44
1040
1.0
1070
    74
1070
     0
1000
MTEXTEND
  0
POINT
  5
3F85
330
3F66
100
AcDbEntity
  8
DEFPOINTS
 62
     0
100
AcDbPoint
 10
305.9995723617837
 20
138.1276687826008
 30
0.0
  0
POINT
  5
3F86
330
3F66
100
AcDbEntity
  8
DEFPOINTS
 62
     0
100
AcDbPoint
 10
319.9995723617837
 20
138.1276687826008
 30
0.0
  0
POINT
  5
3F87
330
3F66
100
AcDbEntity
  8
DEFPOINTS
 62
     0
100
AcDbPoint
 10
319.9995723617837
 20
124.1276687826008
 30
0.0
  0
ENDBLK
  5
3F71
330
3F66
100
AcDbEntity
  8
0
100
AcDbBlockEnd
  0
ENDSEC
  0
SECTION
  2
ENTITIES
  0
TEXT
  5
35F8
330
A
100
AcDbEntity
  8
FILE_NAME
  6
CONTINUOUS
100
AcDbText
 10
0.0
 20
10.0
 30
0.0
 40
5.0
  1
14-7034-02-128
 41
0.75
100
AcDbText
  0
TEXT
  5
3607
330
A
100
AcDbEntity
  8
FILE_NAME
  6
CONTINUOUS
100
AcDbText
 10
0.0
 20
0.0
 30
0.0
 40
5.0
  1
12-14703402-128_1
 41
0.75
100
AcDbText
  0
TEXT
  5
36B6
330
A
100
AcDbEntity
  8
FILE_NAME
  6
CONTINUOUS
100
AcDbText
 10
0.0
 20
20.0
 30
0.0
 40
5.0
  1
石鹸受け 14-7034-02-128
 41
0.75
100
AcDbText
  0
ARC
  5
3BC5
330
A
100
AcDbEntity
  8
SHAPE_OUTLINE_BOLD_LINE_
100
AcDbCircle
 10
295.9591812463254
 20
215.2267597188572
 30
0.0
 40
24.0
100
AcDbArc
 50
0.0
 51
90.0
  0
ARC
  5
3BC6
330
A
100
AcDbEntity
  8
SHAPE_OUTLINE_BOLD_LINE_
100
AcDbCircle
 10
204.9591812463254
 20
215.2267597188572
 30
0.0
 40
24.0
100
AcDbArc
 50
90.0
 51
180.0
  0
ARC
  5
3BC7
330
A
100
AcDbEntity
  8
CENTER
100
AcDbCircle
 10
295.9591812463254
 20
215.2267597188572
 30
0.0
 40
17.0
100
AcDbArc
 50
0.0
 51
90.0
  0
ARC
  5
3BC8
330
A
100
AcDbEntity
  8
CENTER
100
AcDbCircle
 10
204.9591812463254
 20
215.2267597188572
 30
0.0
 40
17.0
100
AcDbArc
 50
90.0
 51
180.0
  0
ARC
  5
3BC9
330
A
100
AcDbEntity
  8
SHAPE_OUTLINE_BOLD_LINE_
100
AcDbCircle
 10
295.9591812463254
 20
215.2267597188572
 30
0.0
 40
10.0
100
AcDbArc
 50
0.0
 51
90.0
  0
ARC
  5
3BCA
330
A
100
AcDbEntity
  8
SHAPE_OUTLINE_BOLD_LINE_
100
AcDbCircle
 10
204.9591812463254
 20
215.2267597188572
 30
0.0
 40
10.0
100
AcDbArc
 50
90.0
 51
180.0
  0
ARC
  5
3BCB
330
A
100
AcDbEntity
  8
SHAPE_OUTLINE_BOLD_LINE_
100
AcDbCircle
 10
185.4591812463254
 20
147.2267597188573
 30
0.0
 40
7.0
100
AcDbArc
 50
180.0
 51
270.0
  0
ARC
  5
3BCC
330
A
100
AcDbEntity
  8
SHAPE_OUTLINE_BOLD_LINE_
100
AcDbCircle
 10
185.4591812463254
 20
208.2267597188572
 30
0.0
 40
7.0
100
AcDbArc
 50
90.0
 51
180.0
  0
ARC
  5
3BCD
330
A
100
AcDbEntity
  8
SHAPE_OUTLINE_THIN_LINE_
  6
DASHED
100
AcDbCircle
 10
187.9591812463254
 20
147.2267597188573
 30
0.0
 40
7.0
100
AcDbArc
 50
180.0
 51
270.0
  0
ARC
  5
3BCE
330
A
100
AcDbEntity
  8
SHAPE_OUTLINE_THIN_LINE_
  6
DASHED
100
AcDbCircle
 10
187.9591812463254
 20
208.2267597188572
 30
0.0
 40
7.0
100
AcDbArc
 50
90.0
 51
180.0
  0
ARC
  5
3BCF
330
A
100
AcDbEntity
  8
SHAPE_OUTLINE_BOLD_LINE_
100
AcDbCircle
 10
315.4591812463254
 20
147.2267597188573
 30
0.0
 40
7.0
100
AcDbArc
 50
270.0
 51
0.0
  0
ARC
  5
3BD0
330
A
100
AcDbEntity
  8
SHAPE_OUTLINE_BOLD_LINE_
100
AcDbCircle
 10
315.4591812463254
 20
208.2267597188572
 30
0.0
 40
7.0
100
AcDbArc
 50
0.0
 51
90.0
  0
ARC
  5
3BD1
330
A
100
AcDbEntity
  8
SHAPE_OUTLINE_THIN_LINE_
  6
DASHED
100
AcDbCircle
 10
312.9591812463254
 20
208.2267597188572
 30
0.0
 40
7.0
100
AcDbArc
 50
0.0
 51
90.0
  0
ARC
  5
3BD2
330
A
100
AcDbEntity
  8
SHAPE_OUTLINE_THIN_LINE_
  6
DASHED
100
AcDbCircle
 10
312.9591812463254
 20
147.2267597188573
 30
0.0
 40
7.0
100
AcDbArc
 50
270.0
 51
0.0
  0
ARC
  5
3BD3
330
A
100
AcDbEntity
  8
SHAPE_OUTLINE_BOLD_LINE_
100
AcDbCircle
 10
205.9591812463254
 20
72.88481375228821
 30
0.0
 40
8.0
100
AcDbArc
 50
180.0
 51
270.0
  0
ARC
  5
3BD4
330
A
100
AcDbEntity
  8
SHAPE_OUTLINE_BOLD_LINE_
100
AcDbCircle
 10
294.9591812463254
 20
72.88481375228821
 30
0.0
 40
8.0
100
AcDbArc
 50
270.0
 51
0.0
  0
ARC
  5
3BD5
330
A
100
AcDbEntity
  8
SHAPE_OUTLINE_BOLD_LINE_
100
AcDbCircle
 10
205.4591812463254
 20
72.38481375228821
 30
0.0
 40
10.0
100
AcDbArc
 50
180.0
 51
270.0
  0
ARC
  5
3BD6
330
A
100
AcDbEntity
  8
SHAPE_OUTLINE_BOLD_LINE_
100
AcDbCircle
 10
295.4591812463254
 20
72.38481375228821
 30
0.0
 40
10.0
100
AcDbArc
 50
270.0
 51
0.0
  0
ARC
  5
3BD7
330
A
100
AcDbEntity
  8
SHAPE_OUTLINE_BOLD_LINE_
100
AcDbCircle
 10
129.5832494285696
 20
210.2267597188572
 30
0.0
 40
5.0
100
AcDbArc
 50
90.0
 51
180.0
  0
CIRCLE
  5
3BE1
330
A
100
AcDbEntity
  8
SHAPE_OUTLINE_BOLD_LINE_
100
AcDbCircle
 10
250.4591812463254
 20
177.7267597188572
 30
0.0
 40
4.0
  0
CIRCLE
  5
3BE2
330
A
100
AcDbEntity
  8
SHAPE_OUTLINE_BOLD_LINE_
100
AcDbCircle
 10
268.7091812463254
 20
157.2267597188573
 30
0.0
 40
2.5
  0
CIRCLE
  5
3BE3
330
A
100
AcDbEntity
  8
SHAPE_OUTLINE_BOLD_LINE_
100
AcDbCircle
 10
232.2091812463254
 20
157.2267597188573
 30
0.0
 40
2.5
  0
CIRCLE
  5
3BE4
330
A
100
AcDbEntity
  8
SHAPE_OUTLINE_BOLD_LINE_
100
AcDbCircle
 10
232.2091812463254
 20
198.2267597188572
 30
0.0
 40
2.5
  0
CIRCLE
  5
3BE5
330
A
100
AcDbEntity
  8
SHAPE_OUTLINE_BOLD_LINE_
100
AcDbCircle
 10
268.7091812463254
 20
198.2267597188572
 30
0.0
 40
2.5
  0
CIRCLE
  5
3BE6
330
A
100
AcDbEntity
  8
SHAPE_OUTLINE_BOLD_LINE_
100
AcDbCircle
 10
187.9591812463254
 20
84.8848137522882
 30
0.0
 40
5.5
  0
CIRCLE
  5
3BE7
330
A
100
AcDbEntity
  8
SHAPE_OUTLINE_BOLD_LINE_
100
AcDbCircle
 10
187.9591812463254
 20
84.8848137522882
 30
0.0
 40
2.75
  0
CIRCLE
  5
3BE8
330
A
100
AcDbEntity
  8
SHAPE_OUTLINE_BOLD_LINE_
100
AcDbCircle
 10
312.9591812463254
 20
84.8848137522882
 30
0.0
 40
5.5
  0
CIRCLE
  5
3BE9
330
A
100
AcDbEntity
  8
SHAPE_OUTLINE_BOLD_LINE_
100
AcDbCircle
 10
312.9591812463254
 20
84.8848137522882
 30
0.0
 40
2.75
  0
CIRCLE
  5
3BEA
330
A
100
AcDbEntity
  8
SHAPE_OUTLINE_BOLD_LINE_
100
AcDbCircle
 10
114.0832494285696
 20
150.2267597188573
 30
0.0
 40
2.25
  0
ARC
  5
3BEB
330
A
100
AcDbEntity
  8
SHAPE_OUTLINE_BOLD_LINE_
100
AcDbCircle
 10
187.9591812463254
 20
84.8848137522882
 30
0.0
 40
7.0
100
AcDbArc
 50
90.0
 51
270.0
  0
ARC
  5
3BEC
330
A
100
AcDbEntity
  8
SHAPE_OUTLINE_BOLD_LINE_
100
AcDbCircle
 10
187.9591812463254
 20
84.8848137522882
 30
0.0
 40
7.0
100
AcDbArc
 50
270.0
 51
90.0
  0
ARC
  5
3BED
330
A
100
AcDbEntity
  8
SHAPE_OUTLINE_BOLD_LINE_
100
AcDbCircle
 10
187.9591812463254
 20
84.8848137522882
 30
0.0
 40
9.5
100
AcDbArc
 50
90.0
 51
180.0
  0
ARC
  5
3BEE
330
A
100
AcDbEntity
  8
SHAPE_OUTLINE_BOLD_LINE_
100
AcDbCircle
 10
312.9591812463254
 20
84.8848137522882
 30
0.0
 40
7.0
100
AcDbArc
 50
270.0
 51
90.0
  0
ARC
  5
3BEF
330
A
100
AcDbEntity
  8
SHAPE_OUTLINE_BOLD_LINE_
100
AcDbCircle
 10
312.9591812463254
 20
84.8848137522882
 30
0.0
 40
7.0
100
AcDbArc
 50
90.0
 51
270.0
  0
ARC
  5
3BF0
330
A
100
AcDbEntity
  8
SHAPE_OUTLINE_BOLD_LINE_
100
AcDbCircle
 10
312.4591812463254
 20
84.8848137522882
 30
0.0
 40
9.499999999999889
100
AcDbArc
 50
90.0
 51
180.0
  0
ARC
  5
3BF1
330
A
100
AcDbEntity
  8
SHAPE_OUTLINE_BOLD_LINE_
100
AcDbCircle
 10
268.7091812463254
 20
63.55148041895472
 30
0.0
 40
2.833333333333349
100
AcDbArc
 50
28.07248693585377
 51
151.9275130641462
  0
ARC
  5
3BF2
330
A
100
AcDbEntity
  8
SHAPE_OUTLINE_BOLD_LINE_
100
AcDbCircle
 10
232.2091812463254
 20
63.55148041895472
 30
0.0
 40
2.833333333333369
100
AcDbArc
 50
90.0
 51
151.9275130641462
  0
ARC
  5
3BF3
330
A
100
AcDbEntity
  8
SHAPE_OUTLINE_BOLD_LINE_
100
AcDbCircle
 10
124.5832494285696
 20
232.2267597188572
 30
0.0
 40
7.0
100
AcDbArc
 50
90.0
 51
180.0
  0
ARC
  5
3BF4
330
A
100
AcDbEntity
  8
SHAPE_OUTLINE_BOLD_LINE_
100
AcDbCircle
 10
124.5832494285696
 20
232.2267597188572
 30
0.0
 40
7.0
100
AcDbArc
 50
0.0
 51
90.0
  0
ARC
  5
3BF5
330
A
100
AcDbEntity
  8
SHAPE_OUTLINE_THIN_LINE_
  6
DASHED
100
AcDbCircle
 10
124.5832494285696
 20
232.2267597188572
 30
0.0
 40
7.0
100
AcDbArc
 50
180.0
 51
0.0
  0
ARC
  5
3BF6
330
A
100
AcDbEntity
  8
SHAPE_OUTLINE_BOLD_LINE_
100
AcDbCircle
 10
245.2071516584942
 20
131.0324730683954
 30
0.0
 40
70.66113247399316
100
AcDbArc
 50
256.2893846782881
 51
271.1188939716133
  0
ARC
  5
3BF8
330
A
100
AcDbEntity
  8
SHAPE_OUTLINE_BOLD_LINE_
100
AcDbCircle
 10
255.7112108341566
 20
131.0324730683954
 30
0.0
 40
70.66113247399316
100
AcDbArc
 50
268.8811060283866
 51
283.7106153217118
  0
ARC
  5
3BF9
330
A
100
AcDbEntity
  8
SHAPE_OUTLINE_THIN_LINE_
  6
DASHED
100
AcDbCircle
 10
255.7112108341566
 20
133.5324730683954
 30
0.0
 40
70.66113247399316
100
AcDbArc
 50
268.8811060283866
 51
283.7106153217118
  0
ARC
  5
3BFA
330
A
100
AcDbEntity
  8
SHAPE_OUTLINE_BOLD_LINE_
100
AcDbCircle
 10
170.7309087446769
 20
182.9787893066884
 30
0.0
 40
70.66113247399328
100
AcDbArc
 50
166.2893846782908
 51
181.1188939716162
  0
ARC
  5
3BFB
330
A
100
AcDbEntity
  8
SHAPE_OUTLINE_BOLD_LINE_
100
AcDbCircle
 10
170.7309087446769
 20
172.474730131026
 30
0.0
 40
70.66113247399328
100
AcDbArc
 50
178.8811060283837
 51
193.710615321709
  0
ARC
  5
3BFC
330
A
100
AcDbEntity
  8
SHAPE_OUTLINE_BOLD_LINE_
100
AcDbCircle
 10
188.4591812463254
 20
84.8848137522882
 30
0.0
 40
9.5
100
AcDbArc
 50
0.0
 51
90.0
  0
ARC
  5
3BFD
330
A
100
AcDbEntity
  8
SHAPE_OUTLINE_BOLD_LINE_
100
AcDbCircle
 10
250.4591812463254
 20
177.7267597188572
 30
0.0
 40
22.0
100
AcDbArc
 50
0.0
 51
180.0
  0
ARC
  5
3BFE
330
A
100
AcDbEntity
  8
SHAPE_OUTLINE_BOLD_LINE_
100
AcDbCircle
 10
250.4591812463254
 20
177.7267597188572
 30
0.0
 40
22.0
100
AcDbArc
 50
180.0
 51
0.0
  0
ARC
  5
3BFF
330
A
100
AcDbEntity
  8
SHAPE_OUTLINE_BOLD_LINE_
100
AcDbCircle
 10
232.2091812463254
 20
63.55148041895472
 30
0.0
 40
2.833333333333349
100
AcDbArc
 50
28.07248693585377
 51
90.0
  0
ARC
  5
3C00
330
A
100
AcDbEntity
  8
SHAPE_OUTLINE_BOLD_LINE_
100
AcDbCircle
 10
188.4591812463254
 20
84.8848137522882
 30
0.0
 40
7.0
100
AcDbArc
 50
0.0
 51
90.0
  0
ARC
  5
3C01
330
A
100
AcDbEntity
  8
SHAPE_OUTLINE_BOLD_LINE_
100
AcDbCircle
 10
312.9591812463254
 20
84.8848137522882
 30
0.0
 40
9.5
100
AcDbArc
 50
0.0
 51
90.0
  0
ARC
  5
3C02
330
A
100
AcDbEntity
  8
SHAPE_OUTLINE_BOLD_LINE_
100
AcDbCircle
 10
312.4591812463254
 20
84.8848137522882
 30
0.0
 40
7.0
100
AcDbArc
 50
90.0
 51
180.0
  0
LINE
  5
3C03
330
A
100
AcDbEntity
  8
CENTER
100
AcDbLine
 10
312.9591812463254
 20
215.2267597188572
 30
0.0
 11
312.9591812463254
 21
145.2267597188573
 31
0.0
  0
LINE
  5
3C04
330
A
100
AcDbEntity
  8
CENTER
100
AcDbLine
 10
204.9591812463254
 20
232.2267597188572
 30
0.0
 11
295.9591812463254
 21
232.2267597188572
 31
0.0
  0
LINE
  5
3C05
330
A
100
AcDbEntity
  8
CENTER
100
AcDbLine
 10
187.9591812463254
 20
128.1436271887363
 30
0.0
 11
187.9591812463254
 21
144.8477597188573
 31
0.0
  0
LINE
  5
3C06
330
A
100
AcDbEntity
  8
SHAPE_OUTLINE_THIN_LINE_
  6
DASHED
100
AcDbLine
 10
305.9591812463254
 20
215.2267597188572
 30
0.0
 11
305.9591812463254
 21
140.2267597188573
 31
0.0
  0
LINE
  5
3C07
330
A
100
AcDbEntity
  8
SHAPE_OUTLINE_BOLD_LINE_
100
AcDbLine
 10
204.9591812463254
 20
225.2267597188572
 30
0.0
 11
295.9591812463254
 21
225.2267597188572
 31
0.0
  0
LINE
  5
3C08
330
A
100
AcDbEntity
  8
SHAPE_OUTLINE_BOLD_LINE_
100
AcDbLine
 10
194.9591812463254
 20
134.2267597188573
 30
0.0
 11
194.9591812463254
 21
140.2267597188573
 31
0.0
  0
LINE
  5
3C09
330
A
100
AcDbEntity
  8
SHAPE_OUTLINE_BOLD_LINE_
100
AcDbLine
 10
180.9591812463254
 20
134.2267597188573
 30
0.0
 11
194.9591812463254
 21
134.2267597188573
 31
0.0
  0
LINE
  5
3C0A
330
A
100
AcDbEntity
  8
SHAPE_OUTLINE_BOLD_LINE_
100
AcDbLine
 10
180.9591812463254
 20
215.2267597188572
 30
0.0
 11
180.9591812463254
 21
213.5886623662392
 31
0.0
  0
LINE
  5
3C0B
330
A
100
AcDbEntity
  8
SHAPE_OUTLINE_BOLD_LINE_
100
AcDbLine
 10
295.9591812463254
 20
239.2267597188572
 30
0.0
 11
204.9591812463254
 21
239.2267597188572
 31
0.0
  0
LINE
  5
3C0C
330
A
100
AcDbEntity
  8
SHAPE_OUTLINE_BOLD_LINE_
100
AcDbLine
 10
319.9591812463254
 20
134.2267597188573
 30
0.0
 11
319.9591812463254
 21
141.8648570714755
 31
0.0
  0
LINE
  5
3C0D
330
A
100
AcDbEntity
  8
SHAPE_OUTLINE_BOLD_LINE_
100
AcDbLine
 10
305.9591812463254
 20
134.2267597188573
 30
0.0
 11
319.9591812463254
 21
134.2267597188573
 31
0.0
  0
LINE
  5
3C12
330
A
100
AcDbEntity
  8
SHAPE_OUTLINE_BOLD_LINE_
100
AcDbLine
 10
117.5832494285696
 20
141.6057597188574
 30
0.0
 11
117.5832494285696
 21
144.8477597188573
 31
0.0
  0
LINE
  5
3C16
330
A
100
AcDbEntity
  8
SHAPE_OUTLINE_BOLD_LINE_
100
AcDbLine
 10
117.5832494285696
 20
144.8477597188573
 30
0.0
 11
117.5832494285696
 21
145.2267597188573
 31
0.0
  0
LINE
  5
3C1D
330
A
100
AcDbEntity
  8
SHAPE_OUTLINE_BOLD_LINE_
100
AcDbLine
 10
117.5832494285696
 20
141.2267597188573
 30
0.0
 11
117.5832494285696
 21
141.6057597188574
 31
0.0
  0
LINE
  5
3C21
330
A
100
AcDbEntity
  8
SHAPE_OUTLINE_BOLD_LINE_
100
AcDbLine
 10
117.5832494285696
 20
145.2267597188573
 30
0.0
 11
117.5832494285696
 21
161.6057597188574
 31
0.0
  0
LINE
  5
3C22
330
A
100
AcDbEntity
  8
SHAPE_OUTLINE_BOLD_LINE_
100
AcDbLine
 10
117.5832494285696
 20
134.2267597188573
 30
0.0
 11
117.5832494285696
 21
140.2267597188573
 31
0.0
  0
LINE
  5
3C2C
330
A
100
AcDbEntity
  8
SHAPE_OUTLINE_BOLD_LINE_
100
AcDbLine
 10
117.5832494285696
 20
134.2267597188573
 30
0.0
 11
130.0832494285696
 21
134.2267597188573
 31
0.0
  0
LINE
  5
3C2D
330
A
100
AcDbEntity
  8
SHAPE_OUTLINE_BOLD_LINE_
100
AcDbLine
 10
131.5832494285696
 20
134.2267597188573
 30
0.0
 11
131.5832494285696
 21
140.2267597188573
 31
0.0
  0
LINE
  5
3C2E
330
A
100
AcDbEntity
  8
SHAPE_OUTLINE_BOLD_LINE_
100
AcDbLine
 10
117.5832494285696
 20
165.2950853560981
 30
0.0
 11
117.5832494285696
 21
141.2267597188573
 31
0.0
  0
LINE
  5
3C30
330
A
100
AcDbEntity
  8
SHAPE_OUTLINE_BOLD_LINE_
100
AcDbLine
 10
130.0832494285696
 20
134.2267597188573
 30
0.0
 11
131.5832494285696
 21
134.2267597188573
 31
0.0
  0
LINE
  5
3C40
330
A
100
AcDbEntity
  8
CENTER
100
AcDbLine
 10
187.9591812463254
 20
145.2267597188573
 30
0.0
 11
187.9591812463254
 21
215.2267597188572
 31
0.0
  0
LINE
  5
3C41
330
A
100
AcDbEntity
  8
CENTER
100
AcDbLine
 10
312.9591812463254
 20
144.8477597188573
 30
0.0
 11
312.9591812463254
 21
132.1321474209933
 31
0.0
  0
LINE
  5
3C43
330
A
100
AcDbEntity
  8
CENTER
100
AcDbLine
 10
185.2146166046554
 20
143.2267597188573
 30
0.0
 11
190.6490873156965
 21
143.2267597188573
 31
0.0
  0
LINE
  5
3C44
330
A
100
AcDbEntity
  8
CENTER
100
AcDbLine
 10
309.8719914571515
 20
143.2267597188573
 30
0.0
 11
315.9101184831456
 21
143.2267597188573
 31
0.0
  0
LINE
  5
3C45
330
A
100
AcDbEntity
  8
SHAPE_OUTLINE_BOLD_LINE_
100
AcDbLine
 10
178.4591812463254
 20
208.2267597188572
 30
0.0
 11
178.4591812463254
 21
147.2267597188573
 31
0.0
  0
LINE
  5
3C46
330
A
100
AcDbEntity
  8
SHAPE_OUTLINE_BOLD_LINE_
100
AcDbLine
 10
187.4591812463254
 20
140.2267597188573
 30
0.0
 11
196.4591812463254
 21
140.2267597188573
 31
0.0
  0
LINE
  5
3C47
330
A
100
AcDbEntity
  8
SHAPE_OUTLINE_BOLD_LINE_
100
AcDbLine
 10
322.4591812463254
 20
147.2267597188573
 30
0.0
 11
322.4591812463254
 21
208.2267597188572
 31
0.0
  0
LINE
  5
3C48
330
A
100
AcDbEntity
  8
SHAPE_OUTLINE_BOLD_LINE_
100
AcDbLine
 10
302.9591812463254
 20
215.2267597188572
 30
0.0
 11
302.9591812463254
 21
140.2267597188573
 31
0.0
  0
LINE
  5
3C49
330
A
100
AcDbEntity
  8
SHAPE_OUTLINE_BOLD_LINE_
100
AcDbLine
 10
302.4591812463254
 20
140.2267597188573
 30
0.0
 11
304.4591812463254
 21
140.2267597188573
 31
0.0
  0
LINE
  5
3C4A
330
A
100
AcDbEntity
  8
SHAPE_OUTLINE_BOLD_LINE_
100
AcDbLine
 10
302.4591812463254
 20
215.2267597188572
 30
0.0
 11
198.4591812463254
 21
215.2267597188572
 31
0.0
  0
LINE
  5
3C4B
330
A
100
AcDbEntity
  8
SHAPE_OUTLINE_BOLD_LINE_
100
AcDbLine
 10
197.9591812463254
 20
140.2267597188573
 30
0.0
 11
197.9591812463254
 21
215.2267597188572
 31
0.0
  0
LINE
  5
3C4C
330
A
100
AcDbEntity
  8
SHAPE_OUTLINE_BOLD_LINE_
100
AcDbLine
 10
198.4591812463254
 20
140.2267597188573
 30
0.0
 11
302.4591812463254
 21
140.2267597188573
 31
0.0
  0
LINE
  5
3C4D
330
A
100
AcDbEntity
  8
SHAPE_OUTLINE_BOLD_LINE_
100
AcDbLine
 10
198.4591812463254
 20
215.2267597188572
 30
0.0
 11
196.4591812463254
 21
215.2267597188572
 31
0.0
  0
LINE
  5
3C4E
330
A
100
AcDbEntity
  8
SHAPE_OUTLINE_BOLD_LINE_
100
AcDbLine
 10
196.4591812463254
 20
140.2267597188573
 30
0.0
 11
198.4591812463254
 21
140.2267597188573
 31
0.0
  0
LINE
  5
3C4F
330
A
100
AcDbEntity
  8
SHAPE_OUTLINE_BOLD_LINE_
100
AcDbLine
 10
196.4591812463254
 20
215.2267597188572
 30
0.0
 11
187.4591812463254
 21
215.2267597188572
 31
0.0
  0
LINE
  5
3C50
330
A
100
AcDbEntity
  8
SHAPE_OUTLINE_BOLD_LINE_
100
AcDbLine
 10
180.9591812463254
 20
141.8648570714755
 30
0.0
 11
180.9591812463254
 21
134.2267597188573
 31
0.0
  0
LINE
  5
3C51
330
A
100
AcDbEntity
  8
SHAPE_OUTLINE_THIN_LINE_
  6
DASHED
100
AcDbLine
 10
180.9591812463254
 20
213.5886623662392
 30
0.0
 11
180.9591812463254
 21
141.8648570714755
 31
0.0
  0
LINE
  5
3C52
330
A
100
AcDbEntity
  8
SHAPE_OUTLINE_BOLD_LINE_
100
AcDbLine
 10
304.4591812463254
 20
215.2267597188572
 30
0.0
 11
302.4591812463254
 21
215.2267597188572
 31
0.0
  0
LINE
  5
3C53
330
A
100
AcDbEntity
  8
SHAPE_OUTLINE_BOLD_LINE_
100
AcDbLine
 10
313.4591812463254
 20
215.2267597188572
 30
0.0
 11
312.9591812463254
 21
215.2267597188572
 31
0.0
  0
LINE
  5
3C54
330
A
100
AcDbEntity
  8
SHAPE_OUTLINE_BOLD_LINE_
100
AcDbLine
 10
304.4591812463254
 20
140.2267597188573
 30
0.0
 11
313.4591812463254
 21
140.2267597188573
 31
0.0
  0
LINE
  5
3C55
330
A
100
AcDbEntity
  8
SHAPE_OUTLINE_BOLD_LINE_
100
AcDbLine
 10
319.9591812463254
 20
213.5886623662392
 30
0.0
 11
319.9591812463254
 21
215.2267597188572
 31
0.0
  0
LINE
  5
3C56
330
A
100
AcDbEntity
  8
SHAPE_OUTLINE_THIN_LINE_
  6
DASHED
100
AcDbLine
 10
319.9591812463254
 20
141.8648570714755
 30
0.0
 11
319.9591812463254
 21
213.5886623662392
 31
0.0
  0
LINE
  5
3C57
330
A
100
AcDbEntity
  8
SHAPE_OUTLINE_BOLD_LINE_
100
AcDbLine
 10
313.4591812463254
 20
140.2267597188573
 30
0.0
 11
315.4591812463254
 21
140.2267597188573
 31
0.0
  0
LINE
  5
3C58
330
A
100
AcDbEntity
  8
SHAPE_OUTLINE_BOLD_LINE_
100
AcDbLine
 10
315.4591812463254
 20
215.2267597188572
 30
0.0
 11
312.9591812463254
 21
215.2267597188572
 31
0.0
  0
LINE
  5
3C59
330
A
100
AcDbEntity
  8
SHAPE_OUTLINE_BOLD_LINE_
100
AcDbLine
 10
312.9591812463254
 20
215.2267597188572
 30
0.0
 11
304.4591812463254
 21
215.2267597188572
 31
0.0
  0
LINE
  5
3C5A
330
A
100
AcDbEntity
  8
SHAPE_OUTLINE_BOLD_LINE_
100
AcDbLine
 10
185.4591812463254
 20
215.2267597188572
 30
0.0
 11
187.4591812463254
 21
215.2267597188572
 31
0.0
  0
LINE
  5
3C5B
330
A
100
AcDbEntity
  8
SHAPE_OUTLINE_BOLD_LINE_
100
AcDbLine
 10
185.4591812463254
 20
140.2267597188573
 30
0.0
 11
187.4591812463254
 21
140.2267597188573
 31
0.0
  0
LINE
  5
3C5C
330
A
100
AcDbEntity
  8
SHAPE_OUTLINE_THIN_LINE_
  6
DASHED
100
AcDbLine
 10
194.9591812463254
 20
140.2267597188573
 30
0.0
 11
194.9591812463254
 21
215.2267597188572
 31
0.0
  0
LINE
  5
3C5D
330
A
100
AcDbEntity
  8
SHAPE_OUTLINE_BOLD_LINE_
100
AcDbLine
 10
305.9591812463254
 20
140.2267597188573
 30
0.0
 11
305.9591812463254
 21
134.2267597188573
 31
0.0
  0
LINE
  5
3C5F
330
A
100
AcDbEntity
  8
CENTER
100
AcDbLine
 10
250.4591812463254
 20
220.5298297095853
 30
0.0
 11
250.4591812463254
 21
133.950305446712
 31
0.0
  0
LINE
  5
3C60
330
A
100
AcDbEntity
  8
CENTER
100
AcDbLine
 10
227.8663565356084
 20
198.2267597188572
 30
0.0
 11
236.9822446853934
 21
198.2267597188572
 31
0.0
  0
LINE
  5
3C61
330
A
100
AcDbEntity
  8
CENTER
100
AcDbLine
 10
232.2091812463254
 20
202.5564231877252
 30
0.0
 11
232.2091812463254
 21
193.9313905536981
 31
0.0
  0
LINE
  5
3C62
330
A
100
AcDbEntity
  8
CENTER
100
AcDbLine
 10
264.4000313512856
 20
198.2267597188572
 30
0.0
 11
273.1653084183863
 21
198.2267597188572
 31
0.0
  0
LINE
  5
3C63
330
A
100
AcDbEntity
  8
CENTER
100
AcDbLine
 10
268.7091812463254
 20
202.696667620798
 30
0.0
 11
268.7091812463254
 21
194.071634986771
 31
0.0
  0
LINE
  5
3C64
330
A
100
AcDbEntity
  8
CENTER
100
AcDbLine
 10
268.7091812463254
 20
161.3946820806192
 30
0.0
 11
268.7091812463254
 21
152.5592827969812
 31
0.0
  0
LINE
  5
3C65
330
A
100
AcDbEntity
  8
CENTER
100
AcDbLine
 10
264.4000313512856
 20
157.2267597188573
 30
0.0
 11
273.3055528514596
 21
157.2267597188573
 31
0.0
  0
LINE
  5
3C66
330
A
100
AcDbEntity
  8
CENTER
100
AcDbLine
 10
237.0523669019303
 20
157.2267597188573
 30
0.0
 11
227.2352565867777
 21
157.2267597188573
 31
0.0
  0
LINE
  5
3C67
330
A
100
AcDbEntity
  8
CENTER
100
AcDbLine
 10
232.2091812463254
 20
161.8855375963772
 30
0.0
 11
232.2091812463254
 21
152.3489161473711
 31
0.0
  0
LINE
  5
3C68
330
A
100
AcDbEntity
  8
SHAPE_OUTLINE_THIN_LINE_
  6
DASHED
100
AcDbLine
 10
312.9591812463254
 20
91.88481375228821
 30
0.0
 11
306.036564956993
 21
91.88481375228821
 31
0.0
  0
LINE
  5
3C69
330
A
100
AcDbEntity
  8
SHAPE_OUTLINE_BOLD_LINE_
100
AcDbLine
 10
187.9591812463254
 20
77.88481375228821
 30
0.0
 11
195.4591812463254
 21
77.88481375228821
 31
0.0
  0
LINE
  5
3C6A
330
A
100
AcDbEntity
  8
SHAPE_OUTLINE_BOLD_LINE_
100
AcDbLine
 10
180.9591812463254
 20
84.8848137522882
 30
0.0
 11
178.4591812463254
 21
84.8848137522882
 31
0.0
  0
LINE
  5
3C6B
330
A
100
AcDbEntity
  8
SHAPE_OUTLINE_BOLD_LINE_
100
AcDbLine
 10
197.9591812463254
 20
84.8848137522882
 30
0.0
 11
197.9591812463254
 21
72.88481375228821
 31
0.0
  0
LINE
  5
3C6C
330
A
100
AcDbEntity
  8
SHAPE_OUTLINE_BOLD_LINE_
100
AcDbLine
 10
322.4591812463254
 20
84.8848137522882
 30
0.0
 11
319.9591812463254
 21
84.8848137522882
 31
0.0
  0
LINE
  5
3C6D
330
A
100
AcDbEntity
  8
SHAPE_OUTLINE_BOLD_LINE_
100
AcDbLine
 10
246.5869616680442
 20
60.38481375228821
 30
0.0
 11
250.4591812463254
 21
60.38481375228821
 31
0.0
  0
LINE
  5
3C6F
330
A
100
AcDbEntity
  8
SHAPE_OUTLINE_BOLD_LINE_
100
AcDbLine
 10
228.4591812463254
 20
64.88481375228821
 30
0.0
 11
205.9591812463254
 21
64.88481375228821
 31
0.0
  0
LINE
  5
3C71
330
A
100
AcDbEntity
  8
SHAPE_OUTLINE_THIN_LINE_
  6
DASHED
100
AcDbLine
 10
250.4591812463254
 20
62.88481375228821
 30
0.0
 11
254.4591812463254
 21
62.88481375228821
 31
0.0
  0
LINE
  5
3C73
330
A
100
AcDbEntity
  8
SHAPE_OUTLINE_BOLD_LINE_
100
AcDbLine
 10
195.4591812463254
 20
84.8848137522882
 30
0.0
 11
195.4591812463254
 21
72.38481375228821
 31
0.0
  0
LINE
  5
3C75
330
A
100
AcDbEntity
  8
CENTER
100
AcDbLine
 10
250.4591812463254
 20
97.70551028664705
 30
0.0
 11
250.4591812463254
 21
54.23100089579804
 31
0.0
  0
LINE
  5
3C76
330
A
100
AcDbEntity
  8
SHAPE_OUTLINE_THIN_LINE_
  6
DASHED
100
AcDbLine
 10
302.9591812463254
 20
77.88481375228821
 30
0.0
 11
305.4591812463254
 21
77.88481375228821
 31
0.0
  0
LINE
  5
3C77
330
A
100
AcDbEntity
  8
SHAPE_OUTLINE_BOLD_LINE_
100
AcDbLine
 10
305.4591812463254
 20
77.88481375228821
 30
0.0
 11
312.9591812463254
 21
77.88481375228821
 31
0.0
  0
LINE
  5
3C78
330
A
100
AcDbEntity
  8
SHAPE_OUTLINE_BOLD_LINE_
100
AcDbLine
 10
197.9591812463254
 20
77.88481375228821
 30
0.0
 11
302.9591812463254
 21
77.88481375228821
 31
0.0
  0
LINE
  5
3C79
330
A
100
AcDbEntity
  8
SHAPE_OUTLINE_THIN_LINE_
  6
DASHED
100
AcDbLine
 10
195.4591812463254
 20
77.88481375228821
 30
0.0
 11
197.9591812463254
 21
77.88481375228821
 31
0.0
  0
LINE
  5
3C7A
330
A
100
AcDbEntity
  8
SHAPE_OUTLINE_THIN_LINE_
  6
DASHED
100
AcDbLine
 10
194.8817975356579
 20
91.88481375228821
 30
0.0
 11
187.9591812463254
 21
91.88481375228821
 31
0.0
  0
LINE
  5
3C7B
330
A
100
AcDbEntity
  8
SHAPE_OUTLINE_BOLD_LINE_
100
AcDbLine
 10
306.036564956993
 20
91.88481375228821
 30
0.0
 11
194.8817975356579
 21
91.88481375228821
 31
0.0
  0
LINE
  5
3C7C
330
A
100
AcDbEntity
  8
CENTER
100
AcDbLine
 10
312.9591812463254
 20
99.33713317135824
 30
0.0
 11
312.9591812463254
 21
73.37194878060927
 31
0.0
  0
LINE
  5
3C7D
330
A
100
AcDbEntity
  8
CENTER
100
AcDbLine
 10
187.9591812463254
 20
98.15689751723404
 30
0.0
 11
187.9591812463254
 21
73.60799591143416
 31
0.0
  0
LINE
  5
3C7E
330
A
100
AcDbEntity
  8
CENTER
100
AcDbLine
 10
174.1942378772096
 20
84.8848137522882
 30
0.0
 11
327.1527786518045
 21
84.8848137522882
 31
0.0
  0
LINE
  5
3C7F
330
A
100
AcDbEntity
  8
SHAPE_OUTLINE_BOLD_LINE_
100
AcDbLine
 10
271.2091812463254
 20
64.88481375228821
 30
0.0
 11
266.2091812463254
 21
64.88481375228821
 31
0.0
  0
LINE
  5
3C80
330
A
100
AcDbEntity
  8
SHAPE_OUTLINE_BOLD_LINE_
100
AcDbLine
 10
266.2091812463254
 20
64.88481375228821
 30
0.0
 11
234.7091812463254
 21
64.88481375228821
 31
0.0
  0
LINE
  5
3C81
330
A
100
AcDbEntity
  8
SHAPE_OUTLINE_BOLD_LINE_
100
AcDbLine
 10
234.7091812463254
 20
64.88481375228821
 30
0.0
 11
229.7091812463254
 21
64.88481375228821
 31
0.0
  0
LINE
  5
3C82
330
A
100
AcDbEntity
  8
SHAPE_OUTLINE_BOLD_LINE_
100
AcDbLine
 10
229.7091812463254
 20
64.88481375228821
 30
0.0
 11
228.4591812463254
 21
64.88481375228821
 31
0.0
  0
LINE
  5
3C83
330
A
100
AcDbEntity
  8
CENTER
100
AcDbLine
 10
268.7091812463254
 20
69.16836561606624
 30
0.0
 11
268.7091812463254
 21
59.12026511087924
 31
0.0
  0
LINE
  5
3C85
330
A
100
AcDbEntity
  8
SHAPE_OUTLINE_BOLD_LINE_
100
AcDbLine
 10
117.5832494285696
 20
232.2267597188572
 30
0.0
 11
117.5832494285696
 21
215.2267597188572
 31
0.0
  0
LINE
  5
3C86
330
A
100
AcDbEntity
  8
SHAPE_OUTLINE_THIN_LINE_
  6
DASHED
100
AcDbLine
 10
131.5832494285696
 20
140.2267597188573
 30
0.0
 11
131.5832494285696
 21
215.2267597188572
 31
0.0
  0
LINE
  5
3C87
330
A
100
AcDbEntity
  8
CENTER
100
AcDbLine
 10
112.0753025091407
 20
232.2267597188572
 30
0.0
 11
137.5863801967516
 21
232.2267597188572
 31
0.0
  0
LINE
  5
3C88
330
A
100
AcDbEntity
  8
SHAPE_OUTLINE_BOLD_LINE_
100
AcDbLine
 10
129.5832494285696
 20
215.2267597188572
 30
0.0
 11
134.0832494285696
 21
215.2267597188572
 31
0.0
  0
LINE
  5
3C89
330
A
100
AcDbEntity
  8
SHAPE_OUTLINE_BOLD_LINE_
100
AcDbLine
 10
124.5832494285696
 20
210.2267597188572
 30
0.0
 11
124.5832494285696
 21
140.2267597188573
 31
0.0
  0
LINE
  5
3C8A
330
A
100
AcDbEntity
  8
CENTER
100
AcDbLine
 10
124.5832494285696
 20
129.0090422753821
 30
0.0
 11
124.5832494285696
 21
240.4835521518827
 31
0.0
  0
LINE
  5
3C8B
330
A
100
AcDbEntity
  8
SHAPE_OUTLINE_BOLD_LINE_
100
AcDbLine
 10
124.5832494285696
 20
140.2267597188573
 30
0.0
 11
134.0832494285696
 21
140.2267597188573
 31
0.0
  0
LINE
  5
3C8D
330
A
100
AcDbEntity
  8
SHAPE_OUTLINE_BOLD_LINE_
100
AcDbLine
 10
134.0832494285696
 20
140.2267597188573
 30
0.0
 11
134.0832494285696
 21
161.2939763186401
 31
0.0
  0
LINE
  5
3C8E
330
A
100
AcDbEntity
  8
SHAPE_OUTLINE_BOLD_LINE_
100
AcDbLine
 10
134.0832494285696
 20
161.2939763186401
 30
0.0
 11
134.0832494285696
 21
215.2267597188572
 31
0.0
  0
LINE
  5
3C8F
330
A
100
AcDbEntity
  8
SHAPE_OUTLINE_BOLD_LINE_
100
AcDbLine
 10
131.5832494285696
 20
215.2267597188572
 30
0.0
 11
131.5832494285696
 21
232.2267597188572
 31
0.0
  0
LINE
  5
3C90
330
A
100
AcDbEntity
  8
SHAPE_OUTLINE_BOLD_LINE_
100
AcDbLine
 10
117.5832494285696
 20
215.2267597188572
 30
0.0
 11
102.0832494285696
 21
215.2267597188572
 31
0.0
  0
LINE
  5
3C91
330
A
100
AcDbEntity
  8
SHAPE_OUTLINE_BOLD_LINE_
100
AcDbLine
 10
117.5832494285696
 20
215.2267597188572
 30
0.0
 11
117.5832494285696
 21
165.2950853560981
 31
0.0
  0
LINE
  5
3C92
330
A
100
AcDbEntity
  8
SHAPE_OUTLINE_BOLD_LINE_
100
AcDbLine
 10
102.0832494285696
 20
215.2267597188572
 30
0.0
 11
102.0832494285696
 21
140.2267597188573
 31
0.0
  0
LINE
  5
3C93
330
A
100
AcDbEntity
  8
SHAPE_OUTLINE_BOLD_LINE_
100
AcDbLine
 10
117.5832494285696
 20
141.2267597188573
 30
0.0
 11
117.5832494285696
 21
140.2267597188573
 31
0.0
  0
LINE
  5
3C94
330
A
100
AcDbEntity
  8
SHAPE_OUTLINE_BOLD_LINE_
100
AcDbLine
 10
117.5832494285696
 20
140.2267597188573
 30
0.0
 11
102.0832494285696
 21
140.2267597188573
 31
0.0
  0
LINE
  5
3C95
330
A
100
AcDbEntity
  8
SHAPE_OUTLINE_BOLD_LINE_
100
AcDbLine
 10
117.5832494285696
 20
140.2267597188573
 30
0.0
 11
117.5832494285696
 21
141.2267597188573
 31
0.0
  0
LINE
  5
3C96
330
A
100
AcDbEntity
  8
SHAPE_OUTLINE_BOLD_LINE_
100
AcDbLine
 10
117.5832494285696
 20
140.2267597188573
 30
0.0
 11
117.5832494285696
 21
134.2267597188573
 31
0.0
  0
LINE
  5
3C97
330
A
100
AcDbEntity
  8
SHAPE_OUTLINE_BOLD_LINE_
100
AcDbLine
 10
100.0832494285696
 20
181.5989792971383
 30
0.0
 11
100.0832494285696
 21
173.7267597188572
 31
0.0
  0
LINE
  5
3C98
330
A
100
AcDbEntity
  8
CENTER
100
AcDbLine
 10
190.6984106195623
 20
150.2267597188573
 30
0.0
 11
202.0569283300346
 21
150.2267597188573
 31
0.0
  0
LINE
  5
3C99
330
A
100
AcDbEntity
  8
CENTER
100
AcDbLine
 10
114.0832494285696
 20
154.3192393527803
 30
0.0
 11
114.0832494285696
 21
145.6100075209943
 31
0.0
  0
LINE
  5
3C9A
330
A
100
AcDbEntity
  8
CENTER
100
AcDbLine
 10
110.5064373695963
 20
150.2267597188573
 30
0.0
 11
116.9904659012656
 21
150.2267597188573
 31
0.0
  0
LINE
  5
3C9B
330
A
100
AcDbEntity
  8
CENTER
100
AcDbLine
 10
190.6984106195623
 20
74.38481375228821
 30
0.0
 11
202.0569283300346
 21
74.38481375228821
 31
0.0
  0
LINE
  5
3C9D
330
A
100
AcDbEntity
  8
SHAPE_OUTLINE_BOLD_LINE_
100
AcDbLine
 10
250.4591812463254
 20
60.38481375228821
 30
0.0
 11
254.4591812463254
 21
60.38481375228821
 31
0.0
  0
LINE
  5
3C9F
330
A
100
AcDbEntity
  8
CENTER
100
AcDbLine
 10
173.0005459393128
 20
177.7267597188572
 30
0.0
 11
327.4687294256796
 21
177.7267597188572
 31
0.0
  0
LINE
  5
3CA1
330
A
100
AcDbEntity
  8
CENTER
100
AcDbLine
 10
232.2091812463254
 20
68.61345796303215
 30
0.0
 11
232.2091812463254
 21
58.62026511087925
 31
0.0
  0
LINE
  5
3CA2
330
A
100
AcDbEntity
  8
SHAPE_OUTLINE_BOLD_LINE_
100
AcDbLine
 10
187.9591812463254
 20
94.38481375228821
 30
0.0
 11
188.4591812463254
 21
94.38481375228821
 31
0.0
  0
LINE
  5
3CA3
330
A
100
AcDbEntity
  8
SHAPE_OUTLINE_BOLD_LINE_
100
AcDbLine
 10
312.4591812463254
 20
94.38481375228809
 30
0.0
 11
312.9591812463254
 21
94.38481375228809
 31
0.0
  0
LINE
  5
3CA5
330
A
100
AcDbEntity
  8
SHAPE_OUTLINE_BOLD_LINE_
100
AcDbLine
 10
305.4591812463254
 20
72.38481375228821
 30
0.0
 11
305.4591812463254
 21
84.8848137522882
 31
0.0
  0
LINE
  5
3CA6
330
A
100
AcDbEntity
  8
SHAPE_OUTLINE_BOLD_LINE_
100
AcDbLine
 10
302.9591812463254
 20
72.88481375228821
 30
0.0
 11
302.9591812463254
 21
84.8848137522882
 31
0.0
  0
LINE
  5
3CA7
330
A
100
AcDbEntity
  8
SHAPE_OUTLINE_BOLD_LINE_
100
AcDbLine
 10
295.4591812463254
 20
62.38481375228821
 30
0.0
 11
250.4591812463254
 21
62.38481375228821
 31
0.0
  0
LINE
  5
3CA8
330
A
100
AcDbEntity
  8
SHAPE_OUTLINE_BOLD_LINE_
100
AcDbLine
 10
294.9591812463254
 20
64.88481375228821
 30
0.0
 11
271.2091812463254
 21
64.88481375228821
 31
0.0
  0
LINE
  5
3CA9
330
A
100
AcDbEntity
  8
SHAPE_OUTLINE_BOLD_LINE_
100
AcDbLine
 10
205.4591812463254
 20
62.38481375228821
 30
0.0
 11
228.4591812463254
 21
62.38481375228821
 31
0.0
  0
LINE
  5
3CAA
330
A
100
AcDbEntity
  8
SHAPE_OUTLINE_THIN_LINE_
  6
DASHED
100
AcDbLine
 10
305.4591812463254
 20
215.2267597188572
 30
0.0
 11
305.4591812463254
 21
140.2267597188573
 31
0.0
  0
LINE
  5
3CAB
330
A
100
AcDbEntity
  8
SHAPE_OUTLINE_THIN_LINE_
  6
DASHED
100
AcDbLine
 10
195.4591812463254
 20
140.2267597188573
 30
0.0
 11
195.4591812463254
 21
215.2267597188572
 31
0.0
  0
ARC
  5
3E00
330
A
100
AcDbEntity
  8
SHAPE_OUTLINE_THIN_LINE_
  6
DASHED
100
AcDbCircle
 10
245.2071516584942
 20
133.5324730683954
 30
0.0
 40
70.66113247399316
100
AcDbArc
 50
256.2893846782881
 51
271.1188939716133
  0
LINE
  5
3E01
330
A
100
AcDbEntity
  8
SHAPE_OUTLINE_THIN_LINE_
  6
DASHED
100
AcDbLine
 10
250.4591812463254
 20
62.88481375228821
 30
0.0
 11
246.4591812463254
 21
62.88481375228821
 31
0.0
  0
LINE
  5
3E03
330
A
100
AcDbEntity
  8
SHAPE_OUTLINE_BOLD_LINE_
100
AcDbLine
 10
205.4591812463254
 20
62.38481375228821
 30
0.0
 11
250.4591812463254
 21
62.38481375228821
 31
0.0
  0
DIMENSION
  5
3E04
330
A
100
AcDbEntity
  8
DIMENSIONS
100
AcDbDimension
  2
*D2
 10
92.08324942856961
 20
150.2267597188573
 30
0.0
 11
89.58324942856959
 21
145.2267597188573
 31
0.0
 70
    32
  3
STANDARD
100
AcDbAlignedDimension
 13
102.0832494285696
 23
140.2267597188573
 33
0.0
 14
110.5064373695963
 24
150.2267597188573
 34
0.0
 50
90.0
100
AcDbRotatedDimension
  0
DIMENSION
  5
3E11
330
A
100
AcDbEntity
  8
DIMENSIONS
100
AcDbDimension
  2
*D3
 10
134.0832494285696
 20
124.2267597188573
 30
0.0
 11
124.0832494285696
 21
126.7267597188573
 31
0.0
 70
    32
  3
STANDARD
100
AcDbAlignedDimension
 13
114.0832494285696
 23
145.6100075209943
 33
0.0
 14
134.0832494285696
 24
140.2267597188573
 34
0.0
100
AcDbRotatedDimension
  0
DIMENSION
  5
3E1E
330
A
100
AcDbEntity
  8
DIMENSIONS
100
AcDbDimension
  2
*D4
 10
168.4591812463254
 20
215.2267597188572
 30
0.0
 11
165.9591812463254
 21
177.7267597188573
 31
0.0
 70
    32
  3
STANDARD
100
AcDbAlignedDimension
 13
185.4591812463254
 23
140.2267597188573
 33
0.0
 14
185.4591812463254
 24
215.2267597188572
 34
0.0
 50
90.0
100
AcDbRotatedDimension
  0
DIMENSION
  5
3E2B
330
A
100
AcDbEntity
  8
DIMENSIONS
100
AcDbDimension
  2
*D5
 10
161.4591812463254
 20
239.2267597188572
 30
0.0
 11
158.9591812463254
 21
186.7267597188573
 31
0.0
 70
    32
  3
STANDARD
100
AcDbAlignedDimension
 13
180.9591812463254
 23
134.2267597188573
 33
0.0
 14
204.9591812463254
 24
239.2267597188572
 34
0.0
 50
90.0
100
AcDbRotatedDimension
  0
DIMENSION
  5
3E38
330
A
100
AcDbEntity
  8
DIMENSIONS
100
AcDbDimension
  2
*D6
 10
302.9591812463254
 20
124.2267597188573
 30
0.0
 11
250.4591812463254
 21
126.7267597188573
 31
0.0
 70
    32
  3
STANDARD
100
AcDbAlignedDimension
 13
197.9591812463254
 23
140.2267597188573
 33
0.0
 14
302.9591812463254
 24
140.2267597188573
 34
0.0
100
AcDbRotatedDimension
  0
DIMENSION
  5
3E5B
330
A
100
AcDbEntity
  8
DIMENSIONS
100
AcDbDimension
  2
*D7
 10
187.9591812463254
 20
117.2267597188573
 30
0.0
 11
250.4591812463254
 21
119.7267597188573
 31
0.0
 70
    32
  3
STANDARD
100
AcDbAlignedDimension
 13
312.9591812463254
 23
132.1321474209933
 33
0.0
 14
187.9591812463254
 24
128.1436271887363
 34
0.0
100
AcDbRotatedDimension
  0
DIMENSION
  5
3E7A
330
A
100
AcDbEntity
  8
DIMENSIONS
100
AcDbDimension
  2
*D8
 10
178.4591812463254
 20
110.2267597188573
 30
0.0
 11
250.4591812463254
 21
112.7267597188573
 31
0.0
 70
    32
  3
STANDARD
100
AcDbAlignedDimension
 13
322.4591812463254
 23
147.2267597188573
 33
0.0
 14
178.4591812463254
 24
147.2267597188573
 34
0.0
100
AcDbRotatedDimension
  0
DIMENSION
  5
3ED8
330
A
100
AcDbEntity
  8
DIMENSIONS
100
AcDbDimension
  2
*D9
 10
158.76313346822
 20
94.38481375228823
 30
0.0
 11
156.26313346822
 21
77.38481375228825
 31
0.0
 70
    32
  3
STANDARD
100
AcDbAlignedDimension
 13
246.5869616680448
 23
60.38481375228821
 33
0.0
 14
188.4591812463254
 24
94.38481375228821
 34
0.0
 50
90.0
100
AcDbRotatedDimension
  0
DIMENSION
  5
3F65
330
A
100
AcDbEntity
  8
DIMENSIONS
100
AcDbDimension
  2
*D10
 10
319.9995723617837
 20
124.1276687826008
 30
0.0
 11
312.9995723617837
 21
126.8713236049358
 31
0.0
 70
    32
  1
φ<>
  3
STANDARD
100
AcDbAlignedDimension
 13
305.9995723617837
 23
138.1276687826008
 33
0.0
 14
319.9995723617837
 24
138.1276687826008
 34
0.0
100
AcDbRotatedDimension
  0
VIEWPORT
  5
3F19
330
B
100
AcDbEntity
 67
     1
  8
0
100
AcDbViewport
 10
140.2773461002067
 20
103.6796929333176
 30
0.0
 40
45.46220227972106
 41
27.87674357422133
 68
     1
 69
     1
1001
ACAD
1000
MVIEW
1002
{
1070
    16
1010
0.0
1020
0.0
1030
0.0
1010
0.0
1020
0.0
1030
1.0
1040
0.0
1040
27.87674357422133
1040
140.2773461002067
1040
103.6796929333176
1040
50.0
1040
0.0
1040
0.0
1070
     0
1070
   100
1070
     1
1070
     1
1070
     0
1070
     0
1070
     0
1070
     0
1040
0.0
1040
0.0
1040
0.0
1040
10.0
1040
10.0
1040
10.0
1040
10.0
1070
     0
1002
{
1002
}
1002
}
  0
VIEWPORT
  5
3F1B
330
B
100
AcDbEntity
 67
     1
  8
DIMENSIONS
100
AcDbViewport
 10
145.3091675043106
 20
101.8116623163223
 30
0.0
 40
232.4946680068969
 41
162.8986597061157
 68
     2
 69
     2
1001
ACAD
1000
MVIEW
1002
{
1070
    16
1010
0.0
1020
0.0
1030
0.0
1010
0.0
1020
0.0
1030
1.0
1040
0.0
1040
300.1539823008849
1040
200.0
1040
138.4999999999999
1040
50.0
1040
0.0
1040
0.0
1070
     0
1070
   100
1070
     1
1070
     1
1070
     0
1070
     0
1070
     0
1070
     0
1040
0.0
1040
0.0
1040
0.0
1040
1.0
1040
1.0
1040
0.0
1040
0.0
1070
     0
1002
{
1002
}
1002
}
  0
ENDSEC
  0
SECTION
  2
OBJECTS
  0
DICTIONARY
  5
19
330
0
100
AcDbDictionary
  3
ACAD_GROUP
350
1A
  3
ACAD_LAYOUT
350
157A
  3
ACAD_MLINESTYLE
350
1B
  3
ACAD_PLOTSETTINGS
350
157B
  3
ACAD_PLOTSTYLENAME
350
1578
  3
ACDBHEADERROUNDTRIPXREC
350
3FD2
  3
ACDBVARIABLEDICTIONARY
350
3478
  3
ADE_QUERY_LIBRARY
350
3622
  3
ASE_INDEX_DICTIONARY
350
3F0B
1001
ADE
1000
ADE02C004
1000
[Query]
1000
CaseSensitiveMatch=0
1000
SaveCurrQueryInSession=1
1000
MkSelSetWithQryObj=0
1000
ShowBlockAsInsPt=0
1000
CreateAssociativeHatchObjects=0
1000
ReferenceBoundaryForAreaLocation=1
1000
ShowImageAsBoundary=1
1000
DefaultJoinOperator=2
1000
ColorForAdd=red
1000
ColorForRemove=red
1000
BlockLocnForQuery=1
1000
TextLocnForQuery=1
1000
[Save Back]
1000
RedefineBlockDefinitions=1
1000
RedefineLayerDefinitions=1
1000
RedefineTextStyleDefinitions=1
1000
RemoveUnusedGroups=1
1000
EraseSavedBackObjects=1
1000
RemoveLockAfterSave=1
1000
CreateHistoryFileOfChanges=0
1000
CreateBackupFileOfSourceDwg=1
1000
DontAddObjectsToSaveSet=0
1000
MarkObjectsForEditingWithoutPrompting=0
1000
[Coordinate Transformation]
1000
RestoreLastActiveDwgsOnStartup=1
1000
ActivateDwgsOnAttach=1
1000
AdjustSizesAndScalesForChangesInUnits=1
1000
AdjustRotationsForMapDistortions=1
1000
AdjustSizesAndScalesForMapDistortions=1
1000
AdjustElevations=1
1000
AdjustZeroRotationObjects=1
1000
ReconnectDbOnWSOpen=1
1000
NoOfSQLConditionsInHistory=10
  0
DICTIONARY
  5
36A5
330
A
100
AcDbDictionary
280
     1
  3
ACAD_LAYOUTSELFREF
360
3FF3
  3
ACAD_SORTENTS
360
36A6
  0
DICTIONARY
  5
3FF4
330
B
100
AcDbDictionary
280
     1
  3
ACAD_LAYOUTSELFREF
360
3FF5
  0
DICTIONARY
  5
1A
102
{ACAD_REACTORS
330
19
102
}
330
19
100
AcDbDictionary
  0
DICTIONARY
  5
157A
102
{ACAD_REACTORS
330
19
102
}
330
19
100
AcDbDictionary
  0
DICTIONARY
  5
1B
102
{ACAD_REACTORS
330
19
102
}
330
19
100
AcDbDictionary
  3
STANDARD
350
1C
  0
DICTIONARY
  5
157B
102
{ACAD_REACTORS
330
19
102
}
330
19
100
AcDbDictionary
  0
ACDBDICTIONARYWDFLT
  5
1578
102
{ACAD_REACTORS
330
19
102
}
330
19
100
AcDbDictionary
281
     1
  3
Normal
350
1579
100
AcDbDictionaryWithDefault
340
1579
  0
DICTIONARY
  5
3FD2
102
{ACAD_REACTORS
330
19
102
}
330
19
100
AcDbDictionary
  3
CEPSNTYPE
350
3FDC
  3
DIMSTYLEDATA
350
3FE0
  3
FINGERPRINTGUID
350
3FDD
  3
HYPERLINKBASE
350
3FD5
  3
INSUNITS
350
3FDB
  3
LAYOUTDICT
350
3FD7
  3
LWETCUNION
350
3FDA
  3
PLOTSETDICT
350
3FD8
  3
PLOTSTYLNAMDICT
350
3FD9
  3
PSVPSCALE
350
3FDF
  3
PUCSBASE
350
3FE3
  3
PUCSORGBACK
350
3FE9
  3
PUCSORGBOTTOM
350
3FE5
  3
PUCSORGFRONT
350
3FE8
  3
PUCSORGLEFT
350
3FE6
  3
PUCSORGRIGHT
350
3FE7
  3
PUCSORGTOP
350
3FE4
  3
PUCSORTHOREF
350
3FE1
  3
PUCSORTHOVIEW
350
3FE2
  3
STYLESHEET
350
3FD6
  3
TSTACKALIGN
350
3FD3
  3
TSTACKSIZE
350
3FD4
  3
UCSBASE
350
3FEC
  3
UCSORGBACK
350
3FF2
  3
UCSORGBOTTOM
350
3FEE
  3
UCSORGFRONT
350
3FF1
  3
UCSORGLEFT
350
3FEF
  3
UCSORGRIGHT
350
3FF0
  3
UCSORGTOP
350
3FED
  3
UCSORTHOREF
350
3FEA
  3
UCSORTHOVIEW
350
3FEB
  3
VERSIONGUID
350
3FDE
  0
DICTIONARY
  5
3478
102
{ACAD_REACTORS
330
19
102
}
330
19
100
AcDbDictionary
  3
DIMASSOC
350
3479
  3
SORTENTS
350
36A9
  0
DICTIONARY
  5
3622
102
{ACAD_REACTORS
330
19
102
}
330
19
100
AcDbDictionary
  3
_CURRQRY
350
3F0D
  0
DICTIONARY
  5
3F0B
102
{ACAD_REACTORS
330
19
102
}
330
19
100
AcDbDictionary
  3
ASEBLOCKHIERARCHYINDEXRECORD
350
3F0C
1001
DCO15
1040
1577190272.687
  0
XRECORD
  5
3FF3
102
{ACAD_REACTORS
330
36A5
102
}
330
36A5
100
AcDbXrecord
340
A
  0
SORTENTSTABLE
  5
36A6
102
{ACAD_REACTORS
330
36A5
102
}
330
36A5
100
AcDbSortentsTable
330
A
331
35F8
  5
35FD
331
3607
  5
3634
  0
XRECORD
  5
3FF5
102
{ACAD_REACTORS
330
3FF4
102
}
330
3FF4
100
AcDbXrecord
340
B
  0
MLINESTYLE
  5
1C
102
{ACAD_REACTORS
330
1B
102
}
330
1B
100
AcDbMlineStyle
  2
STANDARD
 70
     0
  3

 62
     0
 51
90.0
 52
90.0
 71
     2
 49
0.5
 62
   256
  6
BYLAYER
 49
-0.5
 62
   256
  6
BYLAYER
  0
ACDBPLACEHOLDER
  5
1579
102
{ACAD_REACTORS
330
1578
102
}
330
1578
100
AcDbPlaceHolder
280
     0
  0
XRECORD
  5
3FDC
102
{ACAD_REACTORS
330
3FD2
102
}
330
3FD2
100
AcDbXrecord
 90
        0
  0
XRECORD
  5
3FE0
102
{ACAD_REACTORS
330
3FD2
102
}
330
3FD2
100
AcDbXrecord
1000
DSTYLE
1002
{
1070
   279
 70
     2
1070
   341
340
143A
1070
   342
340
143A
1070
   371
 70
    -1
1070
   372
 70
    -1
1002
}
  0
XRECORD
  5
3FDD
102
{ACAD_REACTORS
330
3FD2
102
}
330
3FD2
100
AcDbXrecord
  1
{5653D33C-3AEF-40FE-8495-DE925CF19E35}
  0
XRECORD
  5
3FD5
102
{ACAD_REACTORS
330
3FD2
102
}
330
3FD2
100
AcDbXrecord
  1

  0
XRECORD
  5
3FDB
102
{ACAD_REACTORS
330
3FD2
102
}
330
3FD2
100
AcDbXrecord
 90
        0
  0
XRECORD
  5
3FD7
102
{ACAD_REACTORS
330
3FD2
102
}
330
3FD2
100
AcDbXrecord
340
157A
  0
XRECORD
  5
3FDA
102
{ACAD_REACTORS
330
3FD2
102
}
330
3FD2
100
AcDbXrecord
 90
    10781
  0
XRECORD
  5
3FD8
102
{ACAD_REACTORS
330
3FD2
102
}
330
3FD2
100
AcDbXrecord
340
157B
  0
XRECORD
  5
3FD9
102
{ACAD_REACTORS
330
3FD2
102
}
330
3FD2
100
AcDbXrecord
340
1578
  0
XRECORD
  5
3FDF
102
{ACAD_REACTORS
330
3FD2
102
}
330
3FD2
100
AcDbXrecord
 40
0.0
  0
XRECORD
  5
3FE3
102
{ACAD_REACTORS
330
3FD2
102
}
330
3FD2
100
AcDbXrecord
340
0
  0
XRECORD
  5
3FE9
102
{ACAD_REACTORS
330
3FD2
102
}
330
3FD2
100
AcDbXrecord
 10
0.0
 20
0.0
 30
0.0
  0
XRECORD
  5
3FE5
102
{ACAD_REACTORS
330
3FD2
102
}
330
3FD2
100
AcDbXrecord
 10
0.0
 20
0.0
 30
0.0
  0
XRECORD
  5
3FE8
102
{ACAD_REACTORS
330
3FD2
102
}
330
3FD2
100
AcDbXrecord
 10
0.0
 20
0.0
 30
0.0
  0
XRECORD
  5
3FE6
102
{ACAD_REACTORS
330
3FD2
102
}
330
3FD2
100
AcDbXrecord
 10
0.0
 20
0.0
 30
0.0
  0
XRECORD
  5
3FE7
102
{ACAD_REACTORS
330
3FD2
102
}
330
3FD2
100
AcDbXrecord
 10
0.0
 20
0.0
 30
0.0
  0
XRECORD
  5
3FE4
102
{ACAD_REACTORS
330
3FD2
102
}
330
3FD2
100
AcDbXrecord
 10
0.0
 20
0.0
 30
0.0
  0
XRECORD
  5
3FE1
102
{ACAD_REACTORS
330
3FD2
102
}
330
3FD2
100
AcDbXrecord
340
0
  0
XRECORD
  5
3FE2
102
{ACAD_REACTORS
330
3FD2
102
}
330
3FD2
100
AcDbXrecord
 70
     0
  0
XRECORD
  5
3FD6
102
{ACAD_REACTORS
330
3FD2
102
}
330
3FD2
100
AcDbXrecord
  1
スガツネWeb_mono.ctb
  0
XRECORD
  5
3FD3
102
{ACAD_REACTORS
330
3FD2
102
}
330
3FD2
100
AcDbXrecord
 90
        1
  0
XRECORD
  5
3FD4
102
{ACAD_REACTORS
330
3FD2
102
}
330
3FD2
100
AcDbXrecord
 90
       70
  0
XRECORD
  5
3FEC
102
{ACAD_REACTORS
330
3FD2
102
}
330
3FD2
100
AcDbXrecord
340
0
  0
XRECORD
  5
3FF2
102
{ACAD_REACTORS
330
3FD2
102
}
330
3FD2
100
AcDbXrecord
 10
0.0
 20
0.0
 30
0.0
  0
XRECORD
  5
3FEE
102
{ACAD_REACTORS
330
3FD2
102
}
330
3FD2
100
AcDbXrecord
 10
0.0
 20
0.0
 30
0.0
  0
XRECORD
  5
3FF1
102
{ACAD_REACTORS
330
3FD2
102
}
330
3FD2
100
AcDbXrecord
 10
0.0
 20
0.0
 30
0.0
  0
XRECORD
  5
3FEF
102
{ACAD_REACTORS
330
3FD2
102
}
330
3FD2
100
AcDbXrecord
 10
0.0
 20
0.0
 30
0.0
  0
XRECORD
  5
3FF0
102
{ACAD_REACTORS
330
3FD2
102
}
330
3FD2
100
AcDbXrecord
 10
0.0
 20
0.0
 30
0.0
  0
XRECORD
  5
3FED
102
{ACAD_REACTORS
330
3FD2
102
}
330
3FD2
100
AcDbXrecord
 10
0.0
 20
0.0
 30
0.0
  0
XRECORD
  5
3FEA
102
{ACAD_REACTORS
330
3FD2
102
}
330
3FD2
100
AcDbXrecord
340
0
  0
XRECORD
  5
3FEB
102
{ACAD_REACTORS
330
3FD2
102
}
330
3FD2
100
AcDbXrecord
 70
     0
  0
XRECORD
  5
3FDE
102
{ACAD_REACTORS
330
3FD2
102
}
330
3FD2
100
AcDbXrecord
  1
{5743868D-C9B1-43A7-A243-05CC9B2C9A20}
  0
DICTIONARYVAR
  5
3479
102
{ACAD_REACTORS
330
3478
102
}
330
3478
100
DictionaryVariables
280
     0
  1
1
  0
DICTIONARYVAR
  5
36A9
102
{ACAD_REACTORS
330
3478
102
}
330
3478
100
DictionaryVariables
280
     0
  1
127
  0
XRECORD
  5
3F0D
102
{ACAD_REACTORS
330
3622
102
}
330
3622
100
AcDbXrecord
1000
ADE02C001
1070
     1
1070
     0
1002
{
1002
}
1002
{
1002
}
1002
{
1002
}
1000

  0
XRECORD
  5
3F0C
102
{ACAD_REACTORS
330
3F0B
102
}
330
3F0B
100
AcDbXrecord
330
3743
330
3E09
330
3E0A
330
3E16
330
3E17
330
3E23
330
3E24
330
3E30
330
3E31
330
3E48
330
3E49
330
0
330
0
330
3E6B
330
3E6C
330
3E7F
330
3E80
330
0
330
0
330
0
330
0
330
0
330
0
330
3EE8
330
3EE9
  0
ENDSEC
  0
EOF
