  0
SECTION
  2
HEADER
  9
$ACADVER
  1
AC1014
  9
$ACADMAINTVER
 70
     0
  9
$DWGCODEPAGE
  3
ANSI_932
  9
$INSBASE
 10
0.0
 20
0.0
 30
0.0
  9
$EXTMIN
 10
-10.0
 20
-10.0
 30
0.0
  9
$EXTMAX
 10
200.0
 20
287.0
 30
0.0
  9
$LIMMIN
 10
0.0
 20
0.0
  9
$LIMMAX
 10
0.0
 20
0.0
  9
$ORTHOMODE
 70
     0
  9
$REGENMODE
 70
     1
  9
$FILLMODE
 70
     1
  9
$QTEXTMODE
 70
     0
  9
$MIRRTEXT
 70
     1
  9
$DRAGMODE
 70
     2
  9
$LTSCALE
 40
0.1
  9
$OSMODE
 70
     0
  9
$ATTMODE
 70
     1
  9
$TEXTSIZE
 40
0.0
  9
$TRACEWID
 40
0.05
  9
$TEXTSTYLE
  7
STANDARD
  9
$CLAYER
  8
0
  9
$CELTYPE
  6
BYLAYER
  9
$CECOLOR
 62
   256
  9
$CELTSCALE
 40
1.0
  9
$DELOBJ
 70
     1
  9
$DISPSILH
 70
     0
  9
$DIMSCALE
 40
1.0
  9
$DIMASZ
 40
2.0
  9
$DIMEXO
 40
2.0
  9
$DIMDLI
 40
0.5
  9
$DIMRND
 40
0.0
  9
$DIMDLE
 40
0.0
  9
$DIMEXE
 40
1.0
  9
$DIMTP
 40
0.0
  9
$DIMTM
 40
0.0
  9
$DIMTXT
 40
3.0
  9
$DIMCEN
 40
0.0
  9
$DIMTSZ
 40
0.0
  9
$DIMTOL
 70
     0
  9
$DIMLIM
 70
     0
  9
$DIMTIH
 70
     0
  9
$DIMTOH
 70
     1
  9
$DIMSE1
 70
     0
  9
$DIMSE2
 70
     0
  9
$DIMTAD
 70
     1
  9
$DIMZIN
 70
     8
  9
$DIMBLK
  1
OPEN30
  9
$DIMASO
 70
     1
  9
$DIMSHO
 70
     1
  9
$DIMPOST
  1

  9
$DIMAPOST
  1

  9
$DIMALT
 70
     0
  9
$DIMALTD
 70
     2
  9
$DIMALTF
 40
25.4
  9
$DIMLFAC
 40
1.0
  9
$DIMTOFL
 70
     0
  9
$DIMTVP
 40
0.0
  9
$DIMTIX
 70
     1
  9
$DIMSOXD
 70
     0
  9
$DIMSAH
 70
     0
  9
$DIMBLK1
  1

  9
$DIMBLK2
  1

  9
$DIMSTYLE
  2
STANDARD
  9
$DIMCLRD
 70
   256
  9
$DIMCLRE
 70
   256
  9
$DIMCLRT
 70
     3
  9
$DIMTFAC
 40
1.0
  9
$DIMGAP
 40
1.0
  9
$DIMJUST
 70
     0
  9
$DIMSD1
 70
     0
  9
$DIMSD2
 70
     0
  9
$DIMTOLJ
 70
     1
  9
$DIMTZIN
 70
     0
  9
$DIMALTZ
 70
     0
  9
$DIMALTTZ
 70
     0
  9
$DIMFIT
 70
     5
  9
$DIMUPT
 70
     0
  9
$DIMUNIT
 70
     2
  9
$DIMDEC
 70
     1
  9
$DIMTDEC
 70
     1
  9
$DIMALTU
 70
     2
  9
$DIMALTTD
 70
     2
  9
$DIMTXSTY
  7
STANDARD
  9
$DIMAUNIT
 70
     0
  9
$LUNITS
 70
     2
  9
$LUPREC
 70
     4
  9
$SKETCHINC
 40
0.1
  9
$FILLETRAD
 40
0.0
  9
$AUNITS
 70
     0
  9
$AUPREC
 70
     0
  9
$MENU
  1
acad
  9
$ELEVATION
 40
0.0
  9
$PELEVATION
 40
0.0
  9
$THICKNESS
 40
0.0
  9
$LIMCHECK
 70
     0
  9
$BLIPMODE
 70
     0
  9
$CHAMFERA
 40
0.0
  9
$CHAMFERB
 40
0.0
  9
$CHAMFERC
 40
0.0
  9
$CHAMFERD
 40
0.0
  9
$SKPOLY
 70
     0
  9
$TDCREATE
 40
2312272.457674340
  9
$TDUPDATE
 40
2454126.779127060
  9
$TDINDWG
 40
0.1756076389
  9
$TDUSRTIMER
 40
0.1756070949
  9
$USRTIMER
 70
     1
  9
$ANGBASE
 50
0.0
  9
$ANGDIR
 70
     0
  9
$PDMODE
 70
     0
  9
$PDSIZE
 40
0.0
  9
$PLINEWID
 40
0.0
  9
$COORDS
 70
     2
  9
$SPLFRAME
 70
     0
  9
$SPLINETYPE
 70
     6
  9
$SPLINESEGS
 70
     8
  9
$ATTDIA
 70
     0
  9
$ATTREQ
 70
     1
  9
$HANDLING
 70
 22529
  9
$HANDSEED
  5
3E05
  9
$SURFTAB1
 70
     6
  9
$SURFTAB2
 70
     6
  9
$SURFTYPE
 70
     6
  9
$SURFU
 70
     6
  9
$SURFV
 70
     6
  9
$UCSNAME
  2

  9
$UCSORG
 10
0.0
 20
0.0
 30
0.0
  9
$UCSXDIR
 10
1.0
 20
0.0
 30
0.0
  9
$UCSYDIR
 10
0.0
 20
1.0
 30
0.0
  9
$PUCSNAME
  2

  9
$PUCSORG
 10
0.0
 20
0.0
 30
0.0
  9
$PUCSXDIR
 10
1.0
 20
0.0
 30
0.0
  9
$PUCSYDIR
 10
0.0
 20
1.0
 30
0.0
  9
$USERI1
 70
     0
  9
$USERI2
 70
     0
  9
$USERI3
 70
     0
  9
$USERI4
 70
     0
  9
$USERI5
 70
     0
  9
$USERR1
 40
12.01
  9
$USERR2
 40
0.0
  9
$USERR3
 40
0.0
  9
$USERR4
 40
0.0
  9
$USERR5
 40
0.0
  9
$WORLDVIEW
 70
     1
  9
$SHADEDGE
 70
     3
  9
$SHADEDIF
 70
    70
  9
$TILEMODE
 70
     1
  9
$MAXACTVP
 70
    16
  9
$PINSBASE
 10
0.0
 20
0.0
 30
0.0
  9
$PLIMCHECK
 70
     0
  9
$PEXTMIN
 10
1.000000000000000E+20
 20
1.000000000000000E+20
 30
1.000000000000000E+20
  9
$PEXTMAX
 10
-1.000000000000000E+20
 20
-1.000000000000000E+20
 30
-1.000000000000000E+20
  9
$PLIMMIN
 10
0.0
 20
0.0
  9
$PLIMMAX
 10
12.0
 20
9.0
  9
$UNITMODE
 70
     0
  9
$VISRETAIN
 70
     0
  9
$PLINEGEN
 70
     1
  9
$PSLTSCALE
 70
     0
  9
$TREEDEPTH
 70
  3020
  9
$PICKSTYLE
 70
     1
  9
$CMLSTYLE
  2
STANDARD
  9
$CMLJUST
 70
     0
  9
$CMLSCALE
 40
1.0
  9
$PROXYGRAPHICS
 70
     0
  9
$MEASUREMENT
 70
     1
  0
ENDSEC
  0
SECTION
  2
CLASSES
  0
CLASS
  1
LWPOLYLINE
  2
AcDbPolyline
  3
AutoCAD 2000
 90
        0
280
     0
281
     1
  0
CLASS
  1
IMAGE
  2
AcDbRasterImage
  3
ISM
 90
      127
280
     0
281
     1
  0
CLASS
  1
OLE2FRAME
  2
AcDbOle2Frame
  3
AutoCAD 2000
 90
        0
280
     0
281
     1
  0
CLASS
  1
HATCH
  2
AcDbHatch
  3
AutoCAD 2000
 90
        0
280
     0
281
     1
  0
CLASS
  1
DICTIONARYVAR
  2
AcDbDictionaryVar
  3
AutoCAD 2000
 90
        0
280
     0
281
     0
  0
CLASS
  1
RASTERVARIABLES
  2
AcDbRasterVariables
  3
ISM
 90
        0
280
     0
281
     0
  0
CLASS
  1
IMAGEDEF
  2
AcDbRasterImageDef
  3
ISM
 90
        0
280
     0
281
     0
  0
CLASS
  1
IMAGEDEF_REACTOR
  2
AcDbRasterImageDefReactor
  3
ISM
 90
        1
280
     0
281
     0
  0
CLASS
  1
IDBUFFER
  2
AcDbIdBuffer
  3
AutoCAD 2000
 90
        0
280
     0
281
     0
  0
CLASS
  1
SPATIAL_FILTER
  2
AcDbSpatialFilter
  3
AutoCAD 2000
 90
        0
280
     0
281
     0
  0
CLASS
  1
XRECORD
  2
AcDbXrecord
  3
AutoCAD 2000
 90
        0
280
     0
281
     0
  0
CLASS
  1
SORTENTSTABLE
  2
AcDbSortentsTable
  3
AutoCAD 2000
 90
        0
280
     0
281
     0
  0
CLASS
  1
LAYER_INDEX
  2
AcDbLayerIndex
  3
AutoCAD 2000
 90
        0
280
     0
281
     0
  0
CLASS
  1
SPATIAL_INDEX
  2
AcDbSpatialIndex
  3
AutoCAD 2000
 90
        0
280
     0
281
     0
  0
CLASS
  1
OBJECT_PTR
  2
CAseDLPNTableRecord
  3
ASE-LPNTableRecord
 90
        1
280
     0
281
     0
  0
CLASS
  1
LAYOUT
  2
AcDbLayout
  3
AutoCAD 2000
 90
        0
280
     0
281
     0
  0
CLASS
  1
PLOTSETTINGS
  2
AcDbPlotSettings
  3
AutoCAD 2000
 90
        0
280
     0
281
     0
  0
CLASS
  1
ACDBDICTIONARYWDFLT
  2
AcDbDictionaryWithDefault
  3
AutoCAD 2000
 90
        0
280
     0
281
     0
  0
CLASS
  1
ACDBPLACEHOLDER
  2
AcDbPlaceHolder
  3
AutoCAD 2000
 90
        0
280
     0
281
     0
  0
CLASS
  1
LONG_TRANSACTION
  2
AcDbLongTransaction
  3
AutoCAD 2000
 90
        0
280
     0
281
     0
  0
CLASS
  1
LWPOLYLINE
  2
AcDbPolyline
  3
AutoCAD 2000
 90
        0
280
     0
281
     1
  0
CLASS
  1
HATCH
  2
AcDbHatch
  3
AutoCAD 2000
 90
        0
280
     0
281
     1
  0
CLASS
  1
XRECORD
  2
AcDbXrecord
  3
AutoCAD 2000
 90
        0
280
     0
281
     0
  0
ENDSEC
  0
SECTION
  2
TABLES
  0
TABLE
  2
VPORT
  5
7
330
0
100
AcDbSymbolTable
 70
     3
  0
VPORT
  5
3DE0
330
7
100
AcDbSymbolTableRecord
100
AcDbViewportTableRecord
  2
*ACTIVE
 70
     0
 10
0.0
 20
0.0
 11
1.0
 21
1.0
 12
95.00000048894438
 22
138.500000691507
 13
0.0
 23
0.0
 14
1.0
 24
1.0
 15
0.0
 25
0.0
 16
0.0
 26
0.0
 36
1.0
 17
0.0
 27
0.0
 37
0.0
 40
299.3205935456245
 41
1.683053040103492
 42
50.0
 43
0.0
 44
0.0
 50
0.0
 51
0.0
 71
     0
 72
   100
 73
     1
 74
     1
 75
     0
 76
     0
 77
     0
 78
     0
  0
ENDTAB
  0
TABLE
  2
LTYPE
  5
4
330
0
100
AcDbSymbolTable
 70
     4
  0
LTYPE
  5
11
330
4
100
AcDbSymbolTableRecord
100
AcDbLinetypeTableRecord
  2
BYBLOCK
 70
     0
  3

 72
    65
 73
     0
 40
0.0
  0
LTYPE
  5
12
330
4
100
AcDbSymbolTableRecord
100
AcDbLinetypeTableRecord
  2
BYLAYER
 70
     0
  3

 72
    65
 73
     0
 40
0.0
  0
LTYPE
  5
13
330
4
100
AcDbSymbolTableRecord
100
AcDbLinetypeTableRecord
  2
CONTINUOUS
 70
     0
  3
Solid line
 72
    65
 73
     0
 40
0.0
  0
LTYPE
  5
1D
330
4
100
AcDbSymbolTableRecord
100
AcDbLinetypeTableRecord
  2
DASHED
 70
     0
  3
Dashed
 72
    65
 73
     2
 40
15.0
 49
7.0
 74
     0
 49
-8.0
 74
     0
  0
LTYPE
  5
3407
330
4
100
AcDbSymbolTableRecord
100
AcDbLinetypeTableRecord
  2
CENTER
 70
     0
  3
Center ____ _ ____ _ ____ _ ____ _ ____ _ ____
 72
    65
 73
     4
 40
50.8
 49
31.75
 74
     0
 49
-6.349999999999999
 74
     0
 49
6.349999999999999
 74
     0
 49
-6.349999999999999
 74
     0
  0
LTYPE
  5
36A4
330
4
100
AcDbSymbolTableRecord
100
AcDbLinetypeTableRecord
  2
PHANTOM
 70
     0
  3
Phantom ______  __  __  ______  __  __  ______
 72
    65
 73
     6
 40
63.5
 49
31.75
 74
     0
 49
-6.349999999999999
 74
     0
 49
6.349999999999999
 74
     0
 49
-6.349999999999999
 74
     0
 49
6.349999999999999
 74
     0
 49
-6.349999999999999
 74
     0
  0
ENDTAB
  0
TABLE
  2
LAYER
  5
2
330
0
100
AcDbSymbolTable
 70
     9
  0
LAYER
  5
14
330
2
100
AcDbSymbolTableRecord
100
AcDbLayerTableRecord
  2
0
 70
     0
 62
     7
  6
CONTINUOUS
  0
LAYER
  5
32EF
330
2
100
AcDbSymbolTableRecord
100
AcDbLayerTableRecord
  2
DEFPOINTS
 70
     0
 62
     7
  6
CONTINUOUS
  0
LAYER
  5
340D
330
2
100
AcDbSymbolTableRecord
100
AcDbLayerTableRecord
  2
DIMENSIONS
 70
     0
 62
     2
  6
CONTINUOUS
  0
LAYER
  5
3412
330
2
100
AcDbSymbolTableRecord
100
AcDbLayerTableRecord
  2
SHAPE_OUTLINE_BOLD_LINE_
 70
     0
 62
     7
  6
CONTINUOUS
  0
LAYER
  5
3417
330
2
100
AcDbSymbolTableRecord
100
AcDbLayerTableRecord
  2
OTHER_1
 70
     0
 62
     4
  6
CONTINUOUS
  0
LAYER
  5
341C
330
2
100
AcDbSymbolTableRecord
100
AcDbLayerTableRecord
  2
SHAPE_OUTLINE_THIN_LINE_
 70
     0
 62
     2
  6
CONTINUOUS
  0
LAYER
  5
3574
330
2
100
AcDbSymbolTableRecord
100
AcDbLayerTableRecord
  2
FILE_NAME
 70
     0
 62
     1
  6
CONTINUOUS
  0
LAYER
  5
3625
330
2
100
AcDbSymbolTableRecord
100
AcDbLayerTableRecord
  2
OTHER_2
 70
     0
 62
     4
  6
CONTINUOUS
  0
LAYER
  5
36A1
330
2
100
AcDbSymbolTableRecord
100
AcDbLayerTableRecord
  2
CENTER
 70
     0
 62
     2
  6
CENTER
  0
ENDTAB
  0
TABLE
  2
STYLE
  5
3
330
0
100
AcDbSymbolTable
 70
     1
  0
STYLE
  5
17
330
3
100
AcDbSymbolTableRecord
100
AcDbTextStyleTableRecord
  2
STANDARD
 70
     0
 40
0.0
 41
1.0
 50
0.0
 71
     0
 42
0.0
  3
MS Gothic.ttf
  4

1001
ACAD
1000
MS Gothic
1071
    32817
  0
ENDTAB
  0
TABLE
  2
VIEW
  5
5
330
0
100
AcDbSymbolTable
 70
     0
  0
ENDTAB
  0
TABLE
  2
UCS
  5
6
330
0
100
AcDbSymbolTable
 70
     0
  0
ENDTAB
  0
TABLE
  2
APPID
  5
8
330
0
100
AcDbSymbolTable
 70
     3
  0
APPID
  5
16
330
8
100
AcDbSymbolTableRecord
100
AcDbRegAppTableRecord
  2
ACAD
 70
     0
  0
APPID
  5
3475
330
8
100
AcDbSymbolTableRecord
100
AcDbRegAppTableRecord
  2
DCO15
 70
     0
  0
APPID
  5
3621
330
8
100
AcDbSymbolTableRecord
100
AcDbRegAppTableRecord
  2
ADE
 70
     0
  0
ENDTAB
  0
TABLE
  2
DIMSTYLE
  5
9
330
0
100
AcDbSymbolTable
 70
     1
  0
DIMSTYLE
105
18
102
{ACAD_REACTORS
330
3C2A
330
3C42
330
3C4F
330
3C67
330
3C89
330
3C9F
330
3CAC
330
3CC4
330
3CDC
102
}
330
9
100
AcDbSymbolTableRecord
100
AcDbDimStyleTableRecord
  2
STANDARD
 70
     0
  3

  4

  5
OPEN30
  6

  7

 40
1.0
 41
2.0
 42
2.0
 43
0.5
 44
1.0
 45
0.0
 46
0.0
 47
0.0
 48
0.0
140
3.0
141
0.0
142
0.0
143
25.4
144
1.0
145
0.0
146
1.0
147
1.0
 71
     0
 72
     0
 73
     0
 74
     1
 75
     0
 76
     0
 77
     1
 78
     8
170
     0
171
     2
172
     0
173
     0
174
     1
175
     0
176
   256
177
   256
178
     3
270
     2
271
     1
272
     1
273
     2
274
     2
340
17
275
     0
280
     0
281
     0
282
     0
283
     1
284
     0
285
     0
286
     0
287
     5
288
     0
  0
ENDTAB
  0
TABLE
  2
BLOCK_RECORD
  5
1
330
0
100
AcDbSymbolTable
 70
    11
  0
BLOCK_RECORD
  5
A
102
{ACAD_XDICTIONARY
360
36A5
102
}
330
1
100
AcDbSymbolTableRecord
100
AcDbBlockTableRecord
  2
*MODEL_SPACE
  0
BLOCK_RECORD
  5
B
102
{ACAD_XDICTIONARY
360
3E03
102
}
330
1
100
AcDbSymbolTableRecord
100
AcDbBlockTableRecord
  2
*PAPER_SPACE
  0
BLOCK_RECORD
  5
143A
330
1
100
AcDbSymbolTableRecord
100
AcDbBlockTableRecord
  2
_OPEN30
  0
BLOCK_RECORD
  5
3C2B
330
1
100
AcDbSymbolTableRecord
100
AcDbBlockTableRecord
  2
*D2
  0
BLOCK_RECORD
  5
3C43
330
1
100
AcDbSymbolTableRecord
100
AcDbBlockTableRecord
  2
*D3
  0
BLOCK_RECORD
  5
3C50
330
1
100
AcDbSymbolTableRecord
100
AcDbBlockTableRecord
  2
*D4
  0
BLOCK_RECORD
  5
3C68
330
1
100
AcDbSymbolTableRecord
100
AcDbBlockTableRecord
  2
*D5
  0
BLOCK_RECORD
  5
3C8A
330
1
100
AcDbSymbolTableRecord
100
AcDbBlockTableRecord
  2
*D6
  0
BLOCK_RECORD
  5
3CA0
330
1
100
AcDbSymbolTableRecord
100
AcDbBlockTableRecord
  2
*D7
  0
BLOCK_RECORD
  5
3CAD
330
1
100
AcDbSymbolTableRecord
100
AcDbBlockTableRecord
  2
*D8
  0
BLOCK_RECORD
  5
3CC5
330
1
100
AcDbSymbolTableRecord
100
AcDbBlockTableRecord
  2
*D9
  0
BLOCK_RECORD
  5
3CDD
330
1
100
AcDbSymbolTableRecord
100
AcDbBlockTableRecord
  2
*D10
  0
ENDTAB
  0
ENDSEC
  0
SECTION
  2
BLOCKS
  0
BLOCK
  5
D
330
A
100
AcDbEntity
  8
0
100
AcDbBlockBegin
  2
*MODEL_SPACE
 70
     0
 10
0.0
 20
0.0
 30
0.0
  3
*MODEL_SPACE
  1

  0
ENDBLK
  5
E
330
A
100
AcDbEntity
  8
0
100
AcDbBlockEnd
  0
BLOCK
  5
F
330
B
100
AcDbEntity
 67
     1
  8
0
100
AcDbBlockBegin
  2
*PAPER_SPACE
 70
     0
 10
0.0
 20
0.0
 30
0.0
  3
*PAPER_SPACE
  1

  0
ENDBLK
  5
10
330
B
100
AcDbEntity
 67
     1
  8
0
100
AcDbBlockEnd
  0
BLOCK
  5
143B
330
143A
100
AcDbEntity
  8
0
 62
     0
100
AcDbBlockBegin
  2
_OPEN30
 70
     0
 10
0.0
 20
0.0
 30
0.0
  3
_OPEN30
  1

  0
LINE
  5
143C
330
143A
100
AcDbEntity
  8
0
  6
BYBLOCK
 62
     0
100
AcDbLine
 10
-1.0
 20
0.267949
 30
0.0
 11
0.0
 21
0.0
 31
0.0
  0
LINE
  5
143D
330
143A
100
AcDbEntity
  8
0
  6
BYBLOCK
 62
     0
100
AcDbLine
 10
0.0
 20
0.0
 30
0.0
 11
-1.0
 21
-0.267949
 31
0.0
  0
LINE
  5
143E
330
143A
100
AcDbEntity
  8
0
  6
BYBLOCK
 62
     0
100
AcDbLine
 10
0.0
 20
0.0
 30
0.0
 11
-1.0
 21
0.0
 31
0.0
  0
ENDBLK
  5
143F
330
143A
100
AcDbEntity
  8
0
 62
     0
100
AcDbBlockEnd
  0
BLOCK
  5
3C36
330
3C2B
100
AcDbEntity
  8
0
100
AcDbBlockBegin
  2
*D2
 70
     1
 10
0.0
 20
0.0
 30
0.0
  3
*D2
  1

  0
LINE
  5
3D8B
330
3C2B
100
AcDbEntity
  8
DIMENSIONS
100
AcDbLine
 10
48.93634822258355
 20
188.7155006884523
 30
0.0
 11
48.93634822258355
 21
159.7155006884523
 31
0.0
  0
LINE
  5
3D8C
330
3C2B
100
AcDbEntity
  8
DIMENSIONS
100
AcDbLine
 10
53.2363482225835
 20
189.2155006884523
 30
0.0
 11
53.2363482225835
 21
159.7155006884523
 31
0.0
  0
LINE
  5
3D8D
330
3C2B
100
AcDbEntity
  8
DIMENSIONS
100
AcDbLine
 10
46.93634822258355
 20
160.7155006884523
 30
0.0
 11
44.93634822258354
 21
160.7155006884523
 31
0.0
  0
LINE
  5
3D8E
330
3C2B
100
AcDbEntity
  8
DIMENSIONS
100
AcDbLine
 10
55.2363482225835
 20
160.7155006884523
 30
0.0
 11
57.2363482225835
 21
160.7155006884523
 31
0.0
  0
MTEXT
  5
3D8F
330
3C2B
100
AcDbEntity
  8
DIMENSIONS
 62
     3
100
AcDbMText
 10
57.74022930611272
 20
163.2155006884523
 30
0.0
 40
3.0
 41
0.0
 71
     5
 72
     1
  1
\A1;4.3
1001
ACAD
1000
MTEXTBEGIN
1070
    73
1070
     1
1070
    44
1040
1.0
1070
    74
1070
     0
1000
MTEXTEND
  0
INSERT
  5
3D90
330
3C2B
100
AcDbEntity
  8
DIMENSIONS
100
AcDbBlockReference
  2
_OPEN30
 10
48.93634822258355
 20
160.7155006884523
 30
0.0
 41
2.0
 42
2.0
 43
2.0
  0
INSERT
  5
3D91
330
3C2B
100
AcDbEntity
  8
DIMENSIONS
100
AcDbBlockReference
  2
_OPEN30
 10
53.2363482225835
 20
160.7155006884523
 30
0.0
 41
2.0
 42
2.0
 43
2.0
 50
180.0
  0
POINT
  5
3D92
330
3C2B
100
AcDbEntity
  8
DEFPOINTS
 62
     0
100
AcDbPoint
 10
48.93634822258355
 20
190.7155006884523
 30
0.0
  0
POINT
  5
3D93
330
3C2B
100
AcDbEntity
  8
DEFPOINTS
 62
     0
100
AcDbPoint
 10
53.2363482225835
 20
191.2155006884523
 30
0.0
  0
POINT
  5
3D94
330
3C2B
100
AcDbEntity
  8
DEFPOINTS
 62
     0
100
AcDbPoint
 10
53.2363482225835
 20
160.7155006884523
 30
0.0
  0
ENDBLK
  5
3C37
330
3C2B
100
AcDbEntity
  8
0
100
AcDbBlockEnd
  0
BLOCK
  5
3C4D
330
3C43
100
AcDbEntity
  8
0
100
AcDbBlockBegin
  2
*D3
 70
     1
 10
0.0
 20
0.0
 30
0.0
  3
*D3
  1

  0
LINE
  5
3D82
330
3C43
100
AcDbEntity
  8
DIMENSIONS
100
AcDbLine
 10
81.33394268578593
 20
198.7155006884523
 30
0.0
 11
81.33394268578593
 21
159.7155006884523
 31
0.0
  0
LINE
  5
3D83
330
3C43
100
AcDbEntity
  8
DIMENSIONS
100
AcDbLine
 10
101.3339426857859
 20
198.7155006884523
 30
0.0
 11
101.3339426857859
 21
159.7155006884523
 31
0.0
  0
LINE
  5
3D84
330
3C43
100
AcDbEntity
  8
DIMENSIONS
100
AcDbLine
 10
83.33394268578592
 20
160.7155006884523
 30
0.0
 11
99.33394268578593
 21
160.7155006884523
 31
0.0
  0
INSERT
  5
3D85
330
3C43
100
AcDbEntity
  8
DIMENSIONS
100
AcDbBlockReference
  2
_OPEN30
 10
81.33394268578593
 20
160.7155006884523
 30
0.0
 41
2.0
 42
2.0
 43
2.0
 50
180.0
  0
INSERT
  5
3D86
330
3C43
100
AcDbEntity
  8
DIMENSIONS
100
AcDbBlockReference
  2
_OPEN30
 10
101.3339426857859
 20
160.7155006884523
 30
0.0
 41
2.0
 42
2.0
 43
2.0
  0
MTEXT
  5
3D87
330
3C43
100
AcDbEntity
  8
DIMENSIONS
 62
     3
100
AcDbMText
 10
91.33394268578593
 20
163.2155006884523
 30
0.0
 40
3.0
 41
0.0
 71
     5
 72
     1
  1
\A1;20
1001
ACAD
1000
MTEXTBEGIN
1070
    73
1070
     1
1070
    44
1040
1.0
1070
    74
1070
     0
1000
MTEXTEND
  0
POINT
  5
3D88
330
3C43
100
AcDbEntity
  8
DEFPOINTS
 62
     0
100
AcDbPoint
 10
81.33394268578593
 20
200.7155006884523
 30
0.0
  0
POINT
  5
3D89
330
3C43
100
AcDbEntity
  8
DEFPOINTS
 62
     0
100
AcDbPoint
 10
101.3339426857859
 20
200.7155006884523
 30
0.0
  0
POINT
  5
3D8A
330
3C43
100
AcDbEntity
  8
DEFPOINTS
 62
     0
100
AcDbPoint
 10
101.3339426857859
 20
160.7155006884523
 30
0.0
  0
ENDBLK
  5
3C4E
330
3C43
100
AcDbEntity
  8
0
100
AcDbBlockEnd
  0
BLOCK
  5
3C5B
330
3C50
100
AcDbEntity
  8
0
100
AcDbBlockBegin
  2
*D4
 70
     1
 10
0.0
 20
0.0
 30
0.0
  3
*D4
  1

  0
LINE
  5
3D78
330
3C50
100
AcDbEntity
  8
DIMENSIONS
100
AcDbLine
 10
100.8339426857859
 20
198.7155006884523
 30
0.0
 11
100.8339426857859
 21
166.7155006884523
 31
0.0
  0
LINE
  5
3D79
330
3C50
100
AcDbEntity
  8
DIMENSIONS
100
AcDbLine
 10
101.3339426857859
 20
198.7155006884523
 30
0.0
 11
101.3339426857859
 21
166.7155006884523
 31
0.0
  0
LINE
  5
3D7A
330
3C50
100
AcDbEntity
  8
DIMENSIONS
100
AcDbLine
 10
98.83394268578593
 20
167.7155006884523
 30
0.0
 11
96.83394268578593
 21
167.7155006884523
 31
0.0
  0
LINE
  5
3D7B
330
3C50
100
AcDbEntity
  8
DIMENSIONS
100
AcDbLine
 10
103.3339426857859
 20
167.7155006884523
 30
0.0
 11
105.3339426857859
 21
167.7155006884523
 31
0.0
  0
MTEXT
  5
3D7C
330
3C50
100
AcDbEntity
  8
DIMENSIONS
 62
     3
100
AcDbMText
 10
104.8536367324345
 20
170.2155006884523
 30
0.0
 40
3.0
 41
0.0
 71
     5
 72
     1
  1
\A1;0.5
1001
ACAD
1000
MTEXTBEGIN
1070
    73
1070
     1
1070
    44
1040
1.0
1070
    74
1070
     0
1000
MTEXTEND
  0
INSERT
  5
3D7D
330
3C50
100
AcDbEntity
  8
DIMENSIONS
100
AcDbBlockReference
  2
_OPEN30
 10
100.8339426857859
 20
167.7155006884523
 30
0.0
 41
2.0
 42
2.0
 43
2.0
  0
INSERT
  5
3D7E
330
3C50
100
AcDbEntity
  8
DIMENSIONS
100
AcDbBlockReference
  2
_OPEN30
 10
101.3339426857859
 20
167.7155006884523
 30
0.0
 41
2.0
 42
2.0
 43
2.0
 50
180.0
  0
POINT
  5
3D7F
330
3C50
100
AcDbEntity
  8
DEFPOINTS
 62
     0
100
AcDbPoint
 10
100.8339426857859
 20
200.7155006884523
 30
0.0
  0
POINT
  5
3D80
330
3C50
100
AcDbEntity
  8
DEFPOINTS
 62
     0
100
AcDbPoint
 10
101.3339426857859
 20
200.7155006884523
 30
0.0
  0
POINT
  5
3D81
330
3C50
100
AcDbEntity
  8
DEFPOINTS
 62
     0
100
AcDbPoint
 10
101.3339426857859
 20
167.7155006884523
 30
0.0
  0
ENDBLK
  5
3C5C
330
3C50
100
AcDbEntity
  8
0
100
AcDbBlockEnd
  0
BLOCK
  5
3C73
330
3C68
100
AcDbEntity
  8
0
100
AcDbBlockBegin
  2
*D5
 70
     1
 10
0.0
 20
0.0
 30
0.0
  3
*D5
  1

  0
LINE
  5
3D6E
330
3C68
100
AcDbEntity
  8
DIMENSIONS
100
AcDbLine
 10
50.19321124318196
 20
91.77254089748123
 30
0.0
 11
74.19320868722509
 21
91.77254089748123
 31
0.0
  0
LINE
  5
3D6F
330
3C68
100
AcDbEntity
  8
DIMENSIONS
100
AcDbLine
 10
50.19321124318196
 20
97.27254089748123
 30
0.0
 11
74.19320868722511
 21
97.27254089748123
 31
0.0
  0
LINE
  5
3D70
330
3C68
100
AcDbEntity
  8
DIMENSIONS
100
AcDbLine
 10
73.1932086872251
 20
89.77254089748123
 30
0.0
 11
73.1932086872251
 21
87.77254089748124
 31
0.0
  0
LINE
  5
3D71
330
3C68
100
AcDbEntity
  8
DIMENSIONS
100
AcDbLine
 10
73.19320868722511
 20
99.27254089748124
 30
0.0
 11
73.19320868722511
 21
101.2725408974812
 31
0.0
  0
MTEXT
  5
3D72
330
3C68
100
AcDbEntity
  8
DIMENSIONS
 62
     3
100
AcDbMText
 10
67.14679659517333
 20
89.11367020038937
 30
0.0
 40
3.0
 41
0.0
 71
     5
 72
     1
  1
\A1;φ5.5
1001
ACAD
1000
MTEXTBEGIN
1070
    73
1070
     1
1070
    44
1040
1.0
1070
    74
1070
     0
1000
MTEXTEND
  0
INSERT
  5
3D73
330
3C68
100
AcDbEntity
  8
DIMENSIONS
100
AcDbBlockReference
  2
_OPEN30
 10
73.1932086872251
 20
91.77254089748123
 30
0.0
 41
2.0
 42
2.0
 43
2.0
 50
90.0
  0
INSERT
  5
3D74
330
3C68
100
AcDbEntity
  8
DIMENSIONS
100
AcDbBlockReference
  2
_OPEN30
 10
73.19320868722511
 20
97.27254089748123
 30
0.0
 41
2.0
 42
2.0
 43
2.0
 50
270.0
  0
POINT
  5
3D75
330
3C68
100
AcDbEntity
  8
DEFPOINTS
 62
     0
100
AcDbPoint
 10
48.19321124318197
 20
91.77254089748123
 30
0.0
  0
POINT
  5
3D76
330
3C68
100
AcDbEntity
  8
DEFPOINTS
 62
     0
100
AcDbPoint
 10
48.19321124318197
 20
97.27254089748123
 30
0.0
  0
POINT
  5
3D77
330
3C68
100
AcDbEntity
  8
DEFPOINTS
 62
     0
100
AcDbPoint
 10
73.19320868722511
 20
97.27254089748123
 30
0.0
  0
ENDBLK
  5
3C74
330
3C68
100
AcDbEntity
  8
0
100
AcDbBlockEnd
  0
BLOCK
  5
3C94
330
3C8A
100
AcDbEntity
  8
0
100
AcDbBlockBegin
  2
*D6
 70
     1
 10
0.0
 20
0.0
 30
0.0
  3
*D6
  1

  0
LINE
  5
3D65
330
3C8A
100
AcDbEntity
  8
DIMENSIONS
100
AcDbLine
 10
33.19321128069904
 20
96.52147999578527
 30
0.0
 11
33.19321128069904
 21
137.7225408974812
 31
0.0
  0
LINE
  5
3D66
330
3C8A
100
AcDbEntity
  8
DIMENSIONS
100
AcDbLine
 10
63.19321124318197
 20
96.52254089748124
 30
0.0
 11
63.19321124318197
 21
137.7225408974812
 31
0.0
  0
LINE
  5
3D67
330
3C8A
100
AcDbEntity
  8
DIMENSIONS
100
AcDbLine
 10
35.19321128069904
 20
136.7225408974812
 30
0.0
 11
61.19321124318196
 21
136.7225408974812
 31
0.0
  0
INSERT
  5
3D68
330
3C8A
100
AcDbEntity
  8
DIMENSIONS
100
AcDbBlockReference
  2
_OPEN30
 10
33.19321128069904
 20
136.7225408974812
 30
0.0
 41
2.0
 42
2.0
 43
2.0
 50
180.0
  0
INSERT
  5
3D69
330
3C8A
100
AcDbEntity
  8
DIMENSIONS
100
AcDbBlockReference
  2
_OPEN30
 10
63.19321124318197
 20
136.7225408974812
 30
0.0
 41
2.0
 42
2.0
 43
2.0
  0
MTEXT
  5
3D6A
330
3C8A
100
AcDbEntity
  8
DIMENSIONS
 62
     3
100
AcDbMText
 10
48.19321126194051
 20
139.4661957198163
 30
0.0
 40
3.0
 41
0.0
 71
     5
 72
     1
  1
\A1;φ30
1001
ACAD
1000
MTEXTBEGIN
1070
    73
1070
     1
1070
    44
1040
1.0
1070
    74
1070
     0
1000
MTEXTEND
  0
POINT
  5
3D6B
330
3C8A
100
AcDbEntity
  8
DEFPOINTS
 62
     0
100
AcDbPoint
 10
33.19321128069904
 20
94.52147999578526
 30
0.0
  0
POINT
  5
3D6C
330
3C8A
100
AcDbEntity
  8
DEFPOINTS
 62
     0
100
AcDbPoint
 10
63.19321124318197
 20
94.52254089748123
 30
0.0
  0
POINT
  5
3D6D
330
3C8A
100
AcDbEntity
  8
DEFPOINTS
 62
     0
100
AcDbPoint
 10
63.19321124318197
 20
136.7225408974812
 30
0.0
  0
ENDBLK
  5
3C95
330
3C8A
100
AcDbEntity
  8
0
100
AcDbBlockEnd
  0
BLOCK
  5
3CAA
330
3CA0
100
AcDbEntity
  8
0
100
AcDbBlockBegin
  2
*D7
 70
     1
 10
0.0
 20
0.0
 30
0.0
  3
*D7
  1

  0
LINE
  5
3D5C
330
3CA0
100
AcDbEntity
  8
DIMENSIONS
100
AcDbLine
 10
163.8773161797619
 20
127.5225408974812
 30
0.0
 11
163.8773161797619
 21
137.7225408974812
 31
0.0
  0
LINE
  5
3D5D
330
3CA0
100
AcDbEntity
  8
DIMENSIONS
100
AcDbLine
 10
94.87731617976193
 20
111.5225408974812
 30
0.0
 11
94.87731617976193
 21
137.7225408974812
 31
0.0
  0
LINE
  5
3D5E
330
3CA0
100
AcDbEntity
  8
DIMENSIONS
100
AcDbLine
 10
161.8773161797619
 20
136.7225408974812
 30
0.0
 11
96.87731617976192
 21
136.7225408974812
 31
0.0
  0
INSERT
  5
3D5F
330
3CA0
100
AcDbEntity
  8
DIMENSIONS
100
AcDbBlockReference
  2
_OPEN30
 10
163.8773161797619
 20
136.7225408974812
 30
0.0
 41
2.0
 42
2.0
 43
2.0
  0
INSERT
  5
3D60
330
3CA0
100
AcDbEntity
  8
DIMENSIONS
100
AcDbBlockReference
  2
_OPEN30
 10
94.87731617976193
 20
136.7225408974812
 30
0.0
 41
2.0
 42
2.0
 43
2.0
 50
180.0
  0
MTEXT
  5
3D61
330
3CA0
100
AcDbEntity
  8
DIMENSIONS
 62
     3
100
AcDbMText
 10
129.3773161797619
 20
139.2225408974812
 30
0.0
 40
3.0
 41
0.0
 71
     5
 72
     1
  1
\A1;69
1001
ACAD
1000
MTEXTBEGIN
1070
    73
1070
     1
1070
    44
1040
1.0
1070
    74
1070
     0
1000
MTEXTEND
  0
POINT
  5
3D62
330
3CA0
100
AcDbEntity
  8
DEFPOINTS
 62
     0
100
AcDbPoint
 10
163.8773161797619
 20
125.5225408974812
 30
0.0
  0
POINT
  5
3D63
330
3CA0
100
AcDbEntity
  8
DEFPOINTS
 62
     0
100
AcDbPoint
 10
94.87731617976193
 20
109.5225408974812
 30
0.0
  0
POINT
  5
3D64
330
3CA0
100
AcDbEntity
  8
DEFPOINTS
 62
     0
100
AcDbPoint
 10
94.87731617976193
 20
136.7225408974812
 30
0.0
  0
ENDBLK
  5
3CAB
330
3CA0
100
AcDbEntity
  8
0
100
AcDbBlockEnd
  0
BLOCK
  5
3CB8
330
3CAD
100
AcDbEntity
  8
0
100
AcDbBlockBegin
  2
*D8
 70
     1
 10
0.0
 20
0.0
 30
0.0
  3
*D8
  1

  0
LINE
  5
3D52
330
3CAD
100
AcDbEntity
  8
DIMENSIONS
100
AcDbLine
 10
94.87731617976193
 20
111.5225408974812
 30
0.0
 11
94.87731617976193
 21
130.7225408974812
 31
0.0
  0
LINE
  5
3D53
330
3CAD
100
AcDbEntity
  8
DIMENSIONS
100
AcDbLine
 10
96.87731617976192
 20
111.5225408974812
 30
0.0
 11
96.87731617976192
 21
130.7225408974812
 31
0.0
  0
LINE
  5
3D54
330
3CAD
100
AcDbEntity
  8
DIMENSIONS
100
AcDbLine
 10
92.87731617976191
 20
129.7225408974812
 30
0.0
 11
90.87731617976192
 21
129.7225408974812
 31
0.0
  0
LINE
  5
3D55
330
3CAD
100
AcDbEntity
  8
DIMENSIONS
100
AcDbLine
 10
98.87731617976193
 20
129.7225408974812
 30
0.0
 11
100.8773161797619
 21
129.7225408974812
 31
0.0
  0
MTEXT
  5
3D56
330
3CAD
100
AcDbEntity
  8
DIMENSIONS
 62
     3
100
AcDbMText
 10
91.5158310257566
 20
132.0059161536098
 30
0.0
 40
3.0
 41
0.0
 71
     5
 72
     1
  1
\A1;2
1001
ACAD
1000
MTEXTBEGIN
1070
    73
1070
     1
1070
    44
1040
1.0
1070
    74
1070
     0
1000
MTEXTEND
  0
INSERT
  5
3D57
330
3CAD
100
AcDbEntity
  8
DIMENSIONS
100
AcDbBlockReference
  2
_OPEN30
 10
94.87731617976193
 20
129.7225408974812
 30
0.0
 41
2.0
 42
2.0
 43
2.0
  0
INSERT
  5
3D58
330
3CAD
100
AcDbEntity
  8
DIMENSIONS
100
AcDbBlockReference
  2
_OPEN30
 10
96.87731617976192
 20
129.7225408974812
 30
0.0
 41
2.0
 42
2.0
 43
2.0
 50
180.0
  0
POINT
  5
3D59
330
3CAD
100
AcDbEntity
  8
DEFPOINTS
 62
     0
100
AcDbPoint
 10
94.87731617976193
 20
109.5225408974812
 30
0.0
  0
POINT
  5
3D5A
330
3CAD
100
AcDbEntity
  8
DEFPOINTS
 62
     0
100
AcDbPoint
 10
96.87731617976192
 20
109.5225408974812
 30
0.0
  0
POINT
  5
3D5B
330
3CAD
100
AcDbEntity
  8
DEFPOINTS
 62
     0
100
AcDbPoint
 10
96.87731617976192
 20
129.7225408974812
 30
0.0
  0
ENDBLK
  5
3CB9
330
3CAD
100
AcDbEntity
  8
0
100
AcDbBlockEnd
  0
BLOCK
  5
3CD0
330
3CC5
100
AcDbEntity
  8
0
100
AcDbBlockBegin
  2
*D9
 70
     1
 10
0.0
 20
0.0
 30
0.0
  3
*D9
  1

  0
LINE
  5
3D48
330
3CC5
100
AcDbEntity
  8
DIMENSIONS
100
AcDbLine
 10
163.3773161797619
 20
126.7225408974812
 30
0.0
 11
174.8773161797619
 21
126.7225408974812
 31
0.0
  0
LINE
  5
3D49
330
3CC5
100
AcDbEntity
  8
DIMENSIONS
100
AcDbLine
 10
165.8773161797619
 20
125.5225408974812
 30
0.0
 11
174.8773161797619
 21
125.5225408974812
 31
0.0
  0
LINE
  5
3D4A
330
3CC5
100
AcDbEntity
  8
DIMENSIONS
100
AcDbLine
 10
173.8773161797619
 20
128.7225408974813
 30
0.0
 11
173.8773161797619
 21
130.7225408974813
 31
0.0
  0
LINE
  5
3D4B
330
3CC5
100
AcDbEntity
  8
DIMENSIONS
100
AcDbLine
 10
173.8773161797619
 20
123.5225408974812
 30
0.0
 11
173.8773161797619
 21
121.5225408974812
 31
0.0
  0
MTEXT
  5
3D4C
330
3CC5
100
AcDbEntity
  8
DIMENSIONS
 62
     3
100
AcDbMText
 10
169.6863268189772
 20
129.5718626356995
 30
0.0
 40
3.0
 41
0.0
 71
     5
 72
     1
  1
\A1;1.2
1001
ACAD
1000
MTEXTBEGIN
1070
    73
1070
     1
1070
    44
1040
1.0
1070
    74
1070
     0
1000
MTEXTEND
  0
INSERT
  5
3D4D
330
3CC5
100
AcDbEntity
  8
DIMENSIONS
100
AcDbBlockReference
  2
_OPEN30
 10
173.8773161797619
 20
126.7225408974812
 30
0.0
 41
2.0
 42
2.0
 43
2.0
 50
270.0
  0
INSERT
  5
3D4E
330
3CC5
100
AcDbEntity
  8
DIMENSIONS
100
AcDbBlockReference
  2
_OPEN30
 10
173.8773161797619
 20
125.5225408974812
 30
0.0
 41
2.0
 42
2.0
 43
2.0
 50
90.0
  0
POINT
  5
3D4F
330
3CC5
100
AcDbEntity
  8
DEFPOINTS
 62
     0
100
AcDbPoint
 10
161.3773161797619
 20
126.7225408974812
 30
0.0
  0
POINT
  5
3D50
330
3CC5
100
AcDbEntity
  8
DEFPOINTS
 62
     0
100
AcDbPoint
 10
163.8773161797619
 20
125.5225408974812
 30
0.0
  0
POINT
  5
3D51
330
3CC5
100
AcDbEntity
  8
DEFPOINTS
 62
     0
100
AcDbPoint
 10
173.8773161797619
 20
125.5225408974812
 30
0.0
  0
ENDBLK
  5
3CD1
330
3CC5
100
AcDbEntity
  8
0
100
AcDbBlockEnd
  0
BLOCK
  5
3CE7
330
3CDD
100
AcDbEntity
  8
0
100
AcDbBlockBegin
  2
*D10
 70
     1
 10
0.0
 20
0.0
 30
0.0
  3
*D10
  1

  0
LINE
  5
3D3F
330
3CDD
100
AcDbEntity
  8
DIMENSIONS
100
AcDbLine
 10
165.8773161797619
 20
125.5225408974812
 30
0.0
 11
174.8773161797619
 21
125.5225408974812
 31
0.0
  0
LINE
  5
3D40
330
3CDD
100
AcDbEntity
  8
DIMENSIONS
100
AcDbLine
 10
139.8773161797619
 20
87.52254089748124
 30
0.0
 11
174.8773161797619
 21
87.52254089748122
 31
0.0
  0
LINE
  5
3D41
330
3CDD
100
AcDbEntity
  8
DIMENSIONS
100
AcDbLine
 10
173.8773161797619
 20
123.5225408974812
 30
0.0
 11
173.8773161797619
 21
89.52254089748121
 31
0.0
  0
INSERT
  5
3D42
330
3CDD
100
AcDbEntity
  8
DIMENSIONS
100
AcDbBlockReference
  2
_OPEN30
 10
173.8773161797619
 20
125.5225408974812
 30
0.0
 41
2.0
 42
2.0
 43
2.0
 50
90.0
  0
INSERT
  5
3D43
330
3CDD
100
AcDbEntity
  8
DIMENSIONS
100
AcDbBlockReference
  2
_OPEN30
 10
173.8773161797619
 20
87.52254089748122
 30
0.0
 41
2.0
 42
2.0
 43
2.0
 50
270.0
  0
MTEXT
  5
3D44
330
3CDD
100
AcDbEntity
  8
DIMENSIONS
 62
     3
100
AcDbMText
 10
171.3773161797618
 20
106.5225408974812
 30
0.0
 40
3.0
 41
0.0
 71
     5
 72
     1
  1
\A1;38
 11
0.0000000000000001
 21
1.0
 31
0.0
1001
ACAD
1000
MTEXTBEGIN
1070
    73
1070
     1
1070
    44
1040
1.0
1070
    74
1070
     0
1000
MTEXTEND
  0
POINT
  5
3D45
330
3CDD
100
AcDbEntity
  8
DEFPOINTS
 62
     0
100
AcDbPoint
 10
163.8773161797619
 20
125.5225408974812
 30
0.0
  0
POINT
  5
3D46
330
3CDD
100
AcDbEntity
  8
DEFPOINTS
 62
     0
100
AcDbPoint
 10
137.8773161797619
 20
87.52254089748124
 30
0.0
  0
POINT
  5
3D47
330
3CDD
100
AcDbEntity
  8
DEFPOINTS
 62
     0
100
AcDbPoint
 10
173.8773161797619
 20
87.52254089748122
 30
0.0
  0
ENDBLK
  5
3CE8
330
3CDD
100
AcDbEntity
  8
0
100
AcDbBlockEnd
  0
ENDSEC
  0
SECTION
  2
ENTITIES
  0
TEXT
  5
35F8
330
A
100
AcDbEntity
  8
FILE_NAME
  6
CONTINUOUS
100
AcDbText
 10
0.0
 20
10.0
 30
0.0
 40
5.0
  1
14-7044-02-008
 41
0.75
100
AcDbText
  0
TEXT
  5
3607
330
A
100
AcDbEntity
  8
FILE_NAME
  6
CONTINUOUS
100
AcDbText
 10
0.0
 20
0.0
 30
0.0
 40
5.0
  1
12-14704402-008_1
 41
0.75
100
AcDbText
  0
TEXT
  5
36B6
330
A
100
AcDbEntity
  8
FILE_NAME
  6
CONTINUOUS
100
AcDbText
 10
0.0
 20
20.0
 30
0.0
 40
5.0
  1
マグネット石鹸受け 14-7044-02-008
 41
0.75
100
AcDbText
  0
MTEXT
  5
3AD8
330
A
100
AcDbEntity
  8
OTHER_2
100
AcDbMText
 10
38.66049951551497
 20
200.6320197768544
 30
0.0
 40
3.0
 41
0.0
 71
     5
 72
     1
  1
石鹸
1001
ACAD
1000
MTEXTBEGIN
1070
    73
1070
     1
1070
    44
1040
1.0
1070
    74
1070
     0
1000
MTEXTEND
  0
ARC
  5
3AD9
330
A
100
AcDbEntity
  8
SHAPE_OUTLINE_BOLD_LINE_
100
AcDbCircle
 10
137.8773161797619
 20
113.5225408974812
 30
0.0
 40
12.0
100
AcDbArc
 50
270.0
 51
0.0
  0
ARC
  5
3ADA
330
A
100
AcDbEntity
  8
SHAPE_OUTLINE_BOLD_LINE_
100
AcDbCircle
 10
137.8773161797619
 20
113.5225408974812
 30
0.0
 40
26.0
100
AcDbArc
 50
270.0
 51
0.0
  0
ARC
  5
3ADB
330
A
100
AcDbEntity
  8
CENTER
100
AcDbCircle
 10
137.8773161797619
 20
113.5225408974812
 30
0.0
 40
19.0
100
AcDbArc
 50
270.0
 51
0.0
  0
ARC
  5
3ADC
330
A
100
AcDbEntity
  8
SHAPE_OUTLINE_BOLD_LINE_
100
AcDbCircle
 10
52.7363482225835
 20
210.2155006884523
 30
0.0
 40
0.5
100
AcDbArc
 50
0.0
 51
90.0
  0
ARC
  5
3ADD
330
A
100
AcDbEntity
  8
SHAPE_OUTLINE_BOLD_LINE_
100
AcDbCircle
 10
52.7363482225835
 20
191.2155006884523
 30
0.0
 40
0.5
100
AcDbArc
 50
270.0
 51
0.0
  0
ARC
  5
3AE1
330
A
100
AcDbEntity
  8
SHAPE_OUTLINE_BOLD_LINE_
100
AcDbCircle
 10
48.19321124318197
 20
94.52254089748123
 30
0.0
 40
5.499999999999929
100
AcDbArc
 50
133.3417582272228
 51
180.0
  0
ARC
  5
3AE2
330
A
100
AcDbEntity
  8
SHAPE_OUTLINE_BOLD_LINE_
100
AcDbCircle
 10
48.19321124318197
 20
94.52254089748123
 30
0.0
 40
5.500000000000089
100
AcDbArc
 50
313.3417582272237
 51
0.0
  0
ARC
  5
3AE3
330
A
100
AcDbEntity
  8
SHAPE_OUTLINE_BOLD_LINE_
100
AcDbCircle
 10
48.19321124318197
 20
94.52254089748123
 30
0.0
 40
2.75
100
AcDbArc
 50
270.0
 51
90.0
  0
ARC
  5
3AE4
330
A
100
AcDbEntity
  8
SHAPE_OUTLINE_BOLD_LINE_
100
AcDbCircle
 10
48.19321124318197
 20
94.52254089748123
 30
0.0
 40
2.75
100
AcDbArc
 50
90.0
 51
270.0
  0
ARC
  5
3AE5
330
A
100
AcDbEntity
  8
SHAPE_OUTLINE_BOLD_LINE_
100
AcDbCircle
 10
48.19321124318197
 20
94.52254089748123
 30
0.0
 40
5.5
100
AcDbArc
 50
0.0
 51
46.65824177277626
  0
ARC
  5
3AE6
330
A
100
AcDbEntity
  8
SHAPE_OUTLINE_BOLD_LINE_
100
AcDbCircle
 10
48.19321124318197
 20
94.52254089748123
 30
0.0
 40
5.5
100
AcDbArc
 50
180.0
 51
226.6582417727771
  0
ARC
  5
3AE7
330
A
100
AcDbEntity
  8
SHAPE_OUTLINE_BOLD_LINE_
100
AcDbCircle
 10
48.19321124318197
 20
94.52254089748123
 30
0.0
 40
15.0
100
AcDbArc
 50
0.0
 51
90.0
  0
ARC
  5
3AE8
330
A
100
AcDbEntity
  8
SHAPE_OUTLINE_BOLD_LINE_
100
AcDbCircle
 10
48.19321124318197
 20
94.52254089748123
 30
0.0
 40
15.0
100
AcDbArc
 50
180.0
 51
270.0
  0
ARC
  5
3AE9
330
A
100
AcDbEntity
  8
SHAPE_OUTLINE_BOLD_LINE_
100
AcDbCircle
 10
48.19321124318197
 20
94.52254089748123
 30
0.0
 40
15.0
100
AcDbArc
 50
90.0
 51
180.0
  0
ARC
  5
3AEA
330
A
100
AcDbEntity
  8
SHAPE_OUTLINE_BOLD_LINE_
100
AcDbCircle
 10
48.19321124318197
 20
94.52254089748123
 30
0.0
 40
15.0
100
AcDbArc
 50
270.0
 51
0.0
  0
ARC
  5
3AEB
330
A
100
AcDbEntity
  8
SHAPE_OUTLINE_BOLD_LINE_
100
AcDbCircle
 10
91.33394268578593
 20
200.7155006884523
 30
0.0
 40
1.5
100
AcDbArc
 50
0.0
 51
180.0
  0
ARC
  5
3AEC
330
A
100
AcDbEntity
  8
SHAPE_OUTLINE_BOLD_LINE_
100
AcDbCircle
 10
91.33394268578593
 20
200.7155006884523
 30
0.0
 40
1.5
100
AcDbArc
 50
180.0
 51
0.0
  0
ARC
  5
3AED
330
A
100
AcDbEntity
  8
SHAPE_OUTLINE_BOLD_LINE_
100
AcDbCircle
 10
91.33394268578593
 20
200.7155006884523
 30
0.0
 40
10.0
100
AcDbArc
 50
0.0
 51
180.0
  0
ARC
  5
3AEE
330
A
100
AcDbEntity
  8
SHAPE_OUTLINE_BOLD_LINE_
100
AcDbCircle
 10
91.33394268578593
 20
200.7155006884523
 30
0.0
 40
10.0
100
AcDbArc
 50
180.0
 51
0.0
  0
LINE
  5
3AF1
330
A
100
AcDbEntity
  8
OTHER_1
  6
PHANTOM
100
AcDbLine
 10
53.2363482225835
 20
185.7155006884523
 30
0.0
 11
53.2363482225835
 21
215.7155006884523
 31
0.0
  0
LINE
  5
3AF2
330
A
100
AcDbEntity
  8
OTHER_1
  6
PHANTOM
100
AcDbLine
 10
48.2363482225835
 20
170.7155006884523
 30
0.0
 11
53.2363482225835
 21
185.7155006884523
 31
0.0
  0
LINE
  5
3AF3
330
A
100
AcDbEntity
  8
OTHER_1
  6
PHANTOM
100
AcDbLine
 10
33.2363482225835
 20
170.7155006884523
 30
0.0
 11
48.2363482225835
 21
170.7155006884523
 31
0.0
  0
LINE
  5
3AF4
330
A
100
AcDbEntity
  8
OTHER_1
  6
PHANTOM
100
AcDbLine
 10
28.2363482225835
 20
185.7155006884523
 30
0.0
 11
33.2363482225835
 21
170.7155006884523
 31
0.0
  0
LINE
  5
3AF5
330
A
100
AcDbEntity
  8
OTHER_1
  6
PHANTOM
100
AcDbLine
 10
28.2363482225835
 20
215.7155006884523
 30
0.0
 11
28.2363482225835
 21
185.7155006884523
 31
0.0
  0
LINE
  5
3AF6
330
A
100
AcDbEntity
  8
OTHER_1
  6
PHANTOM
100
AcDbLine
 10
33.2363482225835
 20
230.7155006884523
 30
0.0
 11
28.2363482225835
 21
215.7155006884523
 31
0.0
  0
LINE
  5
3AF7
330
A
100
AcDbEntity
  8
OTHER_1
  6
PHANTOM
100
AcDbLine
 10
48.2363482225835
 20
230.7155006884523
 30
0.0
 11
53.2363482225835
 21
215.7155006884523
 31
0.0
  0
LINE
  5
3AF8
330
A
100
AcDbEntity
  8
OTHER_1
  6
PHANTOM
100
AcDbLine
 10
48.2363482225835
 20
230.7155006884523
 30
0.0
 11
33.2363482225835
 21
230.7155006884523
 31
0.0
  0
LINE
  5
3AF9
330
A
100
AcDbEntity
  8
SHAPE_OUTLINE_BOLD_LINE_
100
AcDbLine
 10
158.8773161797619
 20
126.7225408974812
 30
0.0
 11
161.3773161797619
 21
126.7225408974812
 31
0.0
  0
LINE
  5
3AFA
330
A
100
AcDbEntity
  8
SHAPE_OUTLINE_BOLD_LINE_
100
AcDbLine
 10
158.8773161797619
 20
125.5225408974812
 30
0.0
 11
154.8773161797619
 21
125.5225408974812
 31
0.0
  0
LINE
  5
3AFB
330
A
100
AcDbEntity
  8
SHAPE_OUTLINE_BOLD_LINE_
100
AcDbLine
 10
158.8773161797619
 20
126.7225408974812
 30
0.0
 11
158.8773161797619
 21
125.5225408974812
 31
0.0
  0
LINE
  5
3AFC
330
A
100
AcDbEntity
  8
SHAPE_OUTLINE_BOLD_LINE_
100
AcDbLine
 10
154.8773161797619
 20
125.5225408974812
 30
0.0
 11
152.3773161797619
 21
125.5225408974812
 31
0.0
  0
LINE
  5
3AFD
330
A
100
AcDbEntity
  8
SHAPE_OUTLINE_BOLD_LINE_
100
AcDbLine
 10
154.8773161797619
 20
126.7225408974812
 30
0.0
 11
154.8773161797619
 21
125.5225408974812
 31
0.0
  0
LINE
  5
3B01
330
A
100
AcDbEntity
  8
SHAPE_OUTLINE_BOLD_LINE_
100
AcDbLine
 10
94.87731617976193
 20
98.52254089748123
 30
0.0
 11
94.87731617976193
 21
79.52254089748135
 31
0.0
  0
LINE
  5
3B03
330
A
100
AcDbEntity
  8
SHAPE_OUTLINE_BOLD_LINE_
100
AcDbLine
 10
96.87731617976192
 20
98.52254089748123
 30
0.0
 11
96.87731617976192
 21
100.0225408974812
 31
0.0
  0
LINE
  5
3B06
330
A
100
AcDbEntity
  8
SHAPE_OUTLINE_BOLD_LINE_
100
AcDbLine
 10
94.87731617976193
 20
109.5225408974812
 30
0.0
 11
94.87731617976193
 21
98.52254089748123
 31
0.0
  0
LINE
  5
3B09
330
A
100
AcDbEntity
  8
CENTER
100
AcDbLine
 10
29.05753806822508
 20
94.52254089748123
 30
0.0
 11
66.88746300988213
 21
94.51283659313537
 31
0.0
  0
LINE
  5
3B0A
330
A
100
AcDbEntity
  8
CENTER
100
AcDbLine
 10
48.19321124318197
 20
75.37416943163634
 30
0.0
 11
48.19321124318197
 21
111.9921155421352
 31
0.0
  0
LINE
  5
3B0C
330
A
100
AcDbEntity
  8
SHAPE_OUTLINE_BOLD_LINE_
100
AcDbLine
 10
51.96812846081752
 20
98.52254089748123
 30
0.0
 11
44.41829402554662
 21
98.52254089748123
 31
0.0
  0
LINE
  5
3B0D
330
A
100
AcDbEntity
  8
SHAPE_OUTLINE_BOLD_LINE_
100
AcDbLine
 10
44.41829402554662
 20
90.52254089748123
 30
0.0
 11
51.96812846081752
 21
90.52254089748123
 31
0.0
  0
LINE
  5
3B18
330
A
100
AcDbEntity
  8
SHAPE_OUTLINE_BOLD_LINE_
100
AcDbLine
 10
104.2563161797619
 20
101.5225408974812
 30
0.0
 11
107.4983161797619
 21
101.5225408974812
 31
0.0
  0
LINE
  5
3B1C
330
A
100
AcDbEntity
  8
SHAPE_OUTLINE_BOLD_LINE_
100
AcDbLine
 10
107.4983161797619
 20
101.5225408974812
 30
0.0
 11
107.8773161797619
 21
101.5225408974812
 31
0.0
  0
LINE
  5
3B23
330
A
100
AcDbEntity
  8
SHAPE_OUTLINE_BOLD_LINE_
100
AcDbLine
 10
103.8773161797619
 20
101.5225408974812
 30
0.0
 11
104.2563161797619
 21
101.5225408974812
 31
0.0
  0
LINE
  5
3B27
330
A
100
AcDbEntity
  8
SHAPE_OUTLINE_BOLD_LINE_
100
AcDbLine
 10
122.3213510781389
 20
101.5225408974812
 30
0.0
 11
137.8773161797619
 21
101.5225408974812
 31
0.0
  0
LINE
  5
3B28
330
A
100
AcDbEntity
  8
SHAPE_OUTLINE_BOLD_LINE_
100
AcDbLine
 10
107.8773161797619
 20
101.5225408974812
 30
0.0
 11
122.3213510781389
 21
101.5225408974812
 31
0.0
  0
LINE
  5
3B29
330
A
100
AcDbEntity
  8
CENTER
100
AcDbLine
 10
91.94417610111088
 20
94.52254089748123
 30
0.0
 11
137.8773161797619
 21
94.52254089748123
 31
0.0
  0
LINE
  5
3B2A
330
A
100
AcDbEntity
  8
SHAPE_OUTLINE_BOLD_LINE_
100
AcDbLine
 10
96.87731617976192
 20
87.52254089748124
 30
0.0
 11
121.6305714715589
 21
87.52254089748124
 31
0.0
  0
LINE
  5
3B2B
330
A
100
AcDbEntity
  8
SHAPE_OUTLINE_BOLD_LINE_
100
AcDbLine
 10
96.87731617976192
 20
101.5225408974812
 30
0.0
 11
96.87731617976192
 21
109.5225408974812
 31
0.0
  0
LINE
  5
3B2C
330
A
100
AcDbEntity
  8
SHAPE_OUTLINE_BOLD_LINE_
100
AcDbLine
 10
96.87731617976192
 20
101.5225408974812
 30
0.0
 11
103.8773161797619
 21
101.5225408974812
 31
0.0
  0
LINE
  5
3B2D
330
A
100
AcDbEntity
  8
SHAPE_OUTLINE_BOLD_LINE_
100
AcDbLine
 10
96.87731617976192
 20
109.5225408974812
 30
0.0
 11
94.87731617976193
 21
109.5225408974812
 31
0.0
  0
LINE
  5
3B2E
330
A
100
AcDbEntity
  8
SHAPE_OUTLINE_BOLD_LINE_
100
AcDbLine
 10
96.87731617976192
 20
79.52254089748135
 30
0.0
 11
96.87731617976192
 21
87.52254089748124
 31
0.0
  0
LINE
  5
3B2F
330
A
100
AcDbEntity
  8
SHAPE_OUTLINE_BOLD_LINE_
100
AcDbLine
 10
94.87731617976193
 20
79.52254089748135
 30
0.0
 11
96.87731617976192
 21
79.52254089748135
 31
0.0
  0
LINE
  5
3B31
330
A
100
AcDbEntity
  8
SHAPE_OUTLINE_BOLD_LINE_
100
AcDbLine
 10
96.87731617976192
 20
100.0225408974812
 30
0.0
 11
96.87731617976192
 21
101.5225408974812
 31
0.0
  0
LINE
  5
3B32
330
A
100
AcDbEntity
  8
SHAPE_OUTLINE_BOLD_LINE_
100
AcDbLine
 10
96.87731617976192
 20
87.52254089748124
 30
0.0
 11
96.87731617976192
 21
98.52254089748123
 31
0.0
  0
LINE
  5
3B3B
330
A
100
AcDbEntity
  8
SHAPE_OUTLINE_BOLD_LINE_
100
AcDbLine
 10
121.6305714715589
 20
87.52254089748124
 30
0.0
 11
137.8773161797619
 21
87.52254089748124
 31
0.0
  0
LINE
  5
3B46
330
A
100
AcDbEntity
  8
SHAPE_OUTLINE_BOLD_LINE_
100
AcDbLine
 10
94.87731617976193
 20
109.5225408974812
 30
0.0
 11
94.87731617976193
 21
90.52254089748146
 31
0.0
  0
LINE
  5
3B48
330
A
100
AcDbEntity
  8
SHAPE_OUTLINE_BOLD_LINE_
100
AcDbLine
 10
94.87731617976193
 20
90.52254089748146
 30
0.0
 11
94.87731617976193
 21
79.52254089748135
 31
0.0
  0
LINE
  5
3B4E
330
A
100
AcDbEntity
  8
SHAPE_OUTLINE_BOLD_LINE_
100
AcDbLine
 10
163.8773161797619
 20
113.5225408974812
 30
0.0
 11
163.8773161797619
 21
125.5225408974812
 31
0.0
  0
LINE
  5
3B4F
330
A
100
AcDbEntity
  8
SHAPE_OUTLINE_BOLD_LINE_
100
AcDbLine
 10
163.8773161797619
 20
125.5225408974812
 30
0.0
 11
161.3773161797619
 21
125.5225408974812
 31
0.0
  0
LINE
  5
3B50
330
A
100
AcDbEntity
  8
SHAPE_OUTLINE_BOLD_LINE_
100
AcDbLine
 10
149.8773161797619
 20
125.5225408974812
 30
0.0
 11
149.8773161797619
 21
113.5225408974812
 31
0.0
  0
LINE
  5
3B51
330
A
100
AcDbEntity
  8
CENTER
100
AcDbLine
 10
156.8773161797619
 20
130.6939215801053
 30
0.0
 11
156.8773161797619
 21
113.5225408974812
 31
0.0
  0
LINE
  5
3B52
330
A
100
AcDbEntity
  8
SHAPE_OUTLINE_BOLD_LINE_
100
AcDbLine
 10
152.3773161797619
 20
125.5225408974812
 30
0.0
 11
152.3773161797619
 21
126.7225408974812
 31
0.0
  0
LINE
  5
3B53
330
A
100
AcDbEntity
  8
SHAPE_OUTLINE_BOLD_LINE_
100
AcDbLine
 10
152.3773161797619
 20
125.5225408974812
 30
0.0
 11
149.8773161797619
 21
125.5225408974812
 31
0.0
  0
LINE
  5
3B54
330
A
100
AcDbEntity
  8
SHAPE_OUTLINE_BOLD_LINE_
100
AcDbLine
 10
152.3773161797619
 20
126.7225408974812
 30
0.0
 11
154.8773161797619
 21
126.7225408974812
 31
0.0
  0
LINE
  5
3B55
330
A
100
AcDbEntity
  8
SHAPE_OUTLINE_BOLD_LINE_
100
AcDbLine
 10
161.3773161797619
 20
126.7225408974812
 30
0.0
 11
161.3773161797619
 21
125.5225408974812
 31
0.0
  0
LINE
  5
3B56
330
A
100
AcDbEntity
  8
SHAPE_OUTLINE_BOLD_LINE_
100
AcDbLine
 10
161.3773161797619
 20
125.5225408974812
 30
0.0
 11
158.8773161797619
 21
125.5225408974812
 31
0.0
  0
LINE
  5
3B58
330
A
100
AcDbEntity
  8
CENTER
100
AcDbLine
 10
91.33394268578593
 20
213.6428921821384
 30
0.0
 11
91.33394268578593
 21
185.9413389813834
 31
0.0
  0
LINE
  5
3B59
330
A
100
AcDbEntity
  8
SHAPE_OUTLINE_BOLD_LINE_
100
AcDbLine
 10
48.93634822258355
 20
210.7155006884523
 30
0.0
 11
52.7363482225835
 21
210.7155006884523
 31
0.0
  0
LINE
  5
3B5A
330
A
100
AcDbEntity
  8
SHAPE_OUTLINE_BOLD_LINE_
100
AcDbLine
 10
53.2363482225835
 20
210.2155006884523
 30
0.0
 11
53.2363482225835
 21
202.2155006884523
 31
0.0
  0
LINE
  5
3B5B
330
A
100
AcDbEntity
  8
SHAPE_OUTLINE_BOLD_LINE_
100
AcDbLine
 10
52.7363482225835
 20
190.7155006884523
 30
0.0
 11
48.93634822258355
 21
190.7155006884523
 31
0.0
  0
LINE
  5
3B5C
330
A
100
AcDbEntity
  8
SHAPE_OUTLINE_BOLD_LINE_
100
AcDbLine
 10
48.93634822258355
 20
190.7155006884523
 30
0.0
 11
48.93634822258355
 21
191.2155006884523
 31
0.0
  0
LINE
  5
3B5D
330
A
100
AcDbEntity
  8
SHAPE_OUTLINE_THIN_LINE_
  6
DASHED
100
AcDbLine
 10
48.93634822258355
 20
191.2155006884523
 30
0.0
 11
52.7363482225835
 21
191.2155006884523
 31
0.0
  0
LINE
  5
3B5E
330
A
100
AcDbEntity
  8
SHAPE_OUTLINE_BOLD_LINE_
100
AcDbLine
 10
48.93634822258355
 20
191.2155006884523
 30
0.0
 11
48.93634822258355
 21
210.2155006884523
 31
0.0
  0
LINE
  5
3B5F
330
A
100
AcDbEntity
  8
SHAPE_OUTLINE_THIN_LINE_
  6
DASHED
100
AcDbLine
 10
52.7363482225835
 20
191.2155006884523
 30
0.0
 11
52.7363482225835
 21
199.2155006884523
 31
0.0
  0
LINE
  5
3B60
330
A
100
AcDbEntity
  8
SHAPE_OUTLINE_THIN_LINE_
  6
DASHED
100
AcDbLine
 10
52.7363482225835
 20
210.2155006884523
 30
0.0
 11
48.93634822258355
 21
210.2155006884523
 31
0.0
  0
LINE
  5
3B61
330
A
100
AcDbEntity
  8
SHAPE_OUTLINE_BOLD_LINE_
100
AcDbLine
 10
48.93634822258355
 20
210.2155006884523
 30
0.0
 11
48.93634822258355
 21
210.7155006884523
 31
0.0
  0
LINE
  5
3B62
330
A
100
AcDbEntity
  8
CENTER
100
AcDbLine
 10
45.94185821325663
 20
200.7155006884523
 30
0.0
 11
55.92349157767876
 21
200.7155006884523
 31
0.0
  0
LINE
  5
3B63
330
A
100
AcDbEntity
  8
SHAPE_OUTLINE_THIN_LINE_
  6
DASHED
100
AcDbLine
 10
52.7363482225835
 20
202.2155006884523
 30
0.0
 11
53.2363482225835
 21
202.2155006884523
 31
0.0
  0
LINE
  5
3B64
330
A
100
AcDbEntity
  8
SHAPE_OUTLINE_BOLD_LINE_
100
AcDbLine
 10
53.2363482225835
 20
202.2155006884523
 30
0.0
 11
53.2363482225835
 21
199.2155006884523
 31
0.0
  0
LINE
  5
3B65
330
A
100
AcDbEntity
  8
SHAPE_OUTLINE_THIN_LINE_
  6
DASHED
100
AcDbLine
 10
52.7363482225835
 20
202.2155006884523
 30
0.0
 11
52.7363482225835
 21
210.2155006884523
 31
0.0
  0
LINE
  5
3B66
330
A
100
AcDbEntity
  8
SHAPE_OUTLINE_THIN_LINE_
  6
DASHED
100
AcDbLine
 10
52.7363482225835
 20
199.2155006884523
 30
0.0
 11
53.2363482225835
 21
199.2155006884523
 31
0.0
  0
LINE
  5
3B67
330
A
100
AcDbEntity
  8
SHAPE_OUTLINE_THIN_LINE_
  6
DASHED
100
AcDbLine
 10
52.7363482225835
 20
199.2155006884523
 30
0.0
 11
52.7363482225835
 21
202.2155006884523
 31
0.0
  0
LINE
  5
3B68
330
A
100
AcDbEntity
  8
SHAPE_OUTLINE_BOLD_LINE_
100
AcDbLine
 10
53.2363482225835
 20
199.2155006884523
 30
0.0
 11
53.2363482225835
 21
191.2155006884523
 31
0.0
  0
LINE
  5
3B6A
330
A
100
AcDbEntity
  8
CENTER
100
AcDbLine
 10
77.94485863875377
 20
200.7155006884523
 30
0.0
 11
105.8772581161818
 21
200.7155006884523
 31
0.0
  0
CIRCLE
  5
3C29
330
A
100
AcDbEntity
  8
SHAPE_OUTLINE_THIN_LINE_
  6
DASHED
100
AcDbCircle
 10
91.33394268578593
 20
200.7155006884523
 30
0.0
 40
9.5
  0
DIMENSION
  5
3C2A
330
A
100
AcDbEntity
  8
DIMENSIONS
100
AcDbDimension
  2
*D2
 10
53.2363482225835
 20
160.7155006884523
 30
0.0
 11
57.74022930611272
 21
163.2155006884523
 31
0.0
 70
   160
  3
STANDARD
100
AcDbAlignedDimension
 13
48.93634822258355
 23
190.7155006884523
 33
0.0
 14
53.2363482225835
 24
191.2155006884523
 34
0.0
100
AcDbRotatedDimension
  0
DIMENSION
  5
3C42
330
A
100
AcDbEntity
  8
DIMENSIONS
100
AcDbDimension
  2
*D3
 10
101.3339426857859
 20
160.7155006884523
 30
0.0
 11
91.33394268578593
 21
163.2155006884523
 31
0.0
 70
    32
  3
STANDARD
100
AcDbAlignedDimension
 13
81.33394268578593
 23
200.7155006884523
 33
0.0
 14
101.3339426857859
 24
200.7155006884523
 34
0.0
100
AcDbRotatedDimension
  0
DIMENSION
  5
3C4F
330
A
100
AcDbEntity
  8
DIMENSIONS
100
AcDbDimension
  2
*D4
 10
101.3339426857859
 20
167.7155006884523
 30
0.0
 11
104.8536367324345
 21
170.2155006884523
 31
0.0
 70
   160
  3
STANDARD
100
AcDbAlignedDimension
 13
100.8339426857859
 23
200.7155006884523
 33
0.0
 14
101.3339426857859
 24
200.7155006884523
 34
0.0
100
AcDbRotatedDimension
  0
DIMENSION
  5
3C67
330
A
100
AcDbEntity
  8
DIMENSIONS
100
AcDbDimension
  2
*D5
 10
73.19320868722511
 20
97.27254089748123
 30
0.0
 11
67.14679659517333
 21
89.11367020038937
 31
0.0
 70
   160
  1
φ<>
  3
STANDARD
100
AcDbAlignedDimension
 13
48.19321124318197
 23
91.77254089748123
 33
0.0
 14
48.19321124318197
 24
97.27254089748123
 34
0.0
 50
90.0
100
AcDbRotatedDimension
  0
DIMENSION
  5
3C89
330
A
100
AcDbEntity
  8
DIMENSIONS
100
AcDbDimension
  2
*D6
 10
63.19321124318197
 20
136.7225408974812
 30
0.0
 11
48.19321126194051
 21
139.4661957198163
 31
0.0
 70
    32
  1
φ<>
  3
STANDARD
100
AcDbAlignedDimension
 13
33.19321128069904
 23
94.52147999578526
 33
0.0
 14
63.19321124318197
 24
94.52254089748123
 34
0.0
100
AcDbRotatedDimension
  0
DIMENSION
  5
3C9F
330
A
100
AcDbEntity
  8
DIMENSIONS
100
AcDbDimension
  2
*D7
 10
94.87731617976193
 20
136.7225408974812
 30
0.0
 11
129.3773161797619
 21
139.2225408974812
 31
0.0
 70
    32
  3
STANDARD
100
AcDbAlignedDimension
 13
163.8773161797619
 23
125.5225408974812
 33
0.0
 14
94.87731617976193
 24
109.5225408974812
 34
0.0
100
AcDbRotatedDimension
  0
DIMENSION
  5
3CAC
330
A
100
AcDbEntity
  8
DIMENSIONS
100
AcDbDimension
  2
*D8
 10
96.87731617976192
 20
129.7225408974812
 30
0.0
 11
91.5158310257566
 21
132.0059161536098
 31
0.0
 70
   160
  3
STANDARD
100
AcDbAlignedDimension
 13
94.87731617976193
 23
109.5225408974812
 33
0.0
 14
96.87731617976192
 24
109.5225408974812
 34
0.0
100
AcDbRotatedDimension
  0
DIMENSION
  5
3CC4
330
A
100
AcDbEntity
  8
DIMENSIONS
100
AcDbDimension
  2
*D9
 10
173.8773161797619
 20
125.5225408974812
 30
0.0
 11
169.6863268189772
 21
129.5718626356995
 31
0.0
 70
   160
  3
STANDARD
100
AcDbAlignedDimension
 13
161.3773161797619
 23
126.7225408974812
 33
0.0
 14
163.8773161797619
 24
125.5225408974812
 34
0.0
 50
90.0
100
AcDbRotatedDimension
  0
DIMENSION
  5
3CDC
330
A
100
AcDbEntity
  8
DIMENSIONS
100
AcDbDimension
  2
*D10
 10
173.8773161797619
 20
87.52254089748122
 30
0.0
 11
171.3773161797618
 21
106.5225408974812
 31
0.0
 70
    32
  3
STANDARD
100
AcDbAlignedDimension
 13
163.8773161797619
 23
125.5225408974812
 33
0.0
 14
137.8773161797619
 24
87.52254089748124
 34
0.0
 50
90.0
100
AcDbRotatedDimension
  0
ENDSEC
  0
SECTION
  2
OBJECTS
  0
DICTIONARY
  5
19
330
0
100
AcDbDictionary
  3
ACAD_GROUP
350
1A
  3
ACAD_LAYOUT
350
157A
  3
ACAD_MLINESTYLE
350
1B
  3
ACAD_PLOTSETTINGS
350
157B
  3
ACAD_PLOTSTYLENAME
350
1578
  3
ACDBHEADERROUNDTRIPXREC
350
3DE1
  3
ACDBVARIABLEDICTIONARY
350
3478
  3
ADE_QUERY_LIBRARY
350
3622
1001
ADE
1000
ADE02C004
1000
[Query]
1000
CaseSensitiveMatch=0
1000
SaveCurrQueryInSession=1
1000
MkSelSetWithQryObj=0
1000
ShowBlockAsInsPt=0
1000
CreateAssociativeHatchObjects=0
1000
ReferenceBoundaryForAreaLocation=1
1000
ShowImageAsBoundary=1
1000
DefaultJoinOperator=2
1000
ColorForAdd=red
1000
ColorForRemove=red
1000
BlockLocnForQuery=1
1000
TextLocnForQuery=1
1000
[Save Back]
1000
RedefineBlockDefinitions=1
1000
RedefineLayerDefinitions=1
1000
RedefineTextStyleDefinitions=1
1000
RemoveUnusedGroups=1
1000
EraseSavedBackObjects=1
1000
RemoveLockAfterSave=1
1000
CreateHistoryFileOfChanges=0
1000
CreateBackupFileOfSourceDwg=1
1000
DontAddObjectsToSaveSet=0
1000
MarkObjectsForEditingWithoutPrompting=0
1000
[Coordinate Transformation]
1000
RestoreLastActiveDwgsOnStartup=1
1000
ActivateDwgsOnAttach=1
1000
AdjustSizesAndScalesForChangesInUnits=1
1000
AdjustRotationsForMapDistortions=1
1000
AdjustSizesAndScalesForMapDistortions=1
1000
AdjustElevations=1
1000
AdjustZeroRotationObjects=1
1000
ReconnectDbOnWSOpen=1
1000
NoOfSQLConditionsInHistory=10
  0
DICTIONARY
  5
36A5
330
A
100
AcDbDictionary
280
     1
  3
ACAD_LAYOUTSELFREF
360
3E02
  3
ACAD_SORTENTS
360
36A6
  0
DICTIONARY
  5
3E03
330
B
100
AcDbDictionary
280
     1
  3
ACAD_LAYOUTSELFREF
360
3E04
  0
DICTIONARY
  5
1A
102
{ACAD_REACTORS
330
19
102
}
330
19
100
AcDbDictionary
  0
DICTIONARY
  5
157A
102
{ACAD_REACTORS
330
19
102
}
330
19
100
AcDbDictionary
  0
DICTIONARY
  5
1B
102
{ACAD_REACTORS
330
19
102
}
330
19
100
AcDbDictionary
  3
STANDARD
350
1C
  0
DICTIONARY
  5
157B
102
{ACAD_REACTORS
330
19
102
}
330
19
100
AcDbDictionary
  0
ACDBDICTIONARYWDFLT
  5
1578
102
{ACAD_REACTORS
330
19
102
}
330
19
100
AcDbDictionary
281
     1
  3
Normal
350
1579
100
AcDbDictionaryWithDefault
340
1579
  0
DICTIONARY
  5
3DE1
102
{ACAD_REACTORS
330
19
102
}
330
19
100
AcDbDictionary
  3
CEPSNTYPE
350
3DEB
  3
DIMSTYLEDATA
350
3DEF
  3
FINGERPRINTGUID
350
3DEC
  3
HYPERLINKBASE
350
3DE4
  3
INSUNITS
350
3DEA
  3
LAYOUTDICT
350
3DE6
  3
LWETCUNION
350
3DE9
  3
PLOTSETDICT
350
3DE7
  3
PLOTSTYLNAMDICT
350
3DE8
  3
PSVPSCALE
350
3DEE
  3
PUCSBASE
350
3DF2
  3
PUCSORGBACK
350
3DF8
  3
PUCSORGBOTTOM
350
3DF4
  3
PUCSORGFRONT
350
3DF7
  3
PUCSORGLEFT
350
3DF5
  3
PUCSORGRIGHT
350
3DF6
  3
PUCSORGTOP
350
3DF3
  3
PUCSORTHOREF
350
3DF0
  3
PUCSORTHOVIEW
350
3DF1
  3
STYLESHEET
350
3DE5
  3
TSTACKALIGN
350
3DE2
  3
TSTACKSIZE
350
3DE3
  3
UCSBASE
350
3DFB
  3
UCSORGBACK
350
3E01
  3
UCSORGBOTTOM
350
3DFD
  3
UCSORGFRONT
350
3E00
  3
UCSORGLEFT
350
3DFE
  3
UCSORGRIGHT
350
3DFF
  3
UCSORGTOP
350
3DFC
  3
UCSORTHOREF
350
3DF9
  3
UCSORTHOVIEW
350
3DFA
  3
VERSIONGUID
350
3DED
  0
DICTIONARY
  5
3478
102
{ACAD_REACTORS
330
19
102
}
330
19
100
AcDbDictionary
  3
DIMASSOC
350
3479
  3
SORTENTS
350
36A9
  0
DICTIONARY
  5
3622
102
{ACAD_REACTORS
330
19
102
}
330
19
100
AcDbDictionary
  3
_CURRQRY
350
3D9C
  0
XRECORD
  5
3E02
102
{ACAD_REACTORS
330
36A5
102
}
330
36A5
100
AcDbXrecord
340
A
  0
SORTENTSTABLE
  5
36A6
102
{ACAD_REACTORS
330
36A5
102
}
330
36A5
100
AcDbSortentsTable
330
A
331
35F8
  5
35FD
331
3607
  5
3634
  0
XRECORD
  5
3E04
102
{ACAD_REACTORS
330
3E03
102
}
330
3E03
100
AcDbXrecord
340
B
  0
MLINESTYLE
  5
1C
102
{ACAD_REACTORS
330
1B
102
}
330
1B
100
AcDbMlineStyle
  2
STANDARD
 70
     0
  3

 62
     0
 51
90.0
 52
90.0
 71
     2
 49
0.5
 62
   256
  6
BYLAYER
 49
-0.5
 62
   256
  6
BYLAYER
  0
ACDBPLACEHOLDER
  5
1579
102
{ACAD_REACTORS
330
1578
102
}
330
1578
100
AcDbPlaceHolder
280
     0
  0
XRECORD
  5
3DEB
102
{ACAD_REACTORS
330
3DE1
102
}
330
3DE1
100
AcDbXrecord
 90
        0
  0
XRECORD
  5
3DEF
102
{ACAD_REACTORS
330
3DE1
102
}
330
3DE1
100
AcDbXrecord
1000
DSTYLE
1002
{
1070
   279
 70
     2
1070
   341
340
143A
1070
   342
340
143A
1070
   371
 70
    -1
1070
   372
 70
    -1
1002
}
  0
XRECORD
  5
3DEC
102
{ACAD_REACTORS
330
3DE1
102
}
330
3DE1
100
AcDbXrecord
  1
{5653D33C-3AEF-40FE-8495-DE925CF19E35}
  0
XRECORD
  5
3DE4
102
{ACAD_REACTORS
330
3DE1
102
}
330
3DE1
100
AcDbXrecord
  1

  0
XRECORD
  5
3DEA
102
{ACAD_REACTORS
330
3DE1
102
}
330
3DE1
100
AcDbXrecord
 90
        0
  0
XRECORD
  5
3DE6
102
{ACAD_REACTORS
330
3DE1
102
}
330
3DE1
100
AcDbXrecord
340
157A
  0
XRECORD
  5
3DE9
102
{ACAD_REACTORS
330
3DE1
102
}
330
3DE1
100
AcDbXrecord
 90
    10781
  0
XRECORD
  5
3DE7
102
{ACAD_REACTORS
330
3DE1
102
}
330
3DE1
100
AcDbXrecord
340
157B
  0
XRECORD
  5
3DE8
102
{ACAD_REACTORS
330
3DE1
102
}
330
3DE1
100
AcDbXrecord
340
1578
  0
XRECORD
  5
3DEE
102
{ACAD_REACTORS
330
3DE1
102
}
330
3DE1
100
AcDbXrecord
 40
0.0
  0
XRECORD
  5
3DF2
102
{ACAD_REACTORS
330
3DE1
102
}
330
3DE1
100
AcDbXrecord
340
0
  0
XRECORD
  5
3DF8
102
{ACAD_REACTORS
330
3DE1
102
}
330
3DE1
100
AcDbXrecord
 10
0.0
 20
0.0
 30
0.0
  0
XRECORD
  5
3DF4
102
{ACAD_REACTORS
330
3DE1
102
}
330
3DE1
100
AcDbXrecord
 10
0.0
 20
0.0
 30
0.0
  0
XRECORD
  5
3DF7
102
{ACAD_REACTORS
330
3DE1
102
}
330
3DE1
100
AcDbXrecord
 10
0.0
 20
0.0
 30
0.0
  0
XRECORD
  5
3DF5
102
{ACAD_REACTORS
330
3DE1
102
}
330
3DE1
100
AcDbXrecord
 10
0.0
 20
0.0
 30
0.0
  0
XRECORD
  5
3DF6
102
{ACAD_REACTORS
330
3DE1
102
}
330
3DE1
100
AcDbXrecord
 10
0.0
 20
0.0
 30
0.0
  0
XRECORD
  5
3DF3
102
{ACAD_REACTORS
330
3DE1
102
}
330
3DE1
100
AcDbXrecord
 10
0.0
 20
0.0
 30
0.0
  0
XRECORD
  5
3DF0
102
{ACAD_REACTORS
330
3DE1
102
}
330
3DE1
100
AcDbXrecord
340
0
  0
XRECORD
  5
3DF1
102
{ACAD_REACTORS
330
3DE1
102
}
330
3DE1
100
AcDbXrecord
 70
     0
  0
XRECORD
  5
3DE5
102
{ACAD_REACTORS
330
3DE1
102
}
330
3DE1
100
AcDbXrecord
  1
スガツネWeb_mono.ctb
  0
XRECORD
  5
3DE2
102
{ACAD_REACTORS
330
3DE1
102
}
330
3DE1
100
AcDbXrecord
 90
        1
  0
XRECORD
  5
3DE3
102
{ACAD_REACTORS
330
3DE1
102
}
330
3DE1
100
AcDbXrecord
 90
       70
  0
XRECORD
  5
3DFB
102
{ACAD_REACTORS
330
3DE1
102
}
330
3DE1
100
AcDbXrecord
340
0
  0
XRECORD
  5
3E01
102
{ACAD_REACTORS
330
3DE1
102
}
330
3DE1
100
AcDbXrecord
 10
0.0
 20
0.0
 30
0.0
  0
XRECORD
  5
3DFD
102
{ACAD_REACTORS
330
3DE1
102
}
330
3DE1
100
AcDbXrecord
 10
0.0
 20
0.0
 30
0.0
  0
XRECORD
  5
3E00
102
{ACAD_REACTORS
330
3DE1
102
}
330
3DE1
100
AcDbXrecord
 10
0.0
 20
0.0
 30
0.0
  0
XRECORD
  5
3DFE
102
{ACAD_REACTORS
330
3DE1
102
}
330
3DE1
100
AcDbXrecord
 10
0.0
 20
0.0
 30
0.0
  0
XRECORD
  5
3DFF
102
{ACAD_REACTORS
330
3DE1
102
}
330
3DE1
100
AcDbXrecord
 10
0.0
 20
0.0
 30
0.0
  0
XRECORD
  5
3DFC
102
{ACAD_REACTORS
330
3DE1
102
}
330
3DE1
100
AcDbXrecord
 10
0.0
 20
0.0
 30
0.0
  0
XRECORD
  5
3DF9
102
{ACAD_REACTORS
330
3DE1
102
}
330
3DE1
100
AcDbXrecord
340
0
  0
XRECORD
  5
3DFA
102
{ACAD_REACTORS
330
3DE1
102
}
330
3DE1
100
AcDbXrecord
 70
     0
  0
XRECORD
  5
3DED
102
{ACAD_REACTORS
330
3DE1
102
}
330
3DE1
100
AcDbXrecord
  1
{09765BBF-8785-498F-9EC7-6CCB0F386775}
  0
DICTIONARYVAR
  5
3479
102
{ACAD_REACTORS
330
3478
102
}
330
3478
100
DictionaryVariables
280
     0
  1
1
  0
DICTIONARYVAR
  5
36A9
102
{ACAD_REACTORS
330
3478
102
}
330
3478
100
DictionaryVariables
280
     0
  1
127
  0
XRECORD
  5
3D9C
102
{ACAD_REACTORS
330
3622
102
}
330
3622
100
AcDbXrecord
1000
ADE02C001
1070
     1
1070
     0
1002
{
1002
}
1002
{
1002
}
1002
{
1002
}
1000

  0
ENDSEC
  0
EOF
