  0
SECTION
  2
HEADER
  9
$ACADVER
  1
AC1014
  9
$ACADMAINTVER
 70
     0
  9
$DWGCODEPAGE
  3
ANSI_932
  9
$INSBASE
 10
0.0
 20
0.0
 30
0.0
  9
$EXTMIN
 10
-10.0
 20
-10.00000000000005
 30
0.0
  9
$EXTMAX
 10
410.0000000000001
 20
286.9999999999999
 30
0.0
  9
$LIMMIN
 10
0.0
 20
0.0
  9
$LIMMAX
 10
0.0
 20
0.0
  9
$ORTHOMODE
 70
     1
  9
$REGENMODE
 70
     1
  9
$FILLMODE
 70
     1
  9
$QTEXTMODE
 70
     0
  9
$MIRRTEXT
 70
     1
  9
$DRAGMODE
 70
     2
  9
$LTSCALE
 40
0.1
  9
$OSMODE
 70
     0
  9
$ATTMODE
 70
     1
  9
$TEXTSIZE
 40
0.0
  9
$TRACEWID
 40
0.05
  9
$TEXTSTYLE
  7
STANDARD
  9
$CLAYER
  8
0
  9
$CELTYPE
  6
BYLAYER
  9
$CECOLOR
 62
   256
  9
$CELTSCALE
 40
1.0
  9
$DELOBJ
 70
     1
  9
$DISPSILH
 70
     0
  9
$DIMSCALE
 40
1.0
  9
$DIMASZ
 40
2.0
  9
$DIMEXO
 40
2.0
  9
$DIMDLI
 40
0.5
  9
$DIMRND
 40
0.0
  9
$DIMDLE
 40
0.0
  9
$DIMEXE
 40
1.0
  9
$DIMTP
 40
0.0
  9
$DIMTM
 40
0.0
  9
$DIMTXT
 40
3.0
  9
$DIMCEN
 40
0.0
  9
$DIMTSZ
 40
0.0
  9
$DIMTOL
 70
     0
  9
$DIMLIM
 70
     0
  9
$DIMTIH
 70
     0
  9
$DIMTOH
 70
     1
  9
$DIMSE1
 70
     0
  9
$DIMSE2
 70
     0
  9
$DIMTAD
 70
     1
  9
$DIMZIN
 70
     8
  9
$DIMBLK
  1
OPEN30
  9
$DIMASO
 70
     1
  9
$DIMSHO
 70
     1
  9
$DIMPOST
  1

  9
$DIMAPOST
  1

  9
$DIMALT
 70
     0
  9
$DIMALTD
 70
     2
  9
$DIMALTF
 40
25.4
  9
$DIMLFAC
 40
1.0
  9
$DIMTOFL
 70
     0
  9
$DIMTVP
 40
0.0
  9
$DIMTIX
 70
     1
  9
$DIMSOXD
 70
     0
  9
$DIMSAH
 70
     0
  9
$DIMBLK1
  1

  9
$DIMBLK2
  1

  9
$DIMSTYLE
  2
STANDARD
  9
$DIMCLRD
 70
   256
  9
$DIMCLRE
 70
   256
  9
$DIMCLRT
 70
     3
  9
$DIMTFAC
 40
1.0
  9
$DIMGAP
 40
1.0
  9
$DIMJUST
 70
     0
  9
$DIMSD1
 70
     0
  9
$DIMSD2
 70
     0
  9
$DIMTOLJ
 70
     1
  9
$DIMTZIN
 70
     0
  9
$DIMALTZ
 70
     0
  9
$DIMALTTZ
 70
     0
  9
$DIMFIT
 70
     5
  9
$DIMUPT
 70
     0
  9
$DIMUNIT
 70
     2
  9
$DIMDEC
 70
     1
  9
$DIMTDEC
 70
     1
  9
$DIMALTU
 70
     2
  9
$DIMALTTD
 70
     2
  9
$DIMTXSTY
  7
STANDARD
  9
$DIMAUNIT
 70
     0
  9
$LUNITS
 70
     2
  9
$LUPREC
 70
     4
  9
$SKETCHINC
 40
0.1
  9
$FILLETRAD
 40
0.0
  9
$AUNITS
 70
     0
  9
$AUPREC
 70
     0
  9
$MENU
  1
acad
  9
$ELEVATION
 40
0.0
  9
$PELEVATION
 40
0.0
  9
$THICKNESS
 40
0.0
  9
$LIMCHECK
 70
     0
  9
$BLIPMODE
 70
     0
  9
$CHAMFERA
 40
0.0
  9
$CHAMFERB
 40
0.0
  9
$CHAMFERC
 40
0.0
  9
$CHAMFERD
 40
0.0
  9
$SKPOLY
 70
     0
  9
$TDCREATE
 40
2312272.457674340
  9
$TDUPDATE
 40
2454126.779136099
  9
$TDINDWG
 40
0.1919077315
  9
$TDUSRTIMER
 40
0.1919071875
  9
$USRTIMER
 70
     1
  9
$ANGBASE
 50
0.0
  9
$ANGDIR
 70
     0
  9
$PDMODE
 70
     0
  9
$PDSIZE
 40
0.0
  9
$PLINEWID
 40
0.0
  9
$COORDS
 70
     2
  9
$SPLFRAME
 70
     0
  9
$SPLINETYPE
 70
     6
  9
$SPLINESEGS
 70
     8
  9
$ATTDIA
 70
     0
  9
$ATTREQ
 70
     1
  9
$HANDLING
 70
 22529
  9
$HANDSEED
  5
3E70
  9
$SURFTAB1
 70
     6
  9
$SURFTAB2
 70
     6
  9
$SURFTYPE
 70
     6
  9
$SURFU
 70
     6
  9
$SURFV
 70
     6
  9
$UCSNAME
  2

  9
$UCSORG
 10
0.0
 20
0.0
 30
0.0
  9
$UCSXDIR
 10
1.0
 20
0.0
 30
0.0
  9
$UCSYDIR
 10
0.0
 20
1.0
 30
0.0
  9
$PUCSNAME
  2

  9
$PUCSORG
 10
0.0
 20
0.0
 30
0.0
  9
$PUCSXDIR
 10
1.0
 20
0.0
 30
0.0
  9
$PUCSYDIR
 10
0.0
 20
1.0
 30
0.0
  9
$USERI1
 70
     0
  9
$USERI2
 70
     0
  9
$USERI3
 70
     0
  9
$USERI4
 70
     0
  9
$USERI5
 70
     0
  9
$USERR1
 40
12.01
  9
$USERR2
 40
0.0
  9
$USERR3
 40
0.0
  9
$USERR4
 40
0.0
  9
$USERR5
 40
0.0
  9
$WORLDVIEW
 70
     1
  9
$SHADEDGE
 70
     3
  9
$SHADEDIF
 70
    70
  9
$TILEMODE
 70
     1
  9
$MAXACTVP
 70
    16
  9
$PINSBASE
 10
0.0
 20
0.0
 30
0.0
  9
$PLIMCHECK
 70
     0
  9
$PEXTMIN
 10
1.000000000000000E+20
 20
1.000000000000000E+20
 30
1.000000000000000E+20
  9
$PEXTMAX
 10
-1.000000000000000E+20
 20
-1.000000000000000E+20
 30
-1.000000000000000E+20
  9
$PLIMMIN
 10
0.0
 20
0.0
  9
$PLIMMAX
 10
12.0
 20
9.0
  9
$UNITMODE
 70
     0
  9
$VISRETAIN
 70
     0
  9
$PLINEGEN
 70
     1
  9
$PSLTSCALE
 70
     0
  9
$TREEDEPTH
 70
  3020
  9
$PICKSTYLE
 70
     1
  9
$CMLSTYLE
  2
STANDARD
  9
$CMLJUST
 70
     0
  9
$CMLSCALE
 40
1.0
  9
$PROXYGRAPHICS
 70
     0
  9
$MEASUREMENT
 70
     1
  0
ENDSEC
  0
SECTION
  2
CLASSES
  0
CLASS
  1
LWPOLYLINE
  2
AcDbPolyline
  3
AutoCAD 2000
 90
        0
280
     0
281
     1
  0
CLASS
  1
IMAGE
  2
AcDbRasterImage
  3
ISM
 90
      127
280
     0
281
     1
  0
CLASS
  1
OLE2FRAME
  2
AcDbOle2Frame
  3
AutoCAD 2000
 90
        0
280
     0
281
     1
  0
CLASS
  1
HATCH
  2
AcDbHatch
  3
AutoCAD 2000
 90
        0
280
     0
281
     1
  0
CLASS
  1
DICTIONARYVAR
  2
AcDbDictionaryVar
  3
AutoCAD 2000
 90
        0
280
     0
281
     0
  0
CLASS
  1
RASTERVARIABLES
  2
AcDbRasterVariables
  3
ISM
 90
        0
280
     0
281
     0
  0
CLASS
  1
IMAGEDEF
  2
AcDbRasterImageDef
  3
ISM
 90
        0
280
     0
281
     0
  0
CLASS
  1
IMAGEDEF_REACTOR
  2
AcDbRasterImageDefReactor
  3
ISM
 90
        1
280
     0
281
     0
  0
CLASS
  1
IDBUFFER
  2
AcDbIdBuffer
  3
AutoCAD 2000
 90
        0
280
     0
281
     0
  0
CLASS
  1
SPATIAL_FILTER
  2
AcDbSpatialFilter
  3
AutoCAD 2000
 90
        0
280
     0
281
     0
  0
CLASS
  1
XRECORD
  2
AcDbXrecord
  3
AutoCAD 2000
 90
        0
280
     0
281
     0
  0
CLASS
  1
SORTENTSTABLE
  2
AcDbSortentsTable
  3
AutoCAD 2000
 90
        0
280
     0
281
     0
  0
CLASS
  1
LAYER_INDEX
  2
AcDbLayerIndex
  3
AutoCAD 2000
 90
        0
280
     0
281
     0
  0
CLASS
  1
SPATIAL_INDEX
  2
AcDbSpatialIndex
  3
AutoCAD 2000
 90
        0
280
     0
281
     0
  0
CLASS
  1
OBJECT_PTR
  2
CAseDLPNTableRecord
  3
ASE-LPNTableRecord
 90
        1
280
     0
281
     0
  0
CLASS
  1
LAYOUT
  2
AcDbLayout
  3
AutoCAD 2000
 90
        0
280
     0
281
     0
  0
CLASS
  1
PLOTSETTINGS
  2
AcDbPlotSettings
  3
AutoCAD 2000
 90
        0
280
     0
281
     0
  0
CLASS
  1
ACDBDICTIONARYWDFLT
  2
AcDbDictionaryWithDefault
  3
AutoCAD 2000
 90
        0
280
     0
281
     0
  0
CLASS
  1
ACDBPLACEHOLDER
  2
AcDbPlaceHolder
  3
AutoCAD 2000
 90
        0
280
     0
281
     0
  0
CLASS
  1
LONG_TRANSACTION
  2
AcDbLongTransaction
  3
AutoCAD 2000
 90
        0
280
     0
281
     0
  0
CLASS
  1
LWPOLYLINE
  2
AcDbPolyline
  3
AutoCAD 2000
 90
        0
280
     0
281
     1
  0
CLASS
  1
HATCH
  2
AcDbHatch
  3
AutoCAD 2000
 90
        0
280
     0
281
     1
  0
CLASS
  1
XRECORD
  2
AcDbXrecord
  3
AutoCAD 2000
 90
        0
280
     0
281
     0
  0
ENDSEC
  0
SECTION
  2
TABLES
  0
TABLE
  2
VPORT
  5
7
330
0
100
AcDbSymbolTable
 70
     3
  0
VPORT
  5
3E4B
330
7
100
AcDbSymbolTableRecord
100
AcDbViewportTableRecord
  2
*ACTIVE
 70
     0
 10
0.0
 20
0.0
 11
1.0
 21
1.0
 12
200.0000029338454
 22
138.5000020746477
 13
0.0
 23
0.0
 14
1.0
 24
1.0
 15
0.0
 25
0.0
 16
0.0
 26
0.0
 36
1.0
 17
0.0
 27
0.0
 37
0.0
 40
299.3114573334317
 41
1.683053040103492
 42
50.0
 43
0.0
 44
0.0
 50
0.0
 51
0.0
 71
     0
 72
   100
 73
     1
 74
     1
 75
     0
 76
     0
 77
     0
 78
     0
  0
ENDTAB
  0
TABLE
  2
LTYPE
  5
4
330
0
100
AcDbSymbolTable
 70
     2
  0
LTYPE
  5
11
330
4
100
AcDbSymbolTableRecord
100
AcDbLinetypeTableRecord
  2
BYBLOCK
 70
     0
  3

 72
    65
 73
     0
 40
0.0
  0
LTYPE
  5
12
330
4
100
AcDbSymbolTableRecord
100
AcDbLinetypeTableRecord
  2
BYLAYER
 70
     0
  3

 72
    65
 73
     0
 40
0.0
  0
LTYPE
  5
13
330
4
100
AcDbSymbolTableRecord
100
AcDbLinetypeTableRecord
  2
CONTINUOUS
 70
     0
  3
Solid line
 72
    65
 73
     0
 40
0.0
  0
LTYPE
  5
3407
330
4
100
AcDbSymbolTableRecord
100
AcDbLinetypeTableRecord
  2
CENTER
 70
     0
  3
Center ____ _ ____ _ ____ _ ____ _ ____ _ ____
 72
    65
 73
     4
 40
50.8
 49
31.75
 74
     0
 49
-6.349999999999999
 74
     0
 49
6.349999999999999
 74
     0
 49
-6.349999999999999
 74
     0
  0
ENDTAB
  0
TABLE
  2
LAYER
  5
2
330
0
100
AcDbSymbolTable
 70
     6
  0
LAYER
  5
14
330
2
100
AcDbSymbolTableRecord
100
AcDbLayerTableRecord
  2
0
 70
     0
 62
     7
  6
CONTINUOUS
  0
LAYER
  5
32EF
330
2
100
AcDbSymbolTableRecord
100
AcDbLayerTableRecord
  2
DEFPOINTS
 70
     0
 62
     7
  6
CONTINUOUS
  0
LAYER
  5
340D
330
2
100
AcDbSymbolTableRecord
100
AcDbLayerTableRecord
  2
DIMENSIONS
 70
     0
 62
     2
  6
CONTINUOUS
  0
LAYER
  5
3412
330
2
100
AcDbSymbolTableRecord
100
AcDbLayerTableRecord
  2
SHAPE_OUTLINE_BOLD_LINE_
 70
     0
 62
     7
  6
CONTINUOUS
  0
LAYER
  5
3574
330
2
100
AcDbSymbolTableRecord
100
AcDbLayerTableRecord
  2
FILE_NAME
 70
     0
 62
     1
  6
CONTINUOUS
  0
LAYER
  5
36A1
330
2
100
AcDbSymbolTableRecord
100
AcDbLayerTableRecord
  2
CENTER
 70
     0
 62
     2
  6
CENTER
  0
ENDTAB
  0
TABLE
  2
STYLE
  5
3
330
0
100
AcDbSymbolTable
 70
     1
  0
STYLE
  5
17
330
3
100
AcDbSymbolTableRecord
100
AcDbTextStyleTableRecord
  2
STANDARD
 70
     0
 40
0.0
 41
1.0
 50
0.0
 71
     0
 42
0.0
  3
MS Gothic.ttf
  4

1001
ACAD
1000
MS Gothic
1071
    32817
  0
ENDTAB
  0
TABLE
  2
VIEW
  5
5
330
0
100
AcDbSymbolTable
 70
     0
  0
ENDTAB
  0
TABLE
  2
UCS
  5
6
330
0
100
AcDbSymbolTable
 70
     0
  0
ENDTAB
  0
TABLE
  2
APPID
  5
8
330
0
100
AcDbSymbolTable
 70
     3
  0
APPID
  5
16
330
8
100
AcDbSymbolTableRecord
100
AcDbRegAppTableRecord
  2
ACAD
 70
     0
  0
APPID
  5
3475
330
8
100
AcDbSymbolTableRecord
100
AcDbRegAppTableRecord
  2
DCO15
 70
     0
  0
APPID
  5
3621
330
8
100
AcDbSymbolTableRecord
100
AcDbRegAppTableRecord
  2
ADE
 70
     0
  0
ENDTAB
  0
TABLE
  2
DIMSTYLE
  5
9
330
0
100
AcDbSymbolTable
 70
     1
  0
DIMSTYLE
105
18
102
{ACAD_REACTORS
330
3AF3
330
3B0D
330
3B1A
330
3B27
330
3B34
330
3B5C
330
3BB1
330
3BBE
102
}
330
9
100
AcDbSymbolTableRecord
100
AcDbDimStyleTableRecord
  2
STANDARD
 70
     0
  3

  4

  5
OPEN30
  6

  7

 40
1.0
 41
2.0
 42
2.0
 43
0.5
 44
1.0
 45
0.0
 46
0.0
 47
0.0
 48
0.0
140
3.0
141
0.0
142
0.0
143
25.4
144
1.0
145
0.0
146
1.0
147
1.0
 71
     0
 72
     0
 73
     0
 74
     1
 75
     0
 76
     0
 77
     1
 78
     8
170
     0
171
     2
172
     0
173
     0
174
     1
175
     0
176
   256
177
   256
178
     3
270
     2
271
     1
272
     1
273
     2
274
     2
340
17
275
     0
280
     0
281
     0
282
     0
283
     1
284
     0
285
     0
286
     0
287
     5
288
     0
  0
ENDTAB
  0
TABLE
  2
BLOCK_RECORD
  5
1
330
0
100
AcDbSymbolTable
 70
    13
  0
BLOCK_RECORD
  5
A
102
{ACAD_XDICTIONARY
360
36A5
102
}
330
1
100
AcDbSymbolTableRecord
100
AcDbBlockTableRecord
  2
*MODEL_SPACE
  0
BLOCK_RECORD
  5
B
102
{ACAD_XDICTIONARY
360
3E6E
102
}
330
1
100
AcDbSymbolTableRecord
100
AcDbBlockTableRecord
  2
*PAPER_SPACE
  0
BLOCK_RECORD
  5
143A
330
1
100
AcDbSymbolTableRecord
100
AcDbBlockTableRecord
  2
_OPEN30
  0
BLOCK_RECORD
  5
3AF4
330
1
100
AcDbSymbolTableRecord
100
AcDbBlockTableRecord
  2
*D2
  0
BLOCK_RECORD
  5
3B0E
330
1
100
AcDbSymbolTableRecord
100
AcDbBlockTableRecord
  2
*D4
  0
BLOCK_RECORD
  5
3B1B
330
1
100
AcDbSymbolTableRecord
100
AcDbBlockTableRecord
  2
*D5
  0
BLOCK_RECORD
  5
3B28
330
1
100
AcDbSymbolTableRecord
100
AcDbBlockTableRecord
  2
*D6
  0
BLOCK_RECORD
  5
3B35
330
1
100
AcDbSymbolTableRecord
100
AcDbBlockTableRecord
  2
*D7
  0
BLOCK_RECORD
  5
3B5D
330
1
100
AcDbSymbolTableRecord
100
AcDbBlockTableRecord
  2
*D10
  0
BLOCK_RECORD
  5
3BB2
330
1
100
AcDbSymbolTableRecord
100
AcDbBlockTableRecord
  2
*D11
  0
BLOCK_RECORD
  5
3BBF
330
1
100
AcDbSymbolTableRecord
100
AcDbBlockTableRecord
  2
*D12
  0
ENDTAB
  0
ENDSEC
  0
SECTION
  2
BLOCKS
  0
BLOCK
  5
D
330
A
100
AcDbEntity
  8
0
100
AcDbBlockBegin
  2
*MODEL_SPACE
 70
     0
 10
0.0
 20
0.0
 30
0.0
  3
*MODEL_SPACE
  1

  0
ENDBLK
  5
E
330
A
100
AcDbEntity
  8
0
100
AcDbBlockEnd
  0
BLOCK
  5
F
330
B
100
AcDbEntity
 67
     1
  8
0
100
AcDbBlockBegin
  2
*PAPER_SPACE
 70
     0
 10
0.0
 20
0.0
 30
0.0
  3
*PAPER_SPACE
  1

  0
ENDBLK
  5
10
330
B
100
AcDbEntity
 67
     1
  8
0
100
AcDbBlockEnd
  0
BLOCK
  5
143B
330
143A
100
AcDbEntity
  8
0
 62
     0
100
AcDbBlockBegin
  2
_OPEN30
 70
     0
 10
0.0
 20
0.0
 30
0.0
  3
_OPEN30
  1

  0
LINE
  5
143C
330
143A
100
AcDbEntity
  8
0
  6
BYBLOCK
 62
     0
100
AcDbLine
 10
-1.0
 20
0.267949
 30
0.0
 11
0.0
 21
0.0
 31
0.0
  0
LINE
  5
143D
330
143A
100
AcDbEntity
  8
0
  6
BYBLOCK
 62
     0
100
AcDbLine
 10
0.0
 20
0.0
 30
0.0
 11
-1.0
 21
-0.267949
 31
0.0
  0
LINE
  5
143E
330
143A
100
AcDbEntity
  8
0
  6
BYBLOCK
 62
     0
100
AcDbLine
 10
0.0
 20
0.0
 30
0.0
 11
-1.0
 21
0.0
 31
0.0
  0
ENDBLK
  5
143F
330
143A
100
AcDbEntity
  8
0
 62
     0
100
AcDbBlockEnd
  0
BLOCK
  5
3AFE
330
3AF4
100
AcDbEntity
  8
0
100
AcDbBlockBegin
  2
*D2
 70
     1
 10
0.0
 20
0.0
 30
0.0
  3
*D2
  1

  0
LINE
  5
3DFC
330
3AF4
100
AcDbEntity
  8
DIMENSIONS
100
AcDbLine
 10
97.43265007985042
 20
265.702756926848
 30
0.0
 11
97.43265007985042
 21
271.2027569268479
 31
0.0
  0
LINE
  5
3DFD
330
3AF4
100
AcDbEntity
  8
DIMENSIONS
100
AcDbLine
 10
182.4293259715947
 20
265.702756926848
 30
0.0
 11
182.4293259715947
 21
271.2027569268479
 31
0.0
  0
LINE
  5
3DFE
330
3AF4
100
AcDbEntity
  8
DIMENSIONS
100
AcDbLine
 10
99.43265007985042
 20
270.202756926848
 30
0.0
 11
180.4293259715947
 21
270.202756926848
 31
0.0
  0
INSERT
  5
3DFF
330
3AF4
100
AcDbEntity
  8
DIMENSIONS
100
AcDbBlockReference
  2
_OPEN30
 10
97.43265007985042
 20
270.202756926848
 30
0.0
 41
2.0
 42
2.0
 43
2.0
 50
180.0
  0
INSERT
  5
3E00
330
3AF4
100
AcDbEntity
  8
DIMENSIONS
100
AcDbBlockReference
  2
_OPEN30
 10
182.4293259715947
 20
270.202756926848
 30
0.0
 41
2.0
 42
2.0
 43
2.0
  0
MTEXT
  5
3E01
330
3AF4
100
AcDbEntity
  8
DIMENSIONS
 62
     3
100
AcDbMText
 10
139.9309880257225
 20
272.946411749183
 30
0.0
 40
3.0
 41
0.0
 71
     5
 72
     1
  1
\A1;φ85
1001
ACAD
1000
MTEXTBEGIN
1070
    73
1070
     1
1070
    44
1040
1.0
1070
    74
1070
     0
1000
MTEXTEND
  0
POINT
  5
3E02
330
3AF4
100
AcDbEntity
  8
DEFPOINTS
 62
     0
100
AcDbPoint
 10
97.43265007985042
 20
263.702756926848
 30
0.0
  0
POINT
  5
3E03
330
3AF4
100
AcDbEntity
  8
DEFPOINTS
 62
     0
100
AcDbPoint
 10
182.4293259715947
 20
263.702756926848
 30
0.0
  0
POINT
  5
3E04
330
3AF4
100
AcDbEntity
  8
DEFPOINTS
 62
     0
100
AcDbPoint
 10
182.4293259715947
 20
270.202756926848
 30
0.0
  0
ENDBLK
  5
3AFF
330
3AF4
100
AcDbEntity
  8
0
100
AcDbBlockEnd
  0
BLOCK
  5
3B18
330
3B0E
100
AcDbEntity
  8
0
100
AcDbBlockBegin
  2
*D4
 70
     1
 10
0.0
 20
0.0
 30
0.0
  3
*D4
  1

  0
LINE
  5
3DEA
330
3B0E
100
AcDbEntity
  8
DIMENSIONS
100
AcDbLine
 10
54.42854794501858
 20
116.7044811904534
 30
0.0
 11
38.42854794501858
 21
116.7044811904534
 31
0.0
  0
LINE
  5
3DEB
330
3B0E
100
AcDbEntity
  8
DIMENSIONS
100
AcDbLine
 10
54.42854794501858
 20
66.70546028884984
 30
0.0
 11
38.42854794501857
 21
66.70546028884984
 31
0.0
  0
LINE
  5
3DEC
330
3B0E
100
AcDbEntity
  8
DIMENSIONS
100
AcDbLine
 10
39.42854794501858
 20
114.7044811904534
 30
0.0
 11
39.42854794501857
 21
68.70546028884985
 31
0.0
  0
MTEXT
  5
3DED
330
3B0E
100
AcDbEntity
  8
DIMENSIONS
 62
     3
100
AcDbMText
 10
36.68489312268354
 20
96.53927932747308
 30
0.0
 40
3.0
 41
0.0
 71
     5
 72
     1
  1
\A1;φ50
 11
0.0000000000000001
 21
1.0
 31
0.0
1001
ACAD
1000
MTEXTBEGIN
1070
    73
1070
     1
1070
    44
1040
1.0
1070
    74
1070
     0
1000
MTEXTEND
  0
INSERT
  5
3DEE
330
3B0E
100
AcDbEntity
  8
DIMENSIONS
100
AcDbBlockReference
  2
_OPEN30
 10
39.42854794501858
 20
116.7044811904534
 30
0.0
 41
2.0
 42
2.0
 43
2.0
 50
90.0
  0
INSERT
  5
3DEF
330
3B0E
100
AcDbEntity
  8
DIMENSIONS
100
AcDbBlockReference
  2
_OPEN30
 10
39.42854794501857
 20
66.70546028884984
 30
0.0
 41
2.0
 42
2.0
 43
2.0
 50
270.0
  0
POINT
  5
3DF0
330
3B0E
100
AcDbEntity
  8
DEFPOINTS
 62
     0
100
AcDbPoint
 10
56.42854794501857
 20
116.7044811904534
 30
0.0
  0
POINT
  5
3DF1
330
3B0E
100
AcDbEntity
  8
DEFPOINTS
 62
     0
100
AcDbPoint
 10
56.42854794501857
 20
66.70546028884984
 30
0.0
  0
POINT
  5
3DF2
330
3B0E
100
AcDbEntity
  8
DEFPOINTS
 62
     0
100
AcDbPoint
 10
39.42854794501857
 20
66.70546028884984
 30
0.0
  0
ENDBLK
  5
3B19
330
3B0E
100
AcDbEntity
  8
0
100
AcDbBlockEnd
  0
BLOCK
  5
3B25
330
3B1B
100
AcDbEntity
  8
0
100
AcDbBlockBegin
  2
*D5
 70
     1
 10
0.0
 20
0.0
 30
0.0
  3
*D5
  1

  0
LINE
  5
3DE1
330
3B1B
100
AcDbEntity
  8
DIMENSIONS
100
AcDbLine
 10
49.89231470330946
 20
91.59136320955813
 30
0.0
 11
31.42854794501857
 21
91.59136320955814
 31
0.0
  0
LINE
  5
3DE2
330
3B1B
100
AcDbEntity
  8
DIMENSIONS
100
AcDbLine
 10
95.8562795887334
 20
44.70789160415688
 30
0.0
 11
31.42854794501857
 21
44.7078916041569
 31
0.0
  0
LINE
  5
3DE3
330
3B1B
100
AcDbEntity
  8
DIMENSIONS
100
AcDbLine
 10
32.42854794501857
 20
89.59136320955812
 30
0.0
 11
32.42854794501856
 21
46.7078916041569
 31
0.0
  0
INSERT
  5
3DE4
330
3B1B
100
AcDbEntity
  8
DIMENSIONS
100
AcDbBlockReference
  2
_OPEN30
 10
32.42854794501857
 20
91.59136320955813
 30
0.0
 41
2.0
 42
2.0
 43
2.0
 50
90.0
  0
INSERT
  5
3DE5
330
3B1B
100
AcDbEntity
  8
DIMENSIONS
100
AcDbBlockReference
  2
_OPEN30
 10
32.42854794501856
 20
44.7078916041569
 30
0.0
 41
2.0
 42
2.0
 43
2.0
 50
270.0
  0
MTEXT
  5
3DE6
330
3B1B
100
AcDbEntity
  8
DIMENSIONS
 62
     3
100
AcDbMText
 10
29.92854794501856
 20
68.14962740685752
 30
0.0
 40
3.0
 41
0.0
 71
     5
 72
     1
  1
\A1;47
 11
0.0000000000000001
 21
1.0
 31
0.0
1001
ACAD
1000
MTEXTBEGIN
1070
    73
1070
     1
1070
    44
1040
1.0
1070
    74
1070
     0
1000
MTEXTEND
  0
POINT
  5
3DE7
330
3B1B
100
AcDbEntity
  8
DEFPOINTS
 62
     0
100
AcDbPoint
 10
51.89231470330947
 20
91.59136320955813
 30
0.0
  0
POINT
  5
3DE8
330
3B1B
100
AcDbEntity
  8
DEFPOINTS
 62
     0
100
AcDbPoint
 10
97.85627958873341
 20
44.70789160415688
 30
0.0
  0
POINT
  5
3DE9
330
3B1B
100
AcDbEntity
  8
DEFPOINTS
 62
     0
100
AcDbPoint
 10
32.42854794501856
 20
44.7078916041569
 30
0.0
  0
ENDBLK
  5
3B26
330
3B1B
100
AcDbEntity
  8
0
100
AcDbBlockEnd
  0
BLOCK
  5
3B32
330
3B28
100
AcDbEntity
  8
0
100
AcDbBlockBegin
  2
*D6
 70
     1
 10
0.0
 20
0.0
 30
0.0
  3
*D6
  1

  0
LINE
  5
3DD8
330
3B28
100
AcDbEntity
  8
DIMENSIONS
100
AcDbLine
 10
49.89231470330946
 20
91.59136320955813
 30
0.0
 11
31.42854794501857
 21
91.59136320955814
 31
0.0
  0
LINE
  5
3DD9
330
3B28
100
AcDbEntity
  8
DIMENSIONS
100
AcDbLine
 10
48.67728509069229
 20
193.5913632095581
 30
0.0
 11
31.4285479450186
 21
193.5913632095581
 31
0.0
  0
LINE
  5
3DDA
330
3B28
100
AcDbEntity
  8
DIMENSIONS
100
AcDbLine
 10
32.42854794501857
 20
93.59136320955812
 30
0.0
 11
32.4285479450186
 21
191.5913632095581
 31
0.0
  0
INSERT
  5
3DDB
330
3B28
100
AcDbEntity
  8
DIMENSIONS
100
AcDbBlockReference
  2
_OPEN30
 10
32.42854794501857
 20
91.59136320955813
 30
0.0
 41
2.0
 42
2.0
 43
2.0
 50
270.0
  0
INSERT
  5
3DDC
330
3B28
100
AcDbEntity
  8
DIMENSIONS
100
AcDbBlockReference
  2
_OPEN30
 10
32.4285479450186
 20
193.5913632095581
 30
0.0
 41
2.0
 42
2.0
 43
2.0
 50
90.0
  0
MTEXT
  5
3DDD
330
3B28
100
AcDbEntity
  8
DIMENSIONS
 62
     3
100
AcDbMText
 10
29.92854794501856
 20
142.5913632095581
 30
0.0
 40
3.0
 41
0.0
 71
     5
 72
     1
  1
\A1;102
 11
0.0000000000000001
 21
1.0
 31
0.0
1001
ACAD
1000
MTEXTBEGIN
1070
    73
1070
     1
1070
    44
1040
1.0
1070
    74
1070
     0
1000
MTEXTEND
  0
POINT
  5
3DDE
330
3B28
100
AcDbEntity
  8
DEFPOINTS
 62
     0
100
AcDbPoint
 10
51.89231470330947
 20
91.59136320955813
 30
0.0
  0
POINT
  5
3DDF
330
3B28
100
AcDbEntity
  8
DEFPOINTS
 62
     0
100
AcDbPoint
 10
50.6772850906923
 20
193.5913632095581
 30
0.0
  0
POINT
  5
3DE0
330
3B28
100
AcDbEntity
  8
DEFPOINTS
 62
     0
100
AcDbPoint
 10
32.4285479450186
 20
193.5913632095581
 30
0.0
  0
ENDBLK
  5
3B33
330
3B28
100
AcDbEntity
  8
0
100
AcDbBlockEnd
  0
BLOCK
  5
3B40
330
3B35
100
AcDbEntity
  8
0
100
AcDbBlockBegin
  2
*D7
 70
     1
 10
0.0
 20
0.0
 30
0.0
  3
*D7
  1

  0
LINE
  5
3DCE
330
3B35
100
AcDbEntity
  8
DIMENSIONS
100
AcDbLine
 10
56.42854794501857
 20
118.7044811904534
 30
0.0
 11
56.42854794501857
 21
127.7044811904534
 31
0.0
  0
LINE
  5
3DCF
330
3B35
100
AcDbEntity
  8
DIMENSIONS
100
AcDbLine
 10
59.43242359902538
 20
118.7044811904534
 30
0.0
 11
59.43242359902538
 21
127.7044811904534
 31
0.0
  0
LINE
  5
3DD0
330
3B35
100
AcDbEntity
  8
DIMENSIONS
100
AcDbLine
 10
54.42854794501858
 20
126.7044811904534
 30
0.0
 11
52.42854794501858
 21
126.7044811904534
 31
0.0
  0
LINE
  5
3DD1
330
3B35
100
AcDbEntity
  8
DIMENSIONS
100
AcDbLine
 10
61.43242359902538
 20
126.7044811904534
 30
0.0
 11
63.43242359902538
 21
126.7044811904534
 31
0.0
  0
INSERT
  5
3DD2
330
3B35
100
AcDbEntity
  8
DIMENSIONS
100
AcDbBlockReference
  2
_OPEN30
 10
56.42854794501857
 20
126.7044811904534
 30
0.0
 41
2.0
 42
2.0
 43
2.0
  0
INSERT
  5
3DD3
330
3B35
100
AcDbEntity
  8
DIMENSIONS
100
AcDbBlockReference
  2
_OPEN30
 10
59.43242359902538
 20
126.7044811904534
 30
0.0
 41
2.0
 42
2.0
 43
2.0
 50
180.0
  0
MTEXT
  5
3DD4
330
3B35
100
AcDbEntity
  8
DIMENSIONS
 62
     3
100
AcDbMText
 10
57.93048577202198
 20
129.2044811904534
 30
0.0
 40
3.0
 41
0.0
 71
     5
 72
     1
  1
\A1;3
1001
ACAD
1000
MTEXTBEGIN
1070
    73
1070
     1
1070
    44
1040
1.0
1070
    74
1070
     0
1000
MTEXTEND
  0
POINT
  5
3DD5
330
3B35
100
AcDbEntity
  8
DEFPOINTS
 62
     0
100
AcDbPoint
 10
56.42854794501857
 20
116.7044811904534
 30
0.0
  0
POINT
  5
3DD6
330
3B35
100
AcDbEntity
  8
DEFPOINTS
 62
     0
100
AcDbPoint
 10
59.43242359902538
 20
116.7044811904534
 30
0.0
  0
POINT
  5
3DD7
330
3B35
100
AcDbEntity
  8
DEFPOINTS
 62
     0
100
AcDbPoint
 10
59.43242359902538
 20
126.7044811904534
 30
0.0
  0
ENDBLK
  5
3B41
330
3B35
100
AcDbEntity
  8
0
100
AcDbBlockEnd
  0
BLOCK
  5
3B67
330
3B5D
100
AcDbEntity
  8
0
100
AcDbBlockBegin
  2
*D10
 70
     1
 10
0.0
 20
0.0
 30
0.0
  3
*D10
  1

  0
LINE
  5
3DB3
330
3B5D
100
AcDbEntity
  8
DIMENSIONS
100
AcDbLine
 10
56.42854794501857
 20
64.70546028884985
 30
0.0
 11
56.42854794501857
 21
28.99655270255539
 31
0.0
  0
LINE
  5
3DB4
330
3B5D
100
AcDbEntity
  8
DIMENSIONS
100
AcDbLine
 10
198.4285488312831
 20
53.20731246378404
 30
0.0
 11
198.4285488312831
 21
28.99655270255539
 31
0.0
  0
LINE
  5
3DB5
330
3B5D
100
AcDbEntity
  8
DIMENSIONS
100
AcDbLine
 10
58.42854794501858
 20
29.99655270255539
 30
0.0
 11
196.4285488312831
 21
29.99655270255539
 31
0.0
  0
INSERT
  5
3DB6
330
3B5D
100
AcDbEntity
  8
DIMENSIONS
100
AcDbBlockReference
  2
_OPEN30
 10
56.42854794501857
 20
29.99655270255539
 30
0.0
 41
2.0
 42
2.0
 43
2.0
 50
180.0
  0
INSERT
  5
3DB7
330
3B5D
100
AcDbEntity
  8
DIMENSIONS
100
AcDbBlockReference
  2
_OPEN30
 10
198.4285488312831
 20
29.99655270255539
 30
0.0
 41
2.0
 42
2.0
 43
2.0
  0
MTEXT
  5
3DB8
330
3B5D
100
AcDbEntity
  8
DIMENSIONS
 62
     3
100
AcDbMText
 10
127.4285483881508
 20
32.49655270255539
 30
0.0
 40
3.0
 41
0.0
 71
     5
 72
     1
  1
\A1;142
1001
ACAD
1000
MTEXTBEGIN
1070
    73
1070
     1
1070
    44
1040
1.0
1070
    74
1070
     0
1000
MTEXTEND
  0
POINT
  5
3DB9
330
3B5D
100
AcDbEntity
  8
DEFPOINTS
 62
     0
100
AcDbPoint
 10
56.42854794501857
 20
66.70546028884984
 30
0.0
  0
POINT
  5
3DBA
330
3B5D
100
AcDbEntity
  8
DEFPOINTS
 62
     0
100
AcDbPoint
 10
198.4285488312831
 20
55.20731246378403
 30
0.0
  0
POINT
  5
3DBB
330
3B5D
100
AcDbEntity
  8
DEFPOINTS
 62
     0
100
AcDbPoint
 10
198.4285488312831
 20
29.99655270255539
 30
0.0
  0
ENDBLK
  5
3B68
330
3B5D
100
AcDbEntity
  8
0
100
AcDbBlockEnd
  0
BLOCK
  5
3BBC
330
3BB2
100
AcDbEntity
  8
0
100
AcDbBlockBegin
  2
*D11
 70
     1
 10
0.0
 20
0.0
 30
0.0
  3
*D11
  1

  0
LINE
  5
3DAA
330
3BB2
100
AcDbEntity
  8
DIMENSIONS
100
AcDbLine
 10
313.5304241274859
 20
36.28421872962559
 30
0.0
 11
271.43137755427
 21
36.2842187296256
 31
0.0
  0
LINE
  5
3DAB
330
3BB2
100
AcDbEntity
  8
DIMENSIONS
100
AcDbLine
 10
280.43137755427
 20
265.281711187303
 30
0.0
 11
271.43137755427
 21
265.281711187303
 31
0.0
  0
LINE
  5
3DAC
330
3BB2
100
AcDbEntity
  8
DIMENSIONS
100
AcDbLine
 10
272.43137755427
 20
38.2842187296256
 30
0.0
 11
272.43137755427
 21
263.281711187303
 31
0.0
  0
INSERT
  5
3DAD
330
3BB2
100
AcDbEntity
  8
DIMENSIONS
100
AcDbBlockReference
  2
_OPEN30
 10
272.43137755427
 20
36.2842187296256
 30
0.0
 41
2.0
 42
2.0
 43
2.0
 50
270.0
  0
INSERT
  5
3DAE
330
3BB2
100
AcDbEntity
  8
DIMENSIONS
100
AcDbBlockReference
  2
_OPEN30
 10
272.43137755427
 20
265.281711187303
 30
0.0
 41
2.0
 42
2.0
 43
2.0
 50
90.0
  0
MTEXT
  5
3DAF
330
3BB2
100
AcDbEntity
  8
DIMENSIONS
 62
     3
100
AcDbMText
 10
269.9313775542699
 20
150.7829649584643
 30
0.0
 40
3.0
 41
0.0
 71
     5
 72
     1
  1
\A1;229
 11
0.0000000000000001
 21
1.0
 31
0.0
1001
ACAD
1000
MTEXTBEGIN
1070
    73
1070
     1
1070
    44
1040
1.0
1070
    74
1070
     0
1000
MTEXTEND
  0
POINT
  5
3DB0
330
3BB2
100
AcDbEntity
  8
DEFPOINTS
 62
     0
100
AcDbPoint
 10
315.5304241274859
 20
36.28421872962559
 30
0.0
  0
POINT
  5
3DB1
330
3BB2
100
AcDbEntity
  8
DEFPOINTS
 62
     0
100
AcDbPoint
 10
282.43137755427
 20
265.281711187303
 30
0.0
  0
POINT
  5
3DB2
330
3BB2
100
AcDbEntity
  8
DEFPOINTS
 62
     0
100
AcDbPoint
 10
272.43137755427
 20
265.281711187303
 30
0.0
  0
ENDBLK
  5
3BBD
330
3BB2
100
AcDbEntity
  8
0
100
AcDbBlockEnd
  0
BLOCK
  5
3BC9
330
3BBF
100
AcDbEntity
  8
0
100
AcDbBlockBegin
  2
*D12
 70
     1
 10
0.0
 20
0.0
 30
0.0
  3
*D12
  1

  0
LINE
  5
3DA1
330
3BBF
100
AcDbEntity
  8
DIMENSIONS
100
AcDbLine
 10
369.4306096061259
 20
46.28171118730301
 30
0.0
 11
378.4306096061258
 21
46.28171118730301
 31
0.0
  0
LINE
  5
3DA2
330
3BBF
100
AcDbEntity
  8
DIMENSIONS
100
AcDbLine
 10
369.4306096061259
 20
265.281711187303
 30
0.0
 11
378.4306096061259
 21
265.281711187303
 31
0.0
  0
LINE
  5
3DA3
330
3BBF
100
AcDbEntity
  8
DIMENSIONS
100
AcDbLine
 10
377.4306096061258
 20
48.28171118730301
 30
0.0
 11
377.4306096061259
 21
263.281711187303
 31
0.0
  0
INSERT
  5
3DA4
330
3BBF
100
AcDbEntity
  8
DIMENSIONS
100
AcDbBlockReference
  2
_OPEN30
 10
377.4306096061258
 20
46.28171118730301
 30
0.0
 41
2.0
 42
2.0
 43
2.0
 50
270.0
  0
INSERT
  5
3DA5
330
3BBF
100
AcDbEntity
  8
DIMENSIONS
100
AcDbBlockReference
  2
_OPEN30
 10
377.4306096061259
 20
265.281711187303
 30
0.0
 41
2.0
 42
2.0
 43
2.0
 50
90.0
  0
MTEXT
  5
3DA6
330
3BBF
100
AcDbEntity
  8
DIMENSIONS
 62
     3
100
AcDbMText
 10
374.9306096061258
 20
155.781711187303
 30
0.0
 40
3.0
 41
0.0
 71
     5
 72
     1
  1
\A1;219
 11
0.0000000000000001
 21
1.0
 31
0.0
1001
ACAD
1000
MTEXTBEGIN
1070
    73
1070
     1
1070
    44
1040
1.0
1070
    74
1070
     0
1000
MTEXTEND
  0
POINT
  5
3DA7
330
3BBF
100
AcDbEntity
  8
DEFPOINTS
 62
     0
100
AcDbPoint
 10
367.4306096061259
 20
46.28171118730302
 30
0.0
  0
POINT
  5
3DA8
330
3BBF
100
AcDbEntity
  8
DEFPOINTS
 62
     0
100
AcDbPoint
 10
367.4306096061259
 20
265.281711187303
 30
0.0
  0
POINT
  5
3DA9
330
3BBF
100
AcDbEntity
  8
DEFPOINTS
 62
     0
100
AcDbPoint
 10
377.4306096061259
 20
265.281711187303
 30
0.0
  0
ENDBLK
  5
3BCA
330
3BBF
100
AcDbEntity
  8
0
100
AcDbBlockEnd
  0
ENDSEC
  0
SECTION
  2
ENTITIES
  0
TEXT
  5
35F8
330
A
100
AcDbEntity
  8
FILE_NAME
  6
CONTINUOUS
100
AcDbText
 10
0.0
 20
10.0
 30
0.0
 40
5.0
  1
14-7045-02-004
 41
0.75
100
AcDbText
  0
TEXT
  5
3607
330
A
100
AcDbEntity
  8
FILE_NAME
  6
CONTINUOUS
100
AcDbText
 10
0.0
 20
0.0
 30
0.0
 40
5.0
  1
12-14704502-004_1
 41
0.75
100
AcDbText
  0
TEXT
  5
36B6
330
A
100
AcDbEntity
  8
FILE_NAME
  6
CONTINUOUS
100
AcDbText
 10
0.0
 20
20.0
 30
0.0
 40
5.0
  1
ソープディスペンサー 14-7045-02-004
 41
0.75
100
AcDbText
  0
LWPOLYLINE
  5
3975
330
A
100
AcDbEntity
  8
SHAPE_OUTLINE_BOLD_LINE_
100
AcDbPolyline
 90
       20
 70
     0
 43
0.0
 10
180.9813022563341
 20
56.70539676633694
 10
181.0095467077134
 20
58.20990193199481
 10
181.0095467077134
 20
58.20990193199481
 10
181.1199459960342
 20
60.0417446391807
 10
181.1199459960342
 20
60.0417446391807
 10
181.2945250245342
 20
61.7696119939535
 10
181.2945250245342
 20
61.7696119939535
 10
181.5153236011757
 20
63.3395861583893
 10
181.5153236011757
 20
63.3395861583893
 10
181.7566608870526
 20
64.71828055143834
 10
181.7566608870526
 20
64.71828055143834
 10
181.9877288183117
 20
65.83895927280889
 10
181.9877288183117
 20
65.83895927280889
 10
182.1828540084091
 20
66.71572964346734
 10
182.1828540084091
 20
66.71572964346734
 10
182.3317596503649
 20
67.32548934170495
 10
182.3317596503649
 20
67.32548934170495
 10
182.4164855521416
 20
67.65154507699651
 10
182.4164855521416
 20
67.65154507699651
 10
182.4216202294505
 20
67.66566730268625
  0
LWPOLYLINE
  5
3976
330
A
100
AcDbEntity
  8
SHAPE_OUTLINE_BOLD_LINE_
100
AcDbPolyline
 90
       30
 70
     0
 43
0.0
 10
97.85627958873341
 20
77.95969669040096
 10
98.16179661478981
 20
78.92247476907266
 10
98.16179661478981
 20
78.92247476907266
 10
98.51353318898715
 20
80.12530832738434
 10
98.51353318898715
 20
80.12530832738434
 10
98.96026501957885
 20
81.83263697292193
 10
98.96026501957885
 20
81.83263697292193
 10
99.39158536588264
 20
83.80184161357149
 10
99.39158536588264
 20
83.80184161357149
 10
99.74332194007992
 20
85.89299670339636
 10
99.74332194007992
 20
85.89299670339636
 10
100.0026343227186
 20
88.13177562894045
 10
100.0026343227186
 20
88.13177562894045
 10
100.1489763522011
 20
90.52973700342002
 10
100.1489763522011
 20
90.52973700342002
 10
100.1464052873656
 20
92.96107005422596
 10
100.1464052873656
 20
92.96107005422596
 10
99.98465922595688
 20
95.50152803947765
 10
99.98465922595688
 20
95.50152803947765
 10
99.68170581237387
 20
97.92002812319262
 10
99.68170581237387
 20
97.92002812319262
 10
99.27862246508817
 20
100.1434030168101
 10
99.27862246508817
 20
100.1434030168101
 10
98.82675595718758
 20
102.1177423347686
 10
98.82675595718758
 20
102.1177423347686
 10
98.39286454604877
 20
103.7121006271499
 10
98.39286454604877
 20
103.7121006271499
 10
98.00262161821605
 20
105.006076570784
 10
98.00262161821605
 20
105.006076570784
 10
97.85627958873341
 20
105.4528084013758
  0
LWPOLYLINE
  5
3977
330
A
100
AcDbEntity
  8
SHAPE_OUTLINE_BOLD_LINE_
100
AcDbPolyline
 90
       34
 70
     0
 43
0.0
 10
97.85627958873341
 20
178.5848551684241
 10
98.16179661478981
 20
179.5502043119312
 10
98.16179661478981
 20
179.5502043119312
 10
98.51353318898715
 20
180.7543196764799
 10
98.51353318898715
 20
180.7543196764799
 10
98.96026501957885
 20
182.4616408696555
 10
98.96026501957885
 20
182.4616408696555
 10
99.39158536588264
 20
184.4321347689039
 10
99.39158536588264
 20
184.4321347689039
 10
99.74332194007992
 20
186.5194369876565
 10
99.74332194007992
 20
186.5194369876565
 10
100.0026343227186
 20
188.7607869780358
 10
100.0026343227186
 20
188.7607869780358
 10
100.1489763522011
 20
191.160030158752
 10
100.1489763522011
 20
191.160030158752
 10
100.1464052873656
 20
193.5913632095581
 10
100.1464052873656
 20
193.5913632095581
 10
99.98465922595688
 20
196.1305319362113
 10
99.98465922595688
 20
196.1305319362113
 10
99.68170581237387
 20
198.5490320199263
 10
99.68170581237387
 20
198.5490320199263
 10
99.27862246508817
 20
200.7685614948333
 10
99.27862246508817
 20
200.7685614948333
 10
98.82675595718758
 20
202.7429008127918
 10
98.82675595718758
 20
202.7429008127918
 10
98.39286454604877
 20
204.3449648473174
 10
98.39286454604877
 20
204.3449648473174
 10
98.00262161821605
 20
205.6325168550442
 10
98.00262161821605
 20
205.6325168550442
 10
97.69966075227126
 20
206.5580703863175
 10
97.69966075227126
 20
206.5580703863175
 10
97.49940833722702
 20
207.1331691496298
 10
97.49940833722702
 20
207.1331691496298
 10
97.43265007985042
 20
207.328294339727
  0
LWPOLYLINE
  5
3978
330
A
100
AcDbEntity
  8
SHAPE_OUTLINE_BOLD_LINE_
100
AcDbPolyline
 90
       10
 70
     0
 43
0.0
 10
182.4164855521416
 20
112.7930345542971
 10
182.4036451326887
 20
112.8841769396192
 10
182.4036451326887
 20
112.8841769396192
 10
182.2624377805151
 20
113.7968900514395
 10
182.2624377805151
 20
113.7968900514395
 10
182.0750183325618
 20
115.3642931510399
 10
182.0750183325618
 20
115.3642931510399
 10
181.9158433359881
 20
117.4053832740133
 10
181.9158433359881
 20
117.4053832740133
 10
181.8490850786117
 20
119.705778327263
  0
LWPOLYLINE
  5
3979
330
A
100
AcDbEntity
  8
SHAPE_OUTLINE_BOLD_LINE_
100
AcDbPolyline
 90
       10
 70
     0
 43
0.0
 10
181.8490850786117
 20
144.7059334073644
 10
181.8824642072999
 20
146.3644788922869
 10
181.8824642072999
 20
146.3644788922869
 10
182.0236715594736
 20
148.5313723355075
 10
182.0236715594736
 20
148.5313723355075
 10
182.2162256847356
 20
150.251541400498
 10
182.2162256847356
 20
150.251541400498
 10
182.3728370688358
 20
151.3426864118906
 10
182.3728370688358
 20
151.3426864118906
 10
182.4293259715947
 20
151.6931411798513
  0
LWPOLYLINE
  5
397A
330
A
100
AcDbEntity
  8
SHAPE_OUTLINE_BOLD_LINE_
100
AcDbPolyline
 90
       20
 70
     0
 43
0.0
 10
65.43245426017128
 20
76.70680561759922
 10
65.45042935693306
 20
76.70936923007293
 10
65.45042935693306
 20
76.70936923007293
 10
65.68919557797454
 20
76.74531197123463
 10
65.68919557797454
 20
76.74531197123463
 10
66.18213950434588
 20
76.8120627762492
 10
66.18213950434588
 20
76.8120627762492
 10
66.86250287867008
 20
76.87624996879055
 10
66.86250287867008
 20
76.87624996879055
 10
67.65840021862428
 20
76.91348196855102
 10
67.65840021862428
 20
76.91348196855102
 10
68.49281136457538
 20
76.90705803264364
 10
68.49281136457538
 20
76.90705803264364
 10
69.27073360776737
 20
76.85442945331863
 10
69.27073360776737
 20
76.85442945331863
 10
69.89461553169457
 20
76.7851075834684
 10
69.89461553169457
 20
76.7851075834684
 10
70.29513526650697
 20
76.73118974554483
 10
70.29513526650697
 20
76.73118974554483
 10
70.43120794137198
 20
76.70680561759922
  0
LWPOLYLINE
  5
397E
330
A
100
AcDbEntity
  8
SHAPE_OUTLINE_BOLD_LINE_
100
AcDbPolyline
 90
        8
 70
     0
 43
0.0
 10
334.3636603553613
 20
63.88901153515792
 10
334.6088430599484
 20
63.50903050958089
 10
334.6088430599484
 20
63.50903050958089
 10
335.3354259824142
 20
61.85305608949352
 10
335.3354259824142
 20
61.85305608949352
 10
335.7795867481706
 20
60.09309141226913
 10
335.7795867481706
 20
60.09309141226913
 10
335.9310634549619
 20
58.28178741431845
  0
LWPOLYLINE
  5
397F
330
A
100
AcDbEntity
  8
SHAPE_OUTLINE_BOLD_LINE_
100
AcDbPolyline
 90
        8
 70
     0
 43
0.0
 10
313.929641899197
 20
58.28178741431845
 10
314.0336247039722
 20
59.79013799868631
 10
314.0336247039722
 20
59.79013799868631
 10
314.4482592121123
 20
61.61941709339913
 10
314.4482592121123
 20
61.61941709339913
 10
315.167136392434
 20
63.346002641935
 10
315.167136392434
 20
63.346002641935
 10
315.4662369349446
 20
63.82097147154462
  0
LWPOLYLINE
  5
3980
330
A
100
AcDbEntity
  8
SHAPE_OUTLINE_BOLD_LINE_
100
AcDbPolyline
 90
       20
 70
     0
 43
0.0
 10
331.92975623972
 20
121.280887169008
 10
331.882254885342
 20
120.4541817652009
 10
331.882254885342
 20
120.4541817652009
 10
331.2134426718721
 20
118.1935748718229
 10
331.2134426718721
 20
118.1935748718229
 10
329.8334664725866
 20
116.2847045526425
 10
329.8334664725866
 20
116.2847045526425
 10
327.9258779596427
 20
114.9573569326821
 10
327.9258779596427
 20
114.9573569326821
 10
325.6973683887165
 20
114.3232056541371
 10
325.6973683887165
 20
114.3232056541371
 10
323.355888464634
 20
114.4605601352386
 10
323.355888464634
 20
114.4605601352386
 10
321.1774438605592
 20
115.3719914408224
 10
321.1774438605592
 20
115.3719914408224
 10
319.4380178925703
 20
116.9445292177315
 10
319.4380178925703
 20
116.9445292177315
 10
318.318628429798
 20
118.9830557282313
 10
318.318628429798
 20
118.9830557282313
 10
317.9309491144389
 20
121.280887169008
  0
LWPOLYLINE
  5
3981
330
A
100
AcDbEntity
  8
SHAPE_OUTLINE_BOLD_LINE_
100
AcDbPolyline
 90
       20
 70
     0
 43
0.0
 10
317.9309491144389
 20
146.2823240553456
 10
318.131208981845
 20
147.9434406051038
 10
318.131208981845
 20
147.9434406051038
 10
319.0695954802094
 20
150.1103340483242
 10
319.0695954802094
 20
150.1103340483242
 10
320.6601083538805
 20
151.8292138547162
 10
320.6601083538805
 20
151.8292138547162
 10
322.7063331541628
 20
152.9216481247073
 10
322.7063331541628
 20
152.9216481247073
 10
325.0028827887025
 20
153.2798011824504
 10
325.0028827887025
 20
153.2798011824504
 10
327.3212529387142
 20
152.8625956094747
 10
327.3212529387142
 20
152.8625956094747
 10
329.3700488038316
 20
151.6957047923247
 10
329.3700488038316
 20
151.6957047923247
 10
330.9015091622702
 20
149.9357475674621
 10
330.9015091622702
 20
149.9357475674621
 10
331.7667209197122
 20
147.7855399624049
 10
331.7667209197122
 20
147.7855399624049
 10
331.92975623972
 20
146.2823240553456
  0
SPLINE
  5
3982
330
A
100
AcDbEntity
  8
SHAPE_OUTLINE_BOLD_LINE_
100
AcDbSpline
210
0.0
220
0.0
230
1.0
 70
     8
 71
     3
 72
     9
 73
     5
 74
     3
 42
0.0000000001
 43
0.0000000001
 44
0.00000000001
 40
0.0
 40
0.0
 40
0.0
 40
0.0
 40
1.529339992061908
 40
3.062867295939034
 40
3.062867295939034
 40
3.062867295939034
 40
3.062867295939034
 10
198.4285488312831
 20
70.20612059786873
 30
0.0
 10
198.3023289467316
 20
70.74603764604268
 30
0.0
 10
198.0495435893248
 20
71.82735002782539
 30
0.0
 10
196.9676536722852
 20
72.07890146758228
 30
0.0
 10
196.4259691762676
 20
72.204849138155
 30
0.0
 11
198.4285488312831
 21
70.20612059786873
 31
0.0
 11
197.8431793936628
 21
71.61899831119711
 31
0.0
 11
196.4259691762676
 21
72.204849138155
 31
0.0
  0
SPLINE
  5
3983
330
A
100
AcDbEntity
  8
SHAPE_OUTLINE_BOLD_LINE_
100
AcDbSpline
210
0.0
220
0.0
230
1.0
 70
     8
 71
     3
 72
     9
 73
     5
 74
     3
 42
0.0000000001
 43
0.0000000001
 44
0.00000000001
 40
0.0
 40
0.0
 40
0.0
 40
0.0
 40
1.533711272749728
 40
3.066164921696851
 40
3.066164921696851
 40
3.066164921696851
 40
3.066164921696851
 10
196.4259691762676
 20
53.20473280876831
 30
0.0
 10
196.9676810306192
 20
53.3308920178131
 30
0.0
 10
198.0506605424686
 20
53.58310698695044
 30
0.0
 10
198.3026205164659
 20
54.66605869999015
 30
0.0
 10
198.4285488312831
 20
55.20731246378403
 30
0.0
 11
196.4259691762676
 21
53.20473280876831
 31
0.0
 11
197.8431793936628
 21
53.79106502506738
 31
0.0
 11
198.4285488312831
 21
55.20731246378403
 31
0.0
  0
SPLINE
  5
3984
330
A
100
AcDbEntity
  8
SHAPE_OUTLINE_BOLD_LINE_
100
AcDbSpline
210
0.0
220
0.0
230
1.0
 70
     8
 71
     3
 72
     9
 73
     5
 74
     3
 42
0.0000000001
 43
0.0000000001
 44
0.00000000001
 40
0.0
 40
0.0
 40
0.0
 40
0.0
 40
3.365683691844123
 40
6.731694554813506
 40
6.731694554813506
 40
6.731694554813506
 40
6.731694554813506
 10
334.332849293097
 20
36.28421842881095
 30
0.0
 10
335.5090521327234
 20
36.51560996715449
 30
0.0
 10
337.8615721482126
 20
36.9784155369327
 30
0.0
 10
338.7773881014699
 20
39.19424580662027
 30
0.0
 10
339.2353183331588
 20
40.30221478791213
 30
0.0
 11
334.332849293097
 21
36.28421842881095
 31
0.0
 11
337.5023167086277
 21
37.4166066199516
 31
0.0
 11
339.2353183331588
 21
40.30221478791213
 31
0.0
  0
SPLINE
  5
3985
330
A
100
AcDbEntity
  8
SHAPE_OUTLINE_BOLD_LINE_
100
AcDbSpline
210
0.0
220
0.0
230
1.0
 70
     8
 71
     3
 72
     9
 73
     5
 74
     3
 42
0.0000000001
 43
0.0000000001
 44
0.00000000001
 40
0.0
 40
0.0
 40
0.0
 40
0.0
 40
3.365515274446832
 40
6.73210563143961
 40
6.73210563143961
 40
6.73210563143961
 40
6.73210563143961
 10
310.6279544793331
 20
40.30221478791213
 30
0.0
 10
311.085538314171
 20
39.19423693573836
 30
0.0
 10
312.0008521547463
 20
36.97792729817319
 30
0.0
 10
314.3537744813248
 20
36.51547933544983
 30
0.0
 10
315.5304235193939
 20
36.28421842881095
 30
0.0
 11
310.6279544793331
 21
40.30221478791213
 31
0.0
 11
312.3599933251834
 21
37.4166066199516
 31
0.0
 11
315.5304235193939
 21
36.28421842881095
 31
0.0
  0
CIRCLE
  5
3986
330
A
100
AcDbEntity
  8
SHAPE_OUTLINE_BOLD_LINE_
100
AcDbCircle
 10
324.9316382094971
 20
64.28438914029953
 30
0.0
 40
9.500054757115998
  0
LINE
  5
3987
330
A
100
AcDbEntity
  8
SHAPE_OUTLINE_BOLD_LINE_
100
AcDbLine
 10
97.43265007985042
 20
263.702756926848
 30
0.0
 11
97.43265007985042
 21
207.333429017036
 31
0.0
  0
LINE
  5
3988
330
A
100
AcDbEntity
  8
SHAPE_OUTLINE_BOLD_LINE_
100
AcDbLine
 10
182.4293259715947
 20
151.6931411798513
 30
0.0
 11
182.4293259715947
 21
263.702756926848
 31
0.0
  0
LINE
  5
3989
330
A
100
AcDbEntity
  8
SHAPE_OUTLINE_BOLD_LINE_
100
AcDbLine
 10
182.4293259715947
 20
67.66566730268625
 30
0.0
 11
182.4293259715947
 21
112.7930345542971
 31
0.0
  0
LINE
  5
398A
330
A
100
AcDbEntity
  8
SHAPE_OUTLINE_BOLD_LINE_
100
AcDbLine
 10
56.42854794501857
 20
167.3331823793464
 30
0.0
 11
59.43242359902535
 21
167.3331823793464
 31
0.0
  0
LINE
  5
398B
330
A
100
AcDbEntity
  8
SHAPE_OUTLINE_BOLD_LINE_
100
AcDbLine
 10
59.43242359902535
 20
217.3347743457855
 30
0.0
 11
56.42854794501857
 21
217.3347743457855
 31
0.0
  0
LINE
  5
398C
330
A
100
AcDbEntity
  8
SHAPE_OUTLINE_BOLD_LINE_
100
AcDbLine
 10
93.63032092577805
 20
76.70680561759922
 30
0.0
 11
97.85627958873341
 21
76.70680561759922
 31
0.0
  0
LINE
  5
398D
330
A
100
AcDbEntity
  8
SHAPE_OUTLINE_BOLD_LINE_
100
AcDbLine
 10
97.85627958873341
 20
106.7044176679403
 30
0.0
 11
93.63032092577805
 21
106.7044176679403
 31
0.0
  0
LINE
  5
398E
330
A
100
AcDbEntity
  8
SHAPE_OUTLINE_BOLD_LINE_
100
AcDbLine
 10
93.63032092577805
 20
177.3332459018595
 30
0.0
 11
97.85627958873341
 21
177.3332459018595
 31
0.0
  0
LINE
  5
398F
330
A
100
AcDbEntity
  8
SHAPE_OUTLINE_BOLD_LINE_
100
AcDbLine
 10
97.43265007985042
 20
207.333429017036
 30
0.0
 11
93.63032092577805
 21
207.333429017036
 31
0.0
  0
LINE
  5
3990
330
A
100
AcDbEntity
  8
SHAPE_OUTLINE_BOLD_LINE_
100
AcDbLine
 10
89.51219793866959
 20
76.70680561759922
 30
0.0
 11
93.43263212320715
 21
76.70680561759922
 31
0.0
  0
LINE
  5
3991
330
A
100
AcDbEntity
  8
SHAPE_OUTLINE_BOLD_LINE_
100
AcDbLine
 10
93.43263212320715
 20
106.7044176679403
 30
0.0
 11
87.68162958535867
 21
106.7044176679403
 31
0.0
  0
LINE
  5
3992
330
A
100
AcDbEntity
  8
SHAPE_OUTLINE_BOLD_LINE_
100
AcDbLine
 10
70.43120794137201
 20
177.3332459018595
 30
0.0
 11
93.43263212320715
 21
177.3332459018595
 31
0.0
  0
LINE
  5
3993
330
A
100
AcDbEntity
  8
SHAPE_OUTLINE_BOLD_LINE_
100
AcDbLine
 10
59.43242359902535
 20
177.3332459018595
 30
0.0
 11
70.43120794137201
 21
177.3332459018595
 31
0.0
  0
LINE
  5
3994
330
A
100
AcDbEntity
  8
SHAPE_OUTLINE_BOLD_LINE_
100
AcDbLine
 10
93.43263212320715
 20
207.333429017036
 30
0.0
 11
59.43242359902535
 21
207.333429017036
 31
0.0
  0
LINE
  5
3995
330
A
100
AcDbEntity
  8
SHAPE_OUTLINE_BOLD_LINE_
100
AcDbLine
 10
183.9312600724171
 20
53.20473176724863
 30
0.0
 11
196.4259716280425
 21
53.20473176724863
 31
0.0
  0
LINE
  5
3996
330
A
100
AcDbEntity
  8
SHAPE_OUTLINE_BOLD_LINE_
100
AcDbLine
 10
196.4259716280425
 20
72.20484873384214
 30
0.0
 11
183.9312600724171
 21
72.20484873384214
 31
0.0
  0
LINE
  5
3997
330
A
100
AcDbEntity
  8
SHAPE_OUTLINE_BOLD_LINE_
100
AcDbLine
 10
181.0403547715666
 20
58.706691277076
 30
0.0
 11
183.9312600724171
 21
58.706691277076
 31
0.0
  0
LINE
  5
3998
330
A
100
AcDbEntity
  8
SHAPE_OUTLINE_BOLD_LINE_
100
AcDbLine
 10
183.9312600724171
 20
66.70546028884984
 30
0.0
 11
182.1802829435738
 21
66.70546028884984
 31
0.0
  0
LINE
  5
3999
330
A
100
AcDbEntity
  8
SHAPE_OUTLINE_BOLD_LINE_
100
AcDbLine
 10
148.4291174474129
 20
44.70789160415688
 30
0.0
 11
148.4291174474129
 21
40.70658438891501
 31
0.0
  0
LINE
  5
399A
330
A
100
AcDbEntity
  8
SHAPE_OUTLINE_BOLD_LINE_
100
AcDbLine
 10
156.4317318778966
 20
40.70658438891501
 30
0.0
 11
156.4317318778966
 21
44.70789160415688
 31
0.0
  0
LINE
  5
399B
330
A
100
AcDbEntity
  8
SHAPE_OUTLINE_BOLD_LINE_
100
AcDbLine
 10
148.4291174474129
 20
40.70658438891501
 30
0.0
 11
151.8925504467407
 21
38.70785349064914
 31
0.0
  0
LINE
  5
399C
330
A
100
AcDbEntity
  8
SHAPE_OUTLINE_BOLD_LINE_
100
AcDbLine
 10
152.9657278137334
 20
38.70785349064914
 30
0.0
 11
156.4317318778966
 21
40.70658438891501
 31
0.0
  0
LINE
  5
399D
330
A
100
AcDbEntity
  8
SHAPE_OUTLINE_BOLD_LINE_
100
AcDbLine
 10
180.9813022563341
 20
56.70539676633694
 30
0.0
 11
180.9813022563341
 21
44.70789160415688
 31
0.0
  0
LINE
  5
399E
330
A
100
AcDbEntity
  8
SHAPE_OUTLINE_BOLD_LINE_
100
AcDbLine
 10
97.85627958873341
 20
44.70789160415688
 30
0.0
 11
180.9813022563341
 21
44.70789160415688
 31
0.0
  0
LINE
  5
399F
330
A
100
AcDbEntity
  8
SHAPE_OUTLINE_BOLD_LINE_
100
AcDbLine
 10
97.85627958873341
 20
77.95969669040096
 30
0.0
 11
97.85627958873341
 21
44.70789160415688
 31
0.0
  0
LINE
  5
39A0
330
A
100
AcDbEntity
  8
SHAPE_OUTLINE_BOLD_LINE_
100
AcDbLine
 10
97.85627958873341
 20
178.5848551684241
 30
0.0
 11
97.85627958873341
 21
105.4528084013758
 31
0.0
  0
LINE
  5
39A1
330
A
100
AcDbEntity
  8
SHAPE_OUTLINE_BOLD_LINE_
100
AcDbLine
 10
181.8490850786117
 20
144.7059334073644
 30
0.0
 11
181.8490850786117
 21
119.705778327263
 31
0.0
  0
LINE
  5
39A2
330
A
100
AcDbEntity
  8
SHAPE_OUTLINE_BOLD_LINE_
100
AcDbLine
 10
97.43265007985042
 20
263.702756926848
 30
0.0
 11
182.4293259715947
 21
263.702756926848
 31
0.0
  0
LINE
  5
39A3
330
A
100
AcDbEntity
  8
SHAPE_OUTLINE_BOLD_LINE_
100
AcDbLine
 10
56.42854794501857
 20
167.3331823793464
 30
0.0
 11
56.42854794501857
 21
217.3347743457855
 31
0.0
  0
LINE
  5
39A4
330
A
100
AcDbEntity
  8
SHAPE_OUTLINE_BOLD_LINE_
100
AcDbLine
 10
59.43242359902535
 20
167.3331823793464
 30
0.0
 11
59.43242359902535
 21
217.3347743457855
 31
0.0
  0
LINE
  5
39A5
330
A
100
AcDbEntity
  8
SHAPE_OUTLINE_BOLD_LINE_
100
AcDbLine
 10
128.4315614672226
 20
38.72453932881239
 30
0.0
 11
128.4315614672226
 21
44.70789160415688
 31
0.0
  0
LINE
  5
39A6
330
A
100
AcDbEntity
  8
SHAPE_OUTLINE_BOLD_LINE_
100
AcDbLine
 10
132.4290158113924
 20
38.72453932881239
 30
0.0
 11
132.4290158113924
 21
44.70789160415688
 31
0.0
  0
LINE
  5
39A7
330
A
100
AcDbEntity
  8
SHAPE_OUTLINE_BOLD_LINE_
100
AcDbLine
 10
93.63032092577805
 20
177.3332459018595
 30
0.0
 11
93.63032092577805
 21
207.333429017036
 31
0.0
  0
LINE
  5
39A8
330
A
100
AcDbEntity
  8
SHAPE_OUTLINE_BOLD_LINE_
100
AcDbLine
 10
70.43120794137201
 20
76.70680561759922
 30
0.0
 11
89.51219793866959
 21
76.70680561759922
 31
0.0
  0
LINE
  5
39A9
330
A
100
AcDbEntity
  8
SHAPE_OUTLINE_BOLD_LINE_
100
AcDbLine
 10
87.68162958535867
 20
106.7044176679403
 30
0.0
 11
59.43242359902535
 21
106.7044176679403
 31
0.0
  0
LINE
  5
39AA
330
A
100
AcDbEntity
  8
SHAPE_OUTLINE_BOLD_LINE_
100
AcDbLine
 10
59.43242359902535
 20
76.70680561759922
 30
0.0
 11
65.43245426017131
 21
76.70680561759922
 31
0.0
  0
LINE
  5
39AB
330
A
100
AcDbEntity
  8
SHAPE_OUTLINE_BOLD_LINE_
100
AcDbLine
 10
93.43263212320715
 20
177.3332459018595
 30
0.0
 11
93.43263212320715
 21
207.333429017036
 31
0.0
  0
LINE
  5
39AC
330
A
100
AcDbEntity
  8
SHAPE_OUTLINE_BOLD_LINE_
100
AcDbLine
 10
128.4315614672226
 20
34.70654627540733
 30
0.0
 11
132.4290158113924
 21
34.70654627540733
 31
0.0
  0
LINE
  5
39AD
330
A
100
AcDbEntity
  8
SHAPE_OUTLINE_BOLD_LINE_
100
AcDbLine
 10
128.4315614672226
 20
34.70654627540733
 30
0.0
 11
128.4315614672226
 21
38.72453932881239
 31
0.0
  0
LINE
  5
39AE
330
A
100
AcDbEntity
  8
SHAPE_OUTLINE_BOLD_LINE_
100
AcDbLine
 10
132.4290158113924
 20
34.70654627540733
 30
0.0
 11
132.4290158113924
 21
38.72453932881239
 31
0.0
  0
LINE
  5
39AF
330
A
100
AcDbEntity
  8
SHAPE_OUTLINE_BOLD_LINE_
100
AcDbLine
 10
198.4285479450185
 20
70.20611783557626
 30
0.0
 11
198.4285479450185
 21
55.20731553658652
 31
0.0
  0
LINE
  5
39B0
330
A
100
AcDbEntity
  8
SHAPE_OUTLINE_BOLD_LINE_
100
AcDbLine
 10
183.9312600724171
 20
72.20484873384214
 30
0.0
 11
183.9312600724171
 21
53.20473176724863
 31
0.0
  0
LINE
  5
39B1
330
A
100
AcDbEntity
  8
SHAPE_OUTLINE_BOLD_LINE_
100
AcDbLine
 10
148.4291174474129
 20
40.70658438891501
 30
0.0
 11
156.4317318778966
 21
40.70658438891501
 31
0.0
  0
LINE
  5
39B2
330
A
100
AcDbEntity
  8
SHAPE_OUTLINE_BOLD_LINE_
100
AcDbLine
 10
152.9657278137334
 20
38.70785349064914
 30
0.0
 11
151.8925504467407
 21
38.70785349064914
 31
0.0
  0
LINE
  5
39C9
330
A
100
AcDbEntity
  8
SHAPE_OUTLINE_BOLD_LINE_
100
AcDbLine
 10
59.43242359902535
 20
116.7044811904534
 30
0.0
 11
56.42854794501857
 21
116.7044811904534
 31
0.0
  0
LINE
  5
39D2
330
A
100
AcDbEntity
  8
SHAPE_OUTLINE_BOLD_LINE_
100
AcDbLine
 10
59.43242359902535
 20
66.70546028884984
 30
0.0
 11
59.43242359902535
 21
116.7044811904534
 31
0.0
  0
LINE
  5
39D3
330
A
100
AcDbEntity
  8
SHAPE_OUTLINE_BOLD_LINE_
100
AcDbLine
 10
56.42854794501857
 20
66.70546028884984
 30
0.0
 11
59.43242359902535
 21
66.70546028884984
 31
0.0
  0
LINE
  5
39D4
330
A
100
AcDbEntity
  8
SHAPE_OUTLINE_BOLD_LINE_
100
AcDbLine
 10
56.42854794501857
 20
116.7044811904534
 30
0.0
 11
56.42854794501857
 21
66.70546028884984
 31
0.0
  0
LINE
  5
39D8
330
A
100
AcDbEntity
  8
SHAPE_OUTLINE_BOLD_LINE_
100
AcDbLine
 10
282.43137755427
 20
265.281711187303
 30
0.0
 11
282.43137755427
 21
46.28171118730302
 31
0.0
  0
LINE
  5
39D9
330
A
100
AcDbEntity
  8
SHAPE_OUTLINE_BOLD_LINE_
100
AcDbLine
 10
367.4306096061259
 20
46.28171118730302
 30
0.0
 11
367.4306096061259
 21
265.281711187303
 31
0.0
  0
LINE
  5
39DA
330
A
100
AcDbEntity
  8
SHAPE_OUTLINE_BOLD_LINE_
100
AcDbLine
 10
320.9322537036102
 20
55.66559852803272
 30
0.0
 11
320.9322537036102
 21
42.28297503689629
 31
0.0
  0
LINE
  5
39DB
330
A
100
AcDbEntity
  8
SHAPE_OUTLINE_BOLD_LINE_
100
AcDbLine
 10
328.9310227153837
 20
42.28297503689629
 30
0.0
 11
328.9310227153837
 21
55.66559852803272
 31
0.0
  0
LINE
  5
39DC
330
A
100
AcDbEntity
  8
SHAPE_OUTLINE_BOLD_LINE_
100
AcDbLine
 10
320.9322537036102
 20
42.28297503689629
 30
0.0
 11
324.3956867029382
 21
40.28167307379533
 31
0.0
  0
LINE
  5
39DD
330
A
100
AcDbEntity
  8
SHAPE_OUTLINE_BOLD_LINE_
100
AcDbLine
 10
325.4663004574574
 20
40.28167307379533
 30
0.0
 11
328.9310227153837
 21
42.28297503689629
 31
0.0
  0
LINE
  5
39DE
330
A
100
AcDbEntity
  8
SHAPE_OUTLINE_BOLD_LINE_
100
AcDbLine
 10
335.9310634549619
 20
46.28171118730302
 30
0.0
 11
367.4306096061259
 21
46.28171118730302
 31
0.0
  0
LINE
  5
39DF
330
A
100
AcDbEntity
  8
SHAPE_OUTLINE_BOLD_LINE_
100
AcDbLine
 10
335.9310634549619
 20
46.28171118730302
 30
0.0
 11
335.9310634549619
 21
58.28178741431845
 31
0.0
  0
LINE
  5
39E0
330
A
100
AcDbEntity
  8
SHAPE_OUTLINE_BOLD_LINE_
100
AcDbLine
 10
313.929641899197
 20
58.28178741431845
 30
0.0
 11
313.929641899197
 21
46.28171118730302
 31
0.0
  0
LINE
  5
39E1
330
A
100
AcDbEntity
  8
SHAPE_OUTLINE_BOLD_LINE_
100
AcDbLine
 10
282.43137755427
 20
46.28171118730302
 30
0.0
 11
313.929641899197
 21
46.28171118730302
 31
0.0
  0
LINE
  5
39E2
330
A
100
AcDbEntity
  8
SHAPE_OUTLINE_BOLD_LINE_
100
AcDbLine
 10
317.9309491144389
 20
146.2823240553456
 30
0.0
 11
317.9309491144389
 21
121.280887169008
 31
0.0
  0
LINE
  5
39E3
330
A
100
AcDbEntity
  8
SHAPE_OUTLINE_BOLD_LINE_
100
AcDbLine
 10
331.92975623972
 20
121.280887169008
 30
0.0
 11
331.92975623972
 21
146.2823240553456
 31
0.0
  0
LINE
  5
39E4
330
A
100
AcDbEntity
  8
SHAPE_OUTLINE_BOLD_LINE_
100
AcDbLine
 10
282.43137755427
 20
265.281711187303
 30
0.0
 11
367.4306096061259
 21
265.281711187303
 31
0.0
  0
LINE
  5
39E5
330
A
100
AcDbEntity
  8
SHAPE_OUTLINE_BOLD_LINE_
100
AcDbLine
 10
324.9309973063789
 20
42.28297503689629
 30
0.0
 11
328.9310227153837
 21
42.28297503689629
 31
0.0
  0
LINE
  5
39E6
330
A
100
AcDbEntity
  8
SHAPE_OUTLINE_BOLD_LINE_
100
AcDbLine
 10
320.9322537036102
 20
42.28297503689629
 30
0.0
 11
324.9309973063789
 21
42.28297503689629
 31
0.0
  0
LINE
  5
39E7
330
A
100
AcDbEntity
  8
SHAPE_OUTLINE_BOLD_LINE_
100
AcDbLine
 10
324.9309973063789
 20
40.28167307379533
 30
0.0
 11
324.3956867029382
 21
40.28167307379533
 31
0.0
  0
LINE
  5
39E8
330
A
100
AcDbEntity
  8
SHAPE_OUTLINE_BOLD_LINE_
100
AcDbLine
 10
325.4663004574574
 20
40.28167307379533
 30
0.0
 11
324.9309973063789
 21
40.28167307379533
 31
0.0
  0
LINE
  5
39E9
330
A
100
AcDbEntity
  8
SHAPE_OUTLINE_BOLD_LINE_
100
AcDbLine
 10
340.4304492738838
 20
46.28171118730302
 30
0.0
 11
339.2353214577163
 21
40.3022117830306
 31
0.0
  0
LINE
  5
39EA
330
A
100
AcDbEntity
  8
SHAPE_OUTLINE_BOLD_LINE_
100
AcDbLine
 10
310.6279549612782
 20
40.3022117830306
 30
0.0
 11
309.430256080275
 21
46.28171118730302
 31
0.0
  0
LINE
  5
39EB
330
A
100
AcDbEntity
  8
SHAPE_OUTLINE_BOLD_LINE_
100
AcDbLine
 10
334.3328522915085
 20
36.28421872962559
 30
0.0
 11
315.5304241274859
 21
36.28421872962559
 31
0.0
  0
LINE
  5
39EC
330
A
100
AcDbEntity
  8
CENTER
100
AcDbLine
 10
118.6343214245894
 20
193.5913632095581
 30
0.0
 11
50.6772850906923
 21
193.5913632095581
 31
0.0
  0
LINE
  5
39ED
330
A
100
AcDbEntity
  8
CENTER
100
AcDbLine
 10
112.6702335046052
 20
91.59136320955813
 30
0.0
 11
51.89231470330947
 21
91.59136320955813
 31
0.0
  0
LINE
  5
39EE
330
A
100
AcDbEntity
  8
CENTER
100
AcDbLine
 10
324.9322791126155
 20
30.75730448198635
 30
0.0
 11
324.9322791126155
 21
271.6486004940982
 31
0.0
  0
LINE
  5
39EF
330
A
100
AcDbEntity
  8
CENTER
100
AcDbLine
 10
139.9335590905578
 20
38.79963024314236
 30
0.0
 11
139.9335590905578
 21
268.7294054914203
 31
0.0
  0
DIMENSION
  5
3AF3
330
A
100
AcDbEntity
  8
DIMENSIONS
100
AcDbDimension
  2
*D2
 10
182.4293259715947
 20
270.202756926848
 30
0.0
 11
139.9309880257225
 21
272.946411749183
 31
0.0
 70
    32
  1
φ<>
  3
STANDARD
100
AcDbAlignedDimension
 13
97.43265007985042
 23
263.702756926848
 33
0.0
 14
182.4293259715947
 24
263.702756926848
 34
0.0
100
AcDbRotatedDimension
  0
DIMENSION
  5
3B0D
330
A
100
AcDbEntity
  8
DIMENSIONS
100
AcDbDimension
  2
*D4
 10
39.42854794501857
 20
66.70546028884984
 30
0.0
 11
36.68489312268354
 21
96.53927932747308
 31
0.0
 70
   160
  1
φ<>
  3
STANDARD
100
AcDbAlignedDimension
 13
56.42854794501857
 23
116.7044811904534
 33
0.0
 14
56.42854794501857
 24
66.70546028884984
 34
0.0
 50
90.0
100
AcDbRotatedDimension
  0
DIMENSION
  5
3B1A
330
A
100
AcDbEntity
  8
DIMENSIONS
100
AcDbDimension
  2
*D5
 10
32.42854794501856
 20
44.7078916041569
 30
0.0
 11
29.92854794501856
 21
68.14962740685752
 31
0.0
 70
    32
  1
47
  3
STANDARD
100
AcDbAlignedDimension
 13
51.89231470330947
 23
91.59136320955813
 33
0.0
 14
97.85627958873341
 24
44.70789160415688
 34
0.0
 50
90.0
100
AcDbRotatedDimension
  0
DIMENSION
  5
3B27
330
A
100
AcDbEntity
  8
DIMENSIONS
100
AcDbDimension
  2
*D6
 10
32.4285479450186
 20
193.5913632095581
 30
0.0
 11
29.92854794501856
 21
142.5913632095581
 31
0.0
 70
    32
  3
STANDARD
100
AcDbAlignedDimension
 13
51.89231470330947
 23
91.59136320955813
 33
0.0
 14
50.6772850906923
 24
193.5913632095581
 34
0.0
 50
90.0
100
AcDbRotatedDimension
  0
DIMENSION
  5
3B34
330
A
100
AcDbEntity
  8
DIMENSIONS
100
AcDbDimension
  2
*D7
 10
59.43242359902538
 20
126.7044811904534
 30
0.0
 11
57.93048577202198
 21
129.2044811904534
 31
0.0
 70
    32
  3
STANDARD
100
AcDbAlignedDimension
 13
56.42854794501857
 23
116.7044811904534
 33
0.0
 14
59.43242359902538
 24
116.7044811904534
 34
0.0
100
AcDbRotatedDimension
  0
DIMENSION
  5
3B5C
330
A
100
AcDbEntity
  8
DIMENSIONS
100
AcDbDimension
  2
*D10
 10
198.4285488312831
 20
29.99655270255539
 30
0.0
 11
127.4285483881508
 21
32.49655270255539
 31
0.0
 70
    32
  3
STANDARD
100
AcDbAlignedDimension
 13
56.42854794501857
 23
66.70546028884984
 33
0.0
 14
198.4285488312831
 24
55.20731246378403
 34
0.0
100
AcDbRotatedDimension
  0
DIMENSION
  5
3BB1
330
A
100
AcDbEntity
  8
DIMENSIONS
100
AcDbDimension
  2
*D11
 10
272.43137755427
 20
265.281711187303
 30
0.0
 11
269.9313775542699
 21
150.7829649584643
 31
0.0
 70
    32
  3
STANDARD
100
AcDbAlignedDimension
 13
315.5304241274859
 23
36.28421872962559
 33
0.0
 14
282.43137755427
 24
265.281711187303
 34
0.0
 50
90.0
100
AcDbRotatedDimension
  0
DIMENSION
  5
3BBE
330
A
100
AcDbEntity
  8
DIMENSIONS
100
AcDbDimension
  2
*D12
 10
377.4306096061259
 20
265.281711187303
 30
0.0
 11
374.9306096061258
 21
155.781711187303
 31
0.0
 70
    32
  3
STANDARD
100
AcDbAlignedDimension
 13
367.4306096061259
 23
46.28171118730302
 33
0.0
 14
367.4306096061259
 24
265.281711187303
 34
0.0
 50
90.0
100
AcDbRotatedDimension
  0
LINE
  5
3E0A
330
A
100
AcDbEntity
  8
SHAPE_OUTLINE_BOLD_LINE_
100
AcDbLine
 10
93.63032092577803
 20
76.70423455276386
 30
0.0
 11
93.63032092577803
 21
106.7044176679403
 31
0.0
  0
LINE
  5
3E0B
330
A
100
AcDbEntity
  8
SHAPE_OUTLINE_BOLD_LINE_
100
AcDbLine
 10
93.43263212320714
 20
76.70423455276386
 30
0.0
 11
93.43263212320714
 21
106.7044176679403
 31
0.0
  0
ENDSEC
  0
SECTION
  2
OBJECTS
  0
DICTIONARY
  5
19
330
0
100
AcDbDictionary
  3
ACAD_GROUP
350
1A
  3
ACAD_LAYOUT
350
157A
  3
ACAD_MLINESTYLE
350
1B
  3
ACAD_PLOTSETTINGS
350
157B
  3
ACAD_PLOTSTYLENAME
350
1578
  3
ACDBHEADERROUNDTRIPXREC
350
3E4C
  3
ACDBVARIABLEDICTIONARY
350
3478
  3
ADE_QUERY_LIBRARY
350
3622
  3
ASE_INDEX_DICTIONARY
350
3D62
1001
ADE
1000
ADE02C004
1000
[Query]
1000
CaseSensitiveMatch=0
1000
SaveCurrQueryInSession=1
1000
MkSelSetWithQryObj=0
1000
ShowBlockAsInsPt=0
1000
CreateAssociativeHatchObjects=0
1000
ReferenceBoundaryForAreaLocation=1
1000
ShowImageAsBoundary=1
1000
DefaultJoinOperator=2
1000
ColorForAdd=red
1000
ColorForRemove=red
1000
BlockLocnForQuery=1
1000
TextLocnForQuery=1
1000
[Save Back]
1000
RedefineBlockDefinitions=1
1000
RedefineLayerDefinitions=1
1000
RedefineTextStyleDefinitions=1
1000
RemoveUnusedGroups=1
1000
EraseSavedBackObjects=1
1000
RemoveLockAfterSave=1
1000
CreateHistoryFileOfChanges=0
1000
CreateBackupFileOfSourceDwg=1
1000
DontAddObjectsToSaveSet=0
1000
MarkObjectsForEditingWithoutPrompting=0
1000
[Coordinate Transformation]
1000
RestoreLastActiveDwgsOnStartup=1
1000
ActivateDwgsOnAttach=1
1000
AdjustSizesAndScalesForChangesInUnits=1
1000
AdjustRotationsForMapDistortions=1
1000
AdjustSizesAndScalesForMapDistortions=1
1000
AdjustElevations=1
1000
AdjustZeroRotationObjects=1
1000
ReconnectDbOnWSOpen=1
1000
NoOfSQLConditionsInHistory=10
  0
DICTIONARY
  5
36A5
330
A
100
AcDbDictionary
280
     1
  3
ACAD_LAYOUTSELFREF
360
3E6D
  3
ACAD_SORTENTS
360
36A6
  0
DICTIONARY
  5
3E6E
330
B
100
AcDbDictionary
280
     1
  3
ACAD_LAYOUTSELFREF
360
3E6F
  0
DICTIONARY
  5
1A
102
{ACAD_REACTORS
330
19
102
}
330
19
100
AcDbDictionary
  0
DICTIONARY
  5
157A
102
{ACAD_REACTORS
330
19
102
}
330
19
100
AcDbDictionary
  0
DICTIONARY
  5
1B
102
{ACAD_REACTORS
330
19
102
}
330
19
100
AcDbDictionary
  3
STANDARD
350
1C
  0
DICTIONARY
  5
157B
102
{ACAD_REACTORS
330
19
102
}
330
19
100
AcDbDictionary
  0
ACDBDICTIONARYWDFLT
  5
1578
102
{ACAD_REACTORS
330
19
102
}
330
19
100
AcDbDictionary
281
     1
  3
Normal
350
1579
100
AcDbDictionaryWithDefault
340
1579
  0
DICTIONARY
  5
3E4C
102
{ACAD_REACTORS
330
19
102
}
330
19
100
AcDbDictionary
  3
CEPSNTYPE
350
3E56
  3
DIMSTYLEDATA
350
3E5A
  3
FINGERPRINTGUID
350
3E57
  3
HYPERLINKBASE
350
3E4F
  3
INSUNITS
350
3E55
  3
LAYOUTDICT
350
3E51
  3
LWETCUNION
350
3E54
  3
PLOTSETDICT
350
3E52
  3
PLOTSTYLNAMDICT
350
3E53
  3
PSVPSCALE
350
3E59
  3
PUCSBASE
350
3E5D
  3
PUCSORGBACK
350
3E63
  3
PUCSORGBOTTOM
350
3E5F
  3
PUCSORGFRONT
350
3E62
  3
PUCSORGLEFT
350
3E60
  3
PUCSORGRIGHT
350
3E61
  3
PUCSORGTOP
350
3E5E
  3
PUCSORTHOREF
350
3E5B
  3
PUCSORTHOVIEW
350
3E5C
  3
STYLESHEET
350
3E50
  3
TSTACKALIGN
350
3E4D
  3
TSTACKSIZE
350
3E4E
  3
UCSBASE
350
3E66
  3
UCSORGBACK
350
3E6C
  3
UCSORGBOTTOM
350
3E68
  3
UCSORGFRONT
350
3E6B
  3
UCSORGLEFT
350
3E69
  3
UCSORGRIGHT
350
3E6A
  3
UCSORGTOP
350
3E67
  3
UCSORTHOREF
350
3E64
  3
UCSORTHOVIEW
350
3E65
  3
VERSIONGUID
350
3E58
  0
DICTIONARY
  5
3478
102
{ACAD_REACTORS
330
19
102
}
330
19
100
AcDbDictionary
  3
DIMASSOC
350
3479
  3
SORTENTS
350
36A9
  0
DICTIONARY
  5
3622
102
{ACAD_REACTORS
330
19
102
}
330
19
100
AcDbDictionary
  3
_CURRQRY
350
3D64
  0
DICTIONARY
  5
3D62
102
{ACAD_REACTORS
330
19
102
}
330
19
100
AcDbDictionary
  3
ASEBLOCKHIERARCHYINDEXRECORD
350
3D63
1001
DCO15
1040
1577190276.233999
  0
XRECORD
  5
3E6D
102
{ACAD_REACTORS
330
36A5
102
}
330
36A5
100
AcDbXrecord
340
A
  0
SORTENTSTABLE
  5
36A6
102
{ACAD_REACTORS
330
36A5
102
}
330
36A5
100
AcDbSortentsTable
330
A
331
3607
  5
3634
331
35F8
  5
35FD
  0
XRECORD
  5
3E6F
102
{ACAD_REACTORS
330
3E6E
102
}
330
3E6E
100
AcDbXrecord
340
B
  0
MLINESTYLE
  5
1C
102
{ACAD_REACTORS
330
1B
102
}
330
1B
100
AcDbMlineStyle
  2
STANDARD
 70
     0
  3

 62
     0
 51
90.0
 52
90.0
 71
     2
 49
0.5
 62
   256
  6
BYLAYER
 49
-0.5
 62
   256
  6
BYLAYER
  0
ACDBPLACEHOLDER
  5
1579
102
{ACAD_REACTORS
330
1578
102
}
330
1578
100
AcDbPlaceHolder
280
     0
  0
XRECORD
  5
3E56
102
{ACAD_REACTORS
330
3E4C
102
}
330
3E4C
100
AcDbXrecord
 90
        0
  0
XRECORD
  5
3E5A
102
{ACAD_REACTORS
330
3E4C
102
}
330
3E4C
100
AcDbXrecord
1000
DSTYLE
1002
{
1070
   279
 70
     2
1070
   341
340
143A
1070
   342
340
143A
1070
   371
 70
    -1
1070
   372
 70
    -1
1002
}
  0
XRECORD
  5
3E57
102
{ACAD_REACTORS
330
3E4C
102
}
330
3E4C
100
AcDbXrecord
  1
{5653D33C-3AEF-40FE-8495-DE925CF19E35}
  0
XRECORD
  5
3E4F
102
{ACAD_REACTORS
330
3E4C
102
}
330
3E4C
100
AcDbXrecord
  1

  0
XRECORD
  5
3E55
102
{ACAD_REACTORS
330
3E4C
102
}
330
3E4C
100
AcDbXrecord
 90
        0
  0
XRECORD
  5
3E51
102
{ACAD_REACTORS
330
3E4C
102
}
330
3E4C
100
AcDbXrecord
340
157A
  0
XRECORD
  5
3E54
102
{ACAD_REACTORS
330
3E4C
102
}
330
3E4C
100
AcDbXrecord
 90
    10781
  0
XRECORD
  5
3E52
102
{ACAD_REACTORS
330
3E4C
102
}
330
3E4C
100
AcDbXrecord
340
157B
  0
XRECORD
  5
3E53
102
{ACAD_REACTORS
330
3E4C
102
}
330
3E4C
100
AcDbXrecord
340
1578
  0
XRECORD
  5
3E59
102
{ACAD_REACTORS
330
3E4C
102
}
330
3E4C
100
AcDbXrecord
 40
0.0
  0
XRECORD
  5
3E5D
102
{ACAD_REACTORS
330
3E4C
102
}
330
3E4C
100
AcDbXrecord
340
0
  0
XRECORD
  5
3E63
102
{ACAD_REACTORS
330
3E4C
102
}
330
3E4C
100
AcDbXrecord
 10
0.0
 20
0.0
 30
0.0
  0
XRECORD
  5
3E5F
102
{ACAD_REACTORS
330
3E4C
102
}
330
3E4C
100
AcDbXrecord
 10
0.0
 20
0.0
 30
0.0
  0
XRECORD
  5
3E62
102
{ACAD_REACTORS
330
3E4C
102
}
330
3E4C
100
AcDbXrecord
 10
0.0
 20
0.0
 30
0.0
  0
XRECORD
  5
3E60
102
{ACAD_REACTORS
330
3E4C
102
}
330
3E4C
100
AcDbXrecord
 10
0.0
 20
0.0
 30
0.0
  0
XRECORD
  5
3E61
102
{ACAD_REACTORS
330
3E4C
102
}
330
3E4C
100
AcDbXrecord
 10
0.0
 20
0.0
 30
0.0
  0
XRECORD
  5
3E5E
102
{ACAD_REACTORS
330
3E4C
102
}
330
3E4C
100
AcDbXrecord
 10
0.0
 20
0.0
 30
0.0
  0
XRECORD
  5
3E5B
102
{ACAD_REACTORS
330
3E4C
102
}
330
3E4C
100
AcDbXrecord
340
0
  0
XRECORD
  5
3E5C
102
{ACAD_REACTORS
330
3E4C
102
}
330
3E4C
100
AcDbXrecord
 70
     0
  0
XRECORD
  5
3E50
102
{ACAD_REACTORS
330
3E4C
102
}
330
3E4C
100
AcDbXrecord
  1
スガツネWeb_mono.ctb
  0
XRECORD
  5
3E4D
102
{ACAD_REACTORS
330
3E4C
102
}
330
3E4C
100
AcDbXrecord
 90
        1
  0
XRECORD
  5
3E4E
102
{ACAD_REACTORS
330
3E4C
102
}
330
3E4C
100
AcDbXrecord
 90
       70
  0
XRECORD
  5
3E66
102
{ACAD_REACTORS
330
3E4C
102
}
330
3E4C
100
AcDbXrecord
340
0
  0
XRECORD
  5
3E6C
102
{ACAD_REACTORS
330
3E4C
102
}
330
3E4C
100
AcDbXrecord
 10
0.0
 20
0.0
 30
0.0
  0
XRECORD
  5
3E68
102
{ACAD_REACTORS
330
3E4C
102
}
330
3E4C
100
AcDbXrecord
 10
0.0
 20
0.0
 30
0.0
  0
XRECORD
  5
3E6B
102
{ACAD_REACTORS
330
3E4C
102
}
330
3E4C
100
AcDbXrecord
 10
0.0
 20
0.0
 30
0.0
  0
XRECORD
  5
3E69
102
{ACAD_REACTORS
330
3E4C
102
}
330
3E4C
100
AcDbXrecord
 10
0.0
 20
0.0
 30
0.0
  0
XRECORD
  5
3E6A
102
{ACAD_REACTORS
330
3E4C
102
}
330
3E4C
100
AcDbXrecord
 10
0.0
 20
0.0
 30
0.0
  0
XRECORD
  5
3E67
102
{ACAD_REACTORS
330
3E4C
102
}
330
3E4C
100
AcDbXrecord
 10
0.0
 20
0.0
 30
0.0
  0
XRECORD
  5
3E64
102
{ACAD_REACTORS
330
3E4C
102
}
330
3E4C
100
AcDbXrecord
340
0
  0
XRECORD
  5
3E65
102
{ACAD_REACTORS
330
3E4C
102
}
330
3E4C
100
AcDbXrecord
 70
     0
  0
XRECORD
  5
3E58
102
{ACAD_REACTORS
330
3E4C
102
}
330
3E4C
100
AcDbXrecord
  1
{5F7A55EC-66C2-4CBD-8437-35CD05D42280}
  0
DICTIONARYVAR
  5
3479
102
{ACAD_REACTORS
330
3478
102
}
330
3478
100
DictionaryVariables
280
     0
  1
1
  0
DICTIONARYVAR
  5
36A9
102
{ACAD_REACTORS
330
3478
102
}
330
3478
100
DictionaryVariables
280
     0
  1
127
  0
XRECORD
  5
3D64
102
{ACAD_REACTORS
330
3622
102
}
330
3622
100
AcDbXrecord
1000
ADE02C001
1070
     1
1070
     0
1002
{
1002
}
1002
{
1002
}
1002
{
1002
}
1000

  0
XRECORD
  5
3D63
102
{ACAD_REACTORS
330
3D62
102
}
330
3D62
100
AcDbXrecord
330
3743
330
0
330
0
330
0
330
0
330
0
330
0
330
0
330
0
330
0
330
0
330
0
330
0
330
0
330
0
330
0
330
0
330
0
330
0
330
0
330
0
330
0
330
0
  0
ENDSEC
  0
EOF
