  0
SECTION
  2
HEADER
  9
$ACADVER
  1
AC1014
  9
$ACADMAINTVER
 70
     0
  9
$DWGCODEPAGE
  3
ANSI_932
  9
$INSBASE
 10
0.0
 20
0.0
 30
0.0
  9
$EXTMIN
 10
-20.0
 20
-20.0000000000001
 30
0.0
  9
$EXTMAX
 10
820.0000000000002
 20
573.9999999999999
 30
0.0
  9
$LIMMIN
 10
0.0
 20
0.0
  9
$LIMMAX
 10
0.0
 20
0.0
  9
$ORTHOMODE
 70
     0
  9
$REGENMODE
 70
     1
  9
$FILLMODE
 70
     1
  9
$QTEXTMODE
 70
     0
  9
$MIRRTEXT
 70
     1
  9
$DRAGMODE
 70
     2
  9
$LTSCALE
 40
0.2
  9
$OSMODE
 70
     0
  9
$ATTMODE
 70
     1
  9
$TEXTSIZE
 40
0.0
  9
$TRACEWID
 40
0.05
  9
$TEXTSTYLE
  7
STANDARD
  9
$CLAYER
  8
0
  9
$CELTYPE
  6
BYLAYER
  9
$CECOLOR
 62
   256
  9
$CELTSCALE
 40
1.0
  9
$DELOBJ
 70
     1
  9
$DISPSILH
 70
     0
  9
$DIMSCALE
 40
2.0
  9
$DIMASZ
 40
2.0
  9
$DIMEXO
 40
2.0
  9
$DIMDLI
 40
0.5
  9
$DIMRND
 40
0.0
  9
$DIMDLE
 40
0.0
  9
$DIMEXE
 40
1.0
  9
$DIMTP
 40
0.0
  9
$DIMTM
 40
0.0
  9
$DIMTXT
 40
3.0
  9
$DIMCEN
 40
0.0
  9
$DIMTSZ
 40
0.0
  9
$DIMTOL
 70
     0
  9
$DIMLIM
 70
     0
  9
$DIMTIH
 70
     0
  9
$DIMTOH
 70
     1
  9
$DIMSE1
 70
     0
  9
$DIMSE2
 70
     0
  9
$DIMTAD
 70
     1
  9
$DIMZIN
 70
     8
  9
$DIMBLK
  1
OPEN30
  9
$DIMASO
 70
     1
  9
$DIMSHO
 70
     1
  9
$DIMPOST
  1

  9
$DIMAPOST
  1

  9
$DIMALT
 70
     0
  9
$DIMALTD
 70
     2
  9
$DIMALTF
 40
25.4
  9
$DIMLFAC
 40
1.0
  9
$DIMTOFL
 70
     0
  9
$DIMTVP
 40
0.0
  9
$DIMTIX
 70
     1
  9
$DIMSOXD
 70
     0
  9
$DIMSAH
 70
     0
  9
$DIMBLK1
  1

  9
$DIMBLK2
  1

  9
$DIMSTYLE
  2
STANDARD
  9
$DIMCLRD
 70
   256
  9
$DIMCLRE
 70
   256
  9
$DIMCLRT
 70
     3
  9
$DIMTFAC
 40
1.0
  9
$DIMGAP
 40
1.0
  9
$DIMJUST
 70
     0
  9
$DIMSD1
 70
     0
  9
$DIMSD2
 70
     0
  9
$DIMTOLJ
 70
     1
  9
$DIMTZIN
 70
     0
  9
$DIMALTZ
 70
     0
  9
$DIMALTTZ
 70
     0
  9
$DIMFIT
 70
     5
  9
$DIMUPT
 70
     0
  9
$DIMUNIT
 70
     2
  9
$DIMDEC
 70
     1
  9
$DIMTDEC
 70
     1
  9
$DIMALTU
 70
     2
  9
$DIMALTTD
 70
     2
  9
$DIMTXSTY
  7
STANDARD
  9
$DIMAUNIT
 70
     0
  9
$LUNITS
 70
     2
  9
$LUPREC
 70
     4
  9
$SKETCHINC
 40
0.1
  9
$FILLETRAD
 40
0.0
  9
$AUNITS
 70
     0
  9
$AUPREC
 70
     0
  9
$MENU
  1
acad
  9
$ELEVATION
 40
0.0
  9
$PELEVATION
 40
0.0
  9
$THICKNESS
 40
0.0
  9
$LIMCHECK
 70
     0
  9
$BLIPMODE
 70
     0
  9
$CHAMFERA
 40
0.0
  9
$CHAMFERB
 40
0.0
  9
$CHAMFERC
 40
0.0
  9
$CHAMFERD
 40
0.0
  9
$SKPOLY
 70
     0
  9
$TDCREATE
 40
2312272.457674340
  9
$TDUPDATE
 40
2454126.779156898
  9
$TDINDWG
 40
0.1826886227
  9
$TDUSRTIMER
 40
0.1826880787
  9
$USRTIMER
 70
     1
  9
$ANGBASE
 50
0.0
  9
$ANGDIR
 70
     0
  9
$PDMODE
 70
     0
  9
$PDSIZE
 40
0.0
  9
$PLINEWID
 40
0.0
  9
$COORDS
 70
     2
  9
$SPLFRAME
 70
     0
  9
$SPLINETYPE
 70
     6
  9
$SPLINESEGS
 70
     8
  9
$ATTDIA
 70
     0
  9
$ATTREQ
 70
     1
  9
$HANDLING
 70
 22529
  9
$HANDSEED
  5
4365
  9
$SURFTAB1
 70
     6
  9
$SURFTAB2
 70
     6
  9
$SURFTYPE
 70
     6
  9
$SURFU
 70
     6
  9
$SURFV
 70
     6
  9
$UCSNAME
  2

  9
$UCSORG
 10
0.0
 20
0.0
 30
0.0
  9
$UCSXDIR
 10
1.0
 20
0.0
 30
0.0
  9
$UCSYDIR
 10
0.0
 20
1.0
 30
0.0
  9
$PUCSNAME
  2

  9
$PUCSORG
 10
0.0
 20
0.0
 30
0.0
  9
$PUCSXDIR
 10
1.0
 20
0.0
 30
0.0
  9
$PUCSYDIR
 10
0.0
 20
1.0
 30
0.0
  9
$USERI1
 70
     0
  9
$USERI2
 70
     0
  9
$USERI3
 70
     0
  9
$USERI4
 70
     0
  9
$USERI5
 70
     0
  9
$USERR1
 40
12.01
  9
$USERR2
 40
0.0
  9
$USERR3
 40
0.0
  9
$USERR4
 40
0.0
  9
$USERR5
 40
0.0
  9
$WORLDVIEW
 70
     1
  9
$SHADEDGE
 70
     3
  9
$SHADEDIF
 70
    70
  9
$TILEMODE
 70
     1
  9
$MAXACTVP
 70
    16
  9
$PINSBASE
 10
0.0
 20
0.0
 30
0.0
  9
$PLIMCHECK
 70
     0
  9
$PEXTMIN
 10
1.000000000000000E+20
 20
1.000000000000000E+20
 30
1.000000000000000E+20
  9
$PEXTMAX
 10
-1.000000000000000E+20
 20
-1.000000000000000E+20
 30
-1.000000000000000E+20
  9
$PLIMMIN
 10
0.0
 20
0.0
  9
$PLIMMAX
 10
12.0
 20
9.0
  9
$UNITMODE
 70
     0
  9
$VISRETAIN
 70
     0
  9
$PLINEGEN
 70
     1
  9
$PSLTSCALE
 70
     0
  9
$TREEDEPTH
 70
  3020
  9
$PICKSTYLE
 70
     1
  9
$CMLSTYLE
  2
STANDARD
  9
$CMLJUST
 70
     0
  9
$CMLSCALE
 40
1.0
  9
$PROXYGRAPHICS
 70
     0
  9
$MEASUREMENT
 70
     1
  0
ENDSEC
  0
SECTION
  2
CLASSES
  0
CLASS
  1
LWPOLYLINE
  2
AcDbPolyline
  3
AutoCAD 2000
 90
        0
280
     0
281
     1
  0
CLASS
  1
IMAGE
  2
AcDbRasterImage
  3
ISM
 90
      127
280
     0
281
     1
  0
CLASS
  1
OLE2FRAME
  2
AcDbOle2Frame
  3
AutoCAD 2000
 90
        0
280
     0
281
     1
  0
CLASS
  1
HATCH
  2
AcDbHatch
  3
AutoCAD 2000
 90
        0
280
     0
281
     1
  0
CLASS
  1
DICTIONARYVAR
  2
AcDbDictionaryVar
  3
AutoCAD 2000
 90
        0
280
     0
281
     0
  0
CLASS
  1
RASTERVARIABLES
  2
AcDbRasterVariables
  3
ISM
 90
        0
280
     0
281
     0
  0
CLASS
  1
IMAGEDEF
  2
AcDbRasterImageDef
  3
ISM
 90
        0
280
     0
281
     0
  0
CLASS
  1
IMAGEDEF_REACTOR
  2
AcDbRasterImageDefReactor
  3
ISM
 90
        1
280
     0
281
     0
  0
CLASS
  1
IDBUFFER
  2
AcDbIdBuffer
  3
AutoCAD 2000
 90
        0
280
     0
281
     0
  0
CLASS
  1
SPATIAL_FILTER
  2
AcDbSpatialFilter
  3
AutoCAD 2000
 90
        0
280
     0
281
     0
  0
CLASS
  1
XRECORD
  2
AcDbXrecord
  3
AutoCAD 2000
 90
        0
280
     0
281
     0
  0
CLASS
  1
SORTENTSTABLE
  2
AcDbSortentsTable
  3
AutoCAD 2000
 90
        0
280
     0
281
     0
  0
CLASS
  1
LAYER_INDEX
  2
AcDbLayerIndex
  3
AutoCAD 2000
 90
        0
280
     0
281
     0
  0
CLASS
  1
SPATIAL_INDEX
  2
AcDbSpatialIndex
  3
AutoCAD 2000
 90
        0
280
     0
281
     0
  0
CLASS
  1
OBJECT_PTR
  2
CAseDLPNTableRecord
  3
ASE-LPNTableRecord
 90
        1
280
     0
281
     0
  0
CLASS
  1
LAYOUT
  2
AcDbLayout
  3
AutoCAD 2000
 90
        0
280
     0
281
     0
  0
CLASS
  1
PLOTSETTINGS
  2
AcDbPlotSettings
  3
AutoCAD 2000
 90
        0
280
     0
281
     0
  0
CLASS
  1
ACDBDICTIONARYWDFLT
  2
AcDbDictionaryWithDefault
  3
AutoCAD 2000
 90
        0
280
     0
281
     0
  0
CLASS
  1
ACDBPLACEHOLDER
  2
AcDbPlaceHolder
  3
AutoCAD 2000
 90
        0
280
     0
281
     0
  0
CLASS
  1
LONG_TRANSACTION
  2
AcDbLongTransaction
  3
AutoCAD 2000
 90
        0
280
     0
281
     0
  0
CLASS
  1
LWPOLYLINE
  2
AcDbPolyline
  3
AutoCAD 2000
 90
        0
280
     0
281
     1
  0
CLASS
  1
HATCH
  2
AcDbHatch
  3
AutoCAD 2000
 90
        0
280
     0
281
     1
  0
CLASS
  1
XRECORD
  2
AcDbXrecord
  3
AutoCAD 2000
 90
        0
280
     0
281
     0
  0
ENDSEC
  0
SECTION
  2
TABLES
  0
TABLE
  2
VPORT
  5
7
330
0
100
AcDbSymbolTable
 70
     3
  0
VPORT
  5
4340
330
7
100
AcDbSymbolTableRecord
100
AcDbViewportTableRecord
  2
*ACTIVE
 70
     0
 10
0.0
 20
0.0
 11
1.0
 21
1.0
 12
400.0000019557775
 22
277.0000013830141
 13
0.0
 23
0.0
 14
1.0
 24
1.0
 15
0.0
 25
0.0
 16
0.0
 26
0.0
 36
1.0
 17
0.0
 27
0.0
 37
0.0
 40
598.641187091249
 41
1.683053040103492
 42
50.0
 43
0.0
 44
0.0
 50
0.0
 51
0.0
 71
     0
 72
   100
 73
     1
 74
     1
 75
     0
 76
     0
 77
     0
 78
     0
  0
ENDTAB
  0
TABLE
  2
LTYPE
  5
4
330
0
100
AcDbSymbolTable
 70
     3
  0
LTYPE
  5
11
330
4
100
AcDbSymbolTableRecord
100
AcDbLinetypeTableRecord
  2
BYBLOCK
 70
     0
  3

 72
    65
 73
     0
 40
0.0
  0
LTYPE
  5
12
330
4
100
AcDbSymbolTableRecord
100
AcDbLinetypeTableRecord
  2
BYLAYER
 70
     0
  3

 72
    65
 73
     0
 40
0.0
  0
LTYPE
  5
13
330
4
100
AcDbSymbolTableRecord
100
AcDbLinetypeTableRecord
  2
CONTINUOUS
 70
     0
  3
Solid line
 72
    65
 73
     0
 40
0.0
  0
LTYPE
  5
1D
330
4
100
AcDbSymbolTableRecord
100
AcDbLinetypeTableRecord
  2
DASHED
 70
     0
  3
Dashed
 72
    65
 73
     2
 40
15.0
 49
7.0
 74
     0
 49
-8.0
 74
     0
  0
LTYPE
  5
3407
330
4
100
AcDbSymbolTableRecord
100
AcDbLinetypeTableRecord
  2
CENTER
 70
     0
  3
Center ____ _ ____ _ ____ _ ____ _ ____ _ ____
 72
    65
 73
     4
 40
50.8
 49
31.75
 74
     0
 49
-6.349999999999999
 74
     0
 49
6.349999999999999
 74
     0
 49
-6.349999999999999
 74
     0
  0
ENDTAB
  0
TABLE
  2
LAYER
  5
2
330
0
100
AcDbSymbolTable
 70
     7
  0
LAYER
  5
14
330
2
100
AcDbSymbolTableRecord
100
AcDbLayerTableRecord
  2
0
 70
     0
 62
     7
  6
CONTINUOUS
  0
LAYER
  5
32EF
330
2
100
AcDbSymbolTableRecord
100
AcDbLayerTableRecord
  2
DEFPOINTS
 70
     0
 62
     7
  6
CONTINUOUS
  0
LAYER
  5
340D
330
2
100
AcDbSymbolTableRecord
100
AcDbLayerTableRecord
  2
DIMENSIONS
 70
     0
 62
     2
  6
CONTINUOUS
  0
LAYER
  5
3412
330
2
100
AcDbSymbolTableRecord
100
AcDbLayerTableRecord
  2
SHAPE_OUTLINE_BOLD_LINE_
 70
     0
 62
     7
  6
CONTINUOUS
  0
LAYER
  5
341C
330
2
100
AcDbSymbolTableRecord
100
AcDbLayerTableRecord
  2
SHAPE_OUTLINE_THIN_LINE_
 70
     0
 62
     2
  6
CONTINUOUS
  0
LAYER
  5
3574
330
2
100
AcDbSymbolTableRecord
100
AcDbLayerTableRecord
  2
FILE_NAME
 70
     0
 62
     1
  6
CONTINUOUS
  0
LAYER
  5
36A1
330
2
100
AcDbSymbolTableRecord
100
AcDbLayerTableRecord
  2
CENTER
 70
     0
 62
     2
  6
CENTER
  0
ENDTAB
  0
TABLE
  2
STYLE
  5
3
330
0
100
AcDbSymbolTable
 70
     1
  0
STYLE
  5
17
330
3
100
AcDbSymbolTableRecord
100
AcDbTextStyleTableRecord
  2
STANDARD
 70
     0
 40
0.0
 41
1.0
 50
0.0
 71
     0
 42
0.0
  3
MS Gothic.ttf
  4

1001
ACAD
1000
MS Gothic
1071
    32817
  0
ENDTAB
  0
TABLE
  2
VIEW
  5
5
330
0
100
AcDbSymbolTable
 70
     0
  0
ENDTAB
  0
TABLE
  2
UCS
  5
6
330
0
100
AcDbSymbolTable
 70
     0
  0
ENDTAB
  0
TABLE
  2
APPID
  5
8
330
0
100
AcDbSymbolTable
 70
     3
  0
APPID
  5
16
330
8
100
AcDbSymbolTableRecord
100
AcDbRegAppTableRecord
  2
ACAD
 70
     0
  0
APPID
  5
3475
330
8
100
AcDbSymbolTableRecord
100
AcDbRegAppTableRecord
  2
DCO15
 70
     0
  0
APPID
  5
3621
330
8
100
AcDbSymbolTableRecord
100
AcDbRegAppTableRecord
  2
ADE
 70
     0
  0
ENDTAB
  0
TABLE
  2
DIMSTYLE
  5
9
330
0
100
AcDbSymbolTable
 70
     1
  0
DIMSTYLE
105
18
102
{ACAD_REACTORS
330
3E36
330
3E29
330
3E1C
330
3E0F
330
3E02
330
3DF5
330
3DAB
330
3D9D
330
3D90
330
3D83
330
3D76
330
3D69
330
3D5C
330
3D4F
102
}
330
9
100
AcDbSymbolTableRecord
100
AcDbDimStyleTableRecord
  2
STANDARD
 70
     0
  3

  4

  5
OPEN30
  6

  7

 40
2.0
 41
2.0
 42
2.0
 43
0.5
 44
1.0
 45
0.0
 46
0.0
 47
0.0
 48
0.0
140
3.0
141
0.0
142
0.0
143
25.4
144
1.0
145
0.0
146
1.0
147
1.0
 71
     0
 72
     0
 73
     0
 74
     1
 75
     0
 76
     0
 77
     1
 78
     8
170
     0
171
     2
172
     0
173
     0
174
     1
175
     0
176
   256
177
   256
178
     3
270
     2
271
     1
272
     1
273
     2
274
     2
340
17
275
     0
280
     0
281
     0
282
     0
283
     1
284
     0
285
     0
286
     0
287
     5
288
     0
  0
ENDTAB
  0
TABLE
  2
BLOCK_RECORD
  5
1
330
0
100
AcDbSymbolTable
 70
    16
  0
BLOCK_RECORD
  5
A
102
{ACAD_XDICTIONARY
360
36A5
102
}
330
1
100
AcDbSymbolTableRecord
100
AcDbBlockTableRecord
  2
*MODEL_SPACE
  0
BLOCK_RECORD
  5
B
102
{ACAD_XDICTIONARY
360
4363
102
}
330
1
100
AcDbSymbolTableRecord
100
AcDbBlockTableRecord
  2
*PAPER_SPACE
  0
BLOCK_RECORD
  5
143A
330
1
100
AcDbSymbolTableRecord
100
AcDbBlockTableRecord
  2
_OPEN30
  0
BLOCK_RECORD
  5
3D50
330
1
100
AcDbSymbolTableRecord
100
AcDbBlockTableRecord
  2
*D2
  0
BLOCK_RECORD
  5
3D5D
330
1
100
AcDbSymbolTableRecord
100
AcDbBlockTableRecord
  2
*D3
  0
BLOCK_RECORD
  5
3D6A
330
1
100
AcDbSymbolTableRecord
100
AcDbBlockTableRecord
  2
*D4
  0
BLOCK_RECORD
  5
3D77
330
1
100
AcDbSymbolTableRecord
100
AcDbBlockTableRecord
  2
*D5
  0
BLOCK_RECORD
  5
3D84
330
1
100
AcDbSymbolTableRecord
100
AcDbBlockTableRecord
  2
*D6
  0
BLOCK_RECORD
  5
3D91
330
1
100
AcDbSymbolTableRecord
100
AcDbBlockTableRecord
  2
*D7
  0
BLOCK_RECORD
  5
3D9E
330
1
100
AcDbSymbolTableRecord
100
AcDbBlockTableRecord
  2
*D8
  0
BLOCK_RECORD
  5
3DAC
330
1
100
AcDbSymbolTableRecord
100
AcDbBlockTableRecord
  2
*D9
  0
BLOCK_RECORD
  5
3DF6
330
1
100
AcDbSymbolTableRecord
100
AcDbBlockTableRecord
  2
*D10
  0
BLOCK_RECORD
  5
3E03
330
1
100
AcDbSymbolTableRecord
100
AcDbBlockTableRecord
  2
*D11
  0
BLOCK_RECORD
  5
3E10
330
1
100
AcDbSymbolTableRecord
100
AcDbBlockTableRecord
  2
*D12
  0
BLOCK_RECORD
  5
3E1D
330
1
100
AcDbSymbolTableRecord
100
AcDbBlockTableRecord
  2
*D13
  0
BLOCK_RECORD
  5
3E2A
330
1
100
AcDbSymbolTableRecord
100
AcDbBlockTableRecord
  2
*D14
  0
BLOCK_RECORD
  5
3E37
330
1
100
AcDbSymbolTableRecord
100
AcDbBlockTableRecord
  2
*D15
  0
ENDTAB
  0
ENDSEC
  0
SECTION
  2
BLOCKS
  0
BLOCK
  5
D
330
A
100
AcDbEntity
  8
0
100
AcDbBlockBegin
  2
*MODEL_SPACE
 70
     0
 10
0.0
 20
0.0
 30
0.0
  3
*MODEL_SPACE
  1

  0
ENDBLK
  5
E
330
A
100
AcDbEntity
  8
0
100
AcDbBlockEnd
  0
BLOCK
  5
F
330
B
100
AcDbEntity
 67
     1
  8
0
100
AcDbBlockBegin
  2
*PAPER_SPACE
 70
     0
 10
0.0
 20
0.0
 30
0.0
  3
*PAPER_SPACE
  1

  0
ENDBLK
  5
10
330
B
100
AcDbEntity
 67
     1
  8
0
100
AcDbBlockEnd
  0
BLOCK
  5
143B
330
143A
100
AcDbEntity
  8
0
 62
     0
100
AcDbBlockBegin
  2
_OPEN30
 70
     0
 10
0.0
 20
0.0
 30
0.0
  3
_OPEN30
  1

  0
LINE
  5
143C
330
143A
100
AcDbEntity
  8
0
  6
BYBLOCK
 62
     0
100
AcDbLine
 10
-1.0
 20
0.267949
 30
0.0
 11
0.0
 21
0.0
 31
0.0
  0
LINE
  5
143D
330
143A
100
AcDbEntity
  8
0
  6
BYBLOCK
 62
     0
100
AcDbLine
 10
0.0
 20
0.0
 30
0.0
 11
-1.0
 21
-0.267949
 31
0.0
  0
LINE
  5
143E
330
143A
100
AcDbEntity
  8
0
  6
BYBLOCK
 62
     0
100
AcDbLine
 10
0.0
 20
0.0
 30
0.0
 11
-1.0
 21
0.0
 31
0.0
  0
ENDBLK
  5
143F
330
143A
100
AcDbEntity
  8
0
 62
     0
100
AcDbBlockEnd
  0
BLOCK
  5
3D5A
330
3D50
100
AcDbEntity
  8
0
100
AcDbBlockBegin
  2
*D2
 70
     1
 10
0.0
 20
0.0
 30
0.0
  3
*D2
  1

  0
LINE
  5
3F3E
330
3D50
100
AcDbEntity
  8
DIMENSIONS
100
AcDbLine
 10
110.776107866607
 20
372.8949562831774
 30
0.0
 11
110.776107866607
 21
400.8949562831774
 31
0.0
  0
LINE
  5
3F3F
330
3D50
100
AcDbEntity
  8
DIMENSIONS
100
AcDbLine
 10
123.7761078666071
 20
386.096716825296
 30
0.0
 11
123.7761078666071
 21
400.8949562831774
 31
0.0
  0
LINE
  5
3F40
330
3D50
100
AcDbEntity
  8
DIMENSIONS
100
AcDbLine
 10
114.7761078666071
 20
398.8949562831774
 30
0.0
 11
119.7761078666071
 21
398.8949562831774
 31
0.0
  0
INSERT
  5
3F41
330
3D50
100
AcDbEntity
  8
DIMENSIONS
100
AcDbBlockReference
  2
_OPEN30
 10
110.776107866607
 20
398.8949562831774
 30
0.0
 41
4.0
 42
4.0
 43
4.0
 50
180.0
  0
INSERT
  5
3F42
330
3D50
100
AcDbEntity
  8
DIMENSIONS
100
AcDbBlockReference
  2
_OPEN30
 10
123.7761078666071
 20
398.8949562831774
 30
0.0
 41
4.0
 42
4.0
 43
4.0
  0
MTEXT
  5
3F43
330
3D50
100
AcDbEntity
  8
DIMENSIONS
 62
     3
100
AcDbMText
 10
117.2761078666071
 20
403.8949562831774
 30
0.0
 40
6.0
 41
0.0
 71
     5
 72
     1
  1
\A1;13
1001
ACAD
1000
MTEXTBEGIN
1070
    73
1070
     1
1070
    44
1040
1.0
1070
    74
1070
     0
1000
MTEXTEND
  0
POINT
  5
3F44
330
3D50
100
AcDbEntity
  8
DEFPOINTS
 62
     0
100
AcDbPoint
 10
110.776107866607
 20
368.8949562831774
 30
0.0
  0
POINT
  5
3F45
330
3D50
100
AcDbEntity
  8
DEFPOINTS
 62
     0
100
AcDbPoint
 10
123.7761078666071
 20
382.096716825296
 30
0.0
  0
POINT
  5
3F46
330
3D50
100
AcDbEntity
  8
DEFPOINTS
 62
     0
100
AcDbPoint
 10
123.7761078666071
 20
398.8949562831774
 30
0.0
  0
ENDBLK
  5
3D5B
330
3D50
100
AcDbEntity
  8
0
100
AcDbBlockEnd
  0
BLOCK
  5
3D67
330
3D5D
100
AcDbEntity
  8
0
100
AcDbBlockBegin
  2
*D3
 70
     1
 10
0.0
 20
0.0
 30
0.0
  3
*D3
  1

  0
LINE
  5
3F35
330
3D5D
100
AcDbEntity
  8
DIMENSIONS
100
AcDbLine
 10
110.776107866607
 20
372.8949562831774
 30
0.0
 11
110.776107866607
 21
414.8949562831774
 31
0.0
  0
LINE
  5
3F36
330
3D5D
100
AcDbEntity
  8
DIMENSIONS
100
AcDbLine
 10
132.7761078666071
 20
372.8949562831774
 30
0.0
 11
132.7761078666071
 21
414.8949562831774
 31
0.0
  0
LINE
  5
3F37
330
3D5D
100
AcDbEntity
  8
DIMENSIONS
100
AcDbLine
 10
114.7761078666071
 20
412.8949562831774
 30
0.0
 11
128.7761078666071
 21
412.8949562831774
 31
0.0
  0
INSERT
  5
3F38
330
3D5D
100
AcDbEntity
  8
DIMENSIONS
100
AcDbBlockReference
  2
_OPEN30
 10
110.776107866607
 20
412.8949562831774
 30
0.0
 41
4.0
 42
4.0
 43
4.0
 50
180.0
  0
INSERT
  5
3F39
330
3D5D
100
AcDbEntity
  8
DIMENSIONS
100
AcDbBlockReference
  2
_OPEN30
 10
132.7761078666071
 20
412.8949562831774
 30
0.0
 41
4.0
 42
4.0
 43
4.0
  0
MTEXT
  5
3F3A
330
3D5D
100
AcDbEntity
  8
DIMENSIONS
 62
     3
100
AcDbMText
 10
121.7761078666071
 20
417.8949562831774
 30
0.0
 40
6.0
 41
0.0
 71
     5
 72
     1
  1
\A1;22
1001
ACAD
1000
MTEXTBEGIN
1070
    73
1070
     1
1070
    44
1040
1.0
1070
    74
1070
     0
1000
MTEXTEND
  0
POINT
  5
3F3B
330
3D5D
100
AcDbEntity
  8
DEFPOINTS
 62
     0
100
AcDbPoint
 10
110.776107866607
 20
368.8949562831774
 30
0.0
  0
POINT
  5
3F3C
330
3D5D
100
AcDbEntity
  8
DEFPOINTS
 62
     0
100
AcDbPoint
 10
132.7761078666071
 20
368.8949562831774
 30
0.0
  0
POINT
  5
3F3D
330
3D5D
100
AcDbEntity
  8
DEFPOINTS
 62
     0
100
AcDbPoint
 10
132.7761078666071
 20
412.8949562831774
 30
0.0
  0
ENDBLK
  5
3D68
330
3D5D
100
AcDbEntity
  8
0
100
AcDbBlockEnd
  0
BLOCK
  5
3D74
330
3D6A
100
AcDbEntity
  8
0
100
AcDbBlockBegin
  2
*D4
 70
     1
 10
0.0
 20
0.0
 30
0.0
  3
*D4
  1

  0
LINE
  5
3F2C
330
3D6A
100
AcDbEntity
  8
DIMENSIONS
100
AcDbLine
 10
112.7761078666071
 20
378.8949562831774
 30
0.0
 11
88.77610786660714
 21
378.8949562831774
 31
0.0
  0
LINE
  5
3F2D
330
3D6A
100
AcDbEntity
  8
DIMENSIONS
100
AcDbLine
 10
132.7761078666071
 20
233.8949562831774
 30
0.0
 11
88.7761078666071
 21
233.8949562831774
 31
0.0
  0
LINE
  5
3F2E
330
3D6A
100
AcDbEntity
  8
DIMENSIONS
100
AcDbLine
 10
90.77610786660713
 20
374.8949562831774
 30
0.0
 11
90.77610786660711
 21
237.8949562831774
 31
0.0
  0
INSERT
  5
3F2F
330
3D6A
100
AcDbEntity
  8
DIMENSIONS
100
AcDbBlockReference
  2
_OPEN30
 10
90.77610786660713
 20
378.8949562831774
 30
0.0
 41
4.0
 42
4.0
 43
4.0
 50
90.0
  0
INSERT
  5
3F30
330
3D6A
100
AcDbEntity
  8
DIMENSIONS
100
AcDbBlockReference
  2
_OPEN30
 10
90.77610786660711
 20
233.8949562831774
 30
0.0
 41
4.0
 42
4.0
 43
4.0
 50
270.0
  0
MTEXT
  5
3F31
330
3D6A
100
AcDbEntity
  8
DIMENSIONS
 62
     3
100
AcDbMText
 10
85.77610786660706
 20
306.3949562831774
 30
0.0
 40
6.0
 41
0.0
 71
     5
 72
     1
  1
\A1;145
 11
0.0000000000000001
 21
1.0
 31
0.0
1001
ACAD
1000
MTEXTBEGIN
1070
    73
1070
     1
1070
    44
1040
1.0
1070
    74
1070
     0
1000
MTEXTEND
  0
POINT
  5
3F32
330
3D6A
100
AcDbEntity
  8
DEFPOINTS
 62
     0
100
AcDbPoint
 10
116.7761078666071
 20
378.8949562831774
 30
0.0
  0
POINT
  5
3F33
330
3D6A
100
AcDbEntity
  8
DEFPOINTS
 62
     0
100
AcDbPoint
 10
136.776107866607
 20
233.8949562831774
 30
0.0
  0
POINT
  5
3F34
330
3D6A
100
AcDbEntity
  8
DEFPOINTS
 62
     0
100
AcDbPoint
 10
90.77610786660711
 20
233.8949562831774
 30
0.0
  0
ENDBLK
  5
3D75
330
3D6A
100
AcDbEntity
  8
0
100
AcDbBlockEnd
  0
BLOCK
  5
3D81
330
3D77
100
AcDbEntity
  8
0
100
AcDbBlockBegin
  2
*D5
 70
     1
 10
0.0
 20
0.0
 30
0.0
  3
*D5
  1

  0
LINE
  5
3F23
330
3D77
100
AcDbEntity
  8
DIMENSIONS
100
AcDbLine
 10
116.7761078666071
 20
249.8949562831774
 30
0.0
 11
116.7761078666071
 21
211.8949562831774
 31
0.0
  0
LINE
  5
3F24
330
3D77
100
AcDbEntity
  8
DIMENSIONS
100
AcDbLine
 10
581.7761078666072
 20
229.8949562831773
 30
0.0
 11
581.7761078666072
 21
211.8949562831774
 31
0.0
  0
LINE
  5
3F25
330
3D77
100
AcDbEntity
  8
DIMENSIONS
100
AcDbLine
 10
120.7761078666071
 20
213.8949562831774
 30
0.0
 11
577.7761078666072
 21
213.8949562831774
 31
0.0
  0
INSERT
  5
3F26
330
3D77
100
AcDbEntity
  8
DIMENSIONS
100
AcDbBlockReference
  2
_OPEN30
 10
116.7761078666071
 20
213.8949562831774
 30
0.0
 41
4.0
 42
4.0
 43
4.0
 50
180.0
  0
INSERT
  5
3F27
330
3D77
100
AcDbEntity
  8
DIMENSIONS
100
AcDbBlockReference
  2
_OPEN30
 10
581.7761078666072
 20
213.8949562831774
 30
0.0
 41
4.0
 42
4.0
 43
4.0
  0
MTEXT
  5
3F28
330
3D77
100
AcDbEntity
  8
DIMENSIONS
 62
     3
100
AcDbMText
 10
349.2761078666071
 20
218.8949562831774
 30
0.0
 40
6.0
 41
0.0
 71
     5
 72
     1
  1
\A1;465
1001
ACAD
1000
MTEXTBEGIN
1070
    73
1070
     1
1070
    44
1040
1.0
1070
    74
1070
     0
1000
MTEXTEND
  0
POINT
  5
3F29
330
3D77
100
AcDbEntity
  8
DEFPOINTS
 62
     0
100
AcDbPoint
 10
116.7761078666071
 20
253.8949562831774
 30
0.0
  0
POINT
  5
3F2A
330
3D77
100
AcDbEntity
  8
DEFPOINTS
 62
     0
100
AcDbPoint
 10
581.7761078666072
 20
233.8949562831774
 30
0.0
  0
POINT
  5
3F2B
330
3D77
100
AcDbEntity
  8
DEFPOINTS
 62
     0
100
AcDbPoint
 10
581.7761078666072
 20
213.8949562831774
 30
0.0
  0
ENDBLK
  5
3D82
330
3D77
100
AcDbEntity
  8
0
100
AcDbBlockEnd
  0
BLOCK
  5
3D8E
330
3D84
100
AcDbEntity
  8
0
100
AcDbBlockBegin
  2
*D6
 70
     1
 10
0.0
 20
0.0
 30
0.0
  3
*D6
  1

  0
LINE
  5
3F1A
330
3D84
100
AcDbEntity
  8
DIMENSIONS
100
AcDbLine
 10
581.7761078666072
 20
229.8949562831773
 30
0.0
 11
581.7761078666072
 21
197.8949562831774
 31
0.0
  0
LINE
  5
3F1B
330
3D84
100
AcDbEntity
  8
DIMENSIONS
100
AcDbLine
 10
110.776107866607
 20
253.8949562831774
 30
0.0
 11
110.776107866607
 21
197.8949562831774
 31
0.0
  0
LINE
  5
3F1C
330
3D84
100
AcDbEntity
  8
DIMENSIONS
100
AcDbLine
 10
577.7761078666072
 20
199.8949562831774
 30
0.0
 11
114.7761078666071
 21
199.8949562831774
 31
0.0
  0
INSERT
  5
3F1D
330
3D84
100
AcDbEntity
  8
DIMENSIONS
100
AcDbBlockReference
  2
_OPEN30
 10
581.7761078666072
 20
199.8949562831774
 30
0.0
 41
4.0
 42
4.0
 43
4.0
  0
INSERT
  5
3F1E
330
3D84
100
AcDbEntity
  8
DIMENSIONS
100
AcDbBlockReference
  2
_OPEN30
 10
110.776107866607
 20
199.8949562831774
 30
0.0
 41
4.0
 42
4.0
 43
4.0
 50
180.0
  0
MTEXT
  5
3F1F
330
3D84
100
AcDbEntity
  8
DIMENSIONS
 62
     3
100
AcDbMText
 10
346.2761078666071
 20
204.8949562831773
 30
0.0
 40
6.0
 41
0.0
 71
     5
 72
     1
  1
\A1;471
1001
ACAD
1000
MTEXTBEGIN
1070
    73
1070
     1
1070
    44
1040
1.0
1070
    74
1070
     0
1000
MTEXTEND
  0
POINT
  5
3F20
330
3D84
100
AcDbEntity
  8
DEFPOINTS
 62
     0
100
AcDbPoint
 10
581.7761078666072
 20
233.8949562831774
 30
0.0
  0
POINT
  5
3F21
330
3D84
100
AcDbEntity
  8
DEFPOINTS
 62
     0
100
AcDbPoint
 10
110.776107866607
 20
257.8949562831774
 30
0.0
  0
POINT
  5
3F22
330
3D84
100
AcDbEntity
  8
DEFPOINTS
 62
     0
100
AcDbPoint
 10
110.776107866607
 20
199.8949562831774
 30
0.0
  0
ENDBLK
  5
3D8F
330
3D84
100
AcDbEntity
  8
0
100
AcDbBlockEnd
  0
BLOCK
  5
3D9B
330
3D91
100
AcDbEntity
  8
0
100
AcDbBlockBegin
  2
*D7
 70
     1
 10
0.0
 20
0.0
 30
0.0
  3
*D7
  1

  0
LINE
  5
3F11
330
3D91
100
AcDbEntity
  8
DIMENSIONS
100
AcDbLine
 10
581.7461078666073
 20
230.8949562831774
 30
0.0
 11
603.7761078666072
 21
230.8949562831774
 31
0.0
  0
LINE
  5
3F12
330
3D91
100
AcDbEntity
  8
DIMENSIONS
100
AcDbLine
 10
581.7461078666073
 20
250.8949562831773
 30
0.0
 11
603.7761078666072
 21
250.8949562831773
 31
0.0
  0
LINE
  5
3F13
330
3D91
100
AcDbEntity
  8
DIMENSIONS
100
AcDbLine
 10
601.7761078666072
 20
234.8949562831774
 30
0.0
 11
601.7761078666072
 21
246.8949562831773
 31
0.0
  0
INSERT
  5
3F14
330
3D91
100
AcDbEntity
  8
DIMENSIONS
100
AcDbBlockReference
  2
_OPEN30
 10
601.7761078666072
 20
230.8949562831774
 30
0.0
 41
4.0
 42
4.0
 43
4.0
 50
270.0
  0
INSERT
  5
3F15
330
3D91
100
AcDbEntity
  8
DIMENSIONS
100
AcDbBlockReference
  2
_OPEN30
 10
601.7761078666072
 20
250.8949562831773
 30
0.0
 41
4.0
 42
4.0
 43
4.0
 50
90.0
  0
MTEXT
  5
3F16
330
3D91
100
AcDbEntity
  8
DIMENSIONS
 62
     3
100
AcDbMText
 10
596.7761078666073
 20
240.8949562831775
 30
0.0
 40
6.0
 41
0.0
 71
     5
 72
     1
  1
\A1;20
 11
0.0000000000000001
 21
1.0
 31
0.0
1001
ACAD
1000
MTEXTBEGIN
1070
    73
1070
     1
1070
    44
1040
1.0
1070
    74
1070
     0
1000
MTEXTEND
  0
POINT
  5
3F17
330
3D91
100
AcDbEntity
  8
DEFPOINTS
 62
     0
100
AcDbPoint
 10
577.7461078666073
 20
230.8949562831774
 30
0.0
  0
POINT
  5
3F18
330
3D91
100
AcDbEntity
  8
DEFPOINTS
 62
     0
100
AcDbPoint
 10
577.7461078666073
 20
250.8949562831773
 30
0.0
  0
POINT
  5
3F19
330
3D91
100
AcDbEntity
  8
DEFPOINTS
 62
     0
100
AcDbPoint
 10
601.7761078666072
 20
250.8949562831773
 30
0.0
  0
ENDBLK
  5
3D9C
330
3D91
100
AcDbEntity
  8
0
100
AcDbBlockEnd
  0
BLOCK
  5
3DA9
330
3D9E
100
AcDbEntity
  8
0
100
AcDbBlockBegin
  2
*D8
 70
     1
 10
0.0
 20
0.0
 30
0.0
  3
*D8
  1

  0
LINE
  5
3F5C
330
3D9E
100
AcDbEntity
  8
DIMENSIONS
100
AcDbLine
 10
574.2761078666072
 20
254.3649562831773
 30
0.0
 11
574.2761078666072
 21
274.8949562831774
 31
0.0
  0
LINE
  5
3F5D
330
3D9E
100
AcDbEntity
  8
DIMENSIONS
100
AcDbLine
 10
578.2761078666072
 20
254.3649562831773
 30
0.0
 11
578.2761078666072
 21
274.8949562831774
 31
0.0
  0
LINE
  5
3F5E
330
3D9E
100
AcDbEntity
  8
DIMENSIONS
100
AcDbLine
 10
570.2761078666072
 20
272.8949562831774
 30
0.0
 11
566.2761078666072
 21
272.8949562831774
 31
0.0
  0
LINE
  5
3F5F
330
3D9E
100
AcDbEntity
  8
DIMENSIONS
100
AcDbLine
 10
582.2761078666072
 20
272.8949562831774
 30
0.0
 11
586.2761078666072
 21
272.8949562831774
 31
0.0
  0
MTEXT
  5
3F60
330
3D9E
100
AcDbEntity
  8
DIMENSIONS
 62
     3
100
AcDbMText
 10
575.9055222804845
 20
277.9926924431038
 30
0.0
 40
6.0
 41
0.0
 71
     5
 72
     1
  1
\A1;φ4
1001
ACAD
1000
MTEXTBEGIN
1070
    73
1070
     1
1070
    44
1040
1.0
1070
    74
1070
     0
1000
MTEXTEND
  0
INSERT
  5
3F61
330
3D9E
100
AcDbEntity
  8
DIMENSIONS
100
AcDbBlockReference
  2
_OPEN30
 10
574.2761078666072
 20
272.8949562831774
 30
0.0
 41
4.0
 42
4.0
 43
4.0
  0
INSERT
  5
3F62
330
3D9E
100
AcDbEntity
  8
DIMENSIONS
100
AcDbBlockReference
  2
_OPEN30
 10
578.2761078666072
 20
272.8949562831774
 30
0.0
 41
4.0
 42
4.0
 43
4.0
 50
180.0
  0
POINT
  5
3F63
330
3D9E
100
AcDbEntity
  8
DEFPOINTS
 62
     0
100
AcDbPoint
 10
574.2761078666072
 20
250.3649562831773
 30
0.0
  0
POINT
  5
3F64
330
3D9E
100
AcDbEntity
  8
DEFPOINTS
 62
     0
100
AcDbPoint
 10
578.2761078666072
 20
250.3649562831773
 30
0.0
  0
POINT
  5
3F65
330
3D9E
100
AcDbEntity
  8
DEFPOINTS
 62
     0
100
AcDbPoint
 10
578.2761078666072
 20
272.8949562831774
 30
0.0
  0
ENDBLK
  5
3DAA
330
3D9E
100
AcDbEntity
  8
0
100
AcDbBlockEnd
  0
BLOCK
  5
3DB7
330
3DAC
100
AcDbEntity
  8
0
100
AcDbBlockBegin
  2
*D9
 70
     1
 10
0.0
 20
0.0
 30
0.0
  3
*D9
  1

  0
LINE
  5
3F48
330
3DAC
100
AcDbEntity
  8
DIMENSIONS
100
AcDbLine
 10
576.2761078666073
 20
257.7257550220035
 30
0.0
 11
576.2761078666073
 21
263.2590859612387
 31
0.0
  0
LINE
  5
3F49
330
3DAC
100
AcDbEntity
  8
DIMENSIONS
100
AcDbLine
 10
581.7761078666072
 20
251.8949562831774
 30
0.0
 11
581.7761078666072
 21
263.2590859612387
 31
0.0
  0
LINE
  5
3F4A
330
3DAC
100
AcDbEntity
  8
DIMENSIONS
100
AcDbLine
 10
572.2761078666072
 20
261.2590859612387
 30
0.0
 11
568.2761078666072
 21
261.2590859612387
 31
0.0
  0
LINE
  5
3F4B
330
3DAC
100
AcDbEntity
  8
DIMENSIONS
100
AcDbLine
 10
585.7761078666072
 20
261.2590859612387
 30
0.0
 11
589.7761078666072
 21
261.2590859612387
 31
0.0
  0
MTEXT
  5
3F4C
330
3DAC
100
AcDbEntity
  8
DIMENSIONS
 62
     3
100
AcDbMText
 10
586.663289324807
 20
266.6303141590733
 30
0.0
 40
6.0
 41
0.0
 71
     5
 72
     1
  1
\A1;5.5
1001
ACAD
1000
MTEXTBEGIN
1070
    73
1070
     1
1070
    44
1040
1.0
1070
    74
1070
     0
1000
MTEXTEND
  0
INSERT
  5
3F4D
330
3DAC
100
AcDbEntity
  8
DIMENSIONS
100
AcDbBlockReference
  2
_OPEN30
 10
576.2761078666073
 20
261.2590859612387
 30
0.0
 41
4.0
 42
4.0
 43
4.0
  0
INSERT
  5
3F4E
330
3DAC
100
AcDbEntity
  8
DIMENSIONS
100
AcDbBlockReference
  2
_OPEN30
 10
581.7761078666072
 20
261.2590859612387
 30
0.0
 41
4.0
 42
4.0
 43
4.0
 50
180.0
  0
POINT
  5
3F4F
330
3DAC
100
AcDbEntity
  8
DEFPOINTS
 62
     0
100
AcDbPoint
 10
576.2761078666073
 20
253.7257550220035
 30
0.0
  0
POINT
  5
3F50
330
3DAC
100
AcDbEntity
  8
DEFPOINTS
 62
     0
100
AcDbPoint
 10
581.7761078666072
 20
247.8949562831774
 30
0.0
  0
POINT
  5
3F51
330
3DAC
100
AcDbEntity
  8
DEFPOINTS
 62
     0
100
AcDbPoint
 10
581.7761078666072
 20
261.2590859612387
 30
0.0
  0
ENDBLK
  5
3DB8
330
3DAC
100
AcDbEntity
  8
0
100
AcDbBlockEnd
  0
BLOCK
  5
3E00
330
3DF6
100
AcDbEntity
  8
0
100
AcDbBlockBegin
  2
*D10
 70
     1
 10
0.0
 20
0.0
 30
0.0
  3
*D10
  1

  0
LINE
  5
3F66
330
3DF6
100
AcDbEntity
  8
DIMENSIONS
100
AcDbLine
 10
627.1144115529781
 20
236.8949562831774
 30
0.0
 11
627.1144115529781
 21
208.8949562831774
 31
0.0
  0
LINE
  5
3F67
330
3DF6
100
AcDbEntity
  8
DIMENSIONS
100
AcDbLine
 10
641.1144115529781
 20
236.8949562831774
 30
0.0
 11
641.1144115529781
 21
208.8949562831774
 31
0.0
  0
LINE
  5
3F68
330
3DF6
100
AcDbEntity
  8
DIMENSIONS
100
AcDbLine
 10
631.1144115529781
 20
210.8949562831774
 30
0.0
 11
637.1144115529781
 21
210.8949562831774
 31
0.0
  0
MTEXT
  5
3F69
330
3DF6
100
AcDbEntity
  8
DIMENSIONS
 62
     3
100
AcDbMText
 10
647.9078285092636
 20
216.5513183471757
 30
0.0
 40
6.0
 41
0.0
 71
     5
 72
     1
  1
\A1;φ14
1001
ACAD
1000
MTEXTBEGIN
1070
    73
1070
     1
1070
    44
1040
1.0
1070
    74
1070
     0
1000
MTEXTEND
  0
INSERT
  5
3F6A
330
3DF6
100
AcDbEntity
  8
DIMENSIONS
100
AcDbBlockReference
  2
_OPEN30
 10
627.1144115529781
 20
210.8949562831774
 30
0.0
 41
4.0
 42
4.0
 43
4.0
 50
180.0
  0
INSERT
  5
3F6B
330
3DF6
100
AcDbEntity
  8
DIMENSIONS
100
AcDbBlockReference
  2
_OPEN30
 10
641.1144115529781
 20
210.8949562831774
 30
0.0
 41
4.0
 42
4.0
 43
4.0
  0
POINT
  5
3F6C
330
3DF6
100
AcDbEntity
  8
DEFPOINTS
 62
     0
100
AcDbPoint
 10
627.1144115529781
 20
240.8949562831774
 30
0.0
  0
POINT
  5
3F6D
330
3DF6
100
AcDbEntity
  8
DEFPOINTS
 62
     0
100
AcDbPoint
 10
641.1144115529781
 20
240.8949562831774
 30
0.0
  0
POINT
  5
3F6E
330
3DF6
100
AcDbEntity
  8
DEFPOINTS
 62
     0
100
AcDbPoint
 10
641.1144115529781
 20
210.8949562831774
 30
0.0
  0
ENDBLK
  5
3E01
330
3DF6
100
AcDbEntity
  8
0
100
AcDbBlockEnd
  0
BLOCK
  5
3E0D
330
3E03
100
AcDbEntity
  8
0
100
AcDbBlockBegin
  2
*D11
 70
     1
 10
0.0
 20
0.0
 30
0.0
  3
*D11
  1

  0
LINE
  5
3EEA
330
3E03
100
AcDbEntity
  8
DIMENSIONS
100
AcDbLine
 10
643.8644115529781
 20
273.8949562831774
 30
0.0
 11
665.6144115529781
 21
273.8949562831774
 31
0.0
  0
LINE
  5
3EEB
330
3E03
100
AcDbEntity
  8
DIMENSIONS
100
AcDbLine
 10
643.8644115529781
 20
353.8949562831774
 30
0.0
 11
665.6144115529781
 21
353.8949562831774
 31
0.0
  0
LINE
  5
3EEC
330
3E03
100
AcDbEntity
  8
DIMENSIONS
100
AcDbLine
 10
663.6144115529781
 20
277.8949562831774
 30
0.0
 11
663.6144115529781
 21
349.8949562831774
 31
0.0
  0
INSERT
  5
3EED
330
3E03
100
AcDbEntity
  8
DIMENSIONS
100
AcDbBlockReference
  2
_OPEN30
 10
663.6144115529781
 20
273.8949562831774
 30
0.0
 41
4.0
 42
4.0
 43
4.0
 50
270.0
  0
INSERT
  5
3EEE
330
3E03
100
AcDbEntity
  8
DIMENSIONS
100
AcDbBlockReference
  2
_OPEN30
 10
663.6144115529781
 20
353.8949562831774
 30
0.0
 41
4.0
 42
4.0
 43
4.0
 50
90.0
  0
MTEXT
  5
3EEF
330
3E03
100
AcDbEntity
  8
DIMENSIONS
 62
     3
100
AcDbMText
 10
658.614411552978
 20
313.8949562831776
 30
0.0
 40
6.0
 41
0.0
 71
     5
 72
     1
  1
\A1;80
 11
0.0000000000000001
 21
1.0
 31
0.0
1001
ACAD
1000
MTEXTBEGIN
1070
    73
1070
     1
1070
    44
1040
1.0
1070
    74
1070
     0
1000
MTEXTEND
  0
POINT
  5
3EF0
330
3E03
100
AcDbEntity
  8
DEFPOINTS
 62
     0
100
AcDbPoint
 10
639.8644115529781
 20
273.8949562831775
 30
0.0
  0
POINT
  5
3EF1
330
3E03
100
AcDbEntity
  8
DEFPOINTS
 62
     0
100
AcDbPoint
 10
639.8644115529781
 20
353.8949562831774
 30
0.0
  0
POINT
  5
3EF2
330
3E03
100
AcDbEntity
  8
DEFPOINTS
 62
     0
100
AcDbPoint
 10
663.6144115529781
 20
353.8949562831774
 30
0.0
  0
ENDBLK
  5
3E0E
330
3E03
100
AcDbEntity
  8
0
100
AcDbBlockEnd
  0
BLOCK
  5
3E1A
330
3E10
100
AcDbEntity
  8
0
100
AcDbBlockBegin
  2
*D12
 70
     1
 10
0.0
 20
0.0
 30
0.0
  3
*D12
  1

  0
LINE
  5
3EE1
330
3E10
100
AcDbEntity
  8
DIMENSIONS
100
AcDbLine
 10
643.8644115529781
 20
353.8949562831774
 30
0.0
 11
665.6144115529781
 21
353.8949562831774
 31
0.0
  0
LINE
  5
3EE2
330
3E10
100
AcDbEntity
  8
DIMENSIONS
100
AcDbLine
 10
647.6144115529781
 20
368.8949562831774
 30
0.0
 11
665.6144115529781
 21
368.8949562831774
 31
0.0
  0
LINE
  5
3EE3
330
3E10
100
AcDbEntity
  8
DIMENSIONS
100
AcDbLine
 10
663.6144115529781
 20
357.8949562831774
 30
0.0
 11
663.6144115529781
 21
364.8949562831774
 31
0.0
  0
INSERT
  5
3EE4
330
3E10
100
AcDbEntity
  8
DIMENSIONS
100
AcDbBlockReference
  2
_OPEN30
 10
663.6144115529781
 20
353.8949562831774
 30
0.0
 41
4.0
 42
4.0
 43
4.0
 50
270.0
  0
INSERT
  5
3EE5
330
3E10
100
AcDbEntity
  8
DIMENSIONS
100
AcDbBlockReference
  2
_OPEN30
 10
663.6144115529781
 20
368.8949562831774
 30
0.0
 41
4.0
 42
4.0
 43
4.0
 50
90.0
  0
MTEXT
  5
3EE6
330
3E10
100
AcDbEntity
  8
DIMENSIONS
 62
     3
100
AcDbMText
 10
658.614411552978
 20
361.3949562831775
 30
0.0
 40
6.0
 41
0.0
 71
     5
 72
     1
  1
\A1;15
 11
0.0000000000000001
 21
1.0
 31
0.0
1001
ACAD
1000
MTEXTBEGIN
1070
    73
1070
     1
1070
    44
1040
1.0
1070
    74
1070
     0
1000
MTEXTEND
  0
POINT
  5
3EE7
330
3E10
100
AcDbEntity
  8
DEFPOINTS
 62
     0
100
AcDbPoint
 10
639.8644115529781
 20
353.8949562831774
 30
0.0
  0
POINT
  5
3EE8
330
3E10
100
AcDbEntity
  8
DEFPOINTS
 62
     0
100
AcDbPoint
 10
643.6144115529781
 20
368.8949562831774
 30
0.0
  0
POINT
  5
3EE9
330
3E10
100
AcDbEntity
  8
DEFPOINTS
 62
     0
100
AcDbPoint
 10
663.6144115529781
 20
368.8949562831774
 30
0.0
  0
ENDBLK
  5
3E1B
330
3E10
100
AcDbEntity
  8
0
100
AcDbBlockEnd
  0
BLOCK
  5
3E27
330
3E1D
100
AcDbEntity
  8
0
100
AcDbBlockBegin
  2
*D13
 70
     1
 10
0.0
 20
0.0
 30
0.0
  3
*D13
  1

  0
LINE
  5
3ED7
330
3E1D
100
AcDbEntity
  8
DIMENSIONS
100
AcDbLine
 10
647.6144115529781
 20
368.8949562831774
 30
0.0
 11
665.6144115529781
 21
368.8949562831774
 31
0.0
  0
LINE
  5
3ED8
330
3E1D
100
AcDbEntity
  8
DIMENSIONS
100
AcDbLine
 10
645.1144115529781
 20
378.8949562831774
 30
0.0
 11
665.6144115529781
 21
378.8949562831774
 31
0.0
  0
LINE
  5
3ED9
330
3E1D
100
AcDbEntity
  8
DIMENSIONS
100
AcDbLine
 10
663.6144115529781
 20
364.8949562831774
 30
0.0
 11
663.6144115529781
 21
360.8949562831774
 31
0.0
  0
LINE
  5
3EDA
330
3E1D
100
AcDbEntity
  8
DIMENSIONS
100
AcDbLine
 10
663.6144115529781
 20
382.8949562831774
 30
0.0
 11
663.6144115529781
 21
386.8949562831774
 31
0.0
  0
INSERT
  5
3EDB
330
3E1D
100
AcDbEntity
  8
DIMENSIONS
100
AcDbBlockReference
  2
_OPEN30
 10
663.6144115529781
 20
368.8949562831774
 30
0.0
 41
4.0
 42
4.0
 43
4.0
 50
90.0
  0
INSERT
  5
3EDC
330
3E1D
100
AcDbEntity
  8
DIMENSIONS
100
AcDbBlockReference
  2
_OPEN30
 10
663.6144115529781
 20
378.8949562831774
 30
0.0
 41
4.0
 42
4.0
 43
4.0
 50
270.0
  0
MTEXT
  5
3EDD
330
3E1D
100
AcDbEntity
  8
DIMENSIONS
 62
     3
100
AcDbMText
 10
658.614411552978
 20
373.8949562831775
 30
0.0
 40
6.0
 41
0.0
 71
     5
 72
     1
  1
\A1;10
 11
0.0000000000000001
 21
1.0
 31
0.0
1001
ACAD
1000
MTEXTBEGIN
1070
    73
1070
     1
1070
    44
1040
1.0
1070
    74
1070
     0
1000
MTEXTEND
  0
POINT
  5
3EDE
330
3E1D
100
AcDbEntity
  8
DEFPOINTS
 62
     0
100
AcDbPoint
 10
643.6144115529781
 20
368.8949562831774
 30
0.0
  0
POINT
  5
3EDF
330
3E1D
100
AcDbEntity
  8
DEFPOINTS
 62
     0
100
AcDbPoint
 10
641.1144115529781
 20
378.8949562831774
 30
0.0
  0
POINT
  5
3EE0
330
3E1D
100
AcDbEntity
  8
DEFPOINTS
 62
     0
100
AcDbPoint
 10
663.6144115529781
 20
378.8949562831774
 30
0.0
  0
ENDBLK
  5
3E28
330
3E1D
100
AcDbEntity
  8
0
100
AcDbBlockEnd
  0
BLOCK
  5
3E34
330
3E2A
100
AcDbEntity
  8
0
100
AcDbBlockBegin
  2
*D14
 70
     1
 10
0.0
 20
0.0
 30
0.0
  3
*D14
  1

  0
LINE
  5
3ECE
330
3E2A
100
AcDbEntity
  8
DIMENSIONS
100
AcDbLine
 10
647.6144115529781
 20
368.8949562831774
 30
0.0
 11
679.6144115529781
 21
368.8949562831774
 31
0.0
  0
LINE
  5
3ECF
330
3E2A
100
AcDbEntity
  8
DIMENSIONS
100
AcDbLine
 10
647.6144115529781
 20
258.8949562831774
 30
0.0
 11
679.6144115529781
 21
258.8949562831774
 31
0.0
  0
LINE
  5
3ED0
330
3E2A
100
AcDbEntity
  8
DIMENSIONS
100
AcDbLine
 10
677.6144115529781
 20
364.8949562831774
 30
0.0
 11
677.6144115529781
 21
262.8949562831774
 31
0.0
  0
INSERT
  5
3ED1
330
3E2A
100
AcDbEntity
  8
DIMENSIONS
100
AcDbBlockReference
  2
_OPEN30
 10
677.6144115529781
 20
368.8949562831774
 30
0.0
 41
4.0
 42
4.0
 43
4.0
 50
90.0
  0
INSERT
  5
3ED2
330
3E2A
100
AcDbEntity
  8
DIMENSIONS
100
AcDbBlockReference
  2
_OPEN30
 10
677.6144115529781
 20
258.8949562831774
 30
0.0
 41
4.0
 42
4.0
 43
4.0
 50
270.0
  0
MTEXT
  5
3ED3
330
3E2A
100
AcDbEntity
  8
DIMENSIONS
 62
     3
100
AcDbMText
 10
672.614411552978
 20
313.8949562831776
 30
0.0
 40
6.0
 41
0.0
 71
     5
 72
     1
  1
\A1;110
 11
0.0000000000000001
 21
1.0
 31
0.0
1001
ACAD
1000
MTEXTBEGIN
1070
    73
1070
     1
1070
    44
1040
1.0
1070
    74
1070
     0
1000
MTEXTEND
  0
POINT
  5
3ED4
330
3E2A
100
AcDbEntity
  8
DEFPOINTS
 62
     0
100
AcDbPoint
 10
643.6144115529781
 20
368.8949562831774
 30
0.0
  0
POINT
  5
3ED5
330
3E2A
100
AcDbEntity
  8
DEFPOINTS
 62
     0
100
AcDbPoint
 10
643.6144115529781
 20
258.8949562831774
 30
0.0
  0
POINT
  5
3ED6
330
3E2A
100
AcDbEntity
  8
DEFPOINTS
 62
     0
100
AcDbPoint
 10
677.6144115529781
 20
258.8949562831774
 30
0.0
  0
ENDBLK
  5
3E35
330
3E2A
100
AcDbEntity
  8
0
100
AcDbBlockEnd
  0
BLOCK
  5
3E41
330
3E37
100
AcDbEntity
  8
0
100
AcDbBlockBegin
  2
*D15
 70
     1
 10
0.0
 20
0.0
 30
0.0
  3
*D15
  1

  0
LINE
  5
3EC5
330
3E37
100
AcDbEntity
  8
DIMENSIONS
100
AcDbLine
 10
624.6144115529781
 20
372.8949562831774
 30
0.0
 11
624.6144115529781
 21
400.8949562831774
 31
0.0
  0
LINE
  5
3EC6
330
3E37
100
AcDbEntity
  8
DIMENSIONS
100
AcDbLine
 10
643.6144115529781
 20
372.8949562831774
 30
0.0
 11
643.6144115529781
 21
400.8949562831774
 31
0.0
  0
LINE
  5
3EC7
330
3E37
100
AcDbEntity
  8
DIMENSIONS
100
AcDbLine
 10
628.6144115529781
 20
398.8949562831774
 30
0.0
 11
639.6144115529781
 21
398.8949562831774
 31
0.0
  0
INSERT
  5
3EC8
330
3E37
100
AcDbEntity
  8
DIMENSIONS
100
AcDbBlockReference
  2
_OPEN30
 10
624.6144115529781
 20
398.8949562831774
 30
0.0
 41
4.0
 42
4.0
 43
4.0
 50
180.0
  0
INSERT
  5
3EC9
330
3E37
100
AcDbEntity
  8
DIMENSIONS
100
AcDbBlockReference
  2
_OPEN30
 10
643.6144115529781
 20
398.8949562831774
 30
0.0
 41
4.0
 42
4.0
 43
4.0
  0
MTEXT
  5
3ECA
330
3E37
100
AcDbEntity
  8
DIMENSIONS
 62
     3
100
AcDbMText
 10
634.1144115529781
 20
403.8949562831774
 30
0.0
 40
6.0
 41
0.0
 71
     5
 72
     1
  1
\A1;19
1001
ACAD
1000
MTEXTBEGIN
1070
    73
1070
     1
1070
    44
1040
1.0
1070
    74
1070
     0
1000
MTEXTEND
  0
POINT
  5
3ECB
330
3E37
100
AcDbEntity
  8
DEFPOINTS
 62
     0
100
AcDbPoint
 10
624.6144115529781
 20
368.8949562831774
 30
0.0
  0
POINT
  5
3ECC
330
3E37
100
AcDbEntity
  8
DEFPOINTS
 62
     0
100
AcDbPoint
 10
643.6144115529781
 20
368.8949562831774
 30
0.0
  0
POINT
  5
3ECD
330
3E37
100
AcDbEntity
  8
DEFPOINTS
 62
     0
100
AcDbPoint
 10
643.6144115529781
 20
398.8949562831774
 30
0.0
  0
ENDBLK
  5
3E42
330
3E37
100
AcDbEntity
  8
0
100
AcDbBlockEnd
  0
ENDSEC
  0
SECTION
  2
ENTITIES
  0
TEXT
  5
35F8
330
A
100
AcDbEntity
  8
FILE_NAME
  6
CONTINUOUS
100
AcDbText
 10
0.0
 20
20.0
 30
0.0
 40
10.0
  1
14-7053-02-460
 41
0.75
100
AcDbText
  0
TEXT
  5
3607
330
A
100
AcDbEntity
  8
FILE_NAME
  6
CONTINUOUS
100
AcDbText
 10
0.0
 20
0.0
 30
0.0
 40
10.0
  1
12-14705302-460_1
 41
0.75
100
AcDbText
  0
TEXT
  5
36B6
330
A
100
AcDbEntity
  8
FILE_NAME
  6
CONTINUOUS
100
AcDbText
 10
0.0
 20
40.0
 30
0.0
 40
10.0
  1
タオル掛け 14-7053-02-460
 41
0.75
100
AcDbText
  0
ARC
  5
3AE8
330
A
100
AcDbEntity
  8
SHAPE_OUTLINE_BOLD_LINE_
100
AcDbCircle
 10
634.1144115529781
 20
240.8949562831774
 30
0.0
 40
7.0
100
AcDbArc
 50
180.0
 51
270.0
  0
ARC
  5
3AE9
330
A
100
AcDbEntity
  8
SHAPE_OUTLINE_BOLD_LINE_
100
AcDbCircle
 10
634.1144115529781
 20
240.8949562831774
 30
0.0
 40
7.0
100
AcDbArc
 50
270.0
 51
0.0
  0
ARC
  5
3AEA
330
A
100
AcDbEntity
  8
SHAPE_OUTLINE_BOLD_LINE_
100
AcDbCircle
 10
136.776107866607
 20
253.8949562831774
 30
0.0
 40
20.0
100
AcDbArc
 50
180.0
 51
270.0
  0
ARC
  5
3AEB
330
A
100
AcDbEntity
  8
SHAPE_OUTLINE_BOLD_LINE_
100
AcDbCircle
 10
136.776107866607
 20
253.8949562831774
 30
0.0
 40
6.0
100
AcDbArc
 50
180.0
 51
270.0
  0
ARC
  5
3AEC
330
A
100
AcDbEntity
  8
CENTER
100
AcDbCircle
 10
136.776107866607
 20
253.8949562831774
 30
0.0
 40
13.0
100
AcDbArc
 50
180.0
 51
270.0
  0
ARC
  5
3AFC
330
A
100
AcDbEntity
  8
SHAPE_OUTLINE_BOLD_LINE_
100
AcDbCircle
 10
634.1144115529781
 20
240.8949562831774
 30
0.0
 40
7.0
100
AcDbArc
 50
106.6015495990189
 51
180.0
  0
ARC
  5
3AFD
330
A
100
AcDbEntity
  8
SHAPE_OUTLINE_BOLD_LINE_
100
AcDbCircle
 10
634.1144115529781
 20
240.8949562831774
 30
0.0
 40
7.000000000000059
100
AcDbArc
 50
73.39845040097853
 51
106.6015495990189
  0
ARC
  5
3AFE
330
A
100
AcDbEntity
  8
SHAPE_OUTLINE_BOLD_LINE_
100
AcDbCircle
 10
634.1144115529781
 20
240.8949562831774
 30
0.0
 40
7.0
100
AcDbArc
 50
0.0
 51
73.39845040097853
  0
ARC
  5
3AFF
330
A
100
AcDbEntity
  8
SHAPE_OUTLINE_BOLD_LINE_
100
AcDbCircle
 10
634.1144115529781
 20
240.8949562831774
 30
0.0
 40
6.99999999999978
100
AcDbArc
 50
253.3984504009806
 51
286.6015495990219
  0
LINE
  5
3B0F
330
A
100
AcDbEntity
  8
SHAPE_OUTLINE_THIN_LINE_
  6
DASHED
100
AcDbLine
 10
116.7761078666071
 20
368.8949562831774
 30
0.0
 11
116.7761078666071
 21
257.8949562831774
 31
0.0
  0
LINE
  5
3B10
330
A
100
AcDbEntity
  8
SHAPE_OUTLINE_BOLD_LINE_
100
AcDbLine
 10
132.7761078666071
 20
362.8360893012611
 30
0.0
 11
132.7761078666071
 21
360.8949562831774
 31
0.0
  0
LINE
  5
3B11
330
A
100
AcDbEntity
  8
SHAPE_OUTLINE_BOLD_LINE_
100
AcDbLine
 10
110.776107866607
 20
361.2203529340947
 30
0.0
 11
110.776107866607
 21
368.8949562831774
 31
0.0
  0
LINE
  5
3B1B
330
A
100
AcDbEntity
  8
SHAPE_OUTLINE_BOLD_LINE_
100
AcDbLine
 10
116.7761078666071
 20
372.9949562831774
 30
0.0
 11
116.7761078666071
 21
373.3949562831774
 31
0.0
  0
LINE
  5
3B1F
330
A
100
AcDbEntity
  8
SHAPE_OUTLINE_BOLD_LINE_
100
AcDbLine
 10
116.7761078666071
 20
368.8949562831774
 30
0.0
 11
116.7761078666071
 21
372.9949562831774
 31
0.0
  0
LINE
  5
3B27
330
A
100
AcDbEntity
  8
SHAPE_OUTLINE_BOLD_LINE_
100
AcDbLine
 10
116.7761078666071
 20
373.3949562831774
 30
0.0
 11
116.7761078666071
 21
378.8949562831774
 31
0.0
  0
LINE
  5
3B29
330
A
100
AcDbEntity
  8
SHAPE_OUTLINE_BOLD_LINE_
100
AcDbLine
 10
643.6144115529781
 20
258.8949562831774
 30
0.0
 11
643.6144115529781
 21
363.8034782520031
 31
0.0
  0
LINE
  5
3B2A
330
A
100
AcDbEntity
  8
SHAPE_OUTLINE_BOLD_LINE_
100
AcDbLine
 10
643.6144115529781
 20
368.8949562831774
 30
0.0
 11
627.1144115529781
 21
368.8949562831774
 31
0.0
  0
LINE
  5
3B2B
330
A
100
AcDbEntity
  8
SHAPE_OUTLINE_BOLD_LINE_
100
AcDbLine
 10
624.6144115529781
 20
368.8949562831774
 30
0.0
 11
624.6144115529781
 21
362.3348675201506
 31
0.0
  0
LINE
  5
3B2C
330
A
100
AcDbEntity
  8
SHAPE_OUTLINE_BOLD_LINE_
100
AcDbLine
 10
624.6144115529781
 20
258.8949562831774
 30
0.0
 11
627.1144115529781
 21
258.8949562831774
 31
0.0
  0
LINE
  5
3B2D
330
A
100
AcDbEntity
  8
SHAPE_OUTLINE_BOLD_LINE_
100
AcDbLine
 10
116.7761078666071
 20
257.8949562831774
 30
0.0
 11
110.776107866607
 21
257.8949562831774
 31
0.0
  0
LINE
  5
3B2E
330
A
100
AcDbEntity
  8
SHAPE_OUTLINE_BOLD_LINE_
100
AcDbLine
 10
132.7761078666071
 20
266.8949562831774
 30
0.0
 11
132.7761078666071
 21
257.8949562831774
 31
0.0
  0
LINE
  5
3B2F
330
A
100
AcDbEntity
  8
SHAPE_OUTLINE_BOLD_LINE_
100
AcDbLine
 10
130.7761078666071
 20
266.8949562831774
 30
0.0
 11
132.7761078666071
 21
266.8949562831774
 31
0.0
  0
LINE
  5
3B30
330
A
100
AcDbEntity
  8
SHAPE_OUTLINE_BOLD_LINE_
100
AcDbLine
 10
121.7761078666071
 20
360.8949562831774
 30
0.0
 11
121.7761078666071
 21
266.8949562831774
 31
0.0
  0
LINE
  5
3B31
330
A
100
AcDbEntity
  8
SHAPE_OUTLINE_BOLD_LINE_
100
AcDbLine
 10
130.7761078666071
 20
360.8949562831774
 30
0.0
 11
121.7761078666071
 21
360.8949562831774
 31
0.0
  0
LINE
  5
3B32
330
A
100
AcDbEntity
  8
SHAPE_OUTLINE_BOLD_LINE_
100
AcDbLine
 10
132.7761078666071
 20
368.8949562831774
 30
0.0
 11
132.7761078666071
 21
362.8360893012611
 31
0.0
  0
LINE
  5
3B33
330
A
100
AcDbEntity
  8
SHAPE_OUTLINE_BOLD_LINE_
100
AcDbLine
 10
116.7761078666071
 20
368.8949562831774
 30
0.0
 11
132.7761078666071
 21
368.8949562831774
 31
0.0
  0
LINE
  5
3B34
330
A
100
AcDbEntity
  8
SHAPE_OUTLINE_BOLD_LINE_
100
AcDbLine
 10
110.776107866607
 20
257.8949562831774
 30
0.0
 11
110.776107866607
 21
361.2203529340947
 31
0.0
  0
LINE
  5
3B35
330
A
100
AcDbEntity
  8
SHAPE_OUTLINE_BOLD_LINE_
100
AcDbLine
 10
625.064411552978
 20
267.3949562831773
 30
0.0
 11
625.064411552978
 21
361.3949562831774
 31
0.0
  0
LINE
  5
3B36
330
A
100
AcDbEntity
  8
SHAPE_OUTLINE_BOLD_LINE_
100
AcDbLine
 10
625.064411552978
 20
361.3949562831774
 30
0.0
 11
627.1144115529781
 21
361.3949562831774
 31
0.0
  0
LINE
  5
3B37
330
A
100
AcDbEntity
  8
SHAPE_OUTLINE_BOLD_LINE_
100
AcDbLine
 10
643.164411552978
 20
361.3949562831774
 30
0.0
 11
643.164411552978
 21
267.3949562831773
 31
0.0
  0
LINE
  5
3B38
330
A
100
AcDbEntity
  8
SHAPE_OUTLINE_BOLD_LINE_
100
AcDbLine
 10
643.164411552978
 20
267.3949562831773
 30
0.0
 11
641.1144115529781
 21
267.3949562831773
 31
0.0
  0
LINE
  5
3B39
330
A
100
AcDbEntity
  8
CENTER
100
AcDbLine
 10
628.3644115529781
 20
353.8949562831774
 30
0.0
 11
639.8644115529781
 21
353.8949562831774
 31
0.0
  0
LINE
  5
3B3A
330
A
100
AcDbEntity
  8
CENTER
100
AcDbLine
 10
628.3644115529781
 20
273.8949562831775
 30
0.0
 11
639.8644115529781
 21
273.8949562831775
 31
0.0
  0
LINE
  5
3B3B
330
A
100
AcDbEntity
  8
SHAPE_OUTLINE_BOLD_LINE_
100
AcDbLine
 10
641.1144115529781
 20
258.8949562831774
 30
0.0
 11
643.6144115529781
 21
258.8949562831774
 31
0.0
  0
LINE
  5
3B3C
330
A
100
AcDbEntity
  8
SHAPE_OUTLINE_BOLD_LINE_
100
AcDbLine
 10
627.1144115529781
 20
258.8949562831774
 30
0.0
 11
641.1144115529781
 21
258.8949562831774
 31
0.0
  0
LINE
  5
3B3D
330
A
100
AcDbEntity
  8
SHAPE_OUTLINE_BOLD_LINE_
100
AcDbLine
 10
627.1144115529781
 20
368.8949562831774
 30
0.0
 11
627.1144115529781
 21
378.8949562831774
 31
0.0
  0
LINE
  5
3B3E
330
A
100
AcDbEntity
  8
SHAPE_OUTLINE_BOLD_LINE_
100
AcDbLine
 10
627.1144115529781
 20
368.8949562831774
 30
0.0
 11
624.6144115529781
 21
368.8949562831774
 31
0.0
  0
LINE
  5
3B3F
330
A
100
AcDbEntity
  8
SHAPE_OUTLINE_BOLD_LINE_
100
AcDbLine
 10
627.1144115529781
 20
378.8949562831774
 30
0.0
 11
641.1144115529781
 21
378.8949562831774
 31
0.0
  0
LINE
  5
3B40
330
A
100
AcDbEntity
  8
SHAPE_OUTLINE_BOLD_LINE_
100
AcDbLine
 10
627.1144115529781
 20
267.3949562831773
 30
0.0
 11
627.1144115529781
 21
361.3949562831774
 31
0.0
  0
LINE
  5
3B41
330
A
100
AcDbEntity
  8
SHAPE_OUTLINE_BOLD_LINE_
100
AcDbLine
 10
627.1144115529781
 20
267.3949562831773
 30
0.0
 11
625.064411552978
 21
267.3949562831773
 31
0.0
  0
LINE
  5
3B42
330
A
100
AcDbEntity
  8
SHAPE_OUTLINE_BOLD_LINE_
100
AcDbLine
 10
641.1144115529781
 20
361.3949562831774
 30
0.0
 11
641.1144115529781
 21
267.3949562831773
 31
0.0
  0
LINE
  5
3B43
330
A
100
AcDbEntity
  8
SHAPE_OUTLINE_BOLD_LINE_
100
AcDbLine
 10
641.1144115529781
 20
267.3949562831773
 30
0.0
 11
627.1144115529781
 21
267.3949562831773
 31
0.0
  0
LINE
  5
3B44
330
A
100
AcDbEntity
  8
SHAPE_OUTLINE_BOLD_LINE_
100
AcDbLine
 10
641.1144115529781
 20
361.3949562831774
 30
0.0
 11
643.164411552978
 21
361.3949562831774
 31
0.0
  0
LINE
  5
3B45
330
A
100
AcDbEntity
  8
SHAPE_OUTLINE_BOLD_LINE_
100
AcDbLine
 10
641.1144115529781
 20
378.8949562831774
 30
0.0
 11
641.1144115529781
 21
368.8949562831774
 31
0.0
  0
LINE
  5
3B4D
330
A
100
AcDbEntity
  8
SHAPE_OUTLINE_BOLD_LINE_
100
AcDbLine
 10
627.1144115529781
 20
361.3949562831774
 30
0.0
 11
641.1144115529781
 21
361.3949562831774
 31
0.0
  0
LINE
  5
3B58
330
A
100
AcDbEntity
  8
SHAPE_OUTLINE_BOLD_LINE_
100
AcDbLine
 10
643.6144115529781
 20
363.8034782520031
 30
0.0
 11
643.6144115529781
 21
368.8949562831774
 31
0.0
  0
LINE
  5
3B59
330
A
100
AcDbEntity
  8
SHAPE_OUTLINE_BOLD_LINE_
100
AcDbLine
 10
624.6144115529781
 20
362.3348675201506
 30
0.0
 11
624.6144115529781
 21
258.8949562831774
 31
0.0
  0
LINE
  5
3B5C
330
A
100
AcDbEntity
  8
SHAPE_OUTLINE_BOLD_LINE_
100
AcDbLine
 10
132.7761078666071
 20
257.8949562831774
 30
0.0
 11
130.7761078666071
 21
257.8949562831774
 31
0.0
  0
LINE
  5
3B5D
330
A
100
AcDbEntity
  8
SHAPE_OUTLINE_BOLD_LINE_
100
AcDbLine
 10
130.7761078666071
 20
257.8949562831774
 30
0.0
 11
116.7761078666071
 21
257.8949562831774
 31
0.0
  0
LINE
  5
3B5E
330
A
100
AcDbEntity
  8
SHAPE_OUTLINE_BOLD_LINE_
100
AcDbLine
 10
130.7761078666071
 20
378.8949562831774
 30
0.0
 11
130.7761078666071
 21
368.8949562831774
 31
0.0
  0
LINE
  5
3B5F
330
A
100
AcDbEntity
  8
SHAPE_OUTLINE_BOLD_LINE_
100
AcDbLine
 10
116.7761078666071
 20
378.8949562831774
 30
0.0
 11
130.7761078666071
 21
378.8949562831774
 31
0.0
  0
LINE
  5
3B61
330
A
100
AcDbEntity
  8
SHAPE_OUTLINE_BOLD_LINE_
100
AcDbLine
 10
110.776107866607
 20
368.8949562831774
 30
0.0
 11
116.7761078666071
 21
368.8949562831774
 31
0.0
  0
LINE
  5
3B62
330
A
100
AcDbEntity
  8
CENTER
100
AcDbLine
 10
123.7761078666071
 20
382.096716825296
 30
0.0
 11
123.7761078666071
 21
253.8949562831774
 31
0.0
  0
LINE
  5
3B63
330
A
100
AcDbEntity
  8
SHAPE_OUTLINE_BOLD_LINE_
100
AcDbLine
 10
130.7761078666071
 20
360.8949562831774
 30
0.0
 11
130.7761078666071
 21
266.8949562831774
 31
0.0
  0
LINE
  5
3B64
330
A
100
AcDbEntity
  8
SHAPE_OUTLINE_BOLD_LINE_
100
AcDbLine
 10
121.7761078666071
 20
266.8949562831774
 30
0.0
 11
130.7761078666071
 21
266.8949562831774
 31
0.0
  0
LINE
  5
3B65
330
A
100
AcDbEntity
  8
SHAPE_OUTLINE_BOLD_LINE_
100
AcDbLine
 10
132.7761078666071
 20
360.8949562831774
 30
0.0
 11
130.7761078666071
 21
360.8949562831774
 31
0.0
  0
LINE
  5
3B67
330
A
100
AcDbEntity
  8
SHAPE_OUTLINE_THIN_LINE_
  6
DASHED
100
AcDbLine
 10
130.7761078666071
 20
266.8949562831774
 30
0.0
 11
130.7761078666071
 21
257.8949562831774
 31
0.0
  0
LINE
  5
3B68
330
A
100
AcDbEntity
  8
SHAPE_OUTLINE_BOLD_LINE_
100
AcDbLine
 10
641.1144115529781
 20
258.8949562831774
 30
0.0
 11
641.1144115529781
 21
240.8949562831774
 31
0.0
  0
LINE
  5
3B69
330
A
100
AcDbEntity
  8
SHAPE_OUTLINE_BOLD_LINE_
100
AcDbLine
 10
627.1144115529781
 20
240.8949562831774
 30
0.0
 11
627.1144115529781
 21
258.8949562831774
 31
0.0
  0
LINE
  5
3B6A
330
A
100
AcDbEntity
  8
SHAPE_OUTLINE_BOLD_LINE_
100
AcDbLine
 10
632.1144115529782
 20
247.6031602156767
 30
0.0
 11
632.1144115529782
 21
250.3949562831774
 31
0.0
  0
LINE
  5
3B6B
330
A
100
AcDbEntity
  8
SHAPE_OUTLINE_BOLD_LINE_
100
AcDbLine
 10
632.6144115529782
 20
250.8949562831773
 30
0.0
 11
635.6144115529782
 21
250.8949562831773
 31
0.0
  0
LINE
  5
3B6C
330
A
100
AcDbEntity
  8
SHAPE_OUTLINE_BOLD_LINE_
100
AcDbLine
 10
636.1144115529782
 20
250.3949562831774
 30
0.0
 11
636.1144115529782
 21
247.6031602156767
 31
0.0
  0
LINE
  5
3B6D
330
A
100
AcDbEntity
  8
SHAPE_OUTLINE_BOLD_LINE_
100
AcDbLine
 10
632.1144115529782
 20
234.1867523506782
 30
0.0
 11
632.1144115529782
 21
231.3949562831774
 31
0.0
  0
LINE
  5
3B6E
330
A
100
AcDbEntity
  8
SHAPE_OUTLINE_BOLD_LINE_
100
AcDbLine
 10
632.6144115529782
 20
230.8949562831774
 30
0.0
 11
635.6144115529782
 21
230.8949562831774
 31
0.0
  0
LINE
  5
3B6F
330
A
100
AcDbEntity
  8
SHAPE_OUTLINE_BOLD_LINE_
100
AcDbLine
 10
636.1144115529782
 20
231.3949562831774
 30
0.0
 11
636.1144115529782
 21
234.1867523506782
 31
0.0
  0
LINE
  5
3B70
330
A
100
AcDbEntity
  8
SHAPE_OUTLINE_BOLD_LINE_
100
AcDbLine
 10
632.6144115529782
 20
250.8949562831773
 30
0.0
 11
632.1144115529782
 21
250.3949562831774
 31
0.0
  0
LINE
  5
3B71
330
A
100
AcDbEntity
  8
SHAPE_OUTLINE_BOLD_LINE_
100
AcDbLine
 10
636.1144115529782
 20
250.3949562831774
 30
0.0
 11
635.6144115529782
 21
250.8949562831773
 31
0.0
  0
LINE
  5
3B72
330
A
100
AcDbEntity
  8
SHAPE_OUTLINE_BOLD_LINE_
100
AcDbLine
 10
632.6144115529782
 20
230.8949562831774
 30
0.0
 11
632.1144115529782
 21
231.3949562831774
 31
0.0
  0
LINE
  5
3B73
330
A
100
AcDbEntity
  8
SHAPE_OUTLINE_BOLD_LINE_
100
AcDbLine
 10
636.1144115529782
 20
231.3949562831774
 30
0.0
 11
635.6144115529782
 21
230.8949562831774
 31
0.0
  0
LINE
  5
3B74
330
A
100
AcDbEntity
  8
SHAPE_OUTLINE_BOLD_LINE_
100
AcDbLine
 10
632.1144115529782
 20
250.3949562831774
 30
0.0
 11
636.1144115529782
 21
250.3949562831774
 31
0.0
  0
LINE
  5
3B75
330
A
100
AcDbEntity
  8
SHAPE_OUTLINE_BOLD_LINE_
100
AcDbLine
 10
632.1144115529782
 20
231.3949562831774
 30
0.0
 11
636.1144115529782
 21
231.3949562831774
 31
0.0
  0
LINE
  5
3B76
330
A
100
AcDbEntity
  8
CENTER
100
AcDbLine
 10
624.6474889813468
 20
240.8949562831774
 30
0.0
 11
644.1211943194559
 21
240.8949562831774
 31
0.0
  0
LINE
  5
3B77
330
A
100
AcDbEntity
  8
SHAPE_OUTLINE_BOLD_LINE_
100
AcDbLine
 10
136.776107866607
 20
247.8949562831774
 30
0.0
 11
483.2761078666071
 21
247.8949562831774
 31
0.0
  0
LINE
  5
3B78
330
A
100
AcDbEntity
  8
SHAPE_OUTLINE_BOLD_LINE_
100
AcDbLine
 10
130.7761078666071
 20
253.8949562831774
 30
0.0
 11
130.7761078666071
 21
257.8949562831774
 31
0.0
  0
LINE
  5
3B79
330
A
100
AcDbEntity
  8
SHAPE_OUTLINE_BOLD_LINE_
100
AcDbLine
 10
581.7761078666072
 20
247.8949562831774
 30
0.0
 11
581.7761078666072
 21
233.8949562831774
 31
0.0
  0
LINE
  5
3B7A
330
A
100
AcDbEntity
  8
SHAPE_OUTLINE_BOLD_LINE_
100
AcDbLine
 10
581.7761078666072
 20
233.8949562831774
 30
0.0
 11
483.2761078666071
 21
233.8949562831774
 31
0.0
  0
LINE
  5
3B7B
330
A
100
AcDbEntity
  8
SHAPE_OUTLINE_BOLD_LINE_
100
AcDbLine
 10
116.7761078666071
 20
257.8949562831774
 30
0.0
 11
116.7761078666071
 21
253.8949562831774
 31
0.0
  0
LINE
  5
3B7C
330
A
100
AcDbEntity
  8
SHAPE_OUTLINE_BOLD_LINE_
100
AcDbLine
 10
574.2761078666072
 20
247.8949562831774
 30
0.0
 11
574.2761078666072
 21
250.3649562831773
 31
0.0
  0
LINE
  5
3B7D
330
A
100
AcDbEntity
  8
SHAPE_OUTLINE_BOLD_LINE_
100
AcDbLine
 10
574.8061078666071
 20
250.8949562831773
 30
0.0
 11
577.7461078666073
 21
250.8949562831773
 31
0.0
  0
LINE
  5
3B7E
330
A
100
AcDbEntity
  8
SHAPE_OUTLINE_BOLD_LINE_
100
AcDbLine
 10
578.2761078666072
 20
250.3649562831773
 30
0.0
 11
578.2761078666072
 21
247.8949562831774
 31
0.0
  0
LINE
  5
3B7F
330
A
100
AcDbEntity
  8
SHAPE_OUTLINE_BOLD_LINE_
100
AcDbLine
 10
574.2761078666072
 20
233.8949562831774
 30
0.0
 11
574.2761078666072
 21
231.4249562831773
 31
0.0
  0
LINE
  5
3B80
330
A
100
AcDbEntity
  8
SHAPE_OUTLINE_BOLD_LINE_
100
AcDbLine
 10
574.8061078666071
 20
230.8949562831774
 30
0.0
 11
577.7461078666073
 21
230.8949562831774
 31
0.0
  0
LINE
  5
3B81
330
A
100
AcDbEntity
  8
SHAPE_OUTLINE_BOLD_LINE_
100
AcDbLine
 10
578.2761078666072
 20
231.4249562831773
 30
0.0
 11
578.2761078666072
 21
233.8949562831774
 31
0.0
  0
LINE
  5
3B82
330
A
100
AcDbEntity
  8
SHAPE_OUTLINE_BOLD_LINE_
100
AcDbLine
 10
574.8061078666071
 20
250.8949562831773
 30
0.0
 11
574.2761078666072
 21
250.3649562831773
 31
0.0
  0
LINE
  5
3B83
330
A
100
AcDbEntity
  8
SHAPE_OUTLINE_BOLD_LINE_
100
AcDbLine
 10
578.2761078666072
 20
250.3649562831773
 30
0.0
 11
577.7461078666073
 21
250.8949562831773
 31
0.0
  0
LINE
  5
3B84
330
A
100
AcDbEntity
  8
SHAPE_OUTLINE_BOLD_LINE_
100
AcDbLine
 10
574.8061078666071
 20
230.8949562831774
 30
0.0
 11
574.2761078666072
 21
231.4249562831773
 31
0.0
  0
LINE
  5
3B85
330
A
100
AcDbEntity
  8
SHAPE_OUTLINE_BOLD_LINE_
100
AcDbLine
 10
578.2761078666072
 20
231.4249562831773
 30
0.0
 11
577.7461078666073
 21
230.8949562831774
 31
0.0
  0
LINE
  5
3B86
330
A
100
AcDbEntity
  8
SHAPE_OUTLINE_BOLD_LINE_
100
AcDbLine
 10
574.2761078666072
 20
250.3649562831773
 30
0.0
 11
578.2761078666072
 21
250.3649562831773
 31
0.0
  0
LINE
  5
3B87
330
A
100
AcDbEntity
  8
SHAPE_OUTLINE_BOLD_LINE_
100
AcDbLine
 10
574.2761078666072
 20
231.4249562831773
 30
0.0
 11
578.2761078666072
 21
231.4249562831773
 31
0.0
  0
LINE
  5
3B88
330
A
100
AcDbEntity
  8
CENTER
100
AcDbLine
 10
576.2761078666073
 20
253.7257550220035
 30
0.0
 11
576.2761078666073
 21
227.6908985807699
 31
0.0
  0
LINE
  5
3B89
330
A
100
AcDbEntity
  8
CENTER
100
AcDbLine
 10
586.8387275616437
 20
240.8949562831774
 30
0.0
 11
136.776107866607
 21
240.8949562831774
 31
0.0
  0
LINE
  5
3B8C
330
A
100
AcDbEntity
  8
CENTER
100
AcDbLine
 10
634.1144115529781
 20
383.469342088455
 30
0.0
 11
634.1144115529781
 21
227.8291769822192
 31
0.0
  0
LINE
  5
3B8D
330
A
100
AcDbEntity
  8
SHAPE_OUTLINE_BOLD_LINE_
100
AcDbLine
 10
483.2761078666071
 20
247.8949562831774
 30
0.0
 11
581.7761078666072
 21
247.8949562831774
 31
0.0
  0
LINE
  5
3B8E
330
A
100
AcDbEntity
  8
SHAPE_OUTLINE_BOLD_LINE_
100
AcDbLine
 10
483.2761078666071
 20
233.8949562831774
 30
0.0
 11
136.776107866607
 21
233.8949562831774
 31
0.0
  0
LINE
  5
3D4E
330
A
100
AcDbEntity
  8
SHAPE_OUTLINE_THIN_LINE_
  6
DASHED
100
AcDbLine
 10
130.7761078666071
 20
368.8949562831774
 30
0.0
 11
130.7761078666071
 21
360.8949562831774
 31
0.0
  0
DIMENSION
  5
3D4F
330
A
100
AcDbEntity
  8
DIMENSIONS
100
AcDbDimension
  2
*D2
 10
123.7761078666071
 20
398.8949562831774
 30
0.0
 11
117.2761078666071
 21
403.8949562831774
 31
0.0
 70
    32
  3
STANDARD
100
AcDbAlignedDimension
 13
110.776107866607
 23
368.8949562831774
 33
0.0
 14
123.7761078666071
 24
382.096716825296
 34
0.0
100
AcDbRotatedDimension
  0
DIMENSION
  5
3D5C
330
A
100
AcDbEntity
  8
DIMENSIONS
100
AcDbDimension
  2
*D3
 10
132.7761078666071
 20
412.8949562831774
 30
0.0
 11
121.7761078666071
 21
417.8949562831774
 31
0.0
 70
    32
  3
STANDARD
100
AcDbAlignedDimension
 13
110.776107866607
 23
368.8949562831774
 33
0.0
 14
132.7761078666071
 24
368.8949562831774
 34
0.0
100
AcDbRotatedDimension
  0
DIMENSION
  5
3D69
330
A
100
AcDbEntity
  8
DIMENSIONS
100
AcDbDimension
  2
*D4
 10
90.77610786660711
 20
233.8949562831774
 30
0.0
 11
85.77610786660706
 21
306.3949562831774
 31
0.0
 70
    32
  3
STANDARD
100
AcDbAlignedDimension
 13
116.7761078666071
 23
378.8949562831774
 33
0.0
 14
136.776107866607
 24
233.8949562831774
 34
0.0
 50
90.0
100
AcDbRotatedDimension
  0
DIMENSION
  5
3D76
330
A
100
AcDbEntity
  8
DIMENSIONS
100
AcDbDimension
  2
*D5
 10
581.7761078666072
 20
213.8949562831774
 30
0.0
 11
349.2761078666071
 21
218.8949562831774
 31
0.0
 70
    32
  3
STANDARD
100
AcDbAlignedDimension
 13
116.7761078666071
 23
253.8949562831774
 33
0.0
 14
581.7761078666072
 24
233.8949562831774
 34
0.0
100
AcDbRotatedDimension
  0
DIMENSION
  5
3D83
330
A
100
AcDbEntity
  8
DIMENSIONS
100
AcDbDimension
  2
*D6
 10
110.776107866607
 20
199.8949562831774
 30
0.0
 11
346.2761078666071
 21
204.8949562831773
 31
0.0
 70
    32
  3
STANDARD
100
AcDbAlignedDimension
 13
581.7761078666072
 23
233.8949562831774
 33
0.0
 14
110.776107866607
 24
257.8949562831774
 34
0.0
100
AcDbRotatedDimension
  0
DIMENSION
  5
3D90
330
A
100
AcDbEntity
  8
DIMENSIONS
100
AcDbDimension
  2
*D7
 10
601.7761078666072
 20
250.8949562831773
 30
0.0
 11
596.7761078666073
 21
240.8949562831775
 31
0.0
 70
    32
  3
STANDARD
100
AcDbAlignedDimension
 13
577.7461078666073
 23
230.8949562831774
 33
0.0
 14
577.7461078666073
 24
250.8949562831773
 34
0.0
 50
90.0
100
AcDbRotatedDimension
  0
DIMENSION
  5
3D9D
330
A
100
AcDbEntity
  8
DIMENSIONS
100
AcDbDimension
  2
*D8
 10
578.2761078666072
 20
272.8949562831774
 30
0.0
 11
575.9055222804845
 21
277.9926924431038
 31
0.0
 70
   160
  1
φ<>
  3
STANDARD
100
AcDbAlignedDimension
 13
574.2761078666072
 23
250.3649562831773
 33
0.0
 14
578.2761078666072
 24
250.3649562831773
 34
0.0
100
AcDbRotatedDimension
  0
DIMENSION
  5
3DAB
330
A
100
AcDbEntity
  8
DIMENSIONS
100
AcDbDimension
  2
*D9
 10
581.7761078666072
 20
261.2590859612387
 30
0.0
 11
586.663289324807
 21
266.6303141590733
 31
0.0
 70
   160
  3
STANDARD
100
AcDbAlignedDimension
 13
576.2761078666073
 23
253.7257550220035
 33
0.0
 14
581.7761078666072
 24
247.8949562831774
 34
0.0
100
AcDbRotatedDimension
  0
DIMENSION
  5
3DF5
330
A
100
AcDbEntity
  8
DIMENSIONS
100
AcDbDimension
  2
*D10
 10
641.1144115529781
 20
210.8949562831774
 30
0.0
 11
647.9078285092636
 21
216.5513183471757
 31
0.0
 70
   160
  1
φ<>
  3
STANDARD
100
AcDbAlignedDimension
 13
627.1144115529781
 23
240.8949562831774
 33
0.0
 14
641.1144115529781
 24
240.8949562831774
 34
0.0
100
AcDbRotatedDimension
  0
DIMENSION
  5
3E02
330
A
100
AcDbEntity
  8
DIMENSIONS
100
AcDbDimension
  2
*D11
 10
663.6144115529781
 20
353.8949562831774
 30
0.0
 11
658.614411552978
 21
313.8949562831776
 31
0.0
 70
    32
  3
STANDARD
100
AcDbAlignedDimension
 13
639.8644115529781
 23
273.8949562831775
 33
0.0
 14
639.8644115529781
 24
353.8949562831774
 34
0.0
 50
90.0
100
AcDbRotatedDimension
  0
DIMENSION
  5
3E0F
330
A
100
AcDbEntity
  8
DIMENSIONS
100
AcDbDimension
  2
*D12
 10
663.6144115529781
 20
368.8949562831774
 30
0.0
 11
658.614411552978
 21
361.3949562831775
 31
0.0
 70
    32
  3
STANDARD
100
AcDbAlignedDimension
 13
639.8644115529781
 23
353.8949562831774
 33
0.0
 14
643.6144115529781
 24
368.8949562831774
 34
0.0
 50
90.0
100
AcDbRotatedDimension
  0
DIMENSION
  5
3E1C
330
A
100
AcDbEntity
  8
DIMENSIONS
100
AcDbDimension
  2
*D13
 10
663.6144115529781
 20
378.8949562831774
 30
0.0
 11
658.614411552978
 21
373.8949562831775
 31
0.0
 70
    32
  3
STANDARD
100
AcDbAlignedDimension
 13
643.6144115529781
 23
368.8949562831774
 33
0.0
 14
641.1144115529781
 24
378.8949562831774
 34
0.0
 50
90.0
100
AcDbRotatedDimension
  0
DIMENSION
  5
3E29
330
A
100
AcDbEntity
  8
DIMENSIONS
100
AcDbDimension
  2
*D14
 10
677.6144115529781
 20
258.8949562831774
 30
0.0
 11
672.614411552978
 21
313.8949562831776
 31
0.0
 70
    32
  3
STANDARD
100
AcDbAlignedDimension
 13
643.6144115529781
 23
368.8949562831774
 33
0.0
 14
643.6144115529781
 24
258.8949562831774
 34
0.0
 50
90.0
100
AcDbRotatedDimension
  0
DIMENSION
  5
3E36
330
A
100
AcDbEntity
  8
DIMENSIONS
100
AcDbDimension
  2
*D15
 10
643.6144115529781
 20
398.8949562831774
 30
0.0
 11
634.1144115529781
 21
403.8949562831774
 31
0.0
 70
    32
  3
STANDARD
100
AcDbAlignedDimension
 13
624.6144115529781
 23
368.8949562831774
 33
0.0
 14
643.6144115529781
 24
368.8949562831774
 34
0.0
100
AcDbRotatedDimension
  0
LINE
  5
42F8
330
A
100
AcDbEntity
  8
CENTER
100
AcDbLine
 10
630.9144115529782
 20
371.3949562831774
 30
0.0
 11
637.3144115529781
 21
371.3949562831774
 31
0.0
  0
LINE
  5
42F9
330
A
100
AcDbEntity
  8
CENTER
100
AcDbLine
 10
115.4813155321608
 20
371.3949562831774
 30
0.0
 11
120.8414750286342
 21
371.3949562831774
 31
0.0
  0
ENDSEC
  0
SECTION
  2
OBJECTS
  0
DICTIONARY
  5
19
330
0
100
AcDbDictionary
  3
ACAD_GROUP
350
1A
  3
ACAD_LAYOUT
350
157A
  3
ACAD_MLINESTYLE
350
1B
  3
ACAD_PLOTSETTINGS
350
157B
  3
ACAD_PLOTSTYLENAME
350
1578
  3
ACDBHEADERROUNDTRIPXREC
350
4341
  3
ACDBVARIABLEDICTIONARY
350
3478
  3
ADE_QUERY_LIBRARY
350
3622
1001
ADE
1000
ADE02C004
1000
[Query]
1000
CaseSensitiveMatch=0
1000
SaveCurrQueryInSession=1
1000
MkSelSetWithQryObj=0
1000
ShowBlockAsInsPt=0
1000
CreateAssociativeHatchObjects=0
1000
ReferenceBoundaryForAreaLocation=1
1000
ShowImageAsBoundary=1
1000
DefaultJoinOperator=2
1000
ColorForAdd=red
1000
ColorForRemove=red
1000
BlockLocnForQuery=1
1000
TextLocnForQuery=1
1000
[Save Back]
1000
RedefineBlockDefinitions=1
1000
RedefineLayerDefinitions=1
1000
RedefineTextStyleDefinitions=1
1000
RemoveUnusedGroups=1
1000
EraseSavedBackObjects=1
1000
RemoveLockAfterSave=1
1000
CreateHistoryFileOfChanges=0
1000
CreateBackupFileOfSourceDwg=1
1000
DontAddObjectsToSaveSet=0
1000
MarkObjectsForEditingWithoutPrompting=0
1000
[Coordinate Transformation]
1000
RestoreLastActiveDwgsOnStartup=1
1000
ActivateDwgsOnAttach=1
1000
AdjustSizesAndScalesForChangesInUnits=1
1000
AdjustRotationsForMapDistortions=1
1000
AdjustSizesAndScalesForMapDistortions=1
1000
AdjustElevations=1
1000
AdjustZeroRotationObjects=1
1000
ReconnectDbOnWSOpen=1
1000
NoOfSQLConditionsInHistory=10
  0
DICTIONARY
  5
36A5
330
A
100
AcDbDictionary
280
     1
  3
ACAD_LAYOUTSELFREF
360
4362
  3
ACAD_SORTENTS
360
36A6
  0
DICTIONARY
  5
4363
330
B
100
AcDbDictionary
280
     1
  3
ACAD_LAYOUTSELFREF
360
4364
  0
DICTIONARY
  5
1A
102
{ACAD_REACTORS
330
19
102
}
330
19
100
AcDbDictionary
  0
DICTIONARY
  5
157A
102
{ACAD_REACTORS
330
19
102
}
330
19
100
AcDbDictionary
  0
DICTIONARY
  5
1B
102
{ACAD_REACTORS
330
19
102
}
330
19
100
AcDbDictionary
  3
STANDARD
350
1C
  0
DICTIONARY
  5
157B
102
{ACAD_REACTORS
330
19
102
}
330
19
100
AcDbDictionary
  0
ACDBDICTIONARYWDFLT
  5
1578
102
{ACAD_REACTORS
330
19
102
}
330
19
100
AcDbDictionary
281
     1
  3
Normal
350
1579
100
AcDbDictionaryWithDefault
340
1579
  0
DICTIONARY
  5
4341
102
{ACAD_REACTORS
330
19
102
}
330
19
100
AcDbDictionary
  3
CEPSNTYPE
350
434B
  3
DIMSTYLEDATA
350
434F
  3
FINGERPRINTGUID
350
434C
  3
HYPERLINKBASE
350
4344
  3
INSUNITS
350
434A
  3
LAYOUTDICT
350
4346
  3
LWETCUNION
350
4349
  3
PLOTSETDICT
350
4347
  3
PLOTSTYLNAMDICT
350
4348
  3
PSVPSCALE
350
434E
  3
PUCSBASE
350
4352
  3
PUCSORGBACK
350
4358
  3
PUCSORGBOTTOM
350
4354
  3
PUCSORGFRONT
350
4357
  3
PUCSORGLEFT
350
4355
  3
PUCSORGRIGHT
350
4356
  3
PUCSORGTOP
350
4353
  3
PUCSORTHOREF
350
4350
  3
PUCSORTHOVIEW
350
4351
  3
STYLESHEET
350
4345
  3
TSTACKALIGN
350
4342
  3
TSTACKSIZE
350
4343
  3
UCSBASE
350
435B
  3
UCSORGBACK
350
4361
  3
UCSORGBOTTOM
350
435D
  3
UCSORGFRONT
350
4360
  3
UCSORGLEFT
350
435E
  3
UCSORGRIGHT
350
435F
  3
UCSORGTOP
350
435C
  3
UCSORTHOREF
350
4359
  3
UCSORTHOVIEW
350
435A
  3
VERSIONGUID
350
434D
  0
DICTIONARY
  5
3478
102
{ACAD_REACTORS
330
19
102
}
330
19
100
AcDbDictionary
  3
DIMASSOC
350
3479
  3
SORTENTS
350
36A9
  0
DICTIONARY
  5
3622
102
{ACAD_REACTORS
330
19
102
}
330
19
100
AcDbDictionary
  3
_CURRQRY
350
4300
  0
XRECORD
  5
4362
102
{ACAD_REACTORS
330
36A5
102
}
330
36A5
100
AcDbXrecord
340
A
  0
SORTENTSTABLE
  5
36A6
102
{ACAD_REACTORS
330
36A5
102
}
330
36A5
100
AcDbSortentsTable
330
A
331
35F8
  5
35FD
331
3607
  5
3634
  0
XRECORD
  5
4364
102
{ACAD_REACTORS
330
4363
102
}
330
4363
100
AcDbXrecord
340
B
  0
MLINESTYLE
  5
1C
102
{ACAD_REACTORS
330
1B
102
}
330
1B
100
AcDbMlineStyle
  2
STANDARD
 70
     0
  3

 62
     0
 51
90.0
 52
90.0
 71
     2
 49
0.5
 62
   256
  6
BYLAYER
 49
-0.5
 62
   256
  6
BYLAYER
  0
ACDBPLACEHOLDER
  5
1579
102
{ACAD_REACTORS
330
1578
102
}
330
1578
100
AcDbPlaceHolder
280
     0
  0
XRECORD
  5
434B
102
{ACAD_REACTORS
330
4341
102
}
330
4341
100
AcDbXrecord
 90
        0
  0
XRECORD
  5
434F
102
{ACAD_REACTORS
330
4341
102
}
330
4341
100
AcDbXrecord
1000
DSTYLE
1002
{
1070
   279
 70
     2
1070
   341
340
143A
1070
   342
340
143A
1070
   371
 70
    -1
1070
   372
 70
    -1
1002
}
  0
XRECORD
  5
434C
102
{ACAD_REACTORS
330
4341
102
}
330
4341
100
AcDbXrecord
  1
{5653D33C-3AEF-40FE-8495-DE925CF19E35}
  0
XRECORD
  5
4344
102
{ACAD_REACTORS
330
4341
102
}
330
4341
100
AcDbXrecord
  1

  0
XRECORD
  5
434A
102
{ACAD_REACTORS
330
4341
102
}
330
4341
100
AcDbXrecord
 90
        0
  0
XRECORD
  5
4346
102
{ACAD_REACTORS
330
4341
102
}
330
4341
100
AcDbXrecord
340
157A
  0
XRECORD
  5
4349
102
{ACAD_REACTORS
330
4341
102
}
330
4341
100
AcDbXrecord
 90
    10781
  0
XRECORD
  5
4347
102
{ACAD_REACTORS
330
4341
102
}
330
4341
100
AcDbXrecord
340
157B
  0
XRECORD
  5
4348
102
{ACAD_REACTORS
330
4341
102
}
330
4341
100
AcDbXrecord
340
1578
  0
XRECORD
  5
434E
102
{ACAD_REACTORS
330
4341
102
}
330
4341
100
AcDbXrecord
 40
0.0
  0
XRECORD
  5
4352
102
{ACAD_REACTORS
330
4341
102
}
330
4341
100
AcDbXrecord
340
0
  0
XRECORD
  5
4358
102
{ACAD_REACTORS
330
4341
102
}
330
4341
100
AcDbXrecord
 10
0.0
 20
0.0
 30
0.0
  0
XRECORD
  5
4354
102
{ACAD_REACTORS
330
4341
102
}
330
4341
100
AcDbXrecord
 10
0.0
 20
0.0
 30
0.0
  0
XRECORD
  5
4357
102
{ACAD_REACTORS
330
4341
102
}
330
4341
100
AcDbXrecord
 10
0.0
 20
0.0
 30
0.0
  0
XRECORD
  5
4355
102
{ACAD_REACTORS
330
4341
102
}
330
4341
100
AcDbXrecord
 10
0.0
 20
0.0
 30
0.0
  0
XRECORD
  5
4356
102
{ACAD_REACTORS
330
4341
102
}
330
4341
100
AcDbXrecord
 10
0.0
 20
0.0
 30
0.0
  0
XRECORD
  5
4353
102
{ACAD_REACTORS
330
4341
102
}
330
4341
100
AcDbXrecord
 10
0.0
 20
0.0
 30
0.0
  0
XRECORD
  5
4350
102
{ACAD_REACTORS
330
4341
102
}
330
4341
100
AcDbXrecord
340
0
  0
XRECORD
  5
4351
102
{ACAD_REACTORS
330
4341
102
}
330
4341
100
AcDbXrecord
 70
     0
  0
XRECORD
  5
4345
102
{ACAD_REACTORS
330
4341
102
}
330
4341
100
AcDbXrecord
  1
スガツネWeb_mono.ctb
  0
XRECORD
  5
4342
102
{ACAD_REACTORS
330
4341
102
}
330
4341
100
AcDbXrecord
 90
        1
  0
XRECORD
  5
4343
102
{ACAD_REACTORS
330
4341
102
}
330
4341
100
AcDbXrecord
 90
       70
  0
XRECORD
  5
435B
102
{ACAD_REACTORS
330
4341
102
}
330
4341
100
AcDbXrecord
340
0
  0
XRECORD
  5
4361
102
{ACAD_REACTORS
330
4341
102
}
330
4341
100
AcDbXrecord
 10
0.0
 20
0.0
 30
0.0
  0
XRECORD
  5
435D
102
{ACAD_REACTORS
330
4341
102
}
330
4341
100
AcDbXrecord
 10
0.0
 20
0.0
 30
0.0
  0
XRECORD
  5
4360
102
{ACAD_REACTORS
330
4341
102
}
330
4341
100
AcDbXrecord
 10
0.0
 20
0.0
 30
0.0
  0
XRECORD
  5
435E
102
{ACAD_REACTORS
330
4341
102
}
330
4341
100
AcDbXrecord
 10
0.0
 20
0.0
 30
0.0
  0
XRECORD
  5
435F
102
{ACAD_REACTORS
330
4341
102
}
330
4341
100
AcDbXrecord
 10
0.0
 20
0.0
 30
0.0
  0
XRECORD
  5
435C
102
{ACAD_REACTORS
330
4341
102
}
330
4341
100
AcDbXrecord
 10
0.0
 20
0.0
 30
0.0
  0
XRECORD
  5
4359
102
{ACAD_REACTORS
330
4341
102
}
330
4341
100
AcDbXrecord
340
0
  0
XRECORD
  5
435A
102
{ACAD_REACTORS
330
4341
102
}
330
4341
100
AcDbXrecord
 70
     0
  0
XRECORD
  5
434D
102
{ACAD_REACTORS
330
4341
102
}
330
4341
100
AcDbXrecord
  1
{D7A9ED29-9DAC-4F9C-A49A-0044F5BB0518}
  0
DICTIONARYVAR
  5
3479
102
{ACAD_REACTORS
330
3478
102
}
330
3478
100
DictionaryVariables
280
     0
  1
1
  0
DICTIONARYVAR
  5
36A9
102
{ACAD_REACTORS
330
3478
102
}
330
3478
100
DictionaryVariables
280
     0
  1
127
  0
XRECORD
  5
4300
102
{ACAD_REACTORS
330
3622
102
}
330
3622
100
AcDbXrecord
1000
ADE02C001
1070
     1
1070
     0
1002
{
1002
}
1002
{
1002
}
1002
{
1002
}
1000

  0
ENDSEC
  0
EOF
