  0
SECTION
  2
HEADER
  9
$ACADVER
  1
AC1014
  9
$ACADMAINTVER
 70
     0
  9
$DWGCODEPAGE
  3
ANSI_932
  9
$INSBASE
 10
0.0
 20
0.0
 30
0.0
  9
$EXTMIN
 10
-10.0
 20
-10.00000000000005
 30
0.0
  9
$EXTMAX
 10
410.0000000000001
 20
286.9999999999999
 30
0.0
  9
$LIMMIN
 10
0.0
 20
0.0
  9
$LIMMAX
 10
0.0
 20
0.0
  9
$ORTHOMODE
 70
     1
  9
$REGENMODE
 70
     1
  9
$FILLMODE
 70
     1
  9
$QTEXTMODE
 70
     0
  9
$MIRRTEXT
 70
     1
  9
$DRAGMODE
 70
     2
  9
$LTSCALE
 40
0.1
  9
$OSMODE
 70
     0
  9
$ATTMODE
 70
     1
  9
$TEXTSIZE
 40
0.0
  9
$TRACEWID
 40
0.05
  9
$TEXTSTYLE
  7
STANDARD
  9
$CLAYER
  8
0
  9
$CELTYPE
  6
BYLAYER
  9
$CECOLOR
 62
   256
  9
$CELTSCALE
 40
1.0
  9
$DELOBJ
 70
     1
  9
$DISPSILH
 70
     0
  9
$DIMSCALE
 40
1.0
  9
$DIMASZ
 40
2.0
  9
$DIMEXO
 40
2.0
  9
$DIMDLI
 40
0.5
  9
$DIMRND
 40
0.0
  9
$DIMDLE
 40
0.0
  9
$DIMEXE
 40
1.0
  9
$DIMTP
 40
0.0
  9
$DIMTM
 40
0.0
  9
$DIMTXT
 40
3.0
  9
$DIMCEN
 40
0.0
  9
$DIMTSZ
 40
0.0
  9
$DIMTOL
 70
     0
  9
$DIMLIM
 70
     0
  9
$DIMTIH
 70
     0
  9
$DIMTOH
 70
     1
  9
$DIMSE1
 70
     0
  9
$DIMSE2
 70
     0
  9
$DIMTAD
 70
     1
  9
$DIMZIN
 70
     8
  9
$DIMBLK
  1
OPEN30
  9
$DIMASO
 70
     1
  9
$DIMSHO
 70
     1
  9
$DIMPOST
  1

  9
$DIMAPOST
  1

  9
$DIMALT
 70
     0
  9
$DIMALTD
 70
     2
  9
$DIMALTF
 40
25.4
  9
$DIMLFAC
 40
1.0
  9
$DIMTOFL
 70
     0
  9
$DIMTVP
 40
0.0
  9
$DIMTIX
 70
     1
  9
$DIMSOXD
 70
     0
  9
$DIMSAH
 70
     0
  9
$DIMBLK1
  1

  9
$DIMBLK2
  1

  9
$DIMSTYLE
  2
STANDARD
  9
$DIMCLRD
 70
   256
  9
$DIMCLRE
 70
   256
  9
$DIMCLRT
 70
     3
  9
$DIMTFAC
 40
1.0
  9
$DIMGAP
 40
1.0
  9
$DIMJUST
 70
     0
  9
$DIMSD1
 70
     0
  9
$DIMSD2
 70
     0
  9
$DIMTOLJ
 70
     1
  9
$DIMTZIN
 70
     0
  9
$DIMALTZ
 70
     0
  9
$DIMALTTZ
 70
     0
  9
$DIMFIT
 70
     5
  9
$DIMUPT
 70
     0
  9
$DIMUNIT
 70
     2
  9
$DIMDEC
 70
     1
  9
$DIMTDEC
 70
     1
  9
$DIMALTU
 70
     2
  9
$DIMALTTD
 70
     2
  9
$DIMTXSTY
  7
STANDARD
  9
$DIMAUNIT
 70
     0
  9
$LUNITS
 70
     2
  9
$LUPREC
 70
     4
  9
$SKETCHINC
 40
0.1
  9
$FILLETRAD
 40
0.0
  9
$AUNITS
 70
     0
  9
$AUPREC
 70
     0
  9
$MENU
  1
acad
  9
$ELEVATION
 40
0.0
  9
$PELEVATION
 40
0.0
  9
$THICKNESS
 40
0.0
  9
$LIMCHECK
 70
     0
  9
$BLIPMODE
 70
     0
  9
$CHAMFERA
 40
0.0
  9
$CHAMFERB
 40
0.0
  9
$CHAMFERC
 40
0.0
  9
$CHAMFERD
 40
0.0
  9
$SKPOLY
 70
     0
  9
$TDCREATE
 40
2312272.457674340
  9
$TDUPDATE
 40
2454126.779252928
  9
$TDINDWG
 40
0.1797911111
  9
$TDUSRTIMER
 40
0.1797905671
  9
$USRTIMER
 70
     1
  9
$ANGBASE
 50
0.0
  9
$ANGDIR
 70
     0
  9
$PDMODE
 70
     0
  9
$PDSIZE
 40
0.0
  9
$PLINEWID
 40
0.0
  9
$COORDS
 70
     2
  9
$SPLFRAME
 70
     0
  9
$SPLINETYPE
 70
     6
  9
$SPLINESEGS
 70
     8
  9
$ATTDIA
 70
     0
  9
$ATTREQ
 70
     1
  9
$HANDLING
 70
 22529
  9
$HANDSEED
  5
3DA2
  9
$SURFTAB1
 70
     6
  9
$SURFTAB2
 70
     6
  9
$SURFTYPE
 70
     6
  9
$SURFU
 70
     6
  9
$SURFV
 70
     6
  9
$UCSNAME
  2

  9
$UCSORG
 10
0.0
 20
0.0
 30
0.0
  9
$UCSXDIR
 10
1.0
 20
0.0
 30
0.0
  9
$UCSYDIR
 10
0.0
 20
1.0
 30
0.0
  9
$PUCSNAME
  2

  9
$PUCSORG
 10
0.0
 20
0.0
 30
0.0
  9
$PUCSXDIR
 10
1.0
 20
0.0
 30
0.0
  9
$PUCSYDIR
 10
0.0
 20
1.0
 30
0.0
  9
$USERI1
 70
     0
  9
$USERI2
 70
     0
  9
$USERI3
 70
     0
  9
$USERI4
 70
     0
  9
$USERI5
 70
     0
  9
$USERR1
 40
12.01
  9
$USERR2
 40
0.0
  9
$USERR3
 40
0.0
  9
$USERR4
 40
0.0
  9
$USERR5
 40
0.0
  9
$WORLDVIEW
 70
     1
  9
$SHADEDGE
 70
     3
  9
$SHADEDIF
 70
    70
  9
$TILEMODE
 70
     1
  9
$MAXACTVP
 70
    16
  9
$PINSBASE
 10
0.0
 20
0.0
 30
0.0
  9
$PLIMCHECK
 70
     0
  9
$PEXTMIN
 10
1.000000000000000E+20
 20
1.000000000000000E+20
 30
1.000000000000000E+20
  9
$PEXTMAX
 10
-1.000000000000000E+20
 20
-1.000000000000000E+20
 30
-1.000000000000000E+20
  9
$PLIMMIN
 10
0.0
 20
0.0
  9
$PLIMMAX
 10
12.0
 20
9.0
  9
$UNITMODE
 70
     0
  9
$VISRETAIN
 70
     0
  9
$PLINEGEN
 70
     1
  9
$PSLTSCALE
 70
     0
  9
$TREEDEPTH
 70
  3020
  9
$PICKSTYLE
 70
     1
  9
$CMLSTYLE
  2
STANDARD
  9
$CMLJUST
 70
     0
  9
$CMLSCALE
 40
1.0
  9
$PROXYGRAPHICS
 70
     0
  9
$MEASUREMENT
 70
     1
  0
ENDSEC
  0
SECTION
  2
CLASSES
  0
CLASS
  1
LWPOLYLINE
  2
AcDbPolyline
  3
AutoCAD 2000
 90
        0
280
     0
281
     1
  0
CLASS
  1
IMAGE
  2
AcDbRasterImage
  3
ISM
 90
      127
280
     0
281
     1
  0
CLASS
  1
OLE2FRAME
  2
AcDbOle2Frame
  3
AutoCAD 2000
 90
        0
280
     0
281
     1
  0
CLASS
  1
HATCH
  2
AcDbHatch
  3
AutoCAD 2000
 90
        0
280
     0
281
     1
  0
CLASS
  1
DICTIONARYVAR
  2
AcDbDictionaryVar
  3
AutoCAD 2000
 90
        0
280
     0
281
     0
  0
CLASS
  1
RASTERVARIABLES
  2
AcDbRasterVariables
  3
ISM
 90
        0
280
     0
281
     0
  0
CLASS
  1
IMAGEDEF
  2
AcDbRasterImageDef
  3
ISM
 90
        0
280
     0
281
     0
  0
CLASS
  1
IMAGEDEF_REACTOR
  2
AcDbRasterImageDefReactor
  3
ISM
 90
        1
280
     0
281
     0
  0
CLASS
  1
IDBUFFER
  2
AcDbIdBuffer
  3
AutoCAD 2000
 90
        0
280
     0
281
     0
  0
CLASS
  1
SPATIAL_FILTER
  2
AcDbSpatialFilter
  3
AutoCAD 2000
 90
        0
280
     0
281
     0
  0
CLASS
  1
XRECORD
  2
AcDbXrecord
  3
AutoCAD 2000
 90
        0
280
     0
281
     0
  0
CLASS
  1
SORTENTSTABLE
  2
AcDbSortentsTable
  3
AutoCAD 2000
 90
        0
280
     0
281
     0
  0
CLASS
  1
LAYER_INDEX
  2
AcDbLayerIndex
  3
AutoCAD 2000
 90
        0
280
     0
281
     0
  0
CLASS
  1
SPATIAL_INDEX
  2
AcDbSpatialIndex
  3
AutoCAD 2000
 90
        0
280
     0
281
     0
  0
CLASS
  1
OBJECT_PTR
  2
CAseDLPNTableRecord
  3
ASE-LPNTableRecord
 90
        1
280
     0
281
     0
  0
CLASS
  1
LAYOUT
  2
AcDbLayout
  3
AutoCAD 2000
 90
        0
280
     0
281
     0
  0
CLASS
  1
PLOTSETTINGS
  2
AcDbPlotSettings
  3
AutoCAD 2000
 90
        0
280
     0
281
     0
  0
CLASS
  1
ACDBDICTIONARYWDFLT
  2
AcDbDictionaryWithDefault
  3
AutoCAD 2000
 90
        0
280
     0
281
     0
  0
CLASS
  1
ACDBPLACEHOLDER
  2
AcDbPlaceHolder
  3
AutoCAD 2000
 90
        0
280
     0
281
     0
  0
CLASS
  1
LONG_TRANSACTION
  2
AcDbLongTransaction
  3
AutoCAD 2000
 90
        0
280
     0
281
     0
  0
CLASS
  1
LWPOLYLINE
  2
AcDbPolyline
  3
AutoCAD 2000
 90
        0
280
     0
281
     1
  0
CLASS
  1
HATCH
  2
AcDbHatch
  3
AutoCAD 2000
 90
        0
280
     0
281
     1
  0
CLASS
  1
XRECORD
  2
AcDbXrecord
  3
AutoCAD 2000
 90
        0
280
     0
281
     0
  0
ENDSEC
  0
SECTION
  2
TABLES
  0
TABLE
  2
VPORT
  5
7
330
0
100
AcDbSymbolTable
 70
     3
  0
VPORT
  5
3D7D
330
7
100
AcDbSymbolTableRecord
100
AcDbViewportTableRecord
  2
*ACTIVE
 70
     0
 10
0.0
 20
0.0
 11
1.0
 21
1.0
 12
200.0000009778887
 22
138.500000691507
 13
0.0
 23
0.0
 14
1.0
 24
1.0
 15
0.0
 25
0.0
 16
0.0
 26
0.0
 36
1.0
 17
0.0
 27
0.0
 37
0.0
 40
299.3205935456245
 41
1.683053040103492
 42
50.0
 43
0.0
 44
0.0
 50
0.0
 51
0.0
 71
     0
 72
   100
 73
     1
 74
     1
 75
     0
 76
     0
 77
     0
 78
     0
  0
ENDTAB
  0
TABLE
  2
LTYPE
  5
4
330
0
100
AcDbSymbolTable
 70
     3
  0
LTYPE
  5
11
330
4
100
AcDbSymbolTableRecord
100
AcDbLinetypeTableRecord
  2
BYBLOCK
 70
     0
  3

 72
    65
 73
     0
 40
0.0
  0
LTYPE
  5
12
330
4
100
AcDbSymbolTableRecord
100
AcDbLinetypeTableRecord
  2
BYLAYER
 70
     0
  3

 72
    65
 73
     0
 40
0.0
  0
LTYPE
  5
13
330
4
100
AcDbSymbolTableRecord
100
AcDbLinetypeTableRecord
  2
CONTINUOUS
 70
     0
  3
Solid line
 72
    65
 73
     0
 40
0.0
  0
LTYPE
  5
1D
330
4
100
AcDbSymbolTableRecord
100
AcDbLinetypeTableRecord
  2
DASHED
 70
     0
  3
Dashed
 72
    65
 73
     2
 40
15.0
 49
7.0
 74
     0
 49
-8.0
 74
     0
  0
LTYPE
  5
3407
330
4
100
AcDbSymbolTableRecord
100
AcDbLinetypeTableRecord
  2
CENTER
 70
     0
  3
Center ____ _ ____ _ ____ _ ____ _ ____ _ ____
 72
    65
 73
     4
 40
50.8
 49
31.75
 74
     0
 49
-6.349999999999999
 74
     0
 49
6.349999999999999
 74
     0
 49
-6.349999999999999
 74
     0
  0
ENDTAB
  0
TABLE
  2
LAYER
  5
2
330
0
100
AcDbSymbolTable
 70
     7
  0
LAYER
  5
14
330
2
100
AcDbSymbolTableRecord
100
AcDbLayerTableRecord
  2
0
 70
     0
 62
     7
  6
CONTINUOUS
  0
LAYER
  5
32EF
330
2
100
AcDbSymbolTableRecord
100
AcDbLayerTableRecord
  2
DEFPOINTS
 70
     0
 62
     7
  6
CONTINUOUS
  0
LAYER
  5
340D
330
2
100
AcDbSymbolTableRecord
100
AcDbLayerTableRecord
  2
DIMENSIONS
 70
     0
 62
     2
  6
CONTINUOUS
  0
LAYER
  5
3412
330
2
100
AcDbSymbolTableRecord
100
AcDbLayerTableRecord
  2
SHAPE_OUTLINE_BOLD_LINE_
 70
     0
 62
     7
  6
CONTINUOUS
  0
LAYER
  5
341C
330
2
100
AcDbSymbolTableRecord
100
AcDbLayerTableRecord
  2
SHAPE_OUTLINE_THIN_LINE_
 70
     0
 62
     2
  6
CONTINUOUS
  0
LAYER
  5
3574
330
2
100
AcDbSymbolTableRecord
100
AcDbLayerTableRecord
  2
FILE_NAME
 70
     0
 62
     1
  6
CONTINUOUS
  0
LAYER
  5
36A1
330
2
100
AcDbSymbolTableRecord
100
AcDbLayerTableRecord
  2
CENTER
 70
     0
 62
     2
  6
CENTER
  0
ENDTAB
  0
TABLE
  2
STYLE
  5
3
330
0
100
AcDbSymbolTable
 70
     1
  0
STYLE
  5
17
330
3
100
AcDbSymbolTableRecord
100
AcDbTextStyleTableRecord
  2
STANDARD
 70
     0
 40
0.0
 41
1.0
 50
0.0
 71
     0
 42
0.0
  3
MS Gothic.ttf
  4

1001
ACAD
1000
MS Gothic
1071
    32817
  0
ENDTAB
  0
TABLE
  2
VIEW
  5
5
330
0
100
AcDbSymbolTable
 70
     0
  0
ENDTAB
  0
TABLE
  2
UCS
  5
6
330
0
100
AcDbSymbolTable
 70
     0
  0
ENDTAB
  0
TABLE
  2
APPID
  5
8
330
0
100
AcDbSymbolTable
 70
     3
  0
APPID
  5
16
330
8
100
AcDbSymbolTableRecord
100
AcDbRegAppTableRecord
  2
ACAD
 70
     0
  0
APPID
  5
3475
330
8
100
AcDbSymbolTableRecord
100
AcDbRegAppTableRecord
  2
DCO15
 70
     0
  0
APPID
  5
3621
330
8
100
AcDbSymbolTableRecord
100
AcDbRegAppTableRecord
  2
ADE
 70
     0
  0
ENDTAB
  0
TABLE
  2
DIMSTYLE
  5
9
330
0
100
AcDbSymbolTable
 70
     1
  0
DIMSTYLE
105
18
102
{ACAD_REACTORS
330
3C3E
330
3C4B
330
3C58
330
3C65
330
3C72
330
3C7F
330
3C8C
330
3C99
330
3CA6
330
3CB4
330
3CD6
330
3CE3
330
3CF0
330
3CFD
102
}
330
9
100
AcDbSymbolTableRecord
100
AcDbDimStyleTableRecord
  2
STANDARD
 70
     0
  3

  4

  5
OPEN30
  6

  7

 40
1.0
 41
2.0
 42
2.0
 43
0.5
 44
1.0
 45
0.0
 46
0.0
 47
0.0
 48
0.0
140
3.0
141
0.0
142
0.0
143
25.4
144
1.0
145
0.0
146
1.0
147
1.0
 71
     0
 72
     0
 73
     0
 74
     1
 75
     0
 76
     0
 77
     1
 78
     8
170
     0
171
     2
172
     0
173
     0
174
     1
175
     0
176
   256
177
   256
178
     3
270
     2
271
     1
272
     1
273
     2
274
     2
340
17
275
     0
280
     0
281
     0
282
     0
283
     1
284
     0
285
     0
286
     0
287
     5
288
     0
  0
ENDTAB
  0
TABLE
  2
BLOCK_RECORD
  5
1
330
0
100
AcDbSymbolTable
 70
    16
  0
BLOCK_RECORD
  5
A
102
{ACAD_XDICTIONARY
360
36A5
102
}
330
1
100
AcDbSymbolTableRecord
100
AcDbBlockTableRecord
  2
*MODEL_SPACE
  0
BLOCK_RECORD
  5
B
102
{ACAD_XDICTIONARY
360
3DA0
102
}
330
1
100
AcDbSymbolTableRecord
100
AcDbBlockTableRecord
  2
*PAPER_SPACE
  0
BLOCK_RECORD
  5
143A
330
1
100
AcDbSymbolTableRecord
100
AcDbBlockTableRecord
  2
_OPEN30
  0
BLOCK_RECORD
  5
3C3F
330
1
100
AcDbSymbolTableRecord
100
AcDbBlockTableRecord
  2
*D2
  0
BLOCK_RECORD
  5
3C4C
330
1
100
AcDbSymbolTableRecord
100
AcDbBlockTableRecord
  2
*D3
  0
BLOCK_RECORD
  5
3C59
330
1
100
AcDbSymbolTableRecord
100
AcDbBlockTableRecord
  2
*D4
  0
BLOCK_RECORD
  5
3C66
330
1
100
AcDbSymbolTableRecord
100
AcDbBlockTableRecord
  2
*D5
  0
BLOCK_RECORD
  5
3C73
330
1
100
AcDbSymbolTableRecord
100
AcDbBlockTableRecord
  2
*D6
  0
BLOCK_RECORD
  5
3C80
330
1
100
AcDbSymbolTableRecord
100
AcDbBlockTableRecord
  2
*D7
  0
BLOCK_RECORD
  5
3C8D
330
1
100
AcDbSymbolTableRecord
100
AcDbBlockTableRecord
  2
*D8
  0
BLOCK_RECORD
  5
3C9A
330
1
100
AcDbSymbolTableRecord
100
AcDbBlockTableRecord
  2
*D9
  0
BLOCK_RECORD
  5
3CA7
330
1
100
AcDbSymbolTableRecord
100
AcDbBlockTableRecord
  2
*D10
  0
BLOCK_RECORD
  5
3CB5
330
1
100
AcDbSymbolTableRecord
100
AcDbBlockTableRecord
  2
*D11
  0
BLOCK_RECORD
  5
3CD7
330
1
100
AcDbSymbolTableRecord
100
AcDbBlockTableRecord
  2
*D12
  0
BLOCK_RECORD
  5
3CE4
330
1
100
AcDbSymbolTableRecord
100
AcDbBlockTableRecord
  2
*D13
  0
BLOCK_RECORD
  5
3CF1
330
1
100
AcDbSymbolTableRecord
100
AcDbBlockTableRecord
  2
*D14
  0
BLOCK_RECORD
  5
3CFE
330
1
100
AcDbSymbolTableRecord
100
AcDbBlockTableRecord
  2
*D15
  0
ENDTAB
  0
ENDSEC
  0
SECTION
  2
BLOCKS
  0
BLOCK
  5
D
330
A
100
AcDbEntity
  8
0
100
AcDbBlockBegin
  2
*MODEL_SPACE
 70
     0
 10
0.0
 20
0.0
 30
0.0
  3
*MODEL_SPACE
  1

  0
ENDBLK
  5
E
330
A
100
AcDbEntity
  8
0
100
AcDbBlockEnd
  0
BLOCK
  5
F
330
B
100
AcDbEntity
 67
     1
  8
0
100
AcDbBlockBegin
  2
*PAPER_SPACE
 70
     0
 10
0.0
 20
0.0
 30
0.0
  3
*PAPER_SPACE
  1

  0
ENDBLK
  5
10
330
B
100
AcDbEntity
 67
     1
  8
0
100
AcDbBlockEnd
  0
BLOCK
  5
143B
330
143A
100
AcDbEntity
  8
0
 62
     0
100
AcDbBlockBegin
  2
_OPEN30
 70
     0
 10
0.0
 20
0.0
 30
0.0
  3
_OPEN30
  1

  0
LINE
  5
143C
330
143A
100
AcDbEntity
  8
0
  6
BYBLOCK
 62
     0
100
AcDbLine
 10
-1.0
 20
0.267949
 30
0.0
 11
0.0
 21
0.0
 31
0.0
  0
LINE
  5
143D
330
143A
100
AcDbEntity
  8
0
  6
BYBLOCK
 62
     0
100
AcDbLine
 10
0.0
 20
0.0
 30
0.0
 11
-1.0
 21
-0.267949
 31
0.0
  0
LINE
  5
143E
330
143A
100
AcDbEntity
  8
0
  6
BYBLOCK
 62
     0
100
AcDbLine
 10
0.0
 20
0.0
 30
0.0
 11
-1.0
 21
0.0
 31
0.0
  0
ENDBLK
  5
143F
330
143A
100
AcDbEntity
  8
0
 62
     0
100
AcDbBlockEnd
  0
BLOCK
  5
3C49
330
3C3F
100
AcDbEntity
  8
0
100
AcDbBlockBegin
  2
*D2
 70
     1
 10
0.0
 20
0.0
 30
0.0
  3
*D2
  1

  0
LINE
  5
3C40
330
3C3F
100
AcDbEntity
  8
DIMENSIONS
100
AcDbLine
 10
79.80585394505055
 20
218.2582914642857
 30
0.0
 11
79.80585394505055
 21
231.0082914642857
 31
0.0
  0
LINE
  5
3C41
330
3C3F
100
AcDbEntity
  8
DIMENSIONS
100
AcDbLine
 10
159.8058539450505
 20
218.2582914642857
 30
0.0
 11
159.8058539450505
 21
231.0082914642857
 31
0.0
  0
LINE
  5
3C42
330
3C3F
100
AcDbEntity
  8
DIMENSIONS
100
AcDbLine
 10
81.80585394505056
 20
230.0082914642857
 30
0.0
 11
157.8058539450505
 21
230.0082914642857
 31
0.0
  0
INSERT
  5
3C43
330
3C3F
100
AcDbEntity
  8
DIMENSIONS
100
AcDbBlockReference
  2
_OPEN30
 10
79.80585394505055
 20
230.0082914642857
 30
0.0
 41
2.0
 42
2.0
 43
2.0
 50
180.0
  0
INSERT
  5
3C44
330
3C3F
100
AcDbEntity
  8
DIMENSIONS
100
AcDbBlockReference
  2
_OPEN30
 10
159.8058539450505
 20
230.0082914642857
 30
0.0
 41
2.0
 42
2.0
 43
2.0
  0
MTEXT
  5
3C45
330
3C3F
100
AcDbEntity
  8
DIMENSIONS
 62
     3
100
AcDbMText
 10
119.8058539450505
 20
232.5082914642857
 30
0.0
 40
3.0
 41
0.0
 71
     5
 72
     1
  1
\A1;80
1001
ACAD
1000
MTEXTBEGIN
1070
    73
1070
     1
1070
    44
1040
1.0
1070
    74
1070
     0
1000
MTEXTEND
  0
POINT
  5
3C46
330
3C3F
100
AcDbEntity
  8
DEFPOINTS
 62
     0
100
AcDbPoint
 10
79.80585394505055
 20
216.2582914642857
 30
0.0
  0
POINT
  5
3C47
330
3C3F
100
AcDbEntity
  8
DEFPOINTS
 62
     0
100
AcDbPoint
 10
159.8058539450505
 20
216.2582914642857
 30
0.0
  0
POINT
  5
3C48
330
3C3F
100
AcDbEntity
  8
DEFPOINTS
 62
     0
100
AcDbPoint
 10
159.8058539450505
 20
230.0082914642857
 30
0.0
  0
ENDBLK
  5
3C4A
330
3C3F
100
AcDbEntity
  8
0
100
AcDbBlockEnd
  0
BLOCK
  5
3C56
330
3C4C
100
AcDbEntity
  8
0
100
AcDbBlockBegin
  2
*D3
 70
     1
 10
0.0
 20
0.0
 30
0.0
  3
*D3
  1

  0
LINE
  5
3C4D
330
3C4C
100
AcDbEntity
  8
DIMENSIONS
100
AcDbLine
 10
159.8058539450505
 20
218.2582914642857
 30
0.0
 11
159.8058539450505
 21
231.0082914642857
 31
0.0
  0
LINE
  5
3C4E
330
3C4C
100
AcDbEntity
  8
DIMENSIONS
100
AcDbLine
 10
174.8058539450505
 20
222.0082914642857
 30
0.0
 11
174.8058539450505
 21
231.0082914642857
 31
0.0
  0
LINE
  5
3C4F
330
3C4C
100
AcDbEntity
  8
DIMENSIONS
100
AcDbLine
 10
161.8058539450505
 20
230.0082914642857
 30
0.0
 11
172.8058539450505
 21
230.0082914642857
 31
0.0
  0
INSERT
  5
3C50
330
3C4C
100
AcDbEntity
  8
DIMENSIONS
100
AcDbBlockReference
  2
_OPEN30
 10
159.8058539450505
 20
230.0082914642857
 30
0.0
 41
2.0
 42
2.0
 43
2.0
 50
180.0
  0
INSERT
  5
3C51
330
3C4C
100
AcDbEntity
  8
DIMENSIONS
100
AcDbBlockReference
  2
_OPEN30
 10
174.8058539450505
 20
230.0082914642857
 30
0.0
 41
2.0
 42
2.0
 43
2.0
  0
MTEXT
  5
3C52
330
3C4C
100
AcDbEntity
  8
DIMENSIONS
 62
     3
100
AcDbMText
 10
167.3058539450505
 20
232.5082914642857
 30
0.0
 40
3.0
 41
0.0
 71
     5
 72
     1
  1
\A1;15
1001
ACAD
1000
MTEXTBEGIN
1070
    73
1070
     1
1070
    44
1040
1.0
1070
    74
1070
     0
1000
MTEXTEND
  0
POINT
  5
3C53
330
3C4C
100
AcDbEntity
  8
DEFPOINTS
 62
     0
100
AcDbPoint
 10
159.8058539450505
 20
216.2582914642857
 30
0.0
  0
POINT
  5
3C54
330
3C4C
100
AcDbEntity
  8
DEFPOINTS
 62
     0
100
AcDbPoint
 10
174.8058539450505
 20
220.0082914642857
 30
0.0
  0
POINT
  5
3C55
330
3C4C
100
AcDbEntity
  8
DEFPOINTS
 62
     0
100
AcDbPoint
 10
174.8058539450505
 20
230.0082914642857
 30
0.0
  0
ENDBLK
  5
3C57
330
3C4C
100
AcDbEntity
  8
0
100
AcDbBlockEnd
  0
BLOCK
  5
3C63
330
3C59
100
AcDbEntity
  8
0
100
AcDbBlockBegin
  2
*D4
 70
     1
 10
0.0
 20
0.0
 30
0.0
  3
*D4
  1

  0
LINE
  5
3C5A
330
3C59
100
AcDbEntity
  8
DIMENSIONS
100
AcDbLine
 10
174.8058539450505
 20
222.0082914642857
 30
0.0
 11
174.8058539450505
 21
231.0082914642857
 31
0.0
  0
LINE
  5
3C5B
330
3C59
100
AcDbEntity
  8
DIMENSIONS
100
AcDbLine
 10
184.8058539450505
 20
219.5082914642857
 30
0.0
 11
184.8058539450505
 21
231.0082914642857
 31
0.0
  0
LINE
  5
3C5C
330
3C59
100
AcDbEntity
  8
DIMENSIONS
100
AcDbLine
 10
176.8058539450505
 20
230.0082914642857
 30
0.0
 11
182.8058539450505
 21
230.0082914642857
 31
0.0
  0
INSERT
  5
3C5D
330
3C59
100
AcDbEntity
  8
DIMENSIONS
100
AcDbBlockReference
  2
_OPEN30
 10
174.8058539450505
 20
230.0082914642857
 30
0.0
 41
2.0
 42
2.0
 43
2.0
 50
180.0
  0
INSERT
  5
3C5E
330
3C59
100
AcDbEntity
  8
DIMENSIONS
100
AcDbBlockReference
  2
_OPEN30
 10
184.8058539450505
 20
230.0082914642857
 30
0.0
 41
2.0
 42
2.0
 43
2.0
  0
MTEXT
  5
3C5F
330
3C59
100
AcDbEntity
  8
DIMENSIONS
 62
     3
100
AcDbMText
 10
179.8058539450505
 20
232.5082914642857
 30
0.0
 40
3.0
 41
0.0
 71
     5
 72
     1
  1
\A1;10
1001
ACAD
1000
MTEXTBEGIN
1070
    73
1070
     1
1070
    44
1040
1.0
1070
    74
1070
     0
1000
MTEXTEND
  0
POINT
  5
3C60
330
3C59
100
AcDbEntity
  8
DEFPOINTS
 62
     0
100
AcDbPoint
 10
174.8058539450505
 20
220.0082914642857
 30
0.0
  0
POINT
  5
3C61
330
3C59
100
AcDbEntity
  8
DEFPOINTS
 62
     0
100
AcDbPoint
 10
184.8058539450505
 20
217.5082914642857
 30
0.0
  0
POINT
  5
3C62
330
3C59
100
AcDbEntity
  8
DEFPOINTS
 62
     0
100
AcDbPoint
 10
184.8058539450505
 20
230.0082914642857
 30
0.0
  0
ENDBLK
  5
3C64
330
3C59
100
AcDbEntity
  8
0
100
AcDbBlockEnd
  0
BLOCK
  5
3C70
330
3C66
100
AcDbEntity
  8
0
100
AcDbBlockBegin
  2
*D5
 70
     1
 10
0.0
 20
0.0
 30
0.0
  3
*D5
  1

  0
LINE
  5
3C67
330
3C66
100
AcDbEntity
  8
DIMENSIONS
100
AcDbLine
 10
174.8058539450505
 20
222.0082914642857
 30
0.0
 11
174.8058539450505
 21
238.0082914642857
 31
0.0
  0
LINE
  5
3C68
330
3C66
100
AcDbEntity
  8
DIMENSIONS
100
AcDbLine
 10
64.80585394505055
 20
222.0082914642857
 30
0.0
 11
64.80585394505055
 21
238.0082914642857
 31
0.0
  0
LINE
  5
3C69
330
3C66
100
AcDbEntity
  8
DIMENSIONS
100
AcDbLine
 10
172.8058539450505
 20
237.0082914642857
 30
0.0
 11
66.80585394505055
 21
237.0082914642857
 31
0.0
  0
INSERT
  5
3C6A
330
3C66
100
AcDbEntity
  8
DIMENSIONS
100
AcDbBlockReference
  2
_OPEN30
 10
174.8058539450505
 20
237.0082914642857
 30
0.0
 41
2.0
 42
2.0
 43
2.0
  0
INSERT
  5
3C6B
330
3C66
100
AcDbEntity
  8
DIMENSIONS
100
AcDbBlockReference
  2
_OPEN30
 10
64.80585394505055
 20
237.0082914642857
 30
0.0
 41
2.0
 42
2.0
 43
2.0
 50
180.0
  0
MTEXT
  5
3C6C
330
3C66
100
AcDbEntity
  8
DIMENSIONS
 62
     3
100
AcDbMText
 10
119.8058539450505
 20
239.5082914642857
 30
0.0
 40
3.0
 41
0.0
 71
     5
 72
     1
  1
\A1;110
1001
ACAD
1000
MTEXTBEGIN
1070
    73
1070
     1
1070
    44
1040
1.0
1070
    74
1070
     0
1000
MTEXTEND
  0
POINT
  5
3C6D
330
3C66
100
AcDbEntity
  8
DEFPOINTS
 62
     0
100
AcDbPoint
 10
174.8058539450505
 20
220.0082914642857
 30
0.0
  0
POINT
  5
3C6E
330
3C66
100
AcDbEntity
  8
DEFPOINTS
 62
     0
100
AcDbPoint
 10
64.80585394505055
 20
220.0082914642857
 30
0.0
  0
POINT
  5
3C6F
330
3C66
100
AcDbEntity
  8
DEFPOINTS
 62
     0
100
AcDbPoint
 10
64.80585394505055
 20
237.0082914642857
 30
0.0
  0
ENDBLK
  5
3C71
330
3C66
100
AcDbEntity
  8
0
100
AcDbBlockEnd
  0
BLOCK
  5
3C7D
330
3C73
100
AcDbEntity
  8
0
100
AcDbBlockBegin
  2
*D6
 70
     1
 10
0.0
 20
0.0
 30
0.0
  3
*D6
  1

  0
LINE
  5
3C74
330
3C73
100
AcDbEntity
  8
DIMENSIONS
100
AcDbLine
 10
38.80585394505056
 20
199.5082914642857
 30
0.0
 11
38.80585394505056
 21
245.0082914642857
 31
0.0
  0
LINE
  5
3C75
330
3C73
100
AcDbEntity
  8
DIMENSIONS
100
AcDbLine
 10
184.8058539450505
 20
219.5082914642857
 30
0.0
 11
184.8058539450505
 21
245.0082914642857
 31
0.0
  0
LINE
  5
3C76
330
3C73
100
AcDbEntity
  8
DIMENSIONS
100
AcDbLine
 10
40.80585394505056
 20
244.0082914642857
 30
0.0
 11
182.8058539450505
 21
244.0082914642857
 31
0.0
  0
INSERT
  5
3C77
330
3C73
100
AcDbEntity
  8
DIMENSIONS
100
AcDbBlockReference
  2
_OPEN30
 10
38.80585394505056
 20
244.0082914642857
 30
0.0
 41
2.0
 42
2.0
 43
2.0
 50
180.0
  0
INSERT
  5
3C78
330
3C73
100
AcDbEntity
  8
DIMENSIONS
100
AcDbBlockReference
  2
_OPEN30
 10
184.8058539450505
 20
244.0082914642857
 30
0.0
 41
2.0
 42
2.0
 43
2.0
  0
MTEXT
  5
3C79
330
3C73
100
AcDbEntity
  8
DIMENSIONS
 62
     3
100
AcDbMText
 10
111.8058539450505
 20
246.5082914642857
 30
0.0
 40
3.0
 41
0.0
 71
     5
 72
     1
  1
\A1;146
1001
ACAD
1000
MTEXTBEGIN
1070
    73
1070
     1
1070
    44
1040
1.0
1070
    74
1070
     0
1000
MTEXTEND
  0
POINT
  5
3C7A
330
3C73
100
AcDbEntity
  8
DEFPOINTS
 62
     0
100
AcDbPoint
 10
38.80585394505056
 20
197.5082914642857
 30
0.0
  0
POINT
  5
3C7B
330
3C73
100
AcDbEntity
  8
DEFPOINTS
 62
     0
100
AcDbPoint
 10
184.8058539450505
 20
217.5082914642857
 30
0.0
  0
POINT
  5
3C7C
330
3C73
100
AcDbEntity
  8
DEFPOINTS
 62
     0
100
AcDbPoint
 10
184.8058539450505
 20
244.0082914642857
 30
0.0
  0
ENDBLK
  5
3C7E
330
3C73
100
AcDbEntity
  8
0
100
AcDbBlockEnd
  0
BLOCK
  5
3C8A
330
3C80
100
AcDbEntity
  8
0
100
AcDbBlockBegin
  2
*D7
 70
     1
 10
0.0
 20
0.0
 30
0.0
  3
*D7
  1

  0
LINE
  5
3C81
330
3C80
100
AcDbEntity
  8
DIMENSIONS
100
AcDbLine
 10
56.80585394505055
 20
217.5082914642857
 30
0.0
 11
27.80585394505056
 21
217.5082914642857
 31
0.0
  0
LINE
  5
3C82
330
3C80
100
AcDbEntity
  8
DIMENSIONS
100
AcDbLine
 10
56.80585394505055
 20
121.5082914642857
 30
0.0
 11
27.80585394505054
 21
121.5082914642857
 31
0.0
  0
LINE
  5
3C83
330
3C80
100
AcDbEntity
  8
DIMENSIONS
100
AcDbLine
 10
28.80585394505056
 20
215.5082914642857
 30
0.0
 11
28.80585394505054
 21
123.5082914642857
 31
0.0
  0
INSERT
  5
3C84
330
3C80
100
AcDbEntity
  8
DIMENSIONS
100
AcDbBlockReference
  2
_OPEN30
 10
28.80585394505056
 20
217.5082914642857
 30
0.0
 41
2.0
 42
2.0
 43
2.0
 50
90.0
  0
INSERT
  5
3C85
330
3C80
100
AcDbEntity
  8
DIMENSIONS
100
AcDbBlockReference
  2
_OPEN30
 10
28.80585394505054
 20
121.5082914642857
 30
0.0
 41
2.0
 42
2.0
 43
2.0
 50
270.0
  0
MTEXT
  5
3C86
330
3C80
100
AcDbEntity
  8
DIMENSIONS
 62
     3
100
AcDbMText
 10
26.30585394505052
 20
169.5082914642857
 30
0.0
 40
3.0
 41
0.0
 71
     5
 72
     1
  1
\A1;96
 11
0.0000000000000001
 21
1.0
 31
0.0
1001
ACAD
1000
MTEXTBEGIN
1070
    73
1070
     1
1070
    44
1040
1.0
1070
    74
1070
     0
1000
MTEXTEND
  0
POINT
  5
3C87
330
3C80
100
AcDbEntity
  8
DEFPOINTS
 62
     0
100
AcDbPoint
 10
58.80585394505056
 20
217.5082914642857
 30
0.0
  0
POINT
  5
3C88
330
3C80
100
AcDbEntity
  8
DEFPOINTS
 62
     0
100
AcDbPoint
 10
58.80585394505056
 20
121.5082914642857
 30
0.0
  0
POINT
  5
3C89
330
3C80
100
AcDbEntity
  8
DEFPOINTS
 62
     0
100
AcDbPoint
 10
28.80585394505054
 20
121.5082914642857
 30
0.0
  0
ENDBLK
  5
3C8B
330
3C80
100
AcDbEntity
  8
0
100
AcDbBlockEnd
  0
BLOCK
  5
3C97
330
3C8D
100
AcDbEntity
  8
0
100
AcDbBlockBegin
  2
*D8
 70
     1
 10
0.0
 20
0.0
 30
0.0
  3
*D8
  1

  0
LINE
  5
3C8E
330
3C8D
100
AcDbEntity
  8
DIMENSIONS
100
AcDbLine
 10
38.80585394505055
 20
139.5082914642857
 30
0.0
 11
38.80585394505055
 21
108.5082914642857
 31
0.0
  0
LINE
  5
3C8F
330
3C8D
100
AcDbEntity
  8
DIMENSIONS
100
AcDbLine
 10
313.8058539450505
 20
119.5082914642856
 30
0.0
 11
313.8058539450505
 21
108.5082914642857
 31
0.0
  0
LINE
  5
3C90
330
3C8D
100
AcDbEntity
  8
DIMENSIONS
100
AcDbLine
 10
40.80585394505055
 20
109.5082914642857
 30
0.0
 11
311.8058539450505
 21
109.5082914642857
 31
0.0
  0
INSERT
  5
3C91
330
3C8D
100
AcDbEntity
  8
DIMENSIONS
100
AcDbBlockReference
  2
_OPEN30
 10
38.80585394505055
 20
109.5082914642857
 30
0.0
 41
2.0
 42
2.0
 43
2.0
 50
180.0
  0
INSERT
  5
3C92
330
3C8D
100
AcDbEntity
  8
DIMENSIONS
100
AcDbBlockReference
  2
_OPEN30
 10
313.8058539450505
 20
109.5082914642857
 30
0.0
 41
2.0
 42
2.0
 43
2.0
  0
MTEXT
  5
3C93
330
3C8D
100
AcDbEntity
  8
DIMENSIONS
 62
     3
100
AcDbMText
 10
176.3058539450505
 20
112.0082914642857
 30
0.0
 40
3.0
 41
0.0
 71
     5
 72
     1
  1
\A1;275
1001
ACAD
1000
MTEXTBEGIN
1070
    73
1070
     1
1070
    44
1040
1.0
1070
    74
1070
     0
1000
MTEXTEND
  0
POINT
  5
3C94
330
3C8D
100
AcDbEntity
  8
DEFPOINTS
 62
     0
100
AcDbPoint
 10
38.80585394505055
 20
141.5082914642857
 30
0.0
  0
POINT
  5
3C95
330
3C8D
100
AcDbEntity
  8
DEFPOINTS
 62
     0
100
AcDbPoint
 10
313.8058539450505
 20
121.5082914642857
 30
0.0
  0
POINT
  5
3C96
330
3C8D
100
AcDbEntity
  8
DEFPOINTS
 62
     0
100
AcDbPoint
 10
313.8058539450505
 20
109.5082914642857
 30
0.0
  0
ENDBLK
  5
3C98
330
3C8D
100
AcDbEntity
  8
0
100
AcDbBlockEnd
  0
BLOCK
  5
3CA4
330
3C9A
100
AcDbEntity
  8
0
100
AcDbBlockBegin
  2
*D9
 70
     1
 10
0.0
 20
0.0
 30
0.0
  3
*D9
  1

  0
LINE
  5
3C9B
330
3C9A
100
AcDbEntity
  8
DIMENSIONS
100
AcDbLine
 10
311.7758539450505
 20
119.5082914642856
 30
0.0
 11
324.8058539450505
 21
119.5082914642856
 31
0.0
  0
LINE
  5
3C9C
330
3C9A
100
AcDbEntity
  8
DIMENSIONS
100
AcDbLine
 10
311.7758539450505
 20
147.5082914642857
 30
0.0
 11
324.8058539450505
 21
147.5082914642857
 31
0.0
  0
LINE
  5
3C9D
330
3C9A
100
AcDbEntity
  8
DIMENSIONS
100
AcDbLine
 10
323.8058539450505
 20
121.5082914642857
 30
0.0
 11
323.8058539450505
 21
145.5082914642857
 31
0.0
  0
INSERT
  5
3C9E
330
3C9A
100
AcDbEntity
  8
DIMENSIONS
100
AcDbBlockReference
  2
_OPEN30
 10
323.8058539450505
 20
119.5082914642856
 30
0.0
 41
2.0
 42
2.0
 43
2.0
 50
270.0
  0
INSERT
  5
3C9F
330
3C9A
100
AcDbEntity
  8
DIMENSIONS
100
AcDbBlockReference
  2
_OPEN30
 10
323.8058539450505
 20
147.5082914642857
 30
0.0
 41
2.0
 42
2.0
 43
2.0
 50
90.0
  0
MTEXT
  5
3CA0
330
3C9A
100
AcDbEntity
  8
DIMENSIONS
 62
     3
100
AcDbMText
 10
321.3058539450504
 20
133.5082914642857
 30
0.0
 40
3.0
 41
0.0
 71
     5
 72
     1
  1
\A1;28
 11
0.0000000000000001
 21
1.0
 31
0.0
1001
ACAD
1000
MTEXTBEGIN
1070
    73
1070
     1
1070
    44
1040
1.0
1070
    74
1070
     0
1000
MTEXTEND
  0
POINT
  5
3CA1
330
3C9A
100
AcDbEntity
  8
DEFPOINTS
 62
     0
100
AcDbPoint
 10
309.7758539450505
 20
119.5082914642856
 30
0.0
  0
POINT
  5
3CA2
330
3C9A
100
AcDbEntity
  8
DEFPOINTS
 62
     0
100
AcDbPoint
 10
309.7758539450505
 20
147.5082914642857
 30
0.0
  0
POINT
  5
3CA3
330
3C9A
100
AcDbEntity
  8
DEFPOINTS
 62
     0
100
AcDbPoint
 10
323.8058539450505
 20
147.5082914642857
 30
0.0
  0
ENDBLK
  5
3CA5
330
3C9A
100
AcDbEntity
  8
0
100
AcDbBlockEnd
  0
BLOCK
  5
3CB2
330
3CA7
100
AcDbEntity
  8
0
100
AcDbBlockBegin
  2
*D10
 70
     1
 10
0.0
 20
0.0
 30
0.0
  3
*D10
  1

  0
LINE
  5
3CCC
330
3CA7
100
AcDbEntity
  8
DIMENSIONS
100
AcDbLine
 10
308.3058539450505
 20
152.3390902031118
 30
0.0
 11
308.3058539450505
 21
158.5082914642857
 31
0.0
  0
LINE
  5
3CCD
330
3CA7
100
AcDbEntity
  8
DIMENSIONS
100
AcDbLine
 10
313.8058539450505
 20
137.5082914642857
 30
0.0
 11
313.8058539450505
 21
158.5082914642857
 31
0.0
  0
LINE
  5
3CCE
330
3CA7
100
AcDbEntity
  8
DIMENSIONS
100
AcDbLine
 10
306.3058539450505
 20
157.5082914642857
 30
0.0
 11
304.3058539450505
 21
157.5082914642857
 31
0.0
  0
LINE
  5
3CCF
330
3CA7
100
AcDbEntity
  8
DIMENSIONS
100
AcDbLine
 10
315.8058539450505
 20
157.5082914642857
 30
0.0
 11
317.8058539450505
 21
157.5082914642857
 31
0.0
  0
MTEXT
  5
3CD0
330
3CA7
100
AcDbEntity
  8
DIMENSIONS
 62
     3
100
AcDbMText
 10
314.1286720942771
 20
160.4810740045527
 30
0.0
 40
3.0
 41
0.0
 71
     5
 72
     1
  1
\A1;5.5
1001
ACAD
1000
MTEXTBEGIN
1070
    73
1070
     1
1070
    44
1040
1.0
1070
    74
1070
     0
1000
MTEXTEND
  0
INSERT
  5
3CD1
330
3CA7
100
AcDbEntity
  8
DIMENSIONS
100
AcDbBlockReference
  2
_OPEN30
 10
308.3058539450505
 20
157.5082914642857
 30
0.0
 41
2.0
 42
2.0
 43
2.0
  0
INSERT
  5
3CD2
330
3CA7
100
AcDbEntity
  8
DIMENSIONS
100
AcDbBlockReference
  2
_OPEN30
 10
313.8058539450505
 20
157.5082914642857
 30
0.0
 41
2.0
 42
2.0
 43
2.0
 50
180.0
  0
POINT
  5
3CD3
330
3CA7
100
AcDbEntity
  8
DEFPOINTS
 62
     0
100
AcDbPoint
 10
308.3058539450505
 20
150.3390902031118
 30
0.0
  0
POINT
  5
3CD4
330
3CA7
100
AcDbEntity
  8
DEFPOINTS
 62
     0
100
AcDbPoint
 10
313.8058539450505
 20
135.5082914642857
 30
0.0
  0
POINT
  5
3CD5
330
3CA7
100
AcDbEntity
  8
DEFPOINTS
 62
     0
100
AcDbPoint
 10
313.8058539450505
 20
157.5082914642857
 30
0.0
  0
ENDBLK
  5
3CB3
330
3CA7
100
AcDbEntity
  8
0
100
AcDbBlockEnd
  0
BLOCK
  5
3CC0
330
3CB5
100
AcDbEntity
  8
0
100
AcDbBlockBegin
  2
*D11
 70
     1
 10
0.0
 20
0.0
 30
0.0
  3
*D11
  1

  0
LINE
  5
3D13
330
3CB5
100
AcDbEntity
  8
DIMENSIONS
100
AcDbLine
 10
306.3058539450505
 20
148.9782914642857
 30
0.0
 11
306.3058539450505
 21
165.5082914642857
 31
0.0
  0
LINE
  5
3D14
330
3CB5
100
AcDbEntity
  8
DIMENSIONS
100
AcDbLine
 10
310.3058539450505
 20
148.9782914642857
 30
0.0
 11
310.3058539450505
 21
165.5082914642857
 31
0.0
  0
LINE
  5
3D15
330
3CB5
100
AcDbEntity
  8
DIMENSIONS
100
AcDbLine
 10
304.3058539450505
 20
164.5082914642857
 30
0.0
 11
302.3058539450505
 21
164.5082914642857
 31
0.0
  0
LINE
  5
3D16
330
3CB5
100
AcDbEntity
  8
DIMENSIONS
100
AcDbLine
 10
312.3058539450505
 20
164.5082914642857
 30
0.0
 11
314.3058539450505
 21
164.5082914642857
 31
0.0
  0
INSERT
  5
3D17
330
3CB5
100
AcDbEntity
  8
DIMENSIONS
100
AcDbBlockReference
  2
_OPEN30
 10
306.3058539450505
 20
164.5082914642857
 30
0.0
 41
2.0
 42
2.0
 43
2.0
  0
INSERT
  5
3D18
330
3CB5
100
AcDbEntity
  8
DIMENSIONS
100
AcDbBlockReference
  2
_OPEN30
 10
310.3058539450505
 20
164.5082914642857
 30
0.0
 41
2.0
 42
2.0
 43
2.0
 50
180.0
  0
MTEXT
  5
3D19
330
3CB5
100
AcDbEntity
  8
DIMENSIONS
 62
     3
100
AcDbMText
 10
308.3058539450505
 20
167.2519462866207
 30
0.0
 40
3.0
 41
0.0
 71
     5
 72
     1
  1
\A1;φ4
1001
ACAD
1000
MTEXTBEGIN
1070
    73
1070
     1
1070
    44
1040
1.0
1070
    74
1070
     0
1000
MTEXTEND
  0
POINT
  5
3D1A
330
3CB5
100
AcDbEntity
  8
DEFPOINTS
 62
     0
100
AcDbPoint
 10
306.3058539450505
 20
146.9782914642857
 30
0.0
  0
POINT
  5
3D1B
330
3CB5
100
AcDbEntity
  8
DEFPOINTS
 62
     0
100
AcDbPoint
 10
310.3058539450505
 20
146.9782914642857
 30
0.0
  0
POINT
  5
3D1C
330
3CB5
100
AcDbEntity
  8
DEFPOINTS
 62
     0
100
AcDbPoint
 10
310.3058539450505
 20
164.5082914642857
 30
0.0
  0
ENDBLK
  5
3CC1
330
3CB5
100
AcDbEntity
  8
0
100
AcDbBlockEnd
  0
BLOCK
  5
3CE1
330
3CD7
100
AcDbEntity
  8
0
100
AcDbBlockBegin
  2
*D12
 70
     1
 10
0.0
 20
0.0
 30
0.0
  3
*D12
  1

  0
LINE
  5
3CD8
330
3CD7
100
AcDbEntity
  8
DIMENSIONS
100
AcDbLine
 10
34.13038456779054
 20
82.96052076364878
 30
0.0
 11
27.80585394505056
 21
82.9605207636488
 31
0.0
  0
LINE
  5
3CD9
330
3CD7
100
AcDbEntity
  8
DIMENSIONS
100
AcDbLine
 10
62.80585394505056
 20
69.96052076364879
 30
0.0
 11
27.80585394505056
 21
69.9605207636488
 31
0.0
  0
LINE
  5
3CDA
330
3CD7
100
AcDbEntity
  8
DIMENSIONS
100
AcDbLine
 10
28.80585394505056
 20
80.9605207636488
 30
0.0
 11
28.80585394505055
 21
71.9605207636488
 31
0.0
  0
INSERT
  5
3CDB
330
3CD7
100
AcDbEntity
  8
DIMENSIONS
100
AcDbBlockReference
  2
_OPEN30
 10
28.80585394505056
 20
82.9605207636488
 30
0.0
 41
2.0
 42
2.0
 43
2.0
 50
90.0
  0
INSERT
  5
3CDC
330
3CD7
100
AcDbEntity
  8
DIMENSIONS
100
AcDbBlockReference
  2
_OPEN30
 10
28.80585394505055
 20
69.9605207636488
 30
0.0
 41
2.0
 42
2.0
 43
2.0
 50
270.0
  0
MTEXT
  5
3CDD
330
3CD7
100
AcDbEntity
  8
DIMENSIONS
 62
     3
100
AcDbMText
 10
26.30585394505054
 20
76.4605207636488
 30
0.0
 40
3.0
 41
0.0
 71
     5
 72
     1
  1
\A1;13
 11
0.0000000000000001
 21
1.0
 31
0.0
1001
ACAD
1000
MTEXTBEGIN
1070
    73
1070
     1
1070
    44
1040
1.0
1070
    74
1070
     0
1000
MTEXTEND
  0
POINT
  5
3CDE
330
3CD7
100
AcDbEntity
  8
DEFPOINTS
 62
     0
100
AcDbPoint
 10
36.13038456779054
 20
82.96052076364878
 30
0.0
  0
POINT
  5
3CDF
330
3CD7
100
AcDbEntity
  8
DEFPOINTS
 62
     0
100
AcDbPoint
 10
64.80585394505055
 20
69.96052076364879
 30
0.0
  0
POINT
  5
3CE0
330
3CD7
100
AcDbEntity
  8
DEFPOINTS
 62
     0
100
AcDbPoint
 10
28.80585394505055
 20
69.9605207636488
 30
0.0
  0
ENDBLK
  5
3CE2
330
3CD7
100
AcDbEntity
  8
0
100
AcDbBlockEnd
  0
BLOCK
  5
3CEE
330
3CE4
100
AcDbEntity
  8
0
100
AcDbBlockBegin
  2
*D13
 70
     1
 10
0.0
 20
0.0
 30
0.0
  3
*D13
  1

  0
LINE
  5
3CE5
330
3CE4
100
AcDbEntity
  8
DIMENSIONS
100
AcDbLine
 10
372.4375767068147
 20
220.0082914642857
 30
0.0
 11
381.4375767068147
 21
220.0082914642857
 31
0.0
  0
LINE
  5
3CE6
330
3CE4
100
AcDbEntity
  8
DIMENSIONS
100
AcDbLine
 10
372.4375767068147
 20
201.0082914642857
 30
0.0
 11
381.4375767068147
 21
201.0082914642857
 31
0.0
  0
LINE
  5
3CE7
330
3CE4
100
AcDbEntity
  8
DIMENSIONS
100
AcDbLine
 10
380.4375767068147
 20
218.0082914642857
 30
0.0
 11
380.4375767068147
 21
203.0082914642857
 31
0.0
  0
INSERT
  5
3CE8
330
3CE4
100
AcDbEntity
  8
DIMENSIONS
100
AcDbBlockReference
  2
_OPEN30
 10
380.4375767068147
 20
220.0082914642857
 30
0.0
 41
2.0
 42
2.0
 43
2.0
 50
90.0
  0
INSERT
  5
3CE9
330
3CE4
100
AcDbEntity
  8
DIMENSIONS
100
AcDbBlockReference
  2
_OPEN30
 10
380.4375767068147
 20
201.0082914642857
 30
0.0
 41
2.0
 42
2.0
 43
2.0
 50
270.0
  0
MTEXT
  5
3CEA
330
3CE4
100
AcDbEntity
  8
DIMENSIONS
 62
     3
100
AcDbMText
 10
377.9375767068147
 20
210.5082914642858
 30
0.0
 40
3.0
 41
0.0
 71
     5
 72
     1
  1
\A1;19
 11
0.0000000000000001
 21
1.0
 31
0.0
1001
ACAD
1000
MTEXTBEGIN
1070
    73
1070
     1
1070
    44
1040
1.0
1070
    74
1070
     0
1000
MTEXTEND
  0
POINT
  5
3CEB
330
3CE4
100
AcDbEntity
  8
DEFPOINTS
 62
     0
100
AcDbPoint
 10
370.4375767068147
 20
220.0082914642857
 30
0.0
  0
POINT
  5
3CEC
330
3CE4
100
AcDbEntity
  8
DEFPOINTS
 62
     0
100
AcDbPoint
 10
370.4375767068147
 20
201.0082914642857
 30
0.0
  0
POINT
  5
3CED
330
3CE4
100
AcDbEntity
  8
DEFPOINTS
 62
     0
100
AcDbPoint
 10
380.4375767068147
 20
201.0082914642857
 30
0.0
  0
ENDBLK
  5
3CEF
330
3CE4
100
AcDbEntity
  8
0
100
AcDbBlockEnd
  0
BLOCK
  5
3CFB
330
3CF1
100
AcDbEntity
  8
0
100
AcDbBlockBegin
  2
*D14
 70
     1
 10
0.0
 20
0.0
 30
0.0
  3
*D14
  1

  0
LINE
  5
3CF2
330
3CF1
100
AcDbEntity
  8
DIMENSIONS
100
AcDbLine
 10
348.4375767068147
 20
212.5082914642857
 30
0.0
 11
348.4375767068147
 21
231.0082914642857
 31
0.0
  0
LINE
  5
3CF3
330
3CF1
100
AcDbEntity
  8
DIMENSIONS
100
AcDbLine
 10
370.4375767068147
 20
212.5082914642857
 30
0.0
 11
370.4375767068147
 21
231.0082914642857
 31
0.0
  0
LINE
  5
3CF4
330
3CF1
100
AcDbEntity
  8
DIMENSIONS
100
AcDbLine
 10
350.4375767068147
 20
230.0082914642857
 30
0.0
 11
368.4375767068147
 21
230.0082914642857
 31
0.0
  0
INSERT
  5
3CF5
330
3CF1
100
AcDbEntity
  8
DIMENSIONS
100
AcDbBlockReference
  2
_OPEN30
 10
348.4375767068147
 20
230.0082914642857
 30
0.0
 41
2.0
 42
2.0
 43
2.0
 50
180.0
  0
INSERT
  5
3CF6
330
3CF1
100
AcDbEntity
  8
DIMENSIONS
100
AcDbBlockReference
  2
_OPEN30
 10
370.4375767068147
 20
230.0082914642857
 30
0.0
 41
2.0
 42
2.0
 43
2.0
  0
MTEXT
  5
3CF7
330
3CF1
100
AcDbEntity
  8
DIMENSIONS
 62
     3
100
AcDbMText
 10
359.4375767068147
 20
232.5082914642857
 30
0.0
 40
3.0
 41
0.0
 71
     5
 72
     1
  1
\A1;22
1001
ACAD
1000
MTEXTBEGIN
1070
    73
1070
     1
1070
    44
1040
1.0
1070
    74
1070
     0
1000
MTEXTEND
  0
POINT
  5
3CF8
330
3CF1
100
AcDbEntity
  8
DEFPOINTS
 62
     0
100
AcDbPoint
 10
348.4375767068147
 20
210.5082914642857
 30
0.0
  0
POINT
  5
3CF9
330
3CF1
100
AcDbEntity
  8
DEFPOINTS
 62
     0
100
AcDbPoint
 10
370.4375767068147
 20
210.5082914642857
 30
0.0
  0
POINT
  5
3CFA
330
3CF1
100
AcDbEntity
  8
DEFPOINTS
 62
     0
100
AcDbPoint
 10
370.4375767068147
 20
230.0082914642857
 30
0.0
  0
ENDBLK
  5
3CFC
330
3CF1
100
AcDbEntity
  8
0
100
AcDbBlockEnd
  0
BLOCK
  5
3D08
330
3CFE
100
AcDbEntity
  8
0
100
AcDbBlockBegin
  2
*D15
 70
     1
 10
0.0
 20
0.0
 30
0.0
  3
*D15
  1

  0
LINE
  5
3D0A
330
3CFE
100
AcDbEntity
  8
DIMENSIONS
100
AcDbLine
 10
350.4375767068147
 20
126.5082914642857
 30
0.0
 11
350.4375767068147
 21
108.5082914642857
 31
0.0
  0
LINE
  5
3D0B
330
3CFE
100
AcDbEntity
  8
DIMENSIONS
100
AcDbLine
 10
364.4375767068147
 20
126.5082914642857
 30
0.0
 11
364.4375767068147
 21
108.5082914642857
 31
0.0
  0
LINE
  5
3D0C
330
3CFE
100
AcDbEntity
  8
DIMENSIONS
100
AcDbLine
 10
352.4375767068147
 20
109.5082914642857
 30
0.0
 11
362.4375767068147
 21
109.5082914642857
 31
0.0
  0
INSERT
  5
3D0D
330
3CFE
100
AcDbEntity
  8
DIMENSIONS
100
AcDbBlockReference
  2
_OPEN30
 10
350.4375767068147
 20
109.5082914642857
 30
0.0
 41
2.0
 42
2.0
 43
2.0
 50
180.0
  0
INSERT
  5
3D0E
330
3CFE
100
AcDbEntity
  8
DIMENSIONS
100
AcDbBlockReference
  2
_OPEN30
 10
364.4375767068147
 20
109.5082914642857
 30
0.0
 41
2.0
 42
2.0
 43
2.0
  0
MTEXT
  5
3D0F
330
3CFE
100
AcDbEntity
  8
DIMENSIONS
 62
     3
100
AcDbMText
 10
357.4375767068147
 20
112.2519462866207
 30
0.0
 40
3.0
 41
0.0
 71
     5
 72
     1
  1
\A1;φ14
1001
ACAD
1000
MTEXTBEGIN
1070
    73
1070
     1
1070
    44
1040
1.0
1070
    74
1070
     0
1000
MTEXTEND
  0
POINT
  5
3D10
330
3CFE
100
AcDbEntity
  8
DEFPOINTS
 62
     0
100
AcDbPoint
 10
350.4375767068147
 20
128.5082914642857
 30
0.0
  0
POINT
  5
3D11
330
3CFE
100
AcDbEntity
  8
DEFPOINTS
 62
     0
100
AcDbPoint
 10
364.4375767068147
 20
128.5082914642857
 30
0.0
  0
POINT
  5
3D12
330
3CFE
100
AcDbEntity
  8
DEFPOINTS
 62
     0
100
AcDbPoint
 10
364.4375767068147
 20
109.5082914642857
 30
0.0
  0
ENDBLK
  5
3D09
330
3CFE
100
AcDbEntity
  8
0
100
AcDbBlockEnd
  0
ENDSEC
  0
SECTION
  2
ENTITIES
  0
TEXT
  5
35F8
330
A
100
AcDbEntity
  8
FILE_NAME
  6
CONTINUOUS
100
AcDbText
 10
0.0
 20
10.0
 30
0.0
 40
5.0
  1
14-7057-02-270
 41
0.75
100
AcDbText
  0
TEXT
  5
3607
330
A
100
AcDbEntity
  8
FILE_NAME
  6
CONTINUOUS
100
AcDbText
 10
0.0
 20
0.0
 30
0.0
 40
5.0
  1
12-14705702-270_1
 41
0.75
100
AcDbText
  0
TEXT
  5
36B6
330
A
100
AcDbEntity
  8
FILE_NAME
  6
CONTINUOUS
100
AcDbText
 10
0.0
 20
20.0
 30
0.0
 40
5.0
  1
ペーパーホルダーダブルタイプ 14-7057-02-270
 41
0.75
100
AcDbText
  0
ARC
  5
3AE3
330
A
100
AcDbEntity
  8
SHAPE_OUTLINE_BOLD_LINE_
100
AcDbCircle
 10
45.80585394505056
 20
82.96052076364878
 30
0.0
 40
7.0
100
AcDbArc
 50
180.0
 51
270.0
  0
ARC
  5
3AE4
330
A
100
AcDbEntity
  8
SHAPE_OUTLINE_BOLD_LINE_
100
AcDbCircle
 10
45.80585394505056
 20
82.96052076364878
 30
0.0
 40
7.0
100
AcDbArc
 50
90.0
 51
180.0
  0
ARC
  5
3AE5
330
A
100
AcDbEntity
  8
CENTER
100
AcDbCircle
 10
58.80585394505056
 20
141.5082914642857
 30
0.0
 40
13.0
100
AcDbArc
 50
180.0
 51
270.0
  0
ARC
  5
3AE6
330
A
100
AcDbEntity
  8
CENTER
100
AcDbCircle
 10
58.80585394505056
 20
197.5082914642857
 30
0.0
 40
13.0
100
AcDbArc
 50
90.0
 51
180.0
  0
ARC
  5
3AE7
330
A
100
AcDbEntity
  8
SHAPE_OUTLINE_BOLD_LINE_
100
AcDbCircle
 10
58.80585394505056
 20
141.5082914642857
 30
0.0
 40
6.0
100
AcDbArc
 50
180.0
 51
270.0
  0
ARC
  5
3AE8
330
A
100
AcDbEntity
  8
SHAPE_OUTLINE_BOLD_LINE_
100
AcDbCircle
 10
58.80585394505056
 20
197.5082914642857
 30
0.0
 40
6.0
100
AcDbArc
 50
90.0
 51
180.0
  0
ARC
  5
3AE9
330
A
100
AcDbEntity
  8
SHAPE_OUTLINE_BOLD_LINE_
100
AcDbCircle
 10
58.80585394505056
 20
141.5082914642857
 30
0.0
 40
20.0
100
AcDbArc
 50
180.0
 51
270.0
  0
ARC
  5
3AEA
330
A
100
AcDbEntity
  8
SHAPE_OUTLINE_BOLD_LINE_
100
AcDbCircle
 10
58.80585394505056
 20
197.5082914642857
 30
0.0
 40
20.0
100
AcDbArc
 50
90.0
 51
180.0
  0
CIRCLE
  5
3AEF
330
A
100
AcDbEntity
  8
SHAPE_OUTLINE_BOLD_LINE_
100
AcDbCircle
 10
308.3058539450505
 20
82.96052076364878
 30
0.0
 40
1.5
  0
CIRCLE
  5
3AF0
330
A
100
AcDbEntity
  8
SHAPE_OUTLINE_BOLD_LINE_
100
AcDbCircle
 10
308.3058539450505
 20
82.96052076364878
 30
0.0
 40
2.0
  0
CIRCLE
  5
3AF4
330
A
100
AcDbEntity
  8
SHAPE_OUTLINE_BOLD_LINE_
100
AcDbCircle
 10
357.4375767068147
 20
210.5082914642857
 30
0.0
 40
7.000000000000009
  0
ARC
  5
3AF7
330
A
100
AcDbEntity
  8
SHAPE_OUTLINE_BOLD_LINE_
100
AcDbCircle
 10
357.4375767068147
 20
128.5082914642857
 30
0.0
 40
6.99999999999994
100
AcDbArc
 50
253.3984504009834
 51
286.6015495990229
  0
ARC
  5
3AF8
330
A
100
AcDbEntity
  8
SHAPE_OUTLINE_BOLD_LINE_
100
AcDbCircle
 10
357.4375767068147
 20
128.5082914642857
 30
0.0
 40
7.0
100
AcDbArc
 50
180.0
 51
253.3984504009834
  0
ARC
  5
3AF9
330
A
100
AcDbEntity
  8
SHAPE_OUTLINE_BOLD_LINE_
100
AcDbCircle
 10
357.4375767068147
 20
128.5082914642857
 30
0.0
 40
7.0
100
AcDbArc
 50
0.0
 51
73.39845040097704
  0
ARC
  5
3AFA
330
A
100
AcDbEntity
  8
SHAPE_OUTLINE_BOLD_LINE_
100
AcDbCircle
 10
357.4375767068147
 20
128.5082914642857
 30
0.0
 40
7.00000000000004
100
AcDbArc
 50
73.39845040097704
 51
106.6015495990165
  0
ARC
  5
3AFB
330
A
100
AcDbEntity
  8
SHAPE_OUTLINE_BOLD_LINE_
100
AcDbCircle
 10
357.4375767068147
 20
128.5082914642857
 30
0.0
 40
6.999999999999969
100
AcDbArc
 50
106.6015495990165
 51
180.0
  0
ARC
  5
3AFC
330
A
100
AcDbEntity
  8
SHAPE_OUTLINE_BOLD_LINE_
100
AcDbCircle
 10
357.4375767068147
 20
128.5082914642857
 30
0.0
 40
7.000000000000009
100
AcDbArc
 50
286.6015495990229
 51
0.0
  0
ARC
  5
3AFD
330
A
100
AcDbEntity
  8
SHAPE_OUTLINE_BOLD_LINE_
100
AcDbCircle
 10
357.4375767068147
 20
210.5082914642857
 30
0.0
 40
9.0
100
AcDbArc
 50
180.0
 51
218.9424412689795
  0
ARC
  5
3AFE
330
A
100
AcDbEntity
  8
SHAPE_OUTLINE_BOLD_LINE_
100
AcDbCircle
 10
357.4375767068147
 20
210.5082914642857
 30
0.0
 40
9.000000000000019
100
AcDbArc
 50
218.9424412689795
 51
267.8259329900073
  0
ARC
  5
3AFF
330
A
100
AcDbEntity
  8
SHAPE_OUTLINE_BOLD_LINE_
100
AcDbCircle
 10
357.4375767068147
 20
210.5082914642857
 30
0.0
 40
8.999999999999991
100
AcDbArc
 50
92.17406700999262
 51
180.0
  0
LINE
  5
3B00
330
A
100
AcDbEntity
  8
SHAPE_OUTLINE_BOLD_LINE_
100
AcDbLine
 10
355.4375767068147
 20
120.0082914642857
 30
0.0
 11
359.4375767068147
 21
120.0082914642857
 31
0.0
  0
LINE
  5
3B01
330
A
100
AcDbEntity
  8
SHAPE_OUTLINE_BOLD_LINE_
100
AcDbLine
 10
355.4375767068147
 20
147.0082914642857
 30
0.0
 11
359.4375767068147
 21
147.0082914642857
 31
0.0
  0
LINE
  5
3B02
330
A
100
AcDbEntity
  8
SHAPE_OUTLINE_BOLD_LINE_
100
AcDbLine
 10
359.4375767068147
 20
120.0082914642857
 30
0.0
 11
358.9375767068147
 21
119.5082914642856
 31
0.0
  0
LINE
  5
3B03
330
A
100
AcDbEntity
  8
SHAPE_OUTLINE_BOLD_LINE_
100
AcDbLine
 10
355.9375767068147
 20
119.5082914642856
 30
0.0
 11
355.4375767068147
 21
120.0082914642857
 31
0.0
  0
LINE
  5
3B04
330
A
100
AcDbEntity
  8
SHAPE_OUTLINE_BOLD_LINE_
100
AcDbLine
 10
359.4375767068147
 20
147.0082914642857
 30
0.0
 11
358.9375767068147
 21
147.5082914642857
 31
0.0
  0
LINE
  5
3B05
330
A
100
AcDbEntity
  8
SHAPE_OUTLINE_BOLD_LINE_
100
AcDbLine
 10
355.9375767068147
 20
147.5082914642857
 30
0.0
 11
355.4375767068147
 21
147.0082914642857
 31
0.0
  0
LINE
  5
3B06
330
A
100
AcDbEntity
  8
SHAPE_OUTLINE_BOLD_LINE_
100
AcDbLine
 10
359.4375767068147
 20
120.0082914642857
 30
0.0
 11
359.4375767068147
 21
121.8000875317864
 31
0.0
  0
LINE
  5
3B07
330
A
100
AcDbEntity
  8
SHAPE_OUTLINE_BOLD_LINE_
100
AcDbLine
 10
355.9375767068147
 20
119.5082914642856
 30
0.0
 11
358.9375767068147
 21
119.5082914642856
 31
0.0
  0
LINE
  5
3B08
330
A
100
AcDbEntity
  8
SHAPE_OUTLINE_BOLD_LINE_
100
AcDbLine
 10
355.4375767068147
 20
121.8000875317864
 30
0.0
 11
355.4375767068147
 21
120.0082914642857
 31
0.0
  0
LINE
  5
3B09
330
A
100
AcDbEntity
  8
SHAPE_OUTLINE_BOLD_LINE_
100
AcDbLine
 10
359.4375767068147
 20
147.0082914642857
 30
0.0
 11
359.4375767068147
 21
135.2164953967851
 31
0.0
  0
LINE
  5
3B0A
330
A
100
AcDbEntity
  8
SHAPE_OUTLINE_BOLD_LINE_
100
AcDbLine
 10
355.9375767068147
 20
147.5082914642857
 30
0.0
 11
358.9375767068147
 21
147.5082914642857
 31
0.0
  0
LINE
  5
3B0B
330
A
100
AcDbEntity
  8
SHAPE_OUTLINE_BOLD_LINE_
100
AcDbLine
 10
355.4375767068147
 20
135.2164953967851
 30
0.0
 11
355.4375767068147
 21
147.0082914642857
 31
0.0
  0
LINE
  5
3B0C
330
A
100
AcDbEntity
  8
SHAPE_OUTLINE_BOLD_LINE_
100
AcDbLine
 10
364.4375767068147
 20
201.2360685571015
 30
0.0
 11
357.0961570022784
 21
201.5147697633415
 31
0.0
  0
LINE
  5
3B0D
330
A
100
AcDbEntity
  8
SHAPE_OUTLINE_BOLD_LINE_
100
AcDbLine
 10
364.4375767068147
 20
201.2360685571015
 30
0.0
 11
364.4375767068147
 21
128.5082914642857
 31
0.0
  0
LINE
  5
3B0E
330
A
100
AcDbEntity
  8
SHAPE_OUTLINE_BOLD_LINE_
100
AcDbLine
 10
350.4375767068147
 20
204.8514372147933
 30
0.0
 11
350.4375767068147
 21
128.5082914642857
 31
0.0
  0
LINE
  5
3B0F
330
A
100
AcDbEntity
  8
SHAPE_OUTLINE_BOLD_LINE_
100
AcDbLine
 10
64.80585394505055
 20
89.96052076364879
 30
0.0
 11
72.80585394505056
 21
89.96052076364879
 31
0.0
  0
LINE
  5
3B10
330
A
100
AcDbEntity
  8
SHAPE_OUTLINE_BOLD_LINE_
100
AcDbLine
 10
166.8058539450505
 20
89.96052076364879
 30
0.0
 11
174.8058539450505
 21
89.96052076364879
 31
0.0
  0
LINE
  5
3B11
330
A
100
AcDbEntity
  8
SHAPE_OUTLINE_BOLD_LINE_
100
AcDbLine
 10
64.80585394505055
 20
75.96052076364879
 30
0.0
 11
174.8058539450505
 21
75.96052076364879
 31
0.0
  0
LINE
  5
3B12
330
A
100
AcDbEntity
  8
SHAPE_OUTLINE_BOLD_LINE_
100
AcDbLine
 10
166.8058539450505
 20
89.96052076364879
 30
0.0
 11
166.8058539450505
 21
91.96052076364878
 31
0.0
  0
LINE
  5
3B13
330
A
100
AcDbEntity
  8
SHAPE_OUTLINE_THIN_LINE_
  6
DASHED
100
AcDbLine
 10
72.80585394505056
 20
89.96052076364879
 30
0.0
 11
72.80585394505056
 21
80.96052076364879
 31
0.0
  0
LINE
  5
3B14
330
A
100
AcDbEntity
  8
SHAPE_OUTLINE_BOLD_LINE_
100
AcDbLine
 10
72.80585394505056
 20
89.96052076364879
 30
0.0
 11
166.8058539450505
 21
89.96052076364879
 31
0.0
  0
LINE
  5
3B17
330
A
100
AcDbEntity
  8
SHAPE_OUTLINE_BOLD_LINE_
100
AcDbLine
 10
174.8058539450505
 20
75.96052076364879
 30
0.0
 11
174.8058539450505
 21
69.96052076364879
 31
0.0
  0
LINE
  5
3B18
330
A
100
AcDbEntity
  8
SHAPE_OUTLINE_BOLD_LINE_
100
AcDbLine
 10
313.8058539450505
 20
75.96052076364879
 30
0.0
 11
174.8058539450505
 21
75.96052076364879
 31
0.0
  0
LINE
  5
3B19
330
A
100
AcDbEntity
  8
SHAPE_OUTLINE_BOLD_LINE_
100
AcDbLine
 10
313.8058539450505
 20
89.96052076364879
 30
0.0
 11
313.8058539450505
 21
75.96052076364879
 31
0.0
  0
LINE
  5
3B1A
330
A
100
AcDbEntity
  8
SHAPE_OUTLINE_THIN_LINE_
  6
DASHED
100
AcDbLine
 10
174.8058539450505
 20
89.96052076364879
 30
0.0
 11
174.8058539450505
 21
75.96052076364879
 31
0.0
  0
LINE
  5
3B1B
330
A
100
AcDbEntity
  8
SHAPE_OUTLINE_BOLD_LINE_
100
AcDbLine
 10
174.8058539450505
 20
89.96052076364879
 30
0.0
 11
313.8058539450505
 21
89.96052076364879
 31
0.0
  0
LINE
  5
3B1C
330
A
100
AcDbEntity
  8
SHAPE_OUTLINE_THIN_LINE_
  6
DASHED
100
AcDbLine
 10
64.80585394505055
 20
75.96052076364879
 30
0.0
 11
64.80585394505055
 21
89.96052076364879
 31
0.0
  0
LINE
  5
3B1D
330
A
100
AcDbEntity
  8
SHAPE_OUTLINE_BOLD_LINE_
100
AcDbLine
 10
45.80585394505056
 20
75.96052076364879
 30
0.0
 11
64.80585394505055
 21
75.96052076364879
 31
0.0
  0
LINE
  5
3B1E
330
A
100
AcDbEntity
  8
SHAPE_OUTLINE_BOLD_LINE_
100
AcDbLine
 10
64.80585394505055
 20
89.96052076364879
 30
0.0
 11
64.80585394505055
 21
91.96052076364878
 31
0.0
  0
LINE
  5
3B1F
330
A
100
AcDbEntity
  8
SHAPE_OUTLINE_BOLD_LINE_
100
AcDbLine
 10
64.80585394505055
 20
89.96052076364879
 30
0.0
 11
45.80585394505056
 21
89.96052076364879
 31
0.0
  0
LINE
  5
3B22
330
A
100
AcDbEntity
  8
SHAPE_OUTLINE_BOLD_LINE_
100
AcDbLine
 10
168.2457651820236
 20
220.0082914642857
 30
0.0
 11
64.80585394505055
 21
220.0082914642857
 31
0.0
  0
LINE
  5
3B23
330
A
100
AcDbEntity
  8
SHAPE_OUTLINE_BOLD_LINE_
100
AcDbLine
 10
169.7143759138762
 20
201.0082914642857
 30
0.0
 11
174.8058539450505
 21
201.0082914642857
 31
0.0
  0
LINE
  5
3B2E
330
A
100
AcDbEntity
  8
SHAPE_OUTLINE_BOLD_LINE_
100
AcDbLine
 10
166.8058539450505
 20
217.5082914642857
 30
0.0
 11
166.8058539450505
 21
203.5082914642857
 31
0.0
  0
LINE
  5
3B46
330
A
100
AcDbEntity
  8
SHAPE_OUTLINE_BOLD_LINE_
100
AcDbLine
 10
175.7058539450506
 20
203.5082914642857
 30
0.0
 11
175.3058539450505
 21
203.5082914642857
 31
0.0
  0
LINE
  5
3B48
330
A
100
AcDbEntity
  8
SHAPE_OUTLINE_BOLD_LINE_
100
AcDbLine
 10
178.9058539450504
 20
203.5082914642857
 30
0.0
 11
175.7058539450506
 21
203.5082914642857
 31
0.0
  0
LINE
  5
3B4A
330
A
100
AcDbEntity
  8
CENTER
100
AcDbLine
 10
177.3058539450505
 20
202.3468487412378
 30
0.0
 11
177.3058539450505
 21
208.3335666957784
 31
0.0
  0
LINE
  5
3B4B
330
A
100
AcDbEntity
  8
SHAPE_OUTLINE_BOLD_LINE_
100
AcDbLine
 10
175.3058539450505
 20
203.5082914642857
 30
0.0
 11
174.8058539450505
 21
203.5082914642857
 31
0.0
  0
LINE
  5
3B4D
330
A
100
AcDbEntity
  8
SHAPE_OUTLINE_BOLD_LINE_
100
AcDbLine
 10
179.3058539450505
 20
203.5082914642857
 30
0.0
 11
178.9058539450504
 21
203.5082914642857
 31
0.0
  0
LINE
  5
3B4F
330
A
100
AcDbEntity
  8
CENTER
100
AcDbLine
 10
308.3058539450505
 20
150.3390902031118
 30
0.0
 11
308.3058539450505
 21
116.3042337618783
 31
0.0
  0
LINE
  5
3B50
330
A
100
AcDbEntity
  8
SHAPE_OUTLINE_BOLD_LINE_
100
AcDbLine
 10
306.3058539450505
 20
120.0382914642857
 30
0.0
 11
310.3058539450505
 21
120.0382914642857
 31
0.0
  0
LINE
  5
3B51
330
A
100
AcDbEntity
  8
SHAPE_OUTLINE_BOLD_LINE_
100
AcDbLine
 10
306.3058539450505
 20
146.9782914642857
 30
0.0
 11
310.3058539450505
 21
146.9782914642857
 31
0.0
  0
LINE
  5
3B52
330
A
100
AcDbEntity
  8
SHAPE_OUTLINE_BOLD_LINE_
100
AcDbLine
 10
310.3058539450505
 20
120.0382914642857
 30
0.0
 11
309.7758539450505
 21
119.5082914642856
 31
0.0
  0
LINE
  5
3B53
330
A
100
AcDbEntity
  8
SHAPE_OUTLINE_BOLD_LINE_
100
AcDbLine
 10
306.8358539450505
 20
119.5082914642856
 30
0.0
 11
306.3058539450505
 21
120.0382914642857
 31
0.0
  0
LINE
  5
3B54
330
A
100
AcDbEntity
  8
SHAPE_OUTLINE_BOLD_LINE_
100
AcDbLine
 10
310.3058539450505
 20
146.9782914642857
 30
0.0
 11
309.7758539450505
 21
147.5082914642857
 31
0.0
  0
LINE
  5
3B55
330
A
100
AcDbEntity
  8
SHAPE_OUTLINE_BOLD_LINE_
100
AcDbLine
 10
306.8358539450505
 20
147.5082914642857
 30
0.0
 11
306.3058539450505
 21
146.9782914642857
 31
0.0
  0
LINE
  5
3B56
330
A
100
AcDbEntity
  8
SHAPE_OUTLINE_BOLD_LINE_
100
AcDbLine
 10
310.3058539450505
 20
121.5082914642857
 30
0.0
 11
306.3058539450505
 21
121.5082914642857
 31
0.0
  0
LINE
  5
3B57
330
A
100
AcDbEntity
  8
SHAPE_OUTLINE_BOLD_LINE_
100
AcDbLine
 10
310.3058539450505
 20
120.0382914642857
 30
0.0
 11
310.3058539450505
 21
121.5082914642857
 31
0.0
  0
LINE
  5
3B58
330
A
100
AcDbEntity
  8
SHAPE_OUTLINE_BOLD_LINE_
100
AcDbLine
 10
306.8358539450505
 20
119.5082914642856
 30
0.0
 11
309.7758539450505
 21
119.5082914642856
 31
0.0
  0
LINE
  5
3B59
330
A
100
AcDbEntity
  8
SHAPE_OUTLINE_BOLD_LINE_
100
AcDbLine
 10
306.3058539450505
 20
121.5082914642857
 30
0.0
 11
58.80585394505056
 21
121.5082914642857
 31
0.0
  0
LINE
  5
3B5A
330
A
100
AcDbEntity
  8
SHAPE_OUTLINE_BOLD_LINE_
100
AcDbLine
 10
306.3058539450505
 20
121.5082914642857
 30
0.0
 11
306.3058539450505
 21
120.0382914642857
 31
0.0
  0
LINE
  5
3B5B
330
A
100
AcDbEntity
  8
SHAPE_OUTLINE_BOLD_LINE_
100
AcDbLine
 10
310.3058539450505
 20
135.5082914642857
 30
0.0
 11
313.8058539450505
 21
135.5082914642857
 31
0.0
  0
LINE
  5
3B5C
330
A
100
AcDbEntity
  8
SHAPE_OUTLINE_BOLD_LINE_
100
AcDbLine
 10
310.3058539450505
 20
146.9782914642857
 30
0.0
 11
310.3058539450505
 21
135.5082914642857
 31
0.0
  0
LINE
  5
3B5D
330
A
100
AcDbEntity
  8
SHAPE_OUTLINE_BOLD_LINE_
100
AcDbLine
 10
306.8358539450505
 20
147.5082914642857
 30
0.0
 11
309.7758539450505
 21
147.5082914642857
 31
0.0
  0
LINE
  5
3B5E
330
A
100
AcDbEntity
  8
SHAPE_OUTLINE_BOLD_LINE_
100
AcDbLine
 10
306.3058539450505
 20
135.5082914642857
 30
0.0
 11
310.3058539450505
 21
135.5082914642857
 31
0.0
  0
LINE
  5
3B5F
330
A
100
AcDbEntity
  8
SHAPE_OUTLINE_BOLD_LINE_
100
AcDbLine
 10
306.3058539450505
 20
135.5082914642857
 30
0.0
 11
306.3058539450505
 21
146.9782914642857
 31
0.0
  0
LINE
  5
3B60
330
A
100
AcDbEntity
  8
SHAPE_OUTLINE_BOLD_LINE_
100
AcDbLine
 10
166.8058539450505
 20
203.5082914642857
 30
0.0
 11
166.8058539450505
 21
201.4582914642857
 31
0.0
  0
LINE
  5
3B61
330
A
100
AcDbEntity
  8
SHAPE_OUTLINE_BOLD_LINE_
100
AcDbLine
 10
72.80585394505056
 20
203.5082914642857
 30
0.0
 11
72.80585394505056
 21
217.5082914642857
 31
0.0
  0
LINE
  5
3B62
330
A
100
AcDbEntity
  8
SHAPE_OUTLINE_BOLD_LINE_
100
AcDbLine
 10
166.8058539450505
 20
203.5082914642857
 30
0.0
 11
72.80585394505056
 21
203.5082914642857
 31
0.0
  0
LINE
  5
3B63
330
A
100
AcDbEntity
  8
SHAPE_OUTLINE_BOLD_LINE_
100
AcDbLine
 10
72.80585394505056
 20
217.5082914642857
 30
0.0
 11
72.80585394505056
 21
219.5582914642857
 31
0.0
  0
LINE
  5
3B64
330
A
100
AcDbEntity
  8
SHAPE_OUTLINE_BOLD_LINE_
100
AcDbLine
 10
72.80585394505056
 20
217.5082914642857
 30
0.0
 11
166.8058539450505
 21
217.5082914642857
 31
0.0
  0
LINE
  5
3B65
330
A
100
AcDbEntity
  8
CENTER
100
AcDbLine
 10
58.80585394505056
 20
128.5082914642857
 30
0.0
 11
317.3715955283075
 21
128.5082914642857
 31
0.0
  0
LINE
  5
3B66
330
A
100
AcDbEntity
  8
CENTER
100
AcDbLine
 10
45.80585394505056
 20
197.5082914642857
 30
0.0
 11
45.80585394505056
 21
141.5082914642857
 31
0.0
  0
LINE
  5
3B67
330
A
100
AcDbEntity
  8
CENTER
100
AcDbLine
 10
189.3802397503282
 20
210.5082914642857
 30
0.0
 11
58.80585394505056
 21
210.5082914642857
 31
0.0
  0
LINE
  5
3B68
330
A
100
AcDbEntity
  8
SHAPE_OUTLINE_BOLD_LINE_
100
AcDbLine
 10
184.8058539450505
 20
203.5082914642857
 30
0.0
 11
179.3058539450505
 21
203.5082914642857
 31
0.0
  0
LINE
  5
3B69
330
A
100
AcDbEntity
  8
SHAPE_OUTLINE_BOLD_LINE_
100
AcDbLine
 10
184.8058539450505
 20
217.5082914642857
 30
0.0
 11
184.8058539450505
 21
203.5082914642857
 31
0.0
  0
LINE
  5
3B6A
330
A
100
AcDbEntity
  8
SHAPE_OUTLINE_BOLD_LINE_
100
AcDbLine
 10
174.8058539450505
 20
217.5082914642857
 30
0.0
 11
174.8058539450505
 21
220.0082914642857
 31
0.0
  0
LINE
  5
3B6B
330
A
100
AcDbEntity
  8
SHAPE_OUTLINE_BOLD_LINE_
100
AcDbLine
 10
174.8058539450505
 20
217.5082914642857
 30
0.0
 11
184.8058539450505
 21
217.5082914642857
 31
0.0
  0
LINE
  5
3B6C
330
A
100
AcDbEntity
  8
SHAPE_OUTLINE_BOLD_LINE_
100
AcDbLine
 10
64.80585394505055
 20
217.5082914642857
 30
0.0
 11
64.80585394505055
 21
203.5082914642857
 31
0.0
  0
LINE
  5
3B6D
330
A
100
AcDbEntity
  8
SHAPE_OUTLINE_BOLD_LINE_
100
AcDbLine
 10
58.80585394505056
 20
217.5082914642857
 30
0.0
 11
64.80585394505055
 21
217.5082914642857
 31
0.0
  0
LINE
  5
3B6E
330
A
100
AcDbEntity
  8
SHAPE_OUTLINE_BOLD_LINE_
100
AcDbLine
 10
38.80585394505056
 20
141.5082914642857
 30
0.0
 11
38.80585394505056
 21
197.5082914642857
 31
0.0
  0
LINE
  5
3B6F
330
A
100
AcDbEntity
  8
SHAPE_OUTLINE_BOLD_LINE_
100
AcDbLine
 10
313.8058539450505
 20
121.5082914642857
 30
0.0
 11
310.3058539450505
 21
121.5082914642857
 31
0.0
  0
LINE
  5
3B70
330
A
100
AcDbEntity
  8
SHAPE_OUTLINE_BOLD_LINE_
100
AcDbLine
 10
313.8058539450505
 20
135.5082914642857
 30
0.0
 11
313.8058539450505
 21
121.5082914642857
 31
0.0
  0
LINE
  5
3B71
330
A
100
AcDbEntity
  8
SHAPE_OUTLINE_BOLD_LINE_
100
AcDbLine
 10
58.80585394505056
 20
135.5082914642857
 30
0.0
 11
306.3058539450505
 21
135.5082914642857
 31
0.0
  0
LINE
  5
3B72
330
A
100
AcDbEntity
  8
SHAPE_OUTLINE_BOLD_LINE_
100
AcDbLine
 10
52.80585394505056
 20
197.5082914642857
 30
0.0
 11
52.80585394505056
 21
141.5082914642857
 31
0.0
  0
LINE
  5
3B73
330
A
100
AcDbEntity
  8
SHAPE_OUTLINE_BOLD_LINE_
100
AcDbLine
 10
64.80585394505055
 20
203.5082914642857
 30
0.0
 11
64.80585394505055
 21
201.0082914642857
 31
0.0
  0
LINE
  5
3B74
330
A
100
AcDbEntity
  8
SHAPE_OUTLINE_BOLD_LINE_
100
AcDbLine
 10
64.80585394505055
 20
203.5082914642857
 30
0.0
 11
58.80585394505056
 21
203.5082914642857
 31
0.0
  0
LINE
  5
3B75
330
A
100
AcDbEntity
  8
CENTER
100
AcDbLine
 10
79.80585394505055
 20
216.2582914642857
 30
0.0
 11
79.80585394505055
 21
204.7582914642857
 31
0.0
  0
LINE
  5
3B76
330
A
100
AcDbEntity
  8
CENTER
100
AcDbLine
 10
159.8058539450505
 20
216.2582914642857
 30
0.0
 11
159.8058539450505
 21
204.7582914642857
 31
0.0
  0
LINE
  5
3B77
330
A
100
AcDbEntity
  8
SHAPE_OUTLINE_BOLD_LINE_
100
AcDbLine
 10
357.0961570022784
 20
219.5018131652299
 30
0.0
 11
370.4375767068147
 21
220.0082914642857
 31
0.0
  0
LINE
  5
3B78
330
A
100
AcDbEntity
  8
SHAPE_OUTLINE_BOLD_LINE_
100
AcDbLine
 10
72.80585394505056
 20
201.4582914642857
 30
0.0
 11
72.80585394505056
 21
203.5082914642857
 31
0.0
  0
LINE
  5
3B79
330
A
100
AcDbEntity
  8
SHAPE_OUTLINE_BOLD_LINE_
100
AcDbLine
 10
166.8058539450505
 20
201.4582914642857
 30
0.0
 11
72.80585394505056
 21
201.4582914642857
 31
0.0
  0
LINE
  5
3B7A
330
A
100
AcDbEntity
  8
SHAPE_OUTLINE_BOLD_LINE_
100
AcDbLine
 10
166.8058539450505
 20
219.5582914642857
 30
0.0
 11
166.8058539450505
 21
217.5082914642857
 31
0.0
  0
LINE
  5
3B7B
330
A
100
AcDbEntity
  8
SHAPE_OUTLINE_BOLD_LINE_
100
AcDbLine
 10
72.80585394505056
 20
219.5582914642857
 30
0.0
 11
166.8058539450505
 21
219.5582914642857
 31
0.0
  0
LINE
  5
3B7C
330
A
100
AcDbEntity
  8
CENTER
100
AcDbLine
 10
357.4375767068147
 20
116.9164228104457
 30
0.0
 11
357.4375767068147
 21
222.3305676572544
 31
0.0
  0
LINE
  5
3B7E
330
A
100
AcDbEntity
  8
CENTER
100
AcDbLine
 10
36.13038456779054
 20
82.96052076364878
 30
0.0
 11
317.0076144871693
 21
82.96052076364878
 31
0.0
  0
LINE
  5
3B7F
330
A
100
AcDbEntity
  8
SHAPE_OUTLINE_BOLD_LINE_
100
AcDbLine
 10
174.8058539450505
 20
69.96052076364879
 30
0.0
 11
64.80585394505055
 21
69.96052076364879
 31
0.0
  0
LINE
  5
3B80
330
A
100
AcDbEntity
  8
SHAPE_OUTLINE_BOLD_LINE_
100
AcDbLine
 10
174.8058539450505
 20
91.96052076364878
 30
0.0
 11
174.8058539450505
 21
89.96052076364879
 31
0.0
  0
LINE
  5
3B81
330
A
100
AcDbEntity
  8
SHAPE_OUTLINE_BOLD_LINE_
100
AcDbLine
 10
166.8058539450505
 20
91.96052076364878
 30
0.0
 11
174.8058539450505
 21
91.96052076364878
 31
0.0
  0
LINE
  5
3B82
330
A
100
AcDbEntity
  8
SHAPE_OUTLINE_THIN_LINE_
  6
DASHED
100
AcDbLine
 10
166.8058539450505
 20
80.96052076364879
 30
0.0
 11
166.8058539450505
 21
89.96052076364879
 31
0.0
  0
LINE
  5
3B83
330
A
100
AcDbEntity
  8
SHAPE_OUTLINE_THIN_LINE_
  6
DASHED
100
AcDbLine
 10
72.80585394505056
 20
80.96052076364879
 30
0.0
 11
166.8058539450505
 21
80.96052076364879
 31
0.0
  0
LINE
  5
3B84
330
A
100
AcDbEntity
  8
SHAPE_OUTLINE_BOLD_LINE_
100
AcDbLine
 10
72.80585394505056
 20
91.96052076364878
 30
0.0
 11
72.80585394505056
 21
89.96052076364879
 31
0.0
  0
LINE
  5
3B85
330
A
100
AcDbEntity
  8
SHAPE_OUTLINE_BOLD_LINE_
100
AcDbLine
 10
64.80585394505055
 20
91.96052076364878
 30
0.0
 11
72.80585394505056
 21
91.96052076364878
 31
0.0
  0
LINE
  5
3B86
330
A
100
AcDbEntity
  8
SHAPE_OUTLINE_BOLD_LINE_
100
AcDbLine
 10
64.80585394505055
 20
69.96052076364879
 30
0.0
 11
64.80585394505055
 21
75.96052076364879
 31
0.0
  0
LINE
  5
3B87
330
A
100
AcDbEntity
  8
SHAPE_OUTLINE_BOLD_LINE_
100
AcDbLine
 10
370.4375767068147
 20
220.0082914642857
 30
0.0
 11
370.4375767068147
 21
201.0082914642857
 31
0.0
  0
LINE
  5
3B88
330
A
100
AcDbEntity
  8
SHAPE_OUTLINE_BOLD_LINE_
100
AcDbLine
 10
370.4375767068147
 20
201.0082914642857
 30
0.0
 11
364.4375767068147
 21
201.2360685571015
 31
0.0
  0
LINE
  5
3B89
330
A
100
AcDbEntity
  8
SHAPE_OUTLINE_BOLD_LINE_
100
AcDbLine
 10
64.80585394505055
 20
220.0082914642857
 30
0.0
 11
64.80585394505055
 21
217.5082914642857
 31
0.0
  0
LINE
  5
3B8A
330
A
100
AcDbEntity
  8
SHAPE_OUTLINE_BOLD_LINE_
100
AcDbLine
 10
174.8058539450505
 20
220.0082914642857
 30
0.0
 11
168.2457651820236
 21
220.0082914642857
 31
0.0
  0
LINE
  5
3B8B
330
A
100
AcDbEntity
  8
SHAPE_OUTLINE_BOLD_LINE_
100
AcDbLine
 10
174.8058539450505
 20
201.0082914642857
 30
0.0
 11
174.8058539450505
 21
217.5082914642857
 31
0.0
  0
LINE
  5
3B8C
330
A
100
AcDbEntity
  8
SHAPE_OUTLINE_BOLD_LINE_
100
AcDbLine
 10
64.80585394505055
 20
201.0082914642857
 30
0.0
 11
169.7143759138762
 21
201.0082914642857
 31
0.0
  0
LINE
  5
3B8D
330
A
100
AcDbEntity
  8
CENTER
100
AcDbLine
 10
345.3939960157347
 20
210.5082914642857
 30
0.0
 11
373.5067211660507
 21
210.5082914642857
 31
0.0
  0
DIMENSION
  5
3C3E
330
A
100
AcDbEntity
  8
DIMENSIONS
100
AcDbDimension
  2
*D2
 10
159.8058539450505
 20
230.0082914642857
 30
0.0
 11
119.8058539450505
 21
232.5082914642857
 31
0.0
 70
    32
  3
STANDARD
100
AcDbAlignedDimension
 13
79.80585394505055
 23
216.2582914642857
 33
0.0
 14
159.8058539450505
 24
216.2582914642857
 34
0.0
100
AcDbRotatedDimension
  0
DIMENSION
  5
3C4B
330
A
100
AcDbEntity
  8
DIMENSIONS
100
AcDbDimension
  2
*D3
 10
174.8058539450505
 20
230.0082914642857
 30
0.0
 11
167.3058539450505
 21
232.5082914642857
 31
0.0
 70
    32
  3
STANDARD
100
AcDbAlignedDimension
 13
159.8058539450505
 23
216.2582914642857
 33
0.0
 14
174.8058539450505
 24
220.0082914642857
 34
0.0
100
AcDbRotatedDimension
  0
DIMENSION
  5
3C58
330
A
100
AcDbEntity
  8
DIMENSIONS
100
AcDbDimension
  2
*D4
 10
184.8058539450505
 20
230.0082914642857
 30
0.0
 11
179.8058539450505
 21
232.5082914642857
 31
0.0
 70
    32
  3
STANDARD
100
AcDbAlignedDimension
 13
174.8058539450505
 23
220.0082914642857
 33
0.0
 14
184.8058539450505
 24
217.5082914642857
 34
0.0
100
AcDbRotatedDimension
  0
DIMENSION
  5
3C65
330
A
100
AcDbEntity
  8
DIMENSIONS
100
AcDbDimension
  2
*D5
 10
64.80585394505055
 20
237.0082914642857
 30
0.0
 11
119.8058539450505
 21
239.5082914642857
 31
0.0
 70
    32
  3
STANDARD
100
AcDbAlignedDimension
 13
174.8058539450505
 23
220.0082914642857
 33
0.0
 14
64.80585394505055
 24
220.0082914642857
 34
0.0
100
AcDbRotatedDimension
  0
DIMENSION
  5
3C72
330
A
100
AcDbEntity
  8
DIMENSIONS
100
AcDbDimension
  2
*D6
 10
184.8058539450505
 20
244.0082914642857
 30
0.0
 11
111.8058539450505
 21
246.5082914642857
 31
0.0
 70
    32
  3
STANDARD
100
AcDbAlignedDimension
 13
38.80585394505056
 23
197.5082914642857
 33
0.0
 14
184.8058539450505
 24
217.5082914642857
 34
0.0
100
AcDbRotatedDimension
  0
DIMENSION
  5
3C7F
330
A
100
AcDbEntity
  8
DIMENSIONS
100
AcDbDimension
  2
*D7
 10
28.80585394505054
 20
121.5082914642857
 30
0.0
 11
26.30585394505052
 21
169.5082914642857
 31
0.0
 70
    32
  3
STANDARD
100
AcDbAlignedDimension
 13
58.80585394505056
 23
217.5082914642857
 33
0.0
 14
58.80585394505056
 24
121.5082914642857
 34
0.0
 50
90.0
100
AcDbRotatedDimension
  0
DIMENSION
  5
3C8C
330
A
100
AcDbEntity
  8
DIMENSIONS
100
AcDbDimension
  2
*D8
 10
313.8058539450505
 20
109.5082914642857
 30
0.0
 11
176.3058539450505
 21
112.0082914642857
 31
0.0
 70
    32
  3
STANDARD
100
AcDbAlignedDimension
 13
38.80585394505055
 23
141.5082914642857
 33
0.0
 14
313.8058539450505
 24
121.5082914642857
 34
0.0
100
AcDbRotatedDimension
  0
DIMENSION
  5
3C99
330
A
100
AcDbEntity
  8
DIMENSIONS
100
AcDbDimension
  2
*D9
 10
323.8058539450505
 20
147.5082914642857
 30
0.0
 11
321.3058539450504
 21
133.5082914642857
 31
0.0
 70
    32
  3
STANDARD
100
AcDbAlignedDimension
 13
309.7758539450505
 23
119.5082914642856
 33
0.0
 14
309.7758539450505
 24
147.5082914642857
 34
0.0
 50
90.0
100
AcDbRotatedDimension
  0
DIMENSION
  5
3CA6
330
A
100
AcDbEntity
  8
DIMENSIONS
100
AcDbDimension
  2
*D10
 10
313.8058539450505
 20
157.5082914642857
 30
0.0
 11
314.1286720942771
 21
160.4810740045527
 31
0.0
 70
   160
  3
STANDARD
100
AcDbAlignedDimension
 13
308.3058539450505
 23
150.3390902031118
 33
0.0
 14
313.8058539450505
 24
135.5082914642857
 34
0.0
100
AcDbRotatedDimension
  0
DIMENSION
  5
3CB4
330
A
100
AcDbEntity
  8
DIMENSIONS
100
AcDbDimension
  2
*D11
 10
310.3058539450505
 20
164.5082914642857
 30
0.0
 11
308.3058539450505
 21
167.2519462866207
 31
0.0
 70
    32
  1
φ<>
  3
STANDARD
100
AcDbAlignedDimension
 13
306.3058539450505
 23
146.9782914642857
 33
0.0
 14
310.3058539450505
 24
146.9782914642857
 34
0.0
100
AcDbRotatedDimension
  0
DIMENSION
  5
3CD6
330
A
100
AcDbEntity
  8
DIMENSIONS
100
AcDbDimension
  2
*D12
 10
28.80585394505055
 20
69.9605207636488
 30
0.0
 11
26.30585394505054
 21
76.4605207636488
 31
0.0
 70
    32
  3
STANDARD
100
AcDbAlignedDimension
 13
36.13038456779054
 23
82.96052076364878
 33
0.0
 14
64.80585394505055
 24
69.96052076364879
 34
0.0
 50
90.0
100
AcDbRotatedDimension
  0
DIMENSION
  5
3CE3
330
A
100
AcDbEntity
  8
DIMENSIONS
100
AcDbDimension
  2
*D13
 10
380.4375767068147
 20
201.0082914642857
 30
0.0
 11
377.9375767068147
 21
210.5082914642858
 31
0.0
 70
    32
  3
STANDARD
100
AcDbAlignedDimension
 13
370.4375767068147
 23
220.0082914642857
 33
0.0
 14
370.4375767068147
 24
201.0082914642857
 34
0.0
 50
90.0
100
AcDbRotatedDimension
  0
DIMENSION
  5
3CF0
330
A
100
AcDbEntity
  8
DIMENSIONS
100
AcDbDimension
  2
*D14
 10
370.4375767068147
 20
230.0082914642857
 30
0.0
 11
359.4375767068147
 21
232.5082914642857
 31
0.0
 70
    32
  3
STANDARD
100
AcDbAlignedDimension
 13
348.4375767068147
 23
210.5082914642857
 33
0.0
 14
370.4375767068147
 24
210.5082914642857
 34
0.0
100
AcDbRotatedDimension
  0
DIMENSION
  5
3CFD
330
A
100
AcDbEntity
  8
DIMENSIONS
100
AcDbDimension
  2
*D15
 10
364.4375767068147
 20
109.5082914642857
 30
0.0
 11
357.4375767068147
 21
112.2519462866207
 31
0.0
 70
    32
  1
φ<>
  3
STANDARD
100
AcDbAlignedDimension
 13
350.4375767068147
 23
128.5082914642857
 33
0.0
 14
364.4375767068147
 24
128.5082914642857
 34
0.0
100
AcDbRotatedDimension
  0
LINE
  5
3D29
330
A
100
AcDbEntity
  8
CENTER
100
AcDbLine
 10
308.3058539450505
 20
85.96052076364879
 30
0.0
 11
308.3058539450505
 21
79.96052076364879
 31
0.0
  0
LINE
  5
3D2F
330
A
100
AcDbEntity
  8
CENTER
100
AcDbLine
 10
366.3695750234507
 20
128.5082914642857
 30
0.0
 11
348.5920099553154
 21
128.5082914642857
 31
0.0
  0
ENDSEC
  0
SECTION
  2
OBJECTS
  0
DICTIONARY
  5
19
330
0
100
AcDbDictionary
  3
ACAD_GROUP
350
1A
  3
ACAD_LAYOUT
350
157A
  3
ACAD_MLINESTYLE
350
1B
  3
ACAD_PLOTSETTINGS
350
157B
  3
ACAD_PLOTSTYLENAME
350
1578
  3
ACDBHEADERROUNDTRIPXREC
350
3D7E
  3
ACDBVARIABLEDICTIONARY
350
3478
  3
ADE_QUERY_LIBRARY
350
3622
  3
ASE_INDEX_DICTIONARY
350
3D22
1001
ADE
1000
ADE02C004
1000
[Query]
1000
CaseSensitiveMatch=0
1000
SaveCurrQueryInSession=1
1000
MkSelSetWithQryObj=0
1000
ShowBlockAsInsPt=0
1000
CreateAssociativeHatchObjects=0
1000
ReferenceBoundaryForAreaLocation=1
1000
ShowImageAsBoundary=1
1000
DefaultJoinOperator=2
1000
ColorForAdd=red
1000
ColorForRemove=red
1000
BlockLocnForQuery=1
1000
TextLocnForQuery=1
1000
[Save Back]
1000
RedefineBlockDefinitions=1
1000
RedefineLayerDefinitions=1
1000
RedefineTextStyleDefinitions=1
1000
RemoveUnusedGroups=1
1000
EraseSavedBackObjects=1
1000
RemoveLockAfterSave=1
1000
CreateHistoryFileOfChanges=0
1000
CreateBackupFileOfSourceDwg=1
1000
DontAddObjectsToSaveSet=0
1000
MarkObjectsForEditingWithoutPrompting=0
1000
[Coordinate Transformation]
1000
RestoreLastActiveDwgsOnStartup=1
1000
ActivateDwgsOnAttach=1
1000
AdjustSizesAndScalesForChangesInUnits=1
1000
AdjustRotationsForMapDistortions=1
1000
AdjustSizesAndScalesForMapDistortions=1
1000
AdjustElevations=1
1000
AdjustZeroRotationObjects=1
1000
ReconnectDbOnWSOpen=1
1000
NoOfSQLConditionsInHistory=10
  0
DICTIONARY
  5
36A5
330
A
100
AcDbDictionary
280
     1
  3
ACAD_LAYOUTSELFREF
360
3D9F
  3
ACAD_SORTENTS
360
36A6
  0
DICTIONARY
  5
3DA0
330
B
100
AcDbDictionary
280
     1
  3
ACAD_LAYOUTSELFREF
360
3DA1
  0
DICTIONARY
  5
1A
102
{ACAD_REACTORS
330
19
102
}
330
19
100
AcDbDictionary
  0
DICTIONARY
  5
157A
102
{ACAD_REACTORS
330
19
102
}
330
19
100
AcDbDictionary
  0
DICTIONARY
  5
1B
102
{ACAD_REACTORS
330
19
102
}
330
19
100
AcDbDictionary
  3
STANDARD
350
1C
  0
DICTIONARY
  5
157B
102
{ACAD_REACTORS
330
19
102
}
330
19
100
AcDbDictionary
  0
ACDBDICTIONARYWDFLT
  5
1578
102
{ACAD_REACTORS
330
19
102
}
330
19
100
AcDbDictionary
281
     1
  3
Normal
350
1579
100
AcDbDictionaryWithDefault
340
1579
  0
DICTIONARY
  5
3D7E
102
{ACAD_REACTORS
330
19
102
}
330
19
100
AcDbDictionary
  3
CEPSNTYPE
350
3D88
  3
DIMSTYLEDATA
350
3D8C
  3
FINGERPRINTGUID
350
3D89
  3
HYPERLINKBASE
350
3D81
  3
INSUNITS
350
3D87
  3
LAYOUTDICT
350
3D83
  3
LWETCUNION
350
3D86
  3
PLOTSETDICT
350
3D84
  3
PLOTSTYLNAMDICT
350
3D85
  3
PSVPSCALE
350
3D8B
  3
PUCSBASE
350
3D8F
  3
PUCSORGBACK
350
3D95
  3
PUCSORGBOTTOM
350
3D91
  3
PUCSORGFRONT
350
3D94
  3
PUCSORGLEFT
350
3D92
  3
PUCSORGRIGHT
350
3D93
  3
PUCSORGTOP
350
3D90
  3
PUCSORTHOREF
350
3D8D
  3
PUCSORTHOVIEW
350
3D8E
  3
STYLESHEET
350
3D82
  3
TSTACKALIGN
350
3D7F
  3
TSTACKSIZE
350
3D80
  3
UCSBASE
350
3D98
  3
UCSORGBACK
350
3D9E
  3
UCSORGBOTTOM
350
3D9A
  3
UCSORGFRONT
350
3D9D
  3
UCSORGLEFT
350
3D9B
  3
UCSORGRIGHT
350
3D9C
  3
UCSORGTOP
350
3D99
  3
UCSORTHOREF
350
3D96
  3
UCSORTHOVIEW
350
3D97
  3
VERSIONGUID
350
3D8A
  0
DICTIONARY
  5
3478
102
{ACAD_REACTORS
330
19
102
}
330
19
100
AcDbDictionary
  3
DIMASSOC
350
3479
  3
SORTENTS
350
36A9
  0
DICTIONARY
  5
3622
102
{ACAD_REACTORS
330
19
102
}
330
19
100
AcDbDictionary
  3
_CURRQRY
350
3D24
  0
DICTIONARY
  5
3D22
102
{ACAD_REACTORS
330
19
102
}
330
19
100
AcDbDictionary
  3
ASEBLOCKHIERARCHYINDEXRECORD
350
3D23
1001
DCO15
1040
1577190288.453
  0
XRECORD
  5
3D9F
102
{ACAD_REACTORS
330
36A5
102
}
330
36A5
100
AcDbXrecord
340
A
  0
SORTENTSTABLE
  5
36A6
102
{ACAD_REACTORS
330
36A5
102
}
330
36A5
100
AcDbSortentsTable
330
A
331
35F8
  5
35FD
331
3607
  5
3634
  0
XRECORD
  5
3DA1
102
{ACAD_REACTORS
330
3DA0
102
}
330
3DA0
100
AcDbXrecord
340
B
  0
MLINESTYLE
  5
1C
102
{ACAD_REACTORS
330
1B
102
}
330
1B
100
AcDbMlineStyle
  2
STANDARD
 70
     0
  3

 62
     0
 51
90.0
 52
90.0
 71
     2
 49
0.5
 62
   256
  6
BYLAYER
 49
-0.5
 62
   256
  6
BYLAYER
  0
ACDBPLACEHOLDER
  5
1579
102
{ACAD_REACTORS
330
1578
102
}
330
1578
100
AcDbPlaceHolder
280
     0
  0
XRECORD
  5
3D88
102
{ACAD_REACTORS
330
3D7E
102
}
330
3D7E
100
AcDbXrecord
 90
        0
  0
XRECORD
  5
3D8C
102
{ACAD_REACTORS
330
3D7E
102
}
330
3D7E
100
AcDbXrecord
1000
DSTYLE
1002
{
1070
   279
 70
     2
1070
   341
340
143A
1070
   342
340
143A
1070
   371
 70
    -1
1070
   372
 70
    -1
1002
}
  0
XRECORD
  5
3D89
102
{ACAD_REACTORS
330
3D7E
102
}
330
3D7E
100
AcDbXrecord
  1
{5653D33C-3AEF-40FE-8495-DE925CF19E35}
  0
XRECORD
  5
3D81
102
{ACAD_REACTORS
330
3D7E
102
}
330
3D7E
100
AcDbXrecord
  1

  0
XRECORD
  5
3D87
102
{ACAD_REACTORS
330
3D7E
102
}
330
3D7E
100
AcDbXrecord
 90
        0
  0
XRECORD
  5
3D83
102
{ACAD_REACTORS
330
3D7E
102
}
330
3D7E
100
AcDbXrecord
340
157A
  0
XRECORD
  5
3D86
102
{ACAD_REACTORS
330
3D7E
102
}
330
3D7E
100
AcDbXrecord
 90
    10781
  0
XRECORD
  5
3D84
102
{ACAD_REACTORS
330
3D7E
102
}
330
3D7E
100
AcDbXrecord
340
157B
  0
XRECORD
  5
3D85
102
{ACAD_REACTORS
330
3D7E
102
}
330
3D7E
100
AcDbXrecord
340
1578
  0
XRECORD
  5
3D8B
102
{ACAD_REACTORS
330
3D7E
102
}
330
3D7E
100
AcDbXrecord
 40
0.0
  0
XRECORD
  5
3D8F
102
{ACAD_REACTORS
330
3D7E
102
}
330
3D7E
100
AcDbXrecord
340
0
  0
XRECORD
  5
3D95
102
{ACAD_REACTORS
330
3D7E
102
}
330
3D7E
100
AcDbXrecord
 10
0.0
 20
0.0
 30
0.0
  0
XRECORD
  5
3D91
102
{ACAD_REACTORS
330
3D7E
102
}
330
3D7E
100
AcDbXrecord
 10
0.0
 20
0.0
 30
0.0
  0
XRECORD
  5
3D94
102
{ACAD_REACTORS
330
3D7E
102
}
330
3D7E
100
AcDbXrecord
 10
0.0
 20
0.0
 30
0.0
  0
XRECORD
  5
3D92
102
{ACAD_REACTORS
330
3D7E
102
}
330
3D7E
100
AcDbXrecord
 10
0.0
 20
0.0
 30
0.0
  0
XRECORD
  5
3D93
102
{ACAD_REACTORS
330
3D7E
102
}
330
3D7E
100
AcDbXrecord
 10
0.0
 20
0.0
 30
0.0
  0
XRECORD
  5
3D90
102
{ACAD_REACTORS
330
3D7E
102
}
330
3D7E
100
AcDbXrecord
 10
0.0
 20
0.0
 30
0.0
  0
XRECORD
  5
3D8D
102
{ACAD_REACTORS
330
3D7E
102
}
330
3D7E
100
AcDbXrecord
340
0
  0
XRECORD
  5
3D8E
102
{ACAD_REACTORS
330
3D7E
102
}
330
3D7E
100
AcDbXrecord
 70
     0
  0
XRECORD
  5
3D82
102
{ACAD_REACTORS
330
3D7E
102
}
330
3D7E
100
AcDbXrecord
  1
スガツネWeb_mono.ctb
  0
XRECORD
  5
3D7F
102
{ACAD_REACTORS
330
3D7E
102
}
330
3D7E
100
AcDbXrecord
 90
        1
  0
XRECORD
  5
3D80
102
{ACAD_REACTORS
330
3D7E
102
}
330
3D7E
100
AcDbXrecord
 90
       70
  0
XRECORD
  5
3D98
102
{ACAD_REACTORS
330
3D7E
102
}
330
3D7E
100
AcDbXrecord
340
0
  0
XRECORD
  5
3D9E
102
{ACAD_REACTORS
330
3D7E
102
}
330
3D7E
100
AcDbXrecord
 10
0.0
 20
0.0
 30
0.0
  0
XRECORD
  5
3D9A
102
{ACAD_REACTORS
330
3D7E
102
}
330
3D7E
100
AcDbXrecord
 10
0.0
 20
0.0
 30
0.0
  0
XRECORD
  5
3D9D
102
{ACAD_REACTORS
330
3D7E
102
}
330
3D7E
100
AcDbXrecord
 10
0.0
 20
0.0
 30
0.0
  0
XRECORD
  5
3D9B
102
{ACAD_REACTORS
330
3D7E
102
}
330
3D7E
100
AcDbXrecord
 10
0.0
 20
0.0
 30
0.0
  0
XRECORD
  5
3D9C
102
{ACAD_REACTORS
330
3D7E
102
}
330
3D7E
100
AcDbXrecord
 10
0.0
 20
0.0
 30
0.0
  0
XRECORD
  5
3D99
102
{ACAD_REACTORS
330
3D7E
102
}
330
3D7E
100
AcDbXrecord
 10
0.0
 20
0.0
 30
0.0
  0
XRECORD
  5
3D96
102
{ACAD_REACTORS
330
3D7E
102
}
330
3D7E
100
AcDbXrecord
340
0
  0
XRECORD
  5
3D97
102
{ACAD_REACTORS
330
3D7E
102
}
330
3D7E
100
AcDbXrecord
 70
     0
  0
XRECORD
  5
3D8A
102
{ACAD_REACTORS
330
3D7E
102
}
330
3D7E
100
AcDbXrecord
  1
{909DF1DE-5874-4014-ABAD-8E50365E63FB}
  0
DICTIONARYVAR
  5
3479
102
{ACAD_REACTORS
330
3478
102
}
330
3478
100
DictionaryVariables
280
     0
  1
1
  0
DICTIONARYVAR
  5
36A9
102
{ACAD_REACTORS
330
3478
102
}
330
3478
100
DictionaryVariables
280
     0
  1
127
  0
XRECORD
  5
3D24
102
{ACAD_REACTORS
330
3622
102
}
330
3622
100
AcDbXrecord
1000
ADE02C001
1070
     1
1070
     0
1002
{
1002
}
1002
{
1002
}
1002
{
1002
}
1000

  0
XRECORD
  5
3D23
102
{ACAD_REACTORS
330
3D22
102
}
330
3D22
100
AcDbXrecord
330
3743
330
3C43
330
3C44
330
3C50
330
3C51
330
3C5D
330
3C5E
330
3C6A
330
3C6B
330
3C77
330
3C78
330
3C84
330
3C85
330
3C91
330
3C92
330
3C9E
330
3C9F
330
3CD1
330
3CD2
330
3D17
330
3D18
330
3CDB
330
3CDC
330
3CE8
330
3CE9
330
3CF5
330
3CF6
330
3D0D
330
3D0E
  0
ENDSEC
  0
EOF
