  0
SECTION
  2
HEADER
  9
$ACADVER
  1
AC1014
  9
$ACADMAINTVER
 70
     0
  9
$DWGCODEPAGE
  3
ANSI_932
  9
$INSBASE
 10
0.0
 20
0.0
 30
0.0
  9
$EXTMIN
 10
-10.0
 20
-10.00000000000005
 30
0.0
  9
$EXTMAX
 10
410.0000000000001
 20
286.9999999999999
 30
0.0
  9
$LIMMIN
 10
0.0
 20
0.0
  9
$LIMMAX
 10
0.0
 20
0.0
  9
$ORTHOMODE
 70
     0
  9
$REGENMODE
 70
     1
  9
$FILLMODE
 70
     1
  9
$QTEXTMODE
 70
     0
  9
$MIRRTEXT
 70
     1
  9
$DRAGMODE
 70
     2
  9
$LTSCALE
 40
0.1
  9
$OSMODE
 70
     0
  9
$ATTMODE
 70
     1
  9
$TEXTSIZE
 40
0.0
  9
$TRACEWID
 40
0.05
  9
$TEXTSTYLE
  7
STANDARD
  9
$CLAYER
  8
0
  9
$CELTYPE
  6
BYLAYER
  9
$CECOLOR
 62
   256
  9
$CELTSCALE
 40
1.0
  9
$DELOBJ
 70
     1
  9
$DISPSILH
 70
     0
  9
$DIMSCALE
 40
1.0
  9
$DIMASZ
 40
2.0
  9
$DIMEXO
 40
2.0
  9
$DIMDLI
 40
0.5
  9
$DIMRND
 40
0.0
  9
$DIMDLE
 40
0.0
  9
$DIMEXE
 40
1.0
  9
$DIMTP
 40
0.0
  9
$DIMTM
 40
0.0
  9
$DIMTXT
 40
3.0
  9
$DIMCEN
 40
0.0
  9
$DIMTSZ
 40
0.0
  9
$DIMTOL
 70
     0
  9
$DIMLIM
 70
     0
  9
$DIMTIH
 70
     0
  9
$DIMTOH
 70
     1
  9
$DIMSE1
 70
     0
  9
$DIMSE2
 70
     0
  9
$DIMTAD
 70
     1
  9
$DIMZIN
 70
     8
  9
$DIMBLK
  1
OPEN30
  9
$DIMASO
 70
     1
  9
$DIMSHO
 70
     1
  9
$DIMPOST
  1

  9
$DIMAPOST
  1

  9
$DIMALT
 70
     0
  9
$DIMALTD
 70
     2
  9
$DIMALTF
 40
25.4
  9
$DIMLFAC
 40
1.0
  9
$DIMTOFL
 70
     0
  9
$DIMTVP
 40
0.0
  9
$DIMTIX
 70
     1
  9
$DIMSOXD
 70
     0
  9
$DIMSAH
 70
     0
  9
$DIMBLK1
  1

  9
$DIMBLK2
  1

  9
$DIMSTYLE
  2
STANDARD
  9
$DIMCLRD
 70
   256
  9
$DIMCLRE
 70
   256
  9
$DIMCLRT
 70
     3
  9
$DIMTFAC
 40
1.0
  9
$DIMGAP
 40
1.0
  9
$DIMJUST
 70
     0
  9
$DIMSD1
 70
     0
  9
$DIMSD2
 70
     0
  9
$DIMTOLJ
 70
     1
  9
$DIMTZIN
 70
     0
  9
$DIMALTZ
 70
     0
  9
$DIMALTTZ
 70
     0
  9
$DIMFIT
 70
     5
  9
$DIMUPT
 70
     0
  9
$DIMUNIT
 70
     2
  9
$DIMDEC
 70
     1
  9
$DIMTDEC
 70
     1
  9
$DIMALTU
 70
     2
  9
$DIMALTTD
 70
     2
  9
$DIMTXSTY
  7
STANDARD
  9
$DIMAUNIT
 70
     0
  9
$LUNITS
 70
     2
  9
$LUPREC
 70
     4
  9
$SKETCHINC
 40
0.1
  9
$FILLETRAD
 40
0.0
  9
$AUNITS
 70
     0
  9
$AUPREC
 70
     0
  9
$MENU
  1
acad
  9
$ELEVATION
 40
0.0
  9
$PELEVATION
 40
0.0
  9
$THICKNESS
 40
0.0
  9
$LIMCHECK
 70
     0
  9
$BLIPMODE
 70
     0
  9
$CHAMFERA
 40
0.0
  9
$CHAMFERB
 40
0.0
  9
$CHAMFERC
 40
0.0
  9
$CHAMFERD
 40
0.0
  9
$SKPOLY
 70
     0
  9
$TDCREATE
 40
2312272.457674340
  9
$TDUPDATE
 40
2454126.798397708
  9
$TDINDWG
 40
0.1693623264
  9
$TDUSRTIMER
 40
0.1693617824
  9
$USRTIMER
 70
     1
  9
$ANGBASE
 50
0.0
  9
$ANGDIR
 70
     0
  9
$PDMODE
 70
     0
  9
$PDSIZE
 40
0.0
  9
$PLINEWID
 40
0.0
  9
$COORDS
 70
     2
  9
$SPLFRAME
 70
     0
  9
$SPLINETYPE
 70
     6
  9
$SPLINESEGS
 70
     8
  9
$ATTDIA
 70
     0
  9
$ATTREQ
 70
     1
  9
$HANDLING
 70
 22529
  9
$HANDSEED
  5
3D62
  9
$SURFTAB1
 70
     6
  9
$SURFTAB2
 70
     6
  9
$SURFTYPE
 70
     6
  9
$SURFU
 70
     6
  9
$SURFV
 70
     6
  9
$UCSNAME
  2

  9
$UCSORG
 10
0.0
 20
0.0
 30
0.0
  9
$UCSXDIR
 10
1.0
 20
0.0
 30
0.0
  9
$UCSYDIR
 10
0.0
 20
1.0
 30
0.0
  9
$PUCSNAME
  2

  9
$PUCSORG
 10
0.0
 20
0.0
 30
0.0
  9
$PUCSXDIR
 10
1.0
 20
0.0
 30
0.0
  9
$PUCSYDIR
 10
0.0
 20
1.0
 30
0.0
  9
$USERI1
 70
     0
  9
$USERI2
 70
     0
  9
$USERI3
 70
     0
  9
$USERI4
 70
     0
  9
$USERI5
 70
     0
  9
$USERR1
 40
12.01
  9
$USERR2
 40
0.0
  9
$USERR3
 40
0.0
  9
$USERR4
 40
0.0
  9
$USERR5
 40
0.0
  9
$WORLDVIEW
 70
     1
  9
$SHADEDGE
 70
     3
  9
$SHADEDIF
 70
    70
  9
$TILEMODE
 70
     1
  9
$MAXACTVP
 70
    16
  9
$PINSBASE
 10
0.0
 20
0.0
 30
0.0
  9
$PLIMCHECK
 70
     0
  9
$PEXTMIN
 10
1.000000000000000E+20
 20
1.000000000000000E+20
 30
1.000000000000000E+20
  9
$PEXTMAX
 10
-1.000000000000000E+20
 20
-1.000000000000000E+20
 30
-1.000000000000000E+20
  9
$PLIMMIN
 10
0.0
 20
0.0
  9
$PLIMMAX
 10
12.0
 20
9.0
  9
$UNITMODE
 70
     0
  9
$VISRETAIN
 70
     0
  9
$PLINEGEN
 70
     1
  9
$PSLTSCALE
 70
     0
  9
$TREEDEPTH
 70
  3020
  9
$PICKSTYLE
 70
     1
  9
$CMLSTYLE
  2
STANDARD
  9
$CMLJUST
 70
     0
  9
$CMLSCALE
 40
1.0
  9
$PROXYGRAPHICS
 70
     0
  9
$MEASUREMENT
 70
     1
  0
ENDSEC
  0
SECTION
  2
CLASSES
  0
CLASS
  1
LWPOLYLINE
  2
AcDbPolyline
  3
AutoCAD 2000
 90
        0
280
     0
281
     1
  0
CLASS
  1
IMAGE
  2
AcDbRasterImage
  3
ISM
 90
      127
280
     0
281
     1
  0
CLASS
  1
OLE2FRAME
  2
AcDbOle2Frame
  3
AutoCAD 2000
 90
        0
280
     0
281
     1
  0
CLASS
  1
HATCH
  2
AcDbHatch
  3
AutoCAD 2000
 90
        0
280
     0
281
     1
  0
CLASS
  1
DICTIONARYVAR
  2
AcDbDictionaryVar
  3
AutoCAD 2000
 90
        0
280
     0
281
     0
  0
CLASS
  1
RASTERVARIABLES
  2
AcDbRasterVariables
  3
ISM
 90
        0
280
     0
281
     0
  0
CLASS
  1
IMAGEDEF
  2
AcDbRasterImageDef
  3
ISM
 90
        0
280
     0
281
     0
  0
CLASS
  1
IMAGEDEF_REACTOR
  2
AcDbRasterImageDefReactor
  3
ISM
 90
        1
280
     0
281
     0
  0
CLASS
  1
IDBUFFER
  2
AcDbIdBuffer
  3
AutoCAD 2000
 90
        0
280
     0
281
     0
  0
CLASS
  1
SPATIAL_FILTER
  2
AcDbSpatialFilter
  3
AutoCAD 2000
 90
        0
280
     0
281
     0
  0
CLASS
  1
XRECORD
  2
AcDbXrecord
  3
AutoCAD 2000
 90
        0
280
     0
281
     0
  0
CLASS
  1
SORTENTSTABLE
  2
AcDbSortentsTable
  3
AutoCAD 2000
 90
        0
280
     0
281
     0
  0
CLASS
  1
LAYER_INDEX
  2
AcDbLayerIndex
  3
AutoCAD 2000
 90
        0
280
     0
281
     0
  0
CLASS
  1
SPATIAL_INDEX
  2
AcDbSpatialIndex
  3
AutoCAD 2000
 90
        0
280
     0
281
     0
  0
CLASS
  1
OBJECT_PTR
  2
CAseDLPNTableRecord
  3
ASE-LPNTableRecord
 90
        1
280
     0
281
     0
  0
CLASS
  1
LAYOUT
  2
AcDbLayout
  3
AutoCAD 2000
 90
        0
280
     0
281
     0
  0
CLASS
  1
PLOTSETTINGS
  2
AcDbPlotSettings
  3
AutoCAD 2000
 90
        0
280
     0
281
     0
  0
CLASS
  1
ACDBDICTIONARYWDFLT
  2
AcDbDictionaryWithDefault
  3
AutoCAD 2000
 90
        0
280
     0
281
     0
  0
CLASS
  1
ACDBPLACEHOLDER
  2
AcDbPlaceHolder
  3
AutoCAD 2000
 90
        0
280
     0
281
     0
  0
CLASS
  1
LONG_TRANSACTION
  2
AcDbLongTransaction
  3
AutoCAD 2000
 90
        0
280
     0
281
     0
  0
CLASS
  1
LWPOLYLINE
  2
AcDbPolyline
  3
AutoCAD 2000
 90
        0
280
     0
281
     1
  0
CLASS
  1
HATCH
  2
AcDbHatch
  3
AutoCAD 2000
 90
        0
280
     0
281
     1
  0
CLASS
  1
XRECORD
  2
AcDbXrecord
  3
AutoCAD 2000
 90
        0
280
     0
281
     0
  0
ENDSEC
  0
SECTION
  2
TABLES
  0
TABLE
  2
VPORT
  5
7
330
0
100
AcDbSymbolTable
 70
     3
  0
VPORT
  5
3D3D
330
7
100
AcDbSymbolTableRecord
100
AcDbViewportTableRecord
  2
*ACTIVE
 70
     0
 10
0.0
 20
0.0
 11
1.0
 21
1.0
 12
200.0000019558371
 22
138.5000013830562
 13
0.0
 23
0.0
 14
1.0
 24
1.0
 15
0.0
 25
0.0
 16
0.0
 26
0.0
 36
1.0
 17
0.0
 27
0.0
 37
0.0
 40
299.3388626248415
 41
1.683053040103492
 42
50.0
 43
0.0
 44
0.0
 50
0.0
 51
0.0
 71
     0
 72
   100
 73
     1
 74
     1
 75
     0
 76
     0
 77
     0
 78
     0
  0
ENDTAB
  0
TABLE
  2
LTYPE
  5
4
330
0
100
AcDbSymbolTable
 70
     9
  0
LTYPE
  5
11
330
4
100
AcDbSymbolTableRecord
100
AcDbLinetypeTableRecord
  2
BYBLOCK
 70
     0
  3

 72
    65
 73
     0
 40
0.0
  0
LTYPE
  5
12
330
4
100
AcDbSymbolTableRecord
100
AcDbLinetypeTableRecord
  2
BYLAYER
 70
     0
  3

 72
    65
 73
     0
 40
0.0
  0
LTYPE
  5
13
330
4
100
AcDbSymbolTableRecord
100
AcDbLinetypeTableRecord
  2
CONTINUOUS
 70
     0
  3
Solid line
 72
    65
 73
     0
 40
0.0
  0
LTYPE
  5
1D
330
4
100
AcDbSymbolTableRecord
100
AcDbLinetypeTableRecord
  2
DASHED
 70
     0
  3
Dashed
 72
    65
 73
     2
 40
15.0
 49
7.0
 74
     0
 49
-8.0
 74
     0
  0
LTYPE
  5
3407
330
4
100
AcDbSymbolTableRecord
100
AcDbLinetypeTableRecord
  2
CENTER
 70
     0
  3
Center ____ _ ____ _ ____ _ ____ _ ____ _ ____
 72
    65
 73
     4
 40
50.8
 49
31.75
 74
     0
 49
-6.349999999999999
 74
     0
 49
6.349999999999999
 74
     0
 49
-6.349999999999999
 74
     0
  0
ENDTAB
  0
TABLE
  2
LAYER
  5
2
330
0
100
AcDbSymbolTable
 70
     9
  0
LAYER
  5
14
330
2
100
AcDbSymbolTableRecord
100
AcDbLayerTableRecord
  2
0
 70
     0
 62
     7
  6
CONTINUOUS
  0
LAYER
  5
32EF
330
2
100
AcDbSymbolTableRecord
100
AcDbLayerTableRecord
  2
DEFPOINTS
 70
     0
 62
     7
  6
CONTINUOUS
  0
LAYER
  5
340D
330
2
100
AcDbSymbolTableRecord
100
AcDbLayerTableRecord
  2
DIMENSIONS
 70
     0
 62
     2
  6
CONTINUOUS
  0
LAYER
  5
3412
330
2
100
AcDbSymbolTableRecord
100
AcDbLayerTableRecord
  2
SHAPE_OUTLINE_BOLD_LINE_
 70
     0
 62
     7
  6
CONTINUOUS
  0
LAYER
  5
341C
330
2
100
AcDbSymbolTableRecord
100
AcDbLayerTableRecord
  2
SHAPE_OUTLINE_THIN_LINE_
 70
     0
 62
     2
  6
CONTINUOUS
  0
LAYER
  5
3574
330
2
100
AcDbSymbolTableRecord
100
AcDbLayerTableRecord
  2
FILE_NAME
 70
     0
 62
     1
  6
CONTINUOUS
  0
LAYER
  5
36A1
330
2
100
AcDbSymbolTableRecord
100
AcDbLayerTableRecord
  2
CENTER
 70
     0
 62
     2
  6
CENTER
  0
ENDTAB
  0
TABLE
  2
STYLE
  5
3
330
0
100
AcDbSymbolTable
 70
     9
  0
STYLE
  5
17
330
3
100
AcDbSymbolTableRecord
100
AcDbTextStyleTableRecord
  2
STANDARD
 70
     0
 40
0.0
 41
1.0
 50
0.0
 71
     0
 42
0.0
  3
MS Gothic.ttf
  4

1001
ACAD
1000
MS Gothic
1071
    32817
  0
ENDTAB
  0
TABLE
  2
VIEW
  5
5
330
0
100
AcDbSymbolTable
 70
     0
  0
ENDTAB
  0
TABLE
  2
UCS
  5
6
330
0
100
AcDbSymbolTable
 70
     0
  0
ENDTAB
  0
TABLE
  2
APPID
  5
8
330
0
100
AcDbSymbolTable
 70
     3
  0
APPID
  5
16
330
8
100
AcDbSymbolTableRecord
100
AcDbRegAppTableRecord
  2
ACAD
 70
     0
  0
APPID
  5
3475
330
8
100
AcDbSymbolTableRecord
100
AcDbRegAppTableRecord
  2
DCO15
 70
     0
  0
APPID
  5
3621
330
8
100
AcDbSymbolTableRecord
100
AcDbRegAppTableRecord
  2
ADE
 70
     0
  0
ENDTAB
  0
TABLE
  2
DIMSTYLE
  5
9
330
0
100
AcDbSymbolTable
 70
     9
  0
DIMSTYLE
105
18
102
{ACAD_REACTORS
330
3BC6
330
3BDC
330
3BE9
330
3BF6
330
3C04
330
3C11
330
3C1E
330
3C2B
102
}
330
9
100
AcDbSymbolTableRecord
100
AcDbDimStyleTableRecord
  2
STANDARD
 70
     0
  3

  4

  5
OPEN30
  6

  7

 40
1.0
 41
2.0
 42
2.0
 43
0.5
 44
1.0
 45
0.0
 46
0.0
 47
0.0
 48
0.0
140
3.0
141
0.0
142
0.0
143
25.4
144
1.0
145
0.0
146
1.0
147
1.0
 71
     0
 72
     0
 73
     0
 74
     1
 75
     0
 76
     0
 77
     1
 78
     8
170
     0
171
     2
172
     0
173
     0
174
     1
175
     0
176
   256
177
   256
178
     3
270
     2
271
     1
272
     1
273
     2
274
     2
340
17
275
     0
280
     0
281
     0
282
     0
283
     1
284
     0
285
     0
286
     0
287
     5
288
     0
  0
ENDTAB
  0
TABLE
  2
BLOCK_RECORD
  5
1
330
0
100
AcDbSymbolTable
 70
    10
  0
BLOCK_RECORD
  5
A
102
{ACAD_XDICTIONARY
360
36A5
102
}
330
1
100
AcDbSymbolTableRecord
100
AcDbBlockTableRecord
  2
*MODEL_SPACE
  0
BLOCK_RECORD
  5
B
102
{ACAD_XDICTIONARY
360
3D60
102
}
330
1
100
AcDbSymbolTableRecord
100
AcDbBlockTableRecord
  2
*PAPER_SPACE
  0
BLOCK_RECORD
  5
143A
330
1
100
AcDbSymbolTableRecord
100
AcDbBlockTableRecord
  2
_OPEN30
  0
BLOCK_RECORD
  5
3BC7
330
1
100
AcDbSymbolTableRecord
100
AcDbBlockTableRecord
  2
*D2
  0
BLOCK_RECORD
  5
3BDD
330
1
100
AcDbSymbolTableRecord
100
AcDbBlockTableRecord
  2
*D3
  0
BLOCK_RECORD
  5
3BEA
330
1
100
AcDbSymbolTableRecord
100
AcDbBlockTableRecord
  2
*D4
  0
BLOCK_RECORD
  5
3BF7
330
1
100
AcDbSymbolTableRecord
100
AcDbBlockTableRecord
  2
*D5
  0
BLOCK_RECORD
  5
3C05
330
1
100
AcDbSymbolTableRecord
100
AcDbBlockTableRecord
  2
*D6
  0
BLOCK_RECORD
  5
3C12
330
1
100
AcDbSymbolTableRecord
100
AcDbBlockTableRecord
  2
*D7
  0
BLOCK_RECORD
  5
3C1F
330
1
100
AcDbSymbolTableRecord
100
AcDbBlockTableRecord
  2
*D8
  0
BLOCK_RECORD
  5
3C2C
330
1
100
AcDbSymbolTableRecord
100
AcDbBlockTableRecord
  2
*D9
  0
ENDTAB
  0
ENDSEC
  0
SECTION
  2
BLOCKS
  0
BLOCK
  5
D
330
A
100
AcDbEntity
  8
0
100
AcDbBlockBegin
  2
*MODEL_SPACE
 70
     0
 10
0.0
 20
0.0
 30
0.0
  3
*MODEL_SPACE
  1

  0
ENDBLK
  5
E
330
A
100
AcDbEntity
  8
0
100
AcDbBlockEnd
  0
BLOCK
  5
F
330
B
100
AcDbEntity
 67
     1
  8
0
100
AcDbBlockBegin
  2
*PAPER_SPACE
 70
     0
 10
0.0
 20
0.0
 30
0.0
  3
*PAPER_SPACE
  1

  0
ENDBLK
  5
10
330
B
100
AcDbEntity
 67
     1
  8
0
100
AcDbBlockEnd
  0
BLOCK
  5
143B
330
143A
100
AcDbEntity
  8
0
 62
     0
100
AcDbBlockBegin
  2
_OPEN30
 70
     0
 10
0.0
 20
0.0
 30
0.0
  3
_OPEN30
  1

  0
LINE
  5
143C
330
143A
100
AcDbEntity
  8
0
  6
BYBLOCK
 62
     0
100
AcDbLine
 10
-1.0
 20
0.267949
 30
0.0
 11
0.0
 21
0.0
 31
0.0
  0
LINE
  5
143D
330
143A
100
AcDbEntity
  8
0
  6
BYBLOCK
 62
     0
100
AcDbLine
 10
0.0
 20
0.0
 30
0.0
 11
-1.0
 21
-0.267949
 31
0.0
  0
LINE
  5
143E
330
143A
100
AcDbEntity
  8
0
  6
BYBLOCK
 62
     0
100
AcDbLine
 10
0.0
 20
0.0
 30
0.0
 11
-1.0
 21
0.0
 31
0.0
  0
ENDBLK
  5
143F
330
143A
100
AcDbEntity
  8
0
 62
     0
100
AcDbBlockEnd
  0
BLOCK
  5
3BD1
330
3BC7
100
AcDbEntity
  8
0
100
AcDbBlockBegin
  2
*D2
 70
     1
 10
0.0
 20
0.0
 30
0.0
  3
*D2
  1

  0
LINE
  5
3CC6
330
3BC7
100
AcDbEntity
  8
DIMENSIONS
100
AcDbLine
 10
83.82779200560321
 20
188.56507432087
 30
0.0
 11
83.82779200560321
 21
204.9835379844411
 31
0.0
  0
LINE
  5
3CC7
330
3BC7
100
AcDbEntity
  8
DIMENSIONS
100
AcDbLine
 10
158.3277920056033
 20
188.56507432087
 30
0.0
 11
158.3277920056033
 21
204.9835379844411
 31
0.0
  0
LINE
  5
3CC8
330
3BC7
100
AcDbEntity
  8
DIMENSIONS
100
AcDbLine
 10
85.82779200560322
 20
203.9835379844411
 30
0.0
 11
156.3277920056033
 21
203.9835379844411
 31
0.0
  0
INSERT
  5
3CC9
330
3BC7
100
AcDbEntity
  8
DIMENSIONS
100
AcDbBlockReference
  2
_OPEN30
 10
83.82779200560321
 20
203.9835379844411
 30
0.0
 41
2.0
 42
2.0
 43
2.0
 50
180.0
  0
INSERT
  5
3CCA
330
3BC7
100
AcDbEntity
  8
DIMENSIONS
100
AcDbBlockReference
  2
_OPEN30
 10
158.3277920056033
 20
203.9835379844411
 30
0.0
 41
2.0
 42
2.0
 43
2.0
  0
MTEXT
  5
3CCB
330
3BC7
100
AcDbEntity
  8
DIMENSIONS
 62
     3
100
AcDbMText
 10
121.0777920056032
 20
206.7271928067761
 30
0.0
 40
3.0
 41
0.0
 71
     5
 72
     1
  1
\A1;φ74.5
1001
ACAD
1000
MTEXTBEGIN
1070
    73
1070
     1
1070
    44
1040
1.0
1070
    74
1070
     0
1000
MTEXTEND
  0
POINT
  5
3CCC
330
3BC7
100
AcDbEntity
  8
DEFPOINTS
 62
     0
100
AcDbPoint
 10
83.82779200560321
 20
186.56507432087
 30
0.0
  0
POINT
  5
3CCD
330
3BC7
100
AcDbEntity
  8
DEFPOINTS
 62
     0
100
AcDbPoint
 10
158.3277920056033
 20
186.56507432087
 30
0.0
  0
POINT
  5
3CCE
330
3BC7
100
AcDbEntity
  8
DEFPOINTS
 62
     0
100
AcDbPoint
 10
158.3277920056033
 20
203.9835379844411
 30
0.0
  0
ENDBLK
  5
3BD2
330
3BC7
100
AcDbEntity
  8
0
100
AcDbBlockEnd
  0
BLOCK
  5
3BE7
330
3BDD
100
AcDbEntity
  8
0
100
AcDbBlockBegin
  2
*D3
 70
     1
 10
0.0
 20
0.0
 30
0.0
  3
*D3
  1

  0
LINE
  5
3CBD
330
3BDD
100
AcDbEntity
  8
DIMENSIONS
100
AcDbLine
 10
85.82779200560315
 20
188.56507432087
 30
0.0
 11
85.82779200560315
 21
196.0730936593702
 31
0.0
  0
LINE
  5
3CBE
330
3BDD
100
AcDbEntity
  8
DIMENSIONS
100
AcDbLine
 10
156.3277920056033
 20
188.56507432087
 30
0.0
 11
156.3277920056033
 21
196.0730936593702
 31
0.0
  0
LINE
  5
3CBF
330
3BDD
100
AcDbEntity
  8
DIMENSIONS
100
AcDbLine
 10
87.82779200560316
 20
195.0730936593702
 30
0.0
 11
154.3277920056033
 21
195.0730936593702
 31
0.0
  0
INSERT
  5
3CC0
330
3BDD
100
AcDbEntity
  8
DIMENSIONS
100
AcDbBlockReference
  2
_OPEN30
 10
85.82779200560315
 20
195.0730936593702
 30
0.0
 41
2.0
 42
2.0
 43
2.0
 50
180.0
  0
INSERT
  5
3CC1
330
3BDD
100
AcDbEntity
  8
DIMENSIONS
100
AcDbBlockReference
  2
_OPEN30
 10
156.3277920056033
 20
195.0730936593702
 30
0.0
 41
2.0
 42
2.0
 43
2.0
  0
MTEXT
  5
3CC2
330
3BDD
100
AcDbEntity
  8
DIMENSIONS
 62
     3
100
AcDbMText
 10
121.0777920056032
 20
197.8167484817052
 30
0.0
 40
3.0
 41
0.0
 71
     5
 72
     1
  1
\A1;φ70.5
1001
ACAD
1000
MTEXTBEGIN
1070
    73
1070
     1
1070
    44
1040
1.0
1070
    74
1070
     0
1000
MTEXTEND
  0
POINT
  5
3CC3
330
3BDD
100
AcDbEntity
  8
DEFPOINTS
 62
     0
100
AcDbPoint
 10
85.82779200560315
 20
186.56507432087
 30
0.0
  0
POINT
  5
3CC4
330
3BDD
100
AcDbEntity
  8
DEFPOINTS
 62
     0
100
AcDbPoint
 10
156.3277920056033
 20
186.56507432087
 30
0.0
  0
POINT
  5
3CC5
330
3BDD
100
AcDbEntity
  8
DEFPOINTS
 62
     0
100
AcDbPoint
 10
156.3277920056033
 20
195.0730936593702
 30
0.0
  0
ENDBLK
  5
3BE8
330
3BDD
100
AcDbEntity
  8
0
100
AcDbBlockEnd
  0
BLOCK
  5
3BF4
330
3BEA
100
AcDbEntity
  8
0
100
AcDbBlockBegin
  2
*D4
 70
     1
 10
0.0
 20
0.0
 30
0.0
  3
*D4
  1

  0
LINE
  5
3CB4
330
3BEA
100
AcDbEntity
  8
DIMENSIONS
100
AcDbLine
 10
83.82779200560321
 20
188.56507432087
 30
0.0
 11
83.82779200560321
 21
214.7632939509825
 31
0.0
  0
LINE
  5
3CB5
330
3BEA
100
AcDbEntity
  8
DIMENSIONS
100
AcDbLine
 10
189.3277920056032
 20
188.56507432087
 30
0.0
 11
189.3277920056032
 21
214.7632939509825
 31
0.0
  0
LINE
  5
3CB6
330
3BEA
100
AcDbEntity
  8
DIMENSIONS
100
AcDbLine
 10
85.82779200560322
 20
213.7632939509825
 30
0.0
 11
187.3277920056032
 21
213.7632939509825
 31
0.0
  0
INSERT
  5
3CB7
330
3BEA
100
AcDbEntity
  8
DIMENSIONS
100
AcDbBlockReference
  2
_OPEN30
 10
83.82779200560321
 20
213.7632939509825
 30
0.0
 41
2.0
 42
2.0
 43
2.0
 50
180.0
  0
INSERT
  5
3CB8
330
3BEA
100
AcDbEntity
  8
DIMENSIONS
100
AcDbBlockReference
  2
_OPEN30
 10
189.3277920056032
 20
213.7632939509825
 30
0.0
 41
2.0
 42
2.0
 43
2.0
  0
MTEXT
  5
3CB9
330
3BEA
100
AcDbEntity
  8
DIMENSIONS
 62
     3
100
AcDbMText
 10
136.5777920056032
 20
216.2632939509824
 30
0.0
 40
3.0
 41
0.0
 71
     5
 72
     1
  1
\A1;105.5
1001
ACAD
1000
MTEXTBEGIN
1070
    73
1070
     1
1070
    44
1040
1.0
1070
    74
1070
     0
1000
MTEXTEND
  0
POINT
  5
3CBA
330
3BEA
100
AcDbEntity
  8
DEFPOINTS
 62
     0
100
AcDbPoint
 10
83.82779200560321
 20
186.56507432087
 30
0.0
  0
POINT
  5
3CBB
330
3BEA
100
AcDbEntity
  8
DEFPOINTS
 62
     0
100
AcDbPoint
 10
189.3277920056032
 20
186.56507432087
 30
0.0
  0
POINT
  5
3CBC
330
3BEA
100
AcDbEntity
  8
DEFPOINTS
 62
     0
100
AcDbPoint
 10
189.3277920056032
 20
213.7632939509825
 30
0.0
  0
ENDBLK
  5
3BF5
330
3BEA
100
AcDbEntity
  8
0
100
AcDbBlockEnd
  0
BLOCK
  5
3C02
330
3BF7
100
AcDbEntity
  8
0
100
AcDbBlockBegin
  2
*D5
 70
     1
 10
0.0
 20
0.0
 30
0.0
  3
*D5
  1

  0
LINE
  5
3CAA
330
3BF7
100
AcDbEntity
  8
DIMENSIONS
100
AcDbLine
 10
185.3277920056032
 20
187.76507432087
 30
0.0
 11
185.3277920056032
 21
196.0730936593702
 31
0.0
  0
LINE
  5
3CAB
330
3BF7
100
AcDbEntity
  8
DIMENSIONS
100
AcDbLine
 10
189.3277920056032
 20
188.56507432087
 30
0.0
 11
189.3277920056032
 21
196.0730936593702
 31
0.0
  0
LINE
  5
3CAC
330
3BF7
100
AcDbEntity
  8
DIMENSIONS
100
AcDbLine
 10
183.3277920056032
 20
195.0730936593702
 30
0.0
 11
181.3277920056032
 21
195.0730936593702
 31
0.0
  0
LINE
  5
3CAD
330
3BF7
100
AcDbEntity
  8
DIMENSIONS
100
AcDbLine
 10
191.3277920056032
 20
195.0730936593702
 30
0.0
 11
193.3277920056032
 21
195.0730936593702
 31
0.0
  0
INSERT
  5
3CAE
330
3BF7
100
AcDbEntity
  8
DIMENSIONS
100
AcDbBlockReference
  2
_OPEN30
 10
185.3277920056032
 20
195.0730936593702
 30
0.0
 41
2.0
 42
2.0
 43
2.0
  0
INSERT
  5
3CAF
330
3BF7
100
AcDbEntity
  8
DIMENSIONS
100
AcDbBlockReference
  2
_OPEN30
 10
189.3277920056032
 20
195.0730936593702
 30
0.0
 41
2.0
 42
2.0
 43
2.0
 50
180.0
  0
MTEXT
  5
3CB0
330
3BF7
100
AcDbEntity
  8
DIMENSIONS
 62
     3
100
AcDbMText
 10
187.3277920056032
 20
197.5730936593702
 30
0.0
 40
3.0
 41
0.0
 71
     5
 72
     1
  1
\A1;4
1001
ACAD
1000
MTEXTBEGIN
1070
    73
1070
     1
1070
    44
1040
1.0
1070
    74
1070
     0
1000
MTEXTEND
  0
POINT
  5
3CB1
330
3BF7
100
AcDbEntity
  8
DEFPOINTS
 62
     0
100
AcDbPoint
 10
185.3277920056032
 20
185.76507432087
 30
0.0
  0
POINT
  5
3CB2
330
3BF7
100
AcDbEntity
  8
DEFPOINTS
 62
     0
100
AcDbPoint
 10
189.3277920056032
 20
186.56507432087
 30
0.0
  0
POINT
  5
3CB3
330
3BF7
100
AcDbEntity
  8
DEFPOINTS
 62
     0
100
AcDbPoint
 10
189.3277920056032
 20
195.0730936593702
 30
0.0
  0
ENDBLK
  5
3C03
330
3BF7
100
AcDbEntity
  8
0
100
AcDbBlockEnd
  0
BLOCK
  5
3C0F
330
3C05
100
AcDbEntity
  8
0
100
AcDbBlockBegin
  2
*D6
 70
     1
 10
0.0
 20
0.0
 30
0.0
  3
*D6
  1

  0
LINE
  5
3CA1
330
3C05
100
AcDbEntity
  8
DIMENSIONS
100
AcDbLine
 10
191.3277920056032
 20
186.56507432087
 30
0.0
 11
201.4966158626525
 21
186.56507432087
 31
0.0
  0
LINE
  5
3CA2
330
3C05
100
AcDbEntity
  8
DIMENSIONS
100
AcDbLine
 10
191.3277920056032
 20
136.5650743208699
 30
0.0
 11
201.4966158626525
 21
136.5650743208699
 31
0.0
  0
LINE
  5
3CA3
330
3C05
100
AcDbEntity
  8
DIMENSIONS
100
AcDbLine
 10
200.4966158626525
 20
184.5650743208699
 30
0.0
 11
200.4966158626525
 21
138.5650743208699
 31
0.0
  0
INSERT
  5
3CA4
330
3C05
100
AcDbEntity
  8
DIMENSIONS
100
AcDbBlockReference
  2
_OPEN30
 10
200.4966158626525
 20
186.56507432087
 30
0.0
 41
2.0
 42
2.0
 43
2.0
 50
90.0
  0
INSERT
  5
3CA5
330
3C05
100
AcDbEntity
  8
DIMENSIONS
100
AcDbBlockReference
  2
_OPEN30
 10
200.4966158626525
 20
136.5650743208699
 30
0.0
 41
2.0
 42
2.0
 43
2.0
 50
270.0
  0
MTEXT
  5
3CA6
330
3C05
100
AcDbEntity
  8
DIMENSIONS
 62
     3
100
AcDbMText
 10
197.7529610403174
 20
161.56507432087
 30
0.0
 40
3.0
 41
0.0
 71
     5
 72
     1
  1
\A1;φ50
 11
0.0000000000000001
 21
1.0
 31
0.0
1001
ACAD
1000
MTEXTBEGIN
1070
    73
1070
     1
1070
    44
1040
1.0
1070
    74
1070
     0
1000
MTEXTEND
  0
POINT
  5
3CA7
330
3C05
100
AcDbEntity
  8
DEFPOINTS
 62
     0
100
AcDbPoint
 10
189.3277920056032
 20
186.56507432087
 30
0.0
  0
POINT
  5
3CA8
330
3C05
100
AcDbEntity
  8
DEFPOINTS
 62
     0
100
AcDbPoint
 10
189.3277920056032
 20
136.5650743208699
 30
0.0
  0
POINT
  5
3CA9
330
3C05
100
AcDbEntity
  8
DEFPOINTS
 62
     0
100
AcDbPoint
 10
200.4966158626525
 20
136.5650743208699
 30
0.0
  0
ENDBLK
  5
3C10
330
3C05
100
AcDbEntity
  8
0
100
AcDbBlockEnd
  0
BLOCK
  5
3C1C
330
3C12
100
AcDbEntity
  8
0
100
AcDbBlockBegin
  2
*D7
 70
     1
 10
0.0
 20
0.0
 30
0.0
  3
*D7
  1

  0
LINE
  5
3C98
330
3C12
100
AcDbEntity
  8
DIMENSIONS
100
AcDbLine
 10
168.5053642319257
 20
172.5650743208699
 30
0.0
 11
166.3073830598747
 21
172.5650743208699
 31
0.0
  0
LINE
  5
3C99
330
3C12
100
AcDbEntity
  8
DIMENSIONS
100
AcDbLine
 10
169.0522120186943
 20
150.56507432087
 30
0.0
 11
166.3073830598747
 21
150.56507432087
 31
0.0
  0
LINE
  5
3C9A
330
3C12
100
AcDbEntity
  8
DIMENSIONS
100
AcDbLine
 10
167.3073830598747
 20
170.56507432087
 30
0.0
 11
167.3073830598747
 21
152.56507432087
 31
0.0
  0
INSERT
  5
3C9B
330
3C12
100
AcDbEntity
  8
DIMENSIONS
100
AcDbBlockReference
  2
_OPEN30
 10
167.3073830598747
 20
172.5650743208699
 30
0.0
 41
2.0
 42
2.0
 43
2.0
 50
90.0
  0
INSERT
  5
3C9C
330
3C12
100
AcDbEntity
  8
DIMENSIONS
100
AcDbBlockReference
  2
_OPEN30
 10
167.3073830598747
 20
150.56507432087
 30
0.0
 41
2.0
 42
2.0
 43
2.0
 50
270.0
  0
MTEXT
  5
3C9D
330
3C12
100
AcDbEntity
  8
DIMENSIONS
 62
     3
100
AcDbMText
 10
164.5637282375396
 20
161.56507432087
 30
0.0
 40
3.0
 41
0.0
 71
     5
 72
     1
  1
\A1;φ22
 11
0.0000000000000001
 21
1.0
 31
0.0
1001
ACAD
1000
MTEXTBEGIN
1070
    73
1070
     1
1070
    44
1040
1.0
1070
    74
1070
     0
1000
MTEXTEND
  0
POINT
  5
3C9E
330
3C12
100
AcDbEntity
  8
DEFPOINTS
 62
     0
100
AcDbPoint
 10
170.5053642319257
 20
172.5650743208699
 30
0.0
  0
POINT
  5
3C9F
330
3C12
100
AcDbEntity
  8
DEFPOINTS
 62
     0
100
AcDbPoint
 10
171.0522120186943
 20
150.56507432087
 30
0.0
  0
POINT
  5
3CA0
330
3C12
100
AcDbEntity
  8
DEFPOINTS
 62
     0
100
AcDbPoint
 10
167.3073830598747
 20
150.56507432087
 30
0.0
  0
ENDBLK
  5
3C1D
330
3C12
100
AcDbEntity
  8
0
100
AcDbBlockEnd
  0
BLOCK
  5
3C29
330
3C1F
100
AcDbEntity
  8
0
100
AcDbBlockBegin
  2
*D8
 70
     1
 10
0.0
 20
0.0
 30
0.0
  3
*D8
  1

  0
LINE
  5
3C8F
330
3C1F
100
AcDbEntity
  8
DIMENSIONS
100
AcDbLine
 10
81.82779200560322
 20
186.56507432087
 30
0.0
 11
73.4464278494532
 21
186.56507432087
 31
0.0
  0
LINE
  5
3C90
330
3C1F
100
AcDbEntity
  8
DIMENSIONS
100
AcDbLine
 10
119.0777920056033
 20
123.56507432087
 30
0.0
 11
73.44642784945318
 21
123.56507432087
 31
0.0
  0
LINE
  5
3C91
330
3C1F
100
AcDbEntity
  8
DIMENSIONS
100
AcDbLine
 10
74.4464278494532
 20
184.56507432087
 30
0.0
 11
74.44642784945319
 21
125.56507432087
 31
0.0
  0
INSERT
  5
3C92
330
3C1F
100
AcDbEntity
  8
DIMENSIONS
100
AcDbBlockReference
  2
_OPEN30
 10
74.4464278494532
 20
186.56507432087
 30
0.0
 41
2.0
 42
2.0
 43
2.0
 50
90.0
  0
INSERT
  5
3C93
330
3C1F
100
AcDbEntity
  8
DIMENSIONS
100
AcDbBlockReference
  2
_OPEN30
 10
74.44642784945319
 20
123.56507432087
 30
0.0
 41
2.0
 42
2.0
 43
2.0
 50
270.0
  0
MTEXT
  5
3C94
330
3C1F
100
AcDbEntity
  8
DIMENSIONS
 62
     3
100
AcDbMText
 10
71.94642784945317
 20
155.06507432087
 30
0.0
 40
3.0
 41
0.0
 71
     5
 72
     1
  1
\A1;63
 11
0.0000000000000001
 21
1.0
 31
0.0
1001
ACAD
1000
MTEXTBEGIN
1070
    73
1070
     1
1070
    44
1040
1.0
1070
    74
1070
     0
1000
MTEXTEND
  0
POINT
  5
3C95
330
3C1F
100
AcDbEntity
  8
DEFPOINTS
 62
     0
100
AcDbPoint
 10
83.82779200560321
 20
186.56507432087
 30
0.0
  0
POINT
  5
3C96
330
3C1F
100
AcDbEntity
  8
DEFPOINTS
 62
     0
100
AcDbPoint
 10
121.0777920056033
 20
123.56507432087
 30
0.0
  0
POINT
  5
3C97
330
3C1F
100
AcDbEntity
  8
DEFPOINTS
 62
     0
100
AcDbPoint
 10
74.44642784945319
 20
123.56507432087
 30
0.0
  0
ENDBLK
  5
3C2A
330
3C1F
100
AcDbEntity
  8
0
100
AcDbBlockEnd
  0
BLOCK
  5
3C36
330
3C2C
100
AcDbEntity
  8
0
100
AcDbBlockBegin
  2
*D9
 70
     1
 10
0.0
 20
0.0
 30
0.0
  3
*D9
  1

  0
LINE
  5
3C86
330
3C2C
100
AcDbEntity
  8
DIMENSIONS
100
AcDbLine
 10
81.82779200560322
 20
186.56507432087
 30
0.0
 11
64.97063934511752
 21
186.56507432087
 31
0.0
  0
LINE
  5
3C87
330
3C2C
100
AcDbEntity
  8
DIMENSIONS
100
AcDbLine
 10
81.82779200560322
 20
86.56507432087
 30
0.0
 11
64.97063934511749
 21
86.56507432087
 31
0.0
  0
LINE
  5
3C88
330
3C2C
100
AcDbEntity
  8
DIMENSIONS
100
AcDbLine
 10
65.97063934511751
 20
184.56507432087
 30
0.0
 11
65.97063934511749
 21
88.56507432086999
 31
0.0
  0
INSERT
  5
3C89
330
3C2C
100
AcDbEntity
  8
DIMENSIONS
100
AcDbBlockReference
  2
_OPEN30
 10
65.97063934511751
 20
186.56507432087
 30
0.0
 41
2.0
 42
2.0
 43
2.0
 50
90.0
  0
INSERT
  5
3C8A
330
3C2C
100
AcDbEntity
  8
DIMENSIONS
100
AcDbBlockReference
  2
_OPEN30
 10
65.97063934511749
 20
86.56507432087
 30
0.0
 41
2.0
 42
2.0
 43
2.0
 50
270.0
  0
MTEXT
  5
3C8B
330
3C2C
100
AcDbEntity
  8
DIMENSIONS
 62
     3
100
AcDbMText
 10
63.47063934511748
 20
136.56507432087
 30
0.0
 40
3.0
 41
0.0
 71
     5
 72
     1
  1
\A1;100
 11
0.0000000000000001
 21
1.0
 31
0.0
1001
ACAD
1000
MTEXTBEGIN
1070
    73
1070
     1
1070
    44
1040
1.0
1070
    74
1070
     0
1000
MTEXTEND
  0
POINT
  5
3C8C
330
3C2C
100
AcDbEntity
  8
DEFPOINTS
 62
     0
100
AcDbPoint
 10
83.82779200560321
 20
186.56507432087
 30
0.0
  0
POINT
  5
3C8D
330
3C2C
100
AcDbEntity
  8
DEFPOINTS
 62
     0
100
AcDbPoint
 10
83.82779200560321
 20
86.56507432087
 30
0.0
  0
POINT
  5
3C8E
330
3C2C
100
AcDbEntity
  8
DEFPOINTS
 62
     0
100
AcDbPoint
 10
65.97063934511749
 20
86.56507432087
 30
0.0
  0
ENDBLK
  5
3C37
330
3C2C
100
AcDbEntity
  8
0
100
AcDbBlockEnd
  0
ENDSEC
  0
SECTION
  2
ENTITIES
  0
TEXT
  5
35F8
330
A
100
AcDbEntity
  8
FILE_NAME
  6
CONTINUOUS
100
AcDbText
 10
0.0
 20
10.0
 30
0.0
 40
5.0
  1
14-7065-02-000
 41
0.75
100
AcDbText
  0
TEXT
  5
3607
330
A
100
AcDbEntity
  8
FILE_NAME
  6
CONTINUOUS
100
AcDbText
 10
0.0
 20
0.0
 30
0.0
 40
5.0
  1
12-14706502000_1
 41
0.75
100
AcDbText
  0
TEXT
  5
36B6
330
A
100
AcDbEntity
  8
FILE_NAME
  6
CONTINUOUS
100
AcDbText
 10
0.0
 20
20.0
 30
0.0
 40
5.0
  1
スモークトレイ(壁面取付タイプ)
 41
0.75
100
AcDbText
  0
ARC
  5
3A1F
330
A
100
AcDbEntity
  8
SHAPE_OUTLINE_BOLD_LINE_
100
AcDbCircle
 10
258.7086155672404
 20
141.5244327060046
 30
0.0
 40
0.35
100
AcDbArc
 50
56.08232951589737
 51
150.0000000000096
  0
ARC
  5
3A20
330
A
100
AcDbEntity
  8
SHAPE_OUTLINE_BOLD_LINE_
100
AcDbCircle
 10
261.566499399729
 20
139.8744327060046
 30
0.0
 40
0.34999999999999
100
AcDbArc
 50
329.9999999999978
 51
63.91767048410567
  0
ARC
  5
3A21
330
A
100
AcDbEntity
  8
SHAPE_OUTLINE_BOLD_LINE_
100
AcDbCircle
 10
261.566499399729
 20
183.2557159357353
 30
0.0
 40
0.3499999999999799
100
AcDbArc
 50
296.0823295158951
 51
30.00000000000262
  0
ARC
  5
3A22
330
A
100
AcDbEntity
  8
SHAPE_OUTLINE_BOLD_LINE_
100
AcDbCircle
 10
258.7086155672404
 20
181.6057159357353
 30
0.0
 40
0.35000000000008
100
AcDbArc
 50
209.9999999999898
 51
303.9176704841029
  0
ARC
  5
3A23
330
A
100
AcDbEntity
  8
SHAPE_OUTLINE_BOLD_LINE_
100
AcDbCircle
 10
296.277908892955
 20
159.9150743208699
 30
0.0
 40
0.35000000000003
100
AcDbArc
 50
176.0823295158998
 51
270.0
  0
ARC
  5
3A24
330
A
100
AcDbEntity
  8
SHAPE_OUTLINE_BOLD_LINE_
100
AcDbCircle
 10
296.277908892955
 20
163.21507432087
 30
0.0
 40
0.35
100
AcDbArc
 50
90.0
 51
183.9176704841002
  0
ARC
  5
3A25
330
A
100
AcDbEntity
  8
SHAPE_OUTLINE_BOLD_LINE_
100
AcDbCircle
 10
186.1277920056031
 20
137.36507432087
 30
0.0
 40
0.8000000000000099
100
AcDbArc
 50
180.0
 51
270.0
  0
ARC
  5
3A26
330
A
100
AcDbEntity
  8
SHAPE_OUTLINE_BOLD_LINE_
100
AcDbCircle
 10
186.1277920056031
 20
185.76507432087
 30
0.0
 40
0.8000000000000099
100
AcDbArc
 50
90.0
 51
180.0
  0
CIRCLE
  5
3A32
330
A
100
AcDbEntity
  8
SHAPE_OUTLINE_BOLD_LINE_
100
AcDbCircle
 10
278.1843412866416
 20
161.5650743208699
 30
0.0
 40
1.5
  0
CIRCLE
  5
3A33
330
A
100
AcDbEntity
  8
SHAPE_OUTLINE_BOLD_LINE_
100
AcDbCircle
 10
266.1843412866415
 20
161.5650743208699
 30
0.0
 40
1.5
  0
CIRCLE
  5
3A34
330
A
100
AcDbEntity
  8
SHAPE_OUTLINE_BOLD_LINE_
100
AcDbCircle
 10
272.1843412866415
 20
161.5650743208699
 30
0.0
 40
4.0
  0
CIRCLE
  5
3A38
330
A
100
AcDbEntity
  8
SHAPE_OUTLINE_BOLD_LINE_
100
AcDbCircle
 10
272.1843412866415
 20
146.56507432087
 30
0.0
 40
2.75
  0
CIRCLE
  5
3A39
330
A
100
AcDbEntity
  8
SHAPE_OUTLINE_BOLD_LINE_
100
AcDbCircle
 10
287.1843412866415
 20
161.5650743208699
 30
0.0
 40
2.75
  0
CIRCLE
  5
3A3A
330
A
100
AcDbEntity
  8
SHAPE_OUTLINE_BOLD_LINE_
100
AcDbCircle
 10
257.1843412866415
 20
161.5650743208699
 30
0.0
 40
2.75
  0
CIRCLE
  5
3A3C
330
A
100
AcDbEntity
  8
SHAPE_OUTLINE_BOLD_LINE_
100
AcDbCircle
 10
272.1843412866415
 20
161.5650743208699
 30
0.0
 40
23.00000000000001
  0
ARC
  5
3A3D
330
A
100
AcDbEntity
  8
SHAPE_OUTLINE_BOLD_LINE_
100
AcDbCircle
 10
272.1843412866415
 20
176.56507432087
 30
0.0
 40
2.750000000000009
100
AcDbArc
 50
270.0
 51
0.0
  0
ARC
  5
3A3E
330
A
100
AcDbEntity
  8
SHAPE_OUTLINE_BOLD_LINE_
100
AcDbCircle
 10
272.1843412866415
 20
176.56507432087
 30
0.0
 40
2.75
100
AcDbArc
 50
0.0
 51
270.0
  0
ARC
  5
3A42
330
A
100
AcDbEntity
  8
SHAPE_OUTLINE_BOLD_LINE_
100
AcDbCircle
 10
272.1843412866415
 20
161.5650743208699
 30
0.0
 40
24.00000000000005
100
AcDbArc
 50
244.6702658956044
 51
355.3297341043952
  0
ARC
  5
3A43
330
A
100
AcDbEntity
  8
SHAPE_OUTLINE_BOLD_LINE_
100
AcDbCircle
 10
272.1843412866415
 20
161.5650743208699
 30
0.0
 40
24.00000000000002
100
AcDbArc
 50
124.6702658956048
 51
235.3297341043951
  0
ARC
  5
3A44
330
A
100
AcDbEntity
  8
SHAPE_OUTLINE_BOLD_LINE_
100
AcDbCircle
 10
272.1843412866415
 20
161.5650743208699
 30
0.0
 40
24.00000000000001
100
AcDbArc
 50
90.0
 51
115.3297341043955
  0
ARC
  5
3A45
330
A
100
AcDbEntity
  8
SHAPE_OUTLINE_BOLD_LINE_
100
AcDbCircle
 10
272.1843412866415
 20
161.5650743208699
 30
0.0
 40
23.99999999999999
100
AcDbArc
 50
4.670265895604799
 51
90.0
  0
ARC
  5
3A46
330
A
100
AcDbEntity
  8
SHAPE_OUTLINE_BOLD_LINE_
100
AcDbCircle
 10
272.1843412866415
 20
161.5650743208699
 30
0.0
 40
23.79999999999998
100
AcDbArc
 50
236.0823295158995
 51
243.9176704841004
  0
ARC
  5
3A47
330
A
100
AcDbEntity
  8
SHAPE_OUTLINE_BOLD_LINE_
100
AcDbCircle
 10
272.1843412866415
 20
161.5650743208699
 30
0.0
 40
23.8
100
AcDbArc
 50
116.0823295158995
 51
123.9176704841004
  0
ARC
  5
3A48
330
A
100
AcDbEntity
  8
SHAPE_OUTLINE_BOLD_LINE_
100
AcDbCircle
 10
272.1843412866415
 20
161.5650743208699
 30
0.0
 40
24.19999999999999
100
AcDbArc
 50
273.5536692777291
 51
355.2594046463429
  0
ARC
  5
3A49
330
A
100
AcDbEntity
  8
SHAPE_OUTLINE_BOLD_LINE_
100
AcDbCircle
 10
272.1843412866415
 20
161.5650743208699
 30
0.0
 40
23.79999999999996
100
AcDbArc
 50
356.0823295158994
 51
3.91767048410051
  0
ARC
  5
3A4A
330
A
100
AcDbEntity
  8
SHAPE_OUTLINE_BOLD_LINE_
100
AcDbCircle
 10
272.1843412866415
 20
161.5650743208699
 30
0.0
 40
24.20000000000001
100
AcDbArc
 50
355.2594046463429
 51
4.74059535365707
  0
ARC
  5
3A4B
330
A
100
AcDbEntity
  8
SHAPE_OUTLINE_BOLD_LINE_
100
AcDbCircle
 10
272.1843412866415
 20
161.5650743208699
 30
0.0
 40
24.19999999999999
100
AcDbArc
 50
266.4463307222708
 51
273.5536692777291
  0
ARC
  5
3A4C
330
A
100
AcDbEntity
  8
SHAPE_OUTLINE_BOLD_LINE_
100
AcDbCircle
 10
272.1843412866415
 20
161.5650743208699
 30
0.0
 40
25.00000000000001
100
AcDbArc
 50
266.5601872324848
 51
273.4398127675152
  0
ARC
  5
3A4D
330
A
100
AcDbEntity
  8
SHAPE_OUTLINE_BOLD_LINE_
100
AcDbCircle
 10
272.1843412866415
 20
161.5650743208699
 30
0.0
 40
24.20000000000001
100
AcDbArc
 50
4.74059535365707
 51
90.0
  0
ARC
  5
3A4E
330
A
100
AcDbEntity
  8
SHAPE_OUTLINE_BOLD_LINE_
100
AcDbCircle
 10
272.1843412866415
 20
161.5650743208699
 30
0.0
 40
24.19999999999999
100
AcDbArc
 50
90.0
 51
266.4463307222708
  0
ARC
  5
3A4F
330
A
100
AcDbEntity
  8
SHAPE_OUTLINE_BOLD_LINE_
100
AcDbCircle
 10
272.1843412866415
 20
161.5650743208699
 30
0.0
 40
25.00000000000001
100
AcDbArc
 50
273.4398127675152
 51
90.0
  0
ARC
  5
3A50
330
A
100
AcDbEntity
  8
SHAPE_OUTLINE_BOLD_LINE_
100
AcDbCircle
 10
272.1843412866415
 20
161.5650743208699
 30
0.0
 40
25.00000000000001
100
AcDbArc
 50
90.0
 51
266.5601872324848
  0
LINE
  5
3A62
330
A
100
AcDbEntity
  8
CENTER
100
AcDbLine
 10
244.0607736057148
 20
161.5650743208699
 30
0.0
 11
301.6120560129455
 21
161.5650743208699
 31
0.0
  0
LINE
  5
3A68
330
A
100
AcDbEntity
  8
SHAPE_OUTLINE_BOLD_LINE_
100
AcDbLine
 10
296.277908892955
 20
159.5650743208699
 30
0.0
 11
296.3015550560635
 21
159.5650743208699
 31
0.0
  0
LINE
  5
3A69
330
A
100
AcDbEntity
  8
SHAPE_OUTLINE_BOLD_LINE_
100
AcDbLine
 10
296.3015550560635
 20
163.5650743208699
 30
0.0
 11
296.277908892955
 21
163.5650743208699
 31
0.0
  0
LINE
  5
3A6B
330
A
100
AcDbEntity
  8
SHAPE_OUTLINE_BOLD_LINE_
100
AcDbLine
 10
188.3277920056032
 20
136.5650743208699
 30
0.0
 11
189.3277920056032
 21
136.5650743208699
 31
0.0
  0
LINE
  5
3A6D
330
A
100
AcDbEntity
  8
SHAPE_OUTLINE_BOLD_LINE_
100
AcDbLine
 10
273.6843412866416
 20
137.4116066609252
 30
0.0
 11
273.6843412866416
 21
136.6101148939344
 31
0.0
  0
LINE
  5
3A6E
330
A
100
AcDbEntity
  8
SHAPE_OUTLINE_BOLD_LINE_
100
AcDbLine
 10
270.6843412866415
 20
136.6101148939344
 30
0.0
 11
270.6843412866415
 21
137.4116066609252
 31
0.0
  0
LINE
  5
3A71
330
A
100
AcDbEntity
  8
CENTER
100
AcDbLine
 10
272.1843412866415
 20
188.9717724595803
 30
0.0
 11
272.1843412866415
 21
82.81031895402112
 31
0.0
  0
LINE
  5
3A74
330
A
100
AcDbEntity
  8
SHAPE_OUTLINE_BOLD_LINE_
100
AcDbLine
 10
272.1843412866415
 20
186.56507432087
 30
0.0
 11
234.9343412866415
 21
186.56507432087
 31
0.0
  0
LINE
  5
3A75
330
A
100
AcDbEntity
  8
SHAPE_OUTLINE_BOLD_LINE_
100
AcDbLine
 10
309.4343412866416
 20
172.5650743208699
 30
0.0
 11
309.4343412866416
 21
150.56507432087
 31
0.0
  0
LINE
  5
3A77
330
A
100
AcDbEntity
  8
SHAPE_OUTLINE_BOLD_LINE_
100
AcDbLine
 10
309.4343412866416
 20
172.5650743208699
 30
0.0
 11
309.4343412866416
 21
186.56507432087
 31
0.0
  0
LINE
  5
3A78
330
A
100
AcDbEntity
  8
SHAPE_OUTLINE_BOLD_LINE_
100
AcDbLine
 10
309.4343412866416
 20
86.56507432087
 30
0.0
 11
309.4343412866416
 21
150.56507432087
 31
0.0
  0
LINE
  5
3A79
330
A
100
AcDbEntity
  8
SHAPE_OUTLINE_BOLD_LINE_
100
AcDbLine
 10
234.9343412866415
 20
86.56507432087
 30
0.0
 11
309.4343412866416
 21
86.56507432087
 31
0.0
  0
LINE
  5
3A7A
330
A
100
AcDbEntity
  8
SHAPE_OUTLINE_BOLD_LINE_
100
AcDbLine
 10
234.9343412866415
 20
186.56507432087
 30
0.0
 11
234.9343412866415
 21
86.56507432087
 31
0.0
  0
LINE
  5
3A7B
330
A
100
AcDbEntity
  8
SHAPE_OUTLINE_BOLD_LINE_
100
AcDbLine
 10
309.4343412866416
 20
186.56507432087
 30
0.0
 11
272.1843412866415
 21
186.56507432087
 31
0.0
  0
LINE
  5
3A84
330
A
100
AcDbEntity
  8
SHAPE_OUTLINE_BOLD_LINE_
100
AcDbLine
 10
168.599059805463
 20
150.56507432087
 30
0.0
 11
185.3277920056031
 21
150.56507432087
 31
0.0
  0
LINE
  5
3A85
330
A
100
AcDbEntity
  8
SHAPE_OUTLINE_BOLD_LINE_
100
AcDbLine
 10
165.3118072260903
 20
172.5650743208699
 30
0.0
 11
185.3277920056032
 21
172.5650743208699
 31
0.0
  0
LINE
  5
3A88
330
A
100
AcDbEntity
  8
SHAPE_OUTLINE_BOLD_LINE_
100
AcDbLine
 10
185.3277920056031
 20
161.5650743208699
 30
0.0
 11
185.3277920056032
 21
137.36507432087
 31
0.0
  0
LINE
  5
3A8C
330
A
100
AcDbEntity
  8
SHAPE_OUTLINE_BOLD_LINE_
100
AcDbLine
 10
189.3277920056032
 20
137.36507432087
 30
0.0
 11
189.3277920056032
 21
138.5650743208699
 31
0.0
  0
LINE
  5
3A8F
330
A
100
AcDbEntity
  8
SHAPE_OUTLINE_BOLD_LINE_
100
AcDbLine
 10
189.3277920056032
 20
185.76507432087
 30
0.0
 11
189.3277920056032
 21
186.56507432087
 31
0.0
  0
LINE
  5
3AA4
330
A
100
AcDbEntity
  8
CENTER
100
AcDbLine
 10
181.1277920056031
 20
148.6992103428609
 30
0.0
 11
181.1277920056031
 21
156.5474768961595
 31
0.0
  0
LINE
  5
3AC4
330
A
100
AcDbEntity
  8
SHAPE_OUTLINE_BOLD_LINE_
100
AcDbLine
 10
189.3277920056032
 20
138.5650743208699
 30
0.0
 11
189.3277920056032
 21
184.56507432087
 31
0.0
  0
LINE
  5
3ACB
330
A
100
AcDbEntity
  8
SHAPE_OUTLINE_BOLD_LINE_
100
AcDbLine
 10
189.3277920056032
 20
184.56507432087
 30
0.0
 11
189.3277920056032
 21
185.76507432087
 31
0.0
  0
LINE
  5
3AD5
330
A
100
AcDbEntity
  8
CENTER
100
AcDbLine
 10
153.2799796719311
 20
161.5650743208699
 30
0.0
 11
192.899122508337
 21
161.5650743208699
 31
0.0
  0
LINE
  5
3AEE
330
A
100
AcDbEntity
  8
CENTER
100
AcDbLine
 10
121.0777920056033
 20
191.8276989156348
 30
0.0
 11
121.0777920056033
 21
82.81031895402112
 31
0.0
  0
LINE
  5
3AEF
330
A
100
AcDbEntity
  8
SHAPE_OUTLINE_BOLD_LINE_
100
AcDbLine
 10
158.3277920056033
 20
150.56507432087
 30
0.0
 11
168.599059805463
 21
150.56507432087
 31
0.0
  0
LINE
  5
3AF0
330
A
100
AcDbEntity
  8
SHAPE_OUTLINE_BOLD_LINE_
100
AcDbLine
 10
158.3277920056033
 20
172.5650743208699
 30
0.0
 11
158.3277920056033
 21
186.56507432087
 31
0.0
  0
LINE
  5
3AF2
330
A
100
AcDbEntity
  8
SHAPE_OUTLINE_BOLD_LINE_
100
AcDbLine
 10
158.3277920056033
 20
172.5650743208699
 30
0.0
 11
165.3118072260903
 21
172.5650743208699
 31
0.0
  0
LINE
  5
3AF3
330
A
100
AcDbEntity
  8
SHAPE_OUTLINE_BOLD_LINE_
100
AcDbLine
 10
158.3277920056033
 20
86.56507432087
 30
0.0
 11
158.3277920056033
 21
150.56507432087
 31
0.0
  0
LINE
  5
3AF4
330
A
100
AcDbEntity
  8
SHAPE_OUTLINE_BOLD_LINE_
100
AcDbLine
 10
83.82779200560321
 20
86.56507432087
 30
0.0
 11
158.3277920056033
 21
86.56507432087
 31
0.0
  0
LINE
  5
3AF5
330
A
100
AcDbEntity
  8
SHAPE_OUTLINE_BOLD_LINE_
100
AcDbLine
 10
83.82779200560321
 20
186.56507432087
 30
0.0
 11
83.82779200560321
 21
86.56507432087
 31
0.0
  0
LINE
  5
3AF6
330
A
100
AcDbEntity
  8
SHAPE_OUTLINE_BOLD_LINE_
100
AcDbLine
 10
158.3277920056033
 20
186.56507432087
 30
0.0
 11
83.82779200560321
 21
186.56507432087
 31
0.0
  0
LINE
  5
3AF7
330
A
100
AcDbEntity
  8
SHAPE_OUTLINE_BOLD_LINE_
100
AcDbLine
 10
185.3277920056032
 20
185.76507432087
 30
0.0
 11
185.3277920056032
 21
161.5650743208699
 31
0.0
  0
LINE
  5
3AF8
330
A
100
AcDbEntity
  8
SHAPE_OUTLINE_BOLD_LINE_
100
AcDbLine
 10
189.3277920056032
 20
186.56507432087
 30
0.0
 11
186.1277920056031
 21
186.56507432087
 31
0.0
  0
LINE
  5
3AF9
330
A
100
AcDbEntity
  8
SHAPE_OUTLINE_BOLD_LINE_
100
AcDbLine
 10
189.3277920056032
 20
136.5650743208699
 30
0.0
 11
189.3277920056032
 21
137.36507432087
 31
0.0
  0
LINE
  5
3AFA
330
A
100
AcDbEntity
  8
SHAPE_OUTLINE_BOLD_LINE_
100
AcDbLine
 10
186.1277920056031
 20
136.5650743208699
 30
0.0
 11
188.3277920056032
 21
136.5650743208699
 31
0.0
  0
CIRCLE
  5
3BC5
330
A
100
AcDbEntity
  8
CENTER
100
AcDbCircle
 10
272.1843412866415
 20
161.5650743208699
 30
0.0
 40
15.0
  0
DIMENSION
  5
3BC6
330
A
100
AcDbEntity
  8
DIMENSIONS
100
AcDbDimension
  2
*D2
 10
158.3277920056033
 20
203.9835379844411
 30
0.0
 11
121.0777920056032
 21
206.7271928067761
 31
0.0
 70
    32
  1
φ<>
  3
STANDARD
100
AcDbAlignedDimension
 13
83.82779200560321
 23
186.56507432087
 33
0.0
 14
158.3277920056033
 24
186.56507432087
 34
0.0
100
AcDbRotatedDimension
  0
DIMENSION
  5
3BDC
330
A
100
AcDbEntity
  8
DIMENSIONS
100
AcDbDimension
  2
*D3
 10
156.3277920056033
 20
195.0730936593702
 30
0.0
 11
121.0777920056032
 21
197.8167484817052
 31
0.0
 70
    32
  1
φ<>
  3
STANDARD
100
AcDbAlignedDimension
 13
85.82779200560315
 23
186.56507432087
 33
0.0
 14
156.3277920056033
 24
186.56507432087
 34
0.0
100
AcDbRotatedDimension
  0
DIMENSION
  5
3BE9
330
A
100
AcDbEntity
  8
DIMENSIONS
100
AcDbDimension
  2
*D4
 10
189.3277920056032
 20
213.7632939509825
 30
0.0
 11
136.5777920056032
 21
216.2632939509824
 31
0.0
 70
    32
  3
STANDARD
100
AcDbAlignedDimension
 13
83.82779200560321
 23
186.56507432087
 33
0.0
 14
189.3277920056032
 24
186.56507432087
 34
0.0
100
AcDbRotatedDimension
  0
DIMENSION
  5
3BF6
330
A
100
AcDbEntity
  8
DIMENSIONS
100
AcDbDimension
  2
*D5
 10
189.3277920056032
 20
195.0730936593702
 30
0.0
 11
187.3277920056032
 21
197.5730936593702
 31
0.0
 70
    32
  3
STANDARD
100
AcDbAlignedDimension
 13
185.3277920056032
 23
185.76507432087
 33
0.0
 14
189.3277920056032
 24
186.56507432087
 34
0.0
100
AcDbRotatedDimension
  0
DIMENSION
  5
3C04
330
A
100
AcDbEntity
  8
DIMENSIONS
100
AcDbDimension
  2
*D6
 10
200.4966158626525
 20
136.5650743208699
 30
0.0
 11
197.7529610403174
 21
161.56507432087
 31
0.0
 70
    32
  1
φ<>
  3
STANDARD
100
AcDbAlignedDimension
 13
189.3277920056032
 23
186.56507432087
 33
0.0
 14
189.3277920056032
 24
136.5650743208699
 34
0.0
 50
90.0
100
AcDbRotatedDimension
  0
DIMENSION
  5
3C11
330
A
100
AcDbEntity
  8
DIMENSIONS
100
AcDbDimension
  2
*D7
 10
167.3073830598747
 20
150.56507432087
 30
0.0
 11
164.5637282375396
 21
161.56507432087
 31
0.0
 70
    32
  1
φ<>
  3
STANDARD
100
AcDbAlignedDimension
 13
170.5053642319257
 23
172.5650743208699
 33
0.0
 14
171.0522120186943
 24
150.56507432087
 34
0.0
 50
90.0
100
AcDbRotatedDimension
  0
DIMENSION
  5
3C1E
330
A
100
AcDbEntity
  8
DIMENSIONS
100
AcDbDimension
  2
*D8
 10
74.44642784945319
 20
123.56507432087
 30
0.0
 11
71.94642784945317
 21
155.06507432087
 31
0.0
 70
    32
  3
STANDARD
100
AcDbAlignedDimension
 13
83.82779200560321
 23
186.56507432087
 33
0.0
 14
121.0777920056033
 24
123.56507432087
 34
0.0
 50
90.0
100
AcDbRotatedDimension
  0
DIMENSION
  5
3C2B
330
A
100
AcDbEntity
  8
DIMENSIONS
100
AcDbDimension
  2
*D9
 10
65.97063934511749
 20
86.56507432087
 30
0.0
 11
63.47063934511748
 21
136.56507432087
 31
0.0
 70
    32
  3
STANDARD
100
AcDbAlignedDimension
 13
83.82779200560321
 23
186.56507432087
 33
0.0
 14
83.82779200560321
 24
86.56507432087
 34
0.0
 50
90.0
100
AcDbRotatedDimension
  0
LWPOLYLINE
  5
3CF5
330
A
100
AcDbEntity
  8
SHAPE_OUTLINE_THIN_LINE_
  6
DASHED
100
AcDbPolyline
 90
        9
 70
   128
 43
0.0
 10
85.82779200560322
 20
186.56507432087
 42
0.0711376533703252
 10
89.85089464346096
 20
157.3360101152753
 42
0.0624907532446178
 10
97.06843402022014
 20
140.4365155949097
 42
0.1120374550359286
 10
109.6618203079607
 20
126.9617327885682
 42
0.1546442573803847
 10
121.0777920056033
 20
123.5650743208699
 42
0.1546442573803847
 10
132.4937637032458
 20
126.9617327885682
 42
0.1120374550359286
 10
145.0871499909865
 20
140.4365155949097
 42
0.0624907532446178
 10
152.3046893677457
 20
157.3360101152753
 42
0.0711376533703252
 10
156.3277920056034
 20
186.56507432087
  0
ELLIPSE
  5
3CF8
330
A
100
AcDbEntity
  8
SHAPE_OUTLINE_BOLD_LINE_
100
AcDbEllipse
 10
158.3277920056033
 20
161.5650743208699
 30
0.0
 11
0.0
 21
-11.0
 31
0.0
210
0.0
220
0.0
230
1.0
 40
0.1480278199265391
 41
3.141592653589793
 42
6.283185307179586
  0
ENDSEC
  0
SECTION
  2
OBJECTS
  0
DICTIONARY
  5
19
330
0
100
AcDbDictionary
  3
ACAD_GROUP
350
1A
  3
ACAD_LAYOUT
350
157A
  3
ACAD_MLINESTYLE
350
1B
  3
ACAD_PLOTSETTINGS
350
157B
  3
ACAD_PLOTSTYLENAME
350
1578
  3
ACDBHEADERROUNDTRIPXREC
350
3D3E
  3
ACDBVARIABLEDICTIONARY
350
3478
  3
ADE_QUERY_LIBRARY
350
3622
  3
ASE_INDEX_DICTIONARY
350
3CD7
1001
ADE
1000
ADE02C004
1000
[Query]
1000
CaseSensitiveMatch=0
1000
SaveCurrQueryInSession=1
1000
MkSelSetWithQryObj=0
1000
ShowBlockAsInsPt=0
1000
CreateAssociativeHatchObjects=0
1000
ReferenceBoundaryForAreaLocation=1
1000
ShowImageAsBoundary=1
1000
DefaultJoinOperator=2
1000
ColorForAdd=red
1000
ColorForRemove=red
1000
BlockLocnForQuery=1
1000
TextLocnForQuery=1
1000
[Save Back]
1000
RedefineBlockDefinitions=1
1000
RedefineLayerDefinitions=1
1000
RedefineTextStyleDefinitions=1
1000
RemoveUnusedGroups=1
1000
EraseSavedBackObjects=1
1000
RemoveLockAfterSave=1
1000
CreateHistoryFileOfChanges=0
1000
CreateBackupFileOfSourceDwg=1
1000
DontAddObjectsToSaveSet=0
1000
MarkObjectsForEditingWithoutPrompting=0
1000
[Coordinate Transformation]
1000
RestoreLastActiveDwgsOnStartup=1
1000
ActivateDwgsOnAttach=1
1000
AdjustSizesAndScalesForChangesInUnits=1
1000
AdjustRotationsForMapDistortions=1
1000
AdjustSizesAndScalesForMapDistortions=1
1000
AdjustElevations=1
1000
AdjustZeroRotationObjects=1
1000
ReconnectDbOnWSOpen=1
1000
NoOfSQLConditionsInHistory=10
  0
DICTIONARY
  5
36A5
330
A
100
AcDbDictionary
280
     1
  3
ACAD_LAYOUTSELFREF
360
3D5F
  3
ACAD_SORTENTS
360
36A6
  0
DICTIONARY
  5
3D60
330
B
100
AcDbDictionary
280
     1
  3
ACAD_LAYOUTSELFREF
360
3D61
  0
DICTIONARY
  5
1A
102
{ACAD_REACTORS
330
19
102
}
330
19
100
AcDbDictionary
  0
DICTIONARY
  5
157A
102
{ACAD_REACTORS
330
19
102
}
330
19
100
AcDbDictionary
  0
DICTIONARY
  5
1B
102
{ACAD_REACTORS
330
19
102
}
330
19
100
AcDbDictionary
  3
STANDARD
350
1C
  0
DICTIONARY
  5
157B
102
{ACAD_REACTORS
330
19
102
}
330
19
100
AcDbDictionary
  0
ACDBDICTIONARYWDFLT
  5
1578
102
{ACAD_REACTORS
330
19
102
}
330
19
100
AcDbDictionary
281
     1
  3
Normal
350
1579
100
AcDbDictionaryWithDefault
340
1579
  0
DICTIONARY
  5
3D3E
102
{ACAD_REACTORS
330
19
102
}
330
19
100
AcDbDictionary
  3
CEPSNTYPE
350
3D48
  3
DIMSTYLEDATA
350
3D4C
  3
FINGERPRINTGUID
350
3D49
  3
HYPERLINKBASE
350
3D41
  3
INSUNITS
350
3D47
  3
LAYOUTDICT
350
3D43
  3
LWETCUNION
350
3D46
  3
PLOTSETDICT
350
3D44
  3
PLOTSTYLNAMDICT
350
3D45
  3
PSVPSCALE
350
3D4B
  3
PUCSBASE
350
3D4F
  3
PUCSORGBACK
350
3D55
  3
PUCSORGBOTTOM
350
3D51
  3
PUCSORGFRONT
350
3D54
  3
PUCSORGLEFT
350
3D52
  3
PUCSORGRIGHT
350
3D53
  3
PUCSORGTOP
350
3D50
  3
PUCSORTHOREF
350
3D4D
  3
PUCSORTHOVIEW
350
3D4E
  3
STYLESHEET
350
3D42
  3
TSTACKALIGN
350
3D3F
  3
TSTACKSIZE
350
3D40
  3
UCSBASE
350
3D58
  3
UCSORGBACK
350
3D5E
  3
UCSORGBOTTOM
350
3D5A
  3
UCSORGFRONT
350
3D5D
  3
UCSORGLEFT
350
3D5B
  3
UCSORGRIGHT
350
3D5C
  3
UCSORGTOP
350
3D59
  3
UCSORTHOREF
350
3D56
  3
UCSORTHOVIEW
350
3D57
  3
VERSIONGUID
350
3D4A
  0
DICTIONARY
  5
3478
102
{ACAD_REACTORS
330
19
102
}
330
19
100
AcDbDictionary
  3
DIMASSOC
350
3479
  3
SORTENTS
350
36A9
  0
DICTIONARY
  5
3622
102
{ACAD_REACTORS
330
19
102
}
330
19
100
AcDbDictionary
  3
_CURRQRY
350
3CD9
  0
DICTIONARY
  5
3CD7
102
{ACAD_REACTORS
330
19
102
}
330
19
100
AcDbDictionary
  3
ASEBLOCKHIERARCHYINDEXRECORD
350
3CD8
1001
DCO15
1040
1577450781.859
  0
XRECORD
  5
3D5F
102
{ACAD_REACTORS
330
36A5
102
}
330
36A5
100
AcDbXrecord
340
A
  0
SORTENTSTABLE
  5
36A6
102
{ACAD_REACTORS
330
36A5
102
}
330
36A5
100
AcDbSortentsTable
330
A
331
35F8
  5
35FD
331
3607
  5
3634
  0
XRECORD
  5
3D61
102
{ACAD_REACTORS
330
3D60
102
}
330
3D60
100
AcDbXrecord
340
B
  0
MLINESTYLE
  5
1C
102
{ACAD_REACTORS
330
1B
102
}
330
1B
100
AcDbMlineStyle
  2
STANDARD
 70
     0
  3

 62
     0
 51
90.0
 52
90.0
 71
     2
 49
0.5
 62
   256
  6
BYLAYER
 49
-0.5
 62
   256
  6
BYLAYER
  0
ACDBPLACEHOLDER
  5
1579
102
{ACAD_REACTORS
330
1578
102
}
330
1578
100
AcDbPlaceHolder
280
     0
  0
XRECORD
  5
3D48
102
{ACAD_REACTORS
330
3D3E
102
}
330
3D3E
100
AcDbXrecord
 90
        0
  0
XRECORD
  5
3D4C
102
{ACAD_REACTORS
330
3D3E
102
}
330
3D3E
100
AcDbXrecord
1000
DSTYLE
1002
{
1070
   279
 70
     2
1070
   341
340
143A
1070
   342
340
143A
1070
   371
 70
    -1
1070
   372
 70
    -1
1002
}
  0
XRECORD
  5
3D49
102
{ACAD_REACTORS
330
3D3E
102
}
330
3D3E
100
AcDbXrecord
  1
{5653D33C-3AEF-40FE-8495-DE925CF19E35}
  0
XRECORD
  5
3D41
102
{ACAD_REACTORS
330
3D3E
102
}
330
3D3E
100
AcDbXrecord
  1

  0
XRECORD
  5
3D47
102
{ACAD_REACTORS
330
3D3E
102
}
330
3D3E
100
AcDbXrecord
 90
        0
  0
XRECORD
  5
3D43
102
{ACAD_REACTORS
330
3D3E
102
}
330
3D3E
100
AcDbXrecord
340
157A
  0
XRECORD
  5
3D46
102
{ACAD_REACTORS
330
3D3E
102
}
330
3D3E
100
AcDbXrecord
 90
    10781
  0
XRECORD
  5
3D44
102
{ACAD_REACTORS
330
3D3E
102
}
330
3D3E
100
AcDbXrecord
340
157B
  0
XRECORD
  5
3D45
102
{ACAD_REACTORS
330
3D3E
102
}
330
3D3E
100
AcDbXrecord
340
1578
  0
XRECORD
  5
3D4B
102
{ACAD_REACTORS
330
3D3E
102
}
330
3D3E
100
AcDbXrecord
 40
0.0
  0
XRECORD
  5
3D4F
102
{ACAD_REACTORS
330
3D3E
102
}
330
3D3E
100
AcDbXrecord
340
0
  0
XRECORD
  5
3D55
102
{ACAD_REACTORS
330
3D3E
102
}
330
3D3E
100
AcDbXrecord
 10
0.0
 20
0.0
 30
0.0
  0
XRECORD
  5
3D51
102
{ACAD_REACTORS
330
3D3E
102
}
330
3D3E
100
AcDbXrecord
 10
0.0
 20
0.0
 30
0.0
  0
XRECORD
  5
3D54
102
{ACAD_REACTORS
330
3D3E
102
}
330
3D3E
100
AcDbXrecord
 10
0.0
 20
0.0
 30
0.0
  0
XRECORD
  5
3D52
102
{ACAD_REACTORS
330
3D3E
102
}
330
3D3E
100
AcDbXrecord
 10
0.0
 20
0.0
 30
0.0
  0
XRECORD
  5
3D53
102
{ACAD_REACTORS
330
3D3E
102
}
330
3D3E
100
AcDbXrecord
 10
0.0
 20
0.0
 30
0.0
  0
XRECORD
  5
3D50
102
{ACAD_REACTORS
330
3D3E
102
}
330
3D3E
100
AcDbXrecord
 10
0.0
 20
0.0
 30
0.0
  0
XRECORD
  5
3D4D
102
{ACAD_REACTORS
330
3D3E
102
}
330
3D3E
100
AcDbXrecord
340
0
  0
XRECORD
  5
3D4E
102
{ACAD_REACTORS
330
3D3E
102
}
330
3D3E
100
AcDbXrecord
 70
     0
  0
XRECORD
  5
3D42
102
{ACAD_REACTORS
330
3D3E
102
}
330
3D3E
100
AcDbXrecord
  1
スガツネWeb_mono.ctb
  0
XRECORD
  5
3D3F
102
{ACAD_REACTORS
330
3D3E
102
}
330
3D3E
100
AcDbXrecord
 90
        1
  0
XRECORD
  5
3D40
102
{ACAD_REACTORS
330
3D3E
102
}
330
3D3E
100
AcDbXrecord
 90
       70
  0
XRECORD
  5
3D58
102
{ACAD_REACTORS
330
3D3E
102
}
330
3D3E
100
AcDbXrecord
340
0
  0
XRECORD
  5
3D5E
102
{ACAD_REACTORS
330
3D3E
102
}
330
3D3E
100
AcDbXrecord
 10
0.0
 20
0.0
 30
0.0
  0
XRECORD
  5
3D5A
102
{ACAD_REACTORS
330
3D3E
102
}
330
3D3E
100
AcDbXrecord
 10
0.0
 20
0.0
 30
0.0
  0
XRECORD
  5
3D5D
102
{ACAD_REACTORS
330
3D3E
102
}
330
3D3E
100
AcDbXrecord
 10
0.0
 20
0.0
 30
0.0
  0
XRECORD
  5
3D5B
102
{ACAD_REACTORS
330
3D3E
102
}
330
3D3E
100
AcDbXrecord
 10
0.0
 20
0.0
 30
0.0
  0
XRECORD
  5
3D5C
102
{ACAD_REACTORS
330
3D3E
102
}
330
3D3E
100
AcDbXrecord
 10
0.0
 20
0.0
 30
0.0
  0
XRECORD
  5
3D59
102
{ACAD_REACTORS
330
3D3E
102
}
330
3D3E
100
AcDbXrecord
 10
0.0
 20
0.0
 30
0.0
  0
XRECORD
  5
3D56
102
{ACAD_REACTORS
330
3D3E
102
}
330
3D3E
100
AcDbXrecord
340
0
  0
XRECORD
  5
3D57
102
{ACAD_REACTORS
330
3D3E
102
}
330
3D3E
100
AcDbXrecord
 70
     0
  0
XRECORD
  5
3D4A
102
{ACAD_REACTORS
330
3D3E
102
}
330
3D3E
100
AcDbXrecord
  1
{CD4F5065-5A14-4953-8FC1-0A0DF4862867}
  0
DICTIONARYVAR
  5
3479
102
{ACAD_REACTORS
330
3478
102
}
330
3478
100
DictionaryVariables
280
     0
  1
1
  0
DICTIONARYVAR
  5
36A9
102
{ACAD_REACTORS
330
3478
102
}
330
3478
100
DictionaryVariables
280
     0
  1
127
  0
XRECORD
  5
3CD9
102
{ACAD_REACTORS
330
3622
102
}
330
3622
100
AcDbXrecord
1000
ADE02C001
1070
     1
1070
     0
1002
{
1002
}
1002
{
1002
}
1002
{
1002
}
1000

  0
XRECORD
  5
3CD8
102
{ACAD_REACTORS
330
3CD7
102
}
330
3CD7
100
AcDbXrecord
330
3C85
330
0
330
3CC9
330
3CCA
330
3CC0
330
3CC1
330
3CB7
330
3CB8
330
3CAE
330
3CAF
330
3CA4
330
3CA5
330
3C9B
330
3C9C
330
3C92
330
3C93
330
3C89
330
3C8A
  0
ENDSEC
  0
EOF
