  0
SECTION
  2
HEADER
  9
$ACADVER
  1
AC1015
  9
$ACADMAINTVER
 70
     6
  9
$DWGCODEPAGE
  3
ANSI_932
  9
$INSBASE
 10
0.0
 20
0.0
 30
0.0
  9
$EXTMIN
 10
-990.1387385639802
 20
-1378.5
 30
0.0
  9
$EXTMAX
 10
990.0693692819906
 20
1384.5
 30
0.0
  9
$LIMMIN
 10
-315.0
 20
-445.5
  9
$LIMMAX
 10
315.0
 20
445.5
  9
$ORTHOMODE
 70
     0
  9
$REGENMODE
 70
     1
  9
$FILLMODE
 70
     1
  9
$QTEXTMODE
 70
     0
  9
$MIRRTEXT
 70
     1
  9
$LTSCALE
 40
0.75
  9
$ATTMODE
 70
     1
  9
$TEXTSIZE
 40
0.2
  9
$TRACEWID
 40
0.05
  9
$TEXTSTYLE
  7
Standard
  9
$CLAYER
  8
0
  9
$CELTYPE
  6
ByLayer
  9
$CECOLOR
 62
   256
  9
$CELTSCALE
 40
1.0
  9
$DISPSILH
 70
     0
  9
$DIMSCALE
 40
1.0
  9
$DIMASZ
 40
9.000005722045898
  9
$DIMEXO
 40
1.0
  9
$DIMDLI
 40
10.0
  9
$DIMRND
 40
0.0
  9
$DIMDLE
 40
0.0
  9
$DIMEXE
 40
1.0
  9
$DIMTP
 40
0.0
  9
$DIMTM
 40
0.0
  9
$DIMTXT
 40
12.0
  9
$DIMCEN
 40
0.0
  9
$DIMTSZ
 40
0.0
  9
$DIMTOL
 70
     0
  9
$DIMLIM
 70
     0
  9
$DIMTIH
 70
     0
  9
$DIMTOH
 70
     0
  9
$DIMSE1
 70
     0
  9
$DIMSE2
 70
     0
  9
$DIMTAD
 70
     1
  9
$DIMZIN
 70
     8
  9
$DIMBLK
  1

  9
$DIMASO
 70
     1
  9
$DIMSHO
 70
     1
  9
$DIMPOST
  1

  9
$DIMAPOST
  1

  9
$DIMALT
 70
     0
  9
$DIMALTD
 70
     2
  9
$DIMALTF
 40
25.4
  9
$DIMLFAC
 40
1.0
  9
$DIMTOFL
 70
     0
  9
$DIMTVP
 40
0.0
  9
$DIMTIX
 70
     0
  9
$DIMSOXD
 70
     0
  9
$DIMSAH
 70
     0
  9
$DIMBLK1
  1

  9
$DIMBLK2
  1

  9
$DIMSTYLE
  2
Standard
  9
$DIMCLRD
 70
     0
  9
$DIMCLRE
 70
     0
  9
$DIMCLRT
 70
     0
  9
$DIMTFAC
 40
0.65
  9
$DIMGAP
 40
0.09
  9
$DIMJUST
 70
     0
  9
$DIMSD1
 70
     0
  9
$DIMSD2
 70
     0
  9
$DIMTOLJ
 70
     0
  9
$DIMTZIN
 70
     0
  9
$DIMALTZ
 70
     0
  9
$DIMALTTZ
 70
     0
  9
$DIMUPT
 70
     0
  9
$DIMDEC
 70
     2
  9
$DIMTDEC
 70
     2
  9
$DIMALTU
 70
     2
  9
$DIMALTTD
 70
     2
  9
$DIMTXSTY
  7
Standard
  9
$DIMAUNIT
 70
     0
  9
$DIMADEC
 70
     2
  9
$DIMALTRND
 40
0.0
  9
$DIMAZIN
 70
     2
  9
$DIMDSEP
 70
    46
  9
$DIMATFIT
 70
     3
  9
$DIMFRAC
 70
     0
  9
$DIMLDRBLK
  1

  9
$DIMLUNIT
 70
     2
  9
$DIMLWD
 70
    -2
  9
$DIMLWE
 70
    -2
  9
$DIMTMOVE
 70
     0
  9
$LUNITS
 70
     2
  9
$LUPREC
 70
     4
  9
$SKETCHINC
 40
0.1
  9
$FILLETRAD
 40
0.5
  9
$AUNITS
 70
     0
  9
$AUPREC
 70
     0
  9
$MENU
  1
.
  9
$ELEVATION
 40
0.0
  9
$PELEVATION
 40
0.0
  9
$THICKNESS
 40
0.0
  9
$LIMCHECK
 70
     0
  9
$CHAMFERA
 40
0.5
  9
$CHAMFERB
 40
0.5
  9
$CHAMFERC
 40
1.0
  9
$CHAMFERD
 40
0.0
  9
$SKPOLY
 70
     0
  9
$TDCREATE
 40
2456318.712567998
  9
$TDUCREATE
 40
2456318.337567998
  9
$TDUPDATE
 40
2456318.71256853
  9
$TDUUPDATE
 40
2456318.33756853
  9
$TDINDWG
 40
0.0000000116
  9
$TDUSRTIMER
 40
0.0000000116
  9
$USRTIMER
 70
     1
  9
$ANGBASE
 50
0.0
  9
$ANGDIR
 70
     0
  9
$PDMODE
 70
     0
  9
$PDSIZE
 40
1.0
  9
$PLINEWID
 40
0.0
  9
$SPLFRAME
 70
     0
  9
$SPLINETYPE
 70
     6
  9
$SPLINESEGS
 70
     8
  9
$HANDSEED
  5
5BD
  9
$SURFTAB1
 70
     6
  9
$SURFTAB2
 70
     6
  9
$SURFTYPE
 70
     6
  9
$SURFU
 70
     6
  9
$SURFV
 70
     6
  9
$UCSBASE
  2

  9
$UCSNAME
  2

  9
$UCSORG
 10
0.0
 20
0.0
 30
0.0
  9
$UCSXDIR
 10
1.0
 20
0.0
 30
0.0
  9
$UCSYDIR
 10
0.0
 20
1.0
 30
0.0
  9
$UCSORTHOREF
  2

  9
$UCSORTHOVIEW
 70
     0
  9
$UCSORGTOP
 10
0.0
 20
0.0
 30
0.0
  9
$UCSORGBOTTOM
 10
0.0
 20
0.0
 30
0.0
  9
$UCSORGLEFT
 10
0.0
 20
0.0
 30
0.0
  9
$UCSORGRIGHT
 10
0.0
 20
0.0
 30
0.0
  9
$UCSORGFRONT
 10
0.0
 20
0.0
 30
0.0
  9
$UCSORGBACK
 10
0.0
 20
0.0
 30
0.0
  9
$PUCSBASE
  2

  9
$PUCSNAME
  2

  9
$PUCSORG
 10
0.0
 20
0.0
 30
0.0
  9
$PUCSXDIR
 10
1.0
 20
0.0
 30
0.0
  9
$PUCSYDIR
 10
0.0
 20
1.0
 30
0.0
  9
$PUCSORTHOREF
  2

  9
$PUCSORTHOVIEW
 70
     0
  9
$PUCSORGTOP
 10
0.0
 20
0.0
 30
0.0
  9
$PUCSORGBOTTOM
 10
0.0
 20
0.0
 30
0.0
  9
$PUCSORGLEFT
 10
0.0
 20
0.0
 30
0.0
  9
$PUCSORGRIGHT
 10
0.0
 20
0.0
 30
0.0
  9
$PUCSORGFRONT
 10
0.0
 20
0.0
 30
0.0
  9
$PUCSORGBACK
 10
0.0
 20
0.0
 30
0.0
  9
$USERI1
 70
     0
  9
$USERI2
 70
     0
  9
$USERI3
 70
     0
  9
$USERI4
 70
     0
  9
$USERI5
 70
     0
  9
$USERR1
 40
0.0
  9
$USERR2
 40
0.0
  9
$USERR3
 40
0.0
  9
$USERR4
 40
0.0
  9
$USERR5
 40
0.0
  9
$WORLDVIEW
 70
     1
  9
$SHADEDGE
 70
     3
  9
$SHADEDIF
 70
    70
  9
$TILEMODE
 70
     1
  9
$MAXACTVP
 70
    64
  9
$PINSBASE
 10
0.0
 20
0.0
 30
0.0
  9
$PLIMCHECK
 70
     0
  9
$PEXTMIN
 10
1.000000000000000E+20
 20
1.000000000000000E+20
 30
1.000000000000000E+20
  9
$PEXTMAX
 10
-1.000000000000000E+20
 20
-1.000000000000000E+20
 30
-1.000000000000000E+20
  9
$PLIMMIN
 10
0.0
 20
0.0
  9
$PLIMMAX
 10
12.0
 20
9.0
  9
$UNITMODE
 70
     0
  9
$VISRETAIN
 70
     0
  9
$PLINEGEN
 70
     1
  9
$PSLTSCALE
 70
     0
  9
$TREEDEPTH
 70
  3020
  9
$CMLSTYLE
  2
Standard
  9
$CMLJUST
 70
     0
  9
$CMLSCALE
 40
1.0
  9
$PROXYGRAPHICS
 70
     0
  9
$MEASUREMENT
 70
     1
  9
$CELWEIGHT
370
    -1
  9
$ENDCAPS
280
     0
  9
$JOINSTYLE
280
     0
  9
$LWDISPLAY
290
     1
  9
$INSUNITS
 70
     4
  9
$HYPERLINKBASE
  1

  9
$STYLESHEET
  1

  9
$XEDIT
290
     1
  9
$CEPSNTYPE
380
     0
  9
$PSTYLEMODE
290
     1
  9
$FINGERPRINTGUID
  2
{C4817FD2-3077-46C6-8677-DD72A85F3945}
  9
$VERSIONGUID
  2
{FAEB1C32-E019-11D5-929B-00C0DF256EC4}
  9
$EXTNAMES
290
     1
  9
$PSVPSCALE
 40
0.0
  9
$OLESTARTUP
290
     0
  0
ENDSEC
  0
SECTION
  2
CLASSES
  0
CLASS
  1
ACDBDICTIONARYWDFLT
  2
AcDbDictionaryWithDefault
  3
ObjectDBX Classes
 90
        0
280
     0
281
     0
  0
CLASS
  1
VISUALSTYLE
  2
AcDbVisualStyle
  3
ObjectDBX Classes
 90
     4095
280
     0
281
     0
  0
CLASS
  1
MATERIAL
  2
AcDbMaterial
  3
ObjectDBX Classes
 90
     1153
280
     0
281
     0
  0
CLASS
  1
SCALE
  2
AcDbScale
  3
ObjectDBX Classes
 90
     1153
280
     0
281
     0
  0
CLASS
  1
DICTIONARYVAR
  2
AcDbDictionaryVar
  3
ObjectDBX Classes
 90
        0
280
     0
281
     0
  0
CLASS
  1
ACDBPLACEHOLDER
  2
AcDbPlaceHolder
  3
ObjectDBX Classes
 90
        0
280
     0
281
     0
  0
CLASS
  1
LAYOUT
  2
AcDbLayout
  3
ObjectDBX Classes
 90
        0
280
     0
281
     0
  0
ENDSEC
  0
SECTION
  2
TABLES
  0
TABLE
  2
VPORT
  5
8
330
0
100
AcDbSymbolTable
 70
     1
  0
VPORT
  5
29
330
8
100
AcDbSymbolTableRecord
100
AcDbViewportTableRecord
  2
*Active
 70
     0
 10
0.0
 20
0.0
 11
1.0
 21
1.0
 12
-0.0346846409947865
 22
3.000000000000114
 13
0.0
 23
0.0
 14
0.5
 24
0.5
 15
0.5
 25
0.5
 16
0.0
 26
0.0
 36
1.0
 17
0.0
 27
0.0
 37
0.0
 40
939.4200000000003
 41
0.716687697374582
 42
50.0
 43
0.0
 44
0.0
 50
0.0
 51
0.0
 71
     0
 72
  1000
 73
     1
 74
     1
 75
     0
 76
     0
 77
     0
 78
     0
281
     0
 65
     1
110
0.0
120
0.0
130
0.0
111
1.0
121
0.0
131
0.0
112
0.0
122
1.0
132
0.0
 79
     0
146
0.0
  0
ENDTAB
  0
TABLE
  2
LTYPE
  5
5
330
0
100
AcDbSymbolTable
 70
    53
  0
LTYPE
  5
14
330
5
100
AcDbSymbolTableRecord
100
AcDbLinetypeTableRecord
  2
ByBlock
 70
     0
  3

 72
    65
 73
     0
 40
0.0
  0
LTYPE
  5
15
330
5
100
AcDbSymbolTableRecord
100
AcDbLinetypeTableRecord
  2
ByLayer
 70
     0
  3

 72
    65
 73
     0
 40
0.0
  0
LTYPE
  5
16
330
5
100
AcDbSymbolTableRecord
100
AcDbLinetypeTableRecord
  2
Continuous
 70
     0
  3
Solid line
 72
    65
 73
     0
 40
0.0
  0
LTYPE
  5
40
330
5
100
AcDbSymbolTableRecord
100
AcDbLinetypeTableRecord
  2
HIDDENX2
 70
     0
  3
Hidden (2x) ____ ____ ____ ____ ____ ____ ____ 
 72
    65
 73
     2
 40
19.05
 49
12.7
 74
     0
 49
-6.35
 74
     0
  0
LTYPE
  5
41
330
5
100
AcDbSymbolTableRecord
100
AcDbLinetypeTableRecord
  2
HIDDEN
 70
     0
  3
Hidden __ __ __ __ __ __ __ __ __ __ __ __ __ __
 72
    65
 73
     2
 40
9.524999999999999
 49
6.35
 74
     0
 49
-3.175
 74
     0
  0
LTYPE
  5
42
330
5
100
AcDbSymbolTableRecord
100
AcDbLinetypeTableRecord
  2
HIDDEN2
 70
     0
  3
Hidden (.5x) _ _ _ _ _ _ _ _ _ _ _ _ _ _ _ _ _ 
 72
    65
 73
     2
 40
4.762499999999999
 49
3.175
 74
     0
 49
-1.5875
 74
     0
  0
LTYPE
  5
43
330
5
100
AcDbSymbolTableRecord
100
AcDbLinetypeTableRecord
  2
DASHED
 70
     0
  3
Dashed __ __ __ __ __ __ __ __ __ __ __ __ __ _
 72
    65
 73
     2
 40
19.05
 49
12.7
 74
     0
 49
-6.35
 74
     0
  0
LTYPE
  5
44
330
5
100
AcDbSymbolTableRecord
100
AcDbLinetypeTableRecord
  2
DASHED2
 70
     0
  3
Dashed (.5x) _ _ _ _ _ _ _ _ _ _ _ _ _ _ _ _ _ 
 72
    65
 73
     2
 40
9.524999999999999
 49
6.35
 74
     0
 49
-3.175
 74
     0
  0
LTYPE
  5
45
330
5
100
AcDbSymbolTableRecord
100
AcDbLinetypeTableRecord
  2
DASHEDX2
 70
     0
  3
Dashed (2x) ____  ____  ____  ____  ____  ___
 72
    65
 73
     2
 40
38.09999999999999
 49
25.4
 74
     0
 49
-12.7
 74
     0
  0
LTYPE
  5
46
330
5
100
AcDbSymbolTableRecord
100
AcDbLinetypeTableRecord
  2
DOTX2
 70
     0
  3
Dot (2x) .  .  .  .  .  .  .  .  .  .  .  .  .  .
 72
    65
 73
     2
 40
12.7
 49
0.0
 74
     0
 49
-12.7
 74
     0
  0
LTYPE
  5
47
330
5
100
AcDbSymbolTableRecord
100
AcDbLinetypeTableRecord
  2
DOT
 70
     0
  3
Dot . . . . . . . . . . . . . . . . . . . . . . . .
 72
    65
 73
     2
 40
6.35
 49
0.0
 74
     0
 49
-6.35
 74
     0
  0
LTYPE
  5
48
330
5
100
AcDbSymbolTableRecord
100
AcDbLinetypeTableRecord
  2
DOT2
 70
     0
  3
Dot (.5x) ........................................
 72
    65
 73
     2
 40
3.175
 49
0.0
 74
     0
 49
-3.175
 74
     0
  0
LTYPE
  5
49
330
5
100
AcDbSymbolTableRecord
100
AcDbLinetypeTableRecord
  2
CENTERX2
 70
     0
  3
Center (2x) ________  __  ________  __  _____
 72
    65
 73
     4
 40
101.6
 49
63.5
 74
     0
 49
-12.7
 74
     0
 49
12.7
 74
     0
 49
-12.7
 74
     0
  0
LTYPE
  5
4A
330
5
100
AcDbSymbolTableRecord
100
AcDbLinetypeTableRecord
  2
CENTER
 70
     0
  3
Center ____ _ ____ _ ____ _ ____ _ ____ _ ____
 72
    65
 73
     4
 40
50.8
 49
31.75
 74
     0
 49
-6.35
 74
     0
 49
6.35
 74
     0
 49
-6.35
 74
     0
  0
LTYPE
  5
4B
330
5
100
AcDbSymbolTableRecord
100
AcDbLinetypeTableRecord
  2
CENTER2
 70
     0
  3
Center (.5x) ___ _ ___ _ ___ _ ___ _ ___ _ ___
 72
    65
 73
     4
 40
28.575
 49
19.05
 74
     0
 49
-3.175
 74
     0
 49
3.175
 74
     0
 49
-3.175
 74
     0
  0
LTYPE
  5
4C
330
5
100
AcDbSymbolTableRecord
100
AcDbLinetypeTableRecord
  2
DASHDOTX2
 70
     0
  3
Dash dot (2x) ____  .  ____  .  ____  .  ___
 72
    65
 73
     4
 40
50.8
 49
25.4
 74
     0
 49
-12.7
 74
     0
 49
0.0
 74
     0
 49
-12.7
 74
     0
  0
LTYPE
  5
4D
330
5
100
AcDbSymbolTableRecord
100
AcDbLinetypeTableRecord
  2
DASHDOT
 70
     0
  3
Dash dot __ . __ . __ . __ . __ . __ . __ . __
 72
    65
 73
     4
 40
25.4
 49
12.7
 74
     0
 49
-6.35
 74
     0
 49
0.0
 74
     0
 49
-6.35
 74
     0
  0
LTYPE
  5
4E
330
5
100
AcDbSymbolTableRecord
100
AcDbLinetypeTableRecord
  2
DASHDOT2
 70
     0
  3
Dash dot (.5x) _._._._._._._._._._._._._._._.
 72
    65
 73
     4
 40
12.7
 49
6.35
 74
     0
 49
-3.175
 74
     0
 49
0.0
 74
     0
 49
-3.175
 74
     0
  0
LTYPE
  5
4F
330
5
100
AcDbSymbolTableRecord
100
AcDbLinetypeTableRecord
  2
DIVIDEX2
 70
     0
  3
Divide (2x) ________  .  .  ________  .  .  _
 72
    65
 73
     6
 40
63.5
 49
25.4
 74
     0
 49
-12.7
 74
     0
 49
0.0
 74
     0
 49
-12.7
 74
     0
 49
0.0
 74
     0
 49
-12.7
 74
     0
  0
LTYPE
  5
50
330
5
100
AcDbSymbolTableRecord
100
AcDbLinetypeTableRecord
  2
DIVIDE
 70
     0
  3
Divide ____ . . ____ . . ____ . . ____ . . ____
 72
    65
 73
     6
 40
31.75
 49
12.7
 74
     0
 49
-6.35
 74
     0
 49
0.0
 74
     0
 49
-6.35
 74
     0
 49
0.0
 74
     0
 49
-6.35
 74
     0
  0
LTYPE
  5
51
330
5
100
AcDbSymbolTableRecord
100
AcDbLinetypeTableRecord
  2
DIVIDE2
 70
     0
  3
Divide (.5x) __..__..__..__..__..__..__..__.._
 72
    65
 73
     6
 40
15.875
 49
6.35
 74
     0
 49
-3.175
 74
     0
 49
0.0
 74
     0
 49
-3.175
 74
     0
 49
0.0
 74
     0
 49
-3.175
 74
     0
  0
LTYPE
  5
52
330
5
100
AcDbSymbolTableRecord
100
AcDbLinetypeTableRecord
  2
BORDERX2
 70
     0
  3
Border (2x) ____  ____  .  ____  ____  .  ___
 72
    65
 73
     6
 40
88.89999999999999
 49
25.4
 74
     0
 49
-12.7
 74
     0
 49
25.4
 74
     0
 49
-12.7
 74
     0
 49
0.0
 74
     0
 49
-12.7
 74
     0
  0
LTYPE
  5
53
330
5
100
AcDbSymbolTableRecord
100
AcDbLinetypeTableRecord
  2
BORDER
 70
     0
  3
Border __ __ . __ __ . __ __ . __ __ . __ __ .
 72
    65
 73
     6
 40
44.45
 49
12.7
 74
     0
 49
-6.35
 74
     0
 49
12.7
 74
     0
 49
-6.35
 74
     0
 49
0.0
 74
     0
 49
-6.35
 74
     0
  0
LTYPE
  5
54
330
5
100
AcDbSymbolTableRecord
100
AcDbLinetypeTableRecord
  2
BORDER2
 70
     0
  3
Border (.5x) __.__.__.__.__.__.__.__.__.__.__.
 72
    65
 73
     6
 40
22.225
 49
6.35
 74
     0
 49
-3.175
 74
     0
 49
6.35
 74
     0
 49
-3.175
 74
     0
 49
0.0
 74
     0
 49
-3.175
 74
     0
  0
LTYPE
  5
55
330
5
100
AcDbSymbolTableRecord
100
AcDbLinetypeTableRecord
  2
PHANTOMX2
 70
     0
  3
Phantom (2x) ____________    ____    ____   _
 72
    65
 73
     6
 40
127.0
 49
63.5
 74
     0
 49
-12.7
 74
     0
 49
12.7
 74
     0
 49
-12.7
 74
     0
 49
12.7
 74
     0
 49
-12.7
 74
     0
  0
LTYPE
  5
56
330
5
100
AcDbSymbolTableRecord
100
AcDbLinetypeTableRecord
  2
PHANTOM
 70
     0
  3
Phantom ______  __  __  ______  __  __  ______ 
 72
    65
 73
     6
 40
63.5
 49
31.75
 74
     0
 49
-6.35
 74
     0
 49
6.35
 74
     0
 49
-6.35
 74
     0
 49
6.35
 74
     0
 49
-6.35
 74
     0
  0
LTYPE
  5
57
330
5
100
AcDbSymbolTableRecord
100
AcDbLinetypeTableRecord
  2
PHANTOM2
 70
     0
  3
Phantom (.5x) ___ _ _ ___ _ _ ___ _ _ ___ _ _
 72
    65
 73
     6
 40
31.75
 49
15.875
 74
     0
 49
-3.175
 74
     0
 49
3.175
 74
     0
 49
-3.175
 74
     0
 49
3.175
 74
     0
 49
-3.175
 74
     0
  0
LTYPE
  5
58
330
5
100
AcDbSymbolTableRecord
100
AcDbLinetypeTableRecord
  2
ACAD_ISO06W100
 70
     0
  3
ISO long-dash triple-dot ____ ... ____ ... ____
 72
    65
 73
     8
 40
36.0
 49
24.0
 74
     0
 49
-3.0
 74
     0
 49
0.0
 74
     0
 49
-3.0
 74
     0
 49
0.0
 74
     0
 49
-3.0
 74
     0
 49
0.0
 74
     0
 49
-3.0
 74
     0
  0
LTYPE
  5
59
330
5
100
AcDbSymbolTableRecord
100
AcDbLinetypeTableRecord
  2
ACAD_ISO13W100
 70
     0
  3
ISO double-dash double-dot __ __ . . __ __ . . _
 72
    65
 73
     8
 40
36.0
 49
12.0
 74
     0
 49
-3.0
 74
     0
 49
12.0
 74
     0
 49
-3.0
 74
     0
 49
0.0
 74
     0
 49
-3.0
 74
     0
 49
0.0
 74
     0
 49
-3.0
 74
     0
  0
LTYPE
  5
5A
330
5
100
AcDbSymbolTableRecord
100
AcDbLinetypeTableRecord
  2
ACAD_ISO14W100
 70
     0
  3
ISO dash triple-dot __ . . . __ . . . __ . . . _
 72
    65
 73
     8
 40
24.0
 49
12.0
 74
     0
 49
-3.0
 74
     0
 49
0.0
 74
     0
 49
-3.0
 74
     0
 49
0.0
 74
     0
 49
-3.0
 74
     0
 49
0.0
 74
     0
 49
-3.0
 74
     0
  0
LTYPE
  5
5B
330
5
100
AcDbSymbolTableRecord
100
AcDbLinetypeTableRecord
  2
ACAD_ISO02W100
 70
     0
  3
ISO dash __ __ __ __ __ __ __ __ __ __ __ __ __
 72
    65
 73
     2
 40
15.0
 49
12.0
 74
     0
 49
-3.0
 74
     0
  0
LTYPE
  5
5C
330
5
100
AcDbSymbolTableRecord
100
AcDbLinetypeTableRecord
  2
ACAD_ISO03W100
 70
     0
  3
ISO dash space __    __    __    __    __    __
 72
    65
 73
     2
 40
30.0
 49
12.0
 74
     0
 49
-18.0
 74
     0
  0
LTYPE
  5
5D
330
5
100
AcDbSymbolTableRecord
100
AcDbLinetypeTableRecord
  2
ACAD_ISO04W100
 70
     0
  3
ISO long-dash dot ____ . ____ . ____ . ____ . _
 72
    65
 73
     4
 40
30.0
 49
24.0
 74
     0
 49
-3.0
 74
     0
 49
0.0
 74
     0
 49
-3.0
 74
     0
  0
LTYPE
  5
5E
330
5
100
AcDbSymbolTableRecord
100
AcDbLinetypeTableRecord
  2
ACAD_ISO05W100
 70
     0
  3
ISO long-dash double-dot ____ .. ____ .. ____ . 
 72
    65
 73
     6
 40
33.0
 49
24.0
 74
     0
 49
-3.0
 74
     0
 49
0.0
 74
     0
 49
-3.0
 74
     0
 49
0.0
 74
     0
 49
-3.0
 74
     0
  0
LTYPE
  5
5F
330
5
100
AcDbSymbolTableRecord
100
AcDbLinetypeTableRecord
  2
ACAD_ISO07W100
 70
     0
  3
ISO dot . . . . . . . . . . . . . . . . . . . . 
 72
    65
 73
     2
 40
3.0
 49
0.0
 74
     0
 49
-3.0
 74
     0
  0
LTYPE
  5
60
330
5
100
AcDbSymbolTableRecord
100
AcDbLinetypeTableRecord
  2
ACAD_ISO08W100
 70
     0
  3
ISO long-dash short-dash ____ __ ____ __ ____ _
 72
    65
 73
     4
 40
36.0
 49
24.0
 74
     0
 49
-3.0
 74
     0
 49
6.0
 74
     0
 49
-3.0
 74
     0
  0
LTYPE
  5
61
330
5
100
AcDbSymbolTableRecord
100
AcDbLinetypeTableRecord
  2
ACAD_ISO09W100
 70
     0
  3
ISO long-dash double-short-dash ____ __ __ ____
 72
    65
 73
     6
 40
45.0
 49
24.0
 74
     0
 49
-3.0
 74
     0
 49
6.0
 74
     0
 49
-3.0
 74
     0
 49
6.0
 74
     0
 49
-3.0
 74
     0
  0
LTYPE
  5
62
330
5
100
AcDbSymbolTableRecord
100
AcDbLinetypeTableRecord
  2
ACAD_ISO10W100
 70
     0
  3
ISO dash dot __ . __ . __ . __ . __ . __ . __ . 
 72
    65
 73
     4
 40
18.0
 49
12.0
 74
     0
 49
-3.0
 74
     0
 49
0.0
 74
     0
 49
-3.0
 74
     0
  0
LTYPE
  5
63
330
5
100
AcDbSymbolTableRecord
100
AcDbLinetypeTableRecord
  2
ACAD_ISO11W100
 70
     0
  3
ISO double-dash dot __ __ . __ __ . __ __ . __ _
 72
    65
 73
     6
 40
33.0
 49
12.0
 74
     0
 49
-3.0
 74
     0
 49
12.0
 74
     0
 49
-3.0
 74
     0
 49
0.0
 74
     0
 49
-3.0
 74
     0
  0
LTYPE
  5
64
330
5
100
AcDbSymbolTableRecord
100
AcDbLinetypeTableRecord
  2
ACAD_ISO12W100
 70
     0
  3
ISO dash double-dot __ . . __ . . __ . . __ . . 
 72
    65
 73
     6
 40
21.0
 49
12.0
 74
     0
 49
-3.0
 74
     0
 49
0.0
 74
     0
 49
-3.0
 74
     0
 49
0.0
 74
     0
 49
-3.0
 74
     0
  0
LTYPE
  5
65
330
5
100
AcDbSymbolTableRecord
100
AcDbLinetypeTableRecord
  2
ACAD_ISO15W100
 70
     0
  3
ISO double-dash triple-dot __ __ . . . __ __ . .
 72
    65
 73
    10
 40
39.0
 49
12.0
 74
     0
 49
-3.0
 74
     0
 49
12.0
 74
     0
 49
-3.0
 74
     0
 49
0.0
 74
     0
 49
-3.0
 74
     0
 49
0.0
 74
     0
 49
-3.0
 74
     0
 49
0.0
 74
     0
 49
-3.0
 74
     0
  0
LTYPE
  5
66
330
5
100
AcDbSymbolTableRecord
100
AcDbLinetypeTableRecord
  2
JIS_02_0.7
 70
     0
  3
HIDDEN0.75 _ _ _ _ _ _ _ _ _ _ _ _ _ _ _ _ _ 
 72
    65
 73
     2
 40
1.35
 49
0.75
 74
     0
 49
-0.6
 74
     0
  0
LTYPE
  5
67
330
5
100
AcDbSymbolTableRecord
100
AcDbLinetypeTableRecord
  2
JIS_02_1.0
 70
     0
  3
HIDDEN01 _ _ _ _ _ _ _ _ _ _ _ _ _ _ _ _ _ 
 72
    65
 73
     2
 40
2.0
 49
1.0
 74
     0
 49
-1.0
 74
     0
  0
LTYPE
  5
68
330
5
100
AcDbSymbolTableRecord
100
AcDbLinetypeTableRecord
  2
JIS_02_1.2
 70
     0
  3
HIDDEN01.25  _ _ _ _ _ _ _ _ _ _ _ _ _ _ _ _ _ 
 72
    65
 73
     2
 40
2.5
 49
1.25
 74
     0
 49
-1.25
 74
     0
  0
LTYPE
  5
69
330
5
100
AcDbSymbolTableRecord
100
AcDbLinetypeTableRecord
  2
JIS_02_2.0
 70
     0
  3
HIDDEN02 __ __ __ __ __ __ __ __ __ __ __ 
 72
    65
 73
     2
 40
3.0
 49
2.0
 74
     0
 49
-1.0
 74
     0
  0
LTYPE
  5
6A
330
5
100
AcDbSymbolTableRecord
100
AcDbLinetypeTableRecord
  2
JIS_02_4.0
 70
     0
  3
HIDDEN04 ____ ____ ____ ____ ____ ____ ____ 
 72
    65
 73
     2
 40
5.5
 49
4.0
 74
     0
 49
-1.5
 74
     0
  0
LTYPE
  5
6B
330
5
100
AcDbSymbolTableRecord
100
AcDbLinetypeTableRecord
  2
JIS_08_11
 70
     0
  3
1SASEN11 ___ _ ___ _ ___ _ ___ _ ___ _ ___
 72
    65
 73
     4
 40
12.8
 49
11.0
 74
     0
 49
-0.6
 74
     0
 49
0.6
 74
     0
 49
-0.6
 74
     0
  0
LTYPE
  5
6C
330
5
100
AcDbSymbolTableRecord
100
AcDbLinetypeTableRecord
  2
JIS_08_15
 70
     0
  3
1SASEN15 ____ _ ____ _ ____ _ ____ _ ____ 
 72
    65
 73
     4
 40
17.25
 49
15.0
 74
     0
 49
-0.75
 74
     0
 49
0.75
 74
     0
 49
-0.75
 74
     0
  0
LTYPE
  5
6D
330
5
100
AcDbSymbolTableRecord
100
AcDbLinetypeTableRecord
  2
JIS_08_25
 70
     0
  3
1SASEN25 ________  __  ________  __  _____
 72
    65
 73
     4
 40
28.0
 49
25.0
 74
     0
 49
-1.125
 74
     0
 49
0.75
 74
     0
 49
-1.125
 74
     0
  0
LTYPE
  5
6E
330
5
100
AcDbSymbolTableRecord
100
AcDbLinetypeTableRecord
  2
JIS_08_37
 70
     0
  3
1SASEN37 ________  __  ________  __  _____
 72
    65
 73
     4
 40
40.5
 49
37.5
 74
     0
 49
-1.125
 74
     0
 49
0.75
 74
     0
 49
-1.125
 74
     0
  0
LTYPE
  5
6F
330
5
100
AcDbSymbolTableRecord
100
AcDbLinetypeTableRecord
  2
JIS_08_50
 70
     0
  3
1SASEN50 _______________  __  ____________
 72
    65
 73
     4
 40
53.0
 49
50.0
 74
     0
 49
-1.125
 74
     0
 49
0.75
 74
     0
 49
-1.125
 74
     0
  0
LTYPE
  5
70
330
5
100
AcDbSymbolTableRecord
100
AcDbLinetypeTableRecord
  2
JIS_09_08
 70
     0
  3
2SASEN8 __ _ _ __ _ _ __ _ _ __ _ _ __ _ _ 
 72
    65
 73
     6
 40
10.75
 49
8.0
 74
     0
 49
-0.55
 74
     0
 49
0.55
 74
     0
 49
-0.55
 74
     0
 49
0.55
 74
     0
 49
-0.55
 74
     0
  0
LTYPE
  5
71
330
5
100
AcDbSymbolTableRecord
100
AcDbLinetypeTableRecord
  2
JIS_09_15
 70
     0
  3
2SASEN15 ___ _ _ ___ _ _ ___ _ _ ___ _ _ ___ 
 72
    65
 73
     6
 40
18.9
 49
15.0
 74
     0
 49
-0.9
 74
     0
 49
0.6
 74
     0
 49
-0.9
 74
     0
 49
0.6
 74
     0
 49
-0.9
 74
     0
  0
LTYPE
  5
72
330
5
100
AcDbSymbolTableRecord
100
AcDbLinetypeTableRecord
  2
JIS_09_29
 70
     0
  3
2SASEN29 ______　__  __  ______　__  __  ___
 72
    65
 73
     6
 40
34.0
 49
29.0
 74
     0
 49
-1.2
 74
     0
 49
0.7
 74
     0
 49
-1.2
 74
     0
 49
0.7
 74
     0
 49
-1.2
 74
     0
  0
LTYPE
  5
73
330
5
100
AcDbSymbolTableRecord
100
AcDbLinetypeTableRecord
  2
JIS_09_50
 70
     0
  3
2SASEN50 ____________　__  __  _____________
 72
    65
 73
     6
 40
55.0
 49
50.0
 74
     0
 49
-1.2
 74
     0
 49
0.7
 74
     0
 49
-1.2
 74
     0
 49
0.7
 74
     0
 49
-1.2
 74
     0
  0
ENDTAB
  0
TABLE
  2
LAYER
  5
2
330
0
100
AcDbSymbolTable
 70
     3
  0
LAYER
  5
10
330
2
100
AcDbSymbolTableRecord
100
AcDbLayerTableRecord
  2
0
 70
     0
 62
     7
  6
Continuous
370
    -3
390
F
  0
LAYER
  5
74
330
2
100
AcDbSymbolTableRecord
100
AcDbLayerTableRecord
  2
Layer0240
 70
     0
 62
     7
  6
Continuous
370
    -3
390
F
  0
LAYER
  5
75
330
2
100
AcDbSymbolTableRecord
100
AcDbLayerTableRecord
  2
ZUWAKU
 70
     0
 62
     7
  6
Continuous
370
    -3
390
F
  0
ENDTAB
  0
TABLE
  2
STYLE
  5
3
330
0
100
AcDbSymbolTable
 70
     3
  0
STYLE
  5
11
330
3
100
AcDbSymbolTableRecord
100
AcDbTextStyleTableRecord
  2
Standard
 70
     0
 40
0.0
 41
1.0
 50
0.0
 71
     0
 42
0.2
  3
txt.shx
  4
bigfont.shx
  0
STYLE
  5
BF
330
3
100
AcDbSymbolTableRecord
100
AcDbTextStyleTableRecord
  2
dcStyle0
 70
     0
 40
0.0
 41
0.8000000000000019
 50
0.0
 71
     0
 42
0.2
  3
txt.shx
  4
bigfont
  0
STYLE
  5
44D
330
3
100
AcDbSymbolTableRecord
100
AcDbTextStyleTableRecord
  2
dcStyle1
 70
     4
 40
0.0
 41
0.8
 50
0.0
 71
     0
 42
0.2
  3
txt.shx
  4
bigfont
  0
ENDTAB
  0
TABLE
  2
VIEW
  5
6
330
0
100
AcDbSymbolTable
 70
     0
  0
ENDTAB
  0
TABLE
  2
UCS
  5
7
330
0
100
AcDbSymbolTable
 70
     0
  0
ENDTAB
  0
TABLE
  2
APPID
  5
9
330
0
100
AcDbSymbolTable
 70
     3
  0
APPID
  5
12
330
9
100
AcDbSymbolTableRecord
100
AcDbRegAppTableRecord
  2
ACAD
 70
     0
  0
APPID
  5
3F
330
9
100
AcDbSymbolTableRecord
100
AcDbRegAppTableRecord
  2
DaFusionOut
 70
     0
  0
APPID
  5
596
330
9
100
AcDbSymbolTableRecord
100
AcDbRegAppTableRecord
  2
ACAD_DSTYLE_DIMARC_LENGTH_SYMBOL
 70
     0
  0
ENDTAB
  0
TABLE
  2
DIMSTYLE
  5
A
330
0
100
AcDbSymbolTable
 70
     4
100
AcDbDimStyleTable
  0
DIMSTYLE
105
27
330
A
100
AcDbSymbolTableRecord
100
AcDbDimStyleTableRecord
  2
Standard
 70
     0
178
     0
340
11
  0
DIMSTYLE
105
502
102
{ACAD_REACTORS
330
501
330
503
330
504
330
505
330
509
330
50A
330
50B
330
511
102
}
330
A
100
AcDbSymbolTableRecord
100
AcDbDimStyleTableRecord
  2
dc_Rotated
 70
     0
 41
9.000005722045898
 42
3.0
 44
3.0
 73
     0
 74
     0
 77
     3
 78
     8
 79
     2
140
12.0
147
3.0
172
     1
173
     1
176
     9
177
     9
271
     2
178
     7
271
     2
274
     4
283
     0
284
     8
288
     1
340
44D
343
B7
344
B7
1001
ACAD_DSTYLE_DIMARC_LENGTH_SYMBOL
1070
   379
1070
     1
  0
DIMSTYLE
105
50D
102
{ACAD_REACTORS
330
50C
330
50E
102
}
330
A
100
AcDbSymbolTableRecord
100
AcDbDimStyleTableRecord
  2
dc_Diam01
 70
     0
 41
9.000005722045898
 42
3.0
 44
3.0
 73
     0
 74
     0
 77
     3
 78
     8
 79
     2
140
12.0
147
3.000000000000024
172
     1
173
     1
176
     9
177
     9
271
     2
178
     7
271
     2
274
     4
283
     0
284
     8
288
     1
289
     1
340
44D
343
B7
344
B7
1001
ACAD_DSTYLE_DIMARC_LENGTH_SYMBOL
1070
   379
1070
     1
  0
DIMSTYLE
105
510
102
{ACAD_REACTORS
330
50F
102
}
330
A
100
AcDbSymbolTableRecord
100
AcDbDimStyleTableRecord
  2
dc_Ang01
 70
     0
 41
9.000005722045898
 42
3.0
 44
3.0
 73
     0
 74
     0
 77
     3
 78
     8
 79
     2
140
12.0
147
3.000001000000025
172
     1
173
     1
176
     9
177
     9
271
     2
178
     7
271
     2
274
     4
283
     0
284
     8
288
     1
340
44D
343
B7
344
B7
1001
ACAD_DSTYLE_DIMARC_LENGTH_SYMBOL
1070
   379
1070
     1
  0
ENDTAB
  0
TABLE
  2
BLOCK_RECORD
  5
1
330
0
100
AcDbSymbolTable
 70
    23
  0
BLOCK_RECORD
  5
1F
330
1
100
AcDbSymbolTableRecord
100
AcDbBlockTableRecord
  2
*Model_Space
340
22
  0
BLOCK_RECORD
  5
1B
330
1
100
AcDbSymbolTableRecord
100
AcDbBlockTableRecord
  2
*Paper_Space
340
1E
  0
BLOCK_RECORD
  5
23
330
1
100
AcDbSymbolTableRecord
100
AcDbBlockTableRecord
  2
*Paper_Space0
340
26
  0
BLOCK_RECORD
  5
77
330
1
100
AcDbSymbolTableRecord
100
AcDbBlockTableRecord
  2
DC_GROUP_FC1100S_1
340
0
102
{BLKREFS
331
4FA
102
}
  0
BLOCK_RECORD
  5
7A
330
1
100
AcDbSymbolTableRecord
100
AcDbBlockTableRecord
  2
DC_GROUP_FC1100S_2
340
0
102
{BLKREFS
331
4FB
102
}
  0
BLOCK_RECORD
  5
7D
330
1
100
AcDbSymbolTableRecord
100
AcDbBlockTableRecord
  2
DC_GROUP_FC1100S_3
340
0
102
{BLKREFS
331
4FC
102
}
  0
BLOCK_RECORD
  5
80
330
1
100
AcDbSymbolTableRecord
100
AcDbBlockTableRecord
  2
DC_GROUP_FC1100S_4
340
0
102
{BLKREFS
331
4FD
102
}
  0
BLOCK_RECORD
  5
83
330
1
100
AcDbSymbolTableRecord
100
AcDbBlockTableRecord
  2
DC_GROUP_FC1100S_5
340
0
102
{BLKREFS
331
4FE
102
}
  0
BLOCK_RECORD
  5
86
330
1
100
AcDbSymbolTableRecord
100
AcDbBlockTableRecord
  2
*D6
340
0
  0
BLOCK_RECORD
  5
89
330
1
100
AcDbSymbolTableRecord
100
AcDbBlockTableRecord
  2
*D7
340
0
  0
BLOCK_RECORD
  5
8C
330
1
100
AcDbSymbolTableRecord
100
AcDbBlockTableRecord
  2
*D8
340
0
  0
BLOCK_RECORD
  5
8F
330
1
100
AcDbSymbolTableRecord
100
AcDbBlockTableRecord
  2
*D9
340
0
  0
BLOCK_RECORD
  5
92
330
1
100
AcDbSymbolTableRecord
100
AcDbBlockTableRecord
  2
DC_GROUP_FC1100S_6
340
0
102
{BLKREFS
331
4FF
102
}
  0
BLOCK_RECORD
  5
95
330
1
100
AcDbSymbolTableRecord
100
AcDbBlockTableRecord
  2
DC_GROUP_FC1100S_7
340
0
102
{BLKREFS
331
500
102
}
  0
BLOCK_RECORD
  5
98
330
1
100
AcDbSymbolTableRecord
100
AcDbBlockTableRecord
  2
DC_GROUP_FC1100S_8
340
0
102
{BLKREFS
331
506
102
}
  0
BLOCK_RECORD
  5
9B
330
1
100
AcDbSymbolTableRecord
100
AcDbBlockTableRecord
  2
DC_GROUP_FC1100S_9
340
0
102
{BLKREFS
331
507
102
}
  0
BLOCK_RECORD
  5
9E
330
1
100
AcDbSymbolTableRecord
100
AcDbBlockTableRecord
  2
DC_GROUP_FC1100S_10
340
0
102
{BLKREFS
331
508
102
}
  0
BLOCK_RECORD
  5
A1
330
1
100
AcDbSymbolTableRecord
100
AcDbBlockTableRecord
  2
*D15
340
0
  0
BLOCK_RECORD
  5
A4
330
1
100
AcDbSymbolTableRecord
100
AcDbBlockTableRecord
  2
*D16
340
0
  0
BLOCK_RECORD
  5
A7
330
1
100
AcDbSymbolTableRecord
100
AcDbBlockTableRecord
  2
*D17
340
0
  0
BLOCK_RECORD
  5
AA
330
1
100
AcDbSymbolTableRecord
100
AcDbBlockTableRecord
  2
*D18
340
0
  0
BLOCK_RECORD
  5
AD
330
1
100
AcDbSymbolTableRecord
100
AcDbBlockTableRecord
  2
*D19
340
0
  0
BLOCK_RECORD
  5
B0
330
1
100
AcDbSymbolTableRecord
100
AcDbBlockTableRecord
  2
*D20
340
0
  0
BLOCK_RECORD
  5
B3
330
1
100
AcDbSymbolTableRecord
100
AcDbBlockTableRecord
  2
*D21
340
0
  0
BLOCK_RECORD
  5
B7
330
1
100
AcDbSymbolTableRecord
100
AcDbBlockTableRecord
  2
_OPEN30
340
0
102
{BLKREFS
331
BD
331
C2
331
C6
331
CA
331
CE
331
D2
331
D3
331
D8
331
D9
331
DE
331
DF
331
E4
331
E5
331
EA
331
EE
331
F2
331
F6
331
FA
331
FE
331
FF
331
104
331
105
331
10A
331
10B
331
111
331
113
331
117
331
119
331
11C
331
11D
331
123
331
125
102
}
  0
ENDTAB
  0
ENDSEC
  0
SECTION
  2
BLOCKS
  0
BLOCK
  5
20
330
1F
100
AcDbEntity
  8
0
100
AcDbBlockBegin
  2
*Model_Space
 70
     0
 10
0.0
 20
0.0
 30
0.0
  3
*Model_Space
  1

  0
ENDBLK
  5
21
330
1F
100
AcDbEntity
  8
0
100
AcDbBlockEnd
  0
BLOCK
  5
1C
330
1B
100
AcDbEntity
 67
     1
  8
0
100
AcDbBlockBegin
  2
*Paper_Space
 70
     0
 10
0.0
 20
0.0
 30
0.0
  3
*Paper_Space
  1

  0
ENDBLK
  5
1D
330
1B
100
AcDbEntity
 67
     1
  8
0
100
AcDbBlockEnd
  0
BLOCK
  5
24
330
23
100
AcDbEntity
  8
0
100
AcDbBlockBegin
  2
*Paper_Space0
 70
     0
 10
0.0
 20
0.0
 30
0.0
  3
*Paper_Space0
  1

  0
ENDBLK
  5
25
330
23
100
AcDbEntity
  8
0
100
AcDbBlockEnd
  0
BLOCK
  5
78
330
77
100
AcDbEntity
  8
0
100
AcDbBlockBegin
  2
DC_GROUP_FC1100S_1
 70
     0
 10
0.0
 20
0.0
 30
0.0
  3
DC_GROUP_FC1100S_1
  1

  0
LINE
  5
B6
330
77
100
AcDbEntity
  8
Layer0240
  6
Continuous
 62
     9
370
    25
100
AcDbLine
 10
-175.1849102133268
 20
19.54555893244952
 30
0.0
 11
-230.4095938037501
 21
-18.50916909117308
 31
0.0
  0
INSERT
  5
BD
330
77
100
AcDbEntity
  8
Layer0240
 62
     9
100
AcDbBlockReference
  2
_OPEN30
 10
-175.1849102133268
 20
19.54555893244952
 30
0.0
 41
9.000008422845859
 42
8.99996810467093
 50
34.57030367913108
  0
CIRCLE
  5
BE
330
77
100
AcDbEntity
  8
Layer0240
  6
Continuous
 62
     9
370
    25
100
AcDbCircle
 10
-241.5259065063657
 20
-26.16929910949947
 30
0.0
 40
13.5
  0
TEXT
  5
C0
330
77
100
AcDbEntity
  8
Layer0240
 62
     4
100
AcDbText
 10
-246.3259065063657
 20
-32.16929910949947
 30
0.0
 40
12.0
  1
7
 41
0.9882352941176494
  7
dcStyle0
 72
     5
 11
-236.7259065063657
 21
-32.16929910949947
 31
0.0
100
AcDbText
  0
ENDBLK
  5
79
330
77
100
AcDbEntity
  8
0
100
AcDbBlockEnd
  0
BLOCK
  5
7B
330
7A
100
AcDbEntity
  8
0
100
AcDbBlockBegin
  2
DC_GROUP_FC1100S_2
 70
     0
 10
0.0
 20
0.0
 30
0.0
  3
DC_GROUP_FC1100S_2
  1

  0
LINE
  5
C1
330
7A
100
AcDbEntity
  8
Layer0240
  6
Continuous
 62
     9
370
    25
100
AcDbLine
 10
-179.5229484936621
 20
21.45503258764528
 30
0.0
 11
-228.3822763394391
 21
10.00044855093626
 31
0.0
  0
INSERT
  5
C2
330
7A
100
AcDbEntity
  8
Layer0240
 62
     9
100
AcDbBlockReference
  2
_OPEN30
 10
-179.5229484936621
 20
21.45503258764528
 30
0.0
 41
9.000008422845859
 42
8.99996810467093
 50
13.19414453712024
  0
CIRCLE
  5
C3
330
7A
100
AcDbEntity
  8
Layer0240
  6
Continuous
 62
     9
370
    25
100
AcDbCircle
 10
-241.5259065063657
 20
6.919055029320318
 30
0.0
 40
13.5
  0
TEXT
  5
C4
330
7A
100
AcDbEntity
  8
Layer0240
 62
     4
100
AcDbText
 10
-246.3259065063657
 20
0.9190550293203152
 30
0.0
 40
12.0
  1
6
 41
0.9882352941176494
  7
dcStyle0
 72
     5
 11
-236.7259065063657
 21
0.9190550293203152
 31
0.0
100
AcDbText
  0
ENDBLK
  5
7C
330
7A
100
AcDbEntity
  8
0
100
AcDbBlockEnd
  0
BLOCK
  5
7E
330
7D
100
AcDbEntity
  8
0
100
AcDbBlockBegin
  2
DC_GROUP_FC1100S_3
 70
     0
 10
0.0
 20
0.0
 30
0.0
  3
DC_GROUP_FC1100S_3
  1

  0
LINE
  5
C5
330
7D
100
AcDbEntity
  8
Layer0240
  6
Continuous
 62
     9
370
    25
100
AcDbLine
 10
-171.022948493662
 20
165.2929672336727
 30
0.0
 11
-230.1301397342129
 21
202.8340211296983
 31
0.0
  0
INSERT
  5
C6
330
7D
100
AcDbEntity
  8
Layer0240
 62
     9
100
AcDbBlockReference
  2
_OPEN30
 10
-171.022948493662
 20
165.2929672336727
 30
0.0
 41
9.000008422845859
 42
8.99996810467093
 50
327.5789352374931
  0
CIRCLE
  5
C7
330
7D
100
AcDbEntity
  8
Layer0240
  6
Continuous
 62
     9
370
    25
100
AcDbCircle
 10
-241.5259065063659
 20
210.0718729984982
 30
0.0
 40
13.5
  0
TEXT
  5
C8
330
7D
100
AcDbEntity
  8
Layer0240
 62
     4
100
AcDbText
 10
-246.3259065063659
 20
204.0718729984982
 30
0.0
 40
12.0
  1
2
 41
0.9882352941176494
  7
dcStyle0
 72
     5
 11
-236.7259065063658
 21
204.0718729984982
 31
0.0
100
AcDbText
  0
ENDBLK
  5
7F
330
7D
100
AcDbEntity
  8
0
100
AcDbBlockEnd
  0
BLOCK
  5
81
330
80
100
AcDbEntity
  8
0
100
AcDbBlockBegin
  2
DC_GROUP_FC1100S_4
 70
     0
 10
0.0
 20
0.0
 30
0.0
  3
DC_GROUP_FC1100S_4
  1

  0
LINE
  5
C9
330
80
100
AcDbEntity
  8
Layer0240
  6
Continuous
 62
     9
370
    25
100
AcDbLine
 10
-163.7477899208234
 20
203.268758652476
 30
0.0
 11
-229.7954973836908
 21
240.8908704984134
 31
0.0
  0
INSERT
  5
CA
330
80
100
AcDbEntity
  8
Layer0240
 62
     9
100
AcDbBlockReference
  2
_OPEN30
 10
-163.7477899208234
 20
203.268758652476
 30
0.0
 41
9.000008422845859
 42
8.99996810467093
 50
330.3332847930535
  0
CIRCLE
  5
CB
330
80
100
AcDbEntity
  8
Layer0240
  6
Continuous
 62
     9
370
    25
100
AcDbCircle
 10
-241.5259065063659
 20
247.5727491125954
 30
0.0
 40
13.5
  0
TEXT
  5
CC
330
80
100
AcDbEntity
  8
Layer0240
 62
     4
100
AcDbText
 10
-246.3259065063659
 20
241.5727491125954
 30
0.0
 40
12.0
  1
1
 41
1.527272727272731
  7
dcStyle0
 72
     5
 11
-236.7259065063658
 21
241.5727491125954
 31
0.0
100
AcDbText
  0
ENDBLK
  5
82
330
80
100
AcDbEntity
  8
0
100
AcDbBlockEnd
  0
BLOCK
  5
84
330
83
100
AcDbEntity
  8
0
100
AcDbBlockBegin
  2
DC_GROUP_FC1100S_5
 70
     0
 10
0.0
 20
0.0
 30
0.0
  3
DC_GROUP_FC1100S_5
  1

  0
LINE
  5
CD
330
83
100
AcDbEntity
  8
Layer0240
  6
Continuous
 62
     7
370
    25
100
AcDbLine
 10
141.7322462194024
 20
-12.73124134752435
 30
0.0
 11
159.2554411251533
 21
-38.39231198954823
 31
0.0
  0
INSERT
  5
CE
330
83
100
AcDbEntity
  8
Layer0240
 62
     7
100
AcDbBlockReference
  2
_OPEN30
 10
141.7322462194024
 20
-12.73124134752435
 30
0.0
 41
9.000008422845859
 42
8.99996810467093
 50
124.328026503764
  0
LINE
  5
CF
330
83
100
AcDbEntity
  8
Layer0240
  6
Continuous
 62
     7
370
    25
100
AcDbLine
 10
159.2554411251533
 20
-38.39231198954823
 30
0.0
 11
207.2554411251534
 21
-38.39231198954828
 31
0.0
  0
TEXT
  5
D0
330
83
100
AcDbEntity
  8
Layer0240
 62
     7
100
AcDbText
 10
159.2554411251533
 20
-38.39231198954825
 30
0.0
 40
12.0
  1
ＰＪ1/2
 41
0.8842105263157894
  7
dcStyle0
 72
     5
 11
207.2554411251533
 21
-38.39231198954825
 31
0.0
100
AcDbText
  0
ENDBLK
  5
85
330
83
100
AcDbEntity
  8
0
100
AcDbBlockEnd
  0
BLOCK
  5
87
330
86
100
AcDbEntity
  8
0
100
AcDbBlockBegin
  2
*D6
 70
     1
 10
0.0
 20
0.0
 30
0.0
  3
*D6
  1

  0
LINE
  5
D1
330
86
100
AcDbEntity
  8
0
  6
Continuous
 62
     9
370
    25
100
AcDbLine
 10
200.7322462194023
 20
-12.73124134752431
 30
0.0
 11
200.7322462194023
 21
45.26875865247579
 31
0.0
  0
INSERT
  5
D2
330
86
100
AcDbEntity
  8
0
 62
     9
100
AcDbBlockReference
  2
_OPEN30
 10
200.7322462194023
 20
-12.73124134752431
 30
0.0
 41
9.000008422845859
 42
8.99996810467093
 50
270.0
  0
INSERT
  5
D3
330
86
100
AcDbEntity
  8
0
 62
     9
100
AcDbBlockReference
  2
_OPEN30
 10
200.7322462194023
 20
45.26875865247579
 30
0.0
 41
9.000008422845859
 42
8.99996810467093
 50
90.0
  0
LINE
  5
D4
330
86
100
AcDbEntity
  8
0
  6
Continuous
 62
     9
370
    25
100
AcDbLine
 10
153.9322462194037
 20
-12.73124134752432
 30
0.0
 11
203.7322462194023
 21
-12.73124134752431
 31
0.0
  0
LINE
  5
D5
330
86
100
AcDbEntity
  8
0
  6
Continuous
 62
     9
370
    25
100
AcDbLine
 10
167.2322462194024
 20
45.26875865247574
 30
0.0
 11
203.7322462194023
 21
45.2687586524758
 31
0.0
  0
MTEXT
  5
D6
330
86
100
AcDbEntity
  8
0
 62
     7
100
AcDbMText
 10
197.7322462194023
 20
16.26875865247574
 30
0.0
 40
12.0
 41
38.99999999999998
 71
     8
 72
     1
  1
\T1.00;58
  7
dcStyle0
 11
5.053215498074303E-16
 21
1.0
 31
0.0
 73
     1
 44
1.0
  0
ENDBLK
  5
88
330
86
100
AcDbEntity
  8
0
100
AcDbBlockEnd
  0
BLOCK
  5
8A
330
89
100
AcDbEntity
  8
0
100
AcDbBlockBegin
  2
*D7
 70
     1
 10
0.0
 20
0.0
 30
0.0
  3
*D7
  1

  0
LINE
  5
D7
330
89
100
AcDbEntity
  8
0
  6
Continuous
 62
     9
370
    13
100
AcDbLine
 10
230.7322462194023
 20
45.26875865247573
 30
0.0
 11
230.7322462194023
 21
196.7687586524757
 31
0.0
  0
INSERT
  5
D8
330
89
100
AcDbEntity
  8
0
 62
     9
100
AcDbBlockReference
  2
_OPEN30
 10
230.7322462194023
 20
45.26875865247573
 30
0.0
 41
9.000008422845859
 42
8.99996810467093
 50
270.0
  0
INSERT
  5
D9
330
89
100
AcDbEntity
  8
0
 62
     9
100
AcDbBlockReference
  2
_OPEN30
 10
230.7322462194023
 20
196.7687586524757
 30
0.0
 41
9.000008422845859
 42
8.99996810467093
 50
90.0
  0
LINE
  5
DA
330
89
100
AcDbEntity
  8
0
  6
Continuous
 62
     9
370
    13
100
AcDbLine
 10
167.2322462194024
 20
45.26875865247573
 30
0.0
 11
233.7322462194023
 21
45.26875865247573
 31
0.0
  0
LINE
  5
DB
330
89
100
AcDbEntity
  8
0
  6
Continuous
 62
     9
370
    13
100
AcDbLine
 10
153.1997617701688
 20
196.7687586524757
 30
0.0
 11
233.7322462194023
 21
196.7687586524757
 31
0.0
  0
TEXT
  5
DC
330
89
100
AcDbEntity
  8
0
 62
     7
100
AcDbText
 10
227.7322462194023
 20
97.01875865247573
 30
0.0
 40
12.0
  1
151.5
 50
90.0
 41
0.9655172413793105
  7
dcStyle0
 72
     5
 11
227.7322462194023
 21
145.0187586524757
 31
0.0
100
AcDbText
  0
ENDBLK
  5
8B
330
89
100
AcDbEntity
  8
0
100
AcDbBlockEnd
  0
BLOCK
  5
8D
330
8C
100
AcDbEntity
  8
0
100
AcDbBlockBegin
  2
*D8
 70
     1
 10
0.0
 20
0.0
 30
0.0
  3
*D8
  1

  0
LINE
  5
DD
330
8C
100
AcDbEntity
  8
0
  6
Continuous
 62
     9
370
    13
100
AcDbLine
 10
260.7322462194023
 20
45.26875865247573
 30
0.0
 11
260.7322462194023
 21
203.2687586524759
 31
0.0
  0
INSERT
  5
DE
330
8C
100
AcDbEntity
  8
0
 62
     9
100
AcDbBlockReference
  2
_OPEN30
 10
260.7322462194023
 20
45.26875865247573
 30
0.0
 41
9.000008422845859
 42
8.99996810467093
 50
270.0
  0
INSERT
  5
DF
330
8C
100
AcDbEntity
  8
0
 62
     9
100
AcDbBlockReference
  2
_OPEN30
 10
260.7322462194023
 20
203.2687586524759
 30
0.0
 41
9.000008422845859
 42
8.99996810467093
 50
90.0
  0
LINE
  5
E0
330
8C
100
AcDbEntity
  8
0
  6
Continuous
 62
     9
370
    13
100
AcDbLine
 10
167.2322462194024
 20
45.26875865247573
 30
0.0
 11
263.7322462194023
 21
45.26875865247573
 31
0.0
  0
LINE
  5
E1
330
8C
100
AcDbEntity
  8
0
  6
Continuous
 62
     9
370
    13
100
AcDbLine
 10
158.7322462194026
 20
203.2687586524758
 30
0.0
 11
263.7322462194023
 21
203.2687586524759
 31
0.0
  0
TEXT
  5
E2
330
8C
100
AcDbEntity
  8
0
 62
     7
100
AcDbText
 10
257.7322462194023
 20
109.8687586524758
 30
0.0
 40
12.0
  1
158
 50
90.0
 41
0.8842105263157886
  7
dcStyle0
 72
     5
 11
257.7322462194023
 21
138.6687586524758
 31
0.0
100
AcDbText
  0
ENDBLK
  5
8E
330
8C
100
AcDbEntity
  8
0
100
AcDbBlockEnd
  0
BLOCK
  5
90
330
8F
100
AcDbEntity
  8
0
100
AcDbBlockBegin
  2
*D9
 70
     1
 10
0.0
 20
0.0
 30
0.0
  3
*D9
  1

  0
LINE
  5
E3
330
8F
100
AcDbEntity
  8
0
  6
Continuous
 62
     9
370
    13
100
AcDbLine
 10
127.7322462194026
 20
232.2910320600824
 30
0.0
 11
155.7322462194026
 21
232.2910320600824
 31
0.0
  0
INSERT
  5
E4
330
8F
100
AcDbEntity
  8
0
 62
     9
100
AcDbBlockReference
  2
_OPEN30
 10
127.7322462194026
 20
232.2910320600824
 30
0.0
 41
9.000008422845859
 42
8.99996810467093
 50
180.0
  0
INSERT
  5
E5
330
8F
100
AcDbEntity
  8
0
 62
     9
100
AcDbBlockReference
  2
_OPEN30
 10
155.7322462194026
 20
232.2910320600824
 30
0.0
 41
9.000008422845859
 42
8.99996810467093
 50
360.0
  0
LINE
  5
E6
330
8F
100
AcDbEntity
  8
0
  6
Continuous
 62
     9
370
    13
100
AcDbLine
 10
127.7322462194026
 20
206.2687586524761
 30
0.0
 11
127.7322462194026
 21
235.2910320600824
 31
0.0
  0
LINE
  5
E7
330
8F
100
AcDbEntity
  8
0
  6
Continuous
 62
     9
370
    13
100
AcDbLine
 10
155.7322462194026
 20
206.2687586524759
 30
0.0
 11
155.7322462194026
 21
235.2910320600824
 31
0.0
  0
TEXT
  5
E8
330
8F
100
AcDbEntity
  8
0
 62
     7
100
AcDbText
 10
127.3322462194025
 20
235.2910320600824
 30
0.0
 40
12.0
  1
φ28
 41
0.9163636363636368
  7
dcStyle0
 72
     5
 11
156.1322462194026
 21
235.2910320600824
 31
0.0
100
AcDbText
  0
ENDBLK
  5
91
330
8F
100
AcDbEntity
  8
0
100
AcDbBlockEnd
  0
BLOCK
  5
93
330
92
100
AcDbEntity
  8
0
100
AcDbBlockBegin
  2
DC_GROUP_FC1100S_6
 70
     0
 10
0.0
 20
0.0
 30
0.0
  3
DC_GROUP_FC1100S_6
  1

  0
LINE
  5
E9
330
92
100
AcDbEntity
  8
Layer0240
  6
Continuous
 62
     9
370
    25
100
AcDbLine
 10
-57.06784090623442
 20
137.2227484168349
 30
0.0
 11
-25.60164497440317
 21
106.5210267201937
 31
0.0
  0
INSERT
  5
EA
330
92
100
AcDbEntity
  8
Layer0240
 62
     9
100
AcDbBlockReference
  2
_OPEN30
 10
-57.06784090623442
 20
137.2227484168349
 30
0.0
 41
9.000008422845859
 42
8.99996810467093
 50
135.7045264069691
  0
CIRCLE
  5
EB
330
92
100
AcDbEntity
  8
Layer0240
  6
Continuous
 62
     9
370
    25
100
AcDbCircle
 10
-15.93904823300576
 20
97.09318368940797
 30
0.0
 40
13.5
  0
TEXT
  5
EC
330
92
100
AcDbEntity
  8
Layer0240
 62
     4
100
AcDbText
 10
-20.73904823300576
 20
91.09318368940797
 30
0.0
 40
12.0
  1
4
 41
0.9333333333333336
  7
dcStyle0
 72
     5
 11
-11.13904823300576
 21
91.09318368940797
 31
0.0
100
AcDbText
  0
ENDBLK
  5
94
330
92
100
AcDbEntity
  8
0
100
AcDbBlockEnd
  0
BLOCK
  5
96
330
95
100
AcDbEntity
  8
0
100
AcDbBlockBegin
  2
DC_GROUP_FC1100S_7
 70
     0
 10
0.0
 20
0.0
 30
0.0
  3
DC_GROUP_FC1100S_7
  1

  0
LINE
  5
ED
330
95
100
AcDbEntity
  8
Layer0240
  6
Continuous
 62
     9
370
    25
100
AcDbLine
 10
-176.0907846452129
 20
48.26875865247612
 30
0.0
 11
-230.4095938037503
 21
85.69925847074472
 31
0.0
  0
INSERT
  5
EE
330
95
100
AcDbEntity
  8
Layer0240
 62
     9
100
AcDbBlockReference
  2
_OPEN30
 10
-176.0907846452129
 20
48.26875865247612
 30
0.0
 41
9.000008422845859
 42
8.99996810467093
 50
325.4296963208679
  0
CIRCLE
  5
EF
330
95
100
AcDbEntity
  8
Layer0240
  6
Continuous
 62
     9
370
    25
100
AcDbCircle
 10
-241.5259065063659
 20
93.35938848907138
 30
0.0
 40
13.5
  0
TEXT
  5
F0
330
95
100
AcDbEntity
  8
Layer0240
 62
     4
100
AcDbText
 10
-246.3259065063659
 20
87.35938848907138
 30
0.0
 40
12.0
  1
5
 41
0.9882352941176494
  7
dcStyle0
 72
     5
 11
-236.7259065063658
 21
87.35938848907138
 31
0.0
100
AcDbText
  0
ENDBLK
  5
97
330
95
100
AcDbEntity
  8
0
100
AcDbBlockEnd
  0
BLOCK
  5
99
330
98
100
AcDbEntity
  8
0
100
AcDbBlockBegin
  2
DC_GROUP_FC1100S_8
 70
     0
 10
0.0
 20
0.0
 30
0.0
  3
DC_GROUP_FC1100S_8
  1

  0
LINE
  5
F1
330
98
100
AcDbEntity
  8
0
  6
Continuous
 62
     9
370
    13
100
AcDbLine
 10
-178.0229484936621
 20
44.57328260319291
 30
0.0
 11
-228.5866656819987
 21
39.57877179051739
 31
0.0
  0
INSERT
  5
F2
330
98
100
AcDbEntity
  8
0
 62
     9
100
AcDbBlockReference
  2
_OPEN30
 10
-178.0229484936621
 20
44.57328260319291
 30
0.0
 41
9.000008422845859
 42
8.99996810467093
 50
5.641181715805986
  0
CIRCLE
  5
F3
330
98
100
AcDbEntity
  8
0
  6
Continuous
 62
     9
370
    13
100
AcDbCircle
 10
-242.0212852436739
 20
38.25174608125156
 30
0.0
 40
13.5
  0
TEXT
  5
F4
330
98
100
AcDbEntity
  8
0
 62
     4
100
AcDbText
 10
-246.2212852436739
 20
32.25174608125156
 30
0.0
 40
12.0
  1
6
 41
0.8647058823529389
  7
dcStyle0
 72
     5
 11
-237.8212852436739
 21
32.25174608125156
 31
0.0
100
AcDbText
  0
ENDBLK
  5
9A
330
98
100
AcDbEntity
  8
0
100
AcDbBlockEnd
  0
BLOCK
  5
9C
330
9B
100
AcDbEntity
  8
0
100
AcDbBlockBegin
  2
DC_GROUP_FC1100S_9
 70
     0
 10
0.0
 20
0.0
 30
0.0
  3
DC_GROUP_FC1100S_9
  1

  0
LINE
  5
F5
330
9B
100
AcDbEntity
  8
0
  6
Continuous
 62
     9
370
    13
100
AcDbLine
 10
-170.1592254328482
 20
14.44059319442089
 30
0.0
 11
-231.4737749612896
 21
-46.49141927195642
 31
0.0
  0
INSERT
  5
F6
330
9B
100
AcDbEntity
  8
0
 62
     9
100
AcDbBlockReference
  2
_OPEN30
 10
-170.1592254328482
 20
14.44059319442089
 30
0.0
 41
9.000008422845859
 42
8.99996810467093
 50
44.82070916951422
  0
CIRCLE
  5
F7
330
9B
100
AcDbEntity
  8
0
  6
Continuous
 62
     9
370
    13
100
AcDbCircle
 10
-241.0495410281615
 20
-56.0074428234481
 30
0.0
 40
13.5
  0
TEXT
  5
F8
330
9B
100
AcDbEntity
  8
0
 62
     4
100
AcDbText
 10
-245.2495410281615
 20
-62.0074428234481
 30
0.0
 40
12.0
  1
8
 41
0.8647058823529389
  7
dcStyle0
 72
     5
 11
-236.8495410281616
 21
-62.0074428234481
 31
0.0
100
AcDbText
  0
ENDBLK
  5
9D
330
9B
100
AcDbEntity
  8
0
100
AcDbBlockEnd
  0
BLOCK
  5
9F
330
9E
100
AcDbEntity
  8
0
100
AcDbBlockBegin
  2
DC_GROUP_FC1100S_10
 70
     0
 10
0.0
 20
0.0
 30
0.0
  3
DC_GROUP_FC1100S_10
  1

  0
LINE
  5
F9
330
9E
100
AcDbEntity
  8
0
  6
Continuous
 62
     9
370
    13
100
AcDbLine
 10
-50.89749656787529
 20
163.2687586524749
 30
0.0
 11
-26.43318758305092
 21
187.0566020309786
 31
0.0
  0
INSERT
  5
FA
330
9E
100
AcDbEntity
  8
0
 62
     9
100
AcDbBlockReference
  2
_OPEN30
 10
-50.89749656787529
 20
163.2687586524749
 30
0.0
 41
9.000008422845859
 42
8.99996810467093
 50
224.196800901496
  0
CIRCLE
  5
FB
330
9E
100
AcDbEntity
  8
0
  6
Continuous
 62
     9
370
    13
100
AcDbCircle
 10
-16.75436889283695
 20
196.4677905192603
 30
0.0
 40
13.5
  0
TEXT
  5
FC
330
9E
100
AcDbEntity
  8
0
 62
     4
100
AcDbText
 10
-20.95436889283695
 20
190.4677905192603
 30
0.0
 40
12.0
  1
3
 41
0.8647058823529411
  7
dcStyle0
 72
     5
 11
-12.55436889283695
 21
190.4677905192603
 31
0.0
100
AcDbText
  0
ENDBLK
  5
A0
330
9E
100
AcDbEntity
  8
0
100
AcDbBlockEnd
  0
BLOCK
  5
A2
330
A1
100
AcDbEntity
  8
0
100
AcDbBlockBegin
  2
*D15
 70
     1
 10
0.0
 20
0.0
 30
0.0
  3
*D15
  1

  0
LINE
  5
FD
330
A1
100
AcDbEntity
  8
0
  6
Continuous
 62
     9
370
    13
100
AcDbLine
 10
-157.1149967987883
 20
-45.32658663981619
 30
0.0
 11
-57.1149967987887
 21
-45.32658663981619
 31
0.0
  0
INSERT
  5
FE
330
A1
100
AcDbEntity
  8
0
 62
     9
100
AcDbBlockReference
  2
_OPEN30
 10
-157.1149967987883
 20
-45.32658663981619
 30
0.0
 41
9.000008422845859
 42
8.99996810467093
 50
180.0
  0
INSERT
  5
FF
330
A1
100
AcDbEntity
  8
0
 62
     9
100
AcDbBlockReference
  2
_OPEN30
 10
-57.1149967987887
 20
-45.32658663981619
 30
0.0
 41
9.000008422845859
 42
8.99996810467093
 50
360.0
  0
LINE
  5
100
330
A1
100
AcDbEntity
  8
0
  6
Continuous
 62
     9
370
    13
100
AcDbLine
 10
-157.1149967987883
 20
-25.90029816091436
 30
0.0
 11
-157.1149967987883
 21
-48.32658663981619
 31
0.0
  0
LINE
  5
101
330
A1
100
AcDbEntity
  8
0
  6
Continuous
 62
     9
370
    13
100
AcDbLine
 10
-57.1149967987887
 20
126.0209188329055
 30
0.0
 11
-57.1149967987887
 21
-48.32658663981619
 31
0.0
  0
TEXT
  5
102
330
A1
100
AcDbEntity
  8
0
 62
     7
100
AcDbText
 10
-121.5149967987885
 20
-42.32658663981619
 30
0.0
 40
12.0
  1
100
 41
0.8842105263157899
  7
dcStyle0
 72
     5
 11
-92.71499679878849
 21
-42.32658663981619
 31
0.0
100
AcDbText
  0
ENDBLK
  5
A3
330
A1
100
AcDbEntity
  8
0
100
AcDbBlockEnd
  0
BLOCK
  5
A5
330
A4
100
AcDbEntity
  8
0
100
AcDbBlockBegin
  2
*D16
 70
     1
 10
0.0
 20
0.0
 30
0.0
  3
*D16
  1

  0
LINE
  5
103
330
A4
100
AcDbEntity
  8
0
  6
Continuous
 62
     9
370
    13
100
AcDbLine
 10
-157.1149967987883
 20
-72.79348285363666
 30
0.0
 11
-45.11499679878874
 21
-72.79348285363666
 31
0.0
  0
INSERT
  5
104
330
A4
100
AcDbEntity
  8
0
 62
     9
100
AcDbBlockReference
  2
_OPEN30
 10
-157.1149967987883
 20
-72.79348285363666
 30
0.0
 41
9.000008422845859
 42
8.99996810467093
 50
180.0
  0
INSERT
  5
105
330
A4
100
AcDbEntity
  8
0
 62
     9
100
AcDbBlockReference
  2
_OPEN30
 10
-45.11499679878874
 20
-72.79348285363666
 30
0.0
 41
9.000008422845859
 42
8.99996810467093
 50
360.0
  0
LINE
  5
106
330
A4
100
AcDbEntity
  8
0
  6
Continuous
 62
     9
370
    13
100
AcDbLine
 10
-157.1149967987883
 20
-25.90029816091436
 30
0.0
 11
-157.1149967987883
 21
-75.79348285363666
 31
0.0
  0
LINE
  5
107
330
A4
100
AcDbEntity
  8
0
  6
Continuous
 62
     9
370
    13
100
AcDbLine
 10
-45.11499679878874
 20
138.2687586524749
 30
0.0
 11
-45.11499679878874
 21
-75.79348285363666
 31
0.0
  0
TEXT
  5
108
330
A4
100
AcDbEntity
  8
0
 62
     7
100
AcDbText
 10
-115.5149967987885
 20
-69.79348285363666
 30
0.0
 40
12.0
  1
112
 41
0.8842105263157899
  7
dcStyle0
 72
     5
 11
-86.71499679878852
 21
-69.79348285363666
 31
0.0
100
AcDbText
  0
ENDBLK
  5
A6
330
A4
100
AcDbEntity
  8
0
100
AcDbBlockEnd
  0
BLOCK
  5
A8
330
A7
100
AcDbEntity
  8
0
100
AcDbBlockBegin
  2
*D17
 70
     1
 10
0.0
 20
0.0
 30
0.0
  3
*D17
  1

  0
LINE
  5
109
330
A7
100
AcDbEntity
  8
0
  6
Continuous
 62
     9
370
    13
100
AcDbLine
 10
23.26756103152374
 20
45.26875865247592
 30
0.0
 11
23.26756103152374
 21
137.2687586524763
 31
0.0
  0
INSERT
  5
10A
330
A7
100
AcDbEntity
  8
0
 62
     9
100
AcDbBlockReference
  2
_OPEN30
 10
23.26756103152374
 20
45.26875865247592
 30
0.0
 41
9.000008422845859
 42
8.99996810467093
 50
270.0
  0
INSERT
  5
10B
330
A7
100
AcDbEntity
  8
0
 62
     9
100
AcDbBlockReference
  2
_OPEN30
 10
23.26756103152374
 20
137.2687586524763
 30
0.0
 41
9.000008422845859
 42
8.99996810467093
 50
90.0
  0
LINE
  5
10C
330
A7
100
AcDbEntity
  8
0
  6
Continuous
 62
     9
370
    13
100
AcDbLine
 10
-131.5229484936621
 20
45.26875865247573
 30
0.0
 11
26.26756103152374
 21
45.26875865247592
 31
0.0
  0
LINE
  5
10D
330
A7
100
AcDbEntity
  8
0
  6
Continuous
 62
     9
370
    13
100
AcDbLine
 10
-45.52294849366197
 20
137.2687586524762
 30
0.0
 11
26.26756103152374
 21
137.2687586524763
 31
0.0
  0
TEXT
  5
10E
330
A7
100
AcDbEntity
  8
0
 62
     7
100
AcDbText
 10
20.26756103152374
 20
81.6687586524761
 30
0.0
 40
12.0
  1
92
 50
90.0
 41
0.908108108108109
  7
dcStyle0
 72
     5
 11
20.26756103152374
 21
100.8687586524761
 31
0.0
100
AcDbText
  0
ENDBLK
  5
A9
330
A7
100
AcDbEntity
  8
0
100
AcDbBlockEnd
  0
BLOCK
  5
AB
330
AA
100
AcDbEntity
  8
0
100
AcDbBlockBegin
  2
*D18
 70
     1
 10
0.0
 20
0.0
 30
0.0
  3
*D18
  1

  0
LINE
  5
10F
330
AA
100
AcDbEntity
  8
0
  6
Continuous
 62
     9
370
    13
100
AcDbLine
 10
151.9974338092452
 20
148.31579473342
 30
0.0
 11
131.4670586295616
 21
156.2217225715319
 31
0.0
  0
LINE
  5
110
330
AA
100
AcDbEntity
  8
0
  6
Continuous
 62
     9
370
    13
100
AcDbLine
 10
83.62221894235228
 20
174.6460254243812
 30
0.0
 11
131.4670586295616
 21
156.2217225715319
 31
0.0
  0
INSERT
  5
111
330
AA
100
AcDbEntity
  8
0
 62
     9
100
AcDbBlockReference
  2
_OPEN30
 10
131.4670586295616
 20
156.2217225715319
 30
0.0
 41
9.000008422845859
 42
8.99996810467093
 50
338.9390814843205
  0
LINE
  5
112
330
AA
100
AcDbEntity
  8
0
  6
Continuous
 62
     9
370
    13
100
AcDbLine
 10
165.9954168863022
 20
142.9253893892528
 30
0.0
 11
151.9974338092452
 21
148.31579473342
 31
0.0
  0
INSERT
  5
113
330
AA
100
AcDbEntity
  8
0
 62
     9
100
AcDbBlockReference
  2
_OPEN30
 10
151.9974338092452
 20
148.31579473342
 30
0.0
 41
9.000008422845859
 42
8.99996810467093
 50
158.9390814843205
  0
TEXT
  5
114
330
AA
100
AcDbEntity
  8
0
 62
     7
100
AcDbText
 10
87.49989662659712
 20
176.3675409709591
 30
0.0
 40
12.0
  1
φ22
 50
338.9390814843205
 41
0.9163636363636363
  7
dcStyle0
 72
     5
 11
114.3760241345465
 21
166.0179627101581
 31
0.0
100
AcDbText
  0
ENDBLK
  5
AC
330
AA
100
AcDbEntity
  8
0
100
AcDbBlockEnd
  0
BLOCK
  5
AE
330
AD
100
AcDbEntity
  8
0
100
AcDbBlockBegin
  2
*D19
 70
     1
 10
0.0
 20
0.0
 30
0.0
  3
*D19
  1

  0
LINE
  5
115
330
AD
100
AcDbEntity
  8
0
  6
Continuous
 62
     9
370
    13
100
AcDbLine
 10
145.2022845142091
 20
194.7790767099071
 30
0.0
 11
138.2622079245985
 21
198.7584405950448
 31
0.0
  0
LINE
  5
116
330
AD
100
AcDbEntity
  8
0
  6
Continuous
 62
     9
370
    13
100
AcDbLine
 10
97.59975411281661
 20
222.0738461370988
 30
0.0
 11
138.2622079245985
 21
198.7584405950448
 31
0.0
  0
INSERT
  5
117
330
AD
100
AcDbEntity
  8
0
 62
     9
100
AcDbBlockReference
  2
_OPEN30
 10
138.2622079245985
 20
198.7584405950448
 30
0.0
 41
9.000008422845859
 42
8.99996810467093
 50
330.170513059999
  0
LINE
  5
118
330
AD
100
AcDbEntity
  8
0
  6
Continuous
 62
     9
370
    13
100
AcDbLine
 10
158.2149281197291
 20
187.3177694252738
 30
0.0
 11
145.2022845142091
 21
194.7790767099071
 31
0.0
  0
INSERT
  5
119
330
AD
100
AcDbEntity
  8
0
 62
     9
100
AcDbBlockReference
  2
_OPEN30
 10
145.2022845142091
 20
194.7790767099071
 30
0.0
 41
9.000008422845859
 42
8.99996810467093
 50
150.1705130599989
  0
TEXT
  5
11A
330
AD
100
AcDbEntity
  8
0
 62
     7
100
AcDbText
 10
101.6945442908473
 20
223.1841134012761
 30
0.0
 40
12.0
  1
φ8
 50
330.170513059999
 41
0.96
  7
dcStyle0
 72
     5
 11
118.3507281059128
 21
213.6336400769455
 31
0.0
100
AcDbText
  0
ENDBLK
  5
AF
330
AD
100
AcDbEntity
  8
0
100
AcDbBlockEnd
  0
BLOCK
  5
B1
330
B0
100
AcDbEntity
  8
0
100
AcDbBlockBegin
  2
*D20
 70
     1
 10
0.0
 20
0.0
 30
0.0
  3
*D20
  1

  0
ARC
  5
11B
330
B0
100
AcDbEntity
  8
0
  6
Continuous
 62
     9
370
    13
100
AcDbCircle
 10
-157.1149967987892
 20
323.2093992868171
 30
0.0
 40
48.01505205651597
100
AcDbArc
 50
359.9999999999995
 51
90.00000000000016
  0
INSERT
  5
11C
330
B0
100
AcDbEntity
  8
0
 62
     9
100
AcDbBlockReference
  2
_OPEN30
 10
-109.0999447422733
 20
323.2093992868167
 30
0.0
 41
9.000008422845859
 42
8.99996810467093
 50
275.3697988586976
  0
INSERT
  5
11D
330
B0
100
AcDbEntity
  8
0
 62
     9
100
AcDbBlockReference
  2
_OPEN30
 10
-157.1149967987893
 20
371.2244513433331
 30
0.0
 41
9.000008422845859
 42
8.99996810467093
 50
174.6302011413019
  0
MTEXT
  5
11E
330
B0
100
AcDbEntity
  8
0
 62
     7
100
AcDbMText
 10
-121.041907547042
 20
359.2824885385643
 30
0.0
 40
12.0
 41
75.00000000000001
 71
     8
 72
     1
  1
\T1.00;（90°）
  7
dcStyle0
 11
0.7071067811865455
 21
-0.7071067811865496
 31
0.0
 73
     1
 44
1.0
  0
ENDBLK
  5
B2
330
B0
100
AcDbEntity
  8
0
100
AcDbBlockEnd
  0
BLOCK
  5
B4
330
B3
100
AcDbEntity
  8
0
100
AcDbBlockBegin
  2
*D21
 70
     1
 10
0.0
 20
0.0
 30
0.0
  3
*D21
  1

  0
LINE
  5
11F
330
B3
100
AcDbEntity
  8
0
  6
Continuous
 62
     9
370
    13
100
AcDbLine
 10
119.2322462194024
 20
-21.29637096774193
 30
0.0
 11
164.2322462194024
 21
-21.29637096774193
 31
0.0
  0
LINE
  5
120
330
B3
100
AcDbEntity
  8
0
  6
Continuous
 62
     9
370
    13
100
AcDbLine
 10
119.2322462194024
 20
42.26875865247616
 30
0.0
 11
119.2322462194024
 21
-24.29637096774193
 31
0.0
  0
LINE
  5
121
330
B3
100
AcDbEntity
  8
0
  6
Continuous
 62
     9
370
    13
100
AcDbLine
 10
164.2322462194024
 20
42.26875865247573
 30
0.0
 11
164.2322462194024
 21
-24.29637096774193
 31
0.0
  0
LINE
  5
122
330
B3
100
AcDbEntity
  8
0
  6
Continuous
 62
     9
370
    13
100
AcDbLine
 10
75.7389062194024
 20
-21.29637096774193
 30
0.0
 11
119.2322462194024
 21
-21.29637096774193
 31
0.0
  0
INSERT
  5
123
330
B3
100
AcDbEntity
  8
0
 62
     9
100
AcDbBlockReference
  2
_OPEN30
 10
119.2322462194024
 20
-21.29637096774193
 30
0.0
 41
9.000008422845859
 42
8.99996810467093
 50
360.0
  0
LINE
  5
124
330
B3
100
AcDbEntity
  8
0
  6
Continuous
 62
     9
370
    13
100
AcDbLine
 10
179.2322462194024
 20
-21.29637096774193
 30
0.0
 11
164.2322462194024
 21
-21.29637096774193
 31
0.0
  0
INSERT
  5
125
330
B3
100
AcDbEntity
  8
0
 62
     9
100
AcDbBlockReference
  2
_OPEN30
 10
164.2322462194024
 20
-21.29637096774193
 30
0.0
 41
9.000008422845859
 42
8.99996810467093
 50
180.0
  0
TEXT
  5
126
330
B3
100
AcDbEntity
  8
0
 62
     7
100
AcDbText
 10
78.7389062194024
 20
-18.29637096774193
 30
0.0
 40
12.0
  1
φ45
 41
0.9163636363636364
  7
dcStyle0
 72
     5
 11
107.5389062194024
 21
-18.29637096774193
 31
0.0
100
AcDbText
  0
ENDBLK
  5
B5
330
B3
100
AcDbEntity
  8
0
100
AcDbBlockEnd
  0
BLOCK
  5
B8
330
B7
100
AcDbEntity
  8
0
100
AcDbBlockBegin
  2
_OPEN30
 70
     0
 10
0.0
 20
0.0
 30
0.0
  3
_OPEN30
  1

  0
LINE
  5
BA
330
B7
100
AcDbEntity
  8
0
  6
ByBlock
 62
     0
370
    -2
100
AcDbLine
 10
-1.0
 20
0.267949
 30
0.0
 11
0.0
 21
0.0
 31
0.0
  0
LINE
  5
BB
330
B7
100
AcDbEntity
  8
0
  6
ByBlock
 62
     0
370
    -2
100
AcDbLine
 10
0.0
 20
0.0
 30
0.0
 11
-1.0
 21
-0.267949
 31
0.0
  0
LINE
  5
BC
330
B7
100
AcDbEntity
  8
0
  6
ByBlock
 62
     0
370
    -2
100
AcDbLine
 10
0.0
 20
0.0
 30
0.0
 11
-1.0
 21
0.0
 31
0.0
  0
ENDBLK
  5
B9
330
B7
100
AcDbEntity
  8
0
100
AcDbBlockEnd
  0
ENDSEC
  0
SECTION
  2
ENTITIES
  0
LINE
  5
127
330
1F
100
AcDbEntity
  8
ZUWAKU
  6
Continuous
 62
    30
370
    25
100
AcDbLine
 10
-169.9125000000003
 20
-412.6741298811548
 30
0.0
 11
-168.2250000000003
 21
-407.9866298811548
 31
0.0
  0
LINE
  5
128
330
1F
100
AcDbEntity
  8
ZUWAKU
  6
Continuous
 62
    30
370
    25
100
AcDbLine
 10
-182.4000000000003
 20
-412.6741298811548
 30
0.0
 11
-179.7750000000003
 21
-405.5491298811548
 31
0.0
  0
LINE
  5
129
330
1F
100
AcDbEntity
  8
ZUWAKU
  6
Continuous
 62
    30
370
    25
100
AcDbLine
 10
-184.8375000000003
 20
-402.9241298811548
 30
0.0
 11
-185.7750000000003
 21
-405.5491298811548
 31
0.0
  0
LINE
  5
12A
330
1F
100
AcDbEntity
  8
ZUWAKU
  6
Continuous
 62
    30
370
    25
100
AcDbLine
 10
-176.2125000000003
 20
-412.6741298811548
 30
0.0
 11
-173.4000000000003
 21
-404.4241298811548
 31
0.0
  0
LINE
  5
12B
330
1F
100
AcDbEntity
  8
ZUWAKU
  6
Continuous
 62
    30
370
    25
100
AcDbLine
 10
-136.8750000000003
 20
-412.6741298811548
 30
0.0
 11
-140.0625000000003
 21
-407.4241298811548
 31
0.0
  0
LINE
  5
12C
330
1F
100
AcDbEntity
  8
ZUWAKU
  6
Continuous
 62
    30
370
    25
100
AcDbLine
 10
-184.8375000000003
 20
-402.9241298811548
 30
0.0
 11
-181.2750000000003
 21
-402.9241298811548
 31
0.0
  0
LINE
  5
12D
330
1F
100
AcDbEntity
  8
ZUWAKU
  6
Continuous
 62
    30
370
    25
100
AcDbLine
 10
-165.7875000000003
 20
-401.2366298811548
 30
0.0
 11
-159.6000000000003
 21
-401.2366298811548
 31
0.0
  0
LINE
  5
12E
330
1F
100
AcDbEntity
  8
ZUWAKU
  6
Continuous
 62
    30
370
    25
100
AcDbLine
 10
-152.4750000000003
 20
-400.6741298811548
 30
0.0
 11
-150.6000000000003
 21
-400.6741298811548
 31
0.0
  0
LINE
  5
12F
330
1F
100
AcDbEntity
  8
ZUWAKU
  6
Continuous
 62
    30
370
    25
100
AcDbLine
 10
-164.4750000000003
 20
-397.8616298811548
 30
0.0
 11
-165.7875000000003
 21
-401.2366298811548
 31
0.0
  0
LINE
  5
130
330
1F
100
AcDbEntity
  8
ZUWAKU
  6
Continuous
 62
    30
370
    25
100
AcDbLine
 10
-158.4750000000003
 20
-397.8616298811548
 30
0.0
 11
-159.6000000000003
 21
-401.2366298811548
 31
0.0
  0
LINE
  5
131
330
1F
100
AcDbEntity
  8
ZUWAKU
  6
Continuous
 62
    30
370
    25
100
AcDbLine
 10
-182.4000000000003
 20
-412.6741298811548
 30
0.0
 11
-176.2125000000003
 21
-412.6741298811548
 31
0.0
  0
LINE
  5
132
330
1F
100
AcDbEntity
  8
ZUWAKU
  6
Continuous
 62
    30
370
    25
100
AcDbLine
 10
-172.8375000000003
 20
-397.8616298811548
 30
0.0
 11
-165.9000000000003
 21
-397.8616298811548
 31
0.0
  0
LINE
  5
133
330
1F
100
AcDbEntity
  8
ZUWAKU
  6
Continuous
 62
    30
370
    25
100
AcDbLine
 10
-142.2527230782136
 20
-401.2366298811548
 30
0.0
 11
-148.8750000000003
 21
-401.2366298811548
 31
0.0
  0
LINE
  5
134
330
1F
100
AcDbEntity
  8
ZUWAKU
  6
Continuous
 62
    30
370
    25
100
AcDbLine
 10
-135.0000000000003
 20
-397.8616298811548
 30
0.0
 11
-147.7500000000003
 21
-397.8616298811548
 31
0.0
  0
LINE
  5
135
330
1F
100
AcDbEntity
  8
ZUWAKU
  6
Continuous
 62
    30
370
    25
100
AcDbLine
 10
-185.7750000000003
 20
-405.5491298811548
 30
0.0
 11
-179.7750000000003
 21
-405.5491298811548
 31
0.0
  0
LINE
  5
136
330
1F
100
AcDbEntity
  8
ZUWAKU
  6
Continuous
 62
    30
370
    25
100
AcDbLine
 10
-169.9125000000003
 20
-412.6741298811548
 30
0.0
 11
-159.9750000000003
 21
-412.6741298811548
 31
0.0
  0
LINE
  5
137
330
1F
100
AcDbEntity
  8
ZUWAKU
  6
Continuous
 62
    30
370
    25
100
AcDbLine
 10
-168.2250000000003
 20
-407.9866298811548
 30
0.0
 11
-159.2250000000003
 21
-407.9866298811548
 31
0.0
  0
LINE
  5
138
330
1F
100
AcDbEntity
  8
ZUWAKU
  6
Continuous
 62
    30
370
    25
100
AcDbLine
 10
-136.8750000000003
 20
-412.6741298811548
 30
0.0
 11
-141.5625000000003
 21
-412.6741298811548
 31
0.0
  0
LINE
  5
139
330
1F
100
AcDbEntity
  8
ZUWAKU
  6
Continuous
 62
    30
370
    25
100
AcDbLine
 10
-148.8750000000003
 20
-401.2366298811548
 30
0.0
 11
-147.7500000000003
 21
-397.8616298811548
 31
0.0
  0
LINE
  5
13A
330
1F
100
AcDbEntity
  8
ZUWAKU
  6
Continuous
 62
    30
370
    25
100
AcDbLine
 10
-214.0875000000003
 20
-397.8616298811548
 30
0.0
 11
-217.2750000000003
 21
-406.8616298811548
 31
0.0
  0
LINE
  5
13B
330
1F
100
AcDbEntity
  8
ZUWAKU
  6
Continuous
 62
    30
370
    25
100
AcDbLine
 10
-217.2750000000003
 20
-406.8616298811548
 30
0.0
 11
-212.9625000000003
 21
-406.8616298811548
 31
0.0
  0
LINE
  5
13C
330
1F
100
AcDbEntity
  8
ZUWAKU
  6
Continuous
 62
    30
370
    25
100
AcDbLine
 10
-212.9625000000003
 20
-406.8616298811548
 30
0.0
 11
-209.5875000000003
 21
-397.8616298811548
 31
0.0
  0
LINE
  5
13D
330
1F
100
AcDbEntity
  8
ZUWAKU
  6
Continuous
 62
    30
370
    25
100
AcDbLine
 10
-209.5875000000003
 20
-397.8616298811548
 30
0.0
 11
-214.0875000000003
 21
-397.8616298811548
 31
0.0
  0
LINE
  5
13E
330
1F
100
AcDbEntity
  8
ZUWAKU
  6
Continuous
 62
    30
370
    25
100
AcDbLine
 10
-156.9750000000003
 20
-406.8616298811548
 30
0.0
 11
-154.9125000000003
 21
-405.1741298811548
 31
0.0
  0
LINE
  5
13F
330
1F
100
AcDbEntity
  8
ZUWAKU
  6
Continuous
 62
    30
370
    25
100
AcDbLine
 10
-154.9125000000003
 20
-405.1741298811548
 30
0.0
 11
-153.4125000000003
 21
-403.1116298811548
 31
0.0
  0
LINE
  5
140
330
1F
100
AcDbEntity
  8
ZUWAKU
  6
Continuous
 62
    30
370
    25
100
AcDbLine
 10
-153.4125000000003
 20
-403.1116298811548
 30
0.0
 11
-152.4750000000003
 21
-400.6741298811548
 31
0.0
  0
LINE
  5
141
330
1F
100
AcDbEntity
  8
ZUWAKU
  6
Continuous
 62
    30
370
    25
100
AcDbLine
 10
-198.6750000000003
 20
-397.8616298811548
 30
0.0
 11
-184.9875000000003
 21
-397.8616298811548
 31
0.0
  0
LINE
  5
142
330
1F
100
AcDbEntity
  8
ZUWAKU
  6
Continuous
 62
    30
370
    25
100
AcDbLine
 10
-184.9875000000003
 20
-397.8616298811548
 30
0.0
 11
-186.1125000000003
 21
-401.2366298811548
 31
0.0
  0
LINE
  5
143
330
1F
100
AcDbEntity
  8
ZUWAKU
  6
Continuous
 62
    30
370
    25
100
AcDbLine
 10
-184.9875000000003
 20
-397.8616298811548
 30
0.0
 11
-186.1125000000003
 21
-401.2366298811548
 31
0.0
  0
LINE
  5
144
330
1F
100
AcDbEntity
  8
ZUWAKU
  6
Continuous
 62
    30
370
    25
100
AcDbLine
 10
-186.1125000000003
 20
-401.2366298811548
 30
0.0
 11
-199.8000000000003
 21
-401.2366298811548
 31
0.0
  0
LINE
  5
145
330
1F
100
AcDbEntity
  8
ZUWAKU
  6
Continuous
 62
    30
370
    25
100
AcDbLine
 10
-199.8000000000003
 20
-401.2366298811548
 30
0.0
 11
-198.6750000000003
 21
-397.8616298811548
 31
0.0
  0
LINE
  5
146
330
1F
100
AcDbEntity
  8
ZUWAKU
  6
Continuous
 62
    30
370
    25
100
AcDbLine
 10
-199.8000000000003
 20
-401.2366298811548
 30
0.0
 11
-198.6750000000003
 21
-397.8616298811548
 31
0.0
  0
LINE
  5
147
330
1F
100
AcDbEntity
  8
ZUWAKU
  6
Continuous
 62
    30
370
    25
100
AcDbLine
 10
-184.9875000000003
 20
-397.8616298811548
 30
0.0
 11
-198.6750000000003
 21
-397.8616298811548
 31
0.0
  0
LINE
  5
148
330
1F
100
AcDbEntity
  8
ZUWAKU
  6
Continuous
 62
    30
370
    25
100
AcDbLine
 10
-198.6750000000003
 20
-397.8616298811548
 30
0.0
 11
-199.8000000000003
 21
-401.2366298811548
 31
0.0
  0
LINE
  5
149
330
1F
100
AcDbEntity
  8
ZUWAKU
  6
Continuous
 62
    30
370
    25
100
AcDbLine
 10
-199.8000000000003
 20
-401.2366298811548
 30
0.0
 11
-186.1125000000003
 21
-401.2366298811548
 31
0.0
  0
LINE
  5
14A
330
1F
100
AcDbEntity
  8
ZUWAKU
  6
Continuous
 62
    30
370
    25
100
AcDbLine
 10
-192.8625000000003
 20
-412.2991298811548
 30
0.0
 11
-191.3625000000003
 21
-411.5491298811548
 31
0.0
  0
LINE
  5
14B
330
1F
100
AcDbEntity
  8
ZUWAKU
  6
Continuous
 62
    30
370
    25
100
AcDbLine
 10
-191.3625000000003
 20
-411.5491298811548
 30
0.0
 11
-190.2375000000003
 21
-410.4241298811548
 31
0.0
  0
LINE
  5
14C
330
1F
100
AcDbEntity
  8
ZUWAKU
  6
Continuous
 62
    30
370
    25
100
AcDbLine
 10
-190.2375000000003
 20
-410.4241298811548
 30
0.0
 11
-188.9250000000003
 21
-409.1116298811548
 31
0.0
  0
LINE
  5
14D
330
1F
100
AcDbEntity
  8
ZUWAKU
  6
Continuous
 62
    30
370
    25
100
AcDbLine
 10
-188.9250000000003
 20
-409.1116298811548
 30
0.0
 11
-186.6750000000003
 21
-402.9241298811548
 31
0.0
  0
LINE
  5
14E
330
1F
100
AcDbEntity
  8
ZUWAKU
  6
Continuous
 62
    30
370
    25
100
AcDbLine
 10
-186.6750000000003
 20
-402.9241298811548
 30
0.0
 11
-200.1750000000003
 21
-402.9241298811548
 31
0.0
  0
LINE
  5
14F
330
1F
100
AcDbEntity
  8
ZUWAKU
  6
Continuous
 62
    30
370
    25
100
AcDbLine
 10
-200.1750000000003
 20
-402.9241298811548
 30
0.0
 11
-200.9250000000003
 21
-405.5491298811548
 31
0.0
  0
LINE
  5
150
330
1F
100
AcDbEntity
  8
ZUWAKU
  6
Continuous
 62
    30
370
    25
100
AcDbLine
 10
-200.9250000000003
 20
-405.5491298811548
 30
0.0
 11
-193.0500000000003
 21
-405.5491298811548
 31
0.0
  0
LINE
  5
151
330
1F
100
AcDbEntity
  8
ZUWAKU
  6
Continuous
 62
    30
370
    25
100
AcDbLine
 10
-193.0500000000003
 20
-405.5491298811548
 30
0.0
 11
-193.4250000000003
 21
-406.8616298811548
 31
0.0
  0
LINE
  5
152
330
1F
100
AcDbEntity
  8
ZUWAKU
  6
Continuous
 62
    30
370
    25
100
AcDbLine
 10
-193.4250000000003
 20
-406.8616298811548
 30
0.0
 11
-194.3625000000003
 21
-407.9866298811548
 31
0.0
  0
LINE
  5
153
330
1F
100
AcDbEntity
  8
ZUWAKU
  6
Continuous
 62
    30
370
    25
100
AcDbLine
 10
-194.3625000000003
 20
-407.9866298811548
 30
0.0
 11
-195.3000000000003
 21
-408.9241298811548
 31
0.0
  0
LINE
  5
154
330
1F
100
AcDbEntity
  8
ZUWAKU
  6
Continuous
 62
    30
370
    25
100
AcDbLine
 10
-195.3000000000003
 20
-408.9241298811548
 30
0.0
 11
-196.6125000000003
 21
-409.8616298811548
 31
0.0
  0
LINE
  5
155
330
1F
100
AcDbEntity
  8
ZUWAKU
  6
Continuous
 62
    30
370
    25
100
AcDbLine
 10
-196.6125000000003
 20
-409.8616298811548
 30
0.0
 11
-202.8000000000003
 21
-409.8616298811548
 31
0.0
  0
LINE
  5
156
330
1F
100
AcDbEntity
  8
ZUWAKU
  6
Continuous
 62
    30
370
    25
100
AcDbLine
 10
-202.8000000000003
 20
-409.8616298811548
 30
0.0
 11
-203.9250000000003
 21
-412.6741298811548
 31
0.0
  0
LINE
  5
157
330
1F
100
AcDbEntity
  8
ZUWAKU
  6
Continuous
 62
    30
370
    25
100
AcDbLine
 10
-215.9625000000003
 20
-412.6741298811548
 30
0.0
 11
-215.0250000000003
 21
-409.8616298811548
 31
0.0
  0
LINE
  5
158
330
1F
100
AcDbEntity
  8
ZUWAKU
  6
Continuous
 62
    30
370
    25
100
AcDbLine
 10
-215.0250000000003
 20
-409.8616298811548
 30
0.0
 11
-213.3375000000003
 21
-409.8616298811548
 31
0.0
  0
LINE
  5
159
330
1F
100
AcDbEntity
  8
ZUWAKU
  6
Continuous
 62
    30
370
    25
100
AcDbLine
 10
-213.3375000000003
 20
-409.8616298811548
 30
0.0
 11
-211.8375000000003
 21
-409.6741298811548
 31
0.0
  0
LINE
  5
15A
330
1F
100
AcDbEntity
  8
ZUWAKU
  6
Continuous
 62
    30
370
    25
100
AcDbLine
 10
-211.8375000000003
 20
-409.6741298811548
 30
0.0
 11
-210.3375000000003
 21
-408.9241298811548
 31
0.0
  0
LINE
  5
15B
330
1F
100
AcDbEntity
  8
ZUWAKU
  6
Continuous
 62
    30
370
    25
100
AcDbLine
 10
-210.3375000000003
 20
-408.9241298811548
 30
0.0
 11
-209.4000000000003
 21
-407.4241298811548
 31
0.0
  0
LINE
  5
15C
330
1F
100
AcDbEntity
  8
ZUWAKU
  6
Continuous
 62
    30
370
    25
100
AcDbLine
 10
-209.4000000000003
 20
-407.4241298811548
 30
0.0
 11
-205.8375000000003
 21
-397.8616298811548
 31
0.0
  0
LINE
  5
15D
330
1F
100
AcDbEntity
  8
ZUWAKU
  6
Continuous
 62
    30
370
    25
100
AcDbLine
 10
-205.8375000000003
 20
-397.8616298811548
 30
0.0
 11
-200.7750000000003
 21
-397.8616298811548
 31
0.0
  0
LINE
  5
15E
330
1F
100
AcDbEntity
  8
ZUWAKU
  6
Continuous
 62
    30
370
    25
100
AcDbLine
 10
-200.7750000000003
 20
-397.8616298811548
 30
0.0
 11
-204.5250000000003
 21
-408.9241298811548
 31
0.0
  0
LINE
  5
15F
330
1F
100
AcDbEntity
  8
ZUWAKU
  6
Continuous
 62
    30
370
    25
100
AcDbLine
 10
-204.5250000000003
 20
-408.9241298811548
 30
0.0
 11
-206.0250000000003
 21
-410.4241298811548
 31
0.0
  0
LINE
  5
160
330
1F
100
AcDbEntity
  8
ZUWAKU
  6
Continuous
 62
    30
370
    25
100
AcDbLine
 10
-206.0250000000003
 20
-410.4241298811548
 30
0.0
 11
-207.5250000000003
 21
-411.7366298811548
 31
0.0
  0
LINE
  5
161
330
1F
100
AcDbEntity
  8
ZUWAKU
  6
Continuous
 62
    30
370
    25
100
AcDbLine
 10
-207.5250000000003
 20
-411.7366298811548
 30
0.0
 11
-209.4000000000003
 21
-412.4866298811548
 31
0.0
  0
LINE
  5
162
330
1F
100
AcDbEntity
  8
ZUWAKU
  6
Continuous
 62
    30
370
    25
100
AcDbLine
 10
-165.9000000000003
 20
-397.8616298811548
 30
0.0
 11
-167.0250000000003
 21
-400.2991298811548
 31
0.0
  0
LINE
  5
163
330
1F
100
AcDbEntity
  8
ZUWAKU
  6
Continuous
 62
    30
370
    25
100
AcDbLine
 10
-167.0250000000003
 20
-400.2991298811548
 30
0.0
 11
-168.9000000000003
 21
-402.1741298811548
 31
0.0
  0
LINE
  5
164
330
1F
100
AcDbEntity
  8
ZUWAKU
  6
Continuous
 62
    30
370
    25
100
AcDbLine
 10
-167.0250000000003
 20
-400.2991298811548
 30
0.0
 11
-168.9000000000003
 21
-402.1741298811548
 31
0.0
  0
LINE
  5
165
330
1F
100
AcDbEntity
  8
ZUWAKU
  6
Continuous
 62
    30
370
    25
100
AcDbLine
 10
-168.9000000000003
 20
-402.1741298811548
 30
0.0
 11
-170.9625000000003
 21
-403.6741298811548
 31
0.0
  0
LINE
  5
166
330
1F
100
AcDbEntity
  8
ZUWAKU
  6
Continuous
 62
    30
370
    25
100
AcDbLine
 10
-170.9625000000003
 20
-403.6741298811548
 30
0.0
 11
-173.4000000000003
 21
-404.4241298811548
 31
0.0
  0
LINE
  5
167
330
1F
100
AcDbEntity
  8
ZUWAKU
  6
Continuous
 62
    30
370
    25
100
AcDbLine
 10
-170.9625000000003
 20
-403.6741298811548
 30
0.0
 11
-173.4000000000003
 21
-404.4241298811548
 31
0.0
  0
LINE
  5
168
330
1F
100
AcDbEntity
  8
ZUWAKU
  6
Continuous
 62
    30
370
    25
100
AcDbLine
 10
-173.4000000000003
 20
-404.4241298811548
 30
0.0
 11
-176.2125000000003
 21
-412.6741298811548
 31
0.0
  0
LINE
  5
169
330
1F
100
AcDbEntity
  8
ZUWAKU
  6
Continuous
 62
    30
370
    25
100
AcDbLine
 10
-176.2125000000003
 20
-412.6741298811548
 30
0.0
 11
-182.4000000000003
 21
-412.6741298811548
 31
0.0
  0
LINE
  5
16A
330
1F
100
AcDbEntity
  8
ZUWAKU
  6
Continuous
 62
    30
370
    25
100
AcDbLine
 10
-176.2125000000003
 20
-412.6741298811548
 30
0.0
 11
-182.4000000000003
 21
-412.6741298811548
 31
0.0
  0
LINE
  5
16B
330
1F
100
AcDbEntity
  8
ZUWAKU
  6
Continuous
 62
    30
370
    25
100
AcDbLine
 10
-180.0750000000003
 20
-405.5491298811548
 30
0.0
 11
-185.7750000000003
 21
-405.5491298811548
 31
0.0
  0
LINE
  5
16C
330
1F
100
AcDbEntity
  8
ZUWAKU
  6
Continuous
 62
    30
370
    25
100
AcDbLine
 10
-185.7750000000003
 20
-405.5491298811548
 30
0.0
 11
-184.8375000000003
 21
-402.9241298811548
 31
0.0
  0
LINE
  5
16D
330
1F
100
AcDbEntity
  8
ZUWAKU
  6
Continuous
 62
    30
370
    25
100
AcDbLine
 10
-182.4000000000003
 20
-412.6741298811548
 30
0.0
 11
-179.7750000000003
 21
-405.5491298811548
 31
0.0
  0
LINE
  5
16E
330
1F
100
AcDbEntity
  8
ZUWAKU
  6
Continuous
 62
    30
370
    25
100
AcDbLine
 10
-182.4000000000003
 20
-412.6741298811548
 30
0.0
 11
-179.7750000000003
 21
-405.5491298811548
 31
0.0
  0
LINE
  5
16F
330
1F
100
AcDbEntity
  8
ZUWAKU
  6
Continuous
 62
    30
370
    25
100
AcDbLine
 10
-184.8375000000003
 20
-402.9241298811548
 30
0.0
 11
-181.2750000000003
 21
-402.9241298811548
 31
0.0
  0
LINE
  5
170
330
1F
100
AcDbEntity
  8
ZUWAKU
  6
Continuous
 62
    30
370
    25
100
AcDbLine
 10
-184.8375000000003
 20
-402.9241298811548
 30
0.0
 11
-181.2750000000003
 21
-402.9241298811548
 31
0.0
  0
LINE
  5
171
330
1F
100
AcDbEntity
  8
ZUWAKU
  6
Continuous
 62
    30
370
    25
100
AcDbLine
 10
-181.2750000000003
 20
-402.9241298811548
 30
0.0
 11
-178.8375000000003
 21
-402.7366298811548
 31
0.0
  0
LINE
  5
172
330
1F
100
AcDbEntity
  8
ZUWAKU
  6
Continuous
 62
    30
370
    25
100
AcDbLine
 10
-181.2750000000003
 20
-402.9241298811548
 30
0.0
 11
-178.8375000000003
 21
-402.7366298811548
 31
0.0
  0
LINE
  5
173
330
1F
100
AcDbEntity
  8
ZUWAKU
  6
Continuous
 62
    30
370
    25
100
AcDbLine
 10
-178.8375000000003
 20
-402.7366298811548
 30
0.0
 11
-176.2125000000003
 21
-401.6116298811548
 31
0.0
  0
LINE
  5
174
330
1F
100
AcDbEntity
  8
ZUWAKU
  6
Continuous
 62
    30
370
    25
100
AcDbLine
 10
-178.8375000000003
 20
-402.7366298811548
 30
0.0
 11
-176.2125000000003
 21
-401.6116298811548
 31
0.0
  0
LINE
  5
175
330
1F
100
AcDbEntity
  8
ZUWAKU
  6
Continuous
 62
    30
370
    25
100
AcDbLine
 10
-176.2125000000003
 20
-401.6116298811548
 30
0.0
 11
-174.3375000000003
 21
-399.9241298811548
 31
0.0
  0
LINE
  5
176
330
1F
100
AcDbEntity
  8
ZUWAKU
  6
Continuous
 62
    30
370
    25
100
AcDbLine
 10
-176.2125000000003
 20
-401.6116298811548
 30
0.0
 11
-174.3375000000003
 21
-399.9241298811548
 31
0.0
  0
LINE
  5
177
330
1F
100
AcDbEntity
  8
ZUWAKU
  6
Continuous
 62
    30
370
    25
100
AcDbLine
 10
-209.5875000000003
 20
-397.8616298811548
 30
0.0
 11
-212.9625000000003
 21
-406.8616298811548
 31
0.0
  0
LINE
  5
178
330
1F
100
AcDbEntity
  8
ZUWAKU
  6
Continuous
 62
    30
370
    25
100
AcDbLine
 10
-212.9625000000003
 20
-406.8616298811548
 30
0.0
 11
-217.2750000000003
 21
-406.8616298811548
 31
0.0
  0
LINE
  5
179
330
1F
100
AcDbEntity
  8
ZUWAKU
  6
Continuous
 62
    30
370
    25
100
AcDbLine
 10
-212.9625000000003
 20
-406.8616298811548
 30
0.0
 11
-217.2750000000003
 21
-406.8616298811548
 31
0.0
  0
LINE
  5
17A
330
1F
100
AcDbEntity
  8
ZUWAKU
  6
Continuous
 62
    30
370
    25
100
AcDbLine
 10
-217.2750000000003
 20
-406.8616298811548
 30
0.0
 11
-214.0875000000003
 21
-397.8616298811548
 31
0.0
  0
LINE
  5
17B
330
1F
100
AcDbEntity
  8
ZUWAKU
  6
Continuous
 62
    30
370
    25
100
AcDbLine
 10
-214.0875000000003
 20
-397.8616298811548
 30
0.0
 11
-209.5875000000003
 21
-397.8616298811548
 31
0.0
  0
LINE
  5
17C
330
1F
100
AcDbEntity
  8
ZUWAKU
  6
Continuous
 62
    30
370
    25
100
AcDbLine
 10
-214.0875000000003
 20
-397.8616298811548
 30
0.0
 11
-209.5875000000003
 21
-397.8616298811548
 31
0.0
  0
LINE
  5
17D
330
1F
100
AcDbEntity
  8
ZUWAKU
  6
Continuous
 62
    30
370
    25
100
AcDbLine
 10
-147.7500000000003
 20
-397.8616298811548
 30
0.0
 11
-148.8750000000003
 21
-401.2366298811548
 31
0.0
  0
LINE
  5
17E
330
1F
100
AcDbEntity
  8
ZUWAKU
  6
Continuous
 62
    30
370
    25
100
AcDbLine
 10
-148.8750000000003
 20
-401.2366298811548
 30
0.0
 11
-142.8750000000003
 21
-401.2366298811548
 31
0.0
  0
LINE
  5
17F
330
1F
100
AcDbEntity
  8
ZUWAKU
  6
Continuous
 62
    30
370
    25
100
AcDbLine
 10
-148.8750000000003
 20
-401.2366298811548
 30
0.0
 11
-142.8750000000003
 21
-401.2366298811548
 31
0.0
  0
LINE
  5
180
330
1F
100
AcDbEntity
  8
ZUWAKU
  6
Continuous
 62
    30
370
    25
100
AcDbLine
 10
-153.0000000000003
 20
-409.6741298811548
 30
0.0
 11
-154.1250000000003
 21
-412.8616298811548
 31
0.0
  0
LINE
  5
181
330
1F
100
AcDbEntity
  8
ZUWAKU
  6
Continuous
 62
    30
370
    25
100
AcDbLine
 10
-153.0000000000003
 20
-409.6741298811548
 30
0.0
 11
-154.1250000000003
 21
-412.8616298811548
 31
0.0
  0
LINE
  5
182
330
1F
100
AcDbEntity
  8
ZUWAKU
  6
Continuous
 62
    30
370
    25
100
AcDbLine
 10
-154.1250000000003
 20
-412.8616298811548
 30
0.0
 11
-148.5000000000003
 21
-411.9241298811548
 31
0.0
  0
LINE
  5
183
330
1F
100
AcDbEntity
  8
ZUWAKU
  6
Continuous
 62
    30
370
    25
100
AcDbLine
 10
-148.5000000000003
 20
-411.9241298811548
 30
0.0
 11
-145.8750000000003
 21
-411.1741298811548
 31
0.0
  0
LINE
  5
184
330
1F
100
AcDbEntity
  8
ZUWAKU
  6
Continuous
 62
    30
370
    25
100
AcDbLine
 10
-148.5000000000003
 20
-411.9241298811548
 30
0.0
 11
-145.8750000000003
 21
-411.1741298811548
 31
0.0
  0
LINE
  5
185
330
1F
100
AcDbEntity
  8
ZUWAKU
  6
Continuous
 62
    30
370
    25
100
AcDbLine
 10
-143.0625000000003
 20
-410.2366298811548
 30
0.0
 11
-141.5625000000003
 21
-412.6741298811548
 31
0.0
  0
LINE
  5
186
330
1F
100
AcDbEntity
  8
ZUWAKU
  6
Continuous
 62
    30
370
    25
100
AcDbLine
 10
-141.5625000000003
 20
-412.6741298811548
 30
0.0
 11
-136.8750000000003
 21
-412.6741298811548
 31
0.0
  0
LINE
  5
187
330
1F
100
AcDbEntity
  8
ZUWAKU
  6
Continuous
 62
    30
370
    25
100
AcDbLine
 10
-141.5625000000003
 20
-412.6741298811548
 30
0.0
 11
-136.8750000000003
 21
-412.6741298811548
 31
0.0
  0
LINE
  5
188
330
1F
100
AcDbEntity
  8
ZUWAKU
  6
Continuous
 62
    30
370
    25
100
AcDbLine
 10
-140.0625000000003
 20
-407.4241298811548
 30
0.0
 11
-138.3750000000003
 21
-405.1741298811548
 31
0.0
  0
LINE
  5
189
330
1F
100
AcDbEntity
  8
ZUWAKU
  6
Continuous
 62
    30
370
    25
100
AcDbLine
 10
-138.3750000000003
 20
-405.1741298811548
 30
0.0
 11
-136.8750000000003
 21
-402.9241298811548
 31
0.0
  0
LINE
  5
18A
330
1F
100
AcDbEntity
  8
ZUWAKU
  6
Continuous
 62
    30
370
    25
100
AcDbLine
 10
-136.8750000000003
 20
-402.9241298811548
 30
0.0
 11
-135.7500000000003
 21
-400.4866298811548
 31
0.0
  0
LINE
  5
18B
330
1F
100
AcDbEntity
  8
ZUWAKU
  6
Continuous
 62
    30
370
    25
100
AcDbLine
 10
-135.7500000000003
 20
-400.4866298811548
 30
0.0
 11
-135.0000000000003
 21
-397.8616298811548
 31
0.0
  0
LINE
  5
18C
330
1F
100
AcDbEntity
  8
ZUWAKU
  6
Continuous
 62
    30
370
    25
100
AcDbLine
 10
-135.7500000000003
 20
-400.4866298811548
 30
0.0
 11
-135.0000000000003
 21
-397.8616298811548
 31
0.0
  0
LINE
  5
18D
330
1F
100
AcDbEntity
  8
ZUWAKU
  6
Continuous
 62
    30
370
    25
100
AcDbLine
 10
-135.0000000000003
 20
-397.8616298811548
 30
0.0
 11
-147.7500000000003
 21
-397.8616298811548
 31
0.0
  0
LINE
  5
18E
330
1F
100
AcDbEntity
  8
ZUWAKU
  6
Continuous
 62
    30
370
    25
100
AcDbLine
 10
-146.4375000000003
 20
-407.2366298811548
 30
0.0
 11
-149.4375000000003
 21
-408.9241298811548
 31
0.0
  0
LINE
  5
18F
330
1F
100
AcDbEntity
  8
ZUWAKU
  6
Continuous
 62
    30
370
    25
100
AcDbLine
 10
-145.8750000000003
 20
-411.1741298811548
 30
0.0
 11
-143.0625000000003
 21
-410.2366298811548
 31
0.0
  0
LINE
  5
190
330
1F
100
AcDbEntity
  8
ZUWAKU
  6
Continuous
 62
    30
370
    25
100
AcDbLine
 10
-145.8750000000003
 20
-411.1741298811548
 30
0.0
 11
-143.0625000000003
 21
-410.2366298811548
 31
0.0
  0
LINE
  5
191
330
1F
100
AcDbEntity
  8
ZUWAKU
  6
Continuous
 62
    30
370
    25
100
AcDbLine
 10
-136.8750000000003
 20
-412.6741298811548
 30
0.0
 11
-140.0625000000003
 21
-407.4241298811548
 31
0.0
  0
LINE
  5
192
330
1F
100
AcDbEntity
  8
ZUWAKU
  6
Continuous
 62
    30
370
    25
100
AcDbLine
 10
-136.8750000000003
 20
-412.6741298811548
 30
0.0
 11
-140.0625000000003
 21
-407.4241298811548
 31
0.0
  0
LINE
  5
193
330
1F
100
AcDbEntity
  8
ZUWAKU
  6
Continuous
 62
    30
370
    25
100
AcDbLine
 10
-144.0000000000003
 20
-404.4241298811548
 30
0.0
 11
-146.4375000000003
 21
-407.2366298811548
 31
0.0
  0
LINE
  5
194
330
1F
100
AcDbEntity
  8
ZUWAKU
  6
Continuous
 62
    30
370
    25
100
AcDbLine
 10
-144.0000000000003
 20
-404.4241298811548
 30
0.0
 11
-146.4375000000003
 21
-407.2366298811548
 31
0.0
  0
LINE
  5
195
330
1F
100
AcDbEntity
  8
ZUWAKU
  6
Continuous
 62
    30
370
    25
100
AcDbLine
 10
-181.2750000000003
 20
-402.9241298811548
 30
0.0
 11
-178.8375000000003
 21
-402.7366298811548
 31
0.0
  0
LINE
  5
196
330
1F
100
AcDbEntity
  8
ZUWAKU
  6
Continuous
 62
    30
370
    25
100
AcDbLine
 10
-178.8375000000003
 20
-402.7366298811548
 30
0.0
 11
-176.2125000000003
 21
-401.6116298811548
 31
0.0
  0
LINE
  5
197
330
1F
100
AcDbEntity
  8
ZUWAKU
  6
Continuous
 62
    30
370
    25
100
AcDbLine
 10
-176.2125000000003
 20
-401.6116298811548
 30
0.0
 11
-174.3375000000003
 21
-399.9241298811548
 31
0.0
  0
LINE
  5
198
330
1F
100
AcDbEntity
  8
ZUWAKU
  6
Continuous
 62
    30
370
    25
100
AcDbLine
 10
-174.3375000000003
 20
-399.9241298811548
 30
0.0
 11
-172.8375000000003
 21
-397.8616298811548
 31
0.0
  0
LINE
  5
199
330
1F
100
AcDbEntity
  8
ZUWAKU
  6
Continuous
 62
    30
370
    25
100
AcDbLine
 10
-159.9750000000003
 20
-412.6741298811548
 30
0.0
 11
-156.6000000000003
 21
-411.1741298811548
 31
0.0
  0
LINE
  5
19A
330
1F
100
AcDbEntity
  8
ZUWAKU
  6
Continuous
 62
    30
370
    25
100
AcDbLine
 10
-156.6000000000003
 20
-411.1741298811548
 30
0.0
 11
-153.6000000000003
 21
-408.3616298811548
 31
0.0
  0
LINE
  5
19B
330
1F
100
AcDbEntity
  8
ZUWAKU
  6
Continuous
 62
    30
370
    25
100
AcDbLine
 10
-153.6000000000003
 20
-408.3616298811548
 30
0.0
 11
-151.3500000000003
 21
-404.6116298811548
 31
0.0
  0
LINE
  5
19C
330
1F
100
AcDbEntity
  8
ZUWAKU
  6
Continuous
 62
    30
370
    25
100
AcDbLine
 10
-151.3500000000003
 20
-404.6116298811548
 30
0.0
 11
-150.6000000000003
 21
-400.6741298811548
 31
0.0
  0
LINE
  5
19D
330
1F
100
AcDbEntity
  8
ZUWAKU
  6
Continuous
 62
    30
370
    25
100
AcDbLine
 10
-153.0000000000003
 20
-409.6741298811548
 30
0.0
 11
-149.4375000000003
 21
-408.9241298811548
 31
0.0
  0
LINE
  5
19E
330
1F
100
AcDbEntity
  8
ZUWAKU
  6
Continuous
 62
    30
370
    25
100
AcDbLine
 10
-149.4375000000003
 20
-408.9241298811548
 30
0.0
 11
-146.4375000000003
 21
-407.2366298811548
 31
0.0
  0
LINE
  5
19F
330
1F
100
AcDbEntity
  8
ZUWAKU
  6
Continuous
 62
    30
370
    25
100
AcDbLine
 10
-146.4375000000003
 20
-407.2366298811548
 30
0.0
 11
-144.0000000000003
 21
-404.4241298811548
 31
0.0
  0
LINE
  5
1A0
330
1F
100
AcDbEntity
  8
ZUWAKU
  6
Continuous
 62
    30
370
    25
100
AcDbLine
 10
-173.4000000000003
 20
-404.4241298811548
 30
0.0
 11
-170.9625000000003
 21
-403.6741298811548
 31
0.0
  0
LINE
  5
1A1
330
1F
100
AcDbEntity
  8
ZUWAKU
  6
Continuous
 62
    30
370
    25
100
AcDbLine
 10
-170.9625000000003
 20
-403.6741298811548
 30
0.0
 11
-168.9000000000003
 21
-402.1741298811548
 31
0.0
  0
LINE
  5
1A2
330
1F
100
AcDbEntity
  8
ZUWAKU
  6
Continuous
 62
    30
370
    25
100
AcDbLine
 10
-168.9000000000003
 20
-402.1741298811548
 30
0.0
 11
-167.0250000000003
 21
-400.2991298811548
 31
0.0
  0
LINE
  5
1A3
330
1F
100
AcDbEntity
  8
ZUWAKU
  6
Continuous
 62
    30
370
    25
100
AcDbLine
 10
-167.0250000000003
 20
-400.2991298811548
 30
0.0
 11
-165.9000000000003
 21
-397.8616298811548
 31
0.0
  0
LINE
  5
1A4
330
1F
100
AcDbEntity
  8
ZUWAKU
  6
Continuous
 62
    30
370
    25
100
AcDbLine
 10
-140.0625000000003
 20
-407.4241298811548
 30
0.0
 11
-138.3750000000003
 21
-405.1741298811548
 31
0.0
  0
LINE
  5
1A5
330
1F
100
AcDbEntity
  8
ZUWAKU
  6
Continuous
 62
    30
370
    25
100
AcDbLine
 10
-138.3750000000003
 20
-405.1741298811548
 30
0.0
 11
-136.8750000000003
 21
-402.9241298811548
 31
0.0
  0
LINE
  5
1A6
330
1F
100
AcDbEntity
  8
ZUWAKU
  6
Continuous
 62
    30
370
    25
100
AcDbLine
 10
-136.8750000000003
 20
-402.9241298811548
 30
0.0
 11
-135.7500000000003
 21
-400.4866298811548
 31
0.0
  0
LINE
  5
1A7
330
1F
100
AcDbEntity
  8
ZUWAKU
  6
Continuous
 62
    30
370
    25
100
AcDbLine
 10
-135.7500000000003
 20
-400.4866298811548
 30
0.0
 11
-135.0000000000003
 21
-397.8616298811548
 31
0.0
  0
LINE
  5
1A8
330
1F
100
AcDbEntity
  8
ZUWAKU
  6
Continuous
 62
    30
370
    25
100
AcDbLine
 10
-148.5000000000003
 20
-411.9241298811548
 30
0.0
 11
-145.8750000000003
 21
-411.1741298811548
 31
0.0
  0
LINE
  5
1A9
330
1F
100
AcDbEntity
  8
ZUWAKU
  6
Continuous
 62
    30
370
    25
100
AcDbLine
 10
-145.8750000000003
 20
-411.1741298811548
 30
0.0
 11
-143.0625000000003
 21
-410.2366298811548
 31
0.0
  0
LINE
  5
1AA
330
1F
100
AcDbEntity
  8
ZUWAKU
  6
Continuous
 62
    30
370
    25
100
AcDbLine
 10
-153.4125000000003
 20
-403.1116298811548
 30
0.0
 11
-152.4750000000003
 21
-400.6741298811548
 31
0.0
  0
LINE
  5
1AB
330
1F
100
AcDbEntity
  8
ZUWAKU
  6
Continuous
 62
    30
370
    25
100
AcDbLine
 10
-152.4750000000003
 20
-400.6741298811548
 30
0.0
 11
-150.6000000000003
 21
-400.6741298811548
 31
0.0
  0
LINE
  5
1AC
330
1F
100
AcDbEntity
  8
ZUWAKU
  6
Continuous
 62
    30
370
    25
100
AcDbLine
 10
-152.4750000000003
 20
-400.6741298811548
 30
0.0
 11
-150.6000000000003
 21
-400.6741298811548
 31
0.0
  0
LINE
  5
1AD
330
1F
100
AcDbEntity
  8
ZUWAKU
  6
Continuous
 62
    30
370
    25
100
AcDbLine
 10
-150.6000000000003
 20
-400.6741298811548
 30
0.0
 11
-151.3500000000003
 21
-404.6116298811548
 31
0.0
  0
LINE
  5
1AE
330
1F
100
AcDbEntity
  8
ZUWAKU
  6
Continuous
 62
    30
370
    25
100
AcDbLine
 10
-151.3500000000003
 20
-404.6116298811548
 30
0.0
 11
-153.6000000000003
 21
-408.3616298811548
 31
0.0
  0
LINE
  5
1AF
330
1F
100
AcDbEntity
  8
ZUWAKU
  6
Continuous
 62
    30
370
    25
100
AcDbLine
 10
-151.3500000000003
 20
-404.6116298811548
 30
0.0
 11
-153.6000000000003
 21
-408.3616298811548
 31
0.0
  0
LINE
  5
1B0
330
1F
100
AcDbEntity
  8
ZUWAKU
  6
Continuous
 62
    30
370
    25
100
AcDbLine
 10
-153.6000000000003
 20
-408.3616298811548
 30
0.0
 11
-156.6000000000003
 21
-411.1741298811548
 31
0.0
  0
LINE
  5
1B1
330
1F
100
AcDbEntity
  8
ZUWAKU
  6
Continuous
 62
    30
370
    25
100
AcDbLine
 10
-160.3500000000003
 20
-412.6741298811548
 30
0.0
 11
-169.9125000000003
 21
-412.6741298811548
 31
0.0
  0
LINE
  5
1B2
330
1F
100
AcDbEntity
  8
ZUWAKU
  6
Continuous
 62
    30
370
    25
100
AcDbLine
 10
-169.9125000000003
 20
-412.6741298811548
 30
0.0
 11
-168.2250000000003
 21
-407.9866298811548
 31
0.0
  0
LINE
  5
1B3
330
1F
100
AcDbEntity
  8
ZUWAKU
  6
Continuous
 62
    30
370
    25
100
AcDbLine
 10
-169.9125000000003
 20
-412.6741298811548
 30
0.0
 11
-168.2250000000003
 21
-407.9866298811548
 31
0.0
  0
LINE
  5
1B4
330
1F
100
AcDbEntity
  8
ZUWAKU
  6
Continuous
 62
    30
370
    25
100
AcDbLine
 10
-154.9125000000003
 20
-405.1741298811548
 30
0.0
 11
-153.4125000000003
 21
-403.1116298811548
 31
0.0
  0
LINE
  5
1B5
330
1F
100
AcDbEntity
  8
ZUWAKU
  6
Continuous
 62
    30
370
    25
100
AcDbLine
 10
-168.2250000000003
 20
-407.9866298811548
 30
0.0
 11
-159.2250000000003
 21
-407.9866298811548
 31
0.0
  0
LINE
  5
1B6
330
1F
100
AcDbEntity
  8
ZUWAKU
  6
Continuous
 62
    30
370
    25
100
AcDbLine
 10
-168.2250000000003
 20
-407.9866298811548
 30
0.0
 11
-159.2250000000003
 21
-407.9866298811548
 31
0.0
  0
LINE
  5
1B7
330
1F
100
AcDbEntity
  8
ZUWAKU
  6
Continuous
 62
    30
370
    25
100
AcDbLine
 10
-159.2250000000003
 20
-407.9866298811548
 30
0.0
 11
-156.9750000000003
 21
-406.8616298811548
 31
0.0
  0
LINE
  5
1B8
330
1F
100
AcDbEntity
  8
ZUWAKU
  6
Continuous
 62
    30
370
    25
100
AcDbLine
 10
-159.2250000000003
 20
-407.9866298811548
 30
0.0
 11
-156.9750000000003
 21
-406.8616298811548
 31
0.0
  0
LINE
  5
1B9
330
1F
100
AcDbEntity
  8
ZUWAKU
  6
Continuous
 62
    30
370
    25
100
AcDbLine
 10
-156.9750000000003
 20
-406.8616298811548
 30
0.0
 11
-154.9125000000003
 21
-405.1741298811548
 31
0.0
  0
LINE
  5
1BA
330
1F
100
AcDbEntity
  8
ZUWAKU
  6
Continuous
 62
    30
370
    25
100
AcDbLine
 10
-186.6750000000003
 20
-402.9241298811548
 30
0.0
 11
-188.9250000000003
 21
-409.1116298811548
 31
0.0
  0
LINE
  5
1BB
330
1F
100
AcDbEntity
  8
ZUWAKU
  6
Continuous
 62
    30
370
    25
100
AcDbLine
 10
-188.9250000000003
 20
-409.1116298811548
 30
0.0
 11
-190.2375000000003
 21
-410.4241298811548
 31
0.0
  0
LINE
  5
1BC
330
1F
100
AcDbEntity
  8
ZUWAKU
  6
Continuous
 62
    30
370
    25
100
AcDbLine
 10
-188.9250000000003
 20
-409.1116298811548
 30
0.0
 11
-190.2375000000003
 21
-410.4241298811548
 31
0.0
  0
LINE
  5
1BD
330
1F
100
AcDbEntity
  8
ZUWAKU
  6
Continuous
 62
    30
370
    25
100
AcDbLine
 10
-190.2375000000003
 20
-410.4241298811548
 30
0.0
 11
-191.3625000000003
 21
-411.5491298811548
 31
0.0
  0
LINE
  5
1BE
330
1F
100
AcDbEntity
  8
ZUWAKU
  6
Continuous
 62
    30
370
    25
100
AcDbLine
 10
-191.3625000000003
 20
-411.5491298811548
 30
0.0
 11
-192.8625000000003
 21
-412.2991298811548
 31
0.0
  0
LINE
  5
1BF
330
1F
100
AcDbEntity
  8
ZUWAKU
  6
Continuous
 62
    30
370
    25
100
AcDbLine
 10
-191.3625000000003
 20
-411.5491298811548
 30
0.0
 11
-192.8625000000003
 21
-412.2991298811548
 31
0.0
  0
LINE
  5
1C0
330
1F
100
AcDbEntity
  8
ZUWAKU
  6
Continuous
 62
    30
370
    25
100
AcDbLine
 10
-192.8625000000003
 20
-412.2991298811548
 30
0.0
 11
-194.3625000000003
 21
-412.6741298811548
 31
0.0
  0
LINE
  5
1C1
330
1F
100
AcDbEntity
  8
ZUWAKU
  6
Continuous
 62
    30
370
    25
100
AcDbLine
 10
-194.3625000000003
 20
-412.6741298811548
 30
0.0
 11
-203.9250000000003
 21
-412.6741298811548
 31
0.0
  0
LINE
  5
1C2
330
1F
100
AcDbEntity
  8
ZUWAKU
  6
Continuous
 62
    30
370
    25
100
AcDbLine
 10
-194.3625000000003
 20
-412.6741298811548
 30
0.0
 11
-203.9250000000003
 21
-412.6741298811548
 31
0.0
  0
LINE
  5
1C3
330
1F
100
AcDbEntity
  8
ZUWAKU
  6
Continuous
 62
    30
370
    25
100
AcDbLine
 10
-203.9250000000003
 20
-412.6741298811548
 30
0.0
 11
-202.8000000000003
 21
-409.8616298811548
 31
0.0
  0
LINE
  5
1C4
330
1F
100
AcDbEntity
  8
ZUWAKU
  6
Continuous
 62
    30
370
    25
100
AcDbLine
 10
-202.8000000000003
 20
-409.8616298811548
 30
0.0
 11
-196.6125000000003
 21
-409.8616298811548
 31
0.0
  0
LINE
  5
1C5
330
1F
100
AcDbEntity
  8
ZUWAKU
  6
Continuous
 62
    30
370
    25
100
AcDbLine
 10
-202.8000000000003
 20
-409.8616298811548
 30
0.0
 11
-196.6125000000003
 21
-409.8616298811548
 31
0.0
  0
LINE
  5
1C6
330
1F
100
AcDbEntity
  8
ZUWAKU
  6
Continuous
 62
    30
370
    25
100
AcDbLine
 10
-193.0500000000003
 20
-405.5491298811548
 30
0.0
 11
-200.9250000000003
 21
-405.5491298811548
 31
0.0
  0
LINE
  5
1C7
330
1F
100
AcDbEntity
  8
ZUWAKU
  6
Continuous
 62
    30
370
    25
100
AcDbLine
 10
-200.9250000000003
 20
-405.5491298811548
 30
0.0
 11
-200.1750000000003
 21
-402.9241298811548
 31
0.0
  0
LINE
  5
1C8
330
1F
100
AcDbEntity
  8
ZUWAKU
  6
Continuous
 62
    30
370
    25
100
AcDbLine
 10
-200.9250000000003
 20
-405.5491298811548
 30
0.0
 11
-200.1750000000003
 21
-402.9241298811548
 31
0.0
  0
LINE
  5
1C9
330
1F
100
AcDbEntity
  8
ZUWAKU
  6
Continuous
 62
    30
370
    25
100
AcDbLine
 10
-196.6125000000003
 20
-409.8616298811548
 30
0.0
 11
-195.3000000000003
 21
-408.9241298811548
 31
0.0
  0
LINE
  5
1CA
330
1F
100
AcDbEntity
  8
ZUWAKU
  6
Continuous
 62
    30
370
    25
100
AcDbLine
 10
-196.6125000000003
 20
-409.8616298811548
 30
0.0
 11
-195.3000000000003
 21
-408.9241298811548
 31
0.0
  0
LINE
  5
1CB
330
1F
100
AcDbEntity
  8
ZUWAKU
  6
Continuous
 62
    30
370
    25
100
AcDbLine
 10
-195.3000000000003
 20
-408.9241298811548
 30
0.0
 11
-194.3625000000003
 21
-407.9866298811548
 31
0.0
  0
LINE
  5
1CC
330
1F
100
AcDbEntity
  8
ZUWAKU
  6
Continuous
 62
    30
370
    25
100
AcDbLine
 10
-195.3000000000003
 20
-408.9241298811548
 30
0.0
 11
-194.3625000000003
 21
-407.9866298811548
 31
0.0
  0
LINE
  5
1CD
330
1F
100
AcDbEntity
  8
ZUWAKU
  6
Continuous
 62
    30
370
    25
100
AcDbLine
 10
-194.3625000000003
 20
-407.9866298811548
 30
0.0
 11
-193.4250000000003
 21
-406.8616298811548
 31
0.0
  0
LINE
  5
1CE
330
1F
100
AcDbEntity
  8
ZUWAKU
  6
Continuous
 62
    30
370
    25
100
AcDbLine
 10
-194.3625000000003
 20
-407.9866298811548
 30
0.0
 11
-193.4250000000003
 21
-406.8616298811548
 31
0.0
  0
LINE
  5
1CF
330
1F
100
AcDbEntity
  8
ZUWAKU
  6
Continuous
 62
    30
370
    25
100
AcDbLine
 10
-193.4250000000003
 20
-406.8616298811548
 30
0.0
 11
-193.0500000000003
 21
-405.5491298811548
 31
0.0
  0
LINE
  5
1D0
330
1F
100
AcDbEntity
  8
ZUWAKU
  6
Continuous
 62
    30
370
    25
100
AcDbLine
 10
-193.4250000000003
 20
-406.8616298811548
 30
0.0
 11
-193.0500000000003
 21
-405.5491298811548
 31
0.0
  0
LINE
  5
1D1
330
1F
100
AcDbEntity
  8
ZUWAKU
  6
Continuous
 62
    30
370
    25
100
AcDbLine
 10
-205.2375000000003
 20
-397.8616298811548
 30
0.0
 11
-201.1139887884227
 21
-397.8616298811548
 31
0.0
  0
LINE
  5
1D2
330
1F
100
AcDbEntity
  8
ZUWAKU
  6
Continuous
 62
    30
370
    25
100
AcDbLine
 10
-204.5250000000003
 20
-408.9241298811548
 30
0.0
 11
-206.0250000000003
 21
-410.4241298811548
 31
0.0
  0
LINE
  5
1D3
330
1F
100
AcDbEntity
  8
ZUWAKU
  6
Continuous
 62
    30
370
    25
100
AcDbLine
 10
-206.0250000000003
 20
-410.4241298811548
 30
0.0
 11
-207.5250000000003
 21
-411.7366298811548
 31
0.0
  0
LINE
  5
1D4
330
1F
100
AcDbEntity
  8
ZUWAKU
  6
Continuous
 62
    30
370
    25
100
AcDbLine
 10
-206.0250000000003
 20
-410.4241298811548
 30
0.0
 11
-207.5250000000003
 21
-411.7366298811548
 31
0.0
  0
LINE
  5
1D5
330
1F
100
AcDbEntity
  8
ZUWAKU
  6
Continuous
 62
    30
370
    25
100
AcDbLine
 10
-207.5250000000003
 20
-411.7366298811548
 30
0.0
 11
-209.4000000000003
 21
-412.4866298811548
 31
0.0
  0
LINE
  5
1D6
330
1F
100
AcDbEntity
  8
ZUWAKU
  6
Continuous
 62
    30
370
    25
100
AcDbLine
 10
-209.4000000000003
 20
-412.4866298811548
 30
0.0
 11
-211.2750000000003
 21
-412.6741298811548
 31
0.0
  0
LINE
  5
1D7
330
1F
100
AcDbEntity
  8
ZUWAKU
  6
Continuous
 62
    30
370
    25
100
AcDbLine
 10
-211.2750000000003
 20
-412.6741298811548
 30
0.0
 11
-215.9625000000003
 21
-412.6741298811548
 31
0.0
  0
LINE
  5
1D8
330
1F
100
AcDbEntity
  8
ZUWAKU
  6
Continuous
 62
    30
370
    25
100
AcDbLine
 10
-215.9625000000003
 20
-412.6741298811548
 30
0.0
 11
-215.0250000000003
 21
-409.8616298811548
 31
0.0
  0
LINE
  5
1D9
330
1F
100
AcDbEntity
  8
ZUWAKU
  6
Continuous
 62
    30
370
    25
100
AcDbLine
 10
-215.9625000000003
 20
-412.6741298811548
 30
0.0
 11
-215.0250000000003
 21
-409.8616298811548
 31
0.0
  0
LINE
  5
1DA
330
1F
100
AcDbEntity
  8
ZUWAKU
  6
Continuous
 62
    30
370
    25
100
AcDbLine
 10
-209.4000000000003
 20
-407.4241298811548
 30
0.0
 11
-205.8375000000003
 21
-397.8616298811548
 31
0.0
  0
LINE
  5
1DB
330
1F
100
AcDbEntity
  8
ZUWAKU
  6
Continuous
 62
    30
370
    25
100
AcDbLine
 10
-215.0250000000003
 20
-409.8616298811548
 30
0.0
 11
-213.3375000000003
 21
-409.8616298811548
 31
0.0
  0
LINE
  5
1DC
330
1F
100
AcDbEntity
  8
ZUWAKU
  6
Continuous
 62
    30
370
    25
100
AcDbLine
 10
-215.0250000000003
 20
-409.8616298811548
 30
0.0
 11
-213.3375000000003
 21
-409.8616298811548
 31
0.0
  0
LINE
  5
1DD
330
1F
100
AcDbEntity
  8
ZUWAKU
  6
Continuous
 62
    30
370
    25
100
AcDbLine
 10
-210.3375000000003
 20
-408.9241298811548
 30
0.0
 11
-209.4000000000003
 21
-407.4241298811548
 31
0.0
  0
LINE
  5
1DE
330
1F
100
AcDbEntity
  8
ZUWAKU
  6
Continuous
 62
    30
370
    25
100
AcDbLine
 10
-211.8375000000003
 20
-409.6741298811548
 30
0.0
 11
-210.3375000000003
 21
-408.9241298811548
 31
0.0
  0
LINE
  5
1DF
330
1F
100
AcDbEntity
  8
ZUWAKU
  6
Continuous
 62
    30
370
    25
100
AcDbLine
 10
-213.3375000000003
 20
-409.8616298811548
 30
0.0
 11
-211.8375000000003
 21
-409.6741298811548
 31
0.0
  0
LINE
  5
1E0
330
1F
100
AcDbEntity
  8
ZUWAKU
  6
Continuous
 62
    30
370
    25
100
AcDbLine
 10
-213.3375000000003
 20
-409.8616298811548
 30
0.0
 11
-211.8375000000003
 21
-409.6741298811548
 31
0.0
  0
LINE
  5
1E1
330
1F
100
AcDbEntity
  8
ZUWAKU
  6
Continuous
 62
    30
370
    25
100
AcDbLine
 10
-164.4750000000003
 20
-397.8616298811548
 30
0.0
 11
-158.4750000000003
 21
-397.8616298811548
 31
0.0
  0
LINE
  5
1E2
330
1F
100
AcDbEntity
  8
ZUWAKU
  6
Continuous
 62
    30
370
    25
100
AcDbLine
 10
-158.4750000000003
 20
-397.8616298811548
 30
0.0
 11
-159.6000000000003
 21
-401.2366298811548
 31
0.0
  0
LINE
  5
1E3
330
1F
100
AcDbEntity
  8
ZUWAKU
  6
Continuous
 62
    30
370
    25
100
AcDbLine
 10
-158.4750000000003
 20
-397.8616298811548
 30
0.0
 11
-159.6000000000003
 21
-401.2366298811548
 31
0.0
  0
LINE
  5
1E4
330
1F
100
AcDbEntity
  8
ZUWAKU
  6
Continuous
 62
    30
370
    25
100
AcDbLine
 10
-159.9000000000003
 20
-401.2366298811548
 30
0.0
 11
-165.7875000000003
 21
-401.2366298811548
 31
0.0
  0
LINE
  5
1E5
330
1F
100
AcDbEntity
  8
ZUWAKU
  6
Continuous
 62
    30
370
    25
100
AcDbLine
 10
-142.2527230782136
 20
-401.2116864612761
 30
0.0
 11
-144.0000000000003
 21
-404.4241298811548
 31
0.0
  0
LINE
  5
1E6
330
1F
100
AcDbEntity
  8
ZUWAKU
  6
Continuous
 62
    30
370
    25
100
AcDbLine
 10
-137.0625000000003
 20
-397.8616298811548
 30
0.0
 11
-146.4375000000004
 21
-407.2366298811548
 31
0.0
  0
LINE
  5
1E7
330
1F
100
AcDbEntity
  8
ZUWAKU
  6
Continuous
 62
    30
370
    25
100
AcDbLine
 10
-146.4375000000005
 20
-407.236629881155
 30
0.0
 11
-151.6500000000003
 21
-412.4491298811548
 31
0.0
  0
LINE
  5
1E8
330
1F
100
AcDbEntity
  8
ZUWAKU
  6
Continuous
 62
    30
370
    25
100
AcDbLine
 10
-137.9110281374242
 20
-397.8616298811548
 30
0.0
 11
-143.4352964066443
 21
-403.3858981503749
 31
0.0
  0
LINE
  5
1E9
330
1F
100
AcDbEntity
  8
ZUWAKU
  6
Continuous
 62
    30
370
    25
100
AcDbLine
 10
-148.3769928855409
 20
-408.3275946292715
 30
0.0
 11
-152.668233764909
 21
-412.6188355086396
 31
0.0
  0
LINE
  5
1EA
330
1F
100
AcDbEntity
  8
ZUWAKU
  6
Continuous
 62
    30
370
    25
100
AcDbLine
 10
-138.7595562748481
 20
-397.8616298811548
 30
0.0
 11
-142.4233884535631
 21
-401.5254620598699
 31
0.0
  0
LINE
  5
1EB
330
1F
100
AcDbEntity
  8
ZUWAKU
  6
Continuous
 62
    30
370
    25
100
AcDbLine
 10
-149.9246046148075
 20
-409.0266782211141
 30
0.0
 11
-153.6864675298176
 21
-412.7885411361243
 31
0.0
  0
LINE
  5
1EC
330
1F
100
AcDbEntity
  8
ZUWAKU
  6
Continuous
 62
    30
370
    25
100
AcDbLine
 10
-139.6080844122719
 20
-397.8616298811548
 30
0.0
 11
-142.9830844122719
 21
-401.2366298811548
 31
0.0
  0
LINE
  5
1ED
330
1F
100
AcDbEntity
  8
ZUWAKU
  6
Continuous
 62
    30
370
    25
100
AcDbLine
 10
-150.9994069222111
 20
-409.2529523910939
 30
0.0
 11
-153.8614994114886
 21
-412.1150448803714
 31
0.0
  0
LINE
  5
1EE
330
1F
100
AcDbEntity
  8
ZUWAKU
  6
Continuous
 62
    30
370
    25
100
AcDbLine
 10
-140.4566125496958
 20
-397.8616298811548
 30
0.0
 11
-143.8316125496958
 21
-401.2366298811548
 31
0.0
  0
LINE
  5
1EF
330
1F
100
AcDbEntity
  8
ZUWAKU
  6
Continuous
 62
    30
370
    25
100
AcDbLine
 10
-152.0742092296146
 20
-409.4792265610736
 30
0.0
 11
-153.3986658819846
 21
-410.8036832134436
 31
0.0
  0
LINE
  5
1F0
330
1F
100
AcDbEntity
  8
ZUWAKU
  6
Continuous
 62
    30
370
    25
100
AcDbLine
 10
-141.3051406871197
 20
-397.8616298811548
 30
0.0
 11
-144.6801406871197
 21
-401.2366298811548
 31
0.0
  0
LINE
  5
1F1
330
1F
100
AcDbEntity
  8
ZUWAKU
  6
Continuous
 62
    30
370
    25
100
AcDbLine
 10
-142.1536688245436
 20
-397.8616298811548
 30
0.0
 11
-145.5286688245436
 21
-401.2366298811548
 31
0.0
  0
LINE
  5
1F2
330
1F
100
AcDbEntity
  8
ZUWAKU
  6
Continuous
 62
    30
370
    25
100
AcDbLine
 10
-143.0021969619675
 20
-397.8616298811548
 30
0.0
 11
-146.3771969619675
 21
-401.2366298811548
 31
0.0
  0
LINE
  5
1F3
330
1F
100
AcDbEntity
  8
ZUWAKU
  6
Continuous
 62
    30
370
    25
100
AcDbLine
 10
-143.8507250993913
 20
-397.8616298811548
 30
0.0
 11
-147.2257250993913
 21
-401.2366298811548
 31
0.0
  0
LINE
  5
1F4
330
1F
100
AcDbEntity
  8
ZUWAKU
  6
Continuous
 62
    30
370
    25
100
AcDbLine
 10
-144.6992532368152
 20
-397.8616298811548
 30
0.0
 11
-148.0742532368152
 21
-401.2366298811548
 31
0.0
  0
LINE
  5
1F5
330
1F
100
AcDbEntity
  8
ZUWAKU
  6
Continuous
 62
    30
370
    25
100
AcDbLine
 10
-145.5477813742391
 20
-397.8616298811548
 30
0.0
 11
-148.851109312881
 21
-401.1649578197967
 31
0.0
  0
LINE
  5
1F6
330
1F
100
AcDbEntity
  8
ZUWAKU
  6
Continuous
 62
    30
370
    25
100
AcDbLine
 10
-146.396309511663
 20
-397.8616298811548
 30
0.0
 11
-148.426845244169
 21
-399.8921656136607
 31
0.0
  0
LINE
  5
1F7
330
1F
100
AcDbEntity
  8
ZUWAKU
  6
Continuous
 62
    30
370
    25
100
AcDbLine
 10
-147.2448376490869
 20
-397.8616298811548
 30
0.0
 11
-148.0025811754571
 21
-398.6193734075249
 31
0.0
  0
LINE
  5
1F8
330
1F
100
AcDbEntity
  8
ZUWAKU
  6
Continuous
 62
    30
370
    25
100
AcDbLine
 10
-136.2139718625766
 20
-397.8616298811548
 30
0.0
 11
-150.6317662350919
 21
-412.2794242536701
 31
0.0
  0
LINE
  5
1F9
330
1F
100
AcDbEntity
  8
ZUWAKU
  6
Continuous
 62
    30
370
    25
100
AcDbLine
 10
-135.3654437251525
 20
-397.8616298811548
 30
0.0
 11
-149.613532470183
 21
-412.1097186261853
 31
0.0
  0
LINE
  5
1FA
330
1F
100
AcDbEntity
  8
ZUWAKU
  6
Continuous
 62
    30
370
    25
100
AcDbLine
 10
-135.193233764909
 20
-398.5379480583351
 30
0.0
 11
-148.5952987052744
 21
-411.9400129987005
 31
0.0
  0
LINE
  5
1FB
330
1F
100
AcDbEntity
  8
ZUWAKU
  6
Continuous
 62
    30
370
    25
100
AcDbLine
 10
-135.5326450198785
 20
-399.7258874507285
 30
0.0
 11
-147.4232424304267
 21
-411.6164848612767
 31
0.0
  0
LINE
  5
1FC
330
1F
100
AcDbEntity
  8
ZUWAKU
  6
Continuous
 62
    30
370
    25
100
AcDbLine
 10
-136.0115491603884
 20
-401.0533197286623
 30
0.0
 11
-146.2353030380332
 21
-411.2770736063071
 31
0.0
  0
LINE
  5
1FD
330
1F
100
AcDbEntity
  8
ZUWAKU
  6
Continuous
 62
    30
370
    25
100
AcDbLine
 10
-136.7388589924659
 20
-402.6291576981636
 30
0.0
 11
-144.9882467631855
 21
-410.8785454688832
 31
0.0
  0
LINE
  5
1FE
330
1F
100
AcDbEntity
  8
ZUWAKU
  6
Continuous
 62
    30
370
    25
100
AcDbLine
 10
-138.2543939239345
 20
-404.9932207670562
 30
0.0
 11
-143.7154545570497
 21
-410.4542814001712
 31
0.0
  0
LINE
  5
1FF
330
1F
100
AcDbEntity
  8
ZUWAKU
  6
Continuous
 62
    30
370
    25
100
AcDbLine
 10
-139.9772260735637
 20
-407.5645810541092
 30
0.0
 11
-142.905080914518
 21
-410.4924358950635
 31
0.0
  0
LINE
  5
200
330
1F
100
AcDbEntity
  8
ZUWAKU
  6
Continuous
 62
    30
370
    25
100
AcDbLine
 10
-139.6566709994258
 20
-408.0925541173952
 30
0.0
 11
-142.5818321002613
 21
-411.0177152182307
 31
0.0
  0
LINE
  5
201
330
1F
100
AcDbEntity
  8
ZUWAKU
  6
Continuous
 62
    30
370
    25
100
AcDbLine
 10
-139.3361159252879
 20
-408.6205271806812
 30
0.0
 11
-142.2585832860046
 21
-411.5429945413979
 31
0.0
  0
LINE
  5
202
330
1F
100
AcDbEntity
  8
ZUWAKU
  6
Continuous
 62
    30
370
    25
100
AcDbLine
 10
-139.01556085115
 20
-409.1485002439672
 30
0.0
 11
-141.9353344717479
 21
-412.068273864565
 31
0.0
  0
LINE
  5
203
330
1F
100
AcDbEntity
  8
ZUWAKU
  6
Continuous
 62
    30
370
    25
100
AcDbLine
 10
-138.6950057770121
 20
-409.6764733072531
 30
0.0
 11
-141.6120856574912
 21
-412.5935531877321
 31
0.0
  0
LINE
  5
204
330
1F
100
AcDbEntity
  8
ZUWAKU
  6
Continuous
 62
    30
370
    25
100
AcDbLine
 10
-138.3744507028742
 20
-410.204446370539
 30
0.0
 11
-140.84413421349
 21
-412.6741298811548
 31
0.0
  0
LINE
  5
205
330
1F
100
AcDbEntity
  8
ZUWAKU
  6
Continuous
 62
    30
370
    25
100
AcDbLine
 10
-138.0538956287363
 20
-410.732419433825
 30
0.0
 11
-139.995606076066
 21
-412.6741298811548
 31
0.0
  0
LINE
  5
206
330
1F
100
AcDbEntity
  8
ZUWAKU
  6
Continuous
 62
    30
370
    25
100
AcDbLine
 10
-137.7333405545983
 20
-411.260392497111
 30
0.0
 11
-139.1470779386422
 21
-412.6741298811548
 31
0.0
  0
LINE
  5
207
330
1F
100
AcDbEntity
  8
ZUWAKU
  6
Continuous
 62
    30
370
    25
100
AcDbLine
 10
-137.4127854804604
 20
-411.7883655603969
 30
0.0
 11
-138.2985498012183
 21
-412.6741298811548
 31
0.0
  0
LINE
  5
208
330
1F
100
AcDbEntity
  8
ZUWAKU
  6
Continuous
 62
    30
370
    25
100
AcDbLine
 10
-137.0922304063225
 20
-412.3163386236829
 30
0.0
 11
-137.4500216637944
 21
-412.6741298811548
 31
0.0
  0
LINE
  5
209
330
1F
100
AcDbEntity
  8
ZUWAKU
  6
Continuous
 62
    30
370
    25
100
AcDbLine
 10
-160.4437500000004
 20
-397.8616298811548
 30
0.0
 11
-163.8187500000004
 21
-401.2366298811548
 31
0.0
  0
LINE
  5
20A
330
1F
100
AcDbEntity
  8
ZUWAKU
  6
Continuous
 62
    30
370
    25
100
AcDbLine
 10
-161.2922781374242
 20
-397.8616298811548
 30
0.0
 11
-164.6672781374242
 21
-401.2366298811548
 31
0.0
  0
LINE
  5
20B
330
1F
100
AcDbEntity
  8
ZUWAKU
  6
Continuous
 62
    30
370
    25
100
AcDbLine
 10
-162.1408062748482
 20
-397.8616298811548
 30
0.0
 11
-165.5158062748481
 21
-401.2366298811548
 31
0.0
  0
LINE
  5
20C
330
1F
100
AcDbEntity
  8
ZUWAKU
  6
Continuous
 62
    30
370
    25
100
AcDbLine
 10
-162.9893344122719
 20
-397.8616298811548
 30
0.0
 11
-165.4204235558275
 21
-400.2927190247105
 31
0.0
  0
LINE
  5
20D
330
1F
100
AcDbEntity
  8
ZUWAKU
  6
Continuous
 62
    30
370
    25
100
AcDbLine
 10
-163.8378625496958
 20
-397.8616298811548
 30
0.0
 11
-164.8804511047396
 21
-398.9042184361985
 31
0.0
  0
LINE
  5
20E
330
1F
100
AcDbEntity
  8
ZUWAKU
  6
Continuous
 62
    30
370
    25
100
AcDbLine
 10
-159.5952218625767
 20
-397.8616298811548
 30
0.0
 11
-162.9702218625766
 21
-401.2366298811548
 31
0.0
  0
LINE
  5
20F
330
1F
100
AcDbEntity
  8
ZUWAKU
  6
Continuous
 62
    30
370
    25
100
AcDbLine
 10
-158.7466937251525
 20
-397.8616298811548
 30
0.0
 11
-162.1216937251525
 21
-401.2366298811548
 31
0.0
  0
LINE
  5
210
330
1F
100
AcDbEntity
  8
ZUWAKU
  6
Continuous
 62
    30
370
    25
100
AcDbLine
 10
-158.7634172061361
 20
-398.7268814995623
 30
0.0
 11
-161.2731655877287
 21
-401.2366298811548
 31
0.0
  0
LINE
  5
211
330
1F
100
AcDbEntity
  8
ZUWAKU
  6
Continuous
 62
    30
370
    25
100
AcDbLine
 10
-159.187681274848
 20
-399.9996737056979
 30
0.0
 11
-160.4246374503049
 21
-401.2366298811548
 31
0.0
  0
LINE
  5
212
330
1F
100
AcDbEntity
  8
ZUWAKU
  6
Continuous
 62
    30
370
    25
100
AcDbLine
 10
-159.5761093128809
 20
-401.2366298811548
 30
0.0
 11
-159.61194534356
 21
-401.2724659118339
 31
0.0
  0
LINE
  5
213
330
1F
100
AcDbEntity
  8
ZUWAKU
  6
Continuous
 62
    30
370
    25
100
AcDbLine
 10
-161.5687500000003
 20
-407.9866298811548
 30
0.0
 11
-166.2562500000003
 21
-412.6741298811548
 31
0.0
  0
LINE
  5
214
330
1F
100
AcDbEntity
  8
ZUWAKU
  6
Continuous
 62
    30
370
    25
100
AcDbLine
 10
-162.4172781374243
 20
-407.9866298811548
 30
0.0
 11
-167.1047781374243
 21
-412.6741298811548
 31
0.0
  0
LINE
  5
215
330
1F
100
AcDbEntity
  8
ZUWAKU
  6
Continuous
 62
    30
370
    25
100
AcDbLine
 10
-163.265806274848
 20
-407.9866298811548
 30
0.0
 11
-167.953306274848
 21
-412.6741298811548
 31
0.0
  0
LINE
  5
216
330
1F
100
AcDbEntity
  8
ZUWAKU
  6
Continuous
 62
    30
370
    25
100
AcDbLine
 10
-164.1143344122719
 20
-407.9866298811548
 30
0.0
 11
-168.8018344122719
 21
-412.6741298811548
 31
0.0
  0
LINE
  5
217
330
1F
100
AcDbEntity
  8
ZUWAKU
  6
Continuous
 62
    30
370
    25
100
AcDbLine
 10
-164.9628625496958
 20
-407.9866298811548
 30
0.0
 11
-169.6503625496958
 21
-412.6741298811548
 31
0.0
  0
LINE
  5
218
330
1F
100
AcDbEntity
  8
ZUWAKU
  6
Continuous
 62
    30
370
    25
100
AcDbLine
 10
-165.8113906871197
 20
-407.9866298811548
 30
0.0
 11
-169.5826552384957
 21
-411.7578944325309
 31
0.0
  0
LINE
  5
219
330
1F
100
AcDbEntity
  8
ZUWAKU
  6
Continuous
 62
    30
370
    25
100
AcDbLine
 10
-166.6599188245436
 20
-407.9866298811548
 30
0.0
 11
-169.1053581611948
 21
-410.4320692178059
 31
0.0
  0
LINE
  5
21A
330
1F
100
AcDbEntity
  8
ZUWAKU
  6
Continuous
 62
    30
370
    25
100
AcDbLine
 10
-167.5084469619675
 20
-407.9866298811548
 30
0.0
 11
-168.6280610838938
 21
-409.1062440030812
 31
0.0
  0
LINE
  5
21B
330
1F
100
AcDbEntity
  8
ZUWAKU
  6
Continuous
 62
    30
370
    25
100
AcDbLine
 10
-160.7202218625766
 20
-407.9866298811548
 30
0.0
 11
-165.4077218625766
 21
-412.6741298811548
 31
0.0
  0
LINE
  5
21C
330
1F
100
AcDbEntity
  8
ZUWAKU
  6
Continuous
 62
    30
370
    25
100
AcDbLine
 10
-159.8716937251526
 20
-407.9866298811548
 30
0.0
 11
-164.5591937251526
 21
-412.6741298811548
 31
0.0
  0
LINE
  5
21D
330
1F
100
AcDbEntity
  8
ZUWAKU
  6
Continuous
 62
    30
370
    25
100
AcDbLine
 10
-151.7106655877287
 20
-400.6741298811548
 30
0.0
 11
-152.9527090076701
 21
-401.9161733010961
 31
0.0
  0
LINE
  5
21E
330
1F
100
AcDbEntity
  8
ZUWAKU
  6
Continuous
 62
    30
370
    25
100
AcDbLine
 10
-158.8213311754573
 20
-407.7847954688834
 30
0.0
 11
-163.7106655877287
 21
-412.6741298811548
 31
0.0
  0
LINE
  5
21F
330
1F
100
AcDbEntity
  8
ZUWAKU
  6
Continuous
 62
    30
370
    25
100
AcDbLine
 10
-150.8621374503048
 20
-400.6741298811548
 30
0.0
 11
-153.7134667991882
 21
-403.5254592300382
 31
0.0
  0
LINE
  5
220
330
1F
100
AcDbEntity
  8
ZUWAKU
  6
Continuous
 62
    30
370
    25
100
AcDbLine
 10
-157.1242749006094
 20
-406.9362673314594
 30
0.0
 11
-162.8621374503048
 21
-412.6741298811548
 31
0.0
  0
LINE
  5
221
330
1F
100
AcDbEntity
  8
ZUWAKU
  6
Continuous
 62
    30
370
    25
100
AcDbLine
 10
-150.7379742793225
 20
-401.3984948475965
 30
0.0
 11
-162.0136093128809
 21
-412.6741298811548
 31
0.0
  0
LINE
  5
222
330
1F
100
AcDbEntity
  8
ZUWAKU
  6
Continuous
 62
    30
370
    25
100
AcDbLine
 10
-150.9376279587164
 20
-402.4466766644142
 30
0.0
 11
-161.165081175457
 21
-412.6741298811548
 31
0.0
  0
LINE
  5
223
330
1F
100
AcDbEntity
  8
ZUWAKU
  6
Continuous
 62
    30
370
    25
100
AcDbLine
 10
-151.1372816381102
 20
-403.4948584812318
 30
0.0
 11
-160.3165530380332
 21
-412.6741298811548
 31
0.0
  0
LINE
  5
224
330
1F
100
AcDbEntity
  8
ZUWAKU
  6
Continuous
 62
    30
370
    25
100
AcDbLine
 10
-151.3369353175041
 20
-404.5430402980495
 30
0.0
 11
-159.0624448210965
 21
-412.2685498016419
 31
0.0
  0
LINE
  5
225
330
1F
100
AcDbEntity
  8
ZUWAKU
  6
Continuous
 62
    30
370
    25
100
AcDbLine
 10
-152.5395048552226
 20
-406.594137973192
 30
0.0
 11
-157.5350941737333
 21
-411.5897272917027
 31
0.0
  0
LINE
  5
226
330
1F
100
AcDbEntity
  8
ZUWAKU
  6
Continuous
 62
    30
370
    25
100
AcDbLine
 10
-168.4312500000003
 20
-397.8616298811548
 30
0.0
 11
-181.9078125000003
 21
-411.3381923811548
 31
0.0
  0
LINE
  5
227
330
1F
100
AcDbEntity
  8
ZUWAKU
  6
Continuous
 62
    30
370
    25
100
AcDbLine
 10
-169.2797781374242
 20
-397.8616298811548
 30
0.0
 11
-181.4128377531697
 21
-409.9946894969004
 31
0.0
  0
LINE
  5
228
330
1F
100
AcDbEntity
  8
ZUWAKU
  6
Continuous
 62
    30
370
    25
100
AcDbLine
 10
-170.1283062748481
 20
-397.8616298811548
 30
0.0
 11
-180.9178630063392
 21
-408.651186612646
 31
0.0
  0
LINE
  5
229
330
1F
100
AcDbEntity
  8
ZUWAKU
  6
Continuous
 62
    30
370
    25
100
AcDbLine
 10
-170.9768344122719
 20
-397.8616298811548
 30
0.0
 11
-180.4228882595086
 21
-407.3076837283915
 31
0.0
  0
LINE
  5
22A
330
1F
100
AcDbEntity
  8
ZUWAKU
  6
Continuous
 62
    30
370
    25
100
AcDbLine
 10
-171.8253625496959
 20
-397.8616298811548
 30
0.0
 11
-179.927913512678
 21
-405.964180844137
 31
0.0
  0
LINE
  5
22B
330
1F
100
AcDbEntity
  8
ZUWAKU
  6
Continuous
 62
    30
370
    25
100
AcDbLine
 10
-172.6738906871198
 20
-397.8616298811548
 30
0.0
 11
-173.2737915010152
 21
-398.4615306950503
 31
0.0
  0
LINE
  5
22C
330
1F
100
AcDbEntity
  8
ZUWAKU
  6
Continuous
 62
    30
370
    25
100
AcDbLine
 10
-176.5824337024593
 20
-401.7701728964944
 30
0.0
 11
-180.3613906871198
 21
-405.5491298811548
 31
0.0
  0
LINE
  5
22D
330
1F
100
AcDbEntity
  8
ZUWAKU
  6
Continuous
 62
    30
370
    25
100
AcDbLine
 10
-178.067357942951
 20
-402.4065689995623
 30
0.0
 11
-181.2099188245435
 21
-405.5491298811548
 31
0.0
  0
LINE
  5
22E
330
1F
100
AcDbEntity
  8
ZUWAKU
  6
Continuous
 62
    30
370
    25
100
AcDbLine
 10
-179.2799842087981
 20
-402.7706671279855
 30
0.0
 11
-182.0584469619674
 21
-405.5491298811548
 31
0.0
  0
LINE
  5
22F
330
1F
100
AcDbEntity
  8
ZUWAKU
  6
Continuous
 62
    30
370
    25
100
AcDbLine
 10
-180.1992230243406
 20
-402.841377806104
 30
0.0
 11
-182.9069750993913
 21
-405.5491298811548
 31
0.0
  0
LINE
  5
230
330
1F
100
AcDbEntity
  8
ZUWAKU
  6
Continuous
 62
    30
370
    25
100
AcDbLine
 10
-181.1184618398831
 20
-402.9120884842226
 30
0.0
 11
-183.7555032368152
 21
-405.5491298811548
 31
0.0
  0
LINE
  5
231
330
1F
100
AcDbEntity
  8
ZUWAKU
  6
Continuous
 62
    30
370
    25
100
AcDbLine
 10
-181.9790313742391
 20
-402.9241298811548
 30
0.0
 11
-184.6040313742391
 21
-405.5491298811548
 31
0.0
  0
LINE
  5
232
330
1F
100
AcDbEntity
  8
ZUWAKU
  6
Continuous
 62
    30
370
    25
100
AcDbLine
 10
-182.8275595116629
 20
-402.9241298811548
 30
0.0
 11
-185.4525595116629
 21
-405.5491298811548
 31
0.0
  0
LINE
  5
233
330
1F
100
AcDbEntity
  8
ZUWAKU
  6
Continuous
 62
    30
370
    25
100
AcDbLine
 10
-183.6760876490868
 20
-402.9241298811548
 30
0.0
 11
-185.4827290838411
 21
-404.7307713159092
 31
0.0
  0
LINE
  5
234
330
1F
100
AcDbEntity
  8
ZUWAKU
  6
Continuous
 62
    30
370
    25
100
AcDbLine
 10
-184.5246157865108
 20
-402.9241298811548
 30
0.0
 11
-185.0113245630501
 21
-403.4108386576942
 31
0.0
  0
LINE
  5
235
330
1F
100
AcDbEntity
  8
ZUWAKU
  6
Continuous
 62
    30
370
    25
100
AcDbLine
 10
-167.5827218625766
 20
-397.8616298811548
 30
0.0
 11
-182.4027872468308
 21
-412.681695265409
 31
0.0
  0
LINE
  5
236
330
1F
100
AcDbEntity
  8
ZUWAKU
  6
Continuous
 62
    30
370
    25
100
AcDbLine
 10
-166.7341937251526
 20
-397.8616298811548
 30
0.0
 11
-173.2507798252202
 21
-404.3782159812224
 31
0.0
  0
LINE
  5
237
330
1F
100
AcDbEntity
  8
ZUWAKU
  6
Continuous
 62
    30
370
    25
100
AcDbLine
 10
-173.453434280094
 20
-404.5808704360962
 30
0.0
 11
-181.5466937251525
 21
-412.6741298811548
 31
0.0
  0
LINE
  5
238
330
1F
100
AcDbEntity
  8
ZUWAKU
  6
Continuous
 62
    30
370
    25
100
AcDbLine
 10
-165.8856655877287
 20
-397.8616298811548
 30
0.0
 11
-172.0251280711636
 21
-404.0010923645896
 31
0.0
  0
LINE
  5
239
330
1F
100
AcDbEntity
  8
ZUWAKU
  6
Continuous
 62
    30
370
    25
100
AcDbLine
 10
-173.8923281442787
 20
-405.8682924377048
 30
0.0
 11
-180.6981655877287
 21
-412.6741298811548
 31
0.0
  0
LINE
  5
23A
330
1F
100
AcDbEntity
  8
ZUWAKU
  6
Continuous
 62
    30
370
    25
100
AcDbLine
 10
-166.6395964711679
 20
-399.4640889020177
 30
0.0
 11
-170.548670651117
 21
-403.3731630819669
 31
0.0
  0
LINE
  5
23B
330
1F
100
AcDbEntity
  8
ZUWAKU
  6
Continuous
 62
    30
370
    25
100
AcDbLine
 10
-174.3312220084635
 20
-407.1557144393134
 30
0.0
 11
-179.8496374503048
 21
-412.6741298811548
 31
0.0
  0
LINE
  5
23C
330
1F
100
AcDbEntity
  8
ZUWAKU
  6
Continuous
 62
    30
370
    25
100
AcDbLine
 10
-174.7701158726483
 20
-408.4431364409221
 30
0.0
 11
-179.0011093128809
 21
-412.6741298811548
 31
0.0
  0
LINE
  5
23D
330
1F
100
AcDbEntity
  8
ZUWAKU
  6
Continuous
 62
    30
370
    25
100
AcDbLine
 10
-175.2090097368331
 20
-409.7305584425309
 30
0.0
 11
-178.152581175457
 21
-412.6741298811548
 31
0.0
  0
LINE
  5
23E
330
1F
100
AcDbEntity
  8
ZUWAKU
  6
Continuous
 62
    30
370
    25
100
AcDbLine
 10
-175.6479036010178
 20
-411.0179804441394
 30
0.0
 11
-177.3040530380332
 21
-412.6741298811548
 31
0.0
  0
LINE
  5
23F
330
1F
100
AcDbEntity
  8
ZUWAKU
  6
Continuous
 62
    30
370
    25
100
AcDbLine
 10
-176.0867974652026
 20
-412.3054024457481
 30
0.0
 11
-176.4555249006093
 21
-412.6741298811548
 31
0.0
  0
LINE
  5
240
330
1F
100
AcDbEntity
  8
ZUWAKU
  6
Continuous
 62
    30
370
    25
100
AcDbLine
 10
-190.7062500000003
 20
-397.8616298811548
 30
0.0
 11
-194.0812500000003
 21
-401.2366298811548
 31
0.0
  0
LINE
  5
241
330
1F
100
AcDbEntity
  8
ZUWAKU
  6
Continuous
 62
    30
370
    25
100
AcDbLine
 10
-191.5547781374242
 20
-397.8616298811548
 30
0.0
 11
-194.9297781374242
 21
-401.2366298811548
 31
0.0
  0
LINE
  5
242
330
1F
100
AcDbEntity
  8
ZUWAKU
  6
Continuous
 62
    30
370
    25
100
AcDbLine
 10
-192.4033062748481
 20
-397.8616298811548
 30
0.0
 11
-195.7783062748481
 21
-401.2366298811548
 31
0.0
  0
LINE
  5
243
330
1F
100
AcDbEntity
  8
ZUWAKU
  6
Continuous
 62
    30
370
    25
100
AcDbLine
 10
-193.2518344122719
 20
-397.8616298811548
 30
0.0
 11
-196.6268344122719
 21
-401.2366298811548
 31
0.0
  0
LINE
  5
244
330
1F
100
AcDbEntity
  8
ZUWAKU
  6
Continuous
 62
    30
370
    25
100
AcDbLine
 10
-194.1003625496958
 20
-397.8616298811548
 30
0.0
 11
-197.4753625496958
 21
-401.2366298811548
 31
0.0
  0
LINE
  5
245
330
1F
100
AcDbEntity
  8
ZUWAKU
  6
Continuous
 62
    30
370
    25
100
AcDbLine
 10
-194.9488906871197
 20
-397.8616298811548
 30
0.0
 11
-198.3238906871197
 21
-401.2366298811548
 31
0.0
  0
LINE
  5
246
330
1F
100
AcDbEntity
  8
ZUWAKU
  6
Continuous
 62
    30
370
    25
100
AcDbLine
 10
-195.7974188245436
 20
-397.8616298811548
 30
0.0
 11
-199.1724188245436
 21
-401.2366298811548
 31
0.0
  0
LINE
  5
247
330
1F
100
AcDbEntity
  8
ZUWAKU
  6
Continuous
 62
    30
370
    25
100
AcDbLine
 10
-196.6459469619674
 20
-397.8616298811548
 30
0.0
 11
-199.6895265190168
 21
-400.9052094382041
 31
0.0
  0
LINE
  5
248
330
1F
100
AcDbEntity
  8
ZUWAKU
  6
Continuous
 62
    30
370
    25
100
AcDbLine
 10
-197.4944750993913
 20
-397.8616298811548
 30
0.0
 11
-199.2652624503048
 21
-399.6324172320683
 31
0.0
  0
LINE
  5
249
330
1F
100
AcDbEntity
  8
ZUWAKU
  6
Continuous
 62
    30
370
    25
100
AcDbLine
 10
-198.3430032368152
 20
-397.8616298811548
 30
0.0
 11
-198.8409983815929
 21
-398.3596250259325
 31
0.0
  0
LINE
  5
24A
330
1F
100
AcDbEntity
  8
ZUWAKU
  6
Continuous
 62
    30
370
    25
100
AcDbLine
 10
-189.8577218625766
 20
-397.8616298811548
 30
0.0
 11
-193.2327218625766
 21
-401.2366298811548
 31
0.0
  0
LINE
  5
24B
330
1F
100
AcDbEntity
  8
ZUWAKU
  6
Continuous
 62
    30
370
    25
100
AcDbLine
 10
-189.0091937251526
 20
-397.8616298811548
 30
0.0
 11
-192.3841937251526
 21
-401.2366298811548
 31
0.0
  0
LINE
  5
24C
330
1F
100
AcDbEntity
  8
ZUWAKU
  6
Continuous
 62
    30
370
    25
100
AcDbLine
 10
-188.1606655877287
 20
-397.8616298811548
 30
0.0
 11
-191.5356655877287
 21
-401.2366298811548
 31
0.0
  0
LINE
  5
24D
330
1F
100
AcDbEntity
  8
ZUWAKU
  6
Continuous
 62
    30
370
    25
100
AcDbLine
 10
-187.3121374503048
 20
-397.8616298811548
 30
0.0
 11
-190.6871374503048
 21
-401.2366298811548
 31
0.0
  0
LINE
  5
24E
330
1F
100
AcDbEntity
  8
ZUWAKU
  6
Continuous
 62
    30
370
    25
100
AcDbLine
 10
-186.4636093128809
 20
-397.8616298811548
 30
0.0
 11
-189.8386093128809
 21
-401.2366298811548
 31
0.0
  0
LINE
  5
24F
330
1F
100
AcDbEntity
  8
ZUWAKU
  6
Continuous
 62
    30
370
    25
100
AcDbLine
 10
-185.6150811754571
 20
-397.8616298811548
 30
0.0
 11
-188.9900811754571
 21
-401.2366298811548
 31
0.0
  0
LINE
  5
250
330
1F
100
AcDbEntity
  8
ZUWAKU
  6
Continuous
 62
    30
370
    25
100
AcDbLine
 10
-185.0979734809839
 20
-398.1930503241055
 30
0.0
 11
-188.1415530380332
 21
-401.2366298811548
 31
0.0
  0
LINE
  5
251
330
1F
100
AcDbEntity
  8
ZUWAKU
  6
Continuous
 62
    30
370
    25
100
AcDbLine
 10
-185.5222375496959
 20
-399.4658425302413
 30
0.0
 11
-187.2930249006093
 21
-401.2366298811548
 31
0.0
  0
LINE
  5
252
330
1F
100
AcDbEntity
  8
ZUWAKU
  6
Continuous
 62
    30
370
    25
100
AcDbLine
 10
-185.9465016184078
 20
-400.7386347363772
 30
0.0
 11
-186.4444967631854
 21
-401.2366298811548
 31
0.0
  0
LINE
  5
253
330
1F
100
AcDbEntity
  8
ZUWAKU
  6
Continuous
 62
    30
370
    25
100
AcDbLine
 10
-190.4250000000003
 20
-402.9241298811548
 30
0.0
 11
-193.0500000000003
 21
-405.5491298811548
 31
0.0
  0
LINE
  5
254
330
1F
100
AcDbEntity
  8
ZUWAKU
  6
Continuous
 62
    30
370
    25
100
AcDbLine
 10
-197.3625000000003
 20
-409.8616298811548
 30
0.0
 11
-200.1750000000003
 21
-412.6741298811548
 31
0.0
  0
LINE
  5
255
330
1F
100
AcDbEntity
  8
ZUWAKU
  6
Continuous
 62
    30
370
    25
100
AcDbLine
 10
-191.2735281374242
 20
-402.9241298811548
 30
0.0
 11
-193.8985281374242
 21
-405.5491298811548
 31
0.0
  0
LINE
  5
256
330
1F
100
AcDbEntity
  8
ZUWAKU
  6
Continuous
 62
    30
370
    25
100
AcDbLine
 10
-198.2110281374242
 20
-409.8616298811548
 30
0.0
 11
-201.0235281374242
 21
-412.6741298811548
 31
0.0
  0
LINE
  5
257
330
1F
100
AcDbEntity
  8
ZUWAKU
  6
Continuous
 62
    30
370
    25
100
AcDbLine
 10
-192.122056274848
 20
-402.9241298811548
 30
0.0
 11
-194.747056274848
 21
-405.5491298811548
 31
0.0
  0
LINE
  5
258
330
1F
100
AcDbEntity
  8
ZUWAKU
  6
Continuous
 62
    30
370
    25
100
AcDbLine
 10
-199.059556274848
 20
-409.8616298811548
 30
0.0
 11
-201.872056274848
 21
-412.6741298811548
 31
0.0
  0
LINE
  5
259
330
1F
100
AcDbEntity
  8
ZUWAKU
  6
Continuous
 62
    30
370
    25
100
AcDbLine
 10
-192.9705844122719
 20
-402.9241298811548
 30
0.0
 11
-195.5955844122719
 21
-405.5491298811548
 31
0.0
  0
LINE
  5
25A
330
1F
100
AcDbEntity
  8
ZUWAKU
  6
Continuous
 62
    30
370
    25
100
AcDbLine
 10
-199.9080844122719
 20
-409.8616298811548
 30
0.0
 11
-202.7205844122719
 21
-412.6741298811548
 31
0.0
  0
LINE
  5
25B
330
1F
100
AcDbEntity
  8
ZUWAKU
  6
Continuous
 62
    30
370
    25
100
AcDbLine
 10
-193.8191125496958
 20
-402.9241298811548
 30
0.0
 11
-196.4441125496958
 21
-405.5491298811548
 31
0.0
  0
LINE
  5
25C
330
1F
100
AcDbEntity
  8
ZUWAKU
  6
Continuous
 62
    30
370
    25
100
AcDbLine
 10
-200.7566125496958
 20
-409.8616298811548
 30
0.0
 11
-203.5691125496958
 21
-412.6741298811548
 31
0.0
  0
LINE
  5
25D
330
1F
100
AcDbEntity
  8
ZUWAKU
  6
Continuous
 62
    30
370
    25
100
AcDbLine
 10
-194.6676406871197
 20
-402.9241298811548
 30
0.0
 11
-197.2926406871197
 21
-405.5491298811548
 31
0.0
  0
LINE
  5
25E
330
1F
100
AcDbEntity
  8
ZUWAKU
  6
Continuous
 62
    30
370
    25
100
AcDbLine
 10
-201.6051406871197
 20
-409.8616298811548
 30
0.0
 11
-203.5965728752541
 21
-411.8530620692891
 31
0.0
  0
LINE
  5
25F
330
1F
100
AcDbEntity
  8
ZUWAKU
  6
Continuous
 62
    30
370
    25
100
AcDbLine
 10
-195.5161688245436
 20
-402.9241298811548
 30
0.0
 11
-198.1411688245436
 21
-405.5491298811548
 31
0.0
  0
LINE
  5
260
330
1F
100
AcDbEntity
  8
ZUWAKU
  6
Continuous
 62
    30
370
    25
100
AcDbLine
 10
-202.4536688245436
 20
-409.8616298811548
 30
0.0
 11
-203.0308874503048
 21
-410.438848506916
 31
0.0
  0
LINE
  5
261
330
1F
100
AcDbEntity
  8
ZUWAKU
  6
Continuous
 62
    30
370
    25
100
AcDbLine
 10
-196.3646969619674
 20
-402.9241298811548
 30
0.0
 11
-198.9896969619674
 21
-405.5491298811548
 31
0.0
  0
LINE
  5
262
330
1F
100
AcDbEntity
  8
ZUWAKU
  6
Continuous
 62
    30
370
    25
100
AcDbLine
 10
-197.2132250993913
 20
-402.9241298811548
 30
0.0
 11
-199.8382250993913
 21
-405.5491298811548
 31
0.0
  0
LINE
  5
263
330
1F
100
AcDbEntity
  8
ZUWAKU
  6
Continuous
 62
    30
370
    25
100
AcDbLine
 10
-198.0617532368152
 20
-402.9241298811548
 30
0.0
 11
-200.6867532368152
 21
-405.5491298811548
 31
0.0
  0
LINE
  5
264
330
1F
100
AcDbEntity
  8
ZUWAKU
  6
Continuous
 62
    30
370
    25
100
AcDbLine
 10
-198.9102813742391
 20
-402.9241298811548
 30
0.0
 11
-200.6808874503048
 21
-404.6947359572205
 31
0.0
  0
LINE
  5
265
330
1F
100
AcDbEntity
  8
ZUWAKU
  6
Continuous
 62
    30
370
    25
100
AcDbLine
 10
-199.7588095116629
 20
-402.9241298811548
 30
0.0
 11
-200.3414761953353
 21
-403.5067965648271
 31
0.0
  0
LINE
  5
266
330
1F
100
AcDbEntity
  8
ZUWAKU
  6
Continuous
 62
    30
370
    25
100
AcDbLine
 10
-189.5764718625766
 20
-402.9241298811548
 30
0.0
 11
-193.3894112549698
 21
-406.7370692735481
 31
0.0
  0
LINE
  5
267
330
1F
100
AcDbEntity
  8
ZUWAKU
  6
Continuous
 62
    30
370
    25
100
AcDbLine
 10
-196.2676515190174
 20
-409.6153095375956
 30
0.0
 11
-199.3264718625766
 21
-412.6741298811548
 31
0.0
  0
LINE
  5
268
330
1F
100
AcDbEntity
  8
ZUWAKU
  6
Continuous
 62
    30
370
    25
100
AcDbLine
 10
-188.7279437251525
 20
-402.9241298811548
 30
0.0
 11
-198.4779437251525
 21
-412.6741298811548
 31
0.0
  0
LINE
  5
269
330
1F
100
AcDbEntity
  8
ZUWAKU
  6
Continuous
 62
    30
370
    25
100
AcDbLine
 10
-187.8794155877287
 20
-402.9241298811548
 30
0.0
 11
-197.6294155877287
 21
-412.6741298811548
 31
0.0
  0
LINE
  5
26A
330
1F
100
AcDbEntity
  8
ZUWAKU
  6
Continuous
 62
    30
370
    25
100
AcDbLine
 10
-187.0308874503048
 20
-402.9241298811548
 30
0.0
 11
-196.7808874503048
 21
-412.6741298811548
 31
0.0
  0
LINE
  5
26B
330
1F
100
AcDbEntity
  8
ZUWAKU
  6
Continuous
 62
    30
370
    25
100
AcDbLine
 10
-186.9565089640686
 20
-403.6982795323424
 30
0.0
 11
-195.9323593128809
 21
-412.6741298811548
 31
0.0
  0
LINE
  5
26C
330
1F
100
AcDbEntity
  8
ZUWAKU
  6
Continuous
 62
    30
370
    25
100
AcDbLine
 10
-187.4413821854536
 20
-405.0316808911515
 30
0.0
 11
-195.083831175457
 21
-412.6741298811548
 31
0.0
  0
LINE
  5
26D
330
1F
100
AcDbEntity
  8
ZUWAKU
  6
Continuous
 62
    30
370
    25
100
AcDbLine
 10
-187.9262554068387
 20
-406.3650822499603
 30
0.0
 11
-194.1929040507108
 21
-412.6317308938324
 31
0.0
  0
LINE
  5
26E
330
1F
100
AcDbEntity
  8
ZUWAKU
  6
Continuous
 62
    30
370
    25
100
AcDbLine
 10
-188.4111286282238
 20
-407.6984836087693
 30
0.0
 11
-193.0615332008123
 21
-412.3488881813578
 31
0.0
  0
LINE
  5
26F
330
1F
100
AcDbEntity
  8
ZUWAKU
  6
Continuous
 62
    30
370
    25
100
AcDbLine
 10
-188.8960018496089
 20
-409.0318849675783
 30
0.0
 11
-191.4639935263705
 21
-411.5998766443399
 31
0.0
  0
LINE
  5
270
330
1F
100
AcDbEntity
  8
ZUWAKU
  6
Continuous
 62
    30
370
    25
100
AcDbLine
 10
-200.9625000000003
 20
-397.8616298811548
 30
0.0
 11
-208.7320312500003
 21
-405.6311611311548
 31
0.0
  0
LINE
  5
271
330
1F
100
AcDbEntity
  8
ZUWAKU
  6
Continuous
 62
    30
370
    25
100
AcDbLine
 10
-212.9089285714289
 20
-409.8080584525834
 30
0.0
 11
-215.7750000000003
 21
-412.6741298811548
 31
0.0
  0
LINE
  5
272
330
1F
100
AcDbEntity
  8
ZUWAKU
  6
Continuous
 62
    30
370
    25
100
AcDbLine
 10
-201.8110281374242
 20
-397.8616298811548
 30
0.0
 11
-208.2282176684049
 21
-404.2788194121355
 31
0.0
  0
LINE
  5
273
330
1F
100
AcDbEntity
  8
ZUWAKU
  6
Continuous
 62
    30
370
    25
100
AcDbLine
 10
-213.8110281374242
 20
-409.8616298811548
 30
0.0
 11
-215.6319859312883
 21
-411.682587675019
 31
0.0
  0
LINE
  5
274
330
1F
100
AcDbEntity
  8
ZUWAKU
  6
Continuous
 62
    30
370
    25
100
AcDbLine
 10
-202.6595562748481
 20
-397.8616298811548
 30
0.0
 11
-207.7244040868095
 21
-402.9264776931162
 31
0.0
  0
LINE
  5
275
330
1F
100
AcDbEntity
  8
ZUWAKU
  6
Continuous
 62
    30
370
    25
100
AcDbLine
 10
-214.6595562748481
 20
-409.8616298811548
 30
0.0
 11
-215.2077218625765
 21
-410.4097954688832
 31
0.0
  0
LINE
  5
276
330
1F
100
AcDbEntity
  8
ZUWAKU
  6
Continuous
 62
    30
370
    25
100
AcDbLine
 10
-203.508084412272
 20
-397.8616298811548
 30
0.0
 11
-207.2205905052141
 21
-401.5741359740969
 31
0.0
  0
LINE
  5
277
330
1F
100
AcDbEntity
  8
ZUWAKU
  6
Continuous
 62
    30
370
    25
100
AcDbLine
 10
-204.3566125496959
 20
-397.8616298811548
 30
0.0
 11
-206.7167769236186
 21
-400.2217942550776
 31
0.0
  0
LINE
  5
278
330
1F
100
AcDbEntity
  8
ZUWAKU
  6
Continuous
 62
    30
370
    25
100
AcDbLine
 10
-205.2051406871197
 20
-397.8616298811548
 30
0.0
 11
-206.2129633420232
 21
-398.8694525360584
 31
0.0
  0
LINE
  5
279
330
1F
100
AcDbEntity
  8
ZUWAKU
  6
Continuous
 62
    30
370
    25
100
AcDbLine
 10
-201.1139887884227
 20
-398.8616468070009
 30
0.0
 11
-209.2358448315956
 21
-406.9835028501739
 31
0.0
  0
LINE
  5
27A
330
1F
100
AcDbEntity
  8
ZUWAKU
  6
Continuous
 62
    30
370
    25
100
AcDbLine
 10
-211.939182128659
 20
-409.6868401472371
 30
0.0
 11
-214.9264718625766
 21
-412.6741298811548
 31
0.0
  0
LINE
  5
27B
330
1F
100
AcDbEntity
  8
ZUWAKU
  6
Continuous
 62
    30
370
    25
100
AcDbLine
 10
-201.5491314229992
 20
-400.1453175790014
 30
0.0
 11
-210.3183874503049
 21
-408.914573606307
 31
0.0
  0
LINE
  5
27C
330
1F
100
AcDbEntity
  8
ZUWAKU
  6
Continuous
 62
    30
370
    25
100
AcDbLine
 10
-210.3534271247466
 20
-408.9496132807487
 30
0.0
 11
-214.0779437251526
 21
-412.6741298811548
 31
0.0
  0
LINE
  5
27D
330
1F
100
AcDbEntity
  8
ZUWAKU
  6
Continuous
 62
    30
370
    25
100
AcDbLine
 10
-201.9842740575755
 20
-401.4289883510016
 30
0.0
 11
-213.2294155877287
 21
-412.6741298811548
 31
0.0
  0
LINE
  5
27E
330
1F
100
AcDbEntity
  8
ZUWAKU
  6
Continuous
 62
    30
370
    25
100
AcDbLine
 10
-202.4194166921519
 20
-402.7126591230018
 30
0.0
 11
-212.3808874503049
 21
-412.6741298811548
 31
0.0
  0
LINE
  5
27F
330
1F
100
AcDbEntity
  8
ZUWAKU
  6
Continuous
 62
    30
370
    25
100
AcDbLine
 10
-202.8545593267282
 20
-403.9963298950022
 30
0.0
 11
-211.5323593128809
 21
-412.6741298811548
 31
0.0
  0
LINE
  5
280
330
1F
100
AcDbEntity
  8
ZUWAKU
  6
Continuous
 62
    30
370
    25
100
AcDbLine
 10
-203.2897019613046
 20
-405.2800006670022
 30
0.0
 11
-210.6181457505078
 21
-412.6084444562055
 31
0.0
  0
LINE
  5
281
330
1F
100
AcDbEntity
  8
ZUWAKU
  6
Continuous
 62
    30
370
    25
100
AcDbLine
 10
-203.7248445958809
 20
-406.5636714390025
 30
0.0
 11
-209.6753367089257
 21
-412.5141635520473
 31
0.0
  0
LINE
  5
282
330
1F
100
AcDbEntity
  8
ZUWAKU
  6
Continuous
 62
    30
370
    25
100
AcDbLine
 10
-204.1599872304573
 20
-407.8473422110028
 30
0.0
 11
-208.3987915010152
 21
-412.0861464815607
 31
0.0
  0
LINE
  5
283
330
1F
100
AcDbEntity
  8
ZUWAKU
  6
Continuous
 62
    30
370
    25
100
AcDbLine
 10
-209.9812500000004
 20
-398.9116298811549
 30
0.0
 11
-216.9151209677423
 21
-405.8455008488967
 31
0.0
  0
LINE
  5
284
330
1F
100
AcDbEntity
  8
ZUWAKU
  6
Continuous
 62
    30
370
    25
100
AcDbLine
 10
-209.7797781374242
 20
-397.8616298811548
 30
0.0
 11
-216.4497990859292
 21
-404.5316508296597
 31
0.0
  0
LINE
  5
285
330
1F
100
AcDbEntity
  8
ZUWAKU
  6
Continuous
 62
    30
370
    25
100
AcDbLine
 10
-210.628306274848
 20
-397.8616298811548
 30
0.0
 11
-215.9844772041161
 21
-403.217800810423
 31
0.0
  0
LINE
  5
286
330
1F
100
AcDbEntity
  8
ZUWAKU
  6
Continuous
 62
    30
370
    25
100
AcDbLine
 10
-211.476834412272
 20
-397.8616298811548
 30
0.0
 11
-215.519155322303
 21
-401.9039507911858
 31
0.0
  0
LINE
  5
287
330
1F
100
AcDbEntity
  8
ZUWAKU
  6
Continuous
 62
    30
370
    25
100
AcDbLine
 10
-212.3253625496958
 20
-397.8616298811548
 30
0.0
 11
-215.0538334404899
 21
-400.5901007719489
 31
0.0
  0
LINE
  5
288
330
1F
100
AcDbEntity
  8
ZUWAKU
  6
Continuous
 62
    30
370
    25
100
AcDbLine
 10
-213.1738906871198
 20
-397.8616298811548
 30
0.0
 11
-214.5885115586768
 21
-399.2762507527119
 31
0.0
  0
LINE
  5
289
330
1F
100
AcDbEntity
  8
ZUWAKU
  6
Continuous
 62
    30
370
    25
100
AcDbLine
 10
-214.0224188245435
 20
-397.8616298811548
 30
0.0
 11
-214.1231896768638
 21
-397.9624007334751
 31
0.0
  0
LINE
  5
28A
330
1F
100
AcDbEntity
  8
ZUWAKU
  6
Continuous
 62
    30
370
    25
100
AcDbLine
 10
-210.4903668824546
 20
-400.2692749010329
 30
0.0
 11
-217.0827218625766
 21
-406.8616298811548
 31
0.0
  0
LINE
  5
28B
330
1F
100
AcDbEntity
  8
ZUWAKU
  6
Continuous
 62
    30
370
    25
100
AcDbLine
 10
-210.9994837649089
 20
-401.6269199209111
 30
0.0
 11
-216.2341937251527
 21
-406.8616298811548
 31
0.0
  0
LINE
  5
28C
330
1F
100
AcDbEntity
  8
ZUWAKU
  6
Continuous
 62
    30
370
    25
100
AcDbLine
 10
-211.5086006473632
 20
-402.9845649407894
 30
0.0
 11
-215.3856655877287
 21
-406.8616298811548
 31
0.0
  0
LINE
  5
28D
330
1F
100
AcDbEntity
  8
ZUWAKU
  6
Continuous
 62
    30
370
    25
100
AcDbLine
 10
-212.0177175298176
 20
-404.3422099606677
 30
0.0
 11
-214.5371374503048
 21
-406.8616298811548
 31
0.0
  0
LINE
  5
28E
330
1F
100
AcDbEntity
  8
ZUWAKU
  6
Continuous
 62
    30
370
    25
100
AcDbLine
 10
-212.5268344122719
 20
-405.6998549805458
 30
0.0
 11
-213.688609312881
 21
-406.8616298811548
 31
0.0
  0
LINE
  5
28F
330
1F
100
AcDbEntity
  8
ZUWAKU
  6
Continuous
 62
    30
370
    25
100
AcDbLine
 10
-242.2499999999996
 20
420.5758701188451
 30
0.0
 11
-244.7926304347822
 21
425.0743701188451
 31
0.0
  0
LINE
  5
290
330
1F
100
AcDbEntity
  8
ZUWAKU
  6
Continuous
 62
    30
370
    25
100
AcDbLine
 10
-254.9266674751011
 20
429.0133701188452
 30
0.0
 11
-254.6141674751011
 21
429.9508701188451
 31
0.0
  0
LINE
  5
291
330
1F
100
AcDbEntity
  8
ZUWAKU
  6
Continuous
 62
    30
370
    25
100
AcDbLine
 10
-231.0308930701364
 20
421.6854235837767
 30
0.0
 11
-231.3719999999997
 21
421.5148701188451
 31
0.0
  0
LINE
  5
292
330
1F
100
AcDbEntity
  8
ZUWAKU
  6
Continuous
 62
    30
370
    25
100
AcDbLine
 10
-230.8124999999996
 20
420.5758701188451
 30
0.0
 11
-229.2374999999996
 21
422.1508701188454
 31
0.0
  0
LINE
  5
293
330
1F
100
AcDbEntity
  8
ZUWAKU
  6
Continuous
 62
    30
370
    25
100
AcDbLine
 10
-229.4999999999996
 20
420.5758701188451
 30
0.0
 11
-229.2374999999996
 21
422.1508701188454
 31
0.0
  0
LINE
  5
294
330
1F
100
AcDbEntity
  8
ZUWAKU
  6
Continuous
 62
    30
370
    25
100
AcDbLine
 10
-222.5624999999996
 20
421.8883701188451
 30
0.0
 11
-222.5624999999996
 21
421.5148701188451
 31
0.0
  0
LINE
  5
295
330
1F
100
AcDbEntity
  8
ZUWAKU
  6
Continuous
 62
    30
370
    25
100
AcDbLine
 10
-214.2674383611439
 20
420.5758701188451
 30
0.0
 11
-217.6874999999996
 21
420.5758701188451
 31
0.0
  0
LINE
  5
296
330
1F
100
AcDbEntity
  8
ZUWAKU
  6
Continuous
 62
    30
370
    25
100
AcDbLine
 10
-219.5354025700401
 20
421.9120803700596
 30
0.0
 11
-221.0624999999996
 21
420.5758701188451
 31
0.0
  0
LINE
  5
297
330
1F
100
AcDbEntity
  8
ZUWAKU
  6
Continuous
 62
    30
370
    25
100
AcDbLine
 10
-208.7002559918127
 20
420.5758701188451
 30
0.0
 11
-212.6249999999997
 21
420.5758701188451
 31
0.0
  0
LINE
  5
298
330
1F
100
AcDbEntity
  8
ZUWAKU
  6
Continuous
 62
    30
370
    25
100
AcDbLine
 10
-247.8041249999996
 20
421.5148701188451
 30
0.0
 11
-244.9921874999997
 21
429.0133701188452
 31
0.0
  0
LINE
  5
299
330
1F
100
AcDbEntity
  8
ZUWAKU
  6
Continuous
 62
    30
370
    25
100
AcDbLine
 10
-245.114335060393
 20
426.0133701188452
 30
0.0
 11
-240.7254664608282
 21
426.0133701188451
 31
0.0
  0
LINE
  5
29A
330
1F
100
AcDbEntity
  8
ZUWAKU
  6
Continuous
 62
    30
370
    25
100
AcDbLine
 10
-216.8693181818177
 20
422.8258701188452
 30
0.0
 11
-217.4999999999996
 21
422.8258701188451
 31
0.0
  0
LINE
  5
29B
330
1F
100
AcDbEntity
  8
ZUWAKU
  6
Continuous
 62
    30
370
    25
100
AcDbLine
 10
-217.4999999999996
 20
422.8258701188451
 30
0.0
 11
-218.1198423269349
 21
422.8258701188451
 31
0.0
  0
LINE
  5
29C
330
1F
100
AcDbEntity
  8
ZUWAKU
  6
Continuous
 62
    30
370
    25
100
AcDbLine
 10
-223.6042344066353
 20
420.5758701188451
 30
0.0
 11
-221.0624999999996
 21
420.5758701188451
 31
0.0
  0
CIRCLE
  5
29D
330
1F
100
AcDbEntity
  8
ZUWAKU
  6
Continuous
 62
    30
370
    25
100
AcDbCircle
 10
-227.7242257193227
 20
425.8258701188451
 30
0.0
 40
0.5679757193231033
  0
LINE
  5
29E
330
1F
100
AcDbEntity
  8
ZUWAKU
  6
Continuous
 62
    30
370
    25
100
AcDbLine
 10
-247.101562500002
 20
429.0133701188453
 30
0.0
 11
-244.9921874999997
 21
429.0133701188452
 31
0.0
  0
LINE
  5
29F
330
1F
100
AcDbEntity
  8
ZUWAKU
  6
Continuous
 62
    30
370
    25
100
AcDbLine
 10
-243.989335060393
 20
429.0133701188452
 30
0.0
 11
-240.7254664608282
 21
429.0133701188452
 31
0.0
  0
LINE
  5
2A0
330
1F
100
AcDbEntity
  8
ZUWAKU
  6
Continuous
 62
    30
370
    25
100
AcDbLine
 10
-250.3124999999996
 20
420.5758701188451
 30
0.0
 11
-249.9603749999996
 21
421.5148701188451
 31
0.0
  0
LINE
  5
2A1
330
1F
100
AcDbEntity
  8
ZUWAKU
  6
Continuous
 62
    30
370
    25
100
AcDbLine
 10
-247.101562500002
 20
429.0133701188453
 30
0.0
 11
-246.7500000000021
 21
429.9508701188451
 31
0.0
  0
LINE
  5
2A2
330
1F
100
AcDbEntity
  8
ZUWAKU
  6
Continuous
 62
    30
370
    25
100
AcDbLine
 10
-247.5707654109123
 20
429.0133701188453
 30
0.0
 11
-247.2192029109124
 21
429.9508701188451
 31
0.0
  0
LINE
  5
2A3
330
1F
100
AcDbEntity
  8
ZUWAKU
  6
Continuous
 62
    30
370
    25
100
AcDbLine
 10
-240.7254664608282
 20
429.9508701188452
 30
0.0
 11
-246.7500000000021
 21
429.9508701188451
 31
0.0
  0
LINE
  5
2A4
330
1F
100
AcDbEntity
  8
ZUWAKU
  6
Continuous
 62
    30
370
    25
100
AcDbLine
 10
-247.2192029109124
 20
429.9508701188451
 30
0.0
 11
-248.1099310528359
 21
429.9508701188451
 31
0.0
  0
LINE
  5
2A5
330
1F
100
AcDbEntity
  8
ZUWAKU
  6
Continuous
 62
    30
370
    25
100
AcDbLine
 10
-248.4614935528359
 20
429.0133701188452
 30
0.0
 11
-247.5707654109123
 21
429.0133701188453
 31
0.0
  0
LINE
  5
2A6
330
1F
100
AcDbEntity
  8
ZUWAKU
  6
Continuous
 62
    30
370
    25
100
AcDbLine
 10
-248.8030508839643
 20
429.0133701188452
 30
0.0
 11
-248.4514883839645
 21
429.9508701188451
 31
0.0
  0
LINE
  5
2A7
330
1F
100
AcDbEntity
  8
ZUWAKU
  6
Continuous
 62
    30
370
    25
100
AcDbLine
 10
-248.4514883839645
 20
429.9508701188451
 30
0.0
 11
-249.1981270511677
 21
429.9508701188451
 31
0.0
  0
LINE
  5
2A8
330
1F
100
AcDbEntity
  8
ZUWAKU
  6
Continuous
 62
    30
370
    25
100
AcDbLine
 10
-249.5496895511676
 20
429.0133701188452
 30
0.0
 11
-248.8030508839644
 21
429.0133701188452
 31
0.0
  0
LINE
  5
2A9
330
1F
100
AcDbEntity
  8
ZUWAKU
  6
Continuous
 62
    30
370
    25
100
AcDbLine
 10
-249.5496895511676
 20
429.0133701188453
 30
0.0
 11
-249.1981270511677
 21
429.9508701188452
 31
0.0
  0
LINE
  5
2AA
330
1F
100
AcDbEntity
  8
ZUWAKU
  6
Continuous
 62
    30
370
    25
100
AcDbLine
 10
-249.8355875417568
 20
429.9508701188451
 30
0.0
 11
-250.5672368977669
 21
429.9508701188451
 31
0.0
  0
LINE
  5
2AB
330
1F
100
AcDbEntity
  8
ZUWAKU
  6
Continuous
 62
    30
370
    25
100
AcDbLine
 10
-250.9187993977669
 20
429.0133701188452
 30
0.0
 11
-250.1871500417567
 21
429.0133701188452
 31
0.0
  0
LINE
  5
2AC
330
1F
100
AcDbEntity
  8
ZUWAKU
  6
Continuous
 62
    30
370
    25
100
AcDbLine
 10
-250.9187993977668
 20
429.0133701188452
 30
0.0
 11
-250.5672368977669
 21
429.950870118845
 31
0.0
  0
LINE
  5
2AD
330
1F
100
AcDbEntity
  8
ZUWAKU
  6
Continuous
 62
    30
370
    25
100
AcDbLine
 10
-248.4614935528359
 20
429.0133701188452
 30
0.0
 11
-248.1099310528359
 21
429.9508701188451
 31
0.0
  0
LINE
  5
2AE
330
1F
100
AcDbEntity
  8
ZUWAKU
  6
Continuous
 62
    30
370
    25
100
AcDbLine
 10
-250.1871500417567
 20
429.0133701188452
 30
0.0
 11
-249.8355875417568
 21
429.9508701188451
 31
0.0
  0
LINE
  5
2AF
330
1F
100
AcDbEntity
  8
ZUWAKU
  6
Continuous
 62
    30
370
    25
100
AcDbLine
 10
-251.4667935468629
 20
429.0133701188452
 30
0.0
 11
-251.1152310468629
 21
429.9508701188451
 31
0.0
  0
LINE
  5
2B0
330
1F
100
AcDbEntity
  8
ZUWAKU
  6
Continuous
 62
    30
370
    25
100
AcDbLine
 10
-251.1152310468629
 20
429.9508701188451
 30
0.0
 11
-251.7917119447224
 21
429.9508701188451
 31
0.0
  0
LINE
  5
2B1
330
1F
100
AcDbEntity
  8
ZUWAKU
  6
Continuous
 62
    30
370
    25
100
AcDbLine
 10
-252.1432744447223
 20
429.0133701188452
 30
0.0
 11
-251.4667935468629
 21
429.0133701188452
 31
0.0
  0
LINE
  5
2B2
330
1F
100
AcDbEntity
  8
ZUWAKU
  6
Continuous
 62
    30
370
    25
100
AcDbLine
 10
-252.1432744447223
 20
429.0133701188452
 30
0.0
 11
-251.7917119447224
 21
429.950870118845
 31
0.0
  0
LINE
  5
2B3
330
1F
100
AcDbEntity
  8
ZUWAKU
  6
Continuous
 62
    30
370
    25
100
AcDbLine
 10
-252.7159276049387
 20
429.0133701188452
 30
0.0
 11
-252.3643651049387
 21
429.9508701188452
 31
0.0
  0
LINE
  5
2B4
330
1F
100
AcDbEntity
  8
ZUWAKU
  6
Continuous
 62
    30
370
    25
100
AcDbLine
 10
-252.3643651049387
 20
429.9508701188451
 30
0.0
 11
-252.9659276049387
 21
429.9508701188451
 31
0.0
  0
LINE
  5
2B5
330
1F
100
AcDbEntity
  8
ZUWAKU
  6
Continuous
 62
    30
370
    25
100
AcDbLine
 10
-253.2784276049387
 20
429.0133701188452
 30
0.0
 11
-252.7159276049387
 21
429.0133701188452
 31
0.0
  0
LINE
  5
2B6
330
1F
100
AcDbEntity
  8
ZUWAKU
  6
Continuous
 62
    30
370
    25
100
AcDbLine
 10
-253.2784276049387
 20
429.0133701188452
 30
0.0
 11
-252.9659276049387
 21
429.9508701188451
 31
0.0
  0
LINE
  5
2B7
330
1F
100
AcDbEntity
  8
ZUWAKU
  6
Continuous
 62
    30
370
    25
100
AcDbLine
 10
-253.8774451574508
 20
429.0133701188452
 30
0.0
 11
-253.5649451574508
 21
429.9508701188451
 31
0.0
  0
LINE
  5
2B8
330
1F
100
AcDbEntity
  8
ZUWAKU
  6
Continuous
 62
    30
370
    25
100
AcDbLine
 10
-254.3641674751011
 20
429.0133701188452
 30
0.0
 11
-254.0516674751011
 21
429.9508701188451
 31
0.0
  0
LINE
  5
2B9
330
1F
100
AcDbEntity
  8
ZUWAKU
  6
Continuous
 62
    30
370
    25
100
AcDbLine
 10
-255.2704174751011
 20
429.0133701188452
 30
0.0
 11
-254.9579174751011
 21
429.9508701188451
 31
0.0
  0
LINE
  5
2BA
330
1F
100
AcDbEntity
  8
ZUWAKU
  6
Continuous
 62
    30
370
    25
100
AcDbLine
 10
-255.8641674751011
 20
429.0133701188453
 30
0.0
 11
-255.5516674751011
 21
429.9508701188451
 31
0.0
  0
LINE
  5
2BB
330
1F
100
AcDbEntity
  8
ZUWAKU
  6
Continuous
 62
    30
370
    25
100
AcDbLine
 10
-256.0204174751011
 20
429.0133701188452
 30
0.0
 11
-255.707917475101
 21
429.9508701188451
 31
0.0
  0
LINE
  5
2BC
330
1F
100
AcDbEntity
  8
ZUWAKU
  6
Continuous
 62
    30
370
    25
100
AcDbLine
 10
-253.5649451574508
 20
429.9508701188451
 30
0.0
 11
-254.0516674751011
 21
429.9508701188451
 31
0.0
  0
LINE
  5
2BD
330
1F
100
AcDbEntity
  8
ZUWAKU
  6
Continuous
 62
    30
370
    25
100
AcDbLine
 10
-254.3641674751011
 20
429.0133701188452
 30
0.0
 11
-253.8774451574508
 21
429.0133701188452
 31
0.0
  0
LINE
  5
2BE
330
1F
100
AcDbEntity
  8
ZUWAKU
  6
Continuous
 62
    30
370
    25
100
AcDbLine
 10
-254.6141674751011
 20
429.9508701188451
 30
0.0
 11
-254.9579174751011
 21
429.9508701188451
 31
0.0
  0
LINE
  5
2BF
330
1F
100
AcDbEntity
  8
ZUWAKU
  6
Continuous
 62
    30
370
    25
100
AcDbLine
 10
-255.5516674751011
 20
429.9508701188451
 30
0.0
 11
-255.707917475101
 21
429.9508701188451
 31
0.0
  0
LINE
  5
2C0
330
1F
100
AcDbEntity
  8
ZUWAKU
  6
Continuous
 62
    30
370
    25
100
AcDbLine
 10
-255.2704174751011
 20
429.0133701188452
 30
0.0
 11
-254.9266674751011
 21
429.0133701188452
 31
0.0
  0
LINE
  5
2C1
330
1F
100
AcDbEntity
  8
ZUWAKU
  6
Continuous
 62
    30
370
    25
100
AcDbLine
 10
-255.8641674751011
 20
429.0133701188452
 30
0.0
 11
-256.0204174751011
 21
429.0133701188452
 31
0.0
  0
ARC
  5
2C2
330
1F
100
AcDbEntity
  8
ZUWAKU
  6
Continuous
 62
    30
370
    25
100
AcDbCircle
 10
-240.7254664608282
 20
427.5133701188452
 30
0.0
 40
1.5
100
AcDbArc
 50
269.9999999999999
 51
89.99999999999994
  0
LINE
  5
2C3
330
1F
100
AcDbEntity
  8
ZUWAKU
  6
Continuous
 62
    30
370
    25
100
AcDbLine
 10
-249.9603749999996
 20
421.5148701188451
 30
0.0
 11
-247.8041249999996
 21
421.5148701188451
 31
0.0
  0
LINE
  5
2C4
330
1F
100
AcDbEntity
  8
ZUWAKU
  6
Continuous
 62
    30
370
    25
100
AcDbLine
 10
-250.3124999999996
 20
420.5758701188451
 30
0.0
 11
-247.153397560393
 21
420.575870118845
 31
0.0
  0
LINE
  5
2C5
330
1F
100
AcDbEntity
  8
ZUWAKU
  6
Continuous
 62
    30
370
    25
100
AcDbLine
 10
-247.153397560393
 20
420.575870118845
 30
0.0
 11
-245.4664600603929
 21
425.0743701188452
 31
0.0
  0
LINE
  5
2C6
330
1F
100
AcDbEntity
  8
ZUWAKU
  6
Continuous
 62
    30
370
    25
100
AcDbLine
 10
-245.114335060393
 20
426.0133701188452
 30
0.0
 11
-243.989335060393
 21
429.0133701188452
 31
0.0
  0
LINE
  5
2C7
330
1F
100
AcDbEntity
  8
ZUWAKU
  6
Continuous
 62
    30
370
    25
100
AcDbLine
 10
-245.4664600603929
 20
425.0743701188452
 30
0.0
 11
-244.7926304347822
 21
425.0743701188451
 31
0.0
  0
LINE
  5
2C8
330
1F
100
AcDbEntity
  8
ZUWAKU
  6
Continuous
 62
    30
370
    25
100
AcDbLine
 10
-243.714017888696
 20
425.0743701188453
 30
0.0
 11
-240.7254664608282
 21
425.0743701188451
 31
0.0
  0
LINE
  5
2C9
330
1F
100
AcDbEntity
  8
ZUWAKU
  6
Continuous
 62
    30
370
    25
100
AcDbLine
 10
-241.7021265843482
 20
421.5148701188451
 30
0.0
 11
-243.714017888696
 21
425.0743701188453
 31
0.0
  0
ARC
  5
2CA
330
1F
100
AcDbEntity
  8
ZUWAKU
  6
Continuous
 62
    30
370
    25
100
AcDbCircle
 10
-240.7254664608282
 20
427.5133701188452
 30
0.0
 40
2.4375
100
AcDbArc
 50
269.9999999999999
 51
89.99999999999994
  0
ELLIPSE
  5
2CB
330
1F
100
AcDbEntity
  8
ZUWAKU
  6
Continuous
 62
    30
370
    25
100
AcDbEllipse
 10
-237.6198466942574
 20
422.6895498523987
 30
0.0
 11
-0.2469559898247837
 21
-0.4527526480119946
 31
0.0
210
0.0
220
0.0
230
1.0
 40
0.7520987448585006
 41
0.0
 42
6.283185307179586
  0
LINE
  5
2CC
330
1F
100
AcDbEntity
  8
ZUWAKU
  6
Continuous
 62
    30
370
    25
100
AcDbLine
 10
-242.2499999999996
 20
420.5758701188451
 30
0.0
 11
-238.8749999999996
 21
420.5758701188451
 31
0.0
  0
ELLIPSE
  5
2CD
330
1F
100
AcDbEntity
  8
ZUWAKU
  6
Continuous
 62
    30
370
    25
100
AcDbEllipse
 10
-237.6198466942574
 20
422.6895498523986
 30
0.0
 11
-0.7889967726031273
 21
-1.446494083105222
 31
0.0
210
0.0
220
0.0
230
1.0
 40
0.7520987448585007
 41
1.163380251178051
 42
5.860160707699565
  0
LINE
  5
2CE
330
1F
100
AcDbEntity
  8
ZUWAKU
  6
Continuous
 62
    30
370
    25
100
AcDbLine
 10
-241.7021265843482
 20
421.5148701188451
 30
0.0
 11
-238.9313221048584
 21
421.5148701188442
 31
0.0
  0
ARC
  5
2CF
330
1F
100
AcDbEntity
  8
ZUWAKU
  6
Continuous
 62
    30
370
    25
100
AcDbCircle
 10
-239.2106382165902
 20
423.6207727108297
 30
0.0
 40
2.124345362036478
100
AcDbArc
 50
277.5553196692587
 51
282.6100467718115
  0
ARC
  5
2D0
330
1F
100
AcDbEntity
  8
ZUWAKU
  6
Continuous
 62
    30
370
    25
100
AcDbCircle
 10
-239.2106382165902
 20
423.6207727108297
 30
0.0
 40
3.063345362036478
100
AcDbArc
 50
276.2902926899438
 51
293.7981568412249
  0
ARC
  5
2D1
330
1F
100
AcDbEntity
  8
ZUWAKU
  6
Continuous
 62
    30
370
    25
100
AcDbCircle
 10
-239.2106382165902
 20
423.6207727108297
 30
0.0
 40
3.063345362036478
100
AcDbArc
 50
316.5712583378105
 51
318.0142678784152
  0
ARC
  5
2D2
330
1F
100
AcDbEntity
  8
ZUWAKU
  6
Continuous
 62
    30
370
    25
100
AcDbCircle
 10
-237.010394092138
 20
422.6118320846787
 30
0.0
 40
2.036606518754189
100
AcDbArc
 50
209.3318227008482
 51
211.5012652768048
  0
ARC
  5
2D3
330
1F
100
AcDbEntity
  8
ZUWAKU
  6
Continuous
 62
    30
370
    25
100
AcDbCircle
 10
-237.010394092138
 20
422.6118320846787
 30
0.0
 40
2.036606518754189
100
AcDbArc
 50
241.7445782933704
 51
269.9999999999999
  0
ELLIPSE
  5
2D4
330
1F
100
AcDbEntity
  8
ZUWAKU
  6
Continuous
 62
    30
370
    25
100
AcDbEllipse
 10
-232.8248567814525
 20
423.9504038246083
 30
0.0
 11
-0.4111291384866433
 21
-0.8479538481288387
 31
0.0
210
0.0
220
0.0
230
1.0
 40
0.4421915578426128
 41
0.0
 42
6.283185307179586
  0
ARC
  5
2D5
330
1F
100
AcDbEntity
  8
ZUWAKU
  6
Continuous
 62
    30
370
    25
100
AcDbCircle
 10
-231.9601671163659
 20
424.1985253118385
 30
0.0
 40
3.642320510939475
100
AcDbArc
 50
241.2831156408176
 51
264.0434522032778
  0
LINE
  5
2D6
330
1F
100
AcDbEntity
  8
ZUWAKU
  6
Continuous
 62
    30
370
    25
100
AcDbLine
 10
-237.010394092138
 20
420.5758701188451
 30
0.0
 11
-234.8973532938751
 21
420.5758701188408
 31
0.0
  0
ARC
  5
2D7
330
1F
100
AcDbEntity
  8
ZUWAKU
  6
Continuous
 62
    30
370
    25
100
AcDbCircle
 10
-231.960167116366
 20
424.1985253118386
 30
0.0
 40
2.703320510939475
100
AcDbArc
 50
251.0870810655405
 51
263.0848282407241
  0
ARC
  5
2D8
330
1F
100
AcDbEntity
  8
ZUWAKU
  6
Continuous
 62
    30
370
    25
100
AcDbCircle
 10
-235.6943962264592
 20
424.6441445429672
 30
0.0
 40
3.206616266175944
100
AcDbArc
 50
282.6095093602463
 51
291.9312697388032
  0
ELLIPSE
  5
2D9
330
1F
100
AcDbEntity
  8
ZUWAKU
  6
Continuous
 62
    30
370
    25
100
AcDbEllipse
 10
-232.8248567814525
 20
423.9504038246082
 30
0.0
 11
-1.313511624558032
 21
-2.709117725651481
 31
0.0
210
0.0
220
0.0
230
1.0
 40
0.4421915578426128
 41
1.162166382047792
 42
5.890609621426301
  0
LINE
  5
2DA
330
1F
100
AcDbEntity
  8
ZUWAKU
  6
Continuous
 62
    30
370
    25
100
AcDbLine
 10
-236.9859451860394
 20
421.5148701188451
 30
0.0
 11
-234.9943751860331
 21
421.5148701188451
 31
0.0
  0
ARC
  5
2DB
330
1F
100
AcDbEntity
  8
ZUWAKU
  6
Continuous
 62
    30
370
    25
100
AcDbCircle
 10
-235.6943962264592
 20
424.6441445429672
 30
0.0
 40
4.145616266175944
100
AcDbArc
 50
313.5828614086839
 51
326.2493926541699
  0
ARC
  5
2DC
330
1F
100
AcDbEntity
  8
ZUWAKU
  6
Continuous
 62
    30
370
    25
100
AcDbCircle
 10
-235.6943962264592
 20
424.6441445429672
 30
0.0
 40
4.145616266175944
100
AcDbArc
 50
281.0847997353327
 51
298.5950739026304
  0
LINE
  5
2DD
330
1F
100
AcDbEntity
  8
ZUWAKU
  6
Continuous
 62
    30
370
    25
100
AcDbLine
 10
-232.3381460272745
 20
420.5758701188451
 30
0.0
 11
-230.8124999999996
 21
420.5758701188451
 31
0.0
  0
LINE
  5
2DE
330
1F
100
AcDbEntity
  8
ZUWAKU
  6
Continuous
 62
    30
370
    25
100
AcDbLine
 10
-231.0308930701364
 20
421.6854235837767
 30
0.0
 11
-228.4794525803858
 21
424.2368640735306
 31
0.0
  0
LINE
  5
2DF
330
1F
100
AcDbEntity
  8
ZUWAKU
  6
Continuous
 62
    30
370
    25
100
AcDbLine
 10
-228.391547664008
 20
421.5148701188451
 30
0.0
 11
-227.9790044183682
 21
423.9901295926844
 31
0.0
  0
LINE
  5
2E0
330
1F
100
AcDbEntity
  8
ZUWAKU
  6
Continuous
 62
    30
370
    25
100
AcDbLine
 10
-232.2856461325641
 20
421.5148701188451
 30
0.0
 11
-231.3719999999997
 21
421.5148701188451
 31
0.0
  0
ARC
  5
2E1
330
1F
100
AcDbEntity
  8
ZUWAKU
  6
Continuous
 62
    30
370
    25
100
AcDbCircle
 10
-228.2663947366151
 20
424.0380279790589
 30
0.0
 40
0.2914265555109702
100
AcDbArc
 50
350.537677791977
 51
136.9775057566911
  0
ELLIPSE
  5
2E2
330
1F
100
AcDbEntity
  8
ZUWAKU
  6
Continuous
 62
    30
370
    25
100
AcDbEllipse
 10
-224.287949481338
 20
422.3398141069739
 30
0.0
 11
-0.2735448899302071
 21
-0.4607071830402561
 31
0.0
210
0.0
220
0.0
230
1.0
 40
0.588198211994843
 41
0.0
 42
6.283185307179586
  0
LINE
  5
2E3
330
1F
100
AcDbEntity
  8
ZUWAKU
  6
Continuous
 62
    30
370
    25
100
AcDbLine
 10
-227.4013977631065
 20
421.5148701188451
 30
0.0
 11
-225.8385779844122
 21
422.2655158393203
 31
0.0
  0
LINE
  5
2E4
330
1F
100
AcDbEntity
  8
ZUWAKU
  6
Continuous
 62
    30
370
    25
100
AcDbLine
 10
-227.2499999999996
 20
420.5758701188451
 30
0.0
 11
-225.9415517561987
 21
421.1556598179822
 31
0.0
  0
LINE
  5
2E5
330
1F
100
AcDbEntity
  8
ZUWAKU
  6
Continuous
 62
    30
370
    25
100
AcDbLine
 10
-228.391547664008
 20
421.5148701188451
 30
0.0
 11
-227.4013977631065
 21
421.5148701188451
 31
0.0
  0
LINE
  5
2E6
330
1F
100
AcDbEntity
  8
ZUWAKU
  6
Continuous
 62
    30
370
    25
100
AcDbLine
 10
-224.0418776326427
 20
420.9989252373189
 30
0.0
 11
-223.6042344066353
 21
420.5758701188451
 31
0.0
  0
LINE
  5
2E7
330
1F
100
AcDbEntity
  8
ZUWAKU
  6
Continuous
 62
    30
370
    25
100
AcDbLine
 10
-222.5624999999996
 20
421.5148701188451
 30
0.0
 11
-221.2433632727922
 21
421.5148701188451
 31
0.0
  0
LINE
  5
2E8
330
1F
100
AcDbEntity
  8
ZUWAKU
  6
Continuous
 62
    30
370
    25
100
AcDbLine
 10
-218.2450775585062
 20
424.1383701188451
 30
0.0
 11
-221.2433632727922
 21
421.5148701188451
 31
0.0
  0
ELLIPSE
  5
2E9
330
1F
100
AcDbEntity
  8
ZUWAKU
  6
Continuous
 62
    30
370
    25
100
AcDbEllipse
 10
-224.4836168876848
 20
422.2288619993373
 30
0.0
 11
-1.19155562816087
 21
-1.476248369180098
 31
0.0
210
0.0
220
0.0
230
1.0
 40
0.6302087628984883
 41
2.771395296388108
 42
5.160819221064411
  0
ELLIPSE
  5
2EA
330
1F
100
AcDbEntity
  8
ZUWAKU
  6
Continuous
 62
    30
370
    25
100
AcDbEllipse
 10
-224.4836168876848
 20
422.2288619993373
 30
0.0
 11
-1.19155562816087
 21
-1.476248369180098
 31
0.0
210
0.0
220
0.0
230
1.0
 40
0.6302087628984883
 41
5.887863080444697
 42
7.487602926078145
  0
LINE
  5
2EB
330
1F
100
AcDbEntity
  8
ZUWAKU
  6
Continuous
 62
    30
370
    25
100
AcDbLine
 10
-222.8093693742401
 20
423.9571576437251
 30
0.0
 11
-221.810213627316
 21
423.9571576437251
 31
0.0
  0
LINE
  5
2EC
330
1F
100
AcDbEntity
  8
ZUWAKU
  6
Continuous
 62
    30
370
    25
100
AcDbLine
 10
-223.0361838877887
 20
423.3334177314668
 30
0.0
 11
-222.8093693742402
 21
423.9571576437249
 31
0.0
  0
LINE
  5
2ED
330
1F
100
AcDbEntity
  8
ZUWAKU
  6
Continuous
 62
    30
370
    25
100
AcDbLine
 10
-222.5624999999996
 20
421.8883701188451
 30
0.0
 11
-221.810213627316
 21
423.9571576437251
 31
0.0
  0
LINE
  5
2EE
330
1F
100
AcDbEntity
  8
ZUWAKU
  6
Continuous
 62
    30
370
    25
100
AcDbLine
 10
-220.0105558460112
 20
420.6054088611394
 30
0.0
 11
-219.5354025700401
 21
421.9120803700596
 31
0.0
  0
LINE
  5
2EF
330
1F
100
AcDbEntity
  8
ZUWAKU
  6
Continuous
 62
    30
370
    25
100
AcDbLine
 10
-218.1198423269349
 20
422.8258701188451
 30
0.0
 11
-218.9380241451168
 21
420.575870118845
 31
0.0
  0
LINE
  5
2F0
330
1F
100
AcDbEntity
  8
ZUWAKU
  6
Continuous
 62
    30
370
    25
100
AcDbLine
 10
-217.6874999999996
 20
420.5758701188451
 30
0.0
 11
-216.8693181818177
 21
422.8258701188452
 31
0.0
  0
LINE
  5
2F1
330
1F
100
AcDbEntity
  8
ZUWAKU
  6
Continuous
 62
    30
370
    25
100
AcDbLine
 10
-215.5013709312525
 20
423.5408500578999
 30
0.0
 11
-216.2380909090906
 21
421.514870118845
 31
0.0
  0
LINE
  5
2F2
330
1F
100
AcDbEntity
  8
ZUWAKU
  6
Continuous
 62
    30
370
    25
100
AcDbLine
 10
-215.8131205282673
 20
424.1383701188451
 30
0.0
 11
-215.5013709312525
 21
423.5408500578999
 31
0.0
  0
LINE
  5
2F3
330
1F
100
AcDbEntity
  8
ZUWAKU
  6
Continuous
 62
    30
370
    25
100
AcDbLine
 10
-217.8702039473383
 20
423.5806661715064
 30
0.0
 11
-217.6857510620623
 21
424.1383701188451
 31
0.0
  0
LINE
  5
2F4
330
1F
100
AcDbEntity
  8
ZUWAKU
  6
Continuous
 62
    30
370
    25
100
AcDbLine
 10
-217.8702039473383
 20
423.5806661715064
 30
0.0
 11
-216.8713581891673
 21
424.1383701188451
 31
0.0
  0
LINE
  5
2F5
330
1F
100
AcDbEntity
  8
ZUWAKU
  6
Continuous
 62
    30
370
    25
100
AcDbLine
 10
-215.8131205282674
 20
424.1383701188451
 30
0.0
 11
-216.8713581891672
 21
424.1383701188451
 31
0.0
  0
LINE
  5
2F6
330
1F
100
AcDbEntity
  8
ZUWAKU
  6
Continuous
 62
    30
370
    25
100
AcDbLine
 10
-217.6857510620623
 20
424.1383701188451
 30
0.0
 11
-218.2450775585062
 21
424.1383701188451
 31
0.0
  0
ELLIPSE
  5
2F7
330
1F
100
AcDbEntity
  8
ZUWAKU
  6
Continuous
 62
    30
370
    25
100
AcDbEllipse
 10
-207.4451026860704
 20
422.6895498523987
 30
0.0
 11
-0.2469559898247837
 21
-0.4527526480119946
 31
0.0
210
0.0
220
0.0
230
1.0
 40
0.7520987448585006
 41
0.0
 42
6.283185307179586
  0
ELLIPSE
  5
2F8
330
1F
100
AcDbEntity
  8
ZUWAKU
  6
Continuous
 62
    30
370
    25
100
AcDbEllipse
 10
-207.4451026860704
 20
422.6895498523986
 30
0.0
 11
-0.7889967726031273
 21
-1.446494083105222
 31
0.0
210
0.0
220
0.0
230
1.0
 40
0.7520987448585007
 41
1.163380251178051
 42
5.860160707699565
  0
ARC
  5
2F9
330
1F
100
AcDbEntity
  8
ZUWAKU
  6
Continuous
 62
    30
370
    25
100
AcDbCircle
 10
-209.0358942084032
 20
423.6207727108297
 30
0.0
 40
2.124345362036478
100
AcDbArc
 50
277.5553196692587
 51
282.6100467718115
  0
ARC
  5
2FA
330
1F
100
AcDbEntity
  8
ZUWAKU
  6
Continuous
 62
    30
370
    25
100
AcDbCircle
 10
-209.0358942084032
 20
423.6207727108297
 30
0.0
 40
3.063345362036478
100
AcDbArc
 50
276.2902926899438
 51
293.7981568412249
  0
ARC
  5
2FB
330
1F
100
AcDbEntity
  8
ZUWAKU
  6
Continuous
 62
    30
370
    25
100
AcDbCircle
 10
-209.0358942084032
 20
423.6207727108297
 30
0.0
 40
3.063345362036478
100
AcDbArc
 50
316.5712583378105
 51
318.0142678784152
  0
ARC
  5
2FC
330
1F
100
AcDbEntity
  8
ZUWAKU
  6
Continuous
 62
    30
370
    25
100
AcDbCircle
 10
-206.8356500839511
 20
422.6118320846787
 30
0.0
 40
2.036606518754189
100
AcDbArc
 50
209.3318227008482
 51
211.5012652768048
  0
ARC
  5
2FD
330
1F
100
AcDbEntity
  8
ZUWAKU
  6
Continuous
 62
    30
370
    25
100
AcDbCircle
 10
-206.8356500839511
 20
422.6118320846787
 30
0.0
 40
2.036606518754189
100
AcDbArc
 50
241.7445782933704
 51
269.9999999999999
  0
LINE
  5
2FE
330
1F
100
AcDbEntity
  8
ZUWAKU
  6
Continuous
 62
    30
370
    25
100
AcDbLine
 10
-212.0181058346049
 20
421.5148701188451
 30
0.0
 11
-208.7565780966715
 21
421.5148701188442
 31
0.0
  0
LINE
  5
2FF
330
1F
100
AcDbEntity
  8
ZUWAKU
  6
Continuous
 62
    30
370
    25
100
AcDbLine
 10
-206.8356500839511
 20
420.5758701188451
 30
0.0
 11
-205.0300272475891
 21
420.5758701188414
 31
0.0
  0
LINE
  5
300
330
1F
100
AcDbEntity
  8
ZUWAKU
  6
Continuous
 62
    30
370
    25
100
AcDbLine
 10
-206.8112011778525
 20
421.5148701188451
 30
0.0
 11
-204.8196311778462
 21
421.5148701188451
 31
0.0
  0
LINE
  5
301
330
1F
100
AcDbEntity
  8
ZUWAKU
  6
Continuous
 62
    30
370
    25
100
AcDbLine
 10
-229.4999999999996
 20
420.5758701188451
 30
0.0
 11
-227.2499999999996
 21
420.5758701188451
 31
0.0
  0
LINE
  5
302
330
1F
100
AcDbEntity
  8
ZUWAKU
  6
Continuous
 62
    30
370
    25
100
AcDbLine
 10
-220.0105558460112
 20
420.6054088611394
 30
0.0
 11
-218.9380241451168
 21
420.575870118845
 31
0.0
  0
LINE
  5
303
330
1F
100
AcDbEntity
  8
ZUWAKU
  6
Continuous
 62
    30
370
    25
100
AcDbLine
 10
-216.2380909090906
 20
421.514870118845
 30
0.0
 11
-214.504232160329
 21
421.514870118845
 31
0.0
  0
LINE
  5
304
330
1F
100
AcDbEntity
  8
ZUWAKU
  6
Continuous
 62
    30
370
    25
100
AcDbLine
 10
-211.3044884465639
 20
422.8666542629135
 30
0.0
 11
-210.6040374865899
 21
423.4328521222258
 31
0.0
  0
ARC
  5
305
330
1F
100
AcDbEntity
  8
ZUWAKU
  6
Continuous
 62
    30
370
    25
100
AcDbCircle
 10
-212.0181058346049
 20
422.384870118845
 30
0.0
 40
0.8699999999999999
100
AcDbArc
 50
34.07537471792376
 51
269.9999999999999
  0
ARC
  5
306
330
1F
100
AcDbEntity
  8
ZUWAKU
  6
Continuous
 62
    30
370
    25
100
AcDbCircle
 10
-212.0181058346049
 20
422.384870118845
 30
0.0
 40
1.76007260426032
100
AcDbArc
 50
36.54256145312642
 51
190.9861208353461
  0
LINE
  5
307
330
1F
100
AcDbEntity
  8
ZUWAKU
  6
Continuous
 62
    30
370
    25
100
AcDbLine
 10
-214.2674383611439
 20
420.5758701188451
 30
0.0
 11
-213.3759118757922
 21
421.2318990420285
 31
0.0
  0
LINE
  5
308
330
1F
100
AcDbEntity
  8
ZUWAKU
  6
Continuous
 62
    30
370
    25
100
AcDbLine
 10
-213.7571025648604
 20
422.0646447268315
 30
0.0
 11
-214.504232160329
 21
421.514870118845
 31
0.0
  0
LINE
  5
309
330
1F
100
AcDbEntity
  8
ZUWAKU
  6
Continuous
 62
    30
370
    25
100
AcDbLine
 10
-213.3759118757922
 20
421.2318990420285
 30
0.0
 11
-212.6249999999997
 21
420.5758701188451
 31
0.0
  0
LINE
  5
30A
330
1F
100
AcDbEntity
  8
ZUWAKU
  6
Continuous
 62
    30
370
    25
100
AcDbLine
 10
-204.8196311778462
 20
421.5148701188451
 30
0.0
 11
-205.0300272475891
 21
420.5758701188414
 31
0.0
  0
LINE
  5
30B
330
1F
100
AcDbEntity
  8
ZUWAKU
  6
Continuous
 62
    30
370
    25
100
AcDbLine
 10
-254.684479975101
 20
429.7399326188454
 30
0.0
 11
-255.2001049751011
 21
429.2243076188454
 31
0.0
  0
LINE
  5
30C
330
1F
100
AcDbEntity
  8
ZUWAKU
  6
Continuous
 62
    30
370
    25
100
AcDbLine
 10
-253.5995145780382
 20
429.8471618570831
 30
0.0
 11
-254.3295980545138
 21
429.1170783806075
 31
0.0
  0
LINE
  5
30D
330
1F
100
AcDbEntity
  8
ZUWAKU
  6
Continuous
 62
    30
370
    25
100
AcDbLine
 10
-252.3713963549387
 20
429.9321201188454
 30
0.0
 11
-253.2725682299388
 21
429.0309482438452
 31
0.0
  0
LINE
  5
30E
330
1F
100
AcDbEntity
  8
ZUWAKU
  6
Continuous
 62
    30
370
    25
100
AcDbLine
 10
-251.1605027457928
 20
429.9508701188451
 30
0.0
 11
-252.0980027457927
 21
429.0133701188452
 31
0.0
  0
LINE
  5
30F
330
1F
100
AcDbEntity
  8
ZUWAKU
  6
Continuous
 62
    30
370
    25
100
AcDbLine
 10
-249.9084434697618
 20
429.9508701188451
 30
0.0
 11
-250.8459434697617
 21
429.0133701188452
 31
0.0
  0
LINE
  5
310
330
1F
100
AcDbEntity
  8
ZUWAKU
  6
Continuous
 62
    30
370
    25
100
AcDbLine
 10
-248.5318389675661
 20
429.9508701188451
 30
0.0
 11
-249.469338967566
 21
429.0133701188452
 31
0.0
  0
LINE
  5
311
330
1F
100
AcDbEntity
  8
ZUWAKU
  6
Continuous
 62
    30
370
    25
100
AcDbLine
 10
-247.3715982318743
 20
429.9508701188451
 30
0.0
 11
-248.3090982318742
 21
429.0133701188452
 31
0.0
  0
LINE
  5
312
330
1F
100
AcDbEntity
  8
ZUWAKU
  6
Continuous
 62
    30
370
    25
100
AcDbLine
 10
-247.04724319049
 20
420.8589484385866
 30
0.0
 11
-247.3303215102316
 21
420.575870118845
 31
0.0
  0
LINE
  5
313
330
1F
100
AcDbEntity
  8
ZUWAKU
  6
Continuous
 62
    30
370
    25
100
AcDbLine
 10
-246.5381263080357
 20
422.2165934584648
 30
0.0
 11
-248.1788496476554
 21
420.5758701188451
 31
0.0
  0
LINE
  5
314
330
1F
100
AcDbEntity
  8
ZUWAKU
  6
Continuous
 62
    30
370
    25
100
AcDbLine
 10
-246.0290094255813
 20
423.5742384783431
 30
0.0
 11
-247.6335733289519
 21
421.9696745749725
 31
0.0
  0
LINE
  5
315
330
1F
100
AcDbEntity
  8
ZUWAKU
  6
Continuous
 62
    30
370
    25
100
AcDbLine
 10
-248.0883777850792
 20
421.5148701188451
 30
0.0
 11
-249.0273777850793
 21
420.5758701188451
 31
0.0
  0
LINE
  5
316
330
1F
100
AcDbEntity
  8
ZUWAKU
  6
Continuous
 62
    30
370
    25
100
AcDbLine
 10
-245.519892543127
 20
424.931883498221
 30
0.0
 11
-247.1244564464977
 21
423.3273195948503
 31
0.0
  0
LINE
  5
317
330
1F
100
AcDbEntity
  8
ZUWAKU
  6
Continuous
 62
    30
370
    25
100
AcDbLine
 10
-248.9369059225028
 20
421.5148701188451
 30
0.0
 11
-249.8759059225029
 21
420.5758701188451
 31
0.0
  0
LINE
  5
318
330
1F
100
AcDbEntity
  8
ZUWAKU
  6
Continuous
 62
    30
370
    25
100
AcDbLine
 10
-249.7854340599268
 20
421.5148701188451
 30
0.0
 11
-250.0653395640433
 21
421.2349646147287
 31
0.0
  0
LINE
  5
319
330
1F
100
AcDbEntity
  8
ZUWAKU
  6
Continuous
 62
    30
370
    25
100
AcDbLine
 10
-243.8950184721986
 20
429.9508701188452
 30
0.0
 11
-245.0879889166805
 21
428.757899674363
 31
0.0
  0
LINE
  5
31A
330
1F
100
AcDbEntity
  8
ZUWAKU
  6
Continuous
 62
    30
370
    25
100
AcDbLine
 10
-244.7435466096225
 20
429.9508701188451
 30
0.0
 11
-245.6810466096223
 21
429.0133701188452
 31
0.0
  0
LINE
  5
31B
330
1F
100
AcDbEntity
  8
ZUWAKU
  6
Continuous
 62
    30
370
    25
100
AcDbLine
 10
-245.5920747470462
 20
429.9508701188451
 30
0.0
 11
-246.5295747470461
 21
429.0133701188454
 31
0.0
  0
LINE
  5
31C
330
1F
100
AcDbEntity
  8
ZUWAKU
  6
Continuous
 62
    30
370
    25
100
AcDbLine
 10
-246.4406028844703
 20
429.9508701188451
 30
0.0
 11
-246.9356382693213
 21
429.4558347339939
 31
0.0
  0
LINE
  5
31D
330
1F
100
AcDbEntity
  8
ZUWAKU
  6
Continuous
 62
    30
370
    25
100
AcDbLine
 10
-237.8373087113065
 20
424.1291859558032
 30
0.0
 11
-238.7348787153974
 21
423.231615951712
 31
0.0
  0
LINE
  5
31E
330
1F
100
AcDbEntity
  8
ZUWAKU
  6
Continuous
 62
    30
370
    25
100
AcDbLine
 10
-236.9336966730434
 20
424.1842698566422
 30
0.0
 11
-238.9561783001023
 21
422.1617882295832
 31
0.0
  0
LINE
  5
31F
330
1F
100
AcDbEntity
  8
ZUWAKU
  6
Continuous
 62
    30
370
    25
100
AcDbLine
 10
-236.2780565333659
 20
423.1428537214722
 30
0.0
 11
-238.8411137856163
 21
420.5797964692217
 31
0.0
  0
LINE
  5
320
330
1F
100
AcDbEntity
  8
ZUWAKU
  6
Continuous
 62
    30
370
    25
100
AcDbLine
 10
-242.1979621973509
 20
429.9508701188452
 30
0.0
 11
-243.1354621973508
 21
429.0133701188452
 31
0.0
  0
LINE
  5
321
330
1F
100
AcDbEntity
  8
ZUWAKU
  6
Continuous
 62
    30
370
    25
100
AcDbLine
 10
-244.5016587782184
 20
427.6471735379776
 30
0.0
 11
-246.106222681589
 21
426.0426096346069
 31
0.0
  0
LINE
  5
322
330
1F
100
AcDbEntity
  8
ZUWAKU
  6
Continuous
 62
    30
370
    25
100
AcDbLine
 10
-241.3494340599268
 20
429.9508701188452
 30
0.0
 11
-242.2869340599267
 21
429.0133701188452
 31
0.0
  0
LINE
  5
323
330
1F
100
AcDbEntity
  8
ZUWAKU
  6
Continuous
 62
    30
370
    25
100
AcDbLine
 10
-245.0107756606728
 20
426.2895285180992
 30
0.0
 11
-246.6153395640433
 21
424.6849646147286
 31
0.0
  0
LINE
  5
324
330
1F
100
AcDbEntity
  8
ZUWAKU
  6
Continuous
 62
    30
370
    25
100
AcDbLine
 10
-240.5104113679333
 20
429.9413646734149
 30
0.0
 11
-241.438405922503
 21
429.0133701188452
 31
0.0
  0
LINE
  5
325
330
1F
100
AcDbEntity
  8
ZUWAKU
  6
Continuous
 62
    30
370
    25
100
AcDbLine
 10
-244.4384059225029
 20
426.0133701188452
 30
0.0
 11
-245.3774059225027
 21
425.0743701188453
 31
0.0
  0
LINE
  5
326
330
1F
100
AcDbEntity
  8
ZUWAKU
  6
Continuous
 62
    30
370
    25
100
AcDbLine
 10
-239.8248586280768
 20
429.7783892758474
 30
0.0
 11
-240.5955173134721
 21
429.0077305904522
 31
0.0
  0
LINE
  5
327
330
1F
100
AcDbEntity
  8
ZUWAKU
  6
Continuous
 62
    30
370
    25
100
AcDbLine
 10
-243.5898777850791
 20
426.0133701188451
 30
0.0
 11
-244.6973864223894
 21
424.9058614815349
 31
0.0
  0
LINE
  5
328
330
1F
100
AcDbEntity
  8
ZUWAKU
  6
Continuous
 62
    30
370
    25
100
AcDbLine
 10
-239.2792457206047
 20
429.4754740458958
 30
0.0
 11
-239.9545902208099
 21
428.8001295456904
 31
0.0
  0
LINE
  5
329
330
1F
100
AcDbEntity
  8
ZUWAKU
  6
Continuous
 62
    30
370
    25
100
AcDbLine
 10
-238.8436149245079
 20
429.0625767045688
 30
0.0
 11
-239.511605521219
 21
428.3945861078577
 31
0.0
  0
LINE
  5
32A
330
1F
100
AcDbEntity
  8
ZUWAKU
  6
Continuous
 62
    30
370
    25
100
AcDbLine
 10
-238.5156484142112
 20
428.5420150774415
 30
0.0
 11
-239.2538535074328
 21
427.80380998422
 31
0.0
  0
LINE
  5
32B
330
1F
100
AcDbEntity
  8
ZUWAKU
  6
Continuous
 62
    30
370
    25
100
AcDbLine
 10
-238.3174965571415
 20
427.8916387970872
 30
0.0
 11
-239.4022682620002
 21
426.8068670922286
 31
0.0
  0
LINE
  5
32C
330
1F
100
AcDbEntity
  8
ZUWAKU
  6
Continuous
 62
    30
370
    25
100
AcDbLine
 10
-243.0464903347747
 20
429.9508701188452
 30
0.0
 11
-243.9839903347746
 21
429.0133701188452
 31
0.0
  0
LINE
  5
32D
330
1F
100
AcDbEntity
  8
ZUWAKU
  6
Continuous
 62
    30
370
    25
100
AcDbLine
 10
-243.9925418957641
 20
429.0048185578557
 30
0.0
 11
-245.5971057991347
 21
427.4002546544852
 31
0.0
  0
LINE
  5
32E
330
1F
100
AcDbEntity
  8
ZUWAKU
  6
Continuous
 62
    30
370
    25
100
AcDbLine
 10
-241.8928215102314
 20
426.0133701188451
 30
0.0
 11
-242.8318215102312
 21
425.0743701188453
 31
0.0
  0
LINE
  5
32F
330
1F
100
AcDbEntity
  8
ZUWAKU
  6
Continuous
 62
    30
370
    25
100
AcDbLine
 10
-243.3954469742504
 20
424.510744654826
 30
0.0
 11
-244.0845605453611
 21
423.8216310837155
 31
0.0
  0
LINE
  5
330
330
1F
100
AcDbEntity
  8
ZUWAKU
  6
Continuous
 62
    30
370
    25
100
AcDbLine
 10
-242.7413496476552
 20
426.0133701188451
 30
0.0
 11
-243.6803496476551
 21
425.0743701188453
 31
0.0
  0
LINE
  5
331
330
1F
100
AcDbEntity
  8
ZUWAKU
  6
Continuous
 62
    30
370
    25
100
AcDbLine
 10
-243.7018599127646
 20
425.0528598537358
 30
0.0
 11
-244.3909734838752
 21
424.3637462826252
 31
0.0
  0
LINE
  5
332
330
1F
100
AcDbEntity
  8
ZUWAKU
  6
Continuous
 62
    30
370
    25
100
AcDbLine
 10
-241.0442933728079
 20
426.013370118845
 30
0.0
 11
-241.9832933728075
 21
425.0743701188452
 31
0.0
  0
LINE
  5
333
330
1F
100
AcDbEntity
  8
ZUWAKU
  6
Continuous
 62
    30
370
    25
100
AcDbLine
 10
-243.0890340357363
 20
423.9686294559165
 30
0.0
 11
-243.778147606847
 21
423.2795158848059
 31
0.0
  0
LINE
  5
334
330
1F
100
AcDbEntity
  8
ZUWAKU
  6
Continuous
 62
    30
370
    25
100
AcDbLine
 10
-240.0189634342116
 20
426.1901719200172
 30
0.0
 11
-241.1347652353836
 21
425.0743701188452
 31
0.0
  0
LINE
  5
335
330
1F
100
AcDbEntity
  8
ZUWAKU
  6
Continuous
 62
    30
370
    25
100
AcDbLine
 10
-242.7826210972221
 20
423.4265142570068
 30
0.0
 11
-243.4717346683328
 21
422.7374006858961
 31
0.0
  0
LINE
  5
336
330
1F
100
AcDbEntity
  8
ZUWAKU
  6
Continuous
 62
    30
370
    25
100
AcDbLine
 10
-238.3378518802477
 20
427.0227553365573
 30
0.0
 11
-240.2348516785403
 21
425.1257555382647
 31
0.0
  0
LINE
  5
337
330
1F
100
AcDbEntity
  8
ZUWAKU
  6
Continuous
 62
    30
370
    25
100
AcDbLine
 10
-242.4762081587079
 20
422.8843990580971
 30
0.0
 11
-243.1653217298186
 21
422.1952854869864
 31
0.0
  0
LINE
  5
338
330
1F
100
AcDbEntity
  8
ZUWAKU
  6
Continuous
 62
    30
370
    25
100
AcDbLine
 10
-242.1697952201937
 20
422.3422838591875
 30
0.0
 11
-242.8589087913045
 21
421.6531702880767
 31
0.0
  0
LINE
  5
339
330
1F
100
AcDbEntity
  8
ZUWAKU
  6
Continuous
 62
    30
370
    25
100
AcDbLine
 10
-241.8633822816796
 20
421.8001686602777
 30
0.0
 11
-242.5524958527903
 21
421.1110550891671
 31
0.0
  0
LINE
  5
33A
330
1F
100
AcDbEntity
  8
ZUWAKU
  6
Continuous
 62
    30
370
    25
100
AcDbLine
 10
-241.3001526856884
 20
421.5148701188451
 30
0.0
 11
-242.2391526856884
 21
420.5758701188451
 31
0.0
  0
LINE
  5
33B
330
1F
100
AcDbEntity
  8
ZUWAKU
  6
Continuous
 62
    30
370
    25
100
AcDbLine
 10
-240.4516245482648
 20
421.5148701188447
 30
0.0
 11
-241.3906245482646
 21
420.5758701188451
 31
0.0
  0
LINE
  5
33C
330
1F
100
AcDbEntity
  8
ZUWAKU
  6
Continuous
 62
    30
370
    25
100
AcDbLine
 10
-239.6030964108411
 20
421.5148701188444
 30
0.0
 11
-240.5420964108405
 21
420.5758701188451
 31
0.0
  0
LINE
  5
33D
330
1F
100
AcDbEntity
  8
ZUWAKU
  6
Continuous
 62
    30
370
    25
100
AcDbLine
 10
-236.4730306092254
 20
423.7964077830364
 30
0.0
 11
-237.25065582743
 21
423.0187825648318
 31
0.0
  0
LINE
  5
33E
330
1F
100
AcDbEntity
  8
ZUWAKU
  6
Continuous
 62
    30
370
    25
100
AcDbLine
 10
-237.9569066921579
 20
422.312531700104
 30
0.0
 11
-239.6935682734168
 21
420.5758701188451
 31
0.0
  0
LINE
  5
33F
330
1F
100
AcDbEntity
  8
ZUWAKU
  6
Continuous
 62
    30
370
    25
100
AcDbLine
 10
-231.8537766510373
 20
426.7186054663767
 30
0.0
 11
-234.0052838449267
 21
424.5670982724873
 31
0.0
  0
LINE
  5
340
330
1F
100
AcDbEntity
  8
ZUWAKU
  6
Continuous
 62
    30
370
    25
100
AcDbLine
 10
-236.6133417656058
 20
421.9590403518082
 30
0.0
 11
-237.8264940305082
 21
420.7458880869059
 31
0.0
  0
LINE
  5
341
330
1F
100
AcDbEntity
  8
ZUWAKU
  6
Continuous
 62
    30
370
    25
100
AcDbLine
 10
-231.2708294669236
 20
426.4530245130665
 30
0.0
 11
-234.4893858691213
 21
423.2344681108689
 31
0.0
  0
LINE
  5
342
330
1F
100
AcDbEntity
  8
ZUWAKU
  6
Continuous
 62
    30
370
    25
100
AcDbLine
 10
-236.208983861145
 20
421.5148701188451
 30
0.0
 11
-237.1442263715444
 21
420.5796276084458
 31
0.0
  0
LINE
  5
343
330
1F
100
AcDbEntity
  8
ZUWAKU
  6
Continuous
 62
    30
370
    25
100
AcDbLine
 10
-235.3604557237214
 20
421.5148701188451
 30
0.0
 11
-236.2994557237227
 21
420.5758701188437
 31
0.0
  0
LINE
  5
344
330
1F
100
AcDbEntity
  8
ZUWAKU
  6
Continuous
 62
    30
370
    25
100
AcDbLine
 10
-231.059556547233
 20
425.8157692953337
 30
0.0
 11
-232.2813536291768
 21
424.59397221339
 31
0.0
  0
LINE
  5
345
330
1F
100
AcDbEntity
  8
ZUWAKU
  6
Continuous
 62
    30
370
    25
100
AcDbLine
 10
-233.380016546949
 20
423.4953092956177
 30
0.0
 11
-234.6018136288927
 21
422.2735122136739
 31
0.0
  0
LINE
  5
346
330
1F
100
AcDbEntity
  8
ZUWAKU
  6
Continuous
 62
    30
370
    25
100
AcDbLine
 10
-231.1083591217207
 20
424.9184385834222
 30
0.0
 11
-235.4509275863009
 21
420.575870118842
 31
0.0
  0
LINE
  5
347
330
1F
100
AcDbEntity
  8
ZUWAKU
  6
Continuous
 62
    30
370
    25
100
AcDbLine
 10
-231.4768878873801
 20
423.7013816803388
 30
0.0
 11
-234.5056510792159
 21
420.6726184885031
 31
0.0
  0
LINE
  5
348
330
1F
100
AcDbEntity
  8
ZUWAKU
  6
Continuous
 62
    30
370
    25
100
AcDbLine
 10
-228.3052165017319
 20
424.326857180855
 30
0.0
 11
-232.0562035637419
 21
420.5758701188451
 31
0.0
  0
LINE
  5
349
330
1F
100
AcDbEntity
  8
ZUWAKU
  6
Continuous
 62
    30
370
    25
100
AcDbLine
 10
-228.0158925407098
 20
426.3132374167247
 30
0.0
 11
-228.2115930172024
 21
426.1175369402321
 31
0.0
  0
LINE
  5
34A
330
1F
100
AcDbEntity
  8
ZUWAKU
  6
Continuous
 62
    30
370
    25
100
AcDbLine
 10
-232.7238215168696
 20
421.6053084405652
 30
0.0
 11
-233.4529623893382
 21
420.8761675680965
 31
0.0
  0
LINE
  5
34B
330
1F
100
AcDbEntity
  8
ZUWAKU
  6
Continuous
 62
    30
370
    25
100
AcDbLine
 10
-227.2893651585737
 20
426.1912366614372
 30
0.0
 11
-228.0895922619148
 21
425.3910095580961
 31
0.0
  0
LINE
  5
34C
330
1F
100
AcDbEntity
  8
ZUWAKU
  6
Continuous
 62
    30
370
    25
100
AcDbLine
 10
-231.9657317011657
 20
421.5148701188451
 30
0.0
 11
-232.8211688630799
 21
420.6594329569309
 31
0.0
  0
LINE
  5
34D
330
1F
100
AcDbEntity
  8
ZUWAKU
  6
Continuous
 62
    30
370
    25
100
AcDbLine
 10
-223.6699723201608
 20
423.870932537884
 30
0.0
 11
-226.7382894082968
 21
420.802615449747
 31
0.0
  0
LINE
  5
34E
330
1F
100
AcDbEntity
  8
ZUWAKU
  6
Continuous
 62
    30
370
    25
100
AcDbLine
 10
-227.7230910140463
 20
421.5148701188451
 30
0.0
 11
-228.6620910140464
 21
420.5758701188451
 31
0.0
  0
LINE
  5
34F
330
1F
100
AcDbEntity
  8
ZUWAKU
  6
Continuous
 62
    30
370
    25
100
AcDbLine
 10
-228.3555333665155
 20
421.7309559037999
 30
0.0
 11
-229.5106191514703
 21
420.5758701188451
 31
0.0
  0
LINE
  5
350
330
1F
100
AcDbEntity
  8
ZUWAKU
  6
Continuous
 62
    30
370
    25
100
AcDbLine
 10
-228.1858277390308
 20
422.7491896687084
 30
0.0
 11
-229.3281705422207
 21
421.6068468655185
 31
0.0
  0
LINE
  5
351
330
1F
100
AcDbEntity
  8
ZUWAKU
  6
Continuous
 62
    30
370
    25
100
AcDbLine
 10
-231.2076754263181
 20
420.5758701188451
 30
0.0
 11
-228.0161221115461
 21
423.7674234336168
 31
0.0
  0
LINE
  5
352
330
1F
100
AcDbEntity
  8
ZUWAKU
  6
Continuous
 62
    30
370
    25
100
AcDbLine
 10
-221.886690939471
 20
423.9571576437251
 30
0.0
 11
-225.262330878049
 21
420.5815177051473
 31
0.0
  0
LINE
  5
353
330
1F
100
AcDbEntity
  8
ZUWAKU
  6
Continuous
 62
    30
370
    25
100
AcDbLine
 10
-222.2513855274697
 20
422.7439349183024
 30
0.0
 11
-224.0187509762752
 21
420.9765694694969
 31
0.0
  0
LINE
  5
354
330
1F
100
AcDbEntity
  8
ZUWAKU
  6
Continuous
 62
    30
370
    25
100
AcDbLine
 10
-222.5624999999996
 20
421.5842923083486
 30
0.0
 11
-223.5709221895032
 21
420.5758701188451
 31
0.0
  0
LINE
  5
355
330
1F
100
AcDbEntity
  8
ZUWAKU
  6
Continuous
 62
    30
370
    25
100
AcDbLine
 10
-221.7833940520794
 20
421.5148701188451
 30
0.0
 11
-222.7223940520793
 21
420.5758701188451
 31
0.0
  0
LINE
  5
356
330
1F
100
AcDbEntity
  8
ZUWAKU
  6
Continuous
 62
    30
370
    25
100
AcDbLine
 10
-218.775384407701
 20
423.6743516257995
 30
0.0
 11
-221.8738659146556
 21
420.5758701188451
 31
0.0
  0
LINE
  5
357
330
1F
100
AcDbEntity
  8
ZUWAKU
  6
Continuous
 62
    30
370
    25
100
AcDbLine
 10
-224.9489344351149
 20
423.4404985603526
 30
0.0
 11
-225.4311967475014
 21
422.9582362479663
 31
0.0
  0
LINE
  5
358
330
1F
100
AcDbEntity
  8
ZUWAKU
  6
Continuous
 62
    30
370
    25
100
AcDbLine
 10
-226.3876397239632
 20
422.0017932715045
 30
0.0
 11
-227.8135628766225
 21
420.5758701188451
 31
0.0
  0
LINE
  5
359
330
1F
100
AcDbEntity
  8
ZUWAKU
  6
Continuous
 62
    30
370
    25
100
AcDbLine
 10
-224.6624965133024
 20
422.0298802073174
 30
0.0
 11
-225.8052132698476
 21
420.8871634507724
 31
0.0
  0
LINE
  5
35A
330
1F
100
AcDbEntity
  8
ZUWAKU
  6
Continuous
 62
    30
370
    25
100
AcDbLine
 10
-222.7352190768946
 20
423.9571576437251
 30
0.0
 11
-222.8517409727233
 21
423.8406357478965
 31
0.0
  0
LINE
  5
35B
330
1F
100
AcDbEntity
  8
ZUWAKU
  6
Continuous
 62
    30
370
    25
100
AcDbLine
 10
-223.1450836682844
 20
423.5472930523354
 30
0.0
 11
-223.9518038538853
 21
422.7405728667345
 31
0.0
  0
LINE
  5
35C
330
1F
100
AcDbEntity
  8
ZUWAKU
  6
Continuous
 62
    30
370
    25
100
AcDbLine
 10
-216.5809974226758
 20
424.1383701188451
 30
0.0
 11
-217.8934974226759
 21
422.8258701188451
 31
0.0
  0
LINE
  5
35D
330
1F
100
AcDbEntity
  8
ZUWAKU
  6
Continuous
 62
    30
370
    25
100
AcDbLine
 10
-218.2491822722258
 20
422.4701852692953
 30
0.0
 11
-219.9514685120853
 21
420.7678990294357
 31
0.0
  0
TEXT
  5
35E
330
1F
100
AcDbEntity
  8
ZUWAKU
 62
    30
100
AcDbText
 10
-252.1535629668787
 20
-412.6741298811549
 30
0.0
 40
10.2
  1
株式会社
 41
0.9739130434782605
  7
dcStyle0
 72
     5
 11
-219.5135629668787
 21
-412.6741298811549
 31
0.0
100
AcDbText
  0
LINE
  5
35F
330
1F
100
AcDbEntity
  8
ZUWAKU
  6
Continuous
 62
    56
370
    25
100
AcDbLine
 10
-273.9374999999996
 20
403.2324587127646
 30
0.0
 11
283.1250000000004
 21
403.2324587127646
 31
0.0
  0
LINE
  5
360
330
1F
100
AcDbEntity
  8
ZUWAKU
  6
Continuous
 62
    56
370
    25
100
AcDbLine
 10
-273.1875000000003
 20
-420.3616298811548
 30
0.0
 11
280.1249999999997
 21
-420.3616298811548
 31
0.0
  0
LINE
  5
361
330
1F
100
AcDbEntity
  8
ZUWAKU
  6
Continuous
 62
    56
370
    25
100
AcDbLine
 10
-273.1875000000003
 20
-384.1741298811548
 30
0.0
 11
280.1249999999997
 21
-384.1741298811548
 31
0.0
  0
LINE
  5
362
330
1F
100
AcDbEntity
  8
ZUWAKU
  6
Continuous
 62
    56
370
    25
100
AcDbLine
 10
-273.1875000000003
 20
-379.1116298811544
 30
0.0
 11
280.1249999999997
 21
-379.1116298811551
 31
0.0
  0
LINE
  5
363
330
1F
100
AcDbEntity
  8
ZUWAKU
  6
Continuous
 62
    56
370
    25
100
AcDbLine
 10
-273.1875000000002
 20
-379.1116298811544
 30
0.0
 11
-273.1875000000002
 21
-229.1116298811543
 31
0.0
  0
LINE
  5
364
330
1F
100
AcDbEntity
  8
ZUWAKU
  6
Continuous
 62
    56
370
    25
100
AcDbLine
 10
280.1249999999997
 20
-379.1116298811551
 30
0.0
 11
280.1249999999998
 21
-229.111629881155
 31
0.0
  0
ELLIPSE
  5
365
330
1F
100
AcDbEntity
  8
ZUWAKU
  6
Continuous
 62
    56
370
    25
100
AcDbEllipse
 10
-230.5312499999996
 20
424.2254830919583
 30
0.0
 11
-38.34375
 21
0.0
 31
0.0
210
0.0
220
0.0
230
1.0
 40
0.4036531712980696
 41
0.0
 42
6.283185307179586
  0
LINE
  5
366
330
1F
100
AcDbEntity
  8
ZUWAKU
  6
Continuous
 62
    56
370
    25
100
AcDbLine
 10
-261.3749999999996
 20
431.6383701188452
 30
0.0
 11
-261.3749999999996
 21
417.0133701188451
 31
0.0
  0
LINE
  5
367
330
1F
100
AcDbEntity
  8
ZUWAKU
  6
Continuous
 62
    56
370
    25
100
AcDbLine
 10
-199.4999999999996
 20
431.6383701188452
 30
0.0
 11
-199.4999999999996
 21
417.0133701188451
 31
0.0
  0
LINE
  5
368
330
1F
100
AcDbEntity
  8
ZUWAKU
  6
Continuous
 62
    56
370
    25
100
AcDbLine
 10
-261.3749999999996
 20
431.6383701188452
 30
0.0
 11
-199.4999999999996
 21
431.6383701188452
 31
0.0
  0
LINE
  5
369
330
1F
100
AcDbEntity
  8
ZUWAKU
  6
Continuous
 62
    56
370
    25
100
AcDbLine
 10
-261.3749999999996
 20
417.0133701188451
 30
0.0
 11
-199.4999999999996
 21
417.0133701188451
 31
0.0
  0
LINE
  5
36A
330
1F
100
AcDbEntity
  8
ZUWAKU
  6
Continuous
 62
    56
370
    25
100
AcDbLine
 10
-234.3528053531847
 20
439.6259962522166
 30
0.0
 11
-242.3404314865562
 21
431.6383701188452
 31
0.0
  0
LINE
  5
36B
330
1F
100
AcDbEntity
  8
ZUWAKU
  6
Continuous
 62
    56
370
    25
100
AcDbLine
 10
-235.2414949001054
 20
439.5858348427198
 30
0.0
 11
-243.1889596239801
 21
431.6383701188452
 31
0.0
  0
LINE
  5
36C
330
1F
100
AcDbEntity
  8
ZUWAKU
  6
Continuous
 62
    56
370
    25
100
AcDbLine
 10
-236.1392310149068
 20
439.5366268653424
 30
0.0
 11
-244.037487761404
 21
431.6383701188452
 31
0.0
  0
LINE
  5
36D
330
1F
100
AcDbEntity
  8
ZUWAKU
  6
Continuous
 62
    56
370
    25
100
AcDbLine
 10
-237.0463875429076
 20
439.4779984747654
 30
0.0
 11
-244.8860158988277
 21
431.6383701188452
 31
0.0
  0
LINE
  5
36E
330
1F
100
AcDbEntity
  8
ZUWAKU
  6
Continuous
 62
    56
370
    25
100
AcDbLine
 10
-237.9633820050443
 20
439.4095321500525
 30
0.0
 11
-245.7345440362516
 21
431.6383701188452
 31
0.0
  0
LINE
  5
36F
330
1F
100
AcDbEntity
  8
ZUWAKU
  6
Continuous
 62
    56
370
    25
100
AcDbLine
 10
-238.8906822878379
 20
439.3307600046829
 30
0.0
 11
-246.5830721736756
 21
431.6383701188452
 31
0.0
  0
LINE
  5
370
330
1F
100
AcDbEntity
  8
ZUWAKU
  6
Continuous
 62
    56
370
    25
100
AcDbLine
 10
-239.8288147768552
 20
439.2411556530895
 30
0.0
 11
-247.4316003110996
 21
431.6383701188452
 31
0.0
  0
LINE
  5
371
330
1F
100
AcDbEntity
  8
ZUWAKU
  6
Continuous
 62
    56
370
    25
100
AcDbLine
 10
-240.7783743311188
 20
439.1401242362499
 30
0.0
 11
-248.2801284485235
 21
431.6383701188452
 31
0.0
  0
LINE
  5
372
330
1F
100
AcDbEntity
  8
ZUWAKU
  6
Continuous
 62
    56
370
    25
100
AcDbLine
 10
-241.7400366328236
 20
439.0269900719689
 30
0.0
 11
-249.1286565859474
 21
431.6383701188452
 31
0.0
  0
LINE
  5
373
330
1F
100
AcDbEntity
  8
ZUWAKU
  6
Continuous
 62
    56
370
    25
100
AcDbLine
 10
-242.7145736411663
 20
438.9009812010501
 30
0.0
 11
-249.9771847233713
 21
431.6383701188452
 31
0.0
  0
LINE
  5
374
330
1F
100
AcDbEntity
  8
ZUWAKU
  6
Continuous
 62
    56
370
    25
100
AcDbLine
 10
-243.7028731601394
 20
438.7612098195009
 30
0.0
 11
-250.8257128607951
 21
431.6383701188452
 31
0.0
  0
LINE
  5
375
330
1F
100
AcDbEntity
  8
ZUWAKU
  6
Continuous
 62
    56
370
    25
100
AcDbLine
 10
-244.7059639443675
 20
438.6066471726966
 30
0.0
 11
-251.674240998219
 21
431.6383701188452
 31
0.0
  0
LINE
  5
376
330
1F
100
AcDbEntity
  8
ZUWAKU
  6
Continuous
 62
    56
370
    25
100
AcDbLine
 10
-245.7250483909112
 20
438.4360908635769
 30
0.0
 11
-252.5227691356429
 21
431.6383701188452
 31
0.0
  0
LINE
  5
377
330
1F
100
AcDbEntity
  8
ZUWAKU
  6
Continuous
 62
    56
370
    25
100
AcDbLine
 10
-246.7615458275974
 20
438.2481215643145
 30
0.0
 11
-253.3712972730668
 21
431.6383701188452
 31
0.0
  0
LINE
  5
378
330
1F
100
AcDbEntity
  8
ZUWAKU
  6
Continuous
 62
    56
370
    25
100
AcDbLine
 10
-247.8171509350307
 20
438.0410445943053
 30
0.0
 11
-254.2198254104907
 21
431.6383701188452
 31
0.0
  0
LINE
  5
379
330
1F
100
AcDbEntity
  8
ZUWAKU
  6
Continuous
 62
    56
370
    25
100
AcDbLine
 10
-261.3749999999996
 20
424.4831955293363
 30
0.0
 11
-261.5323254104908
 21
424.3258701188451
 31
0.0
  0
LINE
  5
37A
330
1F
100
AcDbEntity
  8
ZUWAKU
  6
Continuous
 62
    56
370
    25
100
AcDbLine
 10
-248.8939143369188
 20
437.812809329841
 30
0.0
 11
-255.0683535479146
 21
431.6383701188452
 31
0.0
  0
LINE
  5
37B
330
1F
100
AcDbEntity
  8
ZUWAKU
  6
Continuous
 62
    56
370
    25
100
AcDbLine
 10
-261.3749999999996
 20
425.3317236667602
 30
0.0
 11
-262.3808535479147
 21
424.3258701188451
 31
0.0
  0
LINE
  5
37C
330
1F
100
AcDbEntity
  8
ZUWAKU
  6
Continuous
 62
    56
370
    25
100
AcDbLine
 10
-249.9943566279009
 20
437.5608951762829
 30
0.0
 11
-255.9168816853386
 21
431.6383701188452
 31
0.0
  0
LINE
  5
37D
330
1F
100
AcDbEntity
  8
ZUWAKU
  6
Continuous
 62
    56
370
    25
100
AcDbLine
 10
-261.3749999999996
 20
426.1802518041841
 30
0.0
 11
-263.2293816853387
 21
424.3258701188451
 31
0.0
  0
LINE
  5
37E
330
1F
100
AcDbEntity
  8
ZUWAKU
  6
Continuous
 62
    56
370
    25
100
AcDbLine
 10
-251.1216345922379
 20
437.2821453493698
 30
0.0
 11
-256.7654098227625
 21
431.6383701188452
 31
0.0
  0
LINE
  5
37F
330
1F
100
AcDbEntity
  8
ZUWAKU
  6
Continuous
 62
    56
370
    25
100
AcDbLine
 10
-261.3749999999996
 20
427.028779941608
 30
0.0
 11
-264.0779098227626
 21
424.3258701188451
 31
0.0
  0
LINE
  5
380
330
1F
100
AcDbEntity
  8
ZUWAKU
  6
Continuous
 62
    56
370
    25
100
AcDbLine
 10
-252.2797922568624
 20
436.9725158221692
 30
0.0
 11
-257.6139379601863
 21
431.6383701188452
 31
0.0
  0
LINE
  5
381
330
1F
100
AcDbEntity
  8
ZUWAKU
  6
Continuous
 62
    56
370
    25
100
AcDbLine
 10
-261.3749999999996
 20
427.8773080790319
 30
0.0
 11
-264.9264379601864
 21
424.3258701188451
 31
0.0
  0
LINE
  5
382
330
1F
100
AcDbEntity
  8
ZUWAKU
  6
Continuous
 62
    56
370
    25
100
AcDbLine
 10
-253.4741567535908
 20
436.6266794628647
 30
0.0
 11
-258.4624660976102
 21
431.6383701188452
 31
0.0
  0
LINE
  5
383
330
1F
100
AcDbEntity
  8
ZUWAKU
  6
Continuous
 62
    56
370
    25
100
AcDbLine
 10
-261.3749999999996
 20
428.7258362164558
 30
0.0
 11
-265.7749660976104
 21
424.3258701188451
 31
0.0
  0
LINE
  5
384
330
1F
100
AcDbEntity
  8
ZUWAKU
  6
Continuous
 62
    56
370
    25
100
AcDbLine
 10
-254.7119967227131
 20
436.2373676311663
 30
0.0
 11
-259.3109942350342
 21
431.6383701188452
 31
0.0
  0
LINE
  5
385
330
1F
100
AcDbEntity
  8
ZUWAKU
  6
Continuous
 62
    56
370
    25
100
AcDbLine
 10
-261.3749999999996
 20
429.5743643538797
 30
0.0
 11
-266.6234942350343
 21
424.3258701188451
 31
0.0
  0
LINE
  5
386
330
1F
100
AcDbEntity
  8
ZUWAKU
  6
Continuous
 62
    56
370
    25
100
AcDbLine
 10
-256.0036944582987
 20
435.7941980330045
 30
0.0
 11
-260.159522372458
 21
431.6383701188452
 31
0.0
  0
LINE
  5
387
330
1F
100
AcDbEntity
  8
ZUWAKU
  6
Continuous
 62
    56
370
    25
100
AcDbLine
 10
-261.3749999999996
 20
430.4228924913036
 30
0.0
 11
-267.4720223724581
 21
424.3258701188451
 31
0.0
  0
LINE
  5
388
330
1F
100
AcDbEntity
  8
ZUWAKU
  6
Continuous
 62
    56
370
    25
100
AcDbLine
 10
-257.3650293319274
 20
435.2813912967998
 30
0.0
 11
-261.008050509882
 21
431.6383701188452
 31
0.0
  0
LINE
  5
389
330
1F
100
AcDbEntity
  8
ZUWAKU
  6
Continuous
 62
    56
370
    25
100
AcDbLine
 10
-261.3749999999996
 20
431.2714206287275
 30
0.0
 11
-268.3205505098821
 21
424.3258701188451
 31
0.0
  0
LINE
  5
38A
330
1F
100
AcDbEntity
  8
ZUWAKU
  6
Continuous
 62
    56
370
    25
100
AcDbLine
 10
-258.8222226239432
 20
434.6727261422077
 30
0.0
 11
-268.8616900446338
 21
424.6332587215173
 31
0.0
  0
LINE
  5
38B
330
1F
100
AcDbEntity
  8
ZUWAKU
  6
Continuous
 62
    56
370
    25
100
AcDbLine
 10
-260.4254333163911
 20
433.9180435871838
 30
0.0
 11
-268.7177655433637
 21
425.6257113602112
 31
0.0
  0
LINE
  5
38C
330
1F
100
AcDbEntity
  8
ZUWAKU
  6
Continuous
 62
    56
370
    25
100
AcDbLine
 10
-262.299547494558
 20
432.8924575464408
 30
0.0
 11
-268.3029375563747
 21
426.8890674846243
 31
0.0
  0
LINE
  5
38D
330
1F
100
AcDbEntity
  8
ZUWAKU
  6
Continuous
 62
    56
370
    25
100
AcDbLine
 10
-265.2208452661029
 20
430.8196879123199
 30
0.0
 11
-266.8409259760076
 21
429.1996072024151
 31
0.0
  0
LINE
  5
38E
330
1F
100
AcDbEntity
  8
ZUWAKU
  6
Continuous
 62
    56
370
    25
100
AcDbLine
 10
-233.472826658468
 20
439.6574468095096
 30
0.0
 11
-241.4919033491325
 21
431.6383701188452
 31
0.0
  0
LINE
  5
38F
330
1F
100
AcDbEntity
  8
ZUWAKU
  6
Continuous
 62
    56
370
    25
100
AcDbLine
 10
-232.6012565995428
 20
439.6804887310108
 30
0.0
 11
-240.6433752117082
 21
431.6383701188452
 31
0.0
  0
LINE
  5
390
330
1F
100
AcDbEntity
  8
ZUWAKU
  6
Continuous
 62
    56
370
    25
100
AcDbLine
 10
-231.7378225684049
 20
439.6953946247247
 30
0.0
 11
-239.7948470742845
 21
431.6383701188452
 31
0.0
  0
LINE
  5
391
330
1F
100
AcDbEntity
  8
ZUWAKU
  6
Continuous
 62
    56
370
    25
100
AcDbLine
 10
-230.8822782770096
 20
439.7024107786961
 30
0.0
 11
-238.9463189368605
 21
431.6383701188452
 31
0.0
  0
LINE
  5
392
330
1F
100
AcDbEntity
  8
ZUWAKU
  6
Continuous
 62
    56
370
    25
100
AcDbLine
 10
-230.0344009634828
 20
439.7017599547991
 30
0.0
 11
-238.0977907994366
 21
431.6383701188452
 31
0.0
  0
LINE
  5
393
330
1F
100
AcDbEntity
  8
ZUWAKU
  6
Continuous
 62
    56
370
    25
100
AcDbLine
 10
-229.193989007592
 20
439.693643773266
 30
0.0
 11
-237.2492626620128
 21
431.6383701188452
 31
0.0
  0
LINE
  5
394
330
1F
100
AcDbEntity
  8
ZUWAKU
  6
Continuous
 62
    56
370
    25
100
AcDbLine
 10
-228.3608598872668
 20
439.6782447561673
 30
0.0
 11
-236.4007345245889
 21
431.6383701188452
 31
0.0
  0
LINE
  5
395
330
1F
100
AcDbEntity
  8
ZUWAKU
  6
Continuous
 62
    56
370
    25
100
AcDbLine
 10
-227.5348484213015
 20
439.6557280847087
 30
0.0
 11
-235.5522063871651
 21
431.6383701188452
 31
0.0
  0
LINE
  5
396
330
1F
100
AcDbEntity
  8
ZUWAKU
  6
Continuous
 62
    56
370
    25
100
AcDbLine
 10
-226.7158052538152
 20
439.6262431147711
 30
0.0
 11
-234.7036782497412
 21
431.6383701188452
 31
0.0
  0
LINE
  5
397
330
1F
100
AcDbEntity
  8
ZUWAKU
  6
Continuous
 62
    56
370
    25
100
AcDbLine
 10
-225.9035955442916
 20
439.5899246868707
 30
0.0
 11
-233.8551501123171
 21
431.6383701188452
 31
0.0
  0
LINE
  5
398
330
1F
100
AcDbEntity
  8
ZUWAKU
  6
Continuous
 62
    56
370
    25
100
AcDbLine
 10
-225.0980978335853
 20
439.5468942601532
 30
0.0
 11
-233.0066219748933
 21
431.6383701188452
 31
0.0
  0
LINE
  5
399
330
1F
100
AcDbEntity
  8
ZUWAKU
  6
Continuous
 62
    56
370
    25
100
AcDbLine
 10
-224.2992030615396
 20
439.497260894775
 30
0.0
 11
-232.1580938374694
 21
431.6383701188452
 31
0.0
  0
LINE
  5
39A
330
1F
100
AcDbEntity
  8
ZUWAKU
  6
Continuous
 62
    56
370
    25
100
AcDbLine
 10
-223.5068137161177
 20
439.4411221027729
 30
0.0
 11
-231.3095657000455
 21
431.6383701188452
 31
0.0
  0
LINE
  5
39B
330
1F
100
AcDbEntity
  8
ZUWAKU
  6
Continuous
 62
    56
370
    25
100
AcDbLine
 10
-222.7208430974119
 20
439.3785645840549
 30
0.0
 11
-230.4610375626216
 21
431.6383701188452
 31
0.0
  0
LINE
  5
39C
330
1F
100
AcDbEntity
  8
ZUWAKU
  6
Continuous
 62
    56
370
    25
100
AcDbLine
 10
-221.9412146827329
 20
439.30966486131
 30
0.0
 11
-229.6125094251977
 21
431.6383701188452
 31
0.0
  0
LINE
  5
39D
330
1F
100
AcDbEntity
  8
ZUWAKU
  6
Continuous
 62
    56
370
    25
100
AcDbLine
 10
-221.1678615813383
 20
439.2344898252807
 30
0.0
 11
-228.7639812877738
 21
431.6383701188452
 31
0.0
  0
LINE
  5
39E
330
1F
100
AcDbEntity
  8
ZUWAKU
  6
Continuous
 62
    56
370
    25
100
AcDbLine
 10
-220.4007260693158
 20
439.1530971998793
 30
0.0
 11
-227.9154531503499
 21
431.6383701188452
 31
0.0
  0
LINE
  5
39F
330
1F
100
AcDbEntity
  8
ZUWAKU
  6
Continuous
 62
    56
370
    25
100
AcDbLine
 10
-219.6397591967907
 20
439.0655359349805
 30
0.0
 11
-227.066925012926
 21
431.6383701188452
 31
0.0
  0
LINE
  5
3A0
330
1F
100
AcDbEntity
  8
ZUWAKU
  6
Continuous
 62
    56
370
    25
100
AcDbLine
 10
-218.8849204610354
 20
438.9718465333119
 30
0.0
 11
-226.2183968755022
 21
431.6383701188452
 31
0.0
  0
LINE
  5
3A1
330
1F
100
AcDbEntity
  8
ZUWAKU
  6
Continuous
 62
    56
370
    25
100
AcDbLine
 10
-218.1361775402688
 20
438.8720613166546
 30
0.0
 11
-225.3698687380783
 21
431.6383701188452
 31
0.0
  0
LINE
  5
3A2
330
1F
100
AcDbEntity
  8
ZUWAKU
  6
Continuous
 62
    56
370
    25
100
AcDbLine
 10
-217.3935060839925
 20
438.7662046355071
 30
0.0
 11
-224.5213406006544
 21
431.6383701188452
 31
0.0
  0
LINE
  5
3A3
330
1F
100
AcDbEntity
  8
ZUWAKU
  6
Continuous
 62
    56
370
    25
100
AcDbLine
 10
-216.6568895566539
 20
438.6542930254217
 30
0.0
 11
-223.6728124632303
 21
431.6383701188452
 31
0.0
  0
LINE
  5
3A4
330
1F
100
AcDbEntity
  8
ZUWAKU
  6
Continuous
 62
    56
370
    25
100
AcDbLine
 10
-215.9263191322736
 20
438.5363353123781
 30
0.0
 11
-222.8242843258064
 21
431.6383701188452
 31
0.0
  0
LINE
  5
3A5
330
1F
100
AcDbEntity
  8
ZUWAKU
  6
Continuous
 62
    56
370
    25
100
AcDbLine
 10
-215.2017936384636
 20
438.4123326687641
 30
0.0
 11
-221.9757561883825
 21
431.6383701188452
 31
0.0
  0
LINE
  5
3A6
330
1F
100
AcDbEntity
  8
ZUWAKU
  6
Continuous
 62
    56
370
    25
100
AcDbLine
 10
-214.4833195490048
 20
438.282278620799
 30
0.0
 11
-221.1272280509586
 21
431.6383701188452
 31
0.0
  0
LINE
  5
3A7
330
1F
100
AcDbEntity
  8
ZUWAKU
  6
Continuous
 62
    56
370
    25
100
AcDbLine
 10
-213.7709110248735
 20
438.1461590075065
 30
0.0
 11
-220.2786999135348
 21
431.6383701188452
 31
0.0
  0
LINE
  5
3A8
330
1F
100
AcDbEntity
  8
ZUWAKU
  6
Continuous
 62
    56
370
    25
100
AcDbLine
 10
-213.0645900043261
 20
438.0039518906299
 30
0.0
 11
-219.4301717761109
 21
431.6383701188452
 31
0.0
  0
LINE
  5
3A9
330
1F
100
AcDbEntity
  8
ZUWAKU
  6
Continuous
 62
    56
370
    25
100
AcDbLine
 10
-212.3643863433843
 20
437.8556274141478
 30
0.0
 11
-218.581643638687
 21
431.6383701188452
 31
0.0
  0
LINE
  5
3AA
330
1F
100
AcDbEntity
  8
ZUWAKU
  6
Continuous
 62
    56
370
    25
100
AcDbLine
 10
-211.6703380088345
 20
437.7011476112738
 30
0.0
 11
-217.7331155012631
 21
431.6383701188452
 31
0.0
  0
LINE
  5
3AB
330
1F
100
AcDbEntity
  8
ZUWAKU
  6
Continuous
 62
    56
370
    25
100
AcDbLine
 10
-210.9824913266842
 20
437.5404661560002
 30
0.0
 11
-216.8845873638392
 21
431.6383701188452
 31
0.0
  0
LINE
  5
3AC
330
1F
100
AcDbEntity
  8
ZUWAKU
  6
Continuous
 62
    56
370
    25
100
AcDbLine
 10
-210.3009012899278
 20
437.3735280553327
 30
0.0
 11
-216.0360592264153
 21
431.6383701188452
 31
0.0
  0
LINE
  5
3AD
330
1F
100
AcDbEntity
  8
ZUWAKU
  6
Continuous
 62
    56
370
    25
100
AcDbLine
 10
-209.625631930493
 20
437.2002692773436
 30
0.0
 11
-215.1875310889914
 21
431.6383701188452
 31
0.0
  0
LINE
  5
3AE
330
1F
100
AcDbEntity
  8
ZUWAKU
  6
Continuous
 62
    56
370
    25
100
AcDbLine
 10
-208.9567567614016
 20
437.0206163090112
 30
0.0
 11
-214.3390029515675
 21
431.6383701188452
 31
0.0
  0
LINE
  5
3AF
330
1F
100
AcDbEntity
  8
ZUWAKU
  6
Continuous
 62
    56
370
    25
100
AcDbLine
 10
-208.2943592965195
 20
436.8344856364693
 30
0.0
 11
-213.4904748141437
 21
431.6383701188452
 31
0.0
  0
LINE
  5
3B0
330
1F
100
AcDbEntity
  8
ZUWAKU
  6
Continuous
 62
    56
370
    25
100
AcDbLine
 10
-207.638533656842
 20
436.6417831387229
 30
0.0
 11
-212.6419466767198
 21
431.6383701188452
 31
0.0
  0
LINE
  5
3B1
330
1F
100
AcDbEntity
  8
ZUWAKU
  6
Continuous
 62
    56
370
    25
100
AcDbLine
 10
-206.9893852741184
 20
436.4424033840227
 30
0.0
 11
-211.7934185392959
 21
431.6383701188452
 31
0.0
  0
LINE
  5
3B2
330
1F
100
AcDbEntity
  8
ZUWAKU
  6
Continuous
 62
    56
370
    25
100
AcDbLine
 10
-206.3470317048445
 20
436.2362288158727
 30
0.0
 11
-210.9448904018719
 21
431.6383701188452
 31
0.0
  0
LINE
  5
3B3
330
1F
100
AcDbEntity
  8
ZUWAKU
  6
Continuous
 62
    56
370
    25
100
AcDbLine
 10
-205.7116035703258
 20
436.0231288129675
 30
0.0
 11
-210.0963622644481
 21
431.6383701188452
 31
0.0
  0
LINE
  5
3B4
330
1F
100
AcDbEntity
  8
ZUWAKU
  6
Continuous
 62
    56
370
    25
100
AcDbLine
 10
-205.0832456417744
 20
435.802958604095
 30
0.0
 11
-209.2478341270243
 21
431.6383701188452
 31
0.0
  0
LINE
  5
3B5
330
1F
100
AcDbEntity
  8
ZUWAKU
  6
Continuous
 62
    56
370
    25
100
AcDbLine
 10
-204.4621180933909
 20
435.5755580150546
 30
0.0
 11
-208.3993059896003
 21
431.6383701188452
 31
0.0
  0
LINE
  5
3B6
330
1F
100
AcDbEntity
  8
ZUWAKU
  6
Continuous
 62
    56
370
    25
100
AcDbLine
 10
-203.8483979513076
 20
435.340750019714
 30
0.0
 11
-207.5507778521764
 21
431.6383701188452
 31
0.0
  0
LINE
  5
3B7
330
1F
100
AcDbEntity
  8
ZUWAKU
  6
Continuous
 62
    56
370
    25
100
AcDbLine
 10
-203.2422807723983
 20
435.0983390611994
 30
0.0
 11
-206.7022497147525
 21
431.6383701188452
 31
0.0
  0
LINE
  5
3B8
330
1F
100
AcDbEntity
  8
ZUWAKU
  6
Continuous
 62
    56
370
    25
100
AcDbLine
 10
-202.6439825946412
 20
434.8481091015325
 30
0.0
 11
-205.8537215773285
 21
431.6383701188452
 31
0.0
  0
LINE
  5
3B9
330
1F
100
AcDbEntity
  8
ZUWAKU
  6
Continuous
 62
    56
370
    25
100
AcDbLine
 10
-202.0537422104267
 20
434.589821348323
 30
0.0
 11
-205.0051934399046
 21
431.6383701188452
 31
0.0
  0
LINE
  5
3BA
330
1F
100
AcDbEntity
  8
ZUWAKU
  6
Continuous
 62
    56
370
    25
100
AcDbLine
 10
-201.4718238265674
 20
434.3232115947585
 30
0.0
 11
-204.1566653024807
 21
431.6383701188452
 31
0.0
  0
LINE
  5
3BB
330
1F
100
AcDbEntity
  8
ZUWAKU
  6
Continuous
 62
    56
370
    25
100
AcDbLine
 10
-200.898520190654
 20
434.047987093248
 30
0.0
 11
-203.3081371650569
 21
431.6383701188452
 31
0.0
  0
LINE
  5
3BC
330
1F
100
AcDbEntity
  8
ZUWAKU
  6
Continuous
 62
    56
370
    25
100
AcDbLine
 10
-200.3341562840037
 20
433.7638228624745
 30
0.0
 11
-202.459609027633
 21
431.6383701188452
 31
0.0
  0
LINE
  5
3BD
330
1F
100
AcDbEntity
  8
ZUWAKU
  6
Continuous
 62
    56
370
    25
100
AcDbLine
 10
-199.7790937084177
 20
433.4703573006366
 30
0.0
 11
-201.6110808902091
 21
431.6383701188452
 31
0.0
  0
LINE
  5
3BE
330
1F
100
AcDbEntity
  8
ZUWAKU
  6
Continuous
 62
    56
370
    25
100
AcDbLine
 10
-199.2337359296511
 20
433.1671869419794
 30
0.0
 11
-200.7625527527852
 21
431.6383701188452
 31
0.0
  0
LINE
  5
3BF
330
1F
100
AcDbEntity
  8
ZUWAKU
  6
Continuous
 62
    56
370
    25
100
AcDbLine
 10
-198.6985345882294
 20
432.853860145977
 30
0.0
 11
-199.9140246153614
 21
431.6383701188452
 31
0.0
  0
LINE
  5
3C0
330
1F
100
AcDbEntity
  8
ZUWAKU
  6
Continuous
 62
    56
370
    25
100
AcDbLine
 10
-198.1739971528783
 20
432.5298694439043
 30
0.0
 11
-199.4999999999996
 21
431.203866596783
 31
0.0
  0
LINE
  5
3C1
330
1F
100
AcDbEntity
  8
ZUWAKU
  6
Continuous
 62
    56
370
    25
100
AcDbLine
 10
-197.6606962804791
 20
432.1946421788796
 30
0.0
 11
-199.4999999999996
 21
430.355338459359
 31
0.0
  0
LINE
  5
3C2
330
1F
100
AcDbEntity
  8
ZUWAKU
  6
Continuous
 62
    56
370
    25
100
AcDbLine
 10
-197.1592813698071
 20
431.8475289521277
 30
0.0
 11
-199.4999999999996
 21
429.5068103219351
 31
0.0
  0
LINE
  5
3C3
330
1F
100
AcDbEntity
  8
ZUWAKU
  6
Continuous
 62
    56
370
    25
100
AcDbLine
 10
-196.6704929705879
 20
431.487789213923
 30
0.0
 11
-199.4999999999996
 21
428.6582821845112
 31
0.0
  0
LINE
  5
3C4
330
1F
100
AcDbEntity
  8
ZUWAKU
  6
Continuous
 62
    56
370
    25
100
AcDbLine
 10
-196.1951809599265
 20
431.1145730871605
 30
0.0
 11
-199.4999999999996
 21
427.8097540470873
 31
0.0
  0
LINE
  5
3C5
330
1F
100
AcDbEntity
  8
ZUWAKU
  6
Continuous
 62
    56
370
    25
100
AcDbLine
 10
-195.7343277650995
 20
430.7268981445636
 30
0.0
 11
-199.4999999999996
 21
426.9612259096634
 31
0.0
  0
LINE
  5
3C6
330
1F
100
AcDbEntity
  8
ZUWAKU
  6
Continuous
 62
    56
370
    25
100
AcDbLine
 10
-195.2890784605377
 20
430.3236193117015
 30
0.0
 11
-199.4999999999996
 21
426.1126977722395
 31
0.0
  0
LINE
  5
3C7
330
1F
100
AcDbEntity
  8
ZUWAKU
  6
Continuous
 62
    56
370
    25
100
AcDbLine
 10
-194.8607804071781
 20
429.9033892276371
 30
0.0
 11
-199.4999999999996
 21
425.2641696348156
 31
0.0
  0
LINE
  5
3C8
330
1F
100
AcDbEntity
  8
ZUWAKU
  6
Continuous
 62
    56
370
    25
100
AcDbLine
 10
-194.4510364234071
 20
429.4646050739843
 30
0.0
 11
-199.4999999999996
 21
424.4156414973918
 31
0.0
  0
LINE
  5
3C9
330
1F
100
AcDbEntity
  8
ZUWAKU
  6
Continuous
 62
    56
370
    25
100
AcDbLine
 10
-194.0617776165278
 20
429.0053357434398
 30
0.0
 11
-198.7412432411224
 21
424.3258701188451
 31
0.0
  0
LINE
  5
3CA
330
1F
100
AcDbEntity
  8
ZUWAKU
  6
Continuous
 62
    56
370
    25
100
AcDbLine
 10
-193.6953655900529
 20
428.5232196324907
 30
0.0
 11
-197.8927151036985
 21
424.3258701188451
 31
0.0
  0
LINE
  5
3CB
330
1F
100
AcDbEntity
  8
ZUWAKU
  6
Continuous
 62
    56
370
    25
100
AcDbLine
 10
-193.3547399960888
 20
428.015317089031
 30
0.0
 11
-197.0441869662745
 21
424.3258701188451
 31
0.0
  0
LINE
  5
3CC
330
1F
100
AcDbEntity
  8
ZUWAKU
  6
Continuous
 62
    56
370
    25
100
AcDbLine
 10
-193.0436388259601
 20
427.4778901217358
 30
0.0
 11
-196.1956588288507
 21
424.3258701188451
 31
0.0
  0
LINE
  5
3CD
330
1F
100
AcDbEntity
  8
ZUWAKU
  6
Continuous
 62
    56
370
    25
100
AcDbLine
 10
-192.7669408847719
 20
426.9060599255001
 30
0.0
 11
-195.3471306914268
 21
424.3258701188451
 31
0.0
  0
LINE
  5
3CE
330
1F
100
AcDbEntity
  8
ZUWAKU
  6
Continuous
 62
    56
370
    25
100
AcDbLine
 10
-192.5312254140116
 20
426.2932472588365
 30
0.0
 11
-194.498602554003
 21
424.3258701188451
 31
0.0
  0
LINE
  5
3CF
330
1F
100
AcDbEntity
  8
ZUWAKU
  6
Continuous
 62
    56
370
    25
100
AcDbLine
 10
-192.3457459271504
 20
425.6301986082738
 30
0.0
 11
-193.6500744165789
 21
424.3258701188451
 31
0.0
  0
LINE
  5
3D0
330
1F
100
AcDbEntity
  8
ZUWAKU
  6
Continuous
 62
    56
370
    25
100
AcDbLine
 10
-192.2242700976136
 20
424.9031463003864
 30
0.0
 11
-192.8015462791551
 21
424.3258701188451
 31
0.0
  0
LINE
  5
3D1
330
1F
100
AcDbEntity
  8
ZUWAKU
  6
Continuous
 62
    56
370
    25
100
AcDbLine
 10
-218.6216823703218
 20
417.0133701188451
 30
0.0
 11
-226.81425157402
 21
408.8208009151469
 31
0.0
  0
LINE
  5
3D2
330
1F
100
AcDbEntity
  8
ZUWAKU
  6
Continuous
 62
    56
370
    25
100
AcDbLine
 10
-219.4702105077458
 20
417.0133701188451
 30
0.0
 11
-227.6932203037962
 21
408.7903603227946
 31
0.0
  0
LINE
  5
3D3
330
1F
100
AcDbEntity
  8
ZUWAKU
  6
Continuous
 62
    56
370
    25
100
AcDbLine
 10
-220.3187386451696
 20
417.0133701188451
 30
0.0
 11
-228.5638141248361
 21
408.7682946391785
 31
0.0
  0
LINE
  5
3D4
330
1F
100
AcDbEntity
  8
ZUWAKU
  6
Continuous
 62
    56
370
    25
100
AcDbLine
 10
-221.1672667825934
 20
417.0133701188451
 30
0.0
 11
-229.4263023702684
 21
408.7543345311701
 31
0.0
  0
LINE
  5
3D5
330
1F
100
AcDbEntity
  8
ZUWAKU
  6
Continuous
 62
    56
370
    25
100
AcDbLine
 10
-222.0157949200173
 20
417.0133701188451
 30
0.0
 11
-230.2809284077478
 21
408.7482366311146
 31
0.0
  0
LINE
  5
3D6
330
1F
100
AcDbEntity
  8
ZUWAKU
  6
Continuous
 62
    56
370
    25
100
AcDbLine
 10
-222.8643230574413
 20
417.0133701188451
 30
0.0
 11
-231.1279123807466
 21
408.7497807955397
 31
0.0
  0
LINE
  5
3D7
330
1F
100
AcDbEntity
  8
ZUWAKU
  6
Continuous
 62
    56
370
    25
100
AcDbLine
 10
-223.7128511948652
 20
417.0133701188451
 30
0.0
 11
-231.9674535494679
 21
408.7587677642423
 31
0.0
  0
LINE
  5
3D8
330
1F
100
AcDbEntity
  8
ZUWAKU
  6
Continuous
 62
    56
370
    25
100
AcDbLine
 10
-224.561379332289
 20
417.0133701188451
 30
0.0
 11
-232.799732297832
 21
408.7750171533021
 31
0.0
  0
LINE
  5
3D9
330
1F
100
AcDbEntity
  8
ZUWAKU
  6
Continuous
 62
    56
370
    25
100
AcDbLine
 10
-225.4099074697129
 20
417.0133701188451
 30
0.0
 11
-233.624911860033
 21
408.7983657285251
 31
0.0
  0
LINE
  5
3DA
330
1F
100
AcDbEntity
  8
ZUWAKU
  6
Continuous
 62
    56
370
    25
100
AcDbLine
 10
-226.2584356071368
 20
417.0133701188451
 30
0.0
 11
-234.4431398100115
 21
408.8286659159704
 31
0.0
  0
LINE
  5
3DB
330
1F
100
AcDbEntity
  8
ZUWAKU
  6
Continuous
 62
    56
370
    25
100
AcDbLine
 10
-227.1069637445608
 20
417.0133701188451
 30
0.0
 11
-235.2545493491647
 21
408.8657845142412
 31
0.0
  0
LINE
  5
3DC
330
1F
100
AcDbEntity
  8
ZUWAKU
  6
Continuous
 62
    56
370
    25
100
AcDbLine
 10
-227.9554918819846
 20
417.0133701188451
 30
0.0
 11
-236.0592604212238
 21
408.9096015796058
 31
0.0
  0
LINE
  5
3DD
330
1F
100
AcDbEntity
  8
ZUWAKU
  6
Continuous
 62
    56
370
    25
100
AcDbLine
 10
-228.8040200194085
 20
417.0133701188451
 30
0.0
 11
-236.8573806781035
 21
408.96000946015
 31
0.0
  0
LINE
  5
3DE
330
1F
100
AcDbEntity
  8
ZUWAKU
  6
Continuous
 62
    56
370
    25
100
AcDbLine
 10
-229.6525481568323
 20
417.0133701188451
 30
0.0
 11
-237.6490063163711
 21
409.0169119593063
 31
0.0
  0
LINE
  5
3DF
330
1F
100
AcDbEntity
  8
ZUWAKU
  6
Continuous
 62
    56
370
    25
100
AcDbLine
 10
-230.5010762942563
 20
417.0133701188451
 30
0.0
 11
-238.4342228006104
 21
409.0802236124911
 31
0.0
  0
LINE
  5
3E0
330
1F
100
AcDbEntity
  8
ZUWAKU
  6
Continuous
 62
    56
370
    25
100
AcDbLine
 10
-231.3496044316803
 20
417.0133701188451
 30
0.0
 11
-239.2131054871703
 21
409.1498690633551
 31
0.0
  0
LINE
  5
3E1
330
1F
100
AcDbEntity
  8
ZUWAKU
  6
Continuous
 62
    56
370
    25
100
AcDbLine
 10
-232.1981325691041
 20
417.0133701188451
 30
0.0
 11
-239.9857201594946
 21
409.2257825284547
 31
0.0
  0
LINE
  5
3E2
330
1F
100
AcDbEntity
  8
ZUWAKU
  6
Continuous
 62
    56
370
    25
100
AcDbLine
 10
-233.046660706528
 20
417.0133701188451
 30
0.0
 11
-240.7521234843032
 21
409.3079073410699
 31
0.0
  0
LINE
  5
3E3
330
1F
100
AcDbEntity
  8
ZUWAKU
  6
Continuous
 62
    56
370
    25
100
AcDbLine
 10
-233.895188843952
 20
417.0133701188451
 30
0.0
 11
-241.5123633962771
 21
409.3961955665199
 31
0.0
  0
LINE
  5
3E4
330
1F
100
AcDbEntity
  8
ZUWAKU
  6
Continuous
 62
    56
370
    25
100
AcDbLine
 10
-234.7437169813758
 20
417.0133701188451
 30
0.0
 11
-242.2664794175196
 21
409.4906076827014
 31
0.0
  0
LINE
  5
3E5
330
1F
100
AcDbEntity
  8
ZUWAKU
  6
Continuous
 62
    56
370
    25
100
AcDbLine
 10
-235.5922451187998
 20
417.0133701188451
 30
0.0
 11
-243.0145029168706
 21
409.5911123207742
 31
0.0
  0
LINE
  5
3E6
330
1F
100
AcDbEntity
  8
ZUWAKU
  6
Continuous
 62
    56
370
    25
100
AcDbLine
 10
-236.4407732562237
 20
417.0133701188451
 30
0.0
 11
-243.756457313111
 21
409.6976860619577
 31
0.0
  0
LINE
  5
3E7
330
1F
100
AcDbEntity
  8
ZUWAKU
  6
Continuous
 62
    56
370
    25
100
AcDbLine
 10
-237.2893013936475
 20
417.0133701188451
 30
0.0
 11
-244.492358225163
 21
409.8103132873296
 31
0.0
  0
LINE
  5
3E8
330
1F
100
AcDbEntity
  8
ZUWAKU
  6
Continuous
 62
    56
370
    25
100
AcDbLine
 10
-238.1378295310714
 20
417.0133701188451
 30
0.0
 11
-245.2222135715518
 21
409.9289860783647
 31
0.0
  0
LINE
  5
3E9
330
1F
100
AcDbEntity
  8
ZUWAKU
  6
Continuous
 62
    56
370
    25
100
AcDbLine
 10
-238.9863576684953
 20
417.0133701188451
 30
0.0
 11
-245.9460236206133
 21
410.053704166727
 31
0.0
  0
LINE
  5
3EA
330
1F
100
AcDbEntity
  8
ZUWAKU
  6
Continuous
 62
    56
370
    25
100
AcDbLine
 10
-239.8348858059193
 20
417.0133701188451
 30
0.0
 11
-246.663780992193
 21
410.1844749325713
 31
0.0
  0
LINE
  5
3EB
330
1F
100
AcDbEntity
  8
ZUWAKU
  6
Continuous
 62
    56
370
    25
100
AcDbLine
 10
-240.6834139433431
 20
417.0133701188451
 30
0.0
 11
-247.3754706108608
 21
410.3213134513273
 31
0.0
  0
LINE
  5
3EC
330
1F
100
AcDbEntity
  8
ZUWAKU
  6
Continuous
 62
    56
370
    25
100
AcDbLine
 10
-241.5319420807671
 20
417.0133701188451
 30
0.0
 11
-248.0810696099489
 21
410.4642425896633
 31
0.0
  0
LINE
  5
3ED
330
1F
100
AcDbEntity
  8
ZUWAKU
  6
Continuous
 62
    56
370
    25
100
AcDbLine
 10
-242.3804702181909
 20
417.0133701188451
 30
0.0
 11
-248.7805471849788
 21
410.6132931520572
 31
0.0
  0
LINE
  5
3EE
330
1F
100
AcDbEntity
  8
ZUWAKU
  6
Continuous
 62
    56
370
    25
100
AcDbLine
 10
-243.2289983556149
 20
417.0133701188451
 30
0.0
 11
-249.4738643942716
 21
410.7685040801883
 31
0.0
  0
LINE
  5
3EF
330
1F
100
AcDbEntity
  8
ZUWAKU
  6
Continuous
 62
    56
370
    25
100
AcDbLine
 10
-244.0775264930386
 20
417.0133701188451
 30
0.0
 11
-250.1609739036941
 21
410.9299227081897
 31
0.0
  0
LINE
  5
3F0
330
1F
100
AcDbEntity
  8
ZUWAKU
  6
Continuous
 62
    56
370
    25
100
AcDbLine
 10
-244.9260546304626
 20
417.0133701188451
 30
0.0
 11
-250.8418196715756
 21
411.0976050777321
 31
0.0
  0
LINE
  5
3F1
330
1F
100
AcDbEntity
  8
ZUWAKU
  6
Continuous
 62
    56
370
    25
100
AcDbLine
 10
-245.7745827678865
 20
417.0133701188451
 30
0.0
 11
-251.5163365687928
 21
411.2716163179388
 31
0.0
  0
LINE
  5
3F2
330
1F
100
AcDbEntity
  8
ZUWAKU
  6
Continuous
 62
    56
370
    25
100
AcDbLine
 10
-246.6231109053104
 20
417.0133701188451
 30
0.0
 11
-252.1844499278433
 21
411.4520310963122
 31
0.0
  0
LINE
  5
3F3
330
1F
100
AcDbEntity
  8
ZUWAKU
  6
Continuous
 62
    56
370
    25
100
AcDbLine
 10
-247.4716390427343
 20
417.0133701188451
 30
0.0
 11
-252.8460750133568
 21
411.6389341482226
 31
0.0
  0
LINE
  5
3F4
330
1F
100
AcDbEntity
  8
ZUWAKU
  6
Continuous
 62
    56
370
    25
100
AcDbLine
 10
-248.3201671801583
 20
417.0133701188451
 30
0.0
 11
-253.5011164048975
 21
411.8324208941059
 31
0.0
  0
LINE
  5
3F5
330
1F
100
AcDbEntity
  8
ZUWAKU
  6
Continuous
 62
    56
370
    25
100
AcDbLine
 10
-249.1686953175821
 20
417.0133701188451
 30
0.0
 11
-254.1494672810081
 21
412.0325981554191
 31
0.0
  0
LINE
  5
3F6
330
1F
100
AcDbEntity
  8
ZUWAKU
  6
Continuous
 62
    56
370
    25
100
AcDbLine
 10
-250.017223455006
 20
417.0133701188451
 30
0.0
 11
-254.7910085911799
 21
412.2395849826712
 31
0.0
  0
LINE
  5
3F7
330
1F
100
AcDbEntity
  8
ZUWAKU
  6
Continuous
 62
    56
370
    25
100
AcDbLine
 10
-250.8657515924299
 20
417.0133701188451
 30
0.0
 11
-255.425608099689
 21
412.453513611586
 31
0.0
  0
LINE
  5
3F8
330
1F
100
AcDbEntity
  8
ZUWAKU
  6
Continuous
 62
    56
370
    25
100
AcDbLine
 10
-251.7142797298538
 20
417.0133701188451
 30
0.0
 11
-256.0531192819093
 21
412.6745305667896
 31
0.0
  0
LINE
  5
3F9
330
1F
100
AcDbEntity
  8
ZUWAKU
  6
Continuous
 62
    56
370
    25
100
AcDbLine
 10
-252.5628078672777
 20
417.0133701188451
 30
0.0
 11
-256.6733800496191
 21
412.9027979365037
 31
0.0
  0
LINE
  5
3FA
330
1F
100
AcDbEntity
  8
ZUWAKU
  6
Continuous
 62
    56
370
    25
100
AcDbLine
 10
-253.4113360047016
 20
417.0133701188451
 30
0.0
 11
-257.2862112767704
 21
413.1384948467764
 31
0.0
  0
LINE
  5
3FB
330
1F
100
AcDbEntity
  8
ZUWAKU
  6
Continuous
 62
    56
370
    25
100
AcDbLine
 10
-254.2598641421255
 20
417.0133701188451
 30
0.0
 11
-257.8914150908937
 21
413.3818191700769
 31
0.0
  0
LINE
  5
3FC
330
1F
100
AcDbEntity
  8
ZUWAKU
  6
Continuous
 62
    56
370
    25
100
AcDbLine
 10
-255.1083922795494
 20
417.0133701188451
 30
0.0
 11
-258.4887728874224
 21
413.6329895109722
 31
0.0
  0
LINE
  5
3FD
330
1F
100
AcDbEntity
  8
ZUWAKU
  6
Continuous
 62
    56
370
    25
100
AcDbLine
 10
-255.9569204169733
 20
417.0133701188451
 30
0.0
 11
-259.0780430142325
 21
413.8922475215859
 31
0.0
  0
LINE
  5
3FE
330
1F
100
AcDbEntity
  8
ZUWAKU
  6
Continuous
 62
    56
370
    25
100
AcDbLine
 10
-256.8054485543972
 20
417.0133701188451
 30
0.0
 11
-259.6589580609661
 21
414.1598606122762
 31
0.0
  0
LINE
  5
3FF
330
1F
100
AcDbEntity
  8
ZUWAKU
  6
Continuous
 62
    56
370
    25
100
AcDbLine
 10
-257.6539766918212
 20
417.0133701188451
 30
0.0
 11
-260.2312216713294
 21
414.4361251393368
 31
0.0
  0
LINE
  5
400
330
1F
100
AcDbEntity
  8
ZUWAKU
  6
Continuous
 62
    56
370
    25
100
AcDbLine
 10
-258.502504829245
 20
417.0133701188451
 30
0.0
 11
-260.7945047753004
 21
414.7213701727898
 31
0.0
  0
LINE
  5
401
330
1F
100
AcDbEntity
  8
ZUWAKU
  6
Continuous
 62
    56
370
    25
100
AcDbLine
 10
-259.3510329666689
 20
417.0133701188451
 30
0.0
 11
-261.3484411103126
 21
415.0159619752014
 31
0.0
  0
LINE
  5
402
330
1F
100
AcDbEntity
  8
ZUWAKU
  6
Continuous
 62
    56
370
    25
100
AcDbLine
 10
-260.1995611040927
 20
417.0133701188451
 30
0.0
 11
-261.8926218635756
 21
415.3203093593623
 31
0.0
  0
LINE
  5
403
330
1F
100
AcDbEntity
  8
ZUWAKU
  6
Continuous
 62
    56
370
    25
100
AcDbLine
 10
-261.0480892415167
 20
417.0133701188451
 30
0.0
 11
-262.4265892182425
 21
415.6348701421193
 31
0.0
  0
LINE
  5
404
330
1F
100
AcDbEntity
  8
ZUWAKU
  6
Continuous
 62
    56
370
    25
100
AcDbLine
 10
-261.3749999999996
 20
417.5349874977861
 30
0.0
 11
-262.9498285190954
 21
415.9601589786903
 31
0.0
  0
LINE
  5
405
330
1F
100
AcDbEntity
  8
ZUWAKU
  6
Continuous
 62
    56
370
    25
100
AcDbLine
 10
-261.3749999999996
 20
418.38351563521
 30
0.0
 11
-263.4617586813039
 21
416.2967569539056
 31
0.0
  0
LINE
  5
406
330
1F
100
AcDbEntity
  8
ZUWAKU
  6
Continuous
 62
    56
370
    25
100
AcDbLine
 10
-261.3749999999996
 20
419.2320437726339
 30
0.0
 11
-263.9617203374353
 21
416.6453234351983
 31
0.0
  0
LINE
  5
407
330
1F
100
AcDbEntity
  8
ZUWAKU
  6
Continuous
 62
    56
370
    25
100
AcDbLine
 10
-261.3749999999996
 20
420.0805719100578
 30
0.0
 11
-264.4489610361279
 21
417.0066108739294
 31
0.0
  0
LINE
  5
408
330
1F
100
AcDbEntity
  8
ZUWAKU
  6
Continuous
 62
    56
370
    25
100
AcDbLine
 10
-261.3749999999996
 20
420.9291000474817
 30
0.0
 11
-264.9226165440282
 21
417.3814835034532
 31
0.0
  0
LINE
  5
409
330
1F
100
AcDbEntity
  8
ZUWAKU
  6
Continuous
 62
    56
370
    25
100
AcDbLine
 10
-261.3749999999996
 20
421.7776281849057
 30
0.0
 11
-265.3816869181819
 21
417.7709412667234
 31
0.0
  0
LINE
  5
40A
330
1F
100
AcDbEntity
  8
ZUWAKU
  6
Continuous
 62
    56
370
    25
100
AcDbLine
 10
-261.3749999999996
 20
422.6261563223295
 30
0.0
 11
-265.8250054396042
 21
418.1761508827249
 31
0.0
  0
LINE
  5
40B
330
1F
100
AcDbEntity
  8
ZUWAKU
  6
Continuous
 62
    56
370
    25
100
AcDbLine
 10
-261.3749999999996
 20
423.4746844597535
 30
0.0
 11
-266.2511976134707
 21
418.5984868462823
 31
0.0
  0
LINE
  5
40C
330
1F
100
AcDbEntity
  8
ZUWAKU
  6
Continuous
 62
    56
370
    25
100
AcDbLine
 10
-261.3723424783318
 20
424.3258701188451
 30
0.0
 11
-266.6586260450522
 21
419.0395865521248
 31
0.0
  0
LINE
  5
40D
330
1F
100
AcDbEntity
  8
ZUWAKU
  6
Continuous
 62
    56
370
    25
100
AcDbLine
 10
-262.2208706157557
 20
424.3258701188451
 30
0.0
 11
-267.0453147302572
 21
419.5014260043437
 31
0.0
  0
LINE
  5
40E
330
1F
100
AcDbEntity
  8
ZUWAKU
  6
Continuous
 62
    56
370
    25
100
AcDbLine
 10
-263.0693987531796
 20
424.3258701188451
 30
0.0
 11
-267.4088424777532
 21
419.9864263942714
 31
0.0
  0
LINE
  5
40F
330
1F
100
AcDbEntity
  8
ZUWAKU
  6
Continuous
 62
    56
370
    25
100
AcDbLine
 10
-263.9179268906035
 20
424.3258701188451
 30
0.0
 11
-267.7461884808682
 21
420.4976085285803
 31
0.0
  0
LINE
  5
410
330
1F
100
AcDbEntity
  8
ZUWAKU
  6
Continuous
 62
    56
370
    25
100
AcDbLine
 10
-264.7664550280273
 20
424.3258701188451
 30
0.0
 11
-268.0535007470954
 21
421.038824399777
 31
0.0
  0
LINE
  5
411
330
1F
100
AcDbEntity
  8
ZUWAKU
  6
Continuous
 62
    56
370
    25
100
AcDbLine
 10
-265.6149831654512
 20
424.3258701188451
 30
0.0
 11
-268.3257341564953
 21
421.6151191278011
 31
0.0
  0
LINE
  5
412
330
1F
100
AcDbEntity
  8
ZUWAKU
  6
Continuous
 62
    56
370
    25
100
AcDbLine
 10
-266.4635113028751
 20
424.3258701188451
 30
0.0
 11
-268.5560550722246
 21
422.2333263494957
 31
0.0
  0
LINE
  5
413
330
1F
100
AcDbEntity
  8
ZUWAKU
  6
Continuous
 62
    56
370
    25
100
AcDbLine
 10
-267.312039440299
 20
424.3258701188451
 30
0.0
 11
-268.7347963539115
 21
422.9031132052326
 31
0.0
  0
LINE
  5
414
330
1F
100
AcDbEntity
  8
ZUWAKU
  6
Continuous
 62
    56
370
    25
100
AcDbLine
 10
-268.160567577723
 20
424.3258701188451
 30
0.0
 11
-268.8474603037799
 21
423.6389773927882
 31
0.0
  0
LINE
  5
415
330
1F
100
AcDbEntity
  8
ZUWAKU
  6
Continuous
 62
    56
370
    25
100
AcDbLine
 10
-217.7731542328981
 20
417.0133701188451
 30
0.0
 11
-225.926609412109
 21
408.8599149396341
 31
0.0
  0
LINE
  5
416
330
1F
100
AcDbEntity
  8
ZUWAKU
  6
Continuous
 62
    56
370
    25
100
AcDbLine
 10
-216.9246260954739
 20
417.0133701188451
 30
0.0
 11
-225.0299622913113
 21
408.9080339230078
 31
0.0
  0
LINE
  5
417
330
1F
100
AcDbEntity
  8
ZUWAKU
  6
Continuous
 62
    56
370
    25
100
AcDbLine
 10
-216.0760979580501
 20
417.0133701188451
 30
0.0
 11
-224.1239411469578
 21
408.9655269299374
 31
0.0
  0
LINE
  5
418
330
1F
100
AcDbEntity
  8
ZUWAKU
  6
Continuous
 62
    56
370
    25
100
AcDbLine
 10
-215.2275698206262
 20
417.0133701188451
 30
0.0
 11
-223.2081339495562
 21
409.0328059899151
 31
0.0
  0
LINE
  5
419
330
1F
100
AcDbEntity
  8
ZUWAKU
  6
Continuous
 62
    56
370
    25
100
AcDbLine
 10
-214.3790416832023
 20
417.0133701188451
 30
0.0
 11
-222.2820791641986
 21
409.1103326378487
 31
0.0
  0
LINE
  5
41A
330
1F
100
AcDbEntity
  8
ZUWAKU
  6
Continuous
 62
    56
370
    25
100
AcDbLine
 10
-213.5305135457784
 20
417.0133701188451
 30
0.0
 11
-221.3452578064022
 21
409.1986258582213
 31
0.0
  0
LINE
  5
41B
330
1F
100
AcDbEntity
  8
ZUWAKU
  6
Continuous
 62
    56
370
    25
100
AcDbLine
 10
-212.6819854083545
 20
417.0133701188451
 30
0.0
 11
-220.3970837102688
 21
409.2982718169309
 31
0.0
  0
LINE
  5
41C
330
1F
100
AcDbEntity
  8
ZUWAKU
  6
Continuous
 62
    56
370
    25
100
AcDbLine
 10
-211.8334572709307
 20
417.0133701188451
 30
0.0
 11
-219.4368914933625
 21
409.4099358964132
 31
0.0
  0
LINE
  5
41D
330
1F
100
AcDbEntity
  8
ZUWAKU
  6
Continuous
 62
    56
370
    25
100
AcDbLine
 10
-210.9849291335068
 20
417.0133701188451
 30
0.0
 11
-218.463921516334
 21
409.5343777360179
 31
0.0
  0
LINE
  5
41E
330
1F
100
AcDbEntity
  8
ZUWAKU
  6
Continuous
 62
    56
370
    25
100
AcDbLine
 10
-210.1364009960828
 20
417.0133701188451
 30
0.0
 11
-217.4773008665143
 21
409.6724702484136
 31
0.0
  0
LINE
  5
41F
330
1F
100
AcDbEntity
  8
ZUWAKU
  6
Continuous
 62
    56
370
    25
100
AcDbLine
 10
-209.2878728586589
 20
417.0133701188451
 30
0.0
 11
-216.4760189994908
 21
409.8252239780132
 31
0.0
  0
LINE
  5
420
330
1F
100
AcDbEntity
  8
ZUWAKU
  6
Continuous
 62
    56
370
    25
100
AcDbLine
 10
-208.439344721235
 20
417.0133701188451
 30
0.0
 11
-215.4588960790458
 21
409.9938187610343
 31
0.0
  0
LINE
  5
421
330
1F
100
AcDbEntity
  8
ZUWAKU
  6
Continuous
 62
    56
370
    25
100
AcDbLine
 10
-207.5908165838111
 20
417.0133701188451
 30
0.0
 11
-214.4245411426064
 21
410.1796455600498
 31
0.0
  0
LINE
  5
422
330
1F
100
AcDbEntity
  8
ZUWAKU
  6
Continuous
 62
    56
370
    25
100
AcDbLine
 10
-199.4297884463872
 20
424.3258701188451
 30
0.0
 11
-199.4999999999996
 21
424.2556585652328
 31
0.0
  0
LINE
  5
423
330
1F
100
AcDbEntity
  8
ZUWAKU
  6
Continuous
 62
    56
370
    25
100
AcDbLine
 10
-206.7422884463872
 20
417.0133701188451
 30
0.0
 11
-213.3712957760387
 21
410.3843627891936
 31
0.0
  0
LINE
  5
424
330
1F
100
AcDbEntity
  8
ZUWAKU
  6
Continuous
 62
    56
370
    25
100
AcDbLine
 10
-198.5812603089633
 20
424.3258701188451
 30
0.0
 11
-199.4999999999996
 21
423.4071304278088
 31
0.0
  0
LINE
  5
425
330
1F
100
AcDbEntity
  8
ZUWAKU
  6
Continuous
 62
    56
370
    25
100
AcDbLine
 10
-205.8937603089633
 20
417.0133701188451
 30
0.0
 11
-212.2971566295856
 21
410.6099737982228
 31
0.0
  0
LINE
  5
426
330
1F
100
AcDbEntity
  8
ZUWAKU
  6
Continuous
 62
    56
370
    25
100
AcDbLine
 10
-197.7327321715394
 20
424.3258701188451
 30
0.0
 11
-199.4999999999996
 21
422.5586022903849
 31
0.0
  0
LINE
  5
427
330
1F
100
AcDbEntity
  8
ZUWAKU
  6
Continuous
 62
    56
370
    25
100
AcDbLine
 10
-205.0452321715394
 20
417.0133701188451
 30
0.0
 11
-211.1996661367293
 21
410.8589361536552
 31
0.0
  0
LINE
  5
428
330
1F
100
AcDbEntity
  8
ZUWAKU
  6
Continuous
 62
    56
370
    25
100
AcDbLine
 10
-196.8842040341156
 20
424.3258701188451
 30
0.0
 11
-199.4999999999996
 21
421.7100741529611
 31
0.0
  0
LINE
  5
429
330
1F
100
AcDbEntity
  8
ZUWAKU
  6
Continuous
 62
    56
370
    25
100
AcDbLine
 10
-204.1967040341155
 20
417.0133701188451
 30
0.0
 11
-210.0757538179344
 21
411.1343203350262
 31
0.0
  0
LINE
  5
42A
330
1F
100
AcDbEntity
  8
ZUWAKU
  6
Continuous
 62
    56
370
    25
100
AcDbLine
 10
-196.0356758966917
 20
424.3258701188451
 30
0.0
 11
-199.4999999999996
 21
420.8615460155372
 31
0.0
  0
LINE
  5
42B
330
1F
100
AcDbEntity
  8
ZUWAKU
  6
Continuous
 62
    56
370
    25
100
AcDbLine
 10
-203.3481758966917
 20
417.0133701188451
 30
0.0
 11
-208.921497677603
 21
411.4400483379338
 31
0.0
  0
LINE
  5
42C
330
1F
100
AcDbEntity
  8
ZUWAKU
  6
Continuous
 62
    56
370
    25
100
AcDbLine
 10
-195.1871477592677
 20
424.3258701188451
 30
0.0
 11
-199.4999999999996
 21
420.0130178781132
 31
0.0
  0
LINE
  5
42D
330
1F
100
AcDbEntity
  8
ZUWAKU
  6
Continuous
 62
    56
370
    25
100
AcDbLine
 10
-202.4996477592677
 20
417.0133701188451
 30
0.0
 11
-207.7317500610197
 21
411.7812678170931
 31
0.0
  0
LINE
  5
42E
330
1F
100
AcDbEntity
  8
ZUWAKU
  6
Continuous
 62
    56
370
    25
100
AcDbLine
 10
-194.3386196218439
 20
424.3258701188451
 30
0.0
 11
-199.4999999999996
 21
419.1644897406894
 31
0.0
  0
LINE
  5
42F
330
1F
100
AcDbEntity
  8
ZUWAKU
  6
Continuous
 62
    56
370
    25
100
AcDbLine
 10
-201.6511196218439
 20
417.0133701188451
 30
0.0
 11
-206.4995196978741
 21
412.1649700428148
 31
0.0
  0
LINE
  5
430
330
1F
100
AcDbEntity
  8
ZUWAKU
  6
Continuous
 62
    56
370
    25
100
AcDbLine
 10
-193.4900914844199
 20
424.3258701188451
 30
0.0
 11
-199.4999999999996
 21
418.3159616032654
 31
0.0
  0
LINE
  5
431
330
1F
100
AcDbEntity
  8
ZUWAKU
  6
Continuous
 62
    56
370
    25
100
AcDbLine
 10
-200.8025914844199
 20
417.0133701188451
 30
0.0
 11
-205.2148814369219
 21
412.6010801663431
 31
0.0
  0
LINE
  5
432
330
1F
100
AcDbEntity
  8
ZUWAKU
  6
Continuous
 62
    56
370
    25
100
AcDbLine
 10
-192.641563346996
 20
424.3258701188451
 30
0.0
 11
-199.4999999999996
 21
417.4674334658415
 31
0.0
  0
LINE
  5
433
330
1F
100
AcDbEntity
  8
ZUWAKU
  6
Continuous
 62
    56
370
    25
100
AcDbLine
 10
-199.954063346996
 20
417.0133701188451
 30
0.0
 11
-203.8628780143144
 21
413.1045554515267
 31
0.0
  0
LINE
  5
434
330
1F
100
AcDbEntity
  8
ZUWAKU
  6
Continuous
 62
    56
370
    25
100
AcDbLine
 10
-192.1947682656473
 20
423.9241370627697
 30
0.0
 11
-202.418964715712
 21
413.6999406127052
 31
0.0
  0
LINE
  5
435
330
1F
100
AcDbEntity
  8
ZUWAKU
  6
Continuous
 62
    56
370
    25
100
AcDbLine
 10
-192.3172891038675
 20
422.9530880871257
 30
0.0
 11
-200.837157686314
 21
414.4332195046793
 31
0.0
  0
LINE
  5
436
330
1F
100
AcDbEntity
  8
ZUWAKU
  6
Continuous
 62
    56
370
    25
100
AcDbLine
 10
-192.6873517051098
 20
421.7344973484594
 30
0.0
 11
-199.0078088938939
 21
415.4140401596756
 31
0.0
  0
LINE
  5
437
330
1F
100
AcDbEntity
  8
ZUWAKU
  6
Continuous
 62
    56
370
    25
100
AcDbLine
 10
-193.83202815884
 20
419.7412927573055
 30
0.0
 11
-196.4038462489859
 21
417.1694746671596
 31
0.0
  0
LINE
  5
438
330
1F
100
AcDbEntity
  8
ZUWAKU
  6
Continuous
 62
    56
370
    25
100
AcDbLine
 10
-273.1875000000002
 20
-229.1116298811543
 30
0.0
 11
280.1249999999998
 21
-229.111629881155
 31
0.0
  0
LINE
  5
439
330
1F
100
AcDbEntity
  8
ZUWAKU
  6
Continuous
 62
     3
370
    25
100
AcDbLine
 10
93.75000000000047
 20
432.9508701188452
 30
0.0
 11
283.1250000000004
 21
432.9508701188452
 31
0.0
  0
LINE
  5
43A
330
1F
100
AcDbEntity
  8
ZUWAKU
  6
Continuous
 62
     3
370
    25
100
AcDbLine
 10
93.75000000000047
 20
432.9508701188452
 30
0.0
 11
93.75000000000047
 21
403.2324587127646
 31
0.0
  0
LINE
  5
43B
330
1F
100
AcDbEntity
  8
ZUWAKU
  6
Continuous
 62
     3
370
    25
100
AcDbLine
 10
283.1250000000004
 20
432.9508701188452
 30
0.0
 11
283.1250000000004
 21
403.2324587127646
 31
0.0
  0
LINE
  5
43C
330
1F
100
AcDbEntity
  8
ZUWAKU
  6
Continuous
 62
     3
370
    25
100
AcDbLine
 10
-252.3750000000003
 20
-379.1116298811544
 30
0.0
 11
-252.3750000000003
 21
-229.1116298811543
 31
0.0
  0
LINE
  5
43D
330
1F
100
AcDbEntity
  8
ZUWAKU
  6
Continuous
 62
     3
370
    25
100
AcDbLine
 10
-112.6875000000003
 20
-379.1116298811547
 30
0.0
 11
-112.6875000000002
 21
-229.1116298811545
 31
0.0
  0
LINE
  5
43E
330
1F
100
AcDbEntity
  8
ZUWAKU
  6
Continuous
 62
     3
370
    25
100
AcDbLine
 10
46.68749999999964
 20
-379.1116298811547
 30
0.0
 11
46.68749999999973
 21
-229.1116298811547
 31
0.0
  0
LINE
  5
43F
330
1F
100
AcDbEntity
  8
ZUWAKU
  6
Continuous
 62
     3
370
    25
100
AcDbLine
 10
80.0624999999997
 20
-379.1116298811547
 30
0.0
 11
80.06249999999976
 21
-229.1116298811547
 31
0.0
  0
LINE
  5
440
330
1F
100
AcDbEntity
  8
ZUWAKU
  6
Continuous
 62
     3
370
    25
100
AcDbLine
 10
92.99999999999962
 20
-420.3616298811548
 30
0.0
 11
92.9999999999997
 21
-384.1741298811548
 31
0.0
  0
LINE
  5
441
330
1F
100
AcDbEntity
  8
ZUWAKU
  6
Continuous
 62
     3
370
    25
100
AcDbLine
 10
77.99999999999962
 20
-420.3616298811548
 30
0.0
 11
77.9999999999997
 21
-384.1741298811548
 31
0.0
  0
LINE
  5
442
330
1F
100
AcDbEntity
  8
ZUWAKU
  6
Continuous
 62
     3
370
    25
100
AcDbLine
 10
-109.6875000000003
 20
-420.3616298811548
 30
0.0
 11
-109.6875000000003
 21
-384.1741298811548
 31
0.0
  0
LINE
  5
443
330
1F
100
AcDbEntity
  8
ZUWAKU
  6
Continuous
 62
     3
370
    25
100
AcDbLine
 10
-124.6875000000003
 20
-420.3616298811548
 30
0.0
 11
-124.6875000000003
 21
-384.1741298811548
 31
0.0
  0
LINE
  5
444
330
1F
100
AcDbEntity
  8
ZUWAKU
  6
Continuous
 62
     3
370
    25
100
AcDbLine
 10
-273.1875000000003
 20
-364.1116298811544
 30
0.0
 11
280.1249999999997
 21
-364.1116298811551
 31
0.0
  0
LINE
  5
445
330
1F
100
AcDbEntity
  8
ZUWAKU
  6
Continuous
 62
     3
370
    25
100
AcDbLine
 10
-273.1875000000003
 20
-349.1116298811544
 30
0.0
 11
280.1249999999997
 21
-349.1116298811551
 31
0.0
  0
LINE
  5
446
330
1F
100
AcDbEntity
  8
ZUWAKU
  6
Continuous
 62
     3
370
    25
100
AcDbLine
 10
-273.1875000000003
 20
-334.1116298811544
 30
0.0
 11
280.1249999999997
 21
-334.1116298811551
 31
0.0
  0
LINE
  5
447
330
1F
100
AcDbEntity
  8
ZUWAKU
  6
Continuous
 62
     3
370
    25
100
AcDbLine
 10
-273.1875000000003
 20
-319.1116298811544
 30
0.0
 11
280.1249999999997
 21
-319.1116298811551
 31
0.0
  0
LINE
  5
448
330
1F
100
AcDbEntity
  8
ZUWAKU
  6
Continuous
 62
     3
370
    25
100
AcDbLine
 10
-273.1875000000003
 20
-304.1116298811544
 30
0.0
 11
280.1249999999997
 21
-304.1116298811551
 31
0.0
  0
LINE
  5
449
330
1F
100
AcDbEntity
  8
ZUWAKU
  6
Continuous
 62
     3
370
    25
100
AcDbLine
 10
-273.1875000000003
 20
-289.1116298811544
 30
0.0
 11
280.1249999999997
 21
-289.1116298811551
 31
0.0
  0
LINE
  5
44A
330
1F
100
AcDbEntity
  8
ZUWAKU
  6
Continuous
 62
     3
370
    25
100
AcDbLine
 10
-273.1875000000003
 20
-274.1116298811544
 30
0.0
 11
280.1249999999997
 21
-274.1116298811551
 31
0.0
  0
LINE
  5
44B
330
1F
100
AcDbEntity
  8
ZUWAKU
  6
Continuous
 62
     3
370
    25
100
AcDbLine
 10
-273.1875000000003
 20
-244.1116298811543
 30
0.0
 11
280.1249999999997
 21
-244.111629881155
 31
0.0
  0
LINE
  5
44C
330
1F
100
AcDbEntity
  8
ZUWAKU
  6
Continuous
 62
     3
370
    25
100
AcDbLine
 10
-273.1875000000002
 20
-259.1116298811544
 30
0.0
 11
280.1249999999998
 21
-259.1116298811551
 31
0.0
  0
TEXT
  5
44E
330
1F
100
AcDbEntity
  8
ZUWAKU
 62
     4
100
AcDbText
 10
-117.1889840539809
 20
-386.7477071009379
 30
0.0
 40
7.497
  1
品 名
 50
-0.0000000000000561
 41
0.8
  7
dcStyle1
100
AcDbText
  0
TEXT
  5
44F
330
1F
100
AcDbEntity
  8
ZUWAKU
 62
     4
100
AcDbText
 10
85.31773107466651
 20
-386.8004965076209
 30
0.0
 40
7.497
  1
品　番
 50
-0.0000000000000561
 41
0.8
  7
dcStyle1
100
AcDbText
  0
TEXT
  5
450
330
1F
100
AcDbEntity
  8
ZUWAKU
 62
     4
100
AcDbText
 10
-268.0522389920391
 20
-362.4917300859881
 30
0.0
 40
12.0
  1
1
 41
1.527272727272731
  7
dcStyle0
 72
     5
 11
-258.452238992039
 21
-362.4917300859881
 31
0.0
100
AcDbText
  0
TEXT
  5
451
330
1F
100
AcDbEntity
  8
ZUWAKU
 62
     4
100
AcDbText
 10
-268.0522389920391
 20
-347.4917300859881
 30
0.0
 40
12.0
  1
2
 41
0.9882352941176494
  7
dcStyle0
 72
     5
 11
-258.452238992039
 21
-347.4917300859881
 31
0.0
100
AcDbText
  0
TEXT
  5
452
330
1F
100
AcDbEntity
  8
ZUWAKU
 62
     4
100
AcDbText
 10
-268.0522389920391
 20
-332.4917300859881
 30
0.0
 40
12.0
  1
3
 41
0.9882352941176494
  7
dcStyle0
 72
     5
 11
-258.452238992039
 21
-332.4917300859881
 31
0.0
100
AcDbText
  0
TEXT
  5
453
330
1F
100
AcDbEntity
  8
ZUWAKU
 62
     4
100
AcDbText
 10
-268.0522389920391
 20
-317.4917300859881
 30
0.0
 40
12.0
  1
4
 41
0.9333333333333357
  7
dcStyle0
 72
     5
 11
-258.452238992039
 21
-317.4917300859881
 31
0.0
100
AcDbText
  0
TEXT
  5
454
330
1F
100
AcDbEntity
  8
ZUWAKU
 62
     4
100
AcDbText
 10
-268.0522389920391
 20
-302.4917300859881
 30
0.0
 40
12.0
  1
5
 41
0.9882352941176494
  7
dcStyle0
 72
     5
 11
-258.452238992039
 21
-302.4917300859881
 31
0.0
100
AcDbText
  0
TEXT
  5
455
330
1F
100
AcDbEntity
  8
ZUWAKU
 62
     4
100
AcDbText
 10
-268.0522389920391
 20
-287.4917300859881
 30
0.0
 40
12.0
  1
6
 41
0.9882352941176494
  7
dcStyle0
 72
     5
 11
-258.452238992039
 21
-287.4917300859881
 31
0.0
100
AcDbText
  0
TEXT
  5
456
330
1F
100
AcDbEntity
  8
ZUWAKU
 62
     4
100
AcDbText
 10
-268.0522389920391
 20
-272.4917300859881
 30
0.0
 40
12.0
  1
7
 41
0.9882352941176494
  7
dcStyle0
 72
     5
 11
-258.452238992039
 21
-272.4917300859881
 31
0.0
100
AcDbText
  0
TEXT
  5
457
330
1F
100
AcDbEntity
  8
ZUWAKU
 62
     4
100
AcDbText
 10
155.6163035978337
 20
-377.4325291491922
 30
0.0
 40
12.0
  1
摘要・仕上
 41
0.9655172413793105
  7
dcStyle0
 72
     5
 11
203.6163035978337
 21
-377.4325291491922
 31
0.0
100
AcDbText
  0
TEXT
  5
458
330
1F
100
AcDbEntity
  8
ZUWAKU
 62
     4
100
AcDbText
 10
48.70938388065866
 20
-377.4325291491922
 30
0.0
 40
12.0
  1
個　数
 41
0.9882352941176471
  7
dcStyle0
 72
     5
 11
77.50938388065866
 21
-377.4325291491922
 31
0.0
100
AcDbText
  0
TEXT
  5
459
330
1F
100
AcDbEntity
  8
ZUWAKU
 62
     4
100
AcDbText
 10
-52.07834402431548
 20
-377.4325291491922
 30
0.0
 40
12.0
  1
材　　質
 41
0.9739130434782608
  7
dcStyle0
 72
     5
 11
-13.67834402431549
 21
-377.4325291491922
 31
0.0
100
AcDbText
  0
TEXT
  5
45A
330
1F
100
AcDbEntity
  8
ZUWAKU
 62
     4
100
AcDbText
 10
-206.6306033021274
 20
-377.4325291491919
 30
0.0
 40
12.0
  1
部　品　名
 41
0.9655172413793099
  7
dcStyle0
 72
     5
 11
-158.6306033021274
 21
-377.4325291491919
 31
0.0
100
AcDbText
  0
TEXT
  5
45B
330
1F
100
AcDbEntity
  8
ZUWAKU
 62
     4
100
AcDbText
 10
-272.7569431463152
 20
-377.4325291491919
 30
0.0
 40
12.0
  1
部番
 41
1.018181818181818
  7
dcStyle0
 72
     5
 11
-253.5569431463152
 21
-377.4325291491919
 31
0.0
100
AcDbText
  0
TEXT
  5
45C
330
1F
100
AcDbEntity
  8
ZUWAKU
 62
     4
100
AcDbText
 10
223.255925355981
 20
-436.8794885037642
 30
0.0
 40
12.0
  1
130125
 41
0.861538461538462
  7
dcStyle0
 72
     5
 11
280.8559253559811
 21
-436.8794885037643
 31
0.0
100
AcDbText
  0
TEXT
  5
45D
330
1F
100
AcDbEntity
  8
ZUWAKU
 62
     4
100
AcDbText
 10
-268.0522389920391
 20
-257.4917300859881
 30
0.0
 40
12.0
  1
8
 41
0.9882352941176494
  7
dcStyle0
 72
     5
 11
-258.452238992039
 21
-257.4917300859881
 31
0.0
100
AcDbText
  0
TEXT
  5
45E
330
1F
100
AcDbEntity
  8
ZUWAKU
 62
     4
100
AcDbText
 10
-268.0522389920391
 20
-242.4917300859881
 30
0.0
 40
12.0
  1
9
 41
1.050000000000002
  7
dcStyle0
 72
     5
 11
-258.452238992039
 21
-242.4917300859881
 31
0.0
100
AcDbText
  0
POINT
  5
45F
330
1F
100
AcDbEntity
  8
ZUWAKU
  6
Continuous
 62
     9
100
AcDbPoint
 10
188.4375000000004
 20
418.0916644158049
 30
0.0
  0
POINT
  5
460
330
1F
100
AcDbEntity
  8
ZUWAKU
  6
Continuous
 62
     9
100
AcDbPoint
 10
186.5624999999997
 20
-402.2678798811548
 30
0.0
  0
POINT
  5
461
330
1F
100
AcDbEntity
  8
ZUWAKU
  6
Continuous
 62
     9
100
AcDbPoint
 10
-15.84375000000034
 20
-402.2678798811548
 30
0.0
  0
POINT
  5
462
330
1F
100
AcDbEntity
  8
ZUWAKU
  6
Continuous
 62
     9
100
AcDbPoint
 10
63.3749999999997
 20
-356.6116298811547
 30
0.0
  0
POINT
  5
463
330
1F
100
AcDbEntity
  8
ZUWAKU
  6
Continuous
 62
     9
100
AcDbPoint
 10
-249.3750000000003
 20
-356.6116298811544
 30
0.0
  0
POINT
  5
464
330
1F
100
AcDbEntity
  8
ZUWAKU
  6
Continuous
 62
     9
100
AcDbPoint
 10
-109.6875000000003
 20
-356.6116298811547
 30
0.0
  0
POINT
  5
465
330
1F
100
AcDbEntity
  8
ZUWAKU
  6
Continuous
 62
     9
100
AcDbPoint
 10
83.0624999999997
 20
-356.6116298811547
 30
0.0
  0
LINE
  5
466
330
1F
100
AcDbEntity
  8
ZUWAKU
  6
Continuous
 62
     9
370
    25
100
AcDbLine
 10
-314.9999999999995
 20
463.5000000000002
 30
0.0
 11
-314.9999999999995
 21
448.5
 31
0.0
  0
LINE
  5
467
330
1F
100
AcDbEntity
  8
ZUWAKU
  6
Continuous
 62
     9
370
    25
100
AcDbLine
 10
-314.9999999999997
 20
448.5
 30
0.0
 11
-329.9999999999997
 21
448.5
 31
0.0
  0
LINE
  5
468
330
1F
100
AcDbEntity
  8
ZUWAKU
  6
Continuous
 62
     9
370
    25
100
AcDbLine
 10
315.0000000000003
 20
448.5
 30
0.0
 11
330.0000000000003
 21
448.5
 31
0.0
  0
LINE
  5
469
330
1F
100
AcDbEntity
  8
ZUWAKU
  6
Continuous
 62
     9
370
    25
100
AcDbLine
 10
315.0000000000003
 20
448.5
 30
0.0
 11
315.0000000000003
 21
463.5
 31
0.0
  0
LINE
  5
46A
330
1F
100
AcDbEntity
  8
ZUWAKU
  6
Continuous
 62
     9
370
    25
100
AcDbLine
 10
314.9999999999998
 20
-457.5
 30
0.0
 11
314.9999999999997
 21
-442.5
 31
0.0
  0
LINE
  5
46B
330
1F
100
AcDbEntity
  8
ZUWAKU
  6
Continuous
 62
     9
370
    25
100
AcDbLine
 10
314.9999999999997
 20
-442.5
 30
0.0
 11
329.9999999999997
 21
-442.5
 31
0.0
  0
LINE
  5
46C
330
1F
100
AcDbEntity
  8
ZUWAKU
  6
Continuous
 62
     9
370
    25
100
AcDbLine
 10
-330.0693692819899
 20
-442.5
 30
0.0
 11
-315.0000000000003
 21
-442.5
 31
0.0
  0
LINE
  5
46D
330
1F
100
AcDbEntity
  8
ZUWAKU
  6
Continuous
 62
     9
370
    25
100
AcDbLine
 10
-315.0000000000003
 20
-442.6035319519545
 30
0.0
 11
-315.0000000000003
 21
-457.4998395958997
 31
0.0
  0
POINT
  5
46E
330
1F
100
AcDbEntity
  8
ZUWAKU
  6
Continuous
 62
     9
100
AcDbPoint
 10
63.3749999999997
 20
-341.6116298811547
 30
0.0
  0
POINT
  5
46F
330
1F
100
AcDbEntity
  8
ZUWAKU
  6
Continuous
 62
     9
100
AcDbPoint
 10
-249.3750000000003
 20
-341.6116298811544
 30
0.0
  0
POINT
  5
470
330
1F
100
AcDbEntity
  8
ZUWAKU
  6
Continuous
 62
     9
100
AcDbPoint
 10
-109.6875000000003
 20
-341.6116298811547
 30
0.0
  0
POINT
  5
471
330
1F
100
AcDbEntity
  8
ZUWAKU
  6
Continuous
 62
     9
100
AcDbPoint
 10
83.0624999999997
 20
-341.6116298811547
 30
0.0
  0
POINT
  5
472
330
1F
100
AcDbEntity
  8
ZUWAKU
  6
Continuous
 62
     9
100
AcDbPoint
 10
63.3749999999997
 20
-326.6116298811547
 30
0.0
  0
POINT
  5
473
330
1F
100
AcDbEntity
  8
ZUWAKU
  6
Continuous
 62
     9
100
AcDbPoint
 10
-249.3750000000003
 20
-326.6116298811544
 30
0.0
  0
POINT
  5
474
330
1F
100
AcDbEntity
  8
ZUWAKU
  6
Continuous
 62
     9
100
AcDbPoint
 10
-109.6875000000003
 20
-326.6116298811547
 30
0.0
  0
POINT
  5
475
330
1F
100
AcDbEntity
  8
ZUWAKU
  6
Continuous
 62
     9
100
AcDbPoint
 10
83.0624999999997
 20
-326.6116298811547
 30
0.0
  0
POINT
  5
476
330
1F
100
AcDbEntity
  8
ZUWAKU
  6
Continuous
 62
     9
100
AcDbPoint
 10
63.3749999999997
 20
-311.6116298811547
 30
0.0
  0
POINT
  5
477
330
1F
100
AcDbEntity
  8
ZUWAKU
  6
Continuous
 62
     9
100
AcDbPoint
 10
-249.3750000000003
 20
-311.6116298811544
 30
0.0
  0
POINT
  5
478
330
1F
100
AcDbEntity
  8
ZUWAKU
  6
Continuous
 62
     9
100
AcDbPoint
 10
-109.6875000000003
 20
-311.6116298811547
 30
0.0
  0
POINT
  5
479
330
1F
100
AcDbEntity
  8
ZUWAKU
  6
Continuous
 62
     9
100
AcDbPoint
 10
83.0624999999997
 20
-311.6116298811547
 30
0.0
  0
POINT
  5
47A
330
1F
100
AcDbEntity
  8
ZUWAKU
  6
Continuous
 62
     9
100
AcDbPoint
 10
63.37499999999979
 20
-296.6116298811547
 30
0.0
  0
POINT
  5
47B
330
1F
100
AcDbEntity
  8
ZUWAKU
  6
Continuous
 62
     9
100
AcDbPoint
 10
-249.3750000000003
 20
-296.6116298811544
 30
0.0
  0
POINT
  5
47C
330
1F
100
AcDbEntity
  8
ZUWAKU
  6
Continuous
 62
     9
100
AcDbPoint
 10
-109.6875000000003
 20
-281.6116298811547
 30
0.0
  0
POINT
  5
47D
330
1F
100
AcDbEntity
  8
ZUWAKU
  6
Continuous
 62
     9
100
AcDbPoint
 10
83.06249999999979
 20
-296.6116298811547
 30
0.0
  0
POINT
  5
47E
330
1F
100
AcDbEntity
  8
ZUWAKU
  6
Continuous
 62
     9
100
AcDbPoint
 10
63.37499999999979
 20
-281.6116298811547
 30
0.0
  0
POINT
  5
47F
330
1F
100
AcDbEntity
  8
ZUWAKU
  6
Continuous
 62
     9
100
AcDbPoint
 10
-249.3750000000003
 20
-281.6116298811544
 30
0.0
  0
POINT
  5
480
330
1F
100
AcDbEntity
  8
ZUWAKU
  6
Continuous
 62
     9
100
AcDbPoint
 10
-109.6875000000003
 20
-251.6116298811547
 30
0.0
  0
POINT
  5
481
330
1F
100
AcDbEntity
  8
ZUWAKU
  6
Continuous
 62
     9
100
AcDbPoint
 10
83.06249999999979
 20
-281.6116298811547
 30
0.0
  0
POINT
  5
482
330
1F
100
AcDbEntity
  8
ZUWAKU
  6
Continuous
 62
     9
100
AcDbPoint
 10
63.3749999999998
 20
-266.6116298811547
 30
0.0
  0
POINT
  5
483
330
1F
100
AcDbEntity
  8
ZUWAKU
  6
Continuous
 62
     9
100
AcDbPoint
 10
-249.3750000000003
 20
-266.6116298811544
 30
0.0
  0
POINT
  5
484
330
1F
100
AcDbEntity
  8
ZUWAKU
  6
Continuous
 62
     9
100
AcDbPoint
 10
-109.6875000000003
 20
-236.6116298811546
 30
0.0
  0
POINT
  5
485
330
1F
100
AcDbEntity
  8
ZUWAKU
  6
Continuous
 62
     9
100
AcDbPoint
 10
83.0624999999998
 20
-266.6116298811547
 30
0.0
  0
POINT
  5
486
330
1F
100
AcDbEntity
  8
ZUWAKU
  6
Continuous
 62
     9
100
AcDbPoint
 10
-109.6875000000003
 20
-266.6116298811547
 30
0.0
  0
POINT
  5
487
330
1F
100
AcDbEntity
  8
ZUWAKU
  6
Continuous
 62
     9
100
AcDbPoint
 10
63.3749999999998
 20
-236.6116298811546
 30
0.0
  0
POINT
  5
488
330
1F
100
AcDbEntity
  8
ZUWAKU
  6
Continuous
 62
     9
100
AcDbPoint
 10
-109.6875000000003
 20
-296.6116298811547
 30
0.0
  0
POINT
  5
489
330
1F
100
AcDbEntity
  8
ZUWAKU
  6
Continuous
 62
     9
100
AcDbPoint
 10
63.3749999999998
 20
-251.6116298811547
 30
0.0
  0
POINT
  5
48A
330
1F
100
AcDbEntity
  8
ZUWAKU
  6
Continuous
 62
     9
100
AcDbPoint
 10
63.37499999999979
 20
-281.6116298811547
 30
0.0
  0
POINT
  5
48B
330
1F
100
AcDbEntity
  8
ZUWAKU
  6
Continuous
 62
     9
100
AcDbPoint
 10
63.3749999999998
 20
-281.6116298811548
 30
0.0
  0
POINT
  5
48C
330
1F
100
AcDbEntity
  8
ZUWAKU
  6
Continuous
 62
     9
100
AcDbPoint
 10
63.37499999999979
 20
-266.6116298811547
 30
0.0
  0
TEXT
  5
48D
330
1F
100
AcDbEntity
  8
Layer0240
 62
     4
100
AcDbText
 10
-249.3750000000003
 20
-362.6116298811543
 30
0.0
 40
12.0
  1
ハンドル
 41
0.9739130434782611
  7
dcStyle0
 72
     5
 11
-210.9750000000003
 21
-362.6116298811543
 31
0.0
100
AcDbText
  0
TEXT
  5
48E
330
1F
100
AcDbEntity
  8
Layer0240
 62
     4
100
AcDbText
 10
-109.6875000000003
 20
-362.6116298811548
 30
0.0
 40
12.0
  1
C2700
 41
0.8571428571428572
  7
dcStyle0
 72
     5
 11
-61.6875000000003
 21
-362.6116298811548
 31
0.0
100
AcDbText
  0
TEXT
  5
48F
330
1F
100
AcDbEntity
  8
Layer0240
 62
     4
100
AcDbText
 10
58.57499999999971
 20
-362.6116298811547
 30
0.0
 40
12.0
  1
1
 41
1.527272727272725
  7
dcStyle0
 72
     5
 11
68.1749999999997
 21
-362.6116298811547
 31
0.0
100
AcDbText
  0
TEXT
  5
490
330
1F
100
AcDbEntity
  8
Layer0240
 62
     4
100
AcDbText
 10
58.57499999999971
 20
-347.6116298811547
 30
0.0
 40
12.0
  1
1
 41
1.527272727272725
  7
dcStyle0
 72
     5
 11
68.1749999999997
 21
-347.6116298811547
 31
0.0
100
AcDbText
  0
TEXT
  5
491
330
1F
100
AcDbEntity
  8
Layer0240
 62
     4
100
AcDbText
 10
-249.3750000000003
 20
-347.6116298811543
 30
0.0
 40
12.0
  1
本体
 41
1.018181818181819
  7
dcStyle0
 72
     5
 11
-230.1750000000002
 21
-347.6116298811543
 31
0.0
100
AcDbText
  0
TEXT
  5
492
330
1F
100
AcDbEntity
  8
Layer0240
 62
     4
100
AcDbText
 10
-109.6875000000003
 20
-332.6116298811548
 30
0.0
 40
12.0
  1
Ｃ3604
 41
0.875
  7
dcStyle0
 72
     5
 11
-61.6875000000003
 21
-332.6116298811548
 31
0.0
100
AcDbText
  0
TEXT
  5
493
330
1F
100
AcDbEntity
  8
Layer0240
 62
     4
100
AcDbText
 10
58.57499999999971
 20
-332.6116298811547
 30
0.0
 40
12.0
  1
1
 41
1.527272727272725
  7
dcStyle0
 72
     5
 11
68.1749999999997
 21
-332.6116298811547
 31
0.0
100
AcDbText
  0
TEXT
  5
494
330
1F
100
AcDbEntity
  8
Layer0240
 62
     4
100
AcDbText
 10
-66.30828488372049
 20
409.0916644158047
 30
0.0
 40
18.0
  1
単水栓
 41
0.9882352941176468
  7
dcStyle0
 72
     5
 11
-23.10828488372051
 21
409.0916644158047
 31
0.0
100
AcDbText
  0
TEXT
  5
495
330
1F
100
AcDbEntity
  8
Layer0240
 62
     4
100
AcDbText
 10
138.0375000000003
 20
409.0916644158046
 30
0.0
 40
18.0
  1
FC1100S
 41
0.8647058823529414
  7
dcStyle0
 72
     5
 11
238.8375000000003
 21
409.0916644158046
 31
0.0
100
AcDbText
  0
TEXT
  5
496
330
1F
100
AcDbEntity
  8
Layer0240
 62
     4
100
AcDbText
 10
-109.6875000000003
 20
-347.6116298811548
 30
0.0
 40
12.0
  1
CAC406
 41
0.8615384615384617
  7
dcStyle0
 72
     5
 11
-52.0875000000003
 21
-347.6116298811548
 31
0.0
100
AcDbText
  0
TEXT
  5
497
330
1F
100
AcDbEntity
  8
Layer0240
 62
     4
100
AcDbText
 10
-37.44375000000034
 20
-411.2678798811548
 30
0.0
 40
18.0
  1
単水栓
 41
0.988235294117647
  7
dcStyle0
 72
     5
 11
5.756249999999653
 21
-411.2678798811548
 31
0.0
100
AcDbText
  0
TEXT
  5
498
330
1F
100
AcDbEntity
  8
Layer0240
 62
     4
100
AcDbText
 10
136.1624999999997
 20
-411.267879881155
 30
0.0
 40
18.0
  1
FC1100S
 41
0.8647058823529414
  7
dcStyle0
 72
     5
 11
236.9624999999997
 21
-411.267879881155
 31
0.0
100
AcDbText
  0
TEXT
  5
499
330
1F
100
AcDbEntity
  8
Layer0240
 62
     4
100
AcDbText
 10
-249.3750000000003
 20
-332.6116298811543
 30
0.0
 40
12.0
  1
吐水口
 41
0.9882352941176475
  7
dcStyle0
 72
     5
 11
-220.5750000000002
 21
-332.6116298811543
 31
0.0
100
AcDbText
  0
TEXT
  5
49A
330
1F
100
AcDbEntity
  8
Layer0240
 62
     4
100
AcDbText
 10
-109.6875000000003
 20
-317.6116298811548
 30
0.0
 40
12.0
  1
Ｃ3604
 41
0.875
  7
dcStyle0
 72
     5
 11
-61.6875000000003
 21
-317.6116298811548
 31
0.0
100
AcDbText
  0
TEXT
  5
49B
330
1F
100
AcDbEntity
  8
Layer0240
 62
     4
100
AcDbText
 10
58.57499999999971
 20
-317.6116298811547
 30
0.0
 40
12.0
  1
1
 41
1.527272727272725
  7
dcStyle0
 72
     5
 11
68.1749999999997
 21
-317.6116298811547
 31
0.0
100
AcDbText
  0
TEXT
  5
49C
330
1F
100
AcDbEntity
  8
Layer0240
 62
     4
100
AcDbText
 10
-249.3750000000003
 20
-317.6116298811543
 30
0.0
 40
12.0
  1
泡沫金具
 41
0.9739130434782611
  7
dcStyle0
 72
     5
 11
-210.9750000000003
 21
-317.6116298811543
 31
0.0
100
AcDbText
  0
TEXT
  5
49D
330
1F
100
AcDbEntity
  8
Layer0240
 62
     4
100
AcDbText
 10
58.57499999999975
 20
-302.6116298811547
 30
0.0
 40
12.0
  1
1
 41
1.527272727272725
  7
dcStyle0
 72
     5
 11
68.17499999999974
 21
-302.6116298811547
 31
0.0
100
AcDbText
  0
TEXT
  5
49E
330
1F
100
AcDbEntity
  8
Layer0240
 62
     4
100
AcDbText
 10
-249.3750000000003
 20
-302.6116298811543
 30
0.0
 40
12.0
  1
台座
 41
1.018181818181819
  7
dcStyle0
 72
     5
 11
-230.1750000000002
 21
-302.6116298811543
 31
0.0
100
AcDbText
  0
TEXT
  5
49F
330
1F
100
AcDbEntity
  8
Layer0240
 62
     4
100
AcDbText
 10
83.0624999999997
 20
-362.6116298811548
 30
0.0
 40
12.0
  1
クロムメッキ
 41
0.9600000000000003
  7
dcStyle0
 72
     5
 11
140.6624999999997
 21
-362.6116298811548
 31
0.0
100
AcDbText
  0
TEXT
  5
4A0
330
1F
100
AcDbEntity
  8
Layer0240
 62
     4
100
AcDbText
 10
83.0624999999997
 20
-347.6116298811548
 30
0.0
 40
12.0
  1
クロムメッキ
 41
0.9600000000000003
  7
dcStyle0
 72
     5
 11
140.6624999999997
 21
-347.6116298811548
 31
0.0
100
AcDbText
  0
TEXT
  5
4A1
330
1F
100
AcDbEntity
  8
Layer0240
 62
     4
100
AcDbText
 10
83.0624999999997
 20
-332.6116298811548
 30
0.0
 40
12.0
  1
クロムメッキ
 41
0.9600000000000003
  7
dcStyle0
 72
     5
 11
140.6624999999997
 21
-332.6116298811548
 31
0.0
100
AcDbText
  0
TEXT
  5
4A2
330
1F
100
AcDbEntity
  8
Layer0240
 62
     4
100
AcDbText
 10
83.0624999999997
 20
-317.6116298811548
 30
0.0
 40
12.0
  1
クロムメッキ
 41
0.9600000000000003
  7
dcStyle0
 72
     5
 11
140.6624999999997
 21
-317.6116298811548
 31
0.0
100
AcDbText
  0
TEXT
  5
4A3
330
1F
100
AcDbEntity
  8
Layer0240
 62
     4
100
AcDbText
 10
9.047712026982822
 20
-194.4586229367979
 30
0.0
 40
12.0
  1
取付カウンター板厚　25以下
 41
0.9296442687747039
  7
dcStyle0
 72
     5
 11
143.4477120269829
 21
-194.4586229367979
 31
0.0
100
AcDbText
  0
TEXT
  5
4A4
330
1F
100
AcDbEntity
  8
Layer0240
 62
     4
100
AcDbText
 10
9.047712026982822
 20
-178.4288831598462
 30
0.0
 40
12.0
  1
取付カウンター穴径　φ22～φ35
 41
0.9183279742765278
  7
dcStyle0
 72
     5
 11
172.2477120269829
 21
-178.4288831598462
 31
0.0
100
AcDbText
  0
TEXT
  5
4A5
330
1F
100
AcDbEntity
  8
Layer0240
 62
     4
100
AcDbText
 10
-109.6875000000003
 20
-302.6116298811548
 30
0.0
 40
12.0
  1
Ｃ3604
 41
0.875
  7
dcStyle0
 72
     5
 11
-61.6875000000003
 21
-302.6116298811548
 31
0.0
100
AcDbText
  0
TEXT
  5
4A6
330
1F
100
AcDbEntity
  8
Layer0240
 62
     4
100
AcDbText
 10
83.0624999999997
 20
-302.6116298811549
 30
0.0
 40
12.0
  1
クロムメッキ
 41
0.9600000000000003
  7
dcStyle0
 72
     5
 11
140.6624999999997
 21
-302.6116298811549
 31
0.0
100
AcDbText
  0
TEXT
  5
4A7
330
1F
100
AcDbEntity
  8
Layer0240
 62
     4
100
AcDbText
 10
-249.3750000000003
 20
-257.6116298811543
 30
0.0
 40
12.0
  1
締付ナット
 41
0.9655172413793105
  7
dcStyle0
 72
     5
 11
-201.3750000000003
 21
-257.6116298811543
 31
0.0
100
AcDbText
  0
TEXT
  5
4A8
330
1F
100
AcDbEntity
  8
Layer0240
 62
     4
100
AcDbText
 10
-249.3750000000003
 20
-272.6116298811543
 30
0.0
 40
12.0
  1
平ワッシャー
 41
0.96
  7
dcStyle0
 72
     5
 11
-191.7750000000003
 21
-272.6116298811543
 31
0.0
100
AcDbText
  0
TEXT
  5
4A9
330
1F
100
AcDbEntity
  8
Layer0240
 62
     4
100
AcDbText
 10
-249.3750000000003
 20
-287.6116298811547
 30
0.0
 40
12.0
  1
平パッキン
 41
0.9655172413793105
  7
dcStyle0
 72
     5
 11
-201.3750000000003
 21
-287.6116298811547
 31
0.0
100
AcDbText
  0
TEXT
  5
4AA
330
1F
100
AcDbEntity
  8
Layer0240
 62
     4
100
AcDbText
 10
-109.6875000000003
 20
-287.6116298811548
 30
0.0
 40
12.0
  1
ＮＲ
 41
1.018181818181819
  7
dcStyle0
 72
     5
 11
-90.4875000000003
 21
-287.6116298811548
 31
0.0
100
AcDbText
  0
TEXT
  5
4AB
330
1F
100
AcDbEntity
  8
Layer0240
 62
     4
100
AcDbText
 10
-109.6875000000003
 20
-272.6116298811548
 30
0.0
 40
12.0
  1
ＳＵＳ430
 41
0.9081081081081082
  7
dcStyle0
 72
     5
 11
-52.0875000000003
 21
-272.6116298811548
 31
0.0
100
AcDbText
  0
TEXT
  5
4AC
330
1F
100
AcDbEntity
  8
Layer0240
 62
     4
100
AcDbText
 10
-109.6875000000003
 20
-257.6116298811547
 30
0.0
 40
12.0
  1
Ｃ3604
 41
0.875
  7
dcStyle0
 72
     5
 11
-61.68750000000028
 21
-257.6116298811547
 31
0.0
100
AcDbText
  0
TEXT
  5
4AD
330
1F
100
AcDbEntity
  8
Layer0240
 62
     4
100
AcDbText
 10
58.57499999999975
 20
-257.6116298811547
 30
0.0
 40
12.0
  1
1
 41
1.527272727272725
  7
dcStyle0
 72
     5
 11
68.17499999999974
 21
-257.6116298811547
 31
0.0
100
AcDbText
  0
TEXT
  5
4AE
330
1F
100
AcDbEntity
  8
Layer0240
 62
     4
100
AcDbText
 10
58.57499999999975
 20
-287.6116298811548
 30
0.0
 40
12.0
  1
2
 41
0.9882352941176458
  7
dcStyle0
 72
     5
 11
68.17499999999974
 21
-287.6116298811548
 31
0.0
100
AcDbText
  0
TEXT
  5
4AF
330
1F
100
AcDbEntity
  8
Layer0240
 62
     4
100
AcDbText
 10
58.57499999999975
 20
-272.6116298811547
 30
0.0
 40
12.0
  1
1
 41
1.527272727272725
  7
dcStyle0
 72
     5
 11
68.17499999999974
 21
-272.6116298811547
 31
0.0
100
AcDbText
  0
TEXT
  5
4B0
330
1F
100
AcDbEntity
  8
Layer0240
 62
     4
100
AcDbText
 10
83.0624999999997
 20
-287.6116298811548
 30
0.0
 40
12.0
  1
白
 41
1.120000000000001
  7
dcStyle0
 72
     5
 11
92.66249999999971
 21
-287.6116298811548
 31
0.0
100
AcDbText
  0
LINE
  5
4B1
330
1F
100
AcDbEntity
  8
0
  6
Continuous
 62
     3
370
    25
100
AcDbLine
 10
-167.514996798788
 20
-11.53124134752416
 30
0.0
 11
-146.7149967987881
 21
-11.53124134752416
 31
0.0
  0
LINE
  5
4B2
330
1F
100
AcDbEntity
  8
0
  6
Continuous
 62
     3
370
    25
100
AcDbLine
 10
-166.3149967987879
 20
-12.7312413475242
 30
0.0
 11
-147.9149967987879
 21
-12.7312413475242
 31
0.0
  0
LINE
  5
4B3
330
1F
100
AcDbEntity
  8
0
  6
Continuous
 62
     3
370
    25
100
AcDbLine
 10
-167.514996798788
 20
-11.53124134752416
 30
0.0
 11
-166.3149967987879
 21
-12.7312413475242
 31
0.0
  0
LINE
  5
4B4
330
1F
100
AcDbEntity
  8
0
  6
Continuous
 62
     3
370
    25
100
AcDbLine
 10
-147.9149967987879
 20
-12.7312413475242
 30
0.0
 11
-146.7149967987881
 21
-11.53124134752416
 31
0.0
  0
LINE
  5
4B5
330
1F
100
AcDbEntity
  8
0
  6
Continuous
 62
     3
370
    25
100
AcDbLine
 10
-167.514996798788
 20
37.2687586524758
 30
0.0
 11
-146.714996798788
 21
37.26875865247578
 31
0.0
  0
LINE
  5
4B6
330
1F
100
AcDbEntity
  8
0
  6
Continuous
 62
     3
370
    25
100
AcDbLine
 10
-167.514996798788
 20
39.17401454080156
 30
0.0
 11
-167.514996798788
 21
21.5490323768561
 31
0.0
  0
LINE
  5
4B7
330
1F
100
AcDbEntity
  8
0
  6
Continuous
 62
     3
370
    25
100
AcDbLine
 10
-167.6149967987881
 20
39.34721962155827
 30
0.0
 11
-167.514996798788
 21
39.17401454080156
 31
0.0
  0
LINE
  5
4B8
330
1F
100
AcDbEntity
  8
0
  6
Continuous
 62
     3
370
    25
100
AcDbLine
 10
-167.6149967987882
 20
44.26875865247604
 30
0.0
 11
-167.6149967987881
 21
39.34721962155827
 31
0.0
  0
LINE
  5
4B9
330
1F
100
AcDbEntity
  8
0
  6
Continuous
 62
     3
370
    25
100
AcDbLine
 10
-146.714996798788
 20
39.17401454080178
 30
0.0
 11
-146.6149967987881
 21
39.34721962155859
 31
0.0
  0
LINE
  5
4BA
330
1F
100
AcDbEntity
  8
0
  6
Continuous
 62
     3
370
    25
100
AcDbLine
 10
-134.6149967987884
 20
19.54903237685585
 30
0.0
 11
-179.6149967987884
 21
19.54903237685615
 31
0.0
  0
ARC
  5
4BB
330
1F
100
AcDbEntity
  8
0
  6
Continuous
 62
     3
370
    25
100
AcDbCircle
 10
-157.1149967987882
 20
36.76591074172553
 30
0.0
 40
22.92820323027487
100
AcDbArc
 50
252.4120462260055
 51
287.5879537739905
  0
LINE
  5
4BC
330
1F
100
AcDbEntity
  8
0
  6
Continuous
 62
     3
370
    25
100
AcDbLine
 10
-145.6149967987884
 20
13.54903237685588
 30
0.0
 11
-168.6149967987882
 21
13.54903237685613
 31
0.0
  0
LINE
  5
4BD
330
1F
100
AcDbEntity
  8
0
  6
Continuous
 62
     3
370
    25
100
AcDbLine
 10
-168.6149967987882
 20
13.54903237685613
 30
0.0
 11
-170.9714032593393
 21
14.90950428117532
 31
0.0
  0
ARC
  5
4BE
330
1F
100
AcDbEntity
  8
0
  6
Continuous
 62
     3
370
    25
100
AcDbCircle
 10
-167.5073016442016
 20
19.97168210766634
 30
0.0
 40
6.133974596215422
100
AcDbArc
 50
244.3842474680428
 51
304.3842474680422
  0
LINE
  5
4BF
330
1F
100
AcDbEntity
  8
0
  6
Continuous
 62
     3
370
    25
100
AcDbLine
 10
-170.9714032593393
 20
19.54903237685613
 30
0.0
 11
-170.9714032593393
 21
14.90950428117532
 31
0.0
  0
LINE
  5
4C0
330
1F
100
AcDbEntity
  8
0
  6
Continuous
 62
     3
370
    25
100
AcDbLine
 10
-164.0432000290638
 20
19.5490323768561
 30
0.0
 11
-164.0432000290638
 21
14.90950428117529
 31
0.0
  0
LINE
  5
4C1
330
1F
100
AcDbEntity
  8
0
  6
Continuous
 62
     3
370
    25
100
AcDbLine
 10
-145.6149967987884
 20
13.54903237685588
 30
0.0
 11
-143.2585903382373
 21
14.90950428117529
 31
0.0
  0
LINE
  5
4C2
330
1F
100
AcDbEntity
  8
0
  6
Continuous
 62
     3
370
    25
100
AcDbLine
 10
-143.2585903382373
 20
19.54903237685588
 30
0.0
 11
-143.2585903382373
 21
14.90950428117529
 31
0.0
  0
LINE
  5
4C3
330
1F
100
AcDbEntity
  8
0
  6
Continuous
 62
     3
370
    25
100
AcDbLine
 10
-167.514996798788
 20
13.54903237685588
 30
0.0
 11
-167.514996798788
 21
-11.53124134752416
 31
0.0
  0
ARC
  5
4C4
330
1F
100
AcDbEntity
  8
0
  6
Continuous
 62
     3
370
    25
100
AcDbCircle
 10
-146.7226919533767
 20
19.97168210766634
 30
0.0
 40
6.133974596215422
100
AcDbArc
 50
235.6157525319577
 51
295.6157525319572
  0
LINE
  5
4C5
330
1F
100
AcDbEntity
  8
0
  6
Continuous
 62
     3
370
    25
100
AcDbLine
 10
-146.6149967987901
 20
39.34721962155825
 30
0.0
 11
-146.7149967987903
 21
39.17401454080155
 31
0.0
  0
LINE
  5
4C6
330
1F
100
AcDbEntity
  8
0
  6
Continuous
 62
     3
370
    25
100
AcDbLine
 10
-150.1867935685144
 20
14.9095042811754
 30
0.0
 11
-150.1867935685144
 21
19.54903237685595
 31
0.0
  0
LINE
  5
4C7
330
1F
100
AcDbEntity
  8
0
  6
Continuous
 62
     3
370
    25
100
AcDbLine
 10
-146.6149967987901
 20
44.26875865247585
 30
0.0
 11
-146.6149967987901
 21
39.34721962155825
 31
0.0
  0
LINE
  5
4C8
330
1F
100
AcDbEntity
  8
0
  6
Continuous
 62
     3
370
    25
100
AcDbLine
 10
-146.714996798788
 20
39.17401454080178
 30
0.0
 11
-146.714996798788
 21
21.5490323768561
 31
0.0
  0
LINE
  5
4C9
330
1F
100
AcDbEntity
  8
0
  6
Continuous
 62
     3
370
    25
100
AcDbLine
 10
-146.714996798788
 20
13.54903237685589
 30
0.0
 11
-146.7149967987881
 21
-11.53124134752416
 31
0.0
  0
LINE
  5
4CA
330
1F
100
AcDbEntity
  8
0
  6
Continuous
 62
     3
370
    25
100
AcDbLine
 10
119.2322462194024
 20
45.26875865247616
 30
0.0
 11
164.2322462194024
 21
45.26875865247573
 31
0.0
  0
LINE
  5
4CB
330
1F
100
AcDbEntity
  8
0
  6
Continuous
 62
     3
370
    25
100
AcDbLine
 10
131.3322462194035
 20
-11.53124134752427
 30
0.0
 11
152.1322462194036
 21
-11.53124134752433
 31
0.0
  0
LINE
  5
4CC
330
1F
100
AcDbEntity
  8
0
  6
Continuous
 62
     3
370
    25
100
AcDbLine
 10
132.5322462194036
 20
-12.73124134752432
 30
0.0
 11
150.9322462194037
 21
-12.73124134752432
 31
0.0
  0
LINE
  5
4CD
330
1F
100
AcDbEntity
  8
0
  6
Continuous
 62
     3
370
    25
100
AcDbLine
 10
131.3322462194035
 20
-11.53124134752427
 30
0.0
 11
132.5322462194036
 21
-12.73124134752432
 31
0.0
  0
LINE
  5
4CE
330
1F
100
AcDbEntity
  8
0
  6
Continuous
 62
     3
370
    25
100
AcDbLine
 10
150.9322462194037
 20
-12.73124134752432
 30
0.0
 11
152.1322462194036
 21
-11.53124134752433
 31
0.0
  0
LINE
  5
4CF
330
1F
100
AcDbEntity
  8
0
  6
Continuous
 62
     3
370
    25
100
AcDbLine
 10
131.3322462194035
 20
37.26875865247565
 30
0.0
 11
152.1322462194036
 21
37.26875865247564
 31
0.0
  0
LINE
  5
4D0
330
1F
100
AcDbEntity
  8
0
  6
Continuous
 62
     3
370
    25
100
AcDbLine
 10
131.3322462194035
 20
39.17401454080141
 30
0.0
 11
131.3322462194035
 21
21.5490323768562
 31
0.0
  0
LINE
  5
4D1
330
1F
100
AcDbEntity
  8
0
  6
Continuous
 62
     3
370
    25
100
AcDbLine
 10
131.2322462194034
 20
39.34721962155811
 30
0.0
 11
131.3322462194035
 21
39.17401454080141
 31
0.0
  0
LINE
  5
4D2
330
1F
100
AcDbEntity
  8
0
  6
Continuous
 62
     3
370
    25
100
AcDbLine
 10
131.2322462194034
 20
44.26875865247604
 30
0.0
 11
131.2322462194034
 21
39.34721962155811
 31
0.0
  0
LINE
  5
4D3
330
1F
100
AcDbEntity
  8
0
  6
Continuous
 62
     3
370
    25
100
AcDbLine
 10
152.1322462194036
 20
39.17401454080164
 30
0.0
 11
152.2322462194035
 21
39.34721962155845
 31
0.0
  0
ARC
  5
4D4
330
1F
100
AcDbEntity
  8
0
  6
Continuous
 62
     3
370
    25
100
AcDbCircle
 10
141.7322462194034
 20
36.76591074172538
 30
0.0
 40
22.92820323027487
100
AcDbArc
 50
252.4120462260055
 51
287.5879537739905
  0
LINE
  5
4D5
330
1F
100
AcDbEntity
  8
0
  6
Continuous
 62
     3
370
    25
100
AcDbLine
 10
153.2322462194031
 20
13.54903237685573
 30
0.0
 11
130.2322462194034
 21
13.54903237685596
 31
0.0
  0
LINE
  5
4D6
330
1F
100
AcDbEntity
  8
0
  6
Continuous
 62
     3
370
    25
100
AcDbLine
 10
130.2322462194034
 20
13.54903237685596
 30
0.0
 11
127.8758397588522
 21
14.90950428117515
 31
0.0
  0
ARC
  5
4D7
330
1F
100
AcDbEntity
  8
0
  6
Continuous
 62
     3
370
    25
100
AcDbCircle
 10
131.3399413739899
 20
19.9716821076662
 30
0.0
 40
6.133974596215422
100
AcDbArc
 50
244.3842474680428
 51
304.3842474680422
  0
LINE
  5
4D8
330
1F
100
AcDbEntity
  8
0
  6
Continuous
 62
     3
370
    25
100
AcDbLine
 10
127.8758397588522
 20
19.54903237685596
 30
0.0
 11
127.8758397588522
 21
14.90950428117515
 31
0.0
  0
LINE
  5
4D9
330
1F
100
AcDbEntity
  8
0
  6
Continuous
 62
     3
370
    25
100
AcDbLine
 10
134.8040429891277
 20
19.54903237685596
 30
0.0
 11
134.8040429891277
 21
14.90950428117515
 31
0.0
  0
LINE
  5
4DA
330
1F
100
AcDbEntity
  8
0
  6
Continuous
 62
     3
370
    25
100
AcDbLine
 10
153.2322462194031
 20
13.54903237685573
 30
0.0
 11
155.5886526799542
 21
14.90950428117515
 31
0.0
  0
LINE
  5
4DB
330
1F
100
AcDbEntity
  8
0
  6
Continuous
 62
     3
370
    25
100
AcDbLine
 10
155.5886526799542
 20
19.54903237685573
 30
0.0
 11
155.5886526799542
 21
14.90950428117515
 31
0.0
  0
LINE
  5
4DC
330
1F
100
AcDbEntity
  8
0
  6
Continuous
 62
     3
370
    25
100
AcDbLine
 10
131.3322462194035
 20
13.54903237685573
 30
0.0
 11
131.3322462194035
 21
-11.53124134752427
 31
0.0
  0
ARC
  5
4DD
330
1F
100
AcDbEntity
  8
0
  6
Continuous
 62
     3
370
    25
100
AcDbCircle
 10
152.1245510648149
 20
19.9716821076662
 30
0.0
 40
6.133974596215422
100
AcDbArc
 50
235.6157525319577
 51
295.6157525319572
  0
LINE
  5
4DE
330
1F
100
AcDbEntity
  8
0
  6
Continuous
 62
     3
370
    25
100
AcDbLine
 10
152.2322462194014
 20
39.34721962155811
 30
0.0
 11
152.1322462194013
 21
39.17401454080141
 31
0.0
  0
LINE
  5
4DF
330
1F
100
AcDbEntity
  8
0
  6
Continuous
 62
     3
370
    25
100
AcDbLine
 10
148.6604494496772
 20
14.90950428117526
 30
0.0
 11
148.6604494496772
 21
19.54903237685581
 31
0.0
  0
LINE
  5
4E0
330
1F
100
AcDbEntity
  8
0
  6
Continuous
 62
     3
370
    25
100
AcDbLine
 10
152.2322462194015
 20
44.26875865247585
 30
0.0
 11
152.2322462194014
 21
39.34721962155811
 31
0.0
  0
LINE
  5
4E1
330
1F
100
AcDbEntity
  8
0
  6
Continuous
 62
     3
370
    25
100
AcDbLine
 10
152.1322462194036
 20
39.17401454080162
 30
0.0
 11
152.1322462194036
 21
21.549032376856
 31
0.0
  0
LINE
  5
4E2
330
1F
100
AcDbEntity
  8
0
  6
Continuous
 62
     3
370
    25
100
AcDbLine
 10
152.1322462194036
 20
13.54903237685575
 30
0.0
 11
152.1322462194036
 21
-11.53124134752433
 31
0.0
  0
LINE
  5
4E3
330
1F
100
AcDbEntity
  8
0
  6
Continuous
 62
     3
370
    25
100
AcDbLine
 10
-143.6149967987892
 20
45.26875865247592
 30
0.0
 11
-170.6149967987892
 21
45.26875865247607
 31
0.0
  0
LINE
  5
4E4
330
1F
100
AcDbEntity
  8
0
  6
Continuous
 62
     3
370
    25
100
AcDbLine
 10
-179.5229484936621
 20
45.26875865247616
 30
0.0
 11
-134.5229484936621
 21
45.26875865247573
 31
0.0
  0
LINE
  5
4E5
330
1F
100
AcDbEntity
  8
0
  6
Continuous
 62
     3
370
    25
100
AcDbLine
 10
-134.6149967987884
 20
20.5490323768561
 30
0.0
 11
-179.6149967987884
 21
20.5490323768561
 31
0.0
  0
LINE
  5
4E6
330
1F
100
AcDbEntity
  8
0
  6
Continuous
 62
     3
370
    25
100
AcDbLine
 10
-178.1149967987884
 20
21.5490323768563
 30
0.0
 11
-136.1149967987884
 21
21.54903237685591
 31
0.0
  0
LINE
  5
4E7
330
1F
100
AcDbEntity
  8
0
  6
Continuous
 62
     3
370
    25
100
AcDbLine
 10
164.2322462194036
 20
20.5490323768561
 30
0.0
 11
119.2322462194036
 21
20.5490323768561
 31
0.0
  0
LINE
  5
4E8
330
1F
100
AcDbEntity
  8
0
  6
Continuous
 62
     3
370
    25
100
AcDbLine
 10
120.7322462194036
 20
21.5490323768563
 30
0.0
 11
162.7322462194036
 21
21.54903237685591
 31
0.0
  0
LINE
  5
4E9
330
1F
100
AcDbEntity
  8
0
  6
Continuous
 62
     9
370
    25
100
AcDbLine
 10
-166.4149967987878
 20
37.2687586524758
 30
0.0
 11
-166.4149967987878
 21
21.5490323768561
 31
0.0
  0
LINE
  5
4EA
330
1F
100
AcDbEntity
  8
0
  6
Continuous
 62
     9
370
    25
100
AcDbLine
 10
-167.5149967987879
 20
39.17401454080145
 30
0.0
 11
-166.4149967987878
 21
37.2687586524758
 31
0.0
  0
LINE
  5
4EB
330
1F
100
AcDbEntity
  8
0
  6
Continuous
 62
     9
370
    25
100
AcDbLine
 10
-166.4149967987878
 20
13.5490323768561
 30
0.0
 11
-166.4149967987878
 21
-12.63124134752418
 31
0.0
  0
LINE
  5
4EC
330
1F
100
AcDbEntity
  8
0
  6
Continuous
 62
     9
370
    25
100
AcDbLine
 10
-147.8149967987905
 20
13.5490323768561
 30
0.0
 11
-147.8149967987905
 21
-12.63124134752418
 31
0.0
  0
LINE
  5
4ED
330
1F
100
AcDbEntity
  8
0
  6
Continuous
 62
     9
370
    25
100
AcDbLine
 10
-147.8149967987905
 20
37.26875865247578
 30
0.0
 11
-147.8149967987905
 21
21.5490323768561
 31
0.0
  0
LINE
  5
4EE
330
1F
100
AcDbEntity
  8
0
  6
Continuous
 62
     9
370
    25
100
AcDbLine
 10
-146.7149967987904
 20
39.17401454080144
 30
0.0
 11
-147.8149967987905
 21
37.26875865247578
 31
0.0
  0
LINE
  5
4EF
330
1F
100
AcDbEntity
  8
0
  6
Continuous
 62
     9
370
    25
100
AcDbLine
 10
132.4322462194037
 20
37.26875865247565
 30
0.0
 11
132.4322462194037
 21
21.54903237685619
 31
0.0
  0
LINE
  5
4F0
330
1F
100
AcDbEntity
  8
0
  6
Continuous
 62
     9
370
    25
100
AcDbLine
 10
131.3322462194037
 20
39.17401454080129
 30
0.0
 11
132.4322462194037
 21
37.26875865247565
 31
0.0
  0
LINE
  5
4F1
330
1F
100
AcDbEntity
  8
0
  6
Continuous
 62
     9
370
    25
100
AcDbLine
 10
132.4322462194037
 20
13.54903237685596
 30
0.0
 11
132.4322462194037
 21
-12.63124134752429
 31
0.0
  0
LINE
  5
4F2
330
1F
100
AcDbEntity
  8
0
  6
Continuous
 62
     9
370
    25
100
AcDbLine
 10
151.0322462194011
 20
13.54903237685596
 30
0.0
 11
151.0322462194011
 21
-12.63124134752429
 31
0.0
  0
LINE
  5
4F3
330
1F
100
AcDbEntity
  8
0
  6
Continuous
 62
     9
370
    25
100
AcDbLine
 10
151.0322462194011
 20
37.26875865247564
 30
0.0
 11
151.0322462194011
 21
21.54903237685602
 31
0.0
  0
LINE
  5
4F4
330
1F
100
AcDbEntity
  8
0
  6
Continuous
 62
     9
370
    25
100
AcDbLine
 10
152.1322462194012
 20
39.17401454080129
 30
0.0
 11
151.0322462194011
 21
37.26875865247564
 31
0.0
  0
LINE
  5
4F5
330
1F
100
AcDbEntity
  8
0
  6
CENTER
 62
     9
370
    25
100
AcDbLine
 10
141.7322462194026
 20
209.9242913671969
 30
0.0
 11
141.7322462194023
 21
-22.90029816091473
 31
0.0
  0
LINE
  5
4F6
330
1F
100
AcDbEntity
  8
0
  6
CENTER
 62
     9
370
    25
100
AcDbLine
 10
119.2322462194034
 20
152.2687586524762
 30
0.0
 11
164.2322462194034
 21
152.2687586524757
 31
0.0
  0
LINE
  5
4F7
330
1F
100
AcDbEntity
  8
0
  6
CENTER
 62
     9
370
    25
100
AcDbLine
 10
-179.5229484936611
 20
152.2687586524762
 30
0.0
 11
-40.83842961996561
 21
152.2687586524748
 31
0.0
  0
LINE
  5
4F8
330
1F
100
AcDbEntity
  8
0
  6
CENTER
 62
     9
370
    25
100
AcDbLine
 10
-157.1149967987894
 20
375.7934390269119
 30
0.0
 11
-157.1149967987892
 21
302.92185694957
 31
0.0
  0
LINE
  5
4F9
330
1F
100
AcDbEntity
  8
0
  6
CENTER
 62
     9
370
    25
100
AcDbLine
 10
-157.1149967987889
 20
209.9242913671961
 30
0.0
 11
-157.1149967987883
 21
-22.90029816091436
 31
0.0
  0
INSERT
  5
4FA
330
1F
100
AcDbEntity
  8
Layer0240
  6
Continuous
100
AcDbBlockReference
  2
DC_GROUP_FC1100S_1
 10
0.0
 20
0.0
 30
0.0
  0
INSERT
  5
4FB
330
1F
100
AcDbEntity
  8
Layer0240
  6
Continuous
100
AcDbBlockReference
  2
DC_GROUP_FC1100S_2
 10
0.0
 20
0.0
 30
0.0
  0
INSERT
  5
4FC
330
1F
100
AcDbEntity
  8
Layer0240
  6
Continuous
100
AcDbBlockReference
  2
DC_GROUP_FC1100S_3
 10
0.0
 20
0.0
 30
0.0
  0
INSERT
  5
4FD
330
1F
100
AcDbEntity
  8
Layer0240
  6
Continuous
100
AcDbBlockReference
  2
DC_GROUP_FC1100S_4
 10
0.0
 20
0.0
 30
0.0
  0
INSERT
  5
4FE
330
1F
100
AcDbEntity
  8
Layer0240
  6
Continuous
100
AcDbBlockReference
  2
DC_GROUP_FC1100S_5
 10
0.0
 20
0.0
 30
0.0
  0
INSERT
  5
4FF
330
1F
100
AcDbEntity
  8
Layer0240
  6
Continuous
100
AcDbBlockReference
  2
DC_GROUP_FC1100S_6
 10
0.0
 20
0.0
 30
0.0
  0
INSERT
  5
500
330
1F
100
AcDbEntity
  8
Layer0240
  6
Continuous
100
AcDbBlockReference
  2
DC_GROUP_FC1100S_7
 10
0.0
 20
0.0
 30
0.0
  0
DIMENSION
  5
501
330
1F
100
AcDbEntity
  8
0
  6
Continuous
370
    25
100
AcDbDimension
  2
*D6
 10
200.7322462194023
 20
45.26875865247579
 30
0.0
 11
200.7322462194023
 21
16.26875865247574
 31
0.0
 70
   160
 71
     8
 42
-1.0
  3
dc_Rotated
100
AcDbAlignedDimension
 13
150.9322462194037
 23
-12.73124134752432
 33
0.0
 14
164.2322462194024
 24
45.26875865247573
 34
0.0
 50
90.0
100
AcDbRotatedDimension
1001
ACAD
1000
DSTYLE
1002
{
1070
   274
1070
     4
1070
    41
1040
9.000005722045898
1070
    79
1070
     2
1070
   343
1005
B7
1070
   344
1005
B7
1070
   176
1070
     9
1070
   177
1070
     9
1070
   178
1070
     7
1070
   271
1070
     2
1070
    44
1040
3.0
1070
    42
1040
3.0
1070
   147
1040
3.0
1070
   173
1070
     1
1070
    77
1070
     3
1070
    73
1070
     0
1070
   172
1070
     1
1070
    74
1070
     0
1070
   283
1070
     0
1070
   340
1005
44D
1070
   140
1040
12.0
1070
   284
1070
     8
1070
   288
1070
     1
1070
    78
1070
     8
1070
    90
1070
     1
1002
}
  0
DIMENSION
  5
503
330
1F
100
AcDbEntity
  8
0
  6
Continuous
370
    13
100
AcDbDimension
  2
*D7
 10
230.7322462194023
 20
196.7687586524757
 30
0.0
 11
230.7322462194023
 21
121.0187586524757
 31
0.0
 70
   160
 71
     8
 42
-1.0
  3
dc_Rotated
100
AcDbAlignedDimension
 13
164.2322462194024
 23
45.26875865247573
 33
0.0
 14
150.1997617701688
 24
196.7687586524757
 34
0.0
 50
90.0
100
AcDbRotatedDimension
1001
ACAD
1000
DSTYLE
1002
{
1070
   274
1070
     4
1070
    41
1040
9.000005722045898
1070
    79
1070
     2
1070
   343
1005
B7
1070
   344
1005
B7
1070
   176
1070
     9
1070
   177
1070
     9
1070
   178
1070
     7
1070
   271
1070
     2
1070
    44
1040
3.0
1070
    42
1040
3.0
1070
   147
1040
3.0
1070
   173
1070
     1
1070
    77
1070
     3
1070
    73
1070
     0
1070
   172
1070
     1
1070
    74
1070
     0
1070
   283
1070
     0
1070
   340
1005
44D
1070
   140
1040
12.0
1070
   284
1070
     8
1070
   288
1070
     1
1070
    78
1070
     8
1070
    90
1070
     1
1002
}
  0
DIMENSION
  5
504
330
1F
100
AcDbEntity
  8
0
  6
Continuous
370
    13
100
AcDbDimension
  2
*D8
 10
260.7322462194023
 20
203.2687586524759
 30
0.0
 11
260.7322462194023
 21
124.2687586524758
 31
0.0
 70
   160
 71
     8
 42
-1.0
  3
dc_Rotated
100
AcDbAlignedDimension
 13
164.2322462194024
 23
45.26875865247573
 33
0.0
 14
155.7322462194026
 24
203.2687586524758
 34
0.0
 50
90.0
100
AcDbRotatedDimension
1001
ACAD
1000
DSTYLE
1002
{
1070
   274
1070
     4
1070
    41
1040
9.000005722045898
1070
    79
1070
     2
1070
   343
1005
B7
1070
   344
1005
B7
1070
   176
1070
     9
1070
   177
1070
     9
1070
   178
1070
     7
1070
   271
1070
     2
1070
    44
1040
3.0
1070
    42
1040
3.0
1070
   147
1040
3.0
1070
   173
1070
     1
1070
    77
1070
     3
1070
    73
1070
     0
1070
   172
1070
     1
1070
    74
1070
     0
1070
   283
1070
     0
1070
   340
1005
44D
1070
   140
1040
12.0
1070
   284
1070
     8
1070
   288
1070
     1
1070
    78
1070
     8
1070
    90
1070
     1
1002
}
  0
DIMENSION
  5
505
330
1F
100
AcDbEntity
  8
0
  6
Continuous
370
    13
100
AcDbDimension
  2
*D9
 10
155.7322462194026
 20
232.2910320600824
 30
0.0
 11
141.7322462194026
 21
232.2910320600824
 31
0.0
 70
   160
  1
φ<>
 71
     8
 42
-1.0
  3
dc_Rotated
100
AcDbAlignedDimension
 13
127.7322462194026
 23
203.2687586524761
 33
0.0
 14
155.7322462194026
 24
203.2687586524759
 34
0.0
100
AcDbRotatedDimension
1001
ACAD
1000
DSTYLE
1002
{
1070
   274
1070
     4
1070
    41
1040
9.000005722045898
1070
    79
1070
     2
1070
   343
1005
B7
1070
   344
1005
B7
1070
   176
1070
     9
1070
   177
1070
     9
1070
   178
1070
     7
1070
   271
1070
     2
1070
    44
1040
3.0
1070
    42
1040
3.0
1070
   147
1040
3.0
1070
   173
1070
     1
1070
    77
1070
     3
1070
    73
1070
     0
1070
   172
1070
     1
1070
    74
1070
     0
1070
   283
1070
     0
1070
   340
1005
44D
1070
   140
1040
12.0
1070
   284
1070
     8
1070
   288
1070
     1
1070
    78
1070
     8
1070
    90
1070
     1
1002
}
  0
INSERT
  5
506
330
1F
100
AcDbEntity
  8
0
  6
Continuous
100
AcDbBlockReference
  2
DC_GROUP_FC1100S_8
 10
0.0
 20
0.0
 30
0.0
  0
INSERT
  5
507
330
1F
100
AcDbEntity
  8
0
  6
Continuous
100
AcDbBlockReference
  2
DC_GROUP_FC1100S_9
 10
0.0
 20
0.0
 30
0.0
  0
INSERT
  5
508
330
1F
100
AcDbEntity
  8
0
  6
Continuous
100
AcDbBlockReference
  2
DC_GROUP_FC1100S_10
 10
0.0
 20
0.0
 30
0.0
  0
DIMENSION
  5
509
330
1F
100
AcDbEntity
  8
0
  6
Continuous
370
    13
100
AcDbDimension
  2
*D15
 10
-57.1149967987887
 20
-45.32658663981619
 30
0.0
 11
-107.1149967987885
 21
-45.32658663981619
 31
0.0
 70
   160
 71
     8
 42
-1.0
  3
dc_Rotated
100
AcDbAlignedDimension
 13
-157.1149967987883
 23
-22.90029816091436
 33
0.0
 14
-57.1149967987887
 24
129.0209188329055
 34
0.0
100
AcDbRotatedDimension
1001
ACAD
1000
DSTYLE
1002
{
1070
   274
1070
     4
1070
    41
1040
9.000005722045898
1070
    79
1070
     2
1070
   343
1005
B7
1070
   344
1005
B7
1070
   176
1070
     9
1070
   177
1070
     9
1070
   178
1070
     7
1070
   271
1070
     2
1070
    44
1040
3.0
1070
    42
1040
3.0
1070
   147
1040
3.0
1070
   173
1070
     1
1070
    77
1070
     3
1070
    73
1070
     0
1070
   172
1070
     1
1070
    74
1070
     0
1070
   283
1070
     0
1070
   340
1005
44D
1070
   140
1040
12.0
1070
   284
1070
     8
1070
   288
1070
     1
1070
    78
1070
     8
1070
    90
1070
     1
1002
}
  0
DIMENSION
  5
50A
330
1F
100
AcDbEntity
  8
0
  6
Continuous
370
    13
100
AcDbDimension
  2
*D16
 10
-45.11499679878874
 20
-72.79348285363666
 30
0.0
 11
-101.1149967987885
 21
-72.79348285363666
 31
0.0
 70
   160
 71
     8
 42
-1.0
  3
dc_Rotated
100
AcDbAlignedDimension
 13
-157.1149967987883
 23
-22.90029816091436
 33
0.0
 14
-45.11499679878874
 24
141.2687586524749
 34
0.0
100
AcDbRotatedDimension
1001
ACAD
1000
DSTYLE
1002
{
1070
   274
1070
     4
1070
    41
1040
9.000005722045898
1070
    79
1070
     2
1070
   343
1005
B7
1070
   344
1005
B7
1070
   176
1070
     9
1070
   177
1070
     9
1070
   178
1070
     7
1070
   271
1070
     2
1070
    44
1040
3.0
1070
    42
1040
3.0
1070
   147
1040
3.0
1070
   173
1070
     1
1070
    77
1070
     3
1070
    73
1070
     0
1070
   172
1070
     1
1070
    74
1070
     0
1070
   283
1070
     0
1070
   340
1005
44D
1070
   140
1040
12.0
1070
   284
1070
     8
1070
   288
1070
     1
1070
    78
1070
     8
1070
    90
1070
     1
1002
}
  0
DIMENSION
  5
50B
330
1F
100
AcDbEntity
  8
0
  6
Continuous
370
    13
100
AcDbDimension
  2
*D17
 10
23.26756103152374
 20
137.2687586524763
 30
0.0
 11
23.26756103152374
 21
91.26875865247611
 31
0.0
 70
   160
 71
     8
 42
-1.0
  3
dc_Rotated
100
AcDbAlignedDimension
 13
-134.5229484936621
 23
45.26875865247573
 33
0.0
 14
-48.52294849366197
 24
137.2687586524762
 34
0.0
 50
90.0
100
AcDbRotatedDimension
1001
ACAD
1000
DSTYLE
1002
{
1070
   274
1070
     4
1070
    41
1040
9.000005722045898
1070
    79
1070
     2
1070
   343
1005
B7
1070
   344
1005
B7
1070
   176
1070
     9
1070
   177
1070
     9
1070
   178
1070
     7
1070
   271
1070
     2
1070
    44
1040
3.0
1070
    42
1040
3.0
1070
   147
1040
3.0
1070
   173
1070
     1
1070
    77
1070
     3
1070
    73
1070
     0
1070
   172
1070
     1
1070
    74
1070
     0
1070
   283
1070
     0
1070
   340
1005
44D
1070
   140
1040
12.0
1070
   284
1070
     8
1070
   288
1070
     1
1070
    78
1070
     8
1070
    90
1070
     1
1002
}
  0
DIMENSION
  5
50C
330
1F
100
AcDbEntity
  8
0
  6
Continuous
370
    13
100
AcDbDimension
  2
*D18
 10
131.4670586295616
 20
156.2217225715319
 30
0.0
 11
99.85987931173837
 21
168.3931552251472
 31
0.0
 70
   163
  1
φ22
 71
     8
 42
-1.0
  3
dc_Diam01
100
AcDbDiametricDimension
 15
151.9974338092452
 25
148.31579473342
 35
0.0
 40
0.0
1001
ACAD
1000
DSTYLE
1002
{
1070
   274
1070
     4
1070
    41
1040
9.000005722045898
1070
   289
1070
     1
1070
    79
1070
     2
1070
   343
1005
B7
1070
   344
1005
B7
1070
   176
1070
     9
1070
   177
1070
     9
1070
   178
1070
     7
1070
   271
1070
     2
1070
    44
1040
3.0
1070
    42
1040
3.0
1070
   147
1040
3.000000000000024
1070
   173
1070
     1
1070
    77
1070
     3
1070
    73
1070
     0
1070
   172
1070
     1
1070
    74
1070
     0
1070
   283
1070
     0
1070
   340
1005
44D
1070
   140
1040
12.0
1070
   284
1070
     8
1070
   288
1070
     1
1070
    78
1070
     8
1070
    90
1070
     1
1002
}
  0
DIMENSION
  5
50E
330
1F
100
AcDbEntity
  8
0
  6
Continuous
370
    13
100
AcDbDimension
  2
*D19
 10
138.2622079245985
 20
198.7584405950448
 30
0.0
 11
108.5303747414533
 21
215.8063480180068
 31
0.0
 70
   163
  1
φ8
 71
     8
 42
-1.0
  3
dc_Diam01
100
AcDbDiametricDimension
 15
145.2022845142091
 25
194.7790767099071
 35
0.0
 40
0.0
1001
ACAD
1000
DSTYLE
1002
{
1070
   274
1070
     4
1070
    41
1040
9.000005722045898
1070
   289
1070
     1
1070
    79
1070
     2
1070
   343
1005
B7
1070
   344
1005
B7
1070
   176
1070
     9
1070
   177
1070
     9
1070
   178
1070
     7
1070
   271
1070
     2
1070
    44
1040
3.0
1070
    42
1040
3.0
1070
   147
1040
3.000000000000072
1070
   173
1070
     1
1070
    77
1070
     3
1070
    73
1070
     0
1070
   172
1070
     1
1070
    74
1070
     0
1070
   283
1070
     0
1070
   340
1005
44D
1070
   140
1040
12.0
1070
   284
1070
     8
1070
   288
1070
     1
1070
    78
1070
     8
1070
    90
1070
     1
1002
}
  0
DIMENSION
  5
50F
330
1F
100
AcDbEntity
  8
0
  6
Continuous
370
    13
100
AcDbDimension
  2
*D20
 10
-40.83842961996396
 20
323.2093992868161
 30
0.0
 11
-123.1632278906016
 21
357.1611681950046
 31
0.0
 70
   162
  1
（90°）
 71
     8
 42
-1.0
  3
dc_Ang01
100
AcDb2LineAngularDimension
 13
-157.1149967987894
 23
375.7934390269119
 33
0.0
 14
-157.1149967987892
 24
302.92185694957
 34
0.0
 15
-178.3485887794594
 25
323.2093992868174
 35
0.0
 16
-123.1632278906016
 26
357.1611681950046
 36
0.0
1001
ACAD
1000
DSTYLE
1002
{
1070
   274
1070
     4
1070
    41
1040
9.000005722045898
1070
    79
1070
     2
1070
   343
1005
B7
1070
   344
1005
B7
1070
   176
1070
     9
1070
   177
1070
     9
1070
   178
1070
     7
1070
   271
1070
     2
1070
    44
1040
3.0
1070
    42
1040
3.0
1070
   147
1040
3.000001000000025
1070
   173
1070
     1
1070
    77
1070
     3
1070
    73
1070
     0
1070
   172
1070
     1
1070
    74
1070
     0
1070
   283
1070
     0
1070
   340
1005
44D
1070
   140
1040
12.0
1070
   284
1070
     8
1070
   288
1070
     1
1070
    78
1070
     8
1070
    90
1070
     1
1002
}
  0
DIMENSION
  5
511
330
1F
100
AcDbEntity
  8
0
  6
Continuous
370
    13
100
AcDbDimension
  2
*D21
 10
164.2322462194024
 20
-21.29637096774193
 30
0.0
 11
93.1389062194024
 21
-21.29637096774193
 31
0.0
 70
   160
  1
φ<>
 71
     8
 42
-1.0
  3
dc_Rotated
100
AcDbAlignedDimension
 13
119.2322462194024
 23
45.26875865247616
 33
0.0
 14
164.2322462194024
 24
45.26875865247573
 34
0.0
100
AcDbRotatedDimension
1001
ACAD
1000
DSTYLE
1002
{
1070
   274
1070
     4
1070
    41
1040
9.000005722045898
1070
    79
1070
     2
1070
   343
1005
B7
1070
   344
1005
B7
1070
   176
1070
     9
1070
   177
1070
     9
1070
   178
1070
     7
1070
   271
1070
     2
1070
    44
1040
3.0
1070
    42
1040
3.0
1070
   147
1040
3.0
1070
   173
1070
     1
1070
    77
1070
     3
1070
    73
1070
     0
1070
   172
1070
     1
1070
    74
1070
     0
1070
   283
1070
     0
1070
   340
1005
44D
1070
   140
1040
12.0
1070
   284
1070
     8
1070
   288
1070
     1
1070
    78
1070
     8
1070
    90
1070
     1
1002
}
  0
POINT
  5
512
330
1F
100
AcDbEntity
  8
0
  6
Continuous
 62
     6
100
AcDbPoint
 10
-157.114996798789
 20
122.268758652476
 30
0.0
  0
LINE
  5
513
330
1F
100
AcDbEntity
  8
0
  6
DIVIDE
 62
     6
370
    25
100
AcDbLine
 10
-161.1149967987892
 20
337.3014475919444
 30
0.0
 11
-161.1149967987888
 21
367.2093992868175
 31
0.0
  0
LINE
  5
514
330
1F
100
AcDbEntity
  8
0
  6
DIVIDE
 62
     6
370
    25
100
AcDbLine
 10
-161.1149967987888
 20
367.2093992868175
 30
0.0
 11
-153.1149967987888
 21
367.2093992868175
 31
0.0
  0
LINE
  5
515
330
1F
100
AcDbEntity
  8
0
  6
DIVIDE
 62
     6
370
    25
100
AcDbLine
 10
-153.1149967987892
 20
337.3014475919443
 30
0.0
 11
-153.1149967987888
 21
367.2093992868175
 31
0.0
  0
LINE
  5
516
330
1F
100
AcDbEntity
  8
0
  6
Continuous
 62
     3
370
    13
100
AcDbLine
 10
119.2322462194024
 20
48.26875865247616
 30
0.0
 11
164.2322462194024
 21
48.26875865247573
 31
0.0
  0
LINE
  5
517
330
1F
100
AcDbEntity
  8
0
  6
Continuous
 62
     3
370
    13
100
AcDbLine
 10
164.2322462194024
 20
48.26875865247573
 30
0.0
 11
164.2322462194024
 21
45.26875865247573
 31
0.0
  0
LINE
  5
518
330
1F
100
AcDbEntity
  8
0
  6
Continuous
 62
     3
370
    13
100
AcDbLine
 10
119.2322462194024
 20
48.26875865247616
 30
0.0
 11
119.2322462194024
 21
45.26875865247616
 31
0.0
  0
LINE
  5
519
330
1F
100
AcDbEntity
  8
0
  6
Continuous
 62
     3
370
    13
100
AcDbLine
 10
127.7322462194026
 20
203.2687586524761
 30
0.0
 11
155.7322462194026
 21
203.2687586524758
 31
0.0
  0
CIRCLE
  5
51A
330
1F
100
AcDbEntity
  8
0
  6
Continuous
 62
     3
370
    13
100
AcDbCircle
 10
141.7322462194038
 20
196.7687586524759
 30
0.0
 40
4.0
  0
LINE
  5
51B
330
1F
100
AcDbEntity
  8
0
  6
Continuous
 62
     3
370
    13
100
AcDbLine
 10
127.7322462194023
 20
175.7687586524761
 30
0.0
 11
155.7322462194023
 21
175.7687586524758
 31
0.0
  0
LINE
  5
51C
330
1F
100
AcDbEntity
  8
0
  6
Continuous
 62
     3
370
    13
100
AcDbLine
 10
127.7322462194023
 20
174.7687586524761
 30
0.0
 11
155.7322462194023
 21
174.7687586524758
 31
0.0
  0
LINE
  5
51D
330
1F
100
AcDbEntity
  8
0
  6
Continuous
 62
     3
370
    13
100
AcDbLine
 10
133.7322462194025
 20
137.268758652476
 30
0.0
 11
149.7322462194025
 21
137.2687586524759
 31
0.0
  0
LINE
  5
51E
330
1F
100
AcDbEntity
  8
0
  6
Continuous
 62
     3
370
    13
100
AcDbLine
 10
150.2322462194025
 20
140.2687586524758
 30
0.0
 11
150.2322462194025
 21
137.7687586524759
 31
0.0
  0
LINE
  5
51F
330
1F
100
AcDbEntity
  8
0
  6
Continuous
 62
     3
370
    13
100
AcDbLine
 10
133.2322462194025
 20
140.268758652476
 30
0.0
 11
133.2322462194025
 21
137.768758652476
 31
0.0
  0
LINE
  5
520
330
1F
100
AcDbEntity
  8
0
  6
Continuous
 62
     3
370
    13
100
AcDbLine
 10
150.7322462194025
 20
145.9442033321379
 30
0.0
 11
150.7322462194025
 21
140.2687586524758
 31
0.0
  0
LINE
  5
521
330
1F
100
AcDbEntity
  8
0
  6
Continuous
 62
     3
370
    13
100
AcDbLine
 10
132.7322462194025
 20
145.9442033321405
 30
0.0
 11
132.7322462194025
 21
140.268758652476
 31
0.0
  0
CIRCLE
  5
522
330
1F
100
AcDbEntity
  8
0
  6
Continuous
 62
     3
370
    13
100
AcDbCircle
 10
141.7322462194034
 20
152.2687586524759
 30
0.0
 40
11.0
  0
LINE
  5
523
330
1F
100
AcDbEntity
  8
0
  6
Continuous
 62
     3
370
    13
100
AcDbLine
 10
132.7322462194025
 20
140.268758652476
 30
0.0
 11
133.2322462194025
 21
140.268758652476
 31
0.0
  0
LINE
  5
524
330
1F
100
AcDbEntity
  8
0
  6
Continuous
 62
     3
370
    13
100
AcDbLine
 10
150.2322462194025
 20
140.2687586524758
 30
0.0
 11
150.7322462194025
 21
140.2687586524758
 31
0.0
  0
LINE
  5
525
330
1F
100
AcDbEntity
  8
0
  6
Continuous
 62
     3
370
    13
100
AcDbLine
 10
133.2322462194025
 20
137.768758652476
 30
0.0
 11
150.2322462194025
 21
137.7687586524759
 31
0.0
  0
LINE
  5
526
330
1F
100
AcDbEntity
  8
0
  6
Continuous
 62
     3
370
    13
100
AcDbLine
 10
150.2322462194025
 20
137.7687586524759
 30
0.0
 11
149.7322462194025
 21
137.2687586524759
 31
0.0
  0
LINE
  5
527
330
1F
100
AcDbEntity
  8
0
  6
Continuous
 62
     3
370
    13
100
AcDbLine
 10
133.2322462194025
 20
137.768758652476
 30
0.0
 11
133.7322462194025
 21
137.268758652476
 31
0.0
  0
LINE
  5
528
330
1F
100
AcDbEntity
  8
0
  6
Continuous
 62
     3
370
    13
100
AcDbLine
 10
120.7322462194024
 20
45.26875865247614
 30
0.0
 11
120.7322462194024
 21
44.26875865247614
 31
0.0
  0
LINE
  5
529
330
1F
100
AcDbEntity
  8
0
  6
Continuous
 62
     3
370
    13
100
AcDbLine
 10
162.7322462194024
 20
45.26875865247575
 30
0.0
 11
162.7322462194024
 21
44.26875865247575
 31
0.0
  0
LINE
  5
52A
330
1F
100
AcDbEntity
  8
0
  6
Continuous
 62
     3
370
    13
100
AcDbLine
 10
120.7322462194024
 20
44.26875865247614
 30
0.0
 11
162.7322462194024
 21
44.26875865247575
 31
0.0
  0
LINE
  5
52B
330
1F
100
AcDbEntity
  8
0
  6
Continuous
 62
     3
370
    13
100
AcDbLine
 10
155.7322462194026
 20
203.2687586524759
 30
0.0
 11
155.7322462194023
 21
175.7687586524758
 31
0.0
  0
LINE
  5
52C
330
1F
100
AcDbEntity
  8
0
  6
Continuous
 62
     3
370
    13
100
AcDbLine
 10
155.7322462194023
 20
174.7687586524758
 30
0.0
 11
155.7322462194024
 21
48.26875865247592
 31
0.0
  0
LINE
  5
52D
330
1F
100
AcDbEntity
  8
0
  6
Continuous
 62
     3
370
    13
100
AcDbLine
 10
127.7322462194026
 20
203.2687586524761
 30
0.0
 11
127.7322462194025
 21
175.7687586524761
 31
0.0
  0
LINE
  5
52E
330
1F
100
AcDbEntity
  8
0
  6
Continuous
 62
     3
370
    13
100
AcDbLine
 10
127.7322462194025
 20
174.7687586524761
 30
0.0
 11
127.7322462194024
 21
48.26875865247592
 31
0.0
  0
LINE
  5
52F
330
1F
100
AcDbEntity
  8
0
  6
Continuous
 62
     3
370
    13
100
AcDbLine
 10
150.7322462194026
 20
175.7687586524759
 30
0.0
 11
150.7322462194026
 21
174.7687586524759
 31
0.0
  0
LINE
  5
530
330
1F
100
AcDbEntity
  8
0
  6
Continuous
 62
     3
370
    13
100
AcDbLine
 10
132.7322462194026
 20
175.768758652476
 30
0.0
 11
132.7322462194026
 21
174.768758652476
 31
0.0
  0
LINE
  5
531
330
1F
100
AcDbEntity
  8
0
  6
Continuous
 62
     3
370
    13
100
AcDbLine
 10
-48.02294849366197
 20
137.7687586524762
 30
0.0
 11
-48.52294849366197
 21
137.2687586524762
 31
0.0
  0
LINE
  5
532
330
1F
100
AcDbEntity
  8
0
  6
Continuous
 62
     3
370
    13
100
AcDbLine
 10
-148.0229484936619
 20
175.7687586524759
 30
0.0
 11
-148.0229484936619
 21
174.7687586524759
 31
0.0
  0
LINE
  5
533
330
1F
100
AcDbEntity
  8
0
  6
Continuous
 62
     3
370
    13
100
AcDbLine
 10
-166.0229484936619
 20
175.768758652476
 30
0.0
 11
-166.0229484936619
 21
174.768758652476
 31
0.0
  0
LINE
  5
534
330
1F
100
AcDbEntity
  8
0
  6
Continuous
 62
     3
370
    13
100
AcDbLine
 10
-134.5229484936621
 20
48.26875865247573
 30
0.0
 11
-134.5229484936621
 21
45.26875865247573
 31
0.0
  0
LINE
  5
535
330
1F
100
AcDbEntity
  8
0
  6
Continuous
 62
     3
370
    13
100
AcDbLine
 10
-136.0229484936621
 20
45.26875865247575
 30
0.0
 11
-136.0229484936621
 21
44.26875865247575
 31
0.0
  0
LINE
  5
536
330
1F
100
AcDbEntity
  8
0
  6
Continuous
 62
     3
370
    13
100
AcDbLine
 10
-179.5229484936621
 20
48.26875865247616
 30
0.0
 11
-179.5229484936621
 21
45.26875865247616
 31
0.0
  0
LINE
  5
537
330
1F
100
AcDbEntity
  8
0
  6
Continuous
 62
     3
370
    13
100
AcDbLine
 10
-178.0229484936621
 20
45.26875865247614
 30
0.0
 11
-178.0229484936621
 21
44.26875865247614
 31
0.0
  0
LINE
  5
538
330
1F
100
AcDbEntity
  8
0
  6
Continuous
 62
     3
370
    13
100
AcDbLine
 10
-171.0229484936619
 20
203.2687586524761
 30
0.0
 11
-143.0229484936619
 21
203.2687586524758
 31
0.0
  0
LINE
  5
539
330
1F
100
AcDbEntity
  8
0
  6
Continuous
 62
     3
370
    13
100
AcDbLine
 10
-171.0229484936622
 20
175.7687586524761
 30
0.0
 11
-143.0229484936622
 21
175.7687586524758
 31
0.0
  0
LINE
  5
53A
330
1F
100
AcDbEntity
  8
0
  6
Continuous
 62
     3
370
    13
100
AcDbLine
 10
-171.0229484936622
 20
174.7687586524761
 30
0.0
 11
-143.0229484936622
 21
174.7687586524758
 31
0.0
  0
LINE
  5
53B
330
1F
100
AcDbEntity
  8
0
  6
Continuous
 62
     3
370
    13
100
AcDbLine
 10
-65.52294849366197
 20
137.2687586524763
 30
0.0
 11
-48.52294849366197
 21
137.2687586524762
 31
0.0
  0
LINE
  5
53C
330
1F
100
AcDbEntity
  8
0
  6
Continuous
 62
     3
370
    13
100
AcDbLine
 10
-66.02294849366197
 20
137.7687586524763
 30
0.0
 11
-48.02294849366199
 21
137.7687586524762
 31
0.0
  0
LINE
  5
53D
330
1F
100
AcDbEntity
  8
0
  6
Continuous
 62
     3
370
    13
100
AcDbLine
 10
-66.02294849366197
 20
137.7687586524763
 30
0.0
 11
-65.52294849366197
 21
137.2687586524763
 31
0.0
  0
LINE
  5
53E
330
1F
100
AcDbEntity
  8
0
  6
Continuous
 62
     3
370
    13
100
AcDbLine
 10
-48.02294849366197
 20
141.2687586524749
 30
0.0
 11
-48.02294849366197
 21
137.7687586524762
 31
0.0
  0
LINE
  5
53F
330
1F
100
AcDbEntity
  8
0
  6
Continuous
 62
     3
370
    13
100
AcDbLine
 10
-66.02294849366197
 20
141.2687586524751
 30
0.0
 11
-66.02294849366197
 21
137.7687586524763
 31
0.0
  0
LINE
  5
540
330
1F
100
AcDbEntity
  8
0
  6
Continuous
 62
     3
370
    13
100
AcDbLine
 10
-171.022948493662
 20
174.7687586524761
 30
0.0
 11
-171.0229484936621
 21
48.26875865247592
 31
0.0
  0
LINE
  5
541
330
1F
100
AcDbEntity
  8
0
  6
Continuous
 62
     3
370
    13
100
AcDbLine
 10
-171.0229484936619
 20
203.2687586524761
 30
0.0
 11
-171.0229484936619
 21
175.7687586524761
 31
0.0
  0
LINE
  5
542
330
1F
100
AcDbEntity
  8
0
  6
Continuous
 62
     3
370
    13
100
AcDbLine
 10
-179.5229484936621
 20
48.26875865247616
 30
0.0
 11
-134.5229484936621
 21
48.26875865247573
 31
0.0
  0
LINE
  5
543
330
1F
100
AcDbEntity
  8
0
  6
Continuous
 62
     3
370
    13
100
AcDbLine
 10
-178.0229484936621
 20
44.26875865247614
 30
0.0
 11
-136.0229484936621
 21
44.26875865247575
 31
0.0
  0
LINE
  5
544
330
1F
100
AcDbEntity
  8
0
  6
Continuous
 62
     3
370
    13
100
AcDbLine
 10
-143.0229484936622
 20
163.2687586524758
 30
0.0
 11
-45.11499679878879
 21
163.2687586524749
 31
0.0
  0
LINE
  5
545
330
1F
100
AcDbEntity
  8
0
  6
Continuous
 62
     3
370
    13
100
AcDbLine
 10
-45.11499679878879
 20
163.2687586524749
 30
0.0
 11
-45.11499679878874
 21
141.2687586524749
 31
0.0
  0
LINE
  5
546
330
1F
100
AcDbEntity
  8
0
  6
Continuous
 62
     3
370
    13
100
AcDbLine
 10
-143.0229484936622
 20
163.2687586524758
 30
0.0
 11
-146.331395195432
 21
158.9407677538163
 31
0.0
  0
ARC
  5
547
330
1F
100
AcDbEntity
  8
0
  6
Continuous
 62
     3
370
    13
100
AcDbCircle
 10
-137.5922963995223
 20
152.2603372111544
 30
0.0
 40
11.0
100
AcDbArc
 50
142.6046137427982
 51
217.5034389794493
  0
LINE
  5
548
330
1F
100
AcDbEntity
  8
0
  6
Continuous
 62
     3
370
    13
100
AcDbLine
 10
-146.3187812003955
 20
145.5634377031635
 30
0.0
 11
-143.0229484936622
 21
141.2687586524758
 31
0.0
  0
LINE
  5
549
330
1F
100
AcDbEntity
  8
0
  6
Continuous
 62
     3
370
    13
100
AcDbLine
 10
-143.0229484936622
 20
174.7687586524758
 30
0.0
 11
-143.0229484936622
 21
163.2687586524758
 31
0.0
  0
LINE
  5
54A
330
1F
100
AcDbEntity
  8
0
  6
Continuous
 62
     3
370
    13
100
AcDbLine
 10
-143.0229484936622
 20
141.2687586524758
 30
0.0
 11
-143.0229484936621
 21
48.26875865247592
 31
0.0
  0
LINE
  5
54B
330
1F
100
AcDbEntity
  8
0
  6
Continuous
 62
     3
370
    13
100
AcDbLine
 10
-143.022948493662
 20
200.7687586524758
 30
0.0
 11
-113.1149967987889
 21
200.7687586524755
 31
0.0
  0
LINE
  5
54C
330
1F
100
AcDbEntity
  8
0
  6
Continuous
 62
     3
370
    13
100
AcDbLine
 10
-143.022948493662
 20
192.7687586524758
 30
0.0
 11
-113.1149967987889
 21
192.7687586524755
 31
0.0
  0
LINE
  5
54D
330
1F
100
AcDbEntity
  8
0
  6
Continuous
 62
     3
370
    13
100
AcDbLine
 10
-143.0229484936619
 20
203.2687586524759
 30
0.0
 11
-143.022948493662
 21
200.7687586524758
 31
0.0
  0
LINE
  5
54E
330
1F
100
AcDbEntity
  8
0
  6
Continuous
 62
     3
370
    13
100
AcDbLine
 10
-143.022948493662
 20
192.7687586524758
 30
0.0
 11
-143.0229484936622
 21
175.7687586524758
 31
0.0
  0
LINE
  5
54F
330
1F
100
AcDbEntity
  8
0
  6
Continuous
 62
     3
370
    13
100
AcDbLine
 10
-143.022948493662
 20
200.7687586524758
 30
0.0
 11
-144.00901192218
 21
198.2381268650554
 31
0.0
  0
ARC
  5
550
330
1F
100
AcDbEntity
  8
0
  6
Continuous
 62
     3
370
    13
100
AcDbCircle
 10
-140.2819536657359
 20
196.7858745615379
 30
0.0
 40
4.0
100
AcDbArc
 50
158.7115703995999
 51
201.0301347805523
  0
LINE
  5
551
330
1F
100
AcDbEntity
  8
0
  6
Continuous
 62
     3
370
    13
100
AcDbLine
 10
-144.0155209191305
 20
195.3504388909556
 30
0.0
 11
-143.022948493662
 21
192.7687586524758
 31
0.0
  0
LINE
  5
552
330
1F
100
AcDbEntity
  8
0
  6
Continuous
 62
     3
370
    13
100
AcDbLine
 10
-143.0229484936622
 20
141.2687586524758
 30
0.0
 11
-66.02294849366197
 21
141.2687586524751
 31
0.0
  0
LINE
  5
553
330
1F
100
AcDbEntity
  8
0
  6
Continuous
 62
     3
370
    13
100
AcDbLine
 10
-48.02294849366197
 20
141.2687586524749
 30
0.0
 11
-45.11499679878874
 21
141.2687586524749
 31
0.0
  0
LINE
  5
554
330
1F
100
AcDbEntity
  8
0
  6
Continuous
 62
     3
370
    13
100
AcDbLine
 10
-66.02294849366197
 20
141.2687586524751
 30
0.0
 11
-61.58277740388522
 21
143.8373308019787
 31
0.0
  0
ARC
  5
555
330
1F
100
AcDbEntity
  8
0
  6
Continuous
 62
     3
370
    13
100
AcDbCircle
 10
-57.07614932209807
 20
136.0469326521761
 30
0.0
 40
9.0
100
AcDbArc
 50
60.53080674040571
 51
120.0487353460615
  0
LINE
  5
556
330
1F
100
AcDbEntity
  8
0
  6
Continuous
 62
     3
370
    13
100
AcDbLine
 10
-52.64854966980818
 20
143.8825156757323
 30
0.0
 11
-48.02294849366197
 21
141.2687586524749
 31
0.0
  0
LINE
  5
557
330
1F
100
AcDbEntity
  8
0
  6
Continuous
 62
     3
370
    13
100
AcDbLine
 10
-143.022948493662
 20
327.2093992868171
 30
0.0
 11
-113.1149967987889
 21
327.2093992868167
 31
0.0
  0
LINE
  5
558
330
1F
100
AcDbEntity
  8
0
  6
Continuous
 62
     3
370
    13
100
AcDbLine
 10
-143.022948493662
 20
319.2093992868171
 30
0.0
 11
-113.1149967987889
 21
319.2093992868167
 31
0.0
  0
LINE
  5
559
330
1F
100
AcDbEntity
  8
0
  6
Continuous
 62
     3
370
    13
100
AcDbLine
 10
-148.4547427609447
 20
334.2093992868171
 30
0.0
 11
-45.11499679878879
 21
334.2093992868161
 31
0.0
  0
LINE
  5
55A
330
1F
100
AcDbEntity
  8
0
  6
Continuous
 62
     3
370
    13
100
AcDbLine
 10
-45.11499679878879
 20
334.2093992868161
 30
0.0
 11
-45.11499679878874
 21
312.2093992868161
 31
0.0
  0
LINE
  5
55B
330
1F
100
AcDbEntity
  8
0
  6
Continuous
 62
     3
370
    13
100
AcDbLine
 10
-148.4547427609449
 20
312.2093992868171
 30
0.0
 11
-45.11499679878888
 21
312.2093992868161
 31
0.0
  0
CIRCLE
  5
55C
330
1F
100
AcDbEntity
  8
0
  6
Continuous
 62
     3
370
    13
100
AcDbCircle
 10
-157.1149967987892
 20
323.2093992868172
 30
0.0
 40
14.0
  0
LINE
  5
55D
330
1F
100
AcDbEntity
  8
0
  6
Continuous
 62
     3
370
    13
100
AcDbLine
 10
-113.1149967987889
 20
200.7687586524755
 30
0.0
 11
-113.1149967987889
 21
192.7687586524755
 31
0.0
  0
LINE
  5
55E
330
1F
100
AcDbEntity
  8
0
  6
Continuous
 62
     3
370
    13
100
AcDbLine
 10
-113.1149967987889
 20
327.2093992868167
 30
0.0
 11
-113.1149967987889
 21
319.2093992868167
 31
0.0
  0
LINE
  5
55F
330
1F
100
AcDbEntity
  8
0
  6
Continuous
 62
     3
370
    13
100
AcDbLine
 10
-136.1149967987884
 20
21.54903237685591
 30
0.0
 11
-136.1149967987884
 21
20.54903237685591
 31
0.0
  0
LINE
  5
560
330
1F
100
AcDbEntity
  8
0
  6
Continuous
 62
     3
370
    13
100
AcDbLine
 10
-134.6149967987884
 20
20.5490323768561
 30
0.0
 11
-134.6149967987884
 21
19.54903237685585
 31
0.0
  0
LINE
  5
561
330
1F
100
AcDbEntity
  8
0
  6
Continuous
 62
     3
370
    13
100
AcDbLine
 10
-179.6149967987884
 20
20.5490323768561
 30
0.0
 11
-179.6149967987884
 21
19.54903237685615
 31
0.0
  0
LINE
  5
562
330
1F
100
AcDbEntity
  8
0
  6
Continuous
 62
     3
370
    13
100
AcDbLine
 10
-178.1149967987884
 20
21.5490323768563
 30
0.0
 11
-178.1149967987884
 21
20.5490323768563
 31
0.0
  0
LINE
  5
563
330
1F
100
AcDbEntity
  8
0
  6
Continuous
 62
     3
370
    13
100
AcDbLine
 10
162.7322462194036
 20
21.54903237685591
 30
0.0
 11
162.7322462194036
 21
20.54903237685591
 31
0.0
  0
LINE
  5
564
330
1F
100
AcDbEntity
  8
0
  6
Continuous
 62
     3
370
    13
100
AcDbLine
 10
164.2322462194036
 20
20.5490323768561
 30
0.0
 11
164.2322462194036
 21
19.54903237685585
 31
0.0
  0
LINE
  5
565
330
1F
100
AcDbEntity
  8
0
  6
Continuous
 62
     3
370
    13
100
AcDbLine
 10
119.2322462194036
 20
20.5490323768561
 30
0.0
 11
119.2322462194036
 21
19.54903237685615
 31
0.0
  0
LINE
  5
566
330
1F
100
AcDbEntity
  8
0
  6
Continuous
 62
     3
370
    13
100
AcDbLine
 10
120.7322462194036
 20
21.5490323768563
 30
0.0
 11
120.7322462194036
 21
20.5490323768563
 31
0.0
  0
LINE
  5
567
330
1F
100
AcDbEntity
  8
0
  6
Continuous
 62
     3
370
    13
100
AcDbLine
 10
164.2322462194036
 20
19.54903237685615
 30
0.0
 11
119.2322462194036
 21
19.54903237685615
 31
0.0
  0
LINE
  5
568
330
1F
100
AcDbEntity
  8
0
  6
CENTER
 62
     9
370
    13
100
AcDbLine
 10
134.6959866322732
 20
196.768758652476
 30
0.0
 11
150.1597270451425
 21
196.7687586524759
 31
0.0
  0
LINE
  5
569
330
1F
100
AcDbEntity
  8
0
  6
CENTER
 62
     9
370
    13
100
AcDbLine
 10
-164.0592080807913
 20
196.768758652476
 30
0.0
 11
-111.5058110207125
 21
196.7687586524755
 31
0.0
  0
LINE
  5
56A
330
1F
100
AcDbEntity
  8
0
  6
CENTER
 62
     9
370
    13
100
AcDbLine
 10
-57.1149967987887
 20
129.0209188329055
 30
0.0
 11
-57.11499679878883
 21
177.1720940633892
 31
0.0
  0
LINE
  5
56B
330
1F
100
AcDbEntity
  8
0
  6
CENTER
 62
     9
370
    13
100
AcDbLine
 10
-178.3485887794594
 20
323.2093992868174
 30
0.0
 11
-40.83842961996396
 21
323.2093992868161
 31
0.0
  0
TEXT
  5
56C
330
1F
100
AcDbEntity
  8
0
 62
     7
100
AcDbText
 10
-103.8986654200398
 20
335.6511089285153
 30
0.0
 40
10.5
  1
閉
 41
1.120000000000001
  7
dcStyle0
 72
     5
 11
-95.49866542003981
 21
335.6511089285153
 31
0.0
100
AcDbText
  0
TEXT
  5
56D
330
1F
100
AcDbEntity
  8
0
 62
     7
100
AcDbText
 10
-155.8046110209604
 20
377.4642317737013
 30
0.0
 40
10.5
  1
開
 41
1.120000000000001
  7
dcStyle0
 72
     5
 11
-147.4046110209603
 21
377.4642317737013
 31
0.0
100
AcDbText
  0
VIEWPORT
  5
76
330
1B
100
AcDbEntity
 67
     1
  8
0
100
AcDbViewport
 10
-0.034684640994783
 20
3.000000000000114
 30
0.0
 40
1980.208107845971
 41
2763.000000000001
 68
     1
 69
     1
 12
-0.034684640994783
 22
3.000000000000114
 13
0.0
 23
0.0
 14
0.5
 24
0.5
 15
0.0
 25
0.0
 16
0.0
 26
0.0
 36
1.0
 17
0.0
 27
0.0
 37
0.0
 42
50.0
 43
0.0
 44
0.0
 45
2763.000000000001
 50
0.0
 51
0.0
 72
   100
 90
   557152
  1

281
     0
 71
     1
 74
     0
110
0.0
120
0.0
130
0.0
111
1.0
121
0.0
131
0.0
112
0.0
122
1.0
132
0.0
 79
     0
146
0.0
  0
ENDSEC
  0
SECTION
  2
OBJECTS
  0
DICTIONARY
  5
C
330
0
100
AcDbDictionary
281
     1
  3
ACAD_GROUP
350
D
  3
ACAD_LAYOUT
350
1A
  3
ACAD_MATERIAL
350
3B
  3
ACAD_MLEADERSTYLE
350
592
  3
ACAD_MLINESTYLE
350
17
  3
ACAD_PLOTSETTINGS
350
19
  3
ACAD_PLOTSTYLENAME
350
E
  3
ACAD_SCALELIST
350
56E
  3
ACAD_VISUALSTYLE
350
2A
  3
AcDbVariableDictionary
350
590
  0
DICTIONARY
  5
D
102
{ACAD_REACTORS
330
C
102
}
330
C
100
AcDbDictionary
281
     1
  0
DICTIONARY
  5
1A
102
{ACAD_REACTORS
330
C
102
}
330
C
100
AcDbDictionary
281
     1
  3
Layout1
350
1E
  3
Layout2
350
26
  3
Model
350
22
  0
DICTIONARY
  5
3B
102
{ACAD_REACTORS
330
C
102
}
330
C
100
AcDbDictionary
281
     1
  3
ByBlock
350
3D
  3
ByLayer
350
3C
  3
Global
350
3E
  0
DICTIONARY
  5
592
102
{ACAD_REACTORS
330
C
102
}
330
C
100
AcDbDictionary
281
     1
  0
DICTIONARY
  5
17
102
{ACAD_REACTORS
330
C
102
}
330
C
100
AcDbDictionary
281
     1
  3
Standard
350
18
  0
DICTIONARY
  5
19
102
{ACAD_REACTORS
330
C
102
}
330
C
100
AcDbDictionary
281
     1
  0
ACDBDICTIONARYWDFLT
  5
E
102
{ACAD_REACTORS
330
C
102
}
330
C
100
AcDbDictionary
281
     1
  3
Normal
350
F
100
AcDbDictionaryWithDefault
340
F
  0
DICTIONARY
  5
56E
102
{ACAD_REACTORS
330
C
102
}
330
C
100
AcDbDictionary
281
     1
  3
A0
350
56F
  3
A1
350
570
  3
A2
350
571
  3
A3
350
572
  3
A4
350
573
  3
A5
350
574
  3
A6
350
575
  3
A7
350
576
  3
A8
350
577
  3
A9
350
578
  3
B0
350
579
  3
B1
350
57A
  3
B2
350
57B
  3
B3
350
57C
  3
B4
350
57D
  3
B5
350
57E
  3
B6
350
57F
  3
B7
350
580
  3
B8
350
581
  3
B9
350
582
  3
C0
350
583
  3
C1
350
584
  3
C2
350
585
  3
C3
350
586
  3
C4
350
587
  3
C5
350
588
  3
C6
350
589
  3
C7
350
58A
  3
C8
350
58B
  3
C9
350
58C
  3
D0
350
58D
  3
D1
350
58E
  3
D2
350
58F
  0
DICTIONARY
  5
2A
102
{ACAD_REACTORS
330
C
102
}
330
C
100
AcDbDictionary
281
     1
  3
2dWireframe
350
2F
  3
3D Hidden
350
31
  3
3dWireframe
350
30
  3
Basic
350
32
  3
Brighten
350
36
  3
ColorChange
350
3A
  3
Conceptual
350
34
  3
Dim
350
35
  3
Facepattern
350
39
  3
Flat
350
2B
  3
FlatWithEdges
350
2C
  3
Gouraud
350
2D
  3
GouraudWithEdges
350
2E
  3
Linepattern
350
38
  3
Realistic
350
33
  3
Thicken
350
37
  0
DICTIONARY
  5
590
102
{ACAD_REACTORS
330
C
102
}
330
C
100
AcDbDictionary
281
     1
  3
CANNOSCALE
350
593
  3
DIMASSOC
350
594
  3
HIDETEXT
350
595
  0
LAYOUT
  5
1E
102
{ACAD_REACTORS
330
1A
102
}
330
1A
100
AcDbPlotSettings
  1

  2
none_device
  4

  6

 40
0.0
 41
0.0
 42
0.0
 43
0.0
 44
0.0
 45
0.0
 46
0.0
 47
0.0
 48
0.0
 49
0.0
140
0.0
141
0.0
142
1.0
143
1.0
 70
   688
 72
     0
 73
     0
 74
     5
  7

 75
    16
147
1.0
148
0.0
149
0.0
100
AcDbLayout
  1
Layout1
 70
     0
 71
     1
 10
0.0
 20
0.0
 11
12.0
 21
9.0
 12
0.0
 22
0.0
 32
0.0
 14
1.000000000000000E+20
 24
1.000000000000000E+20
 34
1.000000000000000E+20
 15
-1.000000000000000E+20
 25
-1.000000000000000E+20
 35
-1.000000000000000E+20
146
0.0
 13
0.0
 23
0.0
 33
0.0
 16
1.0
 26
0.0
 36
0.0
 17
0.0
 27
1.0
 37
0.0
 76
     0
330
1B
331
76
  0
LAYOUT
  5
26
102
{ACAD_REACTORS
330
1A
102
}
330
1A
100
AcDbPlotSettings
  1

  2
none_device
  4

  6

 40
0.0
 41
0.0
 42
0.0
 43
0.0
 44
0.0
 45
0.0
 46
0.0
 47
0.0
 48
0.0
 49
0.0
140
0.0
141
0.0
142
1.0
143
1.0
 70
   688
 72
     0
 73
     0
 74
     5
  7

 75
    16
147
1.0
148
0.0
149
0.0
100
AcDbLayout
  1
Layout2
 70
     1
 71
     2
 10
0.0
 20
0.0
 11
0.0
 21
0.0
 12
0.0
 22
0.0
 32
0.0
 14
0.0
 24
0.0
 34
0.0
 15
0.0
 25
0.0
 35
0.0
146
0.0
 13
0.0
 23
0.0
 33
0.0
 16
1.0
 26
0.0
 36
0.0
 17
0.0
 27
1.0
 37
0.0
 76
     0
330
23
  0
LAYOUT
  5
22
102
{ACAD_REACTORS
330
1A
102
}
330
1A
100
AcDbPlotSettings
  1

  2
none_device
  4

  6

 40
0.0
 41
0.0
 42
0.0
 43
0.0
 44
0.0
 45
0.0
 46
0.0
 47
0.0
 48
0.0
 49
0.0
140
0.0
141
0.0
142
1.0
143
1.0
 70
  1712
 72
     0
 73
     0
 74
     0
  7

 75
     0
147
1.0
148
0.0
149
0.0
100
AcDbLayout
  1
Model
 70
     1
 71
     0
 10
-315.0
 20
-445.5
 11
315.0
 21
445.5
 12
0.0
 22
0.0
 32
0.0
 14
-990.1387385639802
 24
-1378.5
 34
0.0
 15
990.0693692819906
 25
1384.5
 35
0.0
146
0.0
 13
0.0
 23
0.0
 33
0.0
 16
1.0
 26
0.0
 36
0.0
 17
0.0
 27
1.0
 37
0.0
 76
     0
330
1F
331
29
  0
MATERIAL
  5
3D
102
{ACAD_REACTORS
330
3B
102
}
102
{ACAD_XDICTIONARY
360
5B9
102
}
330
3B
100
AcDbMaterial
  1
ByBlock
  0
MATERIAL
  5
3C
102
{ACAD_REACTORS
330
3B
102
}
102
{ACAD_XDICTIONARY
360
5B7
102
}
330
3B
100
AcDbMaterial
  1
ByLayer
  0
MATERIAL
  5
3E
102
{ACAD_REACTORS
330
3B
102
}
102
{ACAD_XDICTIONARY
360
5BB
102
}
330
3B
100
AcDbMaterial
  1
Global
  0
MLINESTYLE
  5
18
102
{ACAD_REACTORS
330
17
102
}
330
17
100
AcDbMlineStyle
  2
Standard
 70
     0
  3

 62
   256
 51
90.0
 52
90.0
 71
     2
 49
0.5
 62
   256
  6
BYLAYER
 49
-0.5
 62
   256
  6
BYLAYER
  0
ACDBPLACEHOLDER
  5
F
102
{ACAD_REACTORS
330
E
102
}
330
E
  0
SCALE
  5
56F
102
{ACAD_REACTORS
330
56E
102
}
330
56E
100
AcDbScale
 70
     0
300
1:1
140
1.0
141
1.0
290
     1
  0
SCALE
  5
570
102
{ACAD_REACTORS
330
56E
102
}
330
56E
100
AcDbScale
 70
     0
300
1:2
140
1.0
141
2.0
290
     0
  0
SCALE
  5
571
102
{ACAD_REACTORS
330
56E
102
}
330
56E
100
AcDbScale
 70
     0
300
1:4
140
1.0
141
4.0
290
     0
  0
SCALE
  5
572
102
{ACAD_REACTORS
330
56E
102
}
330
56E
100
AcDbScale
 70
     0
300
1:5
140
1.0
141
5.0
290
     0
  0
SCALE
  5
573
102
{ACAD_REACTORS
330
56E
102
}
330
56E
100
AcDbScale
 70
     0
300
1:8
140
1.0
141
8.0
290
     0
  0
SCALE
  5
574
102
{ACAD_REACTORS
330
56E
102
}
330
56E
100
AcDbScale
 70
     0
300
1:10
140
1.0
141
10.0
290
     0
  0
SCALE
  5
575
102
{ACAD_REACTORS
330
56E
102
}
330
56E
100
AcDbScale
 70
     0
300
1:16
140
1.0
141
16.0
290
     0
  0
SCALE
  5
576
102
{ACAD_REACTORS
330
56E
102
}
330
56E
100
AcDbScale
 70
     0
300
1:20
140
1.0
141
20.0
290
     0
  0
SCALE
  5
577
102
{ACAD_REACTORS
330
56E
102
}
330
56E
100
AcDbScale
 70
     0
300
1:30
140
1.0
141
30.0
290
     0
  0
SCALE
  5
578
102
{ACAD_REACTORS
330
56E
102
}
330
56E
100
AcDbScale
 70
     0
300
1:40
140
1.0
141
40.0
290
     0
  0
SCALE
  5
579
102
{ACAD_REACTORS
330
56E
102
}
330
56E
100
AcDbScale
 70
     0
300
1:50
140
1.0
141
50.0
290
     0
  0
SCALE
  5
57A
102
{ACAD_REACTORS
330
56E
102
}
330
56E
100
AcDbScale
 70
     0
300
1:100
140
1.0
141
100.0
290
     0
  0
SCALE
  5
57B
102
{ACAD_REACTORS
330
56E
102
}
330
56E
100
AcDbScale
 70
     0
300
2:1
140
2.0
141
1.0
290
     0
  0
SCALE
  5
57C
102
{ACAD_REACTORS
330
56E
102
}
330
56E
100
AcDbScale
 70
     0
300
4:1
140
4.0
141
1.0
290
     0
  0
SCALE
  5
57D
102
{ACAD_REACTORS
330
56E
102
}
330
56E
100
AcDbScale
 70
     0
300
8:1
140
8.0
141
1.0
290
     0
  0
SCALE
  5
57E
102
{ACAD_REACTORS
330
56E
102
}
330
56E
100
AcDbScale
 70
     0
300
10:1
140
10.0
141
1.0
290
     0
  0
SCALE
  5
57F
102
{ACAD_REACTORS
330
56E
102
}
330
56E
100
AcDbScale
 70
     0
300
100:1
140
100.0
141
1.0
290
     0
  0
SCALE
  5
580
102
{ACAD_REACTORS
330
56E
102
}
330
56E
100
AcDbScale
 70
     0
300
1/128" = 1'-0"
140
0.0078125
141
12.0
290
     0
  0
SCALE
  5
581
102
{ACAD_REACTORS
330
56E
102
}
330
56E
100
AcDbScale
 70
     0
300
1/64" = 1'-0"
140
0.015625
141
12.0
290
     0
  0
SCALE
  5
582
102
{ACAD_REACTORS
330
56E
102
}
330
56E
100
AcDbScale
 70
     0
300
1/32" = 1'-0"
140
0.03125
141
12.0
290
     0
  0
SCALE
  5
583
102
{ACAD_REACTORS
330
56E
102
}
330
56E
100
AcDbScale
 70
     0
300
1/16" = 1'-0"
140
0.0625
141
12.0
290
     0
  0
SCALE
  5
584
102
{ACAD_REACTORS
330
56E
102
}
330
56E
100
AcDbScale
 70
     0
300
3/32" = 1'-0"
140
0.09375
141
12.0
290
     0
  0
SCALE
  5
585
102
{ACAD_REACTORS
330
56E
102
}
330
56E
100
AcDbScale
 70
     0
300
1/8" = 1'-0"
140
0.125
141
12.0
290
     0
  0
SCALE
  5
586
102
{ACAD_REACTORS
330
56E
102
}
330
56E
100
AcDbScale
 70
     0
300
3/16" = 1'-0"
140
0.1875
141
12.0
290
     0
  0
SCALE
  5
587
102
{ACAD_REACTORS
330
56E
102
}
330
56E
100
AcDbScale
 70
     0
300
1/4" = 1'-0"
140
0.25
141
12.0
290
     0
  0
SCALE
  5
588
102
{ACAD_REACTORS
330
56E
102
}
330
56E
100
AcDbScale
 70
     0
300
3/8" = 1'-0"
140
0.375
141
12.0
290
     0
  0
SCALE
  5
589
102
{ACAD_REACTORS
330
56E
102
}
330
56E
100
AcDbScale
 70
     0
300
1/2" = 1'-0"
140
0.5
141
12.0
290
     0
  0
SCALE
  5
58A
102
{ACAD_REACTORS
330
56E
102
}
330
56E
100
AcDbScale
 70
     0
300
3/4" = 1'-0"
140
0.75
141
12.0
290
     0
  0
SCALE
  5
58B
102
{ACAD_REACTORS
330
56E
102
}
330
56E
100
AcDbScale
 70
     0
300
1" = 1'-0"
140
1.0
141
12.0
290
     0
  0
SCALE
  5
58C
102
{ACAD_REACTORS
330
56E
102
}
330
56E
100
AcDbScale
 70
     0
300
1-1/2" = 1'-0"
140
1.5
141
12.0
290
     0
  0
SCALE
  5
58D
102
{ACAD_REACTORS
330
56E
102
}
330
56E
100
AcDbScale
 70
     0
300
3" = 1'-0"
140
3.0
141
12.0
290
     0
  0
SCALE
  5
58E
102
{ACAD_REACTORS
330
56E
102
}
330
56E
100
AcDbScale
 70
     0
300
6" = 1'-0"
140
6.0
141
12.0
290
     0
  0
SCALE
  5
58F
102
{ACAD_REACTORS
330
56E
102
}
330
56E
100
AcDbScale
 70
     0
300
1'-0" = 1'-0"
140
12.0
141
12.0
290
     0
  0
VISUALSTYLE
  5
2F
102
{ACAD_REACTORS
330
2A
102
}
102
{ACAD_XDICTIONARY
360
59F
102
}
330
2A
100
AcDbVisualStyle
  2
2dWireframe
 70
     4
 71
     0
 72
     2
 73
     0
 90
        0
 40
-0.6
 41
-30.0
 62
     5
 63
     7
 74
     1
 91
        4
 64
     7
 65
   257
 75
     1
175
     1
 42
1.0
 92
        0
 66
   257
 43
1.0
 76
     1
 77
     6
 78
     2
 67
     7
 79
     5
170
     0
171
     0
290
     0
174
     0
 93
        1
 44
0.0
173
     0
291
     0
 45
0.0
1001
ACAD
1000
AcDbSavedByObjectVersion
1070
     0
  0
VISUALSTYLE
  5
31
102
{ACAD_REACTORS
330
2A
102
}
102
{ACAD_XDICTIONARY
360
5A3
102
}
330
2A
100
AcDbVisualStyle
  2
3D Hidden
 70
     6
 71
     1
 72
     2
 73
     2
 90
        0
 40
-0.6
 41
-30.0
 62
     5
 63
     7
 74
     2
 91
        2
 64
     7
 65
   257
 75
     2
175
     1
 42
40.0
 92
        0
 66
   257
 43
1.0
 76
     1
 77
     6
 78
     2
 67
     7
 79
     3
170
     0
171
     0
290
     0
174
     0
 93
        1
 44
0.0
173
     0
291
     0
 45
0.0
1001
ACAD
1000
AcDbSavedByObjectVersion
1070
     0
  0
VISUALSTYLE
  5
30
102
{ACAD_REACTORS
330
2A
102
}
102
{ACAD_XDICTIONARY
360
5A1
102
}
330
2A
100
AcDbVisualStyle
  2
3dWireframe
 70
     5
 71
     0
 72
     2
 73
     0
 90
        0
 40
-0.6
 41
-30.0
 62
     5
 63
     7
 74
     1
 91
        4
 64
     7
 65
   257
 75
     1
175
     1
 42
1.0
 92
        0
 66
   257
 43
1.0
 76
     1
 77
     6
 78
     2
 67
     7
 79
     5
170
     0
171
     0
290
     0
174
     0
 93
        1
 44
0.0
173
     0
291
     0
 45
0.0
1001
ACAD
1000
AcDbSavedByObjectVersion
1070
     0
  0
VISUALSTYLE
  5
32
102
{ACAD_REACTORS
330
2A
102
}
102
{ACAD_XDICTIONARY
360
5A5
102
}
330
2A
100
AcDbVisualStyle
  2
Basic
 70
     7
 71
     1
 72
     0
 73
     1
 90
        0
 40
-0.6
 41
-30.0
 62
     5
 63
     7
 74
     0
 91
        4
 64
     7
 65
   257
 75
     1
175
     1
 42
1.0
 92
        8
 66
     7
 43
1.0
 76
     1
 77
     6
 78
     2
 67
     7
 79
     5
170
     0
171
     0
290
     0
174
     0
 93
        1
 44
0.0
173
     0
291
     1
 45
0.0
1001
ACAD
1000
AcDbSavedByObjectVersion
1070
     0
  0
VISUALSTYLE
  5
36
102
{ACAD_REACTORS
330
2A
102
}
102
{ACAD_XDICTIONARY
360
5AD
102
}
330
2A
100
AcDbVisualStyle
  2
Brighten
 70
    12
 71
     2
 72
     2
 73
     0
 90
        0
 40
-0.6
 41
-30.0
 62
     5
 63
     7
 74
     1
 91
        4
 64
     7
 65
   257
 75
     1
175
     1
 42
1.0
 92
        8
 66
     7
 43
1.0
 76
     1
 77
     6
 78
     2
 67
     7
 79
     5
170
     0
171
     0
290
     0
174
     0
 93
        1
 44
50.0
173
     0
291
     1
 45
0.0
1001
ACAD
1000
AcDbSavedByObjectVersion
1070
     0
  0
VISUALSTYLE
  5
3A
102
{ACAD_REACTORS
330
2A
102
}
102
{ACAD_XDICTIONARY
360
5B5
102
}
330
2A
100
AcDbVisualStyle
  2
ColorChange
 70
    16
 71
     2
 72
     2
 73
     3
 90
        0
 40
-0.6
 41
-30.0
 62
     5
 63
     8
 74
     1
 91
        4
 64
     7
 65
   257
 75
     1
175
     1
 42
1.0
 92
        8
 66
     8
 43
1.0
 76
     1
 77
     6
 78
     2
 67
     7
 79
     5
170
     0
171
     0
290
     0
174
     0
 93
        1
 44
0.0
173
     0
291
     1
 45
0.0
1001
ACAD
1000
AcDbSavedByObjectVersion
1070
     0
  0
VISUALSTYLE
  5
34
102
{ACAD_REACTORS
330
2A
102
}
102
{ACAD_XDICTIONARY
360
5A9
102
}
330
2A
100
AcDbVisualStyle
  2
Conceptual
 70
     9
 71
     3
 72
     2
 73
     0
 90
        0
 40
-0.6
 41
-30.0
 62
     5
 63
     7
 74
     2
 91
        2
 64
     7
 65
   257
 75
     1
175
     1
 42
40.0
 92
        8
 66
     7
 43
1.0
 76
     1
 77
     6
 78
     2
 67
     7
 79
     3
170
     0
171
     0
290
     0
174
     0
 93
        1
 44
0.0
173
     0
291
     0
 45
0.0
1001
ACAD
1000
AcDbSavedByObjectVersion
1070
     0
  0
VISUALSTYLE
  5
35
102
{ACAD_REACTORS
330
2A
102
}
102
{ACAD_XDICTIONARY
360
5AB
102
}
330
2A
100
AcDbVisualStyle
  2
Dim
 70
    11
 71
     2
 72
     2
 73
     0
 90
        0
 40
-0.6
 41
-30.0
 62
     5
 63
     7
 74
     1
 91
        4
 64
     7
 65
   257
 75
     1
175
     1
 42
1.0
 92
        8
 66
     7
 43
1.0
 76
     1
 77
     6
 78
     2
 67
     7
 79
     5
170
     0
171
     0
290
     0
174
     0
 93
        1
 44
-50.0
173
     0
291
     1
 45
0.0
1001
ACAD
1000
AcDbSavedByObjectVersion
1070
     0
  0
VISUALSTYLE
  5
39
102
{ACAD_REACTORS
330
2A
102
}
102
{ACAD_XDICTIONARY
360
5B3
102
}
330
2A
100
AcDbVisualStyle
  2
Facepattern
 70
    15
 71
     2
 72
     2
 73
     0
 90
        0
 40
-0.6
 41
-30.0
 62
     5
 63
     7
 74
     1
 91
        4
 64
     7
 65
   257
 75
     1
175
     1
 42
1.0
 92
        8
 66
     7
 43
1.0
 76
     1
 77
     6
 78
     2
 67
     7
 79
     5
170
     0
171
     0
290
     0
174
     0
 93
        1
 44
0.0
173
     0
291
     1
 45
0.0
1001
ACAD
1000
AcDbSavedByObjectVersion
1070
     0
  0
VISUALSTYLE
  5
2B
102
{ACAD_REACTORS
330
2A
102
}
102
{ACAD_XDICTIONARY
360
597
102
}
330
2A
100
AcDbVisualStyle
  2
Flat
 70
     0
 71
     2
 72
     1
 73
     1
 90
        2
 40
-0.6
 41
30.0
 62
     5
 63
     7
 74
     0
 91
        4
 64
     7
 65
   257
 75
     1
175
     1
 42
1.0
 92
        8
 66
     7
 43
1.0
 76
     1
 77
     6
 78
     2
 67
     7
 79
     5
170
     0
171
     0
290
     0
174
     0
 93
       13
 44
0.0
173
     0
291
     1
 45
0.0
1001
ACAD
1000
AcDbSavedByObjectVersion
1070
     0
  0
VISUALSTYLE
  5
2C
102
{ACAD_REACTORS
330
2A
102
}
102
{ACAD_XDICTIONARY
360
599
102
}
330
2A
100
AcDbVisualStyle
  2
FlatWithEdges
 70
     1
 71
     2
 72
     1
 73
     1
 90
        2
 40
-0.6
 41
30.0
 62
     5
 63
     7
 74
     1
 91
        4
 64
     7
 65
   257
 75
     1
175
     1
 42
1.0
 92
        0
 66
   257
 43
1.0
 76
     1
 77
     6
 78
     2
 67
     7
 79
     5
170
     0
171
     0
290
     0
174
     0
 93
       13
 44
0.0
173
     0
291
     1
 45
0.0
1001
ACAD
1000
AcDbSavedByObjectVersion
1070
     0
  0
VISUALSTYLE
  5
2D
102
{ACAD_REACTORS
330
2A
102
}
102
{ACAD_XDICTIONARY
360
59B
102
}
330
2A
100
AcDbVisualStyle
  2
Gouraud
 70
     2
 71
     2
 72
     2
 73
     1
 90
        2
 40
-0.6
 41
30.0
 62
     5
 63
     7
 74
     0
 91
        4
 64
     7
 65
   257
 75
     1
175
     1
 42
1.0
 92
        0
 66
     7
 43
1.0
 76
     1
 77
     6
 78
     2
 67
     7
 79
     5
170
     0
171
     0
290
     0
174
     0
 93
       13
 44
0.0
173
     0
291
     1
 45
0.0
1001
ACAD
1000
AcDbSavedByObjectVersion
1070
     0
  0
VISUALSTYLE
  5
2E
102
{ACAD_REACTORS
330
2A
102
}
102
{ACAD_XDICTIONARY
360
59D
102
}
330
2A
100
AcDbVisualStyle
  2
GouraudWithEdges
 70
     3
 71
     2
 72
     2
 73
     1
 90
        2
 40
-0.6
 41
30.0
 62
     5
 63
     7
 74
     1
 91
        4
 64
     7
 65
   257
 75
     1
175
     1
 42
1.0
 92
        0
 66
   257
 43
1.0
 76
     1
 77
     6
 78
     2
 67
     7
 79
     5
170
     0
171
     0
290
     0
174
     0
 93
       13
 44
0.0
173
     0
291
     1
 45
0.0
1001
ACAD
1000
AcDbSavedByObjectVersion
1070
     0
  0
VISUALSTYLE
  5
38
102
{ACAD_REACTORS
330
2A
102
}
102
{ACAD_XDICTIONARY
360
5B1
102
}
330
2A
100
AcDbVisualStyle
  2
Linepattern
 70
    14
 71
     2
 72
     2
 73
     0
 90
        0
 40
-0.6
 41
-30.0
 62
     5
 63
     7
 74
     1
 91
        4
 64
     7
 65
   257
 75
     7
175
     7
 42
1.0
 92
        8
 66
     7
 43
1.0
 76
     1
 77
     6
 78
     2
 67
     7
 79
     5
170
     0
171
     0
290
     0
174
     0
 93
        1
 44
0.0
173
     0
291
     1
 45
0.0
1001
ACAD
1000
AcDbSavedByObjectVersion
1070
     0
  0
VISUALSTYLE
  5
33
102
{ACAD_REACTORS
330
2A
102
}
102
{ACAD_XDICTIONARY
360
5A7
102
}
330
2A
100
AcDbVisualStyle
  2
Realistic
 70
     8
 71
     2
 72
     2
 73
     0
 90
        0
 40
-0.6
 41
-30.0
 62
     5
 63
     7
 74
     1
 91
        0
 64
     7
 65
   257
 75
     1
175
     1
 42
1.0
 92
        8
 66
     8
 43
1.0
 76
     1
 77
     6
 78
     2
 67
     7
 79
     5
170
     0
171
     0
290
     0
174
     0
 93
       13
 44
0.0
173
     0
291
     0
 45
0.0
1001
ACAD
1000
AcDbSavedByObjectVersion
1070
     0
  0
VISUALSTYLE
  5
37
102
{ACAD_REACTORS
330
2A
102
}
102
{ACAD_XDICTIONARY
360
5AF
102
}
330
2A
100
AcDbVisualStyle
  2
Thicken
 70
    13
 71
     2
 72
     2
 73
     0
 90
        0
 40
-0.6
 41
-30.0
 62
     5
 63
     7
 74
     1
 91
        4
 64
     7
 65
   257
 75
     1
175
     1
 42
1.0
 92
       12
 66
     7
 43
1.0
 76
     1
 77
     6
 78
     2
 67
     7
 79
     5
170
     0
171
     0
290
     0
174
     0
 93
        1
 44
0.0
173
     0
291
     1
 45
0.0
1001
ACAD
1000
AcDbSavedByObjectVersion
1070
     0
  0
DICTIONARYVAR
  5
593
102
{ACAD_REACTORS
330
590
102
}
330
590
100
DictionaryVariables
280
     0
  1
1:1
  0
DICTIONARYVAR
  5
594
102
{ACAD_REACTORS
330
590
102
}
330
590
100
DictionaryVariables
280
     0
  1
2
  0
DICTIONARYVAR
  5
595
102
{ACAD_REACTORS
330
590
102
}
330
590
100
DictionaryVariables
280
     0
  1
1
  0
DICTIONARY
  5
5B9
330
3D
100
AcDbDictionary
280
     1
281
     1
  3
ACAD_XREC_ROUNDTRIP
360
5BA
  0
DICTIONARY
  5
5B7
330
3C
100
AcDbDictionary
280
     1
281
     1
  3
ACAD_XREC_ROUNDTRIP
360
5B8
  0
DICTIONARY
  5
5BB
330
3E
100
AcDbDictionary
280
     1
281
     1
  3
ACAD_XREC_ROUNDTRIP
360
5BC
  0
DICTIONARY
  5
59F
330
2F
100
AcDbDictionary
280
     1
281
     1
  3
ACAD_XREC_ROUNDTRIP
360
5A0
  0
DICTIONARY
  5
5A3
330
31
100
AcDbDictionary
280
     1
281
     1
  3
ACAD_XREC_ROUNDTRIP
360
5A4
  0
DICTIONARY
  5
5A1
330
30
100
AcDbDictionary
280
     1
281
     1
  3
ACAD_XREC_ROUNDTRIP
360
5A2
  0
DICTIONARY
  5
5A5
330
32
100
AcDbDictionary
280
     1
281
     1
  3
ACAD_XREC_ROUNDTRIP
360
5A6
  0
DICTIONARY
  5
5AD
330
36
100
AcDbDictionary
280
     1
281
     1
  3
ACAD_XREC_ROUNDTRIP
360
5AE
  0
DICTIONARY
  5
5B5
330
3A
100
AcDbDictionary
280
     1
281
     1
  3
ACAD_XREC_ROUNDTRIP
360
5B6
  0
DICTIONARY
  5
5A9
330
34
100
AcDbDictionary
280
     1
281
     1
  3
ACAD_XREC_ROUNDTRIP
360
5AA
  0
DICTIONARY
  5
5AB
330
35
100
AcDbDictionary
280
     1
281
     1
  3
ACAD_XREC_ROUNDTRIP
360
5AC
  0
DICTIONARY
  5
5B3
330
39
100
AcDbDictionary
280
     1
281
     1
  3
ACAD_XREC_ROUNDTRIP
360
5B4
  0
DICTIONARY
  5
597
330
2B
100
AcDbDictionary
280
     1
281
     1
  3
ACAD_XREC_ROUNDTRIP
360
598
  0
DICTIONARY
  5
599
330
2C
100
AcDbDictionary
280
     1
281
     1
  3
ACAD_XREC_ROUNDTRIP
360
59A
  0
DICTIONARY
  5
59B
330
2D
100
AcDbDictionary
280
     1
281
     1
  3
ACAD_XREC_ROUNDTRIP
360
59C
  0
DICTIONARY
  5
59D
330
2E
100
AcDbDictionary
280
     1
281
     1
  3
ACAD_XREC_ROUNDTRIP
360
59E
  0
DICTIONARY
  5
5B1
330
38
100
AcDbDictionary
280
     1
281
     1
  3
ACAD_XREC_ROUNDTRIP
360
5B2
  0
DICTIONARY
  5
5A7
330
33
100
AcDbDictionary
280
     1
281
     1
  3
ACAD_XREC_ROUNDTRIP
360
5A8
  0
DICTIONARY
  5
5AF
330
37
100
AcDbDictionary
280
     1
281
     1
  3
ACAD_XREC_ROUNDTRIP
360
5B0
  0
XRECORD
  5
5BA
102
{ACAD_REACTORS
330
5B9
102
}
330
5B9
100
AcDbXrecord
280
     1
102
MATERIAL
148
0.0
149
0.0
149
0.0
 93
        0
 94
      127
282
     0
 72
     1
 77
     1
171
     1
175
     1
179
     1
273
     0
  0
XRECORD
  5
5B8
102
{ACAD_REACTORS
330
5B7
102
}
330
5B7
100
AcDbXrecord
280
     1
102
MATERIAL
148
0.0
149
0.0
149
0.0
 93
        0
 94
      127
282
     0
 72
     1
 77
     1
171
     1
175
     1
179
     1
273
     0
  0
XRECORD
  5
5BC
102
{ACAD_REACTORS
330
5BB
102
}
330
5BB
100
AcDbXrecord
280
     1
102
MATERIAL
148
0.0
149
0.0
149
0.0
 93
        0
 94
      127
282
     0
 72
     1
 77
     1
171
     1
175
     1
179
     1
273
     0
  0
XRECORD
  5
5A0
102
{ACAD_REACTORS
330
59F
102
}
330
59F
100
AcDbXrecord
280
     1
102
RTVSPropertyOp0
 70
     1
102
RTVSPropertyOp1
 70
     1
102
RTVSPropertyOp2
 70
     1
102
RTVSPropertyOp3
 70
     1
102
RTVSPropertyOp4
 70
     1
102
RTVSPropertyOp5
 70
     1
102
RTVSPropertyOp6
 70
     1
102
RTVSPropertyOp7
 70
     1
102
RTVSPropertyOp8
 70
     1
102
RTVSPropertyOp9
 70
     1
102
RTVSPropertyOp10
 70
     1
102
RTVSPropertyOp11
 70
     1
102
RTVSPropertyOp12
 70
     1
102
RTVSPropertyOp13
 70
     1
102
RTVSPropertyOp14
 70
     1
102
RTVSPropertyOp15
 70
     1
102
RTVSPropertyOp16
 70
     1
102
RTVSPropertyOp17
 70
     1
102
RTVSPropertyOp18
 70
     1
102
RTVSPropertyOp19
 70
     1
102
RTVSPropertyOp20
 70
     1
102
RTVSPropertyOp21
 70
     1
102
RTVSPropertyOp22
 70
     1
102
RTVSPropertyOp23
 70
     1
102
RTVSPropertyOp24
 70
     1
102
RTVSPropertyOp25
 70
     1
102
RTVSPropertyOp26
 70
     1
102
RTVSPropertyOp27
 70
     1
102
RTVSPropertyOp28
 70
     1
102
RTVSPropertyOp29
 70
     1
102
RTVSPropertyOp30
 70
     1
102
RTVSPropertyOp31
 70
     1
102
RTVSPropertyOp32
 70
     1
  0
XRECORD
  5
5A4
102
{ACAD_REACTORS
330
5A3
102
}
330
5A3
100
AcDbXrecord
280
     1
102
RTVSPropertyOp0
 70
     1
102
RTVSPropertyOp1
 70
     1
102
RTVSPropertyOp2
 70
     1
102
RTVSPropertyOp3
 70
     1
102
RTVSPropertyOp4
 70
     1
102
RTVSPropertyOp5
 70
     1
102
RTVSPropertyOp6
 70
     1
102
RTVSPropertyOp7
 70
     1
102
RTVSPropertyOp8
 70
     1
102
RTVSPropertyOp9
 70
     1
102
RTVSPropertyOp10
 70
     1
102
RTVSPropertyOp11
 70
     1
102
RTVSPropertyOp12
 70
     1
102
RTVSPropertyOp13
 70
     1
102
RTVSPropertyOp14
 70
     1
102
RTVSPropertyOp15
 70
     1
102
RTVSPropertyOp16
 70
     1
102
RTVSPropertyOp17
 70
     1
102
RTVSPropertyOp18
 70
     1
102
RTVSPropertyOp19
 70
     1
102
RTVSPropertyOp20
 70
     1
102
RTVSPropertyOp21
 70
     1
102
RTVSPropertyOp22
 70
     1
102
RTVSPropertyOp23
 70
     1
102
RTVSPropertyOp24
 70
     1
102
RTVSPropertyOp25
 70
     1
102
RTVSPropertyOp26
 70
     1
102
RTVSPropertyOp27
 70
     1
102
RTVSPropertyOp28
 70
     1
102
RTVSPropertyOp29
 70
     1
102
RTVSPropertyOp30
 70
     1
102
RTVSPropertyOp31
 70
     1
102
RTVSPropertyOp32
 70
     1
  0
XRECORD
  5
5A2
102
{ACAD_REACTORS
330
5A1
102
}
330
5A1
100
AcDbXrecord
280
     1
102
RTVSPropertyOp0
 70
     1
102
RTVSPropertyOp1
 70
     1
102
RTVSPropertyOp2
 70
     1
102
RTVSPropertyOp3
 70
     1
102
RTVSPropertyOp4
 70
     1
102
RTVSPropertyOp5
 70
     1
102
RTVSPropertyOp6
 70
     1
102
RTVSPropertyOp7
 70
     1
102
RTVSPropertyOp8
 70
     1
102
RTVSPropertyOp9
 70
     1
102
RTVSPropertyOp10
 70
     1
102
RTVSPropertyOp11
 70
     1
102
RTVSPropertyOp12
 70
     1
102
RTVSPropertyOp13
 70
     1
102
RTVSPropertyOp14
 70
     1
102
RTVSPropertyOp15
 70
     1
102
RTVSPropertyOp16
 70
     1
102
RTVSPropertyOp17
 70
     1
102
RTVSPropertyOp18
 70
     1
102
RTVSPropertyOp19
 70
     1
102
RTVSPropertyOp20
 70
     1
102
RTVSPropertyOp21
 70
     1
102
RTVSPropertyOp22
 70
     1
102
RTVSPropertyOp23
 70
     1
102
RTVSPropertyOp24
 70
     1
102
RTVSPropertyOp25
 70
     1
102
RTVSPropertyOp26
 70
     1
102
RTVSPropertyOp27
 70
     1
102
RTVSPropertyOp28
 70
     1
102
RTVSPropertyOp29
 70
     1
102
RTVSPropertyOp30
 70
     1
102
RTVSPropertyOp31
 70
     1
102
RTVSPropertyOp32
 70
     1
  0
XRECORD
  5
5A6
102
{ACAD_REACTORS
330
5A5
102
}
330
5A5
100
AcDbXrecord
280
     1
102
RTVSPropertyOp0
 70
     1
102
RTVSPropertyOp1
 70
     1
102
RTVSPropertyOp2
 70
     1
102
RTVSPropertyOp3
 70
     1
102
RTVSPropertyOp4
 70
     1
102
RTVSPropertyOp5
 70
     1
102
RTVSPropertyOp6
 70
     1
102
RTVSPropertyOp7
 70
     1
102
RTVSPropertyOp8
 70
     1
102
RTVSPropertyOp9
 70
     1
102
RTVSPropertyOp10
 70
     1
102
RTVSPropertyOp11
 70
     1
102
RTVSPropertyOp12
 70
     1
102
RTVSPropertyOp13
 70
     1
102
RTVSPropertyOp14
 70
     1
102
RTVSPropertyOp15
 70
     1
102
RTVSPropertyOp16
 70
     1
102
RTVSPropertyOp17
 70
     1
102
RTVSPropertyOp18
 70
     1
102
RTVSPropertyOp19
 70
     1
102
RTVSPropertyOp20
 70
     1
102
RTVSPropertyOp21
 70
     1
102
RTVSPropertyOp22
 70
     1
102
RTVSPropertyOp23
 70
     1
102
RTVSPropertyOp24
 70
     1
102
RTVSPropertyOp25
 70
     1
102
RTVSPropertyOp26
 70
     1
102
RTVSPropertyOp27
 70
     1
102
RTVSPropertyOp28
 70
     1
102
RTVSPropertyOp29
 70
     1
102
RTVSPropertyOp30
 70
     1
102
RTVSPropertyOp31
 70
     1
102
RTVSPropertyOp32
 70
     1
  0
XRECORD
  5
5AE
102
{ACAD_REACTORS
330
5AD
102
}
330
5AD
100
AcDbXrecord
280
     1
102
RTVSPropertyOp0
 70
     1
102
RTVSPropertyOp1
 70
     1
102
RTVSPropertyOp2
 70
     1
102
RTVSPropertyOp3
 70
     1
102
RTVSPropertyOp4
 70
     1
102
RTVSPropertyOp5
 70
     1
102
RTVSPropertyOp6
 70
     1
102
RTVSPropertyOp7
 70
     1
102
RTVSPropertyOp8
 70
     1
102
RTVSPropertyOp9
 70
     1
102
RTVSPropertyOp10
 70
     1
102
RTVSPropertyOp11
 70
     1
102
RTVSPropertyOp12
 70
     1
102
RTVSPropertyOp13
 70
     1
102
RTVSPropertyOp14
 70
     1
102
RTVSPropertyOp15
 70
     1
102
RTVSPropertyOp16
 70
     1
102
RTVSPropertyOp17
 70
     1
102
RTVSPropertyOp18
 70
     1
102
RTVSPropertyOp19
 70
     1
102
RTVSPropertyOp20
 70
     1
102
RTVSPropertyOp21
 70
     1
102
RTVSPropertyOp22
 70
     1
102
RTVSPropertyOp23
 70
     1
102
RTVSPropertyOp24
 70
     1
102
RTVSPropertyOp25
 70
     1
102
RTVSPropertyOp26
 70
     1
102
RTVSPropertyOp27
 70
     1
102
RTVSPropertyOp28
 70
     1
102
RTVSPropertyOp29
 70
     1
102
RTVSPropertyOp30
 70
     1
102
RTVSPropertyOp31
 70
     1
102
RTVSPropertyOp32
 70
     1
  0
XRECORD
  5
5B6
102
{ACAD_REACTORS
330
5B5
102
}
330
5B5
100
AcDbXrecord
280
     1
102
RTVSPropertyOp0
 70
     1
102
RTVSPropertyOp1
 70
     1
102
RTVSPropertyOp2
 70
     1
102
RTVSPropertyOp3
 70
     1
102
RTVSPropertyOp4
 70
     1
102
RTVSPropertyOp5
 70
     1
102
RTVSPropertyOp6
 70
     1
102
RTVSPropertyOp7
 70
     1
102
RTVSPropertyOp8
 70
     1
102
RTVSPropertyOp9
 70
     1
102
RTVSPropertyOp10
 70
     1
102
RTVSPropertyOp11
 70
     1
102
RTVSPropertyOp12
 70
     1
102
RTVSPropertyOp13
 70
     1
102
RTVSPropertyOp14
 70
     1
102
RTVSPropertyOp15
 70
     1
102
RTVSPropertyOp16
 70
     1
102
RTVSPropertyOp17
 70
     1
102
RTVSPropertyOp18
 70
     1
102
RTVSPropertyOp19
 70
     1
102
RTVSPropertyOp20
 70
     1
102
RTVSPropertyOp21
 70
     1
102
RTVSPropertyOp22
 70
     1
102
RTVSPropertyOp23
 70
     1
102
RTVSPropertyOp24
 70
     1
102
RTVSPropertyOp25
 70
     1
102
RTVSPropertyOp26
 70
     1
102
RTVSPropertyOp27
 70
     1
102
RTVSPropertyOp28
 70
     1
102
RTVSPropertyOp29
 70
     1
102
RTVSPropertyOp30
 70
     1
102
RTVSPropertyOp31
 70
     1
102
RTVSPropertyOp32
 70
     1
  0
XRECORD
  5
5AA
102
{ACAD_REACTORS
330
5A9
102
}
330
5A9
100
AcDbXrecord
280
     1
102
RTVSPropertyOp0
 70
     1
102
RTVSPropertyOp1
 70
     1
102
RTVSPropertyOp2
 70
     1
102
RTVSPropertyOp3
 70
     1
102
RTVSPropertyOp4
 70
     1
102
RTVSPropertyOp5
 70
     1
102
RTVSPropertyOp6
 70
     1
102
RTVSPropertyOp7
 70
     1
102
RTVSPropertyOp8
 70
     1
102
RTVSPropertyOp9
 70
     1
102
RTVSPropertyOp10
 70
     1
102
RTVSPropertyOp11
 70
     1
102
RTVSPropertyOp12
 70
     1
102
RTVSPropertyOp13
 70
     1
102
RTVSPropertyOp14
 70
     1
102
RTVSPropertyOp15
 70
     1
102
RTVSPropertyOp16
 70
     1
102
RTVSPropertyOp17
 70
     1
102
RTVSPropertyOp18
 70
     1
102
RTVSPropertyOp19
 70
     1
102
RTVSPropertyOp20
 70
     1
102
RTVSPropertyOp21
 70
     1
102
RTVSPropertyOp22
 70
     1
102
RTVSPropertyOp23
 70
     1
102
RTVSPropertyOp24
 70
     1
102
RTVSPropertyOp25
 70
     1
102
RTVSPropertyOp26
 70
     1
102
RTVSPropertyOp27
 70
     1
102
RTVSPropertyOp28
 70
     1
102
RTVSPropertyOp29
 70
     1
102
RTVSPropertyOp30
 70
     1
102
RTVSPropertyOp31
 70
     1
102
RTVSPropertyOp32
 70
     1
  0
XRECORD
  5
5AC
102
{ACAD_REACTORS
330
5AB
102
}
330
5AB
100
AcDbXrecord
280
     1
102
RTVSPropertyOp0
 70
     1
102
RTVSPropertyOp1
 70
     1
102
RTVSPropertyOp2
 70
     1
102
RTVSPropertyOp3
 70
     1
102
RTVSPropertyOp4
 70
     1
102
RTVSPropertyOp5
 70
     1
102
RTVSPropertyOp6
 70
     1
102
RTVSPropertyOp7
 70
     1
102
RTVSPropertyOp8
 70
     1
102
RTVSPropertyOp9
 70
     1
102
RTVSPropertyOp10
 70
     1
102
RTVSPropertyOp11
 70
     1
102
RTVSPropertyOp12
 70
     1
102
RTVSPropertyOp13
 70
     1
102
RTVSPropertyOp14
 70
     1
102
RTVSPropertyOp15
 70
     1
102
RTVSPropertyOp16
 70
     1
102
RTVSPropertyOp17
 70
     1
102
RTVSPropertyOp18
 70
     1
102
RTVSPropertyOp19
 70
     1
102
RTVSPropertyOp20
 70
     1
102
RTVSPropertyOp21
 70
     1
102
RTVSPropertyOp22
 70
     1
102
RTVSPropertyOp23
 70
     1
102
RTVSPropertyOp24
 70
     1
102
RTVSPropertyOp25
 70
     1
102
RTVSPropertyOp26
 70
     1
102
RTVSPropertyOp27
 70
     1
102
RTVSPropertyOp28
 70
     1
102
RTVSPropertyOp29
 70
     1
102
RTVSPropertyOp30
 70
     1
102
RTVSPropertyOp31
 70
     1
102
RTVSPropertyOp32
 70
     1
  0
XRECORD
  5
5B4
102
{ACAD_REACTORS
330
5B3
102
}
330
5B3
100
AcDbXrecord
280
     1
102
RTVSPropertyOp0
 70
     1
102
RTVSPropertyOp1
 70
     1
102
RTVSPropertyOp2
 70
     1
102
RTVSPropertyOp3
 70
     1
102
RTVSPropertyOp4
 70
     1
102
RTVSPropertyOp5
 70
     1
102
RTVSPropertyOp6
 70
     1
102
RTVSPropertyOp7
 70
     1
102
RTVSPropertyOp8
 70
     1
102
RTVSPropertyOp9
 70
     1
102
RTVSPropertyOp10
 70
     1
102
RTVSPropertyOp11
 70
     1
102
RTVSPropertyOp12
 70
     1
102
RTVSPropertyOp13
 70
     1
102
RTVSPropertyOp14
 70
     1
102
RTVSPropertyOp15
 70
     1
102
RTVSPropertyOp16
 70
     1
102
RTVSPropertyOp17
 70
     1
102
RTVSPropertyOp18
 70
     1
102
RTVSPropertyOp19
 70
     1
102
RTVSPropertyOp20
 70
     1
102
RTVSPropertyOp21
 70
     1
102
RTVSPropertyOp22
 70
     1
102
RTVSPropertyOp23
 70
     1
102
RTVSPropertyOp24
 70
     1
102
RTVSPropertyOp25
 70
     1
102
RTVSPropertyOp26
 70
     1
102
RTVSPropertyOp27
 70
     1
102
RTVSPropertyOp28
 70
     1
102
RTVSPropertyOp29
 70
     1
102
RTVSPropertyOp30
 70
     1
102
RTVSPropertyOp31
 70
     1
102
RTVSPropertyOp32
 70
     1
  0
XRECORD
  5
598
102
{ACAD_REACTORS
330
597
102
}
330
597
100
AcDbXrecord
280
     1
102
RTVSPropertyOp0
 70
     1
102
RTVSPropertyOp1
 70
     1
102
RTVSPropertyOp2
 70
     1
102
RTVSPropertyOp3
 70
     1
102
RTVSPropertyOp4
 70
     1
102
RTVSPropertyOp5
 70
     1
102
RTVSPropertyOp6
 70
     1
102
RTVSPropertyOp7
 70
     1
102
RTVSPropertyOp8
 70
     1
102
RTVSPropertyOp9
 70
     1
102
RTVSPropertyOp10
 70
     1
102
RTVSPropertyOp11
 70
     1
102
RTVSPropertyOp12
 70
     1
102
RTVSPropertyOp13
 70
     1
102
RTVSPropertyOp14
 70
     1
102
RTVSPropertyOp15
 70
     1
102
RTVSPropertyOp16
 70
     1
102
RTVSPropertyOp17
 70
     1
102
RTVSPropertyOp18
 70
     1
102
RTVSPropertyOp19
 70
     1
102
RTVSPropertyOp20
 70
     1
102
RTVSPropertyOp21
 70
     1
102
RTVSPropertyOp22
 70
     1
102
RTVSPropertyOp23
 70
     1
102
RTVSPropertyOp24
 70
     1
102
RTVSPropertyOp25
 70
     1
102
RTVSPropertyOp26
 70
     1
102
RTVSPropertyOp27
 70
     1
102
RTVSPropertyOp28
 70
     1
102
RTVSPropertyOp29
 70
     1
102
RTVSPropertyOp30
 70
     1
102
RTVSPropertyOp31
 70
     1
102
RTVSPropertyOp32
 70
     1
  0
XRECORD
  5
59A
102
{ACAD_REACTORS
330
599
102
}
330
599
100
AcDbXrecord
280
     1
102
RTVSPropertyOp0
 70
     1
102
RTVSPropertyOp1
 70
     1
102
RTVSPropertyOp2
 70
     1
102
RTVSPropertyOp3
 70
     1
102
RTVSPropertyOp4
 70
     1
102
RTVSPropertyOp5
 70
     1
102
RTVSPropertyOp6
 70
     1
102
RTVSPropertyOp7
 70
     1
102
RTVSPropertyOp8
 70
     1
102
RTVSPropertyOp9
 70
     1
102
RTVSPropertyOp10
 70
     1
102
RTVSPropertyOp11
 70
     1
102
RTVSPropertyOp12
 70
     1
102
RTVSPropertyOp13
 70
     1
102
RTVSPropertyOp14
 70
     1
102
RTVSPropertyOp15
 70
     1
102
RTVSPropertyOp16
 70
     1
102
RTVSPropertyOp17
 70
     1
102
RTVSPropertyOp18
 70
     1
102
RTVSPropertyOp19
 70
     1
102
RTVSPropertyOp20
 70
     1
102
RTVSPropertyOp21
 70
     1
102
RTVSPropertyOp22
 70
     1
102
RTVSPropertyOp23
 70
     1
102
RTVSPropertyOp24
 70
     1
102
RTVSPropertyOp25
 70
     1
102
RTVSPropertyOp26
 70
     1
102
RTVSPropertyOp27
 70
     1
102
RTVSPropertyOp28
 70
     1
102
RTVSPropertyOp29
 70
     1
102
RTVSPropertyOp30
 70
     1
102
RTVSPropertyOp31
 70
     1
102
RTVSPropertyOp32
 70
     1
  0
XRECORD
  5
59C
102
{ACAD_REACTORS
330
59B
102
}
330
59B
100
AcDbXrecord
280
     1
102
RTVSPropertyOp0
 70
     1
102
RTVSPropertyOp1
 70
     1
102
RTVSPropertyOp2
 70
     1
102
RTVSPropertyOp3
 70
     1
102
RTVSPropertyOp4
 70
     1
102
RTVSPropertyOp5
 70
     1
102
RTVSPropertyOp6
 70
     1
102
RTVSPropertyOp7
 70
     1
102
RTVSPropertyOp8
 70
     1
102
RTVSPropertyOp9
 70
     1
102
RTVSPropertyOp10
 70
     1
102
RTVSPropertyOp11
 70
     1
102
RTVSPropertyOp12
 70
     1
102
RTVSPropertyOp13
 70
     1
102
RTVSPropertyOp14
 70
     1
102
RTVSPropertyOp15
 70
     1
102
RTVSPropertyOp16
 70
     1
102
RTVSPropertyOp17
 70
     1
102
RTVSPropertyOp18
 70
     1
102
RTVSPropertyOp19
 70
     1
102
RTVSPropertyOp20
 70
     1
102
RTVSPropertyOp21
 70
     1
102
RTVSPropertyOp22
 70
     1
102
RTVSPropertyOp23
 70
     1
102
RTVSPropertyOp24
 70
     1
102
RTVSPropertyOp25
 70
     1
102
RTVSPropertyOp26
 70
     1
102
RTVSPropertyOp27
 70
     1
102
RTVSPropertyOp28
 70
     1
102
RTVSPropertyOp29
 70
     1
102
RTVSPropertyOp30
 70
     1
102
RTVSPropertyOp31
 70
     1
102
RTVSPropertyOp32
 70
     1
  0
XRECORD
  5
59E
102
{ACAD_REACTORS
330
59D
102
}
330
59D
100
AcDbXrecord
280
     1
102
RTVSPropertyOp0
 70
     1
102
RTVSPropertyOp1
 70
     1
102
RTVSPropertyOp2
 70
     1
102
RTVSPropertyOp3
 70
     1
102
RTVSPropertyOp4
 70
     1
102
RTVSPropertyOp5
 70
     1
102
RTVSPropertyOp6
 70
     1
102
RTVSPropertyOp7
 70
     1
102
RTVSPropertyOp8
 70
     1
102
RTVSPropertyOp9
 70
     1
102
RTVSPropertyOp10
 70
     1
102
RTVSPropertyOp11
 70
     1
102
RTVSPropertyOp12
 70
     1
102
RTVSPropertyOp13
 70
     1
102
RTVSPropertyOp14
 70
     1
102
RTVSPropertyOp15
 70
     1
102
RTVSPropertyOp16
 70
     1
102
RTVSPropertyOp17
 70
     1
102
RTVSPropertyOp18
 70
     1
102
RTVSPropertyOp19
 70
     1
102
RTVSPropertyOp20
 70
     1
102
RTVSPropertyOp21
 70
     1
102
RTVSPropertyOp22
 70
     1
102
RTVSPropertyOp23
 70
     1
102
RTVSPropertyOp24
 70
     1
102
RTVSPropertyOp25
 70
     1
102
RTVSPropertyOp26
 70
     1
102
RTVSPropertyOp27
 70
     1
102
RTVSPropertyOp28
 70
     1
102
RTVSPropertyOp29
 70
     1
102
RTVSPropertyOp30
 70
     1
102
RTVSPropertyOp31
 70
     1
102
RTVSPropertyOp32
 70
     1
  0
XRECORD
  5
5B2
102
{ACAD_REACTORS
330
5B1
102
}
330
5B1
100
AcDbXrecord
280
     1
102
RTVSPropertyOp0
 70
     1
102
RTVSPropertyOp1
 70
     1
102
RTVSPropertyOp2
 70
     1
102
RTVSPropertyOp3
 70
     1
102
RTVSPropertyOp4
 70
     1
102
RTVSPropertyOp5
 70
     1
102
RTVSPropertyOp6
 70
     1
102
RTVSPropertyOp7
 70
     1
102
RTVSPropertyOp8
 70
     1
102
RTVSPropertyOp9
 70
     1
102
RTVSPropertyOp10
 70
     1
102
RTVSPropertyOp11
 70
     1
102
RTVSPropertyOp12
 70
     1
102
RTVSPropertyOp13
 70
     1
102
RTVSPropertyOp14
 70
     1
102
RTVSPropertyOp15
 70
     1
102
RTVSPropertyOp16
 70
     1
102
RTVSPropertyOp17
 70
     1
102
RTVSPropertyOp18
 70
     1
102
RTVSPropertyOp19
 70
     1
102
RTVSPropertyOp20
 70
     1
102
RTVSPropertyOp21
 70
     1
102
RTVSPropertyOp22
 70
     1
102
RTVSPropertyOp23
 70
     1
102
RTVSPropertyOp24
 70
     1
102
RTVSPropertyOp25
 70
     1
102
RTVSPropertyOp26
 70
     1
102
RTVSPropertyOp27
 70
     1
102
RTVSPropertyOp28
 70
     1
102
RTVSPropertyOp29
 70
     1
102
RTVSPropertyOp30
 70
     1
102
RTVSPropertyOp31
 70
     1
102
RTVSPropertyOp32
 70
     1
  0
XRECORD
  5
5A8
102
{ACAD_REACTORS
330
5A7
102
}
330
5A7
100
AcDbXrecord
280
     1
102
RTVSPropertyOp0
 70
     1
102
RTVSPropertyOp1
 70
     1
102
RTVSPropertyOp2
 70
     1
102
RTVSPropertyOp3
 70
     1
102
RTVSPropertyOp4
 70
     1
102
RTVSPropertyOp5
 70
     1
102
RTVSPropertyOp6
 70
     1
102
RTVSPropertyOp7
 70
     1
102
RTVSPropertyOp8
 70
     1
102
RTVSPropertyOp9
 70
     1
102
RTVSPropertyOp10
 70
     1
102
RTVSPropertyOp11
 70
     1
102
RTVSPropertyOp12
 70
     1
102
RTVSPropertyOp13
 70
     1
102
RTVSPropertyOp14
 70
     1
102
RTVSPropertyOp15
 70
     1
102
RTVSPropertyOp16
 70
     1
102
RTVSPropertyOp17
 70
     1
102
RTVSPropertyOp18
 70
     1
102
RTVSPropertyOp19
 70
     1
102
RTVSPropertyOp20
 70
     1
102
RTVSPropertyOp21
 70
     1
102
RTVSPropertyOp22
 70
     1
102
RTVSPropertyOp23
 70
     1
102
RTVSPropertyOp24
 70
     1
102
RTVSPropertyOp25
 70
     1
102
RTVSPropertyOp26
 70
     1
102
RTVSPropertyOp27
 70
     1
102
RTVSPropertyOp28
 70
     1
102
RTVSPropertyOp29
 70
     1
102
RTVSPropertyOp30
 70
     1
102
RTVSPropertyOp31
 70
     1
102
RTVSPropertyOp32
 70
     1
  0
XRECORD
  5
5B0
102
{ACAD_REACTORS
330
5AF
102
}
330
5AF
100
AcDbXrecord
280
     1
102
RTVSPropertyOp0
 70
     1
102
RTVSPropertyOp1
 70
     1
102
RTVSPropertyOp2
 70
     1
102
RTVSPropertyOp3
 70
     1
102
RTVSPropertyOp4
 70
     1
102
RTVSPropertyOp5
 70
     1
102
RTVSPropertyOp6
 70
     1
102
RTVSPropertyOp7
 70
     1
102
RTVSPropertyOp8
 70
     1
102
RTVSPropertyOp9
 70
     1
102
RTVSPropertyOp10
 70
     1
102
RTVSPropertyOp11
 70
     1
102
RTVSPropertyOp12
 70
     1
102
RTVSPropertyOp13
 70
     1
102
RTVSPropertyOp14
 70
     1
102
RTVSPropertyOp15
 70
     1
102
RTVSPropertyOp16
 70
     1
102
RTVSPropertyOp17
 70
     1
102
RTVSPropertyOp18
 70
     1
102
RTVSPropertyOp19
 70
     1
102
RTVSPropertyOp20
 70
     1
102
RTVSPropertyOp21
 70
     1
102
RTVSPropertyOp22
 70
     1
102
RTVSPropertyOp23
 70
     1
102
RTVSPropertyOp24
 70
     1
102
RTVSPropertyOp25
 70
     1
102
RTVSPropertyOp26
 70
     1
102
RTVSPropertyOp27
 70
     1
102
RTVSPropertyOp28
 70
     1
102
RTVSPropertyOp29
 70
     1
102
RTVSPropertyOp30
 70
     1
102
RTVSPropertyOp31
 70
     1
102
RTVSPropertyOp32
 70
     1
  0
ENDSEC
  0
EOF
