  0
SECTION
  2
HEADER
  9
$ACADVER
  1
AC1021
  9
$ACADMAINTVER
 70
    25
  9
$DWGCODEPAGE
  3
ANSI_932
  9
$LASTSAVEDBY
  1
Shimosaki
  9
$INSBASE
 10
0.0
 20
0.0
 30
0.0
  9
$EXTMIN
 10
0.0
 20
0.0
 30
0.0
  9
$EXTMAX
 10
2100.0
 20
2970.0
 30
0.0
  9
$LIMMIN
 10
0.0
 20
0.0
  9
$LIMMAX
 10
2100.0
 20
2970.0
  9
$ORTHOMODE
 70
     0
  9
$REGENMODE
 70
     1
  9
$FILLMODE
 70
     1
  9
$QTEXTMODE
 70
     0
  9
$MIRRTEXT
 70
     1
  9
$LTSCALE
 40
5.0
  9
$ATTMODE
 70
     1
  9
$TEXTSIZE
 40
533.0403732820173
  9
$TRACEWID
 40
1.0
  9
$TEXTSTYLE
  7
Standard
  9
$CLAYER
  8
Dim
  9
$CELTYPE
  6
ByLayer
  9
$CECOLOR
 62
   256
  9
$CELTSCALE
 40
1.0
  9
$DISPSILH
 70
     0
  9
$DIMSCALE
 40
1.0
  9
$DIMASZ
 40
9.0
  9
$DIMEXO
 40
25.0
  9
$DIMDLI
 40
25.0
  9
$DIMRND
 40
0.0
  9
$DIMDLE
 40
0.0
  9
$DIMEXE
 40
0.0
  9
$DIMTP
 40
0.0
  9
$DIMTM
 40
0.0
  9
$DIMTXT
 40
24.4326171875
  9
$DIMCEN
 40
0.0
  9
$DIMTSZ
 40
0.0
  9
$DIMTOL
 70
     0
  9
$DIMLIM
 70
     0
  9
$DIMTIH
 70
     0
  9
$DIMTOH
 70
     0
  9
$DIMSE1
 70
     0
  9
$DIMSE2
 70
     0
  9
$DIMTAD
 70
     1
  9
$DIMZIN
 70
    11
  9
$DIMBLK
  1
DOT
  9
$DIMASO
 70
     1
  9
$DIMSHO
 70
     1
  9
$DIMPOST
  1
<>
  9
$DIMAPOST
  1
[]
  9
$DIMALT
 70
     0
  9
$DIMALTD
 70
     1
  9
$DIMALTF
 40
1.0
  9
$DIMLFAC
 40
1.0
  9
$DIMTOFL
 70
     0
  9
$DIMTVP
 40
0.0
  9
$DIMTIX
 70
     1
  9
$DIMSOXD
 70
     0
  9
$DIMSAH
 70
     0
  9
$DIMBLK1
  1

  9
$DIMBLK2
  1

  9
$DIMSTYLE
  2
JIS
  9
$DIMCLRD
 70
     0
  9
$DIMCLRE
 70
     0
  9
$DIMCLRT
 70
     0
  9
$DIMTFAC
 40
1.0
  9
$DIMGAP
 40
10.0
  9
$DIMJUST
 70
     0
  9
$DIMSD1
 70
     0
  9
$DIMSD2
 70
     0
  9
$DIMTOLJ
 70
     1
  9
$DIMTZIN
 70
    11
  9
$DIMALTZ
 70
    11
  9
$DIMALTTZ
 70
    11
  9
$DIMUPT
 70
     0
  9
$DIMDEC
 70
     0
  9
$DIMTDEC
 70
     1
  9
$DIMALTU
 70
     2
  9
$DIMALTTD
 70
     2
  9
$DIMTXSTY
  7
ＭＳ ゴシック
  9
$DIMAUNIT
 70
     0
  9
$DIMADEC
 70
     0
  9
$DIMALTRND
 40
0.0
  9
$DIMAZIN
 70
     0
  9
$DIMDSEP
 70
    46
  9
$DIMATFIT
 70
     0
  9
$DIMFRAC
 70
     2
  9
$DIMLDRBLK
  1
DOT
  9
$DIMLUNIT
 70
     2
  9
$DIMLWD
 70
    -2
  9
$DIMLWE
 70
    -2
  9
$DIMTMOVE
 70
     0
  9
$DIMFXL
 40
1.0
  9
$DIMFXLON
 70
     0
  9
$DIMJOGANG
 40
0.7853981633974483
  9
$DIMTFILL
 70
     0
  9
$DIMTFILLCLR
 70
     0
  9
$DIMARCSYM
 70
     0
  9
$DIMLTYPE
  6

  9
$DIMLTEX1
  6

  9
$DIMLTEX2
  6

  9
$LUNITS
 70
     2
  9
$LUPREC
 70
     0
  9
$SKETCHINC
 40
0.1
  9
$FILLETRAD
 40
0.0
  9
$AUNITS
 70
     0
  9
$AUPREC
 70
     0
  9
$MENU
  1
acad
  9
$ELEVATION
 40
0.0
  9
$PELEVATION
 40
0.0
  9
$THICKNESS
 40
0.0
  9
$LIMCHECK
 70
     0
  9
$CHAMFERA
 40
0.0
  9
$CHAMFERB
 40
0.0
  9
$CHAMFERC
 40
0.0
  9
$CHAMFERD
 40
0.0
  9
$SKPOLY
 70
     0
  9
$TDCREATE
 40
2447893.375
  9
$TDUCREATE
 40
0.0
  9
$TDUPDATE
 40
2458130.621692789
  9
$TDUUPDATE
 40
2458130.246692789
  9
$TDINDWG
 40
0.0003062037
  9
$TDUSRTIMER
 40
2458130.246386632
  9
$USRTIMER
 70
     1
  9
$ANGBASE
 50
0.0
  9
$ANGDIR
 70
     0
  9
$PDMODE
 70
     1
  9
$PDSIZE
 40
-2.0
  9
$PLINEWID
 40
0.0
  9
$SPLFRAME
 70
     0
  9
$SPLINETYPE
 70
     6
  9
$SPLINESEGS
 70
     8
  9
$HANDSEED
  5
2FC1
  9
$SURFTAB1
 70
     6
  9
$SURFTAB2
 70
     6
  9
$SURFTYPE
 70
     6
  9
$SURFU
 70
     6
  9
$SURFV
 70
     6
  9
$UCSBASE
  2

  9
$UCSNAME
  2

  9
$UCSORG
 10
0.0
 20
0.0
 30
0.0
  9
$UCSXDIR
 10
1.0
 20
0.0
 30
0.0
  9
$UCSYDIR
 10
0.0
 20
1.0
 30
0.0
  9
$UCSORTHOREF
  2

  9
$UCSORTHOVIEW
 70
     0
  9
$UCSORGTOP
 10
0.0
 20
0.0
 30
0.0
  9
$UCSORGBOTTOM
 10
0.0
 20
0.0
 30
0.0
  9
$UCSORGLEFT
 10
0.0
 20
0.0
 30
0.0
  9
$UCSORGRIGHT
 10
0.0
 20
0.0
 30
0.0
  9
$UCSORGFRONT
 10
0.0
 20
0.0
 30
0.0
  9
$UCSORGBACK
 10
0.0
 20
0.0
 30
0.0
  9
$PUCSBASE
  2

  9
$PUCSNAME
  2

  9
$PUCSORG
 10
0.0
 20
0.0
 30
0.0
  9
$PUCSXDIR
 10
1.0
 20
0.0
 30
0.0
  9
$PUCSYDIR
 10
0.0
 20
1.0
 30
0.0
  9
$PUCSORTHOREF
  2

  9
$PUCSORTHOVIEW
 70
     0
  9
$PUCSORGTOP
 10
0.0
 20
0.0
 30
0.0
  9
$PUCSORGBOTTOM
 10
0.0
 20
0.0
 30
0.0
  9
$PUCSORGLEFT
 10
0.0
 20
0.0
 30
0.0
  9
$PUCSORGRIGHT
 10
0.0
 20
0.0
 30
0.0
  9
$PUCSORGFRONT
 10
0.0
 20
0.0
 30
0.0
  9
$PUCSORGBACK
 10
0.0
 20
0.0
 30
0.0
  9
$USERI1
 70
     0
  9
$USERI2
 70
     0
  9
$USERI3
 70
     0
  9
$USERI4
 70
     0
  9
$USERI5
 70
     0
  9
$USERR1
 40
0.0
  9
$USERR2
 40
0.0
  9
$USERR3
 40
0.0
  9
$USERR4
 40
0.0
  9
$USERR5
 40
0.0
  9
$WORLDVIEW
 70
     1
  9
$SHADEDGE
 70
     3
  9
$SHADEDIF
 70
    70
  9
$TILEMODE
 70
     1
  9
$MAXACTVP
 70
    64
  9
$PINSBASE
 10
0.0
 20
0.0
 30
0.0
  9
$PLIMCHECK
 70
     0
  9
$PEXTMIN
 10
0.0
 20
0.0
 30
0.0
  9
$PEXTMAX
 10
0.0
 20
0.0
 30
0.0
  9
$PLIMMIN
 10
-7.5
 20
-20.0
  9
$PLIMMAX
 10
412.5
 20
277.0
  9
$UNITMODE
 70
     0
  9
$VISRETAIN
 70
     0
  9
$PLINEGEN
 70
     1
  9
$PSLTSCALE
 70
     0
  9
$TREEDEPTH
 70
  3020
  9
$CMLSTYLE
  2
Standard
  9
$CMLJUST
 70
     0
  9
$CMLSCALE
 40
1.0
  9
$PROXYGRAPHICS
 70
     0
  9
$MEASUREMENT
 70
     1
  9
$CELWEIGHT
370
    -1
  9
$ENDCAPS
280
     0
  9
$JOINSTYLE
280
     0
  9
$LWDISPLAY
290
     1
  9
$INSUNITS
 70
     4
  9
$HYPERLINKBASE
  1

  9
$STYLESHEET
  1

  9
$XEDIT
290
     1
  9
$CEPSNTYPE
380
     0
  9
$PSTYLEMODE
290
     1
  9
$FINGERPRINTGUID
  2

  9
$VERSIONGUID
  2

  9
$EXTNAMES
290
     1
  9
$PSVPSCALE
 40
0.0
  9
$OLESTARTUP
290
     0
  9
$SORTENTS
280
   127
  9
$INDEXCTL
280
     0
  9
$HIDETEXT
280
     1
  9
$XCLIPFRAME
290
     0
  9
$HALOGAP
280
     0
  9
$OBSCOLOR
 70
   257
  9
$OBSLTYPE
280
     0
  9
$INTERSECTIONDISPLAY
280
     0
  9
$INTERSECTIONCOLOR
 70
   257
  9
$DIMASSOC
280
     2
  9
$PROJECTNAME
  1

  9
$CAMERADISPLAY
290
     0
  9
$LENSLENGTH
 40
50.0
  9
$CAMERAHEIGHT
 40
0.0
  9
$STEPSPERSEC
 40
2.0
  9
$STEPSIZE
 40
6.0
  9
$3DDWFPREC
 40
2.0
  9
$PSOLWIDTH
 40
0.25
  9
$PSOLHEIGHT
 40
4.0
  9
$LOFTANG1
 40
1.570796326794897
  9
$LOFTANG2
 40
1.570796326794897
  9
$LOFTMAG1
 40
0.0
  9
$LOFTMAG2
 40
0.0
  9
$LOFTPARAM
 70
     7
  9
$LOFTNORMALS
280
     1
  9
$LATITUDE
 40
37.795
  9
$LONGITUDE
 40
-122.394
  9
$NORTHDIRECTION
 40
0.0
  9
$TIMEZONE
 70
 -8000
  9
$LIGHTGLYPHDISPLAY
280
     1
  9
$TILEMODELIGHTSYNCH
280
     1
  9
$SOLIDHIST
280
     1
  9
$SHOWHIST
280
     1
  9
$DWFFRAME
280
     2
  9
$DGNFRAME
280
     2
  9
$REALWORLDSCALE
290
     1
  9
$INTERFERECOLOR
 62
   256
  9
$CSHADOW
280
     0
  9
$SHADOWPLANELOCATION
 40
0.0
  0
ENDSEC
  0
SECTION
  2
CLASSES
  0
CLASS
  1
LWPOLYLINE
  2
AcDbPolyline
  3
ObjectDBX Classes
 90
        0
 91
        1
280
     0
281
     1
  0
CLASS
  1
IMAGE
  2
AcDbRasterImage
  3
ISM
 90
      127
 91
        5
280
     0
281
     1
  0
CLASS
  1
OLE2FRAME
  2
AcDbOle2Frame
  3
ObjectDBX Classes
 90
        0
 91
        1
280
     0
281
     1
  0
CLASS
  1
HATCH
  2
AcDbHatch
  3
ObjectDBX Classes
 90
        0
 91
        1
280
     0
281
     1
  0
CLASS
  1
DICTIONARYVAR
  2
AcDbDictionaryVar
  3
ObjectDBX Classes
 90
        0
 91
        4
280
     0
281
     0
  0
CLASS
  1
RASTERVARIABLES
  2
AcDbRasterVariables
  3
ISM
 90
        0
 91
        4
280
     0
281
     0
  0
CLASS
  1
IMAGEDEF
  2
AcDbRasterImageDef
  3
ISM
 90
        0
 91
        4
280
     0
281
     0
  0
CLASS
  1
IMAGEDEF_REACTOR
  2
AcDbRasterImageDefReactor
  3
ISM
 90
        1
 91
        4
280
     0
281
     0
  0
CLASS
  1
IDBUFFER
  2
AcDbIdBuffer
  3
ObjectDBX Classes
 90
        0
 91
        4
280
     0
281
     0
  0
CLASS
  1
SPATIAL_FILTER
  2
AcDbSpatialFilter
  3
ObjectDBX Classes
 90
        0
 91
        4
280
     0
281
     0
  0
CLASS
  1
XRECORD
  2
AcDbXrecord
  3
ObjectDBX Classes
 90
        0
 91
        1
280
     0
281
     0
  0
CLASS
  1
SORTENTSTABLE
  2
AcDbSortentsTable
  3
ObjectDBX Classes
 90
        0
 91
        4
280
     0
281
     0
  0
CLASS
  1
LAYER_INDEX
  2
AcDbLayerIndex
  3
ObjectDBX Classes
 90
        0
 91
        4
280
     0
281
     0
  0
CLASS
  1
SPATIAL_INDEX
  2
AcDbSpatialIndex
  3
AutoCAD 2000
 90
        0
 91
        4
280
     0
281
     0
  0
CLASS
  1
OBJECT_PTR
  2
CAseDLPNTableRecord
  3
ASE-LPNTableRecord
 90
        1
 91
        4
280
     0
281
     0
  0
CLASS
  1
LAYOUT
  2
AcDbLayout
  3
ObjectDBX Classes
 90
        0
 91
        1
280
     0
281
     0
  0
CLASS
  1
PLOTSETTINGS
  2
AcDbPlotSettings
  3
ObjectDBX Classes
 90
        0
 91
        4
280
     0
281
     0
  0
CLASS
  1
ACDBDICTIONARYWDFLT
  2
AcDbDictionaryWithDefault
  3
ObjectDBX Classes
 90
        0
 91
        4
280
     0
281
     0
  0
CLASS
  1
ACDBPLACEHOLDER
  2
AcDbPlaceHolder
  3
ObjectDBX Classes
 90
        0
 91
        1
280
     0
281
     0
  0
CLASS
  1
SCALE
  2
AcDbScale
  3
ObjectDBX Classes
 90
     1153
 91
        4
280
     0
281
     0
  0
CLASS
  1
MATERIAL
  2
AcDbMaterial
  3
ObjectDBX Classes
 90
     1153
 91
        4
280
     0
281
     0
  0
CLASS
  1
VISUALSTYLE
  2
AcDbVisualStyle
  3
ObjectDBX Classes
 90
     4095
 91
        4
280
     0
281
     0
  0
CLASS
  1
TABLESTYLE
  2
AcDbTableStyle
  3
ObjectDBX Classes
 90
     4095
 91
        4
280
     0
281
     0
  0
CLASS
  1
DIMASSOC
  2
AcDbDimAssoc
  3
"AcDbDimAssoc|Product Desc:     AcDim ARX App For Dimension|Company:          Autodesk, Inc.|WEB Address:      www.autodesk.com"
 90
        0
 91
        4
280
     0
281
     0
  0
CLASS
  1
CELLSTYLEMAP
  2
AcDbCellStyleMap
  3
ObjectDBX Classes
 90
     1152
 91
        4
280
     0
281
     0
  0
CLASS
  1
SUN
  2
AcDbSun
  3
SCENEOE
 90
     1153
 91
        4
280
     0
281
     0
  0
CLASS
  1
MLEADERSTYLE
  2
AcDbMLeaderStyle
  3
ACDB_MLEADERSTYLE_CLASS
 90
     4095
 91
        4
280
     0
281
     0
  0
CLASS
  1
FIELD
  2
AcDbField
  3
ObjectDBX Classes
 90
     1152
 91
        4
280
     0
281
     0
  0
CLASS
  1
FIELDLIST
  2
AcDbFieldList
  3
ObjectDBX Classes
 90
     1152
 91
        4
280
     0
281
     0
  0
ENDSEC
  0
SECTION
  2
TABLES
  0
TABLE
  2
VPORT
  5
7
330
0
100
AcDbSymbolTable
 70
     1
  0
VPORT
  5
15
330
7
100
AcDbSymbolTableRecord
100
AcDbViewportTableRecord
  2
*ACTIVE
 70
     0
 10
0.0
 20
0.0
 11
1.0
 21
1.0
 12
449.8835969465333
 22
1806.723401639315
 13
0.0
 23
0.0
 14
1.0
 24
1.0
 15
0.0
 25
0.0
 16
0.0
 26
0.0
 36
1.0
 17
377.0474382459645
 27
-297.6123702345267
 37
0.0
 40
3786.749999999998
 41
2.396092362344583
 42
50.0
 43
0.0
 44
0.0
 50
0.0
 51
0.0
 71
    16
 72
  2000
 73
     1
 74
     1
 75
     0
 76
     0
 77
     0
 78
     0
281
     0
 65
     1
110
0.0
120
0.0
130
0.0
111
1.0
121
0.0
131
0.0
112
0.0
122
1.0
132
0.0
 79
     0
146
0.0
348
26C
 60
     3
 61
     5
292
     1
282
     1
141
0.0
142
0.0
 63
   256
361
8C2
  0
ENDTAB
  0
TABLE
  2
LTYPE
  5
4
330
0
100
AcDbSymbolTable
 70
    19
  0
LTYPE
  5
11
330
4
100
AcDbSymbolTableRecord
100
AcDbLinetypeTableRecord
  2
ByBlock
 70
     0
  3

 72
    65
 73
     0
 40
0.0
  0
LTYPE
  5
12
330
4
100
AcDbSymbolTableRecord
100
AcDbLinetypeTableRecord
  2
ByLayer
 70
     0
  3

 72
    65
 73
     0
 40
0.0
  0
LTYPE
  5
13
330
4
100
AcDbSymbolTableRecord
100
AcDbLinetypeTableRecord
  2
Continuous
 70
     0
  3
Solid line
 72
    65
 73
     0
 40
0.0
  0
LTYPE
  5
8D4
330
4
100
AcDbSymbolTableRecord
100
AcDbLinetypeTableRecord
  2
HIDDEN
 70
     0
  3
Hidden _ _ _ _ _ _ _ _ _ _ _ _ _ _ _ _ _ _ _ _ 
 72
    65
 73
     2
 40
9.524999999999999
 49
6.35
 74
     0
 49
-3.175
 74
     0
  0
LTYPE
  5
BF2
330
4
100
AcDbSymbolTableRecord
100
AcDbLinetypeTableRecord
  2
BORDER
 70
     0
  3
Border __  __  . __  __  . __  __  . __  __  . 
 72
    65
 73
     6
 40
44.45
 49
12.7
 74
     0
 49
-6.35
 74
     0
 49
12.7
 74
     0
 49
-6.35
 74
     0
 49
0.0
 74
     0
 49
-6.35
 74
     0
  0
LTYPE
  5
1B00
330
4
100
AcDbSymbolTableRecord
100
AcDbLinetypeTableRecord
  2
AI-Linetype-1
 70
     0
  3
Adobe Illustrator Linetype No. 1
 72
    65
 73
     4
 40
28.79099941253662
 49
17.99399948120117
 74
     0
 49
-3.598999977111816
 74
     0
 49
3.598999977111816
 74
     0
 49
-3.598999977111816
 74
     0
  0
LTYPE
  5
1B01
330
4
100
AcDbSymbolTableRecord
100
AcDbLinetypeTableRecord
  2
AI-Linetype-2
 70
     0
  3
Adobe Illustrator Linetype No. 2
 72
    65
 73
     4
 40
28.79099941253662
 49
17.99399948120117
 74
     0
 49
-3.598999977111816
 74
     0
 49
3.598999977111816
 74
     0
 49
-3.598999977111816
 74
     0
  0
LTYPE
  5
1B02
330
4
100
AcDbSymbolTableRecord
100
AcDbLinetypeTableRecord
  2
AI-Linetype-3
 70
     0
  3
Adobe Illustrator Linetype No. 3
 72
    65
 73
     2
 40
1.0
 49
0.5
 74
     0
 49
-0.5
 74
     0
  0
LTYPE
  5
1B03
330
4
100
AcDbSymbolTableRecord
100
AcDbLinetypeTableRecord
  2
AI-Linetype-4
 70
     0
  3
Adobe Illustrator Linetype No. 4
 72
    65
 73
     2
 40
1.0
 49
0.5
 74
     0
 49
-0.5
 74
     0
  0
LTYPE
  5
1B04
330
4
100
AcDbSymbolTableRecord
100
AcDbLinetypeTableRecord
  2
AI-Linetype-5
 70
     0
  3
Adobe Illustrator Linetype No. 5
 72
    65
 73
     2
 40
2.0
 49
1.0
 74
     0
 49
-1.0
 74
     0
  0
LTYPE
  5
1B05
330
4
100
AcDbSymbolTableRecord
100
AcDbLinetypeTableRecord
  2
AI-Linetype-6
 70
     0
  3
Adobe Illustrator Linetype No. 6
 72
    65
 73
     4
 40
28.79999971389771
 49
18.0
 74
     0
 49
-3.599999904632568
 74
     0
 49
3.599999904632568
 74
     0
 49
-3.599999904632568
 74
     0
  0
LTYPE
  5
1B06
330
4
100
AcDbSymbolTableRecord
100
AcDbLinetypeTableRecord
  2
AI-Linetype-7
 70
     0
  3
Adobe Illustrator Linetype No. 7
 72
    65
 73
     4
 40
28.79999971389771
 49
18.0
 74
     0
 49
-3.599999904632568
 74
     0
 49
3.599999904632568
 74
     0
 49
-3.599999904632568
 74
     0
  0
LTYPE
  5
1B07
330
4
100
AcDbSymbolTableRecord
100
AcDbLinetypeTableRecord
  2
AI-Linetype-8
 70
     0
  3
Adobe Illustrator Linetype No. 8
 72
    65
 73
     2
 40
1.0
 49
0.5
 74
     0
 49
-0.5
 74
     0
  0
LTYPE
  5
1B08
330
4
100
AcDbSymbolTableRecord
100
AcDbLinetypeTableRecord
  2
AI-Linetype-9
 70
     0
  3
Adobe Illustrator Linetype No. 9
 72
    65
 73
     2
 40
1.0
 49
0.5
 74
     0
 49
-0.5
 74
     0
  0
LTYPE
  5
1B09
330
4
100
AcDbSymbolTableRecord
100
AcDbLinetypeTableRecord
  2
AI-Linetype-10
 70
     0
  3
Adobe Illustrator Linetype No. 10
 72
    65
 73
     4
 40
14.33700060844421
 49
8.961000442504883
 74
     0
 49
-1.79200005531311
 74
     0
 49
1.79200005531311
 74
     0
 49
-1.79200005531311
 74
     0
  0
LTYPE
  5
1B0A
330
4
100
AcDbSymbolTableRecord
100
AcDbLinetypeTableRecord
  2
AI-Linetype-11
 70
     0
  3
Adobe Illustrator Linetype No. 11
 72
    65
 73
     4
 40
14.33700060844421
 49
8.961000442504883
 74
     0
 49
-1.79200005531311
 74
     0
 49
1.79200005531311
 74
     0
 49
-1.79200005531311
 74
     0
  0
LTYPE
  5
1B0B
330
4
100
AcDbSymbolTableRecord
100
AcDbLinetypeTableRecord
  2
AI-Linetype-12
 70
     0
  3
Adobe Illustrator Linetype No. 12
 72
    65
 73
     2
 40
1.057999968528748
 49
0.5289999842643738
 74
     0
 49
-0.5289999842643738
 74
     0
  0
LTYPE
  5
1B0C
330
4
100
AcDbSymbolTableRecord
100
AcDbLinetypeTableRecord
  2
AI-Linetype-13
 70
     0
  3
Adobe Illustrator Linetype No. 13
 72
    65
 73
     2
 40
1.057999968528748
 49
0.5289999842643738
 74
     0
 49
-0.5289999842643738
 74
     0
  0
LTYPE
  5
1B0D
330
4
100
AcDbSymbolTableRecord
100
AcDbLinetypeTableRecord
  2
AI-Linetype-14
 70
     0
  3
Adobe Illustrator Linetype No. 14
 72
    65
 73
     4
 40
14.39999985694885
 49
9.0
 74
     0
 49
-1.799999952316284
 74
     0
 49
1.799999952316284
 74
     0
 49
-1.799999952316284
 74
     0
  0
LTYPE
  5
1B0E
330
4
100
AcDbSymbolTableRecord
100
AcDbLinetypeTableRecord
  2
AI-Linetype-15
 70
     0
  3
Adobe Illustrator Linetype No. 15
 72
    65
 73
     4
 40
14.39999985694885
 49
9.0
 74
     0
 49
-1.799999952316284
 74
     0
 49
1.799999952316284
 74
     0
 49
-1.799999952316284
 74
     0
  0
LTYPE
  5
27EB
330
4
100
AcDbSymbolTableRecord
100
AcDbLinetypeTableRecord
  2
CENTER
 70
     0
  3
 Center _____  _  _____  _  _____  _  _____  _ 
 72
    65
 73
     4
 40
50.8
 49
31.75
 74
     0
 49
-6.35
 74
     0
 49
6.35
 74
     0
 49
-6.35
 74
     0
  0
ENDTAB
  0
TABLE
  2
LAYER
  5
2
102
{ACAD_XDICTIONARY
360
2E1
102
}
330
0
100
AcDbSymbolTable
 70
     8
  0
LAYER
  5
14
330
2
100
AcDbSymbolTableRecord
100
AcDbLayerTableRecord
  2
0
 70
     0
 62
     7
  6
Continuous
370
    -3
390
1D
347
266
  0
LAYER
  5
4A
330
2
100
AcDbSymbolTableRecord
100
AcDbLayerTableRecord
  2
Defpoints
 70
     0
 62
     7
  6
Continuous
290
     0
370
    20
390
1D
347
266
  0
LAYER
  5
4B
330
2
100
AcDbSymbolTableRecord
100
AcDbLayerTableRecord
  2
template
 70
     0
 62
     7
  6
Continuous
370
    20
390
1D
347
266
  0
LAYER
  5
4D
330
2
100
AcDbSymbolTableRecord
100
AcDbLayerTableRecord
  2
MODEL
 70
     0
 62
     7
  6
Continuous
370
    20
390
1D
347
266
  0
LAYER
  5
382
330
2
100
AcDbSymbolTableRecord
100
AcDbLayerTableRecord
  2
レイヤー 1
 70
     0
 62
     7
  6
Continuous
370
    -3
390
1D
347
266
  0
LAYER
  5
5C4
330
2
100
AcDbSymbolTableRecord
100
AcDbLayerTableRecord
  2
HIDDEN
 70
     0
 62
   253
  6
HIDDEN
370
    20
390
1D
347
266
1001
AcAecLayerStandard
1000

1000

  0
LAYER
  5
5EB
330
2
100
AcDbSymbolTableRecord
100
AcDbLayerTableRecord
  2
Dim
 70
     0
 62
     3
  6
Continuous
370
    13
390
1D
347
266
1001
AcAecLayerStandard
1000

1000

  0
LAYER
  5
BF1
330
2
100
AcDbSymbolTableRecord
100
AcDbLayerTableRecord
  2
PRINT BORDER
 70
     0
 62
     4
  6
BORDER
290
     0
370
    20
390
1D
347
266
1001
AcAecLayerStandard
1000

1000

  0
ENDTAB
  0
TABLE
  2
STYLE
  5
3
330
0
100
AcDbSymbolTable
 70
     2
  0
STYLE
  5
17
330
3
100
AcDbSymbolTableRecord
100
AcDbTextStyleTableRecord
  2
Standard
 70
     0
 40
0.0
 41
1.0
 50
0.0
 71
     0
 42
533.0403732820173
  3
txt
  4
BIGFONT.SHX
  0
STYLE
  5
39
330
3
100
AcDbSymbolTableRecord
100
AcDbTextStyleTableRecord
  2
ＭＳ ゴシック
 70
     0
 40
0.0
 41
1.0
 50
0.0
 71
     0
 42
2.5
  3
msgothic.ttc
  4
ＭＳ ゴシック
1001
ACAD
1000
ＭＳ ゴシック
1071
        0
  0
ENDTAB
  0
TABLE
  2
VIEW
  5
5
330
0
100
AcDbSymbolTable
 70
     0
  0
ENDTAB
  0
TABLE
  2
UCS
  5
6
330
0
100
AcDbSymbolTable
 70
     0
  0
ENDTAB
  0
TABLE
  2
APPID
  5
8
330
0
100
AcDbSymbolTable
 70
    11
  0
APPID
  5
16
330
8
100
AcDbSymbolTableRecord
100
AcDbRegAppTableRecord
  2
ACAD
 70
     0
  0
APPID
  5
5C5
330
8
100
AcDbSymbolTableRecord
100
AcDbRegAppTableRecord
  2
AcAecLayerStandard
 70
     0
  0
APPID
  5
913
330
8
100
AcDbSymbolTableRecord
100
AcDbRegAppTableRecord
  2
ACAD_DSTYLE_DIMBREAK
 70
     0
  0
APPID
  5
914
330
8
100
AcDbSymbolTableRecord
100
AcDbRegAppTableRecord
  2
ACAD_DSTYLE_DIMJAG
 70
     0
  0
APPID
  5
915
330
8
100
AcDbSymbolTableRecord
100
AcDbRegAppTableRecord
  2
ACAD_DSTYLE_DIMTALN
 70
     0
  0
APPID
  5
E4F
330
8
100
AcDbSymbolTableRecord
100
AcDbRegAppTableRecord
  2
ACAD_MLEADERVER
 70
     0
  0
APPID
  5
E79
330
8
100
AcDbSymbolTableRecord
100
AcDbRegAppTableRecord
  2
ACAD_PSEXT
 70
     0
  0
APPID
  5
E7A
330
8
100
AcDbSymbolTableRecord
100
AcDbRegAppTableRecord
  2
ACAD_NAV_VCDISPLAY
 70
     0
  0
APPID
  5
166E
330
8
100
AcDbSymbolTableRecord
100
AcDbRegAppTableRecord
  2
AcadAnnotative
 70
     0
  0
APPID
  5
166F
330
8
100
AcDbSymbolTableRecord
100
AcDbRegAppTableRecord
  2
GradientColor1ACI
 70
     0
  0
APPID
  5
1670
330
8
100
AcDbSymbolTableRecord
100
AcDbRegAppTableRecord
  2
GradientColor2ACI
 70
     0
  0
ENDTAB
  0
TABLE
  2
DIMSTYLE
  5
9
330
0
100
AcDbSymbolTable
 70
     3
100
AcDbDimStyleTable
  0
DIMSTYLE
105
18
330
9
100
AcDbSymbolTableRecord
100
AcDbDimStyleTableRecord
  2
Standard
 70
     0
178
     0
340
17
  0
DIMSTYLE
105
5C
102
{ACAD_REACTORS
330
2595
330
25E3
330
2605
330
2614
330
2621
330
2633
330
273F
330
2999
330
29BD
330
29CD
102
}
330
9
100
AcDbSymbolTableRecord
100
AcDbDimStyleTableRecord
  2
JIS
 70
     0
  3
<>
  4
[]
 41
9.0
 42
0.0
 43
6.99999999999994
 44
19.9999999999962
 73
     0
 74
     0
 77
     1
 78
    11
140
24.4326171875
141
0.0
143
1.0
147
10.0
171
     1
174
     1
178
     0
179
     2
271
     1
272
     1
276
     2
284
    11
285
    11
286
    11
289
     0
340
39
341
4E
342
4E
  0
DIMSTYLE
105
2836
102
{ACAD_REACTORS
330
2934
330
2937
330
293A
330
293D
330
293F
330
2940
102
}
330
9
100
AcDbSymbolTableRecord
100
AcDbDimStyleTableRecord
  2
tfrom線あり
 70
     0
  3
<>
  4
[]
 41
8.0
 42
30.0
 43
0.0
 44
0.0
 73
     0
 74
     0
 77
     1
 78
    11
140
24.0
141
0.0
143
1.0
147
20.0
171
     1
174
     1
178
     0
179
     2
271
     0
272
     1
276
     2
284
    11
285
    11
286
    11
289
     0
340
39
341
4E
342
4E
  0
ENDTAB
  0
TABLE
  2
BLOCK_RECORD
  5
1
330
0
100
AcDbSymbolTable
 70
    49
  0
BLOCK_RECORD
  5
A
330
1
100
AcDbSymbolTableRecord
100
AcDbBlockTableRecord
  2
*MODEL_SPACE
340
20
 70
     0
280
     1
281
     0
  0
BLOCK_RECORD
  5
B
330
1
100
AcDbSymbolTableRecord
100
AcDbBlockTableRecord
  2
*PAPER_SPACE
340
21
 70
     0
280
     1
281
     0
  0
BLOCK_RECORD
  5
4E
330
1
100
AcDbSymbolTableRecord
100
AcDbBlockTableRecord
  2
_DOT
340
0
102
{BLKREFS
331
19BF
331
19C0
331
19DB
331
19DC
331
19EB
331
19EC
331
19FA
331
19FB
331
1A0A
331
1A0B
331
1A1F
331
1A20
331
1A2C
331
1A2D
331
1A3C
331
1A3D
331
1A49
331
1A4A
331
1A8F
331
1A90
331
1AAA
331
1AAB
331
2359
331
235A
331
2369
331
236A
331
2378
331
2379
331
2387
331
2388
331
2396
331
2397
331
23A5
331
23A6
331
2578
331
2579
331
258E
331
258F
331
259E
331
259F
331
25AB
331
25AC
331
25CA
331
25CB
331
25EA
331
25EB
331
260E
331
260F
331
261B
331
261C
331
262A
331
262B
331
263A
331
263B
331
2735
331
2736
331
2746
331
2747
331
28A7
331
28A8
331
28B8
331
28B9
331
28C5
331
28C6
331
28D3
331
28D4
331
28E1
331
28E2
331
2950
331
2951
331
295E
331
295F
331
296A
331
296B
331
2976
331
2977
331
2983
331
2984
331
29A0
331
29A1
331
29C4
331
29C5
331
29D4
331
29D5
102
}
 70
     0
280
     1
281
     0
  0
BLOCK_RECORD
  5
3A5
330
1
100
AcDbSymbolTableRecord
100
AcDbBlockTableRecord
  2
名称未設定-1
340
0
102
{BLKREFS
331
3D0
102
}
 70
     1
280
     1
281
     0
  0
BLOCK_RECORD
  5
3A8
330
1
100
AcDbSymbolTableRecord
100
AcDbBlockTableRecord
  2
block 2
340
0
102
{BLKREFS
331
3A7
102
}
 70
     0
280
     1
281
     0
  0
BLOCK_RECORD
  5
3AB
330
1
100
AcDbSymbolTableRecord
100
AcDbBlockTableRecord
  2
block 3
340
0
102
{BLKREFS
331
3AA
102
}
 70
     0
280
     1
281
     0
  0
BLOCK_RECORD
  5
3AE
330
1
100
AcDbSymbolTableRecord
100
AcDbBlockTableRecord
  2
block 4
340
0
102
{BLKREFS
331
3AD
102
}
 70
     0
280
     1
281
     0
  0
BLOCK_RECORD
  5
3BD
330
1
100
AcDbSymbolTableRecord
100
AcDbBlockTableRecord
  2
block 5
340
0
102
{BLKREFS
331
3BC
102
}
 70
     0
280
     1
281
     0
  0
BLOCK_RECORD
  5
11F0
330
1
100
AcDbSymbolTableRecord
100
AcDbBlockTableRecord
  2
BLOCK_2
340
0
102
{BLKREFS
331
1273
331
127B
331
127C
102
}
 70
     0
280
     1
281
     0
  0
BLOCK_RECORD
  5
19B9
330
1
100
AcDbSymbolTableRecord
100
AcDbBlockTableRecord
  2
*D7
340
0
 70
     0
280
     1
281
     0
  0
BLOCK_RECORD
  5
19D5
330
1
100
AcDbSymbolTableRecord
100
AcDbBlockTableRecord
  2
*D8
340
0
 70
     0
280
     1
281
     0
  0
BLOCK_RECORD
  5
19E5
330
1
100
AcDbSymbolTableRecord
100
AcDbBlockTableRecord
  2
*D9
340
0
 70
     0
280
     1
281
     0
  0
BLOCK_RECORD
  5
19F4
330
1
100
AcDbSymbolTableRecord
100
AcDbBlockTableRecord
  2
*D10
340
0
 70
     0
280
     1
281
     0
  0
BLOCK_RECORD
  5
1A04
330
1
100
AcDbSymbolTableRecord
100
AcDbBlockTableRecord
  2
*D11
340
0
 70
     0
280
     1
281
     0
  0
BLOCK_RECORD
  5
1A19
330
1
100
AcDbSymbolTableRecord
100
AcDbBlockTableRecord
  2
*D12
340
0
 70
     0
280
     1
281
     0
  0
BLOCK_RECORD
  5
1A26
330
1
100
AcDbSymbolTableRecord
100
AcDbBlockTableRecord
  2
*D13
340
0
 70
     0
280
     1
281
     0
  0
BLOCK_RECORD
  5
1A36
330
1
100
AcDbSymbolTableRecord
100
AcDbBlockTableRecord
  2
*D14
340
0
 70
     0
280
     1
281
     0
  0
BLOCK_RECORD
  5
1A43
330
1
100
AcDbSymbolTableRecord
100
AcDbBlockTableRecord
  2
*D15
340
0
 70
     0
280
     1
281
     0
  0
BLOCK_RECORD
  5
1A89
330
1
100
AcDbSymbolTableRecord
100
AcDbBlockTableRecord
  2
*D16
340
0
 70
     0
280
     1
281
     0
  0
BLOCK_RECORD
  5
1AA5
330
1
100
AcDbSymbolTableRecord
100
AcDbBlockTableRecord
  2
*D17
340
0
 70
     0
280
     1
281
     0
  0
BLOCK_RECORD
  5
2353
330
1
100
AcDbSymbolTableRecord
100
AcDbBlockTableRecord
  2
*D18
340
0
 70
     0
280
     1
281
     0
  0
BLOCK_RECORD
  5
2363
330
1
100
AcDbSymbolTableRecord
100
AcDbBlockTableRecord
  2
*D19
340
0
 70
     0
280
     1
281
     0
  0
BLOCK_RECORD
  5
2372
330
1
100
AcDbSymbolTableRecord
100
AcDbBlockTableRecord
  2
*D20
340
0
 70
     0
280
     1
281
     0
  0
BLOCK_RECORD
  5
2381
330
1
100
AcDbSymbolTableRecord
100
AcDbBlockTableRecord
  2
*D21
340
0
 70
     0
280
     1
281
     0
  0
BLOCK_RECORD
  5
2390
330
1
100
AcDbSymbolTableRecord
100
AcDbBlockTableRecord
  2
*D22
340
0
 70
     0
280
     1
281
     0
  0
BLOCK_RECORD
  5
239F
330
1
100
AcDbSymbolTableRecord
100
AcDbBlockTableRecord
  2
*D23
340
0
 70
     0
280
     1
281
     0
  0
BLOCK_RECORD
  5
2572
330
1
100
AcDbSymbolTableRecord
100
AcDbBlockTableRecord
  2
*D24
340
0
 70
     0
280
     1
281
     0
  0
BLOCK_RECORD
  5
2588
330
1
100
AcDbSymbolTableRecord
100
AcDbBlockTableRecord
  2
*D25
340
0
 70
     0
280
     1
281
     0
  0
BLOCK_RECORD
  5
2598
330
1
100
AcDbSymbolTableRecord
100
AcDbBlockTableRecord
  2
*D26
340
0
 70
     0
280
     1
281
     0
  0
BLOCK_RECORD
  5
25A5
330
1
100
AcDbSymbolTableRecord
100
AcDbBlockTableRecord
  2
*D27
340
0
 70
     0
280
     1
281
     0
  0
BLOCK_RECORD
  5
25C4
330
1
100
AcDbSymbolTableRecord
100
AcDbBlockTableRecord
  2
*D28
340
0
 70
     0
280
     1
281
     0
  0
BLOCK_RECORD
  5
25E4
330
1
100
AcDbSymbolTableRecord
100
AcDbBlockTableRecord
  2
*D29
340
0
 70
     0
280
     1
281
     0
  0
BLOCK_RECORD
  5
2608
330
1
100
AcDbSymbolTableRecord
100
AcDbBlockTableRecord
  2
*D30
340
0
 70
     0
280
     1
281
     0
  0
BLOCK_RECORD
  5
2615
330
1
100
AcDbSymbolTableRecord
100
AcDbBlockTableRecord
  2
*D31
340
0
 70
     0
280
     1
281
     0
  0
BLOCK_RECORD
  5
2624
330
1
100
AcDbSymbolTableRecord
100
AcDbBlockTableRecord
  2
*D32
340
0
 70
     0
280
     1
281
     0
  0
BLOCK_RECORD
  5
2634
330
1
100
AcDbSymbolTableRecord
100
AcDbBlockTableRecord
  2
*D33
340
0
 70
     0
280
     1
281
     0
  0
BLOCK_RECORD
  5
2731
330
1
100
AcDbSymbolTableRecord
100
AcDbBlockTableRecord
  2
*D34
340
0
 70
     0
280
     1
281
     0
  0
BLOCK_RECORD
  5
2741
330
1
100
AcDbSymbolTableRecord
100
AcDbBlockTableRecord
  2
*D35
340
0
 70
     0
280
     1
281
     0
  0
BLOCK_RECORD
  5
28A3
330
1
100
AcDbSymbolTableRecord
100
AcDbBlockTableRecord
  2
*D36
340
0
 70
     0
280
     1
281
     0
  0
BLOCK_RECORD
  5
28B3
330
1
100
AcDbSymbolTableRecord
100
AcDbBlockTableRecord
  2
*D37
340
0
 70
     0
280
     1
281
     0
  0
BLOCK_RECORD
  5
28C0
330
1
100
AcDbSymbolTableRecord
100
AcDbBlockTableRecord
  2
*D38
340
0
 70
     0
280
     1
281
     0
  0
BLOCK_RECORD
  5
28CE
330
1
100
AcDbSymbolTableRecord
100
AcDbBlockTableRecord
  2
*D39
340
0
 70
     0
280
     1
281
     0
  0
BLOCK_RECORD
  5
28DB
330
1
100
AcDbSymbolTableRecord
100
AcDbBlockTableRecord
  2
*D40
340
0
 70
     0
280
     1
281
     0
  0
BLOCK_RECORD
  5
294B
330
1
100
AcDbSymbolTableRecord
100
AcDbBlockTableRecord
  2
*D41
340
0
 70
     0
280
     1
281
     0
  0
BLOCK_RECORD
  5
2958
330
1
100
AcDbSymbolTableRecord
100
AcDbBlockTableRecord
  2
*D42
340
0
 70
     0
280
     1
281
     0
  0
BLOCK_RECORD
  5
2964
330
1
100
AcDbSymbolTableRecord
100
AcDbBlockTableRecord
  2
*D43
340
0
 70
     0
280
     1
281
     0
  0
BLOCK_RECORD
  5
2970
330
1
100
AcDbSymbolTableRecord
100
AcDbBlockTableRecord
  2
*D44
340
0
 70
     0
280
     1
281
     0
  0
BLOCK_RECORD
  5
297C
330
1
100
AcDbSymbolTableRecord
100
AcDbBlockTableRecord
  2
*D45
340
0
 70
     0
280
     1
281
     0
  0
BLOCK_RECORD
  5
299A
330
1
100
AcDbSymbolTableRecord
100
AcDbBlockTableRecord
  2
*D46
340
0
 70
     0
280
     1
281
     0
  0
BLOCK_RECORD
  5
29BE
330
1
100
AcDbSymbolTableRecord
100
AcDbBlockTableRecord
  2
*D47
340
0
 70
     0
280
     1
281
     0
  0
BLOCK_RECORD
  5
29CE
330
1
100
AcDbSymbolTableRecord
100
AcDbBlockTableRecord
  2
*D48
340
0
 70
     0
280
     1
281
     0
  0
ENDTAB
  0
ENDSEC
  0
SECTION
  2
BLOCKS
  0
BLOCK
  5
D
330
A
100
AcDbEntity
  8
0
390
1D
100
AcDbBlockBegin
  2
*MODEL_SPACE
 70
     0
 10
0.0
 20
0.0
 30
0.0
  3
*MODEL_SPACE
  1
*MODEL_SPACE
  0
ENDBLK
  5
E
330
A
100
AcDbEntity
  8
0
390
1D
100
AcDbBlockEnd
  0
BLOCK
  5
F
330
B
100
AcDbEntity
 67
     1
  8
0
390
1D
100
AcDbBlockBegin
  2
*PAPER_SPACE
 70
     0
 10
0.0
 20
0.0
 30
0.0
  3
*PAPER_SPACE
  1
*PAPER_SPACE
  0
ENDBLK
  5
10
330
B
100
AcDbEntity
 67
     1
  8
0
390
1D
100
AcDbBlockEnd
  0
BLOCK
  5
2BB
330
4E
100
AcDbEntity
  8
0
390
1D
100
AcDbBlockBegin
  2
_DOT
 70
     0
 10
0.0
 20
0.0
 30
0.0
  3
_DOT
  1
_DOT
  0
POLYLINE
  5
2BD
330
4E
100
AcDbEntity
  8
0
  6
ByBlock
 62
     0
370
    -2
390
1D
100
AcDb2dPolyline
 66
     1
 10
0.0
 20
0.0
 30
0.0
 70
     1
 40
0.5
 41
0.5
  0
VERTEX
  5
2BE
330
2BD
100
AcDbEntity
  8
0
  6
ByBlock
 62
     0
370
    -2
390
1D
100
AcDbVertex
100
AcDb2dVertex
 10
-0.25
 20
0.0
 30
0.0
 42
1.0
  0
VERTEX
  5
2BF
330
2BD
100
AcDbEntity
  8
0
  6
ByBlock
 62
     0
370
    -2
390
1D
100
AcDbVertex
100
AcDb2dVertex
 10
0.25
 20
0.0
 30
0.0
 42
1.0
  0
SEQEND
  5
2C0
330
2BD
100
AcDbEntity
  8
0
390
1D
  0
LINE
  5
2C1
330
4E
100
AcDbEntity
  8
0
  6
ByBlock
 62
     0
370
    -2
390
1D
100
AcDbLine
 10
-0.5
 20
0.0
 30
0.0
 11
-1.0
 21
0.0
 31
0.0
  0
ENDBLK
  5
2C2
330
4E
100
AcDbEntity
  8
0
390
1D
100
AcDbBlockEnd
  0
BLOCK
  5
3A6
330
3A5
100
AcDbEntity
  8
0
100
AcDbBlockBegin
  2
名称未設定-1
 70
     0
 10
0.0
 20
0.0
 30
0.0
  3
名称未設定-1
  1
名称未設定-1
  0
INSERT
  5
3A7
330
3A5
100
AcDbEntity
  8
レイヤー 1
100
AcDbBlockReference
  2
block 2
 10
0.0
 20
0.0
 30
0.0
  0
ENDBLK
  5
3CC
330
3A5
100
AcDbEntity
  8
0
100
AcDbBlockEnd
  0
BLOCK
  5
3A9
330
3A8
100
AcDbEntity
  8
0
100
AcDbBlockBegin
  2
block 2
 70
     0
 10
0.0
 20
0.0
 30
0.0
  3
block 2
  1
block 2
  0
INSERT
  5
3AA
330
3A8
100
AcDbEntity
  8
レイヤー 1
100
AcDbBlockReference
  2
block 3
 10
0.0
 20
0.0
 30
0.0
  0
ENDBLK
  5
3CB
330
3A8
100
AcDbEntity
  8
0
100
AcDbBlockEnd
  0
BLOCK
  5
3AC
330
3AB
100
AcDbEntity
  8
0
100
AcDbBlockBegin
  2
block 3
 70
     0
 10
0.0
 20
0.0
 30
0.0
  3
block 3
  1
block 3
  0
INSERT
  5
3AD
330
3AB
100
AcDbEntity
  8
レイヤー 1
100
AcDbBlockReference
  2
block 4
 10
0.0
 20
0.0
 30
0.0
  0
ENDBLK
  5
3CA
330
3AB
100
AcDbEntity
  8
0
100
AcDbBlockEnd
  0
BLOCK
  5
3AF
330
3AE
100
AcDbEntity
  8
0
100
AcDbBlockBegin
  2
block 4
 70
     0
 10
0.0
 20
0.0
 30
0.0
  3
block 4
  1
block 4
  0
POLYLINE
  5
3B0
330
3AE
100
AcDbEntity
  8
レイヤー 1
370
     0
100
AcDb2dPolyline
 66
     1
 10
0.0
 20
0.0
 30
0.0
  0
VERTEX
  5
3B1
330
3B0
100
AcDbEntity
  8
レイヤー 1
370
     0
100
AcDbVertex
100
AcDb2dVertex
 10
83.79545727667795
 20
167.6444858234922
 30
0.0
  0
VERTEX
  5
3B2
330
3B0
100
AcDbEntity
  8
レイヤー 1
370
     0
100
AcDbVertex
100
AcDb2dVertex
 10
83.79545727667795
 20
159.7968976406313
 30
0.0
  0
VERTEX
  5
3B3
330
3B0
100
AcDbEntity
  8
レイヤー 1
370
     0
100
AcDbVertex
100
AcDb2dVertex
 10
71.3631329975216
 20
159.7968976406313
 30
0.0
  0
VERTEX
  5
3B4
330
3B0
100
AcDbEntity
  8
レイヤー 1
370
     0
100
AcDbVertex
100
AcDb2dVertex
 10
71.3631329975216
 20
127.8027915271048
 30
0.0
  0
VERTEX
  5
3B5
330
3B0
100
AcDbEntity
  8
レイヤー 1
370
     0
100
AcDbVertex
100
AcDb2dVertex
 10
60.43011526263018
 20
127.8027915271048
 30
0.0
  0
VERTEX
  5
3B6
330
3B0
100
AcDbEntity
  8
レイヤー 1
370
     0
100
AcDbVertex
100
AcDb2dVertex
 10
60.43011526263018
 20
159.7968976406313
 30
0.0
  0
VERTEX
  5
3B7
330
3B0
100
AcDbEntity
  8
レイヤー 1
370
     0
100
AcDbVertex
100
AcDb2dVertex
 10
48.21793273020759
 20
159.7968976406313
 30
0.0
  0
VERTEX
  5
3B8
330
3B0
100
AcDbEntity
  8
レイヤー 1
370
     0
100
AcDbVertex
100
AcDb2dVertex
 10
48.21793273020759
 20
167.6444858234922
 30
0.0
  0
VERTEX
  5
3B9
330
3B0
100
AcDbEntity
  8
レイヤー 1
370
     0
100
AcDbVertex
100
AcDb2dVertex
 10
83.79545727667795
 20
167.6444858234922
 30
0.0
  0
SEQEND
  5
3BA
330
3B0
100
AcDbEntity
  8
レイヤー 1
370
     0
  0
HATCH
  5
3BB
330
3AE
100
AcDbEntity
  8
レイヤー 1
 62
   250
420
  2234388
100
AcDbHatch
 10
0.0
 20
0.0
 30
0.0
210
0.0
220
0.0
230
1.0
  2
SOLID
 70
     1
 71
     0
 91
        1
 92
        1
 93
        8
 72
     1
 10
83.79545727667795
 20
167.6444858234922
 11
83.79545727667795
 21
159.7968976406313
 72
     1
 10
83.79545727667795
 20
159.7968976406313
 11
71.3631329975216
 21
159.7968976406313
 72
     1
 10
71.3631329975216
 20
159.7968976406313
 11
71.3631329975216
 21
127.8027915271048
 72
     1
 10
71.3631329975216
 20
127.8027915271048
 11
60.43011526263018
 21
127.8027915271048
 72
     1
 10
60.43011526263018
 20
127.8027915271048
 11
60.43011526263018
 21
159.7968976406313
 72
     1
 10
60.43011526263018
 20
159.7968976406313
 11
48.21793273020759
 21
159.7968976406313
 72
     1
 10
48.21793273020759
 20
159.7968976406313
 11
48.21793273020759
 21
167.6444858234922
 72
     1
 10
48.21793273020759
 20
167.6444858234922
 11
83.79545727667795
 21
167.6444858234922
 97
        0
 75
     2
 76
     1
 98
        0
  0
INSERT
  5
3BC
330
3AE
100
AcDbEntity
  8
レイヤー 1
100
AcDbBlockReference
  2
block 5
 10
0.0
 20
0.0
 30
0.0
  0
ENDBLK
  5
3C9
330
3AE
100
AcDbEntity
  8
0
100
AcDbBlockEnd
  0
BLOCK
  5
3BE
330
3BD
100
AcDbEntity
  8
0
100
AcDbBlockBegin
  2
block 5
 70
     0
 10
0.0
 20
0.0
 30
0.0
  3
block 5
  1
block 5
  0
SPLINE
  5
3BF
330
3BD
100
AcDbEntity
  8
レイヤー 1
370
     0
100
AcDbSpline
210
0.0
220
0.0
230
1.0
 70
    11
 71
     3
 72
    56
 73
    52
 74
     0
 42
0.000000001
 43
0.0000000001
 40
0.0
 40
0.0
 40
0.0
 40
0.0
 40
1.0
 40
1.0
 40
1.0
 40
2.0
 40
2.0
 40
2.0
 40
3.0
 40
3.0
 40
3.0
 40
4.0
 40
4.0
 40
4.0
 40
5.0
 40
5.0
 40
5.0
 40
6.0
 40
6.0
 40
6.0
 40
7.0
 40
7.0
 40
7.0
 40
8.0
 40
8.0
 40
8.0
 40
9.0
 40
9.0
 40
9.0
 40
10.0
 40
10.0
 40
10.0
 40
11.0
 40
11.0
 40
11.0
 40
12.0
 40
12.0
 40
12.0
 40
13.0
 40
13.0
 40
13.0
 40
14.0
 40
14.0
 40
14.0
 40
15.0
 40
15.0
 40
15.0
 40
16.0
 40
16.0
 40
16.0
 40
17.0
 40
17.0
 40
17.0
 40
17.0
 10
100.4504378777679
 20
166.69157178364
 30
0.0
 10
101.9848844191641
 20
167.1313385124438
 30
0.0
 10
103.9637485713373
 20
166.7649523658846
 30
0.0
 10
103.9637485713373
 20
166.7649523658846
 30
0.0
 10
103.9637485713373
 20
166.7649523658846
 30
0.0
 10
103.0132460999156
 20
163.911205638077
 30
0.0
 10
103.0132460999156
 20
163.911205638077
 30
0.0
 10
103.0132460999156
 20
163.911205638077
 30
0.0
 10
101.0674548862189
 20
164.3601018759394
 30
0.0
 10
99.57090442016032
 20
163.1805004036133
 30
0.0
 10
98.40508333886608
 20
162.258247733807
 30
0.0
 10
97.65301849830304
 20
159.804132345923
 30
0.0
 10
97.3598406791005
 20
158.8699940888517
 30
0.0
 10
97.3598406791005
 20
158.8699940888517
 30
0.0
 10
96.07137411762282
 20
154.9119212747295
 30
0.0
 10
96.07137411762282
 20
154.9119212747295
 30
0.0
 10
96.07137411762282
 20
154.9119212747295
 30
0.0
 10
100.3012651448482
 20
154.9119212747295
 30
0.0
 10
100.3012651448482
 20
154.9119212747295
 30
0.0
 10
100.3012651448482
 20
154.9119212747295
 30
0.0
 10
99.64152892419852
 20
152.4199098115079
 30
0.0
 10
99.64152892419852
 20
152.4199098115079
 30
0.0
 10
99.64152892419852
 20
152.4199098115079
 30
0.0
 10
95.38097652692731
 20
152.4199098115079
 30
0.0
 10
95.38097652692731
 20
152.4199098115079
 30
0.0
 10
95.38097652692731
 20
152.4199098115079
 30
0.0
 10
87.75353009080013
 20
127.8027915271048
 30
0.0
 10
87.75353009080013
 20
127.8027915271048
 30
0.0
 10
87.75353009080013
 20
127.8027915271048
 30
0.0
 10
85.36538832498108
 20
127.8027915271048
 30
0.0
 10
85.36538832498108
 20
127.8027915271048
 30
0.0
 10
85.36538832498108
 20
127.8027915271048
 30
0.0
 10
93.00006946639998
 20
152.4199098115079
 30
0.0
 10
93.00006946639998
 20
152.4199098115079
 30
0.0
 10
93.00006946639998
 20
152.4199098115079
 30
0.0
 10
89.85297266450198
 20
152.4199098115079
 30
0.0
 10
89.85297266450198
 20
152.4199098115079
 30
0.0
 10
89.85297266450198
 20
152.4199098115079
 30
0.0
 10
90.51270888515164
 20
154.9119212747295
 30
0.0
 10
90.51270888515164
 20
154.9119212747295
 30
0.0
 10
90.51270888515164
 20
154.9119212747295
 30
0.0
 10
93.6904670570955
 20
154.9119212747295
 30
0.0
 10
93.6904670570955
 20
154.9119212747295
 30
0.0
 10
93.6904670570955
 20
154.9119212747295
 30
0.0
 10
94.81598049462158
 20
158.3616699146644
 30
0.0
 10
94.81598049462158
 20
158.3616699146644
 30
0.0
 10
95.7237637538445
 20
161.2605474231013
 30
0.0
 10
96.4968436907311
 20
162.8139420021662
 30
0.0
 10
97.15657991138076
 20
163.9844139654337
 30
0.0
 10
97.81183750494507
 20
165.1523021053827
 30
0.0
 10
99.1047826935081
 20
166.3084769129547
 30
0.0
 10
100.4504378777679
 20
166.69157178364
 30
0.0
  0
HATCH
  5
3C0
330
3BD
100
AcDbEntity
  8
レイヤー 1
 62
   250
420
  2234388
100
AcDbHatch
 10
0.0
 20
0.0
 30
0.0
210
0.0
220
0.0
230
1.0
  2
SOLID
 70
     1
 71
     0
 91
        1
 92
        1
 93
        1
 72
     4
 94
        3
 73
     0
 74
     1
 95
       56
 96
       52
 40
0.0
 40
0.0
 40
0.0
 40
0.0
 40
1.0
 40
1.0
 40
1.0
 40
2.0
 40
2.0
 40
2.0
 40
3.0
 40
3.0
 40
3.0
 40
4.0
 40
4.0
 40
4.0
 40
5.0
 40
5.0
 40
5.0
 40
6.0
 40
6.0
 40
6.0
 40
7.0
 40
7.0
 40
7.0
 40
8.0
 40
8.0
 40
8.0
 40
9.0
 40
9.0
 40
9.0
 40
10.0
 40
10.0
 40
10.0
 40
11.0
 40
11.0
 40
11.0
 40
12.0
 40
12.0
 40
12.0
 40
13.0
 40
13.0
 40
13.0
 40
14.0
 40
14.0
 40
14.0
 40
15.0
 40
15.0
 40
15.0
 40
16.0
 40
16.0
 40
16.0
 40
17.0
 40
17.0
 40
17.0
 40
17.0
 10
100.4504378777679
 20
166.69157178364
 10
101.9848844191641
 20
167.1313385124438
 10
103.9637485713373
 20
166.7649523658846
 10
103.9637485713373
 20
166.7649523658846
 10
103.9637485713373
 20
166.7649523658846
 10
103.0132460999156
 20
163.911205638077
 10
103.0132460999156
 20
163.911205638077
 10
103.0132460999156
 20
163.911205638077
 10
101.0674548862189
 20
164.3601018759394
 10
99.57090442016032
 20
163.1805004036133
 10
98.40508333886608
 20
162.258247733807
 10
97.65301849830304
 20
159.804132345923
 10
97.3598406791005
 20
158.8699940888517
 10
97.3598406791005
 20
158.8699940888517
 10
96.07137411762282
 20
154.9119212747295
 10
96.07137411762282
 20
154.9119212747295
 10
96.07137411762282
 20
154.9119212747295
 10
100.3012651448482
 20
154.9119212747295
 10
100.3012651448482
 20
154.9119212747295
 10
100.3012651448482
 20
154.9119212747295
 10
99.64152892419852
 20
152.4199098115079
 10
99.64152892419852
 20
152.4199098115079
 10
99.64152892419852
 20
152.4199098115079
 10
95.38097652692731
 20
152.4199098115079
 10
95.38097652692731
 20
152.4199098115079
 10
95.38097652692731
 20
152.4199098115079
 10
87.75353009080013
 20
127.8027915271048
 10
87.75353009080013
 20
127.8027915271048
 10
87.75353009080013
 20
127.8027915271048
 10
85.36538832498108
 20
127.8027915271048
 10
85.36538832498108
 20
127.8027915271048
 10
85.36538832498108
 20
127.8027915271048
 10
93.00006946639998
 20
152.4199098115079
 10
93.00006946639998
 20
152.4199098115079
 10
93.00006946639998
 20
152.4199098115079
 10
89.85297266450198
 20
152.4199098115079
 10
89.85297266450198
 20
152.4199098115079
 10
89.85297266450198
 20
152.4199098115079
 10
90.51270888515164
 20
154.9119212747295
 10
90.51270888515164
 20
154.9119212747295
 10
90.51270888515164
 20
154.9119212747295
 10
93.6904670570955
 20
154.9119212747295
 10
93.6904670570955
 20
154.9119212747295
 10
93.6904670570955
 20
154.9119212747295
 10
94.81598049462158
 20
158.3616699146644
 10
94.81598049462158
 20
158.3616699146644
 10
95.7237637538445
 20
161.2605474231013
 10
96.4968436907311
 20
162.8139420021662
 10
97.15657991138076
 20
163.9844139654337
 10
97.81183750494507
 20
165.1523021053827
 10
99.1047826935081
 20
166.3084769129547
 10
100.4504378777679
 20
166.69157178364
 97
        0
 75
     2
 76
     1
 98
        0
  0
SPLINE
  5
3C1
330
3BD
100
AcDbEntity
  8
レイヤー 1
370
     0
100
AcDbSpline
210
0.0
220
0.0
230
1.0
 70
    11
 71
     3
 72
    38
 73
    34
 74
     0
 42
0.000000001
 43
0.0000000001
 40
0.0
 40
0.0
 40
0.0
 40
0.0
 40
1.0
 40
1.0
 40
1.0
 40
2.0
 40
2.0
 40
2.0
 40
3.0
 40
3.0
 40
3.0
 40
4.0
 40
4.0
 40
4.0
 40
5.0
 40
5.0
 40
5.0
 40
6.0
 40
6.0
 40
6.0
 40
7.0
 40
7.0
 40
7.0
 40
8.0
 40
8.0
 40
8.0
 40
9.0
 40
9.0
 40
9.0
 40
10.0
 40
10.0
 40
10.0
 40
11.0
 40
11.0
 40
11.0
 40
11.0
 10
126.377554584636
 20
154.8151140277308
 30
0.0
 10
126.377554584636
 20
154.8151140277308
 30
0.0
 10
128.8311532078563
 20
154.8151140277308
 30
0.0
 10
128.8311532078563
 20
154.8151140277308
 30
0.0
 10
128.8311532078563
 20
154.8151140277308
 30
0.0
 10
127.7345785914971
 20
151.3062819612468
 30
0.0
 10
127.7345785914971
 20
151.3062819612468
 30
0.0
 10
128.571392836906
 20
152.2922689395754
 30
0.0
 10
129.8860421413442
 20
153.604506675583
 30
0.0
 10
131.0163787157314
 20
154.2664822097754
 30
0.0
 10
132.7044766171327
 20
155.2500576196734
 30
0.0
 10
133.6642808525008
 20
155.3847609420097
 30
0.0
 10
134.7284715499351
 20
155.3565111403944
 30
0.0
 10
134.7284715499351
 20
155.3565111403944
 30
0.0
 10
133.6877075172549
 20
152.0345756272799
 30
0.0
 10
133.6877075172549
 20
152.0345756272799
 30
0.0
 10
133.011434827367
 20
152.3184516825359
 30
0.0
 10
130.930940291334
 20
151.7768823149844
 30
0.0
 10
129.739280976855
 20
150.9162968950455
 30
0.0
 10
128.66613302525
 20
150.1454562717016
 30
0.0
 10
127.9192358313239
 20
149.4857200510519
 30
0.0
 10
127.0393578639405
 20
147.8282835196966
 30
0.0
 10
126.164647543194
 20
146.1699857139017
 30
0.0
 10
125.4742499524985
 20
143.5262176944419
 30
0.0
 10
124.2822461282437
 20
139.6959580071401
 30
0.0
 10
124.2822461282437
 20
139.6959580071401
 30
0.0
 10
120.5753209406769
 20
127.8027915271048
 30
0.0
 10
120.5753209406769
 20
127.8027915271048
 30
0.0
 10
120.5753209406769
 20
127.8027915271048
 30
0.0
 10
118.1964809388044
 20
127.8027915271048
 30
0.0
 10
118.1964809388044
 20
127.8027915271048
 30
0.0
 10
118.1964809388044
 20
127.8027915271048
 30
0.0
 10
126.377554584636
 20
154.8151140277308
 30
0.0
 10
126.377554584636
 20
154.8151140277308
 30
0.0
  0
HATCH
  5
3C2
330
3BD
100
AcDbEntity
  8
レイヤー 1
 62
   250
420
  2234388
100
AcDbHatch
 10
0.0
 20
0.0
 30
0.0
210
0.0
220
0.0
230
1.0
  2
SOLID
 70
     1
 71
     0
 91
        1
 92
        1
 93
        1
 72
     4
 94
        3
 73
     0
 74
     1
 95
       38
 96
       34
 40
0.0
 40
0.0
 40
0.0
 40
0.0
 40
1.0
 40
1.0
 40
1.0
 40
2.0
 40
2.0
 40
2.0
 40
3.0
 40
3.0
 40
3.0
 40
4.0
 40
4.0
 40
4.0
 40
5.0
 40
5.0
 40
5.0
 40
6.0
 40
6.0
 40
6.0
 40
7.0
 40
7.0
 40
7.0
 40
8.0
 40
8.0
 40
8.0
 40
9.0
 40
9.0
 40
9.0
 40
10.0
 40
10.0
 40
10.0
 40
11.0
 40
11.0
 40
11.0
 40
11.0
 10
126.377554584636
 20
154.8151140277308
 10
126.377554584636
 20
154.8151140277308
 10
128.8311532078563
 20
154.8151140277308
 10
128.8311532078563
 20
154.8151140277308
 10
128.8311532078563
 20
154.8151140277308
 10
127.7345785914971
 20
151.3062819612468
 10
127.7345785914971
 20
151.3062819612468
 10
128.571392836906
 20
152.2922689395754
 10
129.8860421413442
 20
153.604506675583
 10
131.0163787157314
 20
154.2664822097754
 10
132.7044766171327
 20
155.2500576196734
 10
133.6642808525008
 20
155.3847609420097
 10
134.7284715499351
 20
155.3565111403944
 10
134.7284715499351
 20
155.3565111403944
 10
133.6877075172549
 20
152.0345756272799
 10
133.6877075172549
 20
152.0345756272799
 10
133.011434827367
 20
152.3184516825359
 10
130.930940291334
 20
151.7768823149844
 10
129.739280976855
 20
150.9162968950455
 10
128.66613302525
 20
150.1454562717016
 10
127.9192358313239
 20
149.4857200510519
 10
127.0393578639405
 20
147.8282835196966
 10
126.164647543194
 20
146.1699857139017
 10
125.4742499524985
 20
143.5262176944419
 10
124.2822461282437
 20
139.6959580071401
 10
124.2822461282437
 20
139.6959580071401
 10
120.5753209406769
 20
127.8027915271048
 10
120.5753209406769
 20
127.8027915271048
 10
120.5753209406769
 20
127.8027915271048
 10
118.1964809388044
 20
127.8027915271048
 10
118.1964809388044
 20
127.8027915271048
 10
118.1964809388044
 20
127.8027915271048
 10
126.377554584636
 20
154.8151140277308
 10
126.377554584636
 20
154.8151140277308
 97
        0
 75
     2
 76
     1
 98
        0
  0
SPLINE
  5
3C3
330
3BD
100
AcDbEntity
  8
レイヤー 1
370
     0
100
AcDbSpline
210
0.0
220
0.0
230
1.0
 70
    11
 71
     3
 72
   104
 73
   100
 74
     0
 42
0.000000001
 43
0.0000000001
 40
0.0
 40
0.0
 40
0.0
 40
0.0
 40
1.0
 40
1.0
 40
1.0
 40
2.0
 40
2.0
 40
2.0
 40
3.0
 40
3.0
 40
3.0
 40
4.0
 40
4.0
 40
4.0
 40
5.0
 40
5.0
 40
5.0
 40
6.0
 40
6.0
 40
6.0
 40
7.0
 40
7.0
 40
7.0
 40
8.0
 40
8.0
 40
8.0
 40
9.0
 40
9.0
 40
9.0
 40
10.0
 40
10.0
 40
10.0
 40
11.0
 40
11.0
 40
11.0
 40
12.0
 40
12.0
 40
12.0
 40
13.0
 40
13.0
 40
13.0
 40
14.0
 40
14.0
 40
14.0
 40
15.0
 40
15.0
 40
15.0
 40
16.0
 40
16.0
 40
16.0
 40
17.0
 40
17.0
 40
17.0
 40
18.0
 40
18.0
 40
18.0
 40
19.0
 40
19.0
 40
19.0
 40
20.0
 40
20.0
 40
20.0
 40
21.0
 40
21.0
 40
21.0
 40
22.0
 40
22.0
 40
22.0
 40
23.0
 40
23.0
 40
23.0
 40
24.0
 40
24.0
 40
24.0
 40
25.0
 40
25.0
 40
25.0
 40
26.0
 40
26.0
 40
26.0
 40
27.0
 40
27.0
 40
27.0
 40
28.0
 40
28.0
 40
28.0
 40
29.0
 40
29.0
 40
29.0
 40
30.0
 40
30.0
 40
30.0
 40
31.0
 40
31.0
 40
31.0
 40
32.0
 40
32.0
 40
32.0
 40
33.0
 40
33.0
 40
33.0
 40
33.0
 10
139.8926730891197
 20
154.8294111834263
 30
0.0
 10
139.8926730891197
 20
154.8294111834263
 30
0.0
 10
142.0344903652445
 20
154.8294111834263
 30
0.0
 10
142.0344903652445
 20
154.8294111834263
 30
0.0
 10
142.0344903652445
 20
154.8294111834263
 30
0.0
 10
140.9516961399171
 20
151.3157559800812
 30
0.0
 10
140.9516961399171
 20
151.3157559800812
 30
0.0
 10
141.8928968473923
 20
152.7887075264977
 30
0.0
 10
142.7341897198865
 20
153.4484437471474
 30
0.0
 10
143.8552245303272
 20
154.2926649527359
 30
0.0
 10
144.9803934580775
 20
155.1296514530327
 30
0.0
 10
146.3139908001845
 20
155.3044901642492
 30
0.0
 10
147.241066606852
 20
155.3044901642492
 30
0.0
 10
148.3855280820469
 20
155.3044901642492
 30
0.0
 10
149.4969166187653
 20
155.0752189084569
 30
0.0
 10
150.0784491203092
 20
153.8172414621372
 30
0.0
 10
150.5228667310863
 20
152.833838307127
 30
0.0
 10
150.5414702589793
 20
152.7201500811143
 30
0.0
 10
150.4140016419347
 20
150.7765981809602
 30
0.0
 10
151.5818897818837
 20
152.7699317437168
 30
0.0
 10
152.4424752018226
 20
153.6256940267945
 30
0.0
 10
153.9038856707499
 20
154.4507949398263
 30
0.0
 10
155.4455669174378
 20
155.3044901642492
 30
0.0
 10
156.339225275853
 20
155.3659851592288
 30
0.0
 10
157.3748216618963
 20
155.2147453676543
 30
0.0
 10
158.911679771723
 20
154.9877134254046
 30
0.0
 10
159.8859534176746
 20
154.4390816074493
 30
0.0
 10
160.3965169054045
 20
152.7816450760939
 30
0.0
 10
160.9070803931344
 20
151.1219692311958
 30
0.0
 10
160.6328506116007
 20
150.2303779314354
 30
0.0
 10
159.9992971339115
 20
147.597634224801
 30
0.0
 10
159.7105979417943
 20
146.4014962832367
 30
0.0
 10
159.2947746424084
 20
144.9400858143094
 30
0.0
 10
158.7463150793409
 20
143.2092687007094
 30
0.0
 10
158.7463150793409
 20
143.2092687007094
 30
0.0
 10
153.9038856707499
 20
127.8027915271048
 30
0.0
 10
153.9038856707499
 20
127.8027915271048
 30
0.0
 10
153.9038856707499
 20
127.8027915271048
 30
0.0
 10
151.3882752878863
 20
127.8027915271048
 30
0.0
 10
151.3882752878863
 20
127.8027915271048
 30
0.0
 10
151.3882752878863
 20
127.8027915271048
 30
0.0
 10
155.6250565106276
 20
141.2751908193897
 30
0.0
 10
155.6250565106276
 20
141.2751908193897
 30
0.0
 10
156.5094131050963
 20
144.0936252951782
 30
0.0
 10
157.109893644309
 20
146.1506931664571
 30
0.0
 10
157.4220195011804
 20
147.4415712963654
 30
0.0
 10
157.8095929989511
 20
149.0530157726519
 30
0.0
 10
157.9656559273867
 20
149.5826995529385
 30
0.0
 10
157.7816877071116
 20
150.7529992613181
 30
0.0
 10
157.6111553680925
 20
151.8430281919372
 30
0.0
 10
157.0582171779396
 20
152.5547853887321
 30
0.0
 10
156.1170164704645
 20
152.5547853887321
 30
0.0
 10
155.1096698860365
 20
152.5547853887321
 30
0.0
 10
154.2962823053817
 20
152.4412694176073
 30
0.0
 10
153.156643967048
 20
151.2945686288697
 30
0.0
 10
152.0170056287143
 20
150.1476955852443
 30
0.0
 10
151.076149431015
 20
148.7930831468137
 30
0.0
 10
150.3337308641742
 20
147.2290087646991
 30
0.0
 10
149.5957909244188
 20
145.6683794803425
 30
0.0
 10
148.8530278478023
 20
143.6822806228776
 30
0.0
 10
148.0964843801539
 20
141.2751908193897
 30
0.0
 10
148.0964843801539
 20
141.2751908193897
 30
0.0
 10
143.8552245303272
 20
127.8027915271048
 30
0.0
 10
143.8552245303272
 20
127.8027915271048
 30
0.0
 10
143.8552245303272
 20
127.8027915271048
 30
0.0
 10
141.486030802177
 20
127.8027915271048
 30
0.0
 10
141.486030802177
 20
127.8027915271048
 30
0.0
 10
141.486030802177
 20
127.8027915271048
 30
0.0
 10
146.3329388378533
 20
143.2092687007094
 30
0.0
 10
146.3329388378533
 20
143.2092687007094
 30
0.0
 10
146.8483254624444
 20
144.8408669988801
 30
0.0
 10
147.2314203331297
 20
146.1837661049335
 30
0.0
 10
147.4867020769946
 20
147.224185627838
 30
0.0
 10
147.9169947869641
 20
149.0197705792876
 30
0.0
 10
148.0306830129768
 20
150.2400242051577
 30
0.0
 10
147.709255392159
 20
151.3157559800812
 30
0.0
 10
147.3874832615654
 20
152.3916600098926
 30
0.0
 10
146.8245542879144
 20
152.6683013598569
 30
0.0
 10
145.8840425999909
 20
152.6683013598569
 30
0.0
 10
145.0989048209514
 20
152.6683013598569
 30
0.0
 10
144.3282364524954
 20
152.3275811915945
 30
0.0
 10
143.4531816219731
 20
151.6538923250251
 30
0.0
 10
142.34627171234
 20
150.8074318058939
 30
0.0
 10
141.901854101563
 20
150.1097995099067
 30
0.0
 10
141.3578731655808
 20
149.289521733736
 30
0.0
 10
140.6299240093235
 20
148.192602607601
 30
0.0
 10
140.2850697237515
 20
147.455696197173
 30
0.0
 10
139.6652966370942
 20
145.8385673095858
 30
0.0
 10
139.0506911970739
 20
144.2214384219986
 30
0.0
 10
138.463991048893
 20
142.3252566160164
 30
0.0
 10
138.0571250036777
 20
141.0154304484394
 30
0.0
 10
138.0571250036777
 20
141.0154304484394
 30
0.0
 10
133.9009590684727
 20
127.8027915271048
 30
0.0
 10
133.9009590684727
 20
127.8027915271048
 30
0.0
 10
133.9009590684727
 20
127.8027915271048
 30
0.0
 10
131.4180771143097
 20
127.8027915271048
 30
0.0
 10
131.4180771143097
 20
127.8027915271048
 30
0.0
 10
131.4180771143097
 20
127.8027915271048
 30
0.0
 10
139.8926730891197
 20
154.8294111834263
 30
0.0
 10
139.8926730891197
 20
154.8294111834263
 30
0.0
  0
HATCH
  5
3C4
330
3BD
100
AcDbEntity
  8
レイヤー 1
 62
   250
420
  2234388
100
AcDbHatch
 10
0.0
 20
0.0
 30
0.0
210
0.0
220
0.0
230
1.0
  2
SOLID
 70
     1
 71
     0
 91
        1
 92
        1
 93
        1
 72
     4
 94
        3
 73
     0
 74
     1
 95
      104
 96
      100
 40
0.0
 40
0.0
 40
0.0
 40
0.0
 40
1.0
 40
1.0
 40
1.0
 40
2.0
 40
2.0
 40
2.0
 40
3.0
 40
3.0
 40
3.0
 40
4.0
 40
4.0
 40
4.0
 40
5.0
 40
5.0
 40
5.0
 40
6.0
 40
6.0
 40
6.0
 40
7.0
 40
7.0
 40
7.0
 40
8.0
 40
8.0
 40
8.0
 40
9.0
 40
9.0
 40
9.0
 40
10.0
 40
10.0
 40
10.0
 40
11.0
 40
11.0
 40
11.0
 40
12.0
 40
12.0
 40
12.0
 40
13.0
 40
13.0
 40
13.0
 40
14.0
 40
14.0
 40
14.0
 40
15.0
 40
15.0
 40
15.0
 40
16.0
 40
16.0
 40
16.0
 40
17.0
 40
17.0
 40
17.0
 40
18.0
 40
18.0
 40
18.0
 40
19.0
 40
19.0
 40
19.0
 40
20.0
 40
20.0
 40
20.0
 40
21.0
 40
21.0
 40
21.0
 40
22.0
 40
22.0
 40
22.0
 40
23.0
 40
23.0
 40
23.0
 40
24.0
 40
24.0
 40
24.0
 40
25.0
 40
25.0
 40
25.0
 40
26.0
 40
26.0
 40
26.0
 40
27.0
 40
27.0
 40
27.0
 40
28.0
 40
28.0
 40
28.0
 40
29.0
 40
29.0
 40
29.0
 40
30.0
 40
30.0
 40
30.0
 40
31.0
 40
31.0
 40
31.0
 40
32.0
 40
32.0
 40
32.0
 40
33.0
 40
33.0
 40
33.0
 40
33.0
 10
139.8926730891197
 20
154.8294111834263
 10
139.8926730891197
 20
154.8294111834263
 10
142.0344903652445
 20
154.8294111834263
 10
142.0344903652445
 20
154.8294111834263
 10
142.0344903652445
 20
154.8294111834263
 10
140.9516961399171
 20
151.3157559800812
 10
140.9516961399171
 20
151.3157559800812
 10
141.8928968473923
 20
152.7887075264977
 10
142.7341897198865
 20
153.4484437471474
 10
143.8552245303272
 20
154.2926649527359
 10
144.9803934580775
 20
155.1296514530327
 10
146.3139908001845
 20
155.3044901642492
 10
147.241066606852
 20
155.3044901642492
 10
148.3855280820469
 20
155.3044901642492
 10
149.4969166187653
 20
155.0752189084569
 10
150.0784491203092
 20
153.8172414621372
 10
150.5228667310863
 20
152.833838307127
 10
150.5414702589793
 20
152.7201500811143
 10
150.4140016419347
 20
150.7765981809602
 10
151.5818897818837
 20
152.7699317437168
 10
152.4424752018226
 20
153.6256940267945
 10
153.9038856707499
 20
154.4507949398263
 10
155.4455669174378
 20
155.3044901642492
 10
156.339225275853
 20
155.3659851592288
 10
157.3748216618963
 20
155.2147453676543
 10
158.911679771723
 20
154.9877134254046
 10
159.8859534176746
 20
154.4390816074493
 10
160.3965169054045
 20
152.7816450760939
 10
160.9070803931344
 20
151.1219692311958
 10
160.6328506116007
 20
150.2303779314354
 10
159.9992971339115
 20
147.597634224801
 10
159.7105979417943
 20
146.4014962832367
 10
159.2947746424084
 20
144.9400858143094
 10
158.7463150793409
 20
143.2092687007094
 10
158.7463150793409
 20
143.2092687007094
 10
153.9038856707499
 20
127.8027915271048
 10
153.9038856707499
 20
127.8027915271048
 10
153.9038856707499
 20
127.8027915271048
 10
151.3882752878863
 20
127.8027915271048
 10
151.3882752878863
 20
127.8027915271048
 10
151.3882752878863
 20
127.8027915271048
 10
155.6250565106276
 20
141.2751908193897
 10
155.6250565106276
 20
141.2751908193897
 10
156.5094131050963
 20
144.0936252951782
 10
157.109893644309
 20
146.1506931664571
 10
157.4220195011804
 20
147.4415712963654
 10
157.8095929989511
 20
149.0530157726519
 10
157.9656559273867
 20
149.5826995529385
 10
157.7816877071116
 20
150.7529992613181
 10
157.6111553680925
 20
151.8430281919372
 10
157.0582171779396
 20
152.5547853887321
 10
156.1170164704645
 20
152.5547853887321
 10
155.1096698860365
 20
152.5547853887321
 10
154.2962823053817
 20
152.4412694176073
 10
153.156643967048
 20
151.2945686288697
 10
152.0170056287143
 20
150.1476955852443
 10
151.076149431015
 20
148.7930831468137
 10
150.3337308641742
 20
147.2290087646991
 10
149.5957909244188
 20
145.6683794803425
 10
148.8530278478023
 20
143.6822806228776
 10
148.0964843801539
 20
141.2751908193897
 10
148.0964843801539
 20
141.2751908193897
 10
143.8552245303272
 20
127.8027915271048
 10
143.8552245303272
 20
127.8027915271048
 10
143.8552245303272
 20
127.8027915271048
 10
141.486030802177
 20
127.8027915271048
 10
141.486030802177
 20
127.8027915271048
 10
141.486030802177
 20
127.8027915271048
 10
146.3329388378533
 20
143.2092687007094
 10
146.3329388378533
 20
143.2092687007094
 10
146.8483254624444
 20
144.8408669988801
 10
147.2314203331297
 20
146.1837661049335
 10
147.4867020769946
 20
147.224185627838
 10
147.9169947869641
 20
149.0197705792876
 10
148.0306830129768
 20
150.2400242051577
 10
147.709255392159
 20
151.3157559800812
 10
147.3874832615654
 20
152.3916600098926
 10
146.8245542879144
 20
152.6683013598569
 10
145.8840425999909
 20
152.6683013598569
 10
145.0989048209514
 20
152.6683013598569
 10
144.3282364524954
 20
152.3275811915945
 10
143.4531816219731
 20
151.6538923250251
 10
142.34627171234
 20
150.8074318058939
 10
141.901854101563
 20
150.1097995099067
 10
141.3578731655808
 20
149.289521733736
 10
140.6299240093235
 20
148.192602607601
 10
140.2850697237515
 20
147.455696197173
 10
139.6652966370942
 20
145.8385673095858
 10
139.0506911970739
 20
144.2214384219986
 10
138.463991048893
 20
142.3252566160164
 10
138.0571250036777
 20
141.0154304484394
 10
138.0571250036777
 20
141.0154304484394
 10
133.9009590684727
 20
127.8027915271048
 10
133.9009590684727
 20
127.8027915271048
 10
133.9009590684727
 20
127.8027915271048
 10
131.4180771143097
 20
127.8027915271048
 10
131.4180771143097
 20
127.8027915271048
 10
131.4180771143097
 20
127.8027915271048
 10
139.8926730891197
 20
154.8294111834263
 10
139.8926730891197
 20
154.8294111834263
 97
        0
 75
     2
 76
     1
 98
        0
  0
SPLINE
  5
3C5
330
3BD
100
AcDbEntity
  8
レイヤー 1
370
     0
100
AcDbSpline
210
0.0
220
0.0
230
1.0
 70
    11
 71
     3
 72
    29
 73
    25
 74
     0
 42
0.000000001
 43
0.0000000001
 40
0.0
 40
0.0
 40
0.0
 40
0.0
 40
1.0
 40
1.0
 40
1.0
 40
2.0
 40
2.0
 40
2.0
 40
3.0
 40
3.0
 40
3.0
 40
4.0
 40
4.0
 40
4.0
 40
5.0
 40
5.0
 40
5.0
 40
6.0
 40
6.0
 40
6.0
 40
7.0
 40
7.0
 40
7.0
 40
8.0
 40
8.0
 40
8.0
 40
8.0
 10
101.6420971922469
 20
132.8388354296931
 30
0.0
 10
101.630039350094
 20
134.7164137077823
 30
0.0
 10
102.2236296937908
 20
138.0598810818841
 30
0.0
 10
103.7487744712405
 20
142.5378191476827
 30
0.0
 10
105.819967243327
 20
148.5896501242061
 30
0.0
 10
107.0602024361932
 20
150.8074318058939
 30
0.0
 10
108.1522984254671
 20
151.8833358357054
 30
0.0
 10
109.741177511439
 20
153.4532668840085
 30
0.0
 10
111.8740375333931
 20
153.5290590346837
 30
0.0
 10
112.5075910110823
 20
153.4532668840085
 30
0.0
 10
113.4012493694975
 20
153.3490526768302
 30
0.0
 10
114.6683563248758
 20
152.7580461564518
 30
0.0
 10
114.7493161221879
 20
150.7838328862519
 30
0.0
 10
114.8106388622796
 20
149.0909118479895
 30
0.0
 10
114.3186789024427
 20
145.9191825971221
 30
0.0
 10
112.6164561002338
 20
140.9489400617108
 30
0.0
 10
110.6444821435766
 20
135.1746117095912
 30
0.0
 10
109.4669477299053
 20
132.8960240524753
 30
0.0
 10
108.5212683953448
 20
131.9072809959403
 30
0.0
 10
106.7346406980658
 20
130.0538184021569
 30
0.0
 10
104.8222669326213
 20
130.2336525051225
 30
0.0
 10
104.5408024457958
 20
130.2336525051225
 30
0.0
 10
104.1721769856939
 20
130.2336525051225
 30
0.0
 10
101.6465758193322
 20
130.6305277668397
 30
0.0
 10
101.6420971922469
 20
132.8388354296931
 30
0.0
  0
SPLINE
  5
3C6
330
3BD
100
AcDbEntity
  8
レイヤー 1
370
     0
100
AcDbSpline
210
0.0
220
0.0
230
1.0
 70
    11
 71
     3
 72
    32
 73
    28
 74
     0
 42
0.000000001
 43
0.0000000001
 40
0.0
 40
0.0
 40
0.0
 40
0.0
 40
1.0
 40
1.0
 40
1.0
 40
2.0
 40
2.0
 40
2.0
 40
3.0
 40
3.0
 40
3.0
 40
4.0
 40
4.0
 40
4.0
 40
5.0
 40
5.0
 40
5.0
 40
6.0
 40
6.0
 40
6.0
 40
7.0
 40
7.0
 40
7.0
 40
8.0
 40
8.0
 40
8.0
 40
9.0
 40
9.0
 40
9.0
 40
9.0
 10
106.2595617172429
 20
153.4105476718098
 30
0.0
 10
104.8222669326213
 20
151.5474388043041
 30
0.0
 10
103.7177685914188
 20
149.8758773721411
 30
0.0
 10
101.9232171692965
 20
144.6141795664062
 30
0.0
 10
100.2754269116635
 20
139.7999999594306
 30
0.0
 10
99.22777268346732
 20
136.3052927937542
 30
0.0
 10
99.06964269637689
 20
132.039572749846
 30
0.0
 10
98.94665270641765
 20
128.8673267343149
 30
0.0
 10
100.8807305877373
 20
127.8027915271048
 30
0.0
 10
103.7129454545577
 20
127.8027915271048
 30
0.0
 10
104.9352661390825
 20
127.8027915271048
 30
0.0
 10
108.0151835347002
 20
127.8827177950895
 30
0.0
 10
110.2045431598849
 20
130.5926316915021
 30
0.0
 10
111.7417457794874
 20
132.4984597712065
 30
0.0
 10
113.155269389579
 20
134.475256864725
 30
0.0
 10
115.0562743324223
 20
140.9489400617108
 30
0.0
 10
116.6361961642235
 20
146.3680788349845
 30
0.0
 10
117.7282921534974
 20
149.8639917848761
 30
0.0
 10
117.6480213757369
 20
151.8595646611754
 30
0.0
 10
117.6480213757369
 20
151.8595646611754
 30
0.0
 10
117.6480213757369
 20
151.8595646611754
 30
0.0
 10
117.6480213757369
 20
151.8595646611754
 30
0.0
 10
117.13229024137
 20
155.18150017429
 30
0.0
 10
114.7162431837115
 20
155.886194920681
 30
0.0
 10
113.3351034925446
 20
155.886194920681
 30
0.0
 10
111.9829026225447
 20
155.886194920681
 30
0.0
 10
108.3414342923792
 20
156.1251124501957
 30
0.0
 10
106.2595617172429
 20
153.4105476718098
 30
0.0
  0
HATCH
  5
3C7
330
3BD
100
AcDbEntity
  8
レイヤー 1
 62
   250
420
  2234388
100
AcDbHatch
 10
0.0
 20
0.0
 30
0.0
210
0.0
220
0.0
230
1.0
  2
SOLID
 70
     1
 71
     0
 91
        2
 92
        1
 93
        1
 72
     4
 94
        3
 73
     0
 74
     1
 95
       29
 96
       25
 40
0.0
 40
0.0
 40
0.0
 40
0.0
 40
1.0
 40
1.0
 40
1.0
 40
2.0
 40
2.0
 40
2.0
 40
3.0
 40
3.0
 40
3.0
 40
4.0
 40
4.0
 40
4.0
 40
5.0
 40
5.0
 40
5.0
 40
6.0
 40
6.0
 40
6.0
 40
7.0
 40
7.0
 40
7.0
 40
8.0
 40
8.0
 40
8.0
 40
8.0
 10
101.6420971922469
 20
132.8388354296931
 10
101.630039350094
 20
134.7164137077823
 10
102.2236296937908
 20
138.0598810818841
 10
103.7487744712405
 20
142.5378191476827
 10
105.819967243327
 20
148.5896501242061
 10
107.0602024361932
 20
150.8074318058939
 10
108.1522984254671
 20
151.8833358357054
 10
109.741177511439
 20
153.4532668840085
 10
111.8740375333931
 20
153.5290590346837
 10
112.5075910110823
 20
153.4532668840085
 10
113.4012493694975
 20
153.3490526768302
 10
114.6683563248758
 20
152.7580461564518
 10
114.7493161221879
 20
150.7838328862519
 10
114.8106388622796
 20
149.0909118479895
 10
114.3186789024427
 20
145.9191825971221
 10
112.6164561002338
 20
140.9489400617108
 10
110.6444821435766
 20
135.1746117095912
 10
109.4669477299053
 20
132.8960240524753
 10
108.5212683953448
 20
131.9072809959403
 10
106.7346406980658
 20
130.0538184021569
 10
104.8222669326213
 20
130.2336525051225
 10
104.5408024457958
 20
130.2336525051225
 10
104.1721769856939
 20
130.2336525051225
 10
101.6465758193322
 20
130.6305277668397
 10
101.6420971922469
 20
132.8388354296931
 97
        0
 92
        1
 93
        1
 72
     4
 94
        3
 73
     0
 74
     1
 95
       32
 96
       28
 40
0.0
 40
0.0
 40
0.0
 40
0.0
 40
1.0
 40
1.0
 40
1.0
 40
2.0
 40
2.0
 40
2.0
 40
3.0
 40
3.0
 40
3.0
 40
4.0
 40
4.0
 40
4.0
 40
5.0
 40
5.0
 40
5.0
 40
6.0
 40
6.0
 40
6.0
 40
7.0
 40
7.0
 40
7.0
 40
8.0
 40
8.0
 40
8.0
 40
9.0
 40
9.0
 40
9.0
 40
9.0
 10
106.2595617172429
 20
153.4105476718098
 10
104.8222669326213
 20
151.5474388043041
 10
103.7177685914188
 20
149.8758773721411
 10
101.9232171692965
 20
144.6141795664062
 10
100.2754269116635
 20
139.7999999594306
 10
99.22777268346732
 20
136.3052927937542
 10
99.06964269637689
 20
132.039572749846
 10
98.94665270641765
 20
128.8673267343149
 10
100.8807305877373
 20
127.8027915271048
 10
103.7129454545577
 20
127.8027915271048
 10
104.9352661390825
 20
127.8027915271048
 10
108.0151835347002
 20
127.8827177950895
 10
110.2045431598849
 20
130.5926316915021
 10
111.7417457794874
 20
132.4984597712065
 10
113.155269389579
 20
134.475256864725
 10
115.0562743324223
 20
140.9489400617108
 10
116.6361961642235
 20
146.3680788349845
 10
117.7282921534974
 20
149.8639917848761
 10
117.6480213757369
 20
151.8595646611754
 10
117.6480213757369
 20
151.8595646611754
 10
117.6480213757369
 20
151.8595646611754
 10
117.6480213757369
 20
151.8595646611754
 10
117.13229024137
 20
155.18150017429
 10
114.7162431837115
 20
155.886194920681
 10
113.3351034925446
 20
155.886194920681
 10
111.9829026225447
 20
155.886194920681
 10
108.3414342923792
 20
156.1251124501957
 10
106.2595617172429
 20
153.4105476718098
 97
        0
 75
     2
 76
     1
 98
        0
  0
ENDBLK
  5
3C8
330
3BD
100
AcDbEntity
  8
0
100
AcDbBlockEnd
  0
BLOCK
  5
11F1
330
11F0
100
AcDbEntity
  8
0
100
AcDbBlockBegin
  2
BLOCK_2
 70
     0
 10
0.0
 20
0.0
 30
0.0
  3
BLOCK_2
  1
BLOCK_2
  0
ENDBLK
  5
11F2
330
11F0
100
AcDbEntity
  8
0
100
AcDbBlockEnd
  0
BLOCK
  5
19BA
330
19B9
100
AcDbEntity
  8
0
100
AcDbBlockBegin
  2
*D7
 70
     1
 10
0.0
 20
0.0
 30
0.0
  3
*D7
  1
*D171
  0
LINE
  5
19BC
330
19B9
100
AcDbEntity
  8
Dim
  6
Continuous
 62
     0
370
    -2
100
AcDbLine
 10
-1099.996083546581
 20
2038.96504316011
 30
0.0
 11
-1099.996083546581
 21
2303.281849329459
 31
0.0
  0
LINE
  5
19BD
330
19B9
100
AcDbEntity
  8
Dim
  6
Continuous
 62
     0
370
    -2
100
AcDbLine
 10
-1799.89088807097
 20
2038.96504316011
 30
0.0
 11
-1799.89088807097
 21
2303.281849329459
 31
0.0
  0
LINE
  5
19BE
330
19B9
100
AcDbEntity
  8
Dim
  6
Continuous
 62
     0
370
    -2
100
AcDbLine
 10
-1108.996083546581
 20
2303.281849329459
 30
0.0
 11
-1790.89088807097
 21
2303.281849329459
 31
0.0
  0
INSERT
  5
19BF
330
19B9
100
AcDbEntity
  8
Dim
 62
     0
370
    -2
100
AcDbBlockReference
  2
_DOT
 10
-1099.996083546581
 20
2303.281849329459
 30
0.0
 41
9.0
 42
9.0
 43
9.0
  0
INSERT
  5
19C0
330
19B9
100
AcDbEntity
  8
Dim
 62
     0
370
    -2
100
AcDbBlockReference
  2
_DOT
 10
-1799.89088807097
 20
2303.281849329459
 30
0.0
 41
9.0
 42
9.0
 43
9.0
 50
180.0
  0
MTEXT
  5
19C1
330
19B9
100
AcDbEntity
  8
Dim
  6
Continuous
 62
     0
100
AcDbMText
 10
-1449.943485808775
 20
2325.498157923209
 30
0.0
 40
24.4326171875
 41
0.0
 46
0.0
 71
     5
 72
     1
  1
\A1;700
  7
ＭＳ ゴシック
 73
     1
 44
1.0
  0
POINT
  5
19C2
330
19B9
100
AcDbEntity
  8
Defpoints
 62
     0
100
AcDbPoint
 10
-1099.996083546581
 20
2013.96504316011
 30
0.0
  0
POINT
  5
19C3
330
19B9
100
AcDbEntity
  8
Defpoints
 62
     0
100
AcDbPoint
 10
-1799.89088807097
 20
2013.96504316011
 30
0.0
  0
POINT
  5
19C4
330
19B9
100
AcDbEntity
  8
Defpoints
 62
     0
100
AcDbPoint
 10
-1799.89088807097
 20
2303.281849329459
 30
0.0
  0
ENDBLK
  5
19BB
330
19B9
100
AcDbEntity
  8
0
100
AcDbBlockEnd
  0
BLOCK
  5
19D6
330
19D5
100
AcDbEntity
  8
0
100
AcDbBlockBegin
  2
*D8
 70
     1
 10
0.0
 20
0.0
 30
0.0
  3
*D8
  1
*D173
  0
LINE
  5
19D8
330
19D5
100
AcDbEntity
  8
Dim
  6
Continuous
 62
     0
370
    -2
100
AcDbLine
 10
-1249.325954287327
 20
2198.454981313166
 30
0.0
 11
-1025.715534479406
 21
2198.454981313166
 31
0.0
  0
LINE
  5
19D9
330
19D5
100
AcDbEntity
  8
Dim
  6
Continuous
 62
     0
370
    -2
100
AcDbLine
 10
-1249.325954287327
 20
1828.454981313166
 30
0.0
 11
-1025.715534479406
 21
1828.454981313166
 31
0.0
  0
LINE
  5
19DA
330
19D5
100
AcDbEntity
  8
Dim
  6
Continuous
 62
     0
370
    -2
100
AcDbLine
 10
-1025.715534479406
 20
2189.454981313166
 30
0.0
 11
-1025.715534479406
 21
1837.454981313166
 31
0.0
  0
INSERT
  5
19DB
330
19D5
100
AcDbEntity
  8
Dim
 62
     0
370
    -2
100
AcDbBlockReference
  2
_DOT
 10
-1025.715534479406
 20
2198.454981313166
 30
0.0
 41
9.0
 42
9.0
 43
9.0
 50
90.0
  0
INSERT
  5
19DC
330
19D5
100
AcDbEntity
  8
Dim
 62
     0
370
    -2
100
AcDbBlockReference
  2
_DOT
 10
-1025.715534479406
 20
1828.454981313166
 30
0.0
 41
9.0
 42
9.0
 43
9.0
 50
270.0
  0
MTEXT
  5
19DD
330
19D5
100
AcDbEntity
  8
Dim
  6
Continuous
 62
     0
100
AcDbMText
 10
-1047.931843073156
 20
2013.454981313166
 30
0.0
 40
24.4326171875
 41
0.0
 46
0.0
 71
     5
 72
     1
  1
\A1;370
  7
ＭＳ ゴシック
 11
0.0
 21
1.0
 31
0.0
 73
     1
 44
1.0
  0
POINT
  5
19DE
330
19D5
100
AcDbEntity
  8
Defpoints
 62
     0
100
AcDbPoint
 10
-1274.325954287327
 20
2198.454981313166
 30
0.0
  0
POINT
  5
19DF
330
19D5
100
AcDbEntity
  8
Defpoints
 62
     0
100
AcDbPoint
 10
-1274.325954287327
 20
1828.454981313166
 30
0.0
  0
POINT
  5
19E0
330
19D5
100
AcDbEntity
  8
Defpoints
 62
     0
100
AcDbPoint
 10
-1025.715534479406
 20
1828.454981313166
 30
0.0
  0
ENDBLK
  5
19D7
330
19D5
100
AcDbEntity
  8
0
100
AcDbBlockEnd
  0
BLOCK
  5
19E6
330
19E5
100
AcDbEntity
  8
0
100
AcDbBlockBegin
  2
*D9
 70
     1
 10
0.0
 20
0.0
 30
0.0
  3
*D9
  1
*D174
  0
LINE
  5
19E8
330
19E5
100
AcDbEntity
  8
Dim
  6
Continuous
 62
     0
370
    -2
100
AcDbLine
 10
-1658.462652838284
 20
2171.208593363257
 30
0.0
 11
-1848.980854296902
 21
2171.208593363257
 31
0.0
  0
LINE
  5
19E9
330
19E5
100
AcDbEntity
  8
Dim
  6
Continuous
 62
     0
370
    -2
100
AcDbLine
 10
-1658.462652838284
 20
1856.208593363257
 30
0.0
 11
-1848.980854296902
 21
1856.208593363257
 31
0.0
  0
LINE
  5
19EA
330
19E5
100
AcDbEntity
  8
Dim
  6
Continuous
 62
     0
370
    -2
100
AcDbLine
 10
-1848.980854296902
 20
2162.208593363257
 30
0.0
 11
-1848.980854296902
 21
1865.208593363257
 31
0.0
  0
INSERT
  5
19EB
330
19E5
100
AcDbEntity
  8
Dim
 62
     0
370
    -2
100
AcDbBlockReference
  2
_DOT
 10
-1848.980854296902
 20
2171.208593363257
 30
0.0
 41
9.0
 42
9.0
 43
9.0
 50
90.0
  0
INSERT
  5
19EC
330
19E5
100
AcDbEntity
  8
Dim
 62
     0
370
    -2
100
AcDbBlockReference
  2
_DOT
 10
-1848.980854296902
 20
1856.208593363257
 30
0.0
 41
9.0
 42
9.0
 43
9.0
 50
270.0
  0
MTEXT
  5
19ED
330
19E5
100
AcDbEntity
  8
Dim
  6
Continuous
 62
     0
100
AcDbMText
 10
-1871.197162890652
 20
2013.708593363257
 30
0.0
 40
24.4326171875
 41
0.0
 46
0.0
 71
     5
 72
     1
  1
\A1;315
  7
ＭＳ ゴシック
 11
0.0
 21
1.0
 31
0.0
 73
     1
 44
1.0
  0
POINT
  5
19EE
330
19E5
100
AcDbEntity
  8
Defpoints
 62
     0
100
AcDbPoint
 10
-1633.462652838284
 20
2171.208593363257
 30
0.0
  0
POINT
  5
19EF
330
19E5
100
AcDbEntity
  8
Defpoints
 62
     0
100
AcDbPoint
 10
-1633.462652838284
 20
1856.208593363257
 30
0.0
  0
POINT
  5
19F0
330
19E5
100
AcDbEntity
  8
Defpoints
 62
     0
100
AcDbPoint
 10
-1848.980854296902
 20
1856.208593363257
 30
0.0
  0
ENDBLK
  5
19E7
330
19E5
100
AcDbEntity
  8
0
100
AcDbBlockEnd
  0
BLOCK
  5
19F5
330
19F4
100
AcDbEntity
  8
0
100
AcDbBlockBegin
  2
*D10
 70
     1
 10
0.0
 20
0.0
 30
0.0
  3
*D10
  1
*D175
  0
LINE
  5
19F7
330
19F4
100
AcDbEntity
  8
Dim
  6
Continuous
 62
     0
370
    -2
100
AcDbLine
 10
-1769.89088878071
 20
1962.447941487623
 30
0.0
 11
-1769.89088878071
 21
1742.239402837962
 31
0.0
  0
LINE
  5
19F8
330
19F4
100
AcDbEntity
  8
Dim
  6
Continuous
 62
     0
370
    -2
100
AcDbLine
 10
-1129.996082836847
 20
1962.447941487651
 30
0.0
 11
-1129.996082836847
 21
1742.239402837962
 31
0.0
  0
LINE
  5
19F9
330
19F4
100
AcDbEntity
  8
Dim
  6
Continuous
 62
     0
370
    -2
100
AcDbLine
 10
-1760.89088878071
 20
1742.239402837962
 30
0.0
 11
-1138.996082836847
 21
1742.239402837962
 31
0.0
  0
INSERT
  5
19FA
330
19F4
100
AcDbEntity
  8
Dim
 62
     0
370
    -2
100
AcDbBlockReference
  2
_DOT
 10
-1769.89088878071
 20
1742.239402837962
 30
0.0
 41
9.0
 42
9.0
 43
9.0
 50
180.0
  0
INSERT
  5
19FB
330
19F4
100
AcDbEntity
  8
Dim
 62
     0
370
    -2
100
AcDbBlockReference
  2
_DOT
 10
-1129.996082836847
 20
1742.239402837962
 30
0.0
 41
9.0
 42
9.0
 43
9.0
  0
MTEXT
  5
19FC
330
19F4
100
AcDbEntity
  8
Dim
  6
Continuous
 62
     0
100
AcDbMText
 10
-1449.943485808778
 20
1764.455711431712
 30
0.0
 40
24.4326171875
 41
0.0
 46
0.0
 71
     5
 72
     1
  1
\A1;640
  7
ＭＳ ゴシック
 73
     1
 44
1.0
  0
POINT
  5
19FD
330
19F4
100
AcDbEntity
  8
Defpoints
 62
     0
100
AcDbPoint
 10
-1769.89088878071
 20
1987.447941487623
 30
0.0
  0
POINT
  5
19FE
330
19F4
100
AcDbEntity
  8
Defpoints
 62
     0
100
AcDbPoint
 10
-1129.996082836847
 20
1987.447941487651
 30
0.0
  0
POINT
  5
19FF
330
19F4
100
AcDbEntity
  8
Defpoints
 62
     0
100
AcDbPoint
 10
-1129.996082836847
 20
1742.239402837962
 30
0.0
  0
ENDBLK
  5
19F6
330
19F4
100
AcDbEntity
  8
0
100
AcDbBlockEnd
  0
BLOCK
  5
1A05
330
1A04
100
AcDbEntity
  8
0
100
AcDbBlockBegin
  2
*D11
 70
     1
 10
0.0
 20
0.0
 30
0.0
  3
*D11
  1
*D176
  0
LINE
  5
1A07
330
1A04
100
AcDbEntity
  8
Dim
  6
Continuous
 62
     0
370
    -2
100
AcDbLine
 10
-327.3720526930472
 20
986.4496762339288
 30
0.0
 11
-327.3720526930472
 21
735.8857509555712
 31
0.0
  0
LINE
  5
1A08
330
1A04
100
AcDbEntity
  8
Dim
  6
Continuous
 62
     0
370
    -2
100
AcDbLine
 10
-512.3720526930472
 20
778.9884752019805
 30
0.0
 11
-512.3720526930472
 21
735.8857509555712
 31
0.0
  0
LINE
  5
1A09
330
1A04
100
AcDbEntity
  8
Dim
  6
Continuous
 62
     0
370
    -2
100
AcDbLine
 10
-336.3720526930472
 20
735.8857509555712
 30
0.0
 11
-503.3720526930472
 21
735.8857509555712
 31
0.0
  0
INSERT
  5
1A0A
330
1A04
100
AcDbEntity
  8
Dim
 62
     0
370
    -2
100
AcDbBlockReference
  2
_DOT
 10
-327.3720526930472
 20
735.8857509555712
 30
0.0
 41
9.0
 42
9.0
 43
9.0
  0
INSERT
  5
1A0B
330
1A04
100
AcDbEntity
  8
Dim
 62
     0
370
    -2
100
AcDbBlockReference
  2
_DOT
 10
-512.3720526930472
 20
735.8857509555712
 30
0.0
 41
9.0
 42
9.0
 43
9.0
 50
180.0
  0
MTEXT
  5
1A0C
330
1A04
100
AcDbEntity
  8
Dim
  6
Continuous
 62
     0
100
AcDbMText
 10
-419.8720526930472
 20
758.1020595493212
 30
0.0
 40
24.4326171875
 41
0.0
 46
0.0
 71
     5
 72
     1
  1
\A1;185
  7
ＭＳ ゴシック
 73
     1
 44
1.0
  0
POINT
  5
1A0D
330
1A04
100
AcDbEntity
  8
Defpoints
 62
     0
100
AcDbPoint
 10
-327.3720526930472
 20
1011.449676233929
 30
0.0
  0
POINT
  5
1A0E
330
1A04
100
AcDbEntity
  8
Defpoints
 62
     0
100
AcDbPoint
 10
-512.3720526930472
 20
803.9884752019805
 30
0.0
  0
POINT
  5
1A0F
330
1A04
100
AcDbEntity
  8
Defpoints
 62
     0
100
AcDbPoint
 10
-512.3720526930472
 20
735.8857509555712
 30
0.0
  0
ENDBLK
  5
1A06
330
1A04
100
AcDbEntity
  8
0
100
AcDbBlockEnd
  0
BLOCK
  5
1A1A
330
1A19
100
AcDbEntity
  8
0
100
AcDbBlockBegin
  2
*D12
 70
     1
 10
0.0
 20
0.0
 30
0.0
  3
*D12
  1
*D177
  0
LINE
  5
1A1C
330
1A19
100
AcDbEntity
  8
Dim
  6
Continuous
 62
     0
370
    -2
100
AcDbLine
 10
-719.6927189960682
 20
1042.146970822732
 30
0.0
 11
-761.3768901128972
 21
1042.146970822732
 31
0.0
  0
LINE
  5
1A1D
330
1A19
100
AcDbEntity
  8
Dim
  6
Continuous
 62
     0
370
    -2
100
AcDbLine
 10
-702.471264939091
 20
967.2331786268264
 30
0.0
 11
-761.3768901128972
 21
967.2331786268264
 31
0.0
  0
LINE
  5
1A1E
330
1A19
100
AcDbEntity
  8
Dim
  6
Continuous
 62
     0
370
    -2
100
AcDbLine
 10
-761.3768901128972
 20
1033.146970822732
 30
0.0
 11
-761.3768901128972
 21
976.2331786268264
 31
0.0
  0
INSERT
  5
1A1F
330
1A19
100
AcDbEntity
  8
Dim
 62
     0
370
    -2
100
AcDbBlockReference
  2
_DOT
 10
-761.3768901128972
 20
1042.146970822732
 30
0.0
 41
9.0
 42
9.0
 43
9.0
 50
90.0
  0
INSERT
  5
1A20
330
1A19
100
AcDbEntity
  8
Dim
 62
     0
370
    -2
100
AcDbBlockReference
  2
_DOT
 10
-761.3768901128972
 20
967.2331786268264
 30
0.0
 41
9.0
 42
9.0
 43
9.0
 50
270.0
  0
MTEXT
  5
1A21
330
1A19
100
AcDbEntity
  8
Dim
  6
Continuous
 62
     0
100
AcDbMText
 10
-783.5931987066472
 20
1004.690074724779
 30
0.0
 40
24.4326171875
 41
0.0
 46
0.0
 71
     5
 72
     1
  1
\A1;75
  7
ＭＳ ゴシック
 11
0.0
 21
1.0
 31
0.0
 73
     1
 44
1.0
  0
POINT
  5
1A22
330
1A19
100
AcDbEntity
  8
Defpoints
 62
     0
100
AcDbPoint
 10
-694.6927189960682
 20
1042.146970822732
 30
0.0
  0
POINT
  5
1A23
330
1A19
100
AcDbEntity
  8
Defpoints
 62
     0
100
AcDbPoint
 10
-677.471264939091
 20
967.2331786268264
 30
0.0
  0
POINT
  5
1A24
330
1A19
100
AcDbEntity
  8
Defpoints
 62
     0
100
AcDbPoint
 10
-761.3768901128972
 20
967.2331786268264
 30
0.0
  0
ENDBLK
  5
1A1B
330
1A19
100
AcDbEntity
  8
0
100
AcDbBlockEnd
  0
BLOCK
  5
1A27
330
1A26
100
AcDbEntity
  8
0
100
AcDbBlockBegin
  2
*D13
 70
     1
 10
0.0
 20
0.0
 30
0.0
  3
*D13
  1
*D178
  0
LINE
  5
1A29
330
1A26
100
AcDbEntity
  8
Dim
  6
Continuous
 62
     0
370
    -2
100
AcDbLine
 10
-727.471264939091
 20
967.2331786268264
 30
0.0
 11
-761.3768901128972
 21
967.2331786268264
 31
0.0
  0
LINE
  5
1A2A
330
1A26
100
AcDbEntity
  8
Dim
  6
Continuous
 62
     0
370
    -2
100
AcDbLine
 10
-664.2463188304221
 20
892.2331786268264
 30
0.0
 11
-761.3768901128972
 21
892.2331786268264
 31
0.0
  0
LINE
  5
1A2B
330
1A26
100
AcDbEntity
  8
Dim
  6
Continuous
 62
     0
370
    -2
100
AcDbLine
 10
-761.3768901128972
 20
958.2331786268264
 30
0.0
 11
-761.3768901128972
 21
901.2331786268264
 31
0.0
  0
INSERT
  5
1A2C
330
1A26
100
AcDbEntity
  8
Dim
 62
     0
370
    -2
100
AcDbBlockReference
  2
_DOT
 10
-761.3768901128972
 20
967.2331786268264
 30
0.0
 41
9.0
 42
9.0
 43
9.0
 50
90.0
  0
INSERT
  5
1A2D
330
1A26
100
AcDbEntity
  8
Dim
 62
     0
370
    -2
100
AcDbBlockReference
  2
_DOT
 10
-761.3768901128972
 20
892.2331786268264
 30
0.0
 41
9.0
 42
9.0
 43
9.0
 50
270.0
  0
MTEXT
  5
1A2E
330
1A26
100
AcDbEntity
  8
Dim
  6
Continuous
 62
     0
100
AcDbMText
 10
-783.5931987066472
 20
929.7331786268264
 30
0.0
 40
24.4326171875
 41
0.0
 46
0.0
 71
     5
 72
     1
  1
\A1;75
  7
ＭＳ ゴシック
 11
0.0
 21
1.0
 31
0.0
 73
     1
 44
1.0
  0
POINT
  5
1A2F
330
1A26
100
AcDbEntity
  8
Defpoints
 62
     0
100
AcDbPoint
 10
-702.471264939091
 20
967.2331786268264
 30
0.0
  0
POINT
  5
1A30
330
1A26
100
AcDbEntity
  8
Defpoints
 62
     0
100
AcDbPoint
 10
-639.2463188304221
 20
892.2331786268264
 30
0.0
  0
POINT
  5
1A31
330
1A26
100
AcDbEntity
  8
Defpoints
 62
     0
100
AcDbPoint
 10
-761.3768901128972
 20
892.2331786268264
 30
0.0
  0
ENDBLK
  5
1A28
330
1A26
100
AcDbEntity
  8
0
100
AcDbBlockEnd
  0
BLOCK
  5
1A37
330
1A36
100
AcDbEntity
  8
0
100
AcDbBlockBegin
  2
*D14
 70
     1
 10
0.0
 20
0.0
 30
0.0
  3
*D14
  1
*D179
  0
LINE
  5
1A39
330
1A36
100
AcDbEntity
  8
Dim
  6
Continuous
 62
     0
370
    -2
100
AcDbLine
 10
-1079.023640787445
 20
1042.154778093721
 30
0.0
 11
-1010.950968915361
 21
1042.154778093721
 31
0.0
  0
LINE
  5
1A3A
330
1A36
100
AcDbEntity
  8
Dim
  6
Continuous
 62
     0
370
    -2
100
AcDbLine
 10
-1127.580864198037
 20
892.1547780937206
 30
0.0
 11
-1010.950968915361
 21
892.1547780937206
 31
0.0
  0
LINE
  5
1A3B
330
1A36
100
AcDbEntity
  8
Dim
  6
Continuous
 62
     0
370
    -2
100
AcDbLine
 10
-1010.950968915361
 20
1033.154778093721
 30
0.0
 11
-1010.950968915361
 21
901.1547780937206
 31
0.0
  0
INSERT
  5
1A3C
330
1A36
100
AcDbEntity
  8
Dim
 62
     0
370
    -2
100
AcDbBlockReference
  2
_DOT
 10
-1010.950968915361
 20
1042.154778093721
 30
0.0
 41
9.0
 42
9.0
 43
9.0
 50
90.0
  0
INSERT
  5
1A3D
330
1A36
100
AcDbEntity
  8
Dim
 62
     0
370
    -2
100
AcDbBlockReference
  2
_DOT
 10
-1010.950968915361
 20
892.1547780937206
 30
0.0
 41
9.0
 42
9.0
 43
9.0
 50
270.0
  0
MTEXT
  5
1A3E
330
1A36
100
AcDbEntity
  8
Dim
  6
Continuous
 62
     0
100
AcDbMText
 10
-1033.167277509111
 20
967.1547780937207
 30
0.0
 40
24.4326171875
 41
0.0
 46
0.0
 71
     5
 72
     1
  1
\A1;150
  7
ＭＳ ゴシック
 11
0.0
 21
1.0
 31
0.0
 73
     1
 44
1.0
  0
POINT
  5
1A3F
330
1A36
100
AcDbEntity
  8
Defpoints
 62
     0
100
AcDbPoint
 10
-1104.023640787445
 20
1042.154778093721
 30
0.0
  0
POINT
  5
1A40
330
1A36
100
AcDbEntity
  8
Defpoints
 62
     0
100
AcDbPoint
 10
-1152.580864198037
 20
892.1547780937206
 30
0.0
  0
POINT
  5
1A41
330
1A36
100
AcDbEntity
  8
Defpoints
 62
     0
100
AcDbPoint
 10
-1010.950968915361
 20
892.1547780937206
 30
0.0
  0
ENDBLK
  5
1A38
330
1A36
100
AcDbEntity
  8
0
100
AcDbBlockEnd
  0
BLOCK
  5
1A44
330
1A43
100
AcDbEntity
  8
0
100
AcDbBlockBegin
  2
*D15
 70
     1
 10
0.0
 20
0.0
 30
0.0
  3
*D15
  1
*D180
  0
LINE
  5
1A46
330
1A43
100
AcDbEntity
  8
Dim
  6
Continuous
 62
     0
370
    -2
100
AcDbLine
 10
-1730.498314026006
 20
864.0829322445534
 30
0.0
 11
-1730.498314026006
 21
800.3750743564613
 31
0.0
  0
LINE
  5
1A47
330
1A43
100
AcDbEntity
  8
Dim
  6
Continuous
 62
     0
370
    -2
100
AcDbLine
 10
-1165.498314026006
 20
864.0829322445534
 30
0.0
 11
-1165.498314026006
 21
800.3750743564613
 31
0.0
  0
LINE
  5
1A48
330
1A43
100
AcDbEntity
  8
Dim
  6
Continuous
 62
     0
370
    -2
100
AcDbLine
 10
-1721.498314026006
 20
800.3750743564613
 30
0.0
 11
-1174.498314026006
 21
800.3750743564613
 31
0.0
  0
INSERT
  5
1A49
330
1A43
100
AcDbEntity
  8
Dim
 62
     0
370
    -2
100
AcDbBlockReference
  2
_DOT
 10
-1730.498314026006
 20
800.3750743564613
 30
0.0
 41
9.0
 42
9.0
 43
9.0
 50
180.0
  0
INSERT
  5
1A4A
330
1A43
100
AcDbEntity
  8
Dim
 62
     0
370
    -2
100
AcDbBlockReference
  2
_DOT
 10
-1165.498314026006
 20
800.3750743564613
 30
0.0
 41
9.0
 42
9.0
 43
9.0
  0
MTEXT
  5
1A4B
330
1A43
100
AcDbEntity
  8
Dim
  6
Continuous
 62
     0
100
AcDbMText
 10
-1447.998314026006
 20
822.5913829502113
 30
0.0
 40
24.4326171875
 41
0.0
 46
0.0
 71
     5
 72
     1
  1
\A1;565
  7
ＭＳ ゴシック
 73
     1
 44
1.0
  0
POINT
  5
1A4C
330
1A43
100
AcDbEntity
  8
Defpoints
 62
     0
100
AcDbPoint
 10
-1730.498314026006
 20
889.0829322445534
 30
0.0
  0
POINT
  5
1A4D
330
1A43
100
AcDbEntity
  8
Defpoints
 62
     0
100
AcDbPoint
 10
-1165.498314026006
 20
889.0829322445534
 30
0.0
  0
POINT
  5
1A4E
330
1A43
100
AcDbEntity
  8
Defpoints
 62
     0
100
AcDbPoint
 10
-1165.498314026006
 20
800.3750743564613
 30
0.0
  0
ENDBLK
  5
1A45
330
1A43
100
AcDbEntity
  8
0
100
AcDbBlockEnd
  0
BLOCK
  5
1A8A
330
1A89
100
AcDbEntity
  8
0
100
AcDbBlockBegin
  2
*D16
 70
     1
 10
0.0
 20
0.0
 30
0.0
  3
*D16
  1
*D182
  0
LINE
  5
1A8C
330
1A89
100
AcDbEntity
  8
Dim
  6
Continuous
 62
     0
370
    -2
100
AcDbLine
 10
-629.8720526930472
 20
868.9935144224153
 30
0.0
 11
-629.8720526930472
 21
803.9884752019805
 31
0.0
  0
LINE
  5
1A8D
330
1A89
100
AcDbEntity
  8
Dim
  6
Continuous
 62
     0
370
    -2
100
AcDbLine
 10
-394.8720526930472
 20
868.9935144224153
 30
0.0
 11
-394.8720526930472
 21
803.9884752019805
 31
0.0
  0
LINE
  5
1A8E
330
1A89
100
AcDbEntity
  8
Dim
  6
Continuous
 62
     0
370
    -2
100
AcDbLine
 10
-620.8720526930472
 20
803.9884752019805
 30
0.0
 11
-403.8720526930472
 21
803.9884752019805
 31
0.0
  0
INSERT
  5
1A8F
330
1A89
100
AcDbEntity
  8
Dim
 62
     0
370
    -2
100
AcDbBlockReference
  2
_DOT
 10
-629.8720526930472
 20
803.9884752019805
 30
0.0
 41
9.0
 42
9.0
 43
9.0
 50
180.0
  0
INSERT
  5
1A90
330
1A89
100
AcDbEntity
  8
Dim
 62
     0
370
    -2
100
AcDbBlockReference
  2
_DOT
 10
-394.8720526930472
 20
803.9884752019805
 30
0.0
 41
9.0
 42
9.0
 43
9.0
  0
MTEXT
  5
1A91
330
1A89
100
AcDbEntity
  8
Dim
  6
Continuous
 62
     0
100
AcDbMText
 10
-512.3720526930472
 20
826.2047837957305
 30
0.0
 40
24.4326171875
 41
0.0
 46
0.0
 71
     5
 72
     1
  1
\A1;235
  7
ＭＳ ゴシック
 73
     1
 44
1.0
  0
POINT
  5
1A92
330
1A89
100
AcDbEntity
  8
Defpoints
 62
     0
100
AcDbPoint
 10
-629.8720526930472
 20
893.9935144224153
 30
0.0
  0
POINT
  5
1A93
330
1A89
100
AcDbEntity
  8
Defpoints
 62
     0
100
AcDbPoint
 10
-394.8720526930472
 20
893.9935144224153
 30
0.0
  0
POINT
  5
1A94
330
1A89
100
AcDbEntity
  8
Defpoints
 62
     0
100
AcDbPoint
 10
-394.8720526930472
 20
803.9884752019805
 30
0.0
  0
ENDBLK
  5
1A8B
330
1A89
100
AcDbEntity
  8
0
100
AcDbBlockEnd
  0
BLOCK
  5
1AA6
330
1AA5
100
AcDbEntity
  8
0
100
AcDbBlockBegin
  2
*D17
 70
     1
 10
0.0
 20
0.0
 30
0.0
  3
*D17
  1
*D183
  0
LINE
  5
1AA8
330
1AA5
100
AcDbEntity
  8
Dim
  6
Continuous
 62
     0
370
    -2
100
AcDbLine
 10
-512.3720447192811
 20
1042.148728416899
 30
0.0
 11
-512.3720447192811
 21
1212.524648338775
 31
0.0
  0
LINE
  5
1AA9
330
1AA5
100
AcDbEntity
  8
Dim
  6
Continuous
 62
     0
370
    -2
100
AcDbLine
 10
-512.3720447192811
 20
929.8244651276623
 30
0.0
 11
-512.3720447192811
 21
1033.148728416899
 31
0.0
  0
INSERT
  5
1AAA
330
1AA5
100
AcDbEntity
  8
Dim
 62
     0
370
    -2
100
AcDbBlockReference
  2
_DOT
 10
-512.3720447192811
 20
920.8244651276623
 30
0.0
 41
9.0
 42
9.0
 43
9.0
 50
270.0
  0
INSERT
  5
1AAB
330
1AA5
100
AcDbEntity
  8
Dim
 62
     0
370
    -2
100
AcDbBlockReference
  2
_DOT
 10
-512.3720447192811
 20
1042.148728416899
 30
0.0
 41
9.0
 42
9.0
 43
9.0
 50
90.0
  0
MTEXT
  5
1AAC
330
1AA5
100
AcDbEntity
  8
Dim
  6
Continuous
 62
     0
100
AcDbMText
 10
-536.7506399341248
 20
1136.336688377837
 30
0.0
 40
24.4326171875
 41
0.0
 46
0.0
 71
     5
 72
     1
  1
\A1;120(深さ)
  7
ＭＳ ゴシック
 11
0.0
 21
1.0
 31
0.0
 73
     1
 44
1.0
  0
POINT
  5
1AAD
330
1AA5
100
AcDbEntity
  8
Defpoints
 62
     0
100
AcDbPoint
 10
-512.372057990432
 20
920.8244651276623
 30
0.0
  0
POINT
  5
1AAE
330
1AA5
100
AcDbEntity
  8
Defpoints
 62
     0
100
AcDbPoint
 10
-512.3720507163941
 20
1042.148728416899
 30
0.0
  0
POINT
  5
1AB3
330
1AA5
100
AcDbEntity
  8
Defpoints
 62
     0
100
AcDbPoint
 10
-512.3720447192811
 20
1042.148728416899
 30
0.0
  0
ENDBLK
  5
1AA7
330
1AA5
100
AcDbEntity
  8
0
100
AcDbBlockEnd
  0
BLOCK
  5
2354
330
2353
100
AcDbEntity
  8
0
100
AcDbBlockBegin
  2
*D18
 70
     1
 10
0.0
 20
0.0
 30
0.0
  3
*D18
  1
*D19
  0
LINE
  5
2356
330
2353
100
AcDbEntity
  8
MODEL
 62
     0
370
    -2
100
AcDbLine
 10
1645.911075650392
 20
822.2546942314111
 30
0.0
 11
2163.479584680934
 21
822.2546942314111
 31
0.0
  0
LINE
  5
2357
330
2353
100
AcDbEntity
  8
MODEL
 62
     0
370
    -2
100
AcDbLine
 10
1640.155948043386
 20
1282.25469387852
 30
0.0
 11
2163.479584680934
 21
1282.25469387852
 31
0.0
  0
LINE
  5
2358
330
2353
100
AcDbEntity
  8
MODEL
 62
     0
370
    -2
100
AcDbLine
 10
2163.479584680934
 20
831.2546942314111
 30
0.0
 11
2163.479584680934
 21
1273.25469387852
 31
0.0
  0
INSERT
  5
2359
330
2353
100
AcDbEntity
  8
MODEL
 62
     0
370
    -2
100
AcDbBlockReference
  2
_DOT
 10
2163.479584680934
 20
822.2546942314111
 30
0.0
 41
9.0
 42
9.0
 43
9.0
 50
270.0
  0
INSERT
  5
235A
330
2353
100
AcDbEntity
  8
MODEL
 62
     0
370
    -2
100
AcDbBlockReference
  2
_DOT
 10
2163.479584680934
 20
1282.25469387852
 30
0.0
 41
9.0
 42
9.0
 43
9.0
 50
90.0
  0
MTEXT
  5
235B
330
2353
100
AcDbEntity
  8
MODEL
 62
     0
100
AcDbMText
 10
2141.263276087184
 20
1052.254694054966
 30
0.0
 40
24.4326171875
 41
0.0
 46
0.0
 71
     5
 72
     1
  1
\A1;459.9999996
  7
ＭＳ ゴシック
 11
0.0
 21
1.0
 31
0.0
 73
     1
 44
1.0
  0
POINT
  5
235C
330
2353
100
AcDbEntity
  8
Defpoints
 62
     0
100
AcDbPoint
 10
1620.911075650392
 20
822.2546942314111
 30
0.0
  0
POINT
  5
235D
330
2353
100
AcDbEntity
  8
Defpoints
 62
     0
100
AcDbPoint
 10
1615.155948043386
 20
1282.25469387852
 30
0.0
  0
POINT
  5
235E
330
2353
100
AcDbEntity
  8
Defpoints
 62
     0
100
AcDbPoint
 10
2163.479584680934
 20
1282.25469387852
 30
0.0
  0
ENDBLK
  5
2355
330
2353
100
AcDbEntity
  8
0
100
AcDbBlockEnd
  0
BLOCK
  5
2364
330
2363
100
AcDbEntity
  8
0
100
AcDbBlockBegin
  2
*D19
 70
     1
 10
0.0
 20
0.0
 30
0.0
  3
*D19
  1
*D20
  0
LINE
  5
2366
330
2363
100
AcDbEntity
  8
MODEL
 62
     0
370
    -2
100
AcDbLine
 10
1450.454096972664
 20
663.6770438056286
 30
0.0
 11
1450.454096972664
 21
536.1144733138254
 31
0.0
  0
LINE
  5
2367
330
2363
100
AcDbEntity
  8
MODEL
 62
     0
370
    -2
100
AcDbLine
 10
250.4427104194829
 20
663.6770438056286
 30
0.0
 11
250.4427104194829
 21
536.1144733138254
 31
0.0
  0
LINE
  5
2368
330
2363
100
AcDbEntity
  8
MODEL
 62
     0
370
    -2
100
AcDbLine
 10
1441.454096972664
 20
536.1144733138254
 30
0.0
 11
259.4427104194829
 21
536.1144733138254
 31
0.0
  0
INSERT
  5
2369
330
2363
100
AcDbEntity
  8
MODEL
 62
     0
370
    -2
100
AcDbBlockReference
  2
_DOT
 10
1450.454096972664
 20
536.1144733138254
 30
0.0
 41
9.0
 42
9.0
 43
9.0
  0
INSERT
  5
236A
330
2363
100
AcDbEntity
  8
MODEL
 62
     0
370
    -2
100
AcDbBlockReference
  2
_DOT
 10
250.4427104194829
 20
536.1144733138254
 30
0.0
 41
9.0
 42
9.0
 43
9.0
 50
180.0
  0
MTEXT
  5
236B
330
2363
100
AcDbEntity
  8
MODEL
 62
     0
100
AcDbMText
 10
850.4484036960735
 20
558.3307819075754
 30
0.0
 40
24.4326171875
 41
0.0
 46
0.0
 71
     5
 72
     1
  1
\A1;1200
  7
ＭＳ ゴシック
 73
     1
 44
1.0
  0
POINT
  5
236C
330
2363
100
AcDbEntity
  8
Defpoints
 62
     0
100
AcDbPoint
 10
1450.454096972664
 20
688.6770438056286
 30
0.0
  0
POINT
  5
236D
330
2363
100
AcDbEntity
  8
Defpoints
 62
     0
100
AcDbPoint
 10
250.4427104194829
 20
688.6770438056286
 30
0.0
  0
POINT
  5
236E
330
2363
100
AcDbEntity
  8
Defpoints
 62
     0
100
AcDbPoint
 10
250.4427104194829
 20
536.1144733138254
 30
0.0
  0
ENDBLK
  5
2365
330
2363
100
AcDbEntity
  8
0
100
AcDbBlockEnd
  0
BLOCK
  5
2373
330
2372
100
AcDbEntity
  8
0
100
AcDbBlockBegin
  2
*D20
 70
     1
 10
0.0
 20
0.0
 30
0.0
  3
*D20
  1
*D21
  0
LINE
  5
2375
330
2372
100
AcDbEntity
  8
MODEL
 62
     0
370
    -2
100
AcDbLine
 10
400.8904178257917
 20
1566.285946100711
 30
0.0
 11
400.8904178257917
 21
1506.528962494153
 31
0.0
  0
LINE
  5
2376
330
2372
100
AcDbEntity
  8
MODEL
 62
     0
370
    -2
100
AcDbLine
 10
1301.184993101561
 20
1566.285946100711
 30
0.0
 11
1301.184993101561
 21
1506.528962494153
 31
0.0
  0
LINE
  5
2377
330
2372
100
AcDbEntity
  8
MODEL
 62
     0
370
    -2
100
AcDbLine
 10
409.8904178257917
 20
1506.528962494153
 30
0.0
 11
1292.184993101561
 21
1506.528962494153
 31
0.0
  0
INSERT
  5
2378
330
2372
100
AcDbEntity
  8
MODEL
 62
     0
370
    -2
100
AcDbBlockReference
  2
_DOT
 10
400.8904178257917
 20
1506.528962494153
 30
0.0
 41
9.0
 42
9.0
 43
9.0
 50
180.0
  0
INSERT
  5
2379
330
2372
100
AcDbEntity
  8
MODEL
 62
     0
370
    -2
100
AcDbBlockReference
  2
_DOT
 10
1301.184993101561
 20
1506.528962494153
 30
0.0
 41
9.0
 42
9.0
 43
9.0
  0
MTEXT
  5
237A
330
2372
100
AcDbEntity
  8
MODEL
 62
     0
100
AcDbMText
 10
851.0377054636765
 20
1528.745271087903
 30
0.0
 40
24.4326171875
 41
0.0
 46
0.0
 71
     5
 72
     1
  1
\A1;900
  7
ＭＳ ゴシック
 73
     1
 44
1.0
  0
POINT
  5
237B
330
2372
100
AcDbEntity
  8
Defpoints
 62
     0
100
AcDbPoint
 10
400.8904178257917
 20
1591.285946100711
 30
0.0
  0
POINT
  5
237C
330
2372
100
AcDbEntity
  8
Defpoints
 62
     0
100
AcDbPoint
 10
1301.184993101561
 20
1591.285946100711
 30
0.0
  0
POINT
  5
237D
330
2372
100
AcDbEntity
  8
Defpoints
 62
     0
100
AcDbPoint
 10
1301.184993101561
 20
1506.528962494153
 30
0.0
  0
ENDBLK
  5
2374
330
2372
100
AcDbEntity
  8
0
100
AcDbBlockEnd
  0
BLOCK
  5
2382
330
2381
100
AcDbEntity
  8
0
100
AcDbBlockBegin
  2
*D21
 70
     1
 10
0.0
 20
0.0
 30
0.0
  3
*D21
  1
*D22
  0
LINE
  5
2384
330
2381
100
AcDbEntity
  8
MODEL
 62
     0
370
    -2
100
AcDbLine
 10
350.1972968070452
 20
1523.7307548277
 30
0.0
 11
350.1972968070452
 21
1449.333972571809
 31
0.0
  0
LINE
  5
2385
330
2381
100
AcDbEntity
  8
MODEL
 62
     0
370
    -2
100
AcDbLine
 10
950.1951906190075
 20
1523.7307548277
 30
0.0
 11
950.1951906190075
 21
1449.333972571809
 31
0.0
  0
LINE
  5
2386
330
2381
100
AcDbEntity
  8
MODEL
 62
     0
370
    -2
100
AcDbLine
 10
359.1972968070452
 20
1449.333972571809
 30
0.0
 11
941.1951906190075
 21
1449.333972571809
 31
0.0
  0
INSERT
  5
2387
330
2381
100
AcDbEntity
  8
MODEL
 62
     0
370
    -2
100
AcDbBlockReference
  2
_DOT
 10
350.1972968070452
 20
1449.333972571809
 30
0.0
 41
9.0
 42
9.0
 43
9.0
 50
180.0
  0
INSERT
  5
2388
330
2381
100
AcDbEntity
  8
MODEL
 62
     0
370
    -2
100
AcDbBlockReference
  2
_DOT
 10
950.1951906190075
 20
1449.333972571809
 30
0.0
 41
9.0
 42
9.0
 43
9.0
  0
MTEXT
  5
2389
330
2381
100
AcDbEntity
  8
MODEL
 62
     0
100
AcDbMText
 10
650.1962437130263
 20
1471.550281165559
 30
0.0
 40
24.4326171875
 41
0.0
 46
0.0
 71
     5
 72
     1
  1
\A1;600
  7
ＭＳ ゴシック
 73
     1
 44
1.0
  0
POINT
  5
238A
330
2381
100
AcDbEntity
  8
Defpoints
 62
     0
100
AcDbPoint
 10
350.1972968070452
 20
1548.7307548277
 30
0.0
  0
POINT
  5
238B
330
2381
100
AcDbEntity
  8
Defpoints
 62
     0
100
AcDbPoint
 10
950.1951906190075
 20
1548.7307548277
 30
0.0
  0
POINT
  5
238C
330
2381
100
AcDbEntity
  8
Defpoints
 62
     0
100
AcDbPoint
 10
950.1951906190075
 20
1449.333972571809
 30
0.0
  0
ENDBLK
  5
2383
330
2381
100
AcDbEntity
  8
0
100
AcDbBlockEnd
  0
BLOCK
  5
2391
330
2390
100
AcDbEntity
  8
0
100
AcDbBlockBegin
  2
*D22
 70
     1
 10
0.0
 20
0.0
 30
0.0
  3
*D22
  1
*D23
  0
LINE
  5
2393
330
2390
100
AcDbEntity
  8
MODEL
 62
     0
370
    -2
100
AcDbLine
 10
1068.679104182285
 20
1611.573187136333
 30
0.0
 11
1101.829175495072
 21
1611.573187136333
 31
0.0
  0
LINE
  5
2394
330
2390
100
AcDbEntity
  8
MODEL
 62
     0
370
    -2
100
AcDbLine
 10
1068.679104182285
 20
2069.719126251452
 30
0.0
 11
1101.829175495072
 21
2069.719126251452
 31
0.0
  0
LINE
  5
2395
330
2390
100
AcDbEntity
  8
MODEL
 62
     0
370
    -2
100
AcDbLine
 10
1101.829175495072
 20
1620.573187136333
 30
0.0
 11
1101.829175495072
 21
2060.719126251452
 31
0.0
  0
INSERT
  5
2396
330
2390
100
AcDbEntity
  8
MODEL
 62
     0
370
    -2
100
AcDbBlockReference
  2
_DOT
 10
1101.829175495072
 20
1611.573187136333
 30
0.0
 41
9.0
 42
9.0
 43
9.0
 50
270.0
  0
INSERT
  5
2397
330
2390
100
AcDbEntity
  8
MODEL
 62
     0
370
    -2
100
AcDbBlockReference
  2
_DOT
 10
1101.829175495072
 20
2069.719126251452
 30
0.0
 41
9.0
 42
9.0
 43
9.0
 50
90.0
  0
MTEXT
  5
2398
330
2390
100
AcDbEntity
  8
MODEL
 62
     0
100
AcDbMText
 10
1079.612866901322
 20
1840.646156693892
 30
0.0
 40
24.4326171875
 41
0.0
 46
0.0
 71
     5
 72
     1
  1
\A1;458
  7
ＭＳ ゴシック
 11
0.0
 21
1.0
 31
0.0
 73
     1
 44
1.0
  0
POINT
  5
2399
330
2390
100
AcDbEntity
  8
Defpoints
 62
     0
100
AcDbPoint
 10
1043.679104182285
 20
1611.573187136333
 30
0.0
  0
POINT
  5
239A
330
2390
100
AcDbEntity
  8
Defpoints
 62
     0
100
AcDbPoint
 10
1043.679104182285
 20
2069.719126251452
 30
0.0
  0
POINT
  5
239B
330
2390
100
AcDbEntity
  8
Defpoints
 62
     0
100
AcDbPoint
 10
1101.829175495072
 20
2069.719126251452
 30
0.0
  0
ENDBLK
  5
2392
330
2390
100
AcDbEntity
  8
0
100
AcDbBlockEnd
  0
BLOCK
  5
23A0
330
239F
100
AcDbEntity
  8
0
100
AcDbBlockBegin
  2
*D23
 70
     1
 10
0.0
 20
0.0
 30
0.0
  3
*D23
  1
*D24
  0
LINE
  5
23A2
330
239F
100
AcDbEntity
  8
MODEL
 62
     0
370
    -2
100
AcDbLine
 10
1072.950178123036
 20
2071.926663209542
 30
0.0
 11
1162.106701744048
 21
2071.926663209542
 31
0.0
  0
LINE
  5
23A3
330
239F
100
AcDbEntity
  8
MODEL
 62
     0
370
    -2
100
AcDbLine
 10
1072.950178123036
 20
1611.926663214443
 30
0.0
 11
1162.106701744048
 21
1611.926663214443
 31
0.0
  0
LINE
  5
23A4
330
239F
100
AcDbEntity
  8
MODEL
 62
     0
370
    -2
100
AcDbLine
 10
1162.106701744048
 20
2062.926663209542
 30
0.0
 11
1162.106701744048
 21
1620.926663214443
 31
0.0
  0
INSERT
  5
23A5
330
239F
100
AcDbEntity
  8
MODEL
 62
     0
370
    -2
100
AcDbBlockReference
  2
_DOT
 10
1162.106701744048
 20
2071.926663209542
 30
0.0
 41
9.0
 42
9.0
 43
9.0
 50
90.0
  0
INSERT
  5
23A6
330
239F
100
AcDbEntity
  8
MODEL
 62
     0
370
    -2
100
AcDbBlockReference
  2
_DOT
 10
1162.106701744048
 20
1611.926663214443
 30
0.0
 41
9.0
 42
9.0
 43
9.0
 50
270.0
  0
MTEXT
  5
23A7
330
239F
100
AcDbEntity
  8
MODEL
 62
     0
100
AcDbMText
 10
1139.890393150298
 20
1841.926663211993
 30
0.0
 40
24.4326171875
 41
0.0
 46
0.0
 71
     5
 72
     1
  1
\A1;460
  7
ＭＳ ゴシック
 11
0.0
 21
1.0
 31
0.0
 73
     1
 44
1.0
  0
POINT
  5
23A8
330
239F
100
AcDbEntity
  8
Defpoints
 62
     0
100
AcDbPoint
 10
1047.950178123036
 20
2071.926663209542
 30
0.0
  0
POINT
  5
23A9
330
239F
100
AcDbEntity
  8
Defpoints
 62
     0
100
AcDbPoint
 10
1047.950178123036
 20
1611.926663214443
 30
0.0
  0
POINT
  5
23AA
330
239F
100
AcDbEntity
  8
Defpoints
 62
     0
100
AcDbPoint
 10
1162.106701744048
 20
1611.926663214443
 30
0.0
  0
ENDBLK
  5
23A1
330
239F
100
AcDbEntity
  8
0
100
AcDbBlockEnd
  0
BLOCK
  5
2573
330
2572
100
AcDbEntity
  8
0
100
AcDbBlockBegin
  2
*D24
 70
     1
 10
0.0
 20
0.0
 30
0.0
  3
*D24
  1
*D25
  0
LINE
  5
2575
330
2572
100
AcDbEntity
  8
Dim
 62
     0
370
    -2
100
AcDbLine
 10
1476.83558342852
 20
898.7358782190624
 30
0.0
 11
1453.831474733216
 21
898.7358782190624
 31
0.0
  0
LINE
  5
2576
330
2572
100
AcDbEntity
  8
Dim
 62
     0
370
    -2
100
AcDbLine
 10
1476.83558342852
 20
933.7358782190624
 30
0.0
 11
1453.831474733216
 21
933.7358782190624
 31
0.0
  0
LINE
  5
2577
330
2572
100
AcDbEntity
  8
Dim
 62
     0
370
    -2
100
AcDbLine
 10
1453.831474733216
 20
907.7358782190624
 30
0.0
 11
1453.831474733216
 21
924.7358782190624
 31
0.0
  0
INSERT
  5
2578
330
2572
100
AcDbEntity
  8
Dim
 62
     0
370
    -2
100
AcDbBlockReference
  2
_DOT
 10
1453.831474733216
 20
898.7358782190624
 30
0.0
 41
9.0
 42
9.0
 43
9.0
 50
270.0
  0
INSERT
  5
2579
330
2572
100
AcDbEntity
  8
Dim
 62
     0
370
    -2
100
AcDbBlockReference
  2
_DOT
 10
1453.831474733216
 20
933.7358782190624
 30
0.0
 41
9.0
 42
9.0
 43
9.0
 50
90.0
  0
MTEXT
  5
257A
330
2572
100
AcDbEntity
  8
Dim
 62
     0
100
AcDbMText
 10
1431.615166139466
 20
916.2358782190624
 30
0.0
 40
24.4326171875
 41
0.0
 46
0.0
 71
     5
 72
     1
  1
\A1;35
  7
ＭＳ ゴシック
 11
0.0
 21
1.0
 31
0.0
 73
     1
 44
1.0
  0
POINT
  5
257B
330
2572
100
AcDbEntity
  8
Defpoints
 62
     0
100
AcDbPoint
 10
1501.83558342852
 20
898.7358782190624
 30
0.0
  0
POINT
  5
257C
330
2572
100
AcDbEntity
  8
Defpoints
 62
     0
100
AcDbPoint
 10
1501.83558342852
 20
933.7358782190624
 30
0.0
  0
POINT
  5
257D
330
2572
100
AcDbEntity
  8
Defpoints
 62
     0
100
AcDbPoint
 10
1453.831474733216
 20
933.7358782190624
 30
0.0
  0
ENDBLK
  5
2574
330
2572
100
AcDbEntity
  8
0
100
AcDbBlockEnd
  0
BLOCK
  5
2589
330
2588
100
AcDbEntity
  8
0
100
AcDbBlockBegin
  2
*D25
 70
     1
 10
0.0
 20
0.0
 30
0.0
  3
*D25
  1
*D26
  0
LINE
  5
258B
330
2588
100
AcDbEntity
  8
MODEL
 62
     0
370
    -2
100
AcDbLine
 10
1322.786011565355
 20
1056.827451986762
 30
0.0
 11
1265.367257807949
 21
1056.827451986762
 31
0.0
  0
LINE
  5
258C
330
2588
100
AcDbEntity
  8
MODEL
 62
     0
370
    -2
100
AcDbLine
 10
1322.786011565355
 20
936.8274519867621
 30
0.0
 11
1265.367257807949
 21
936.8274519867621
 31
0.0
  0
LINE
  5
258D
330
2588
100
AcDbEntity
  8
MODEL
 62
     0
370
    -2
100
AcDbLine
 10
1265.367257807949
 20
1047.827451986762
 30
0.0
 11
1265.367257807949
 21
945.8274519867621
 31
0.0
  0
INSERT
  5
258E
330
2588
100
AcDbEntity
  8
MODEL
 62
     0
370
    -2
100
AcDbBlockReference
  2
_DOT
 10
1265.367257807949
 20
1056.827451986762
 30
0.0
 41
9.0
 42
9.0
 43
9.0
 50
90.0
  0
INSERT
  5
258F
330
2588
100
AcDbEntity
  8
MODEL
 62
     0
370
    -2
100
AcDbBlockReference
  2
_DOT
 10
1265.367257807949
 20
936.8274519867621
 30
0.0
 41
9.0
 42
9.0
 43
9.0
 50
270.0
  0
MTEXT
  5
2590
330
2588
100
AcDbEntity
  8
MODEL
 62
     0
100
AcDbMText
 10
1243.150949214199
 20
996.8274519867621
 30
0.0
 40
24.4326171875
 41
0.0
 46
0.0
 71
     5
 72
     1
  1
\A1;120
  7
ＭＳ ゴシック
 11
0.0
 21
1.0
 31
0.0
 73
     1
 44
1.0
  0
POINT
  5
2591
330
2588
100
AcDbEntity
  8
Defpoints
 62
     0
100
AcDbPoint
 10
1347.786011565355
 20
1056.827451986762
 30
0.0
  0
POINT
  5
2592
330
2588
100
AcDbEntity
  8
Defpoints
 62
     0
100
AcDbPoint
 10
1347.786011565355
 20
936.8274519867621
 30
0.0
  0
POINT
  5
2593
330
2588
100
AcDbEntity
  8
Defpoints
 62
     0
100
AcDbPoint
 10
1265.367257807949
 20
936.8274519867621
 30
0.0
  0
ENDBLK
  5
258A
330
2588
100
AcDbEntity
  8
0
100
AcDbBlockEnd
  0
BLOCK
  5
2599
330
2598
100
AcDbEntity
  8
0
100
AcDbBlockBegin
  2
*D26
 70
     1
 10
0.0
 20
0.0
 30
0.0
  3
*D26
  1
*D27
  0
LINE
  5
259B
330
2598
100
AcDbEntity
  8
Dim
 62
     0
370
    -2
100
AcDbLine
 10
1319.113171082839
 20
1056.827451986762
 30
0.0
 11
1252.729715565147
 21
1056.827451986762
 31
0.0
  0
LINE
  5
259C
330
2598
100
AcDbEntity
  8
Dim
 62
     0
370
    -2
100
AcDbLine
 10
1319.113171082839
 20
936.8274519867621
 30
0.0
 11
1252.729715565147
 21
936.8274519867621
 31
0.0
  0
LINE
  5
259D
330
2598
100
AcDbEntity
  8
Dim
 62
     0
370
    -2
100
AcDbLine
 10
1252.729715565147
 20
1047.827451986762
 30
0.0
 11
1252.729715565147
 21
945.8274519867621
 31
0.0
  0
INSERT
  5
259E
330
2598
100
AcDbEntity
  8
Dim
 62
     0
370
    -2
100
AcDbBlockReference
  2
_DOT
 10
1252.729715565147
 20
1056.827451986762
 30
0.0
 41
9.0
 42
9.0
 43
9.0
 50
90.0
  0
INSERT
  5
259F
330
2598
100
AcDbEntity
  8
Dim
 62
     0
370
    -2
100
AcDbBlockReference
  2
_DOT
 10
1252.729715565147
 20
936.8274519867621
 30
0.0
 41
9.0
 42
9.0
 43
9.0
 50
270.0
  0
MTEXT
  5
25A0
330
2598
100
AcDbEntity
  8
Dim
 62
     0
100
AcDbMText
 10
1230.513406971397
 20
996.8274519867621
 30
0.0
 40
24.4326171875
 41
0.0
 46
0.0
 71
     5
 72
     1
  1
\A1;120
  7
ＭＳ ゴシック
 11
0.0
 21
1.0
 31
0.0
 73
     1
 44
1.0
  0
POINT
  5
25A1
330
2598
100
AcDbEntity
  8
Defpoints
 62
     0
100
AcDbPoint
 10
1344.113171082839
 20
1056.827451986762
 30
0.0
  0
POINT
  5
25A2
330
2598
100
AcDbEntity
  8
Defpoints
 62
     0
100
AcDbPoint
 10
1344.113171082839
 20
936.8274519867621
 30
0.0
  0
POINT
  5
25A3
330
2598
100
AcDbEntity
  8
Defpoints
 62
     0
100
AcDbPoint
 10
1252.729715565147
 20
936.8274519867621
 30
0.0
  0
ENDBLK
  5
259A
330
2598
100
AcDbEntity
  8
0
100
AcDbBlockEnd
  0
BLOCK
  5
25A6
330
25A5
100
AcDbEntity
  8
0
100
AcDbBlockBegin
  2
*D27
 70
     1
 10
0.0
 20
0.0
 30
0.0
  3
*D27
  1
*D28
  0
LINE
  5
25A8
330
25A5
100
AcDbEntity
  8
Dim
 62
     0
370
    -2
100
AcDbLine
 10
975.1951906190075
 20
1056.827451986762
 30
0.0
 11
1061.163258894773
 21
1056.827451986762
 31
0.0
  0
LINE
  5
25A9
330
25A5
100
AcDbEntity
  8
Dim
 62
     0
370
    -2
100
AcDbLine
 10
716.4154784782887
 20
933.8274519867621
 30
0.0
 11
1061.163258894773
 21
933.8274519867621
 31
0.0
  0
LINE
  5
25AA
330
25A5
100
AcDbEntity
  8
Dim
 62
     0
370
    -2
100
AcDbLine
 10
1061.163258894773
 20
1047.827451986762
 30
0.0
 11
1061.163258894773
 21
942.8274519867621
 31
0.0
  0
INSERT
  5
25AB
330
25A5
100
AcDbEntity
  8
Dim
 62
     0
370
    -2
100
AcDbBlockReference
  2
_DOT
 10
1061.163258894773
 20
1056.827451986762
 30
0.0
 41
9.0
 42
9.0
 43
9.0
 50
90.0
  0
INSERT
  5
25AC
330
25A5
100
AcDbEntity
  8
Dim
 62
     0
370
    -2
100
AcDbBlockReference
  2
_DOT
 10
1061.163258894773
 20
933.8274519867621
 30
0.0
 41
9.0
 42
9.0
 43
9.0
 50
270.0
  0
MTEXT
  5
25AD
330
25A5
100
AcDbEntity
  8
Dim
 62
     0
100
AcDbMText
 10
1038.946950301023
 20
995.3274519867621
 30
0.0
 40
24.4326171875
 41
0.0
 46
0.0
 71
     5
 72
     1
  1
\A1;123
  7
ＭＳ ゴシック
 11
0.0
 21
1.0
 31
0.0
 73
     1
 44
1.0
  0
POINT
  5
25AE
330
25A5
100
AcDbEntity
  8
Defpoints
 62
     0
100
AcDbPoint
 10
950.1951906190075
 20
1056.827451986762
 30
0.0
  0
POINT
  5
25AF
330
25A5
100
AcDbEntity
  8
Defpoints
 62
     0
100
AcDbPoint
 10
691.4154784782887
 20
933.8274519867621
 30
0.0
  0
POINT
  5
25B0
330
25A5
100
AcDbEntity
  8
Defpoints
 62
     0
100
AcDbPoint
 10
1061.163258894773
 20
933.8274519867621
 30
0.0
  0
ENDBLK
  5
25A7
330
25A5
100
AcDbEntity
  8
0
100
AcDbBlockEnd
  0
BLOCK
  5
25C5
330
25C4
100
AcDbEntity
  8
0
100
AcDbBlockBegin
  2
*D28
 70
     1
 10
0.0
 20
0.0
 30
0.0
  3
*D28
  1
*D29
  0
LINE
  5
25C7
330
25C4
100
AcDbEntity
  8
Dim
 62
     0
370
    -2
100
AcDbLine
 10
1803.055591014945
 20
1076.286577485212
 30
0.0
 11
1803.055591014945
 21
1155.095062367606
 31
0.0
  0
LINE
  5
25C8
330
25C4
100
AcDbEntity
  8
Dim
 62
     0
370
    -2
100
AcDbLine
 10
1743.555591014945
 20
1081.827451986762
 30
0.0
 11
1743.555591014945
 21
1155.095062367606
 31
0.0
  0
LINE
  5
25C9
330
25C4
100
AcDbEntity
  8
Dim
 62
     0
370
    -2
100
AcDbLine
 10
1794.055591014945
 20
1155.095062367606
 30
0.0
 11
1752.555591014945
 21
1155.095062367606
 31
0.0
  0
INSERT
  5
25CA
330
25C4
100
AcDbEntity
  8
Dim
 62
     0
370
    -2
100
AcDbBlockReference
  2
_DOT
 10
1803.055591014945
 20
1155.095062367606
 30
0.0
 41
9.0
 42
9.0
 43
9.0
  0
INSERT
  5
25CB
330
25C4
100
AcDbEntity
  8
Dim
 62
     0
370
    -2
100
AcDbBlockReference
  2
_DOT
 10
1743.555591014945
 20
1155.095062367606
 30
0.0
 41
9.0
 42
9.0
 43
9.0
 50
180.0
  0
MTEXT
  5
25CC
330
25C4
100
AcDbEntity
  8
Dim
 62
     0
100
AcDbMText
 10
1773.305591014945
 20
1177.311370961356
 30
0.0
 40
24.4326171875
 41
0.0
 46
0.0
 71
     5
 72
     1
  1
\A1;60
  7
ＭＳ ゴシック
 73
     1
 44
1.0
  0
POINT
  5
25CD
330
25C4
100
AcDbEntity
  8
Defpoints
 62
     0
100
AcDbPoint
 10
1803.055591014945
 20
1051.286577485212
 30
0.0
  0
POINT
  5
25CE
330
25C4
100
AcDbEntity
  8
Defpoints
 62
     0
100
AcDbPoint
 10
1743.555591014945
 20
1056.827451986762
 30
0.0
  0
POINT
  5
25CF
330
25C4
100
AcDbEntity
  8
Defpoints
 62
     0
100
AcDbPoint
 10
1743.555591014945
 20
1155.095062367606
 30
0.0
  0
ENDBLK
  5
25C6
330
25C4
100
AcDbEntity
  8
0
100
AcDbBlockEnd
  0
BLOCK
  5
25E5
330
25E4
100
AcDbEntity
  8
0
100
AcDbBlockBegin
  2
*D29
 70
     1
 10
0.0
 20
0.0
 30
0.0
  3
*D29
  1
*D30
  0
LINE
  5
25E7
330
25E4
100
AcDbEntity
  8
Dim
 62
     0
370
    -2
100
AcDbLine
 10
1529.654363477641
 20
862.7387352123775
 30
0.0
 11
1529.654363477641
 21
789.5564106197932
 31
0.0
  0
LINE
  5
25E8
330
25E4
100
AcDbEntity
  8
Dim
 62
     0
370
    -2
100
AcDbLine
 10
1803.054363477641
 20
914.8412474764931
 30
0.0
 11
1803.054363477641
 21
789.5564106197932
 31
0.0
  0
LINE
  5
25E9
330
25E4
100
AcDbEntity
  8
Dim
 62
     0
370
    -2
100
AcDbLine
 10
1538.654363477641
 20
789.5564106197932
 30
0.0
 11
1794.054363477641
 21
789.5564106197932
 31
0.0
  0
INSERT
  5
25EA
330
25E4
100
AcDbEntity
  8
Dim
 62
     0
370
    -2
100
AcDbBlockReference
  2
_DOT
 10
1529.654363477641
 20
789.5564106197932
 30
0.0
 41
9.0
 42
9.0
 43
9.0
 50
180.0
  0
INSERT
  5
25EB
330
25E4
100
AcDbEntity
  8
Dim
 62
     0
370
    -2
100
AcDbBlockReference
  2
_DOT
 10
1803.054363477641
 20
789.5564106197932
 30
0.0
 41
9.0
 42
9.0
 43
9.0
  0
MTEXT
  5
25EC
330
25E4
100
AcDbEntity
  8
Dim
 62
     0
100
AcDbMText
 10
1666.354363477641
 20
811.7727192135432
 30
0.0
 40
24.4326171875
 41
0.0
 46
0.0
 71
     5
 72
     1
  1
\A1;273
  7
ＭＳ ゴシック
 73
     1
 44
1.0
  0
POINT
  5
25ED
330
25E4
100
AcDbEntity
  8
Defpoints
 62
     0
100
AcDbPoint
 10
1529.654363477641
 20
887.7387352123775
 30
0.0
  0
POINT
  5
25EE
330
25E4
100
AcDbEntity
  8
Defpoints
 62
     0
100
AcDbPoint
 10
1803.054363477641
 20
939.8412474764931
 30
0.0
  0
POINT
  5
25EF
330
25E4
100
AcDbEntity
  8
Defpoints
 62
     0
100
AcDbPoint
 10
1803.054363477641
 20
789.5564106197932
 30
0.0
  0
ENDBLK
  5
25E6
330
25E4
100
AcDbEntity
  8
0
100
AcDbBlockEnd
  0
BLOCK
  5
2609
330
2608
100
AcDbEntity
  8
0
100
AcDbBlockBegin
  2
*D30
 70
     1
 10
0.0
 20
0.0
 30
0.0
  3
*D30
  1
*D31
  0
LINE
  5
260B
330
2608
100
AcDbEntity
  8
Dim
 62
     0
370
    -2
100
AcDbLine
 10
350.1972968070452
 20
2208.552654287983
 30
0.0
 11
350.1972968070452
 21
2299.135661671172
 31
0.0
  0
LINE
  5
260C
330
2608
100
AcDbEntity
  8
Dim
 62
     0
370
    -2
100
AcDbLine
 10
950.1972968070452
 20
2208.552654287983
 30
0.0
 11
950.1972968070452
 21
2299.135661671172
 31
0.0
  0
LINE
  5
260D
330
2608
100
AcDbEntity
  8
Dim
 62
     0
370
    -2
100
AcDbLine
 10
359.1972968070452
 20
2299.135661671172
 30
0.0
 11
941.1972968070452
 21
2299.135661671172
 31
0.0
  0
INSERT
  5
260E
330
2608
100
AcDbEntity
  8
Dim
 62
     0
370
    -2
100
AcDbBlockReference
  2
_DOT
 10
350.1972968070452
 20
2299.135661671172
 30
0.0
 41
9.0
 42
9.0
 43
9.0
 50
180.0
  0
INSERT
  5
260F
330
2608
100
AcDbEntity
  8
Dim
 62
     0
370
    -2
100
AcDbBlockReference
  2
_DOT
 10
950.1972968070452
 20
2299.135661671172
 30
0.0
 41
9.0
 42
9.0
 43
9.0
  0
MTEXT
  5
2610
330
2608
100
AcDbEntity
  8
Dim
 62
     0
100
AcDbMText
 10
650.1972968070452
 20
2321.351970264922
 30
0.0
 40
24.4326171875
 41
0.0
 46
0.0
 71
     5
 72
     1
  1
\A1;600
  7
ＭＳ ゴシック
 73
     1
 44
1.0
  0
POINT
  5
2611
330
2608
100
AcDbEntity
  8
Defpoints
 62
     0
100
AcDbPoint
 10
350.1972968070452
 20
2183.552654287983
 30
0.0
  0
POINT
  5
2612
330
2608
100
AcDbEntity
  8
Defpoints
 62
     0
100
AcDbPoint
 10
950.1972968070452
 20
2183.552654287983
 30
0.0
  0
POINT
  5
2613
330
2608
100
AcDbEntity
  8
Defpoints
 62
     0
100
AcDbPoint
 10
950.1972968070452
 20
2299.135661671172
 30
0.0
  0
ENDBLK
  5
260A
330
2608
100
AcDbEntity
  8
0
100
AcDbBlockEnd
  0
BLOCK
  5
2616
330
2615
100
AcDbEntity
  8
0
100
AcDbBlockBegin
  2
*D31
 70
     1
 10
0.0
 20
0.0
 30
0.0
  3
*D31
  1
*D32
  0
LINE
  5
2618
330
2615
100
AcDbEntity
  8
Dim
 62
     0
370
    -2
100
AcDbLine
 10
972.1986959070591
 20
2186.552609155488
 30
0.0
 11
1054.271954927328
 21
2186.552609155488
 31
0.0
  0
LINE
  5
2619
330
2615
100
AcDbEntity
  8
Dim
 62
     0
370
    -2
100
AcDbLine
 10
972.1986959070591
 20
1726.552609155488
 30
0.0
 11
1054.271954927328
 21
1726.552609155488
 31
0.0
  0
LINE
  5
261A
330
2615
100
AcDbEntity
  8
Dim
 62
     0
370
    -2
100
AcDbLine
 10
1054.271954927328
 20
2177.552609155488
 30
0.0
 11
1054.271954927328
 21
1735.552609155488
 31
0.0
  0
INSERT
  5
261B
330
2615
100
AcDbEntity
  8
Dim
 62
     0
370
    -2
100
AcDbBlockReference
  2
_DOT
 10
1054.271954927328
 20
2186.552609155488
 30
0.0
 41
9.0
 42
9.0
 43
9.0
 50
90.0
  0
INSERT
  5
261C
330
2615
100
AcDbEntity
  8
Dim
 62
     0
370
    -2
100
AcDbBlockReference
  2
_DOT
 10
1054.271954927328
 20
1726.552609155488
 30
0.0
 41
9.0
 42
9.0
 43
9.0
 50
270.0
  0
MTEXT
  5
261D
330
2615
100
AcDbEntity
  8
Dim
 62
     0
100
AcDbMText
 10
1032.055646333578
 20
1956.552609155488
 30
0.0
 40
24.4326171875
 41
0.0
 46
0.0
 71
     5
 72
     1
  1
\A1;460
  7
ＭＳ ゴシック
 11
0.0
 21
1.0
 31
0.0
 73
     1
 44
1.0
  0
POINT
  5
261E
330
2615
100
AcDbEntity
  8
Defpoints
 62
     0
100
AcDbPoint
 10
947.1986959070591
 20
2186.552609155488
 30
0.0
  0
POINT
  5
261F
330
2615
100
AcDbEntity
  8
Defpoints
 62
     0
100
AcDbPoint
 10
947.1986959070591
 20
1726.552609155488
 30
0.0
  0
POINT
  5
2620
330
2615
100
AcDbEntity
  8
Defpoints
 62
     0
100
AcDbPoint
 10
1054.271954927328
 20
1726.552609155488
 30
0.0
  0
ENDBLK
  5
2617
330
2615
100
AcDbEntity
  8
0
100
AcDbBlockEnd
  0
BLOCK
  5
2625
330
2624
100
AcDbEntity
  8
0
100
AcDbBlockBegin
  2
*D32
 70
     1
 10
0.0
 20
0.0
 30
0.0
  3
*D32
  1
*D33
  0
LINE
  5
2627
330
2624
100
AcDbEntity
  8
Dim
 62
     0
370
    -2
100
AcDbLine
 10
328.1937915189927
 20
2082.052564027895
 30
0.0
 11
254.6449818969942
 21
2082.052564027895
 31
0.0
  0
LINE
  5
2628
330
2624
100
AcDbEntity
  8
Dim
 62
     0
370
    -2
100
AcDbLine
 10
328.1937915189927
 20
1729.552564027895
 30
0.0
 11
254.6449818969942
 21
1729.552564027895
 31
0.0
  0
LINE
  5
2629
330
2624
100
AcDbEntity
  8
Dim
 62
     0
370
    -2
100
AcDbLine
 10
254.6449818969942
 20
2073.052564027895
 30
0.0
 11
254.6449818969942
 21
1738.552564027895
 31
0.0
  0
INSERT
  5
262A
330
2624
100
AcDbEntity
  8
Dim
 62
     0
370
    -2
100
AcDbBlockReference
  2
_DOT
 10
254.6449818969942
 20
2082.052564027895
 30
0.0
 41
9.0
 42
9.0
 43
9.0
 50
90.0
  0
INSERT
  5
262B
330
2624
100
AcDbEntity
  8
Dim
 62
     0
370
    -2
100
AcDbBlockReference
  2
_DOT
 10
254.6449818969942
 20
1729.552564027895
 30
0.0
 41
9.0
 42
9.0
 43
9.0
 50
270.0
  0
MTEXT
  5
262C
330
2624
100
AcDbEntity
  8
Dim
 62
     0
100
AcDbMText
 10
232.4286733032442
 20
1905.802564027895
 30
0.0
 40
24.4326171875
 41
0.0
 46
0.0
 71
     5
 72
     1
  1
\A1;353
  7
ＭＳ ゴシック
 11
8.062896292313188E-17
 21
1.0
 31
0.0
 73
     1
 44
1.0
  0
POINT
  5
262D
330
2624
100
AcDbEntity
  8
Defpoints
 62
     0
100
AcDbPoint
 10
353.1937915189927
 20
2082.052564027895
 30
0.0
  0
POINT
  5
262E
330
2624
100
AcDbEntity
  8
Defpoints
 62
     0
100
AcDbPoint
 10
353.1937915189927
 20
1729.552564027895
 30
0.0
  0
POINT
  5
262F
330
2624
100
AcDbEntity
  8
Defpoints
 62
     0
100
AcDbPoint
 10
254.6449818969942
 20
1729.552564027895
 30
0.0
  0
ENDBLK
  5
2626
330
2624
100
AcDbEntity
  8
0
100
AcDbBlockEnd
  0
BLOCK
  5
2635
330
2634
100
AcDbEntity
  8
0
100
AcDbBlockBegin
  2
*D33
 70
     1
 10
0.0
 20
0.0
 30
0.0
  3
*D33
  1
*D34
  0
LINE
  5
2637
330
2634
100
AcDbEntity
  8
Dim
 62
     0
370
    -2
100
AcDbLine
 10
947.1986959070591
 20
1704.552564027895
 30
0.0
 11
947.1986959070591
 21
1598.541913585828
 31
0.0
  0
LINE
  5
2638
330
2634
100
AcDbEntity
  8
Dim
 62
     0
370
    -2
100
AcDbLine
 10
353.1986959070591
 20
1704.552564027895
 30
0.0
 11
353.1986959070591
 21
1598.541913585828
 31
0.0
  0
LINE
  5
2639
330
2634
100
AcDbEntity
  8
Dim
 62
     0
370
    -2
100
AcDbLine
 10
938.1986959070591
 20
1598.541913585828
 30
0.0
 11
362.1986959070591
 21
1598.541913585828
 31
0.0
  0
INSERT
  5
263A
330
2634
100
AcDbEntity
  8
Dim
 62
     0
370
    -2
100
AcDbBlockReference
  2
_DOT
 10
947.1986959070591
 20
1598.541913585828
 30
0.0
 41
9.0
 42
9.0
 43
9.0
  0
INSERT
  5
263B
330
2634
100
AcDbEntity
  8
Dim
 62
     0
370
    -2
100
AcDbBlockReference
  2
_DOT
 10
353.1986959070591
 20
1598.541913585828
 30
0.0
 41
9.0
 42
9.0
 43
9.0
 50
180.0
  0
MTEXT
  5
263C
330
2634
100
AcDbEntity
  8
Dim
 62
     0
100
AcDbMText
 10
650.1986959070591
 20
1620.758222179578
 30
0.0
 40
24.4326171875
 41
0.0
 46
0.0
 71
     5
 72
     1
  1
\A1;594
  7
ＭＳ ゴシック
 73
     1
 44
1.0
  0
POINT
  5
263D
330
2634
100
AcDbEntity
  8
Defpoints
 62
     0
100
AcDbPoint
 10
947.1986959070591
 20
1729.552564027895
 30
0.0
  0
POINT
  5
263E
330
2634
100
AcDbEntity
  8
Defpoints
 62
     0
100
AcDbPoint
 10
353.1986959070591
 20
1729.552564027895
 30
0.0
  0
POINT
  5
263F
330
2634
100
AcDbEntity
  8
Defpoints
 62
     0
100
AcDbPoint
 10
353.1986959070591
 20
1598.541913585828
 30
0.0
  0
ENDBLK
  5
2636
330
2634
100
AcDbEntity
  8
0
100
AcDbBlockEnd
  0
BLOCK
  5
2732
330
2731
100
AcDbEntity
  8
0
100
AcDbBlockBegin
  2
*D34
 70
     1
 10
0.0
 20
0.0
 30
0.0
  3
*D34
  1
*D36
  0
LINE
  5
2733
330
2731
100
AcDbEntity
  8
Dim
  6
Continuous
 62
     0
370
    -2
100
AcDbLine
 10
39.36800585937498
 20
116.5835542907809
 30
0.0
 11
39.368005859375
 21
286.9594742126561
 31
0.0
  0
LINE
  5
2734
330
2731
100
AcDbEntity
  8
Dim
  6
Continuous
 62
     0
370
    -2
100
AcDbLine
 10
39.36800585937497
 20
13.5
 30
0.0
 11
39.36800585937498
 21
107.5835542907809
 31
0.0
  0
INSERT
  5
2735
330
2731
100
AcDbEntity
  8
Dim
 62
     0
370
    -2
100
AcDbBlockReference
  2
_DOT
 10
39.36800585937497
 20
4.5
 30
0.0
 41
9.0
 42
9.0
 43
9.0
 50
270.0
  0
INSERT
  5
2736
330
2731
100
AcDbEntity
  8
Dim
 62
     0
370
    -2
100
AcDbBlockReference
  2
_DOT
 10
39.36800585937498
 20
116.5835542907809
 30
0.0
 41
9.0
 42
9.0
 43
9.0
 50
90.0
  0
MTEXT
  5
2737
330
2731
100
AcDbEntity
  8
Dim
 62
     0
100
AcDbMText
 10
14.98941064453123
 20
210.7715142517186
 30
0.0
 40
24.4326171875
 41
0.0
 46
0.0
 71
     5
 72
     1
  1
\A1;110(深さ)
  7
ＭＳ ゴシック
 11
6.339402245549096E-17
 21
1.0
 31
0.0
 73
     1
 44
1.0
  0
POINT
  5
2738
330
2731
100
AcDbEntity
  8
Defpoints
 62
     0
100
AcDbPoint
 10
39.36799258822407
 20
4.5
 30
0.0
  0
POINT
  5
2739
330
2731
100
AcDbEntity
  8
Defpoints
 62
     0
100
AcDbPoint
 10
39.36800585937499
 20
116.5835542907809
 30
0.0
  0
POINT
  5
273A
330
2731
100
AcDbEntity
  8
Defpoints
 62
     0
100
AcDbPoint
 10
39.36800585937499
 20
116.5835542907809
 30
0.0
  0
ENDBLK
  5
273B
330
2731
100
AcDbEntity
  8
0
100
AcDbBlockEnd
  0
BLOCK
  5
2742
330
2741
100
AcDbEntity
  8
0
100
AcDbBlockBegin
  2
*D35
 70
     1
 10
0.0
 20
0.0
 30
0.0
  3
*D35
  1
*D37
  0
LINE
  5
2744
330
2741
100
AcDbEntity
  8
Dim
  6
Continuous
 62
     0
370
    -2
100
AcDbLine
 10
1529.59828327995
 20
1057.181964845815
 30
0.0
 11
1529.59828327995
 21
1227.55788476769
 31
0.0
  0
LINE
  5
2745
330
2741
100
AcDbEntity
  8
Dim
  6
Continuous
 62
     0
370
    -2
100
AcDbLine
 10
1529.59828327995
 20
954.0984105550344
 30
0.0
 11
1529.59828327995
 21
1048.181964845815
 31
0.0
  0
INSERT
  5
2746
330
2741
100
AcDbEntity
  8
Dim
 62
     0
370
    -2
100
AcDbBlockReference
  2
_DOT
 10
1529.59828327995
 20
945.0984105550344
 30
0.0
 41
9.0
 42
9.0
 43
9.0
 50
270.0
  0
INSERT
  5
2747
330
2741
100
AcDbEntity
  8
Dim
 62
     0
370
    -2
100
AcDbBlockReference
  2
_DOT
 10
1529.59828327995
 20
1057.181964845815
 30
0.0
 41
9.0
 42
9.0
 43
9.0
 50
90.0
  0
MTEXT
  5
2748
330
2741
100
AcDbEntity
  8
Dim
 62
     0
100
AcDbMText
 10
1505.219688065106
 20
1151.369924806753
 30
0.0
 40
24.4326171875
 41
0.0
 46
0.0
 71
     5
 72
     1
  1
\A1;110(深さ)
  7
ＭＳ ゴシック
 11
0.0
 21
1.0
 31
0.0
 73
     1
 44
1.0
  0
POINT
  5
2749
330
2741
100
AcDbEntity
  8
Defpoints
 62
     0
100
AcDbPoint
 10
1529.598270008799
 20
945.0984105550344
 30
0.0
  0
POINT
  5
274A
330
2741
100
AcDbEntity
  8
Defpoints
 62
     0
100
AcDbPoint
 10
1529.59828327995
 20
1057.181964845815
 30
0.0
  0
POINT
  5
274B
330
2741
100
AcDbEntity
  8
Defpoints
 62
     0
100
AcDbPoint
 10
1529.59828327995
 20
1057.181964845815
 30
0.0
  0
ENDBLK
  5
2743
330
2741
100
AcDbEntity
  8
0
100
AcDbBlockEnd
  0
BLOCK
  5
28A4
330
28A3
100
AcDbEntity
  8
0
100
AcDbBlockBegin
  2
*D36
 70
     1
 10
0.0
 20
0.0
 30
0.0
  3
*D36
  1
*D368
  0
LINE
  5
28A5
330
28A3
100
AcDbEntity
  8
Dim
  6
Continuous
 62
     0
370
    -2
100
AcDbLine
 10
421.6024380861888
 20
544.4461305598804
 30
0.0
 11
421.6024380861888
 21
615.5713202014786
 31
0.0
  0
ARC
  5
28A6
330
28A3
100
AcDbEntity
  8
Dim
  6
Continuous
 62
     0
370
    -2
100
AcDbCircle
 10
421.6024380861888
 20
474.4656909763321
 30
0.0
 40
141.1056292251465
100
AcDbArc
 50
48.2489274856597
 51
86.75117392459441
  0
INSERT
  5
28A7
330
28A3
100
AcDbEntity
  8
Dim
 62
     0
370
    -2
100
AcDbBlockReference
  2
_DOT
 10
521.3790087755899
 20
574.24261486401
 30
0.0
 41
8.0
 42
8.0
 43
8.0
 50
316.624514447957
  0
INSERT
  5
28A8
330
28A3
100
AcDbEntity
  8
Dim
 62
     0
370
    -2
100
AcDbBlockReference
  2
_DOT
 10
421.6024380861888
 20
615.5713202014786
 30
0.0
 41
8.0
 42
8.0
 43
8.0
 50
178.3755869622972
  0
MTEXT
  5
28A9
330
28A3
100
AcDbEntity
  8
Dim
 62
     0
100
AcDbMText
 10
488.0076796055887
 20
634.7825269503907
 30
0.0
 40
24.0
 41
0.0
 46
0.0
 71
     5
 72
     1
  1
\A1;45%%d
  7
ＭＳ ゴシック
 11
0.9238798711748236
 21
-0.3826826147579629
 31
0.0
 73
     1
 44
1.0
  0
POINT
  5
28AA
330
28A3
100
AcDbEntity
  8
Defpoints
 62
     0
100
AcDbPoint
 10
492.1551085061203
 20
596.6668337518441
 30
0.0
  0
POINT
  5
28AB
330
28A3
100
AcDbEntity
  8
Defpoints
 62
     0
100
AcDbPoint
 10
656.3207379436528
 20
709.1848217112104
 30
0.0
  0
POINT
  5
28AC
330
28A3
100
AcDbEntity
  8
Defpoints
 62
     0
100
AcDbPoint
 10
421.6024380861888
 20
514.4461305598804
 30
0.0
  0
POINT
  5
28AD
330
28A3
100
AcDbEntity
  8
Defpoints
 62
     0
100
AcDbPoint
 10
421.6024380861888
 20
497.0586116760194
 30
0.0
  0
POINT
  5
28AE
330
28A3
100
AcDbEntity
  8
Defpoints
 62
     0
100
AcDbPoint
 10
461.676504226351
 20
514.5398989743574
 30
0.0
  0
ENDBLK
  5
28AF
330
28A3
100
AcDbEntity
  8
0
100
AcDbBlockEnd
  0
BLOCK
  5
28B4
330
28B3
100
AcDbEntity
  8
0
100
AcDbBlockBegin
  2
*D37
 70
     1
 10
0.0
 20
0.0
 30
0.0
  3
*D37
  1
*D369
  0
LINE
  5
28B5
330
28B3
100
AcDbEntity
  8
Dim
  6
Continuous
 62
     0
370
    -2
100
AcDbLine
 10
679.2507083247629
 20
821.9669870136024
 30
0.0
 11
812.6089567960869
 21
821.9669870136024
 31
0.0
  0
LINE
  5
28B6
330
28B3
100
AcDbEntity
  8
Dim
  6
Continuous
 62
     0
370
    -2
100
AcDbLine
 10
449.248402788174
 20
496.9661108012194
 30
0.0
 11
812.6089567960869
 21
496.9661108012194
 31
0.0
  0
LINE
  5
28B7
330
28B3
100
AcDbEntity
  8
Dim
  6
Continuous
 62
     0
370
    -2
100
AcDbLine
 10
812.6089567960869
 20
813.9669870136024
 30
0.0
 11
812.6089567960869
 21
504.9661108012194
 31
0.0
  0
INSERT
  5
28B8
330
28B3
100
AcDbEntity
  8
Dim
 62
     0
370
    -2
100
AcDbBlockReference
  2
_DOT
 10
812.6089567960869
 20
821.9669870136024
 30
0.0
 41
8.0
 42
8.0
 43
8.0
 50
90.0
  0
INSERT
  5
28B9
330
28B3
100
AcDbEntity
  8
Dim
 62
     0
370
    -2
100
AcDbBlockReference
  2
_DOT
 10
812.6089567960869
 20
496.9661108012194
 30
0.0
 41
8.0
 42
8.0
 43
8.0
 50
270.0
  0
MTEXT
  5
28BA
330
28B3
100
AcDbEntity
  8
Dim
 62
     0
100
AcDbMText
 10
780.6089567960869
 20
659.4665489074109
 30
0.0
 40
24.0
 41
0.0
 46
0.0
 71
     5
 72
     1
  1
\A1;325
  7
ＭＳ ゴシック
 11
0.0
 21
1.0
 31
0.0
 73
     1
 44
1.0
  0
POINT
  5
28BB
330
28B3
100
AcDbEntity
  8
Defpoints
 62
     0
100
AcDbPoint
 10
649.2507083247629
 20
821.9669870136024
 30
0.0
  0
POINT
  5
28BC
330
28B3
100
AcDbEntity
  8
Defpoints
 62
     0
100
AcDbPoint
 10
419.248402788174
 20
496.9661108012194
 30
0.0
  0
POINT
  5
28BD
330
28B3
100
AcDbEntity
  8
Defpoints
 62
     0
100
AcDbPoint
 10
812.6089567960869
 20
496.9661108012194
 30
0.0
  0
ENDBLK
  5
28BE
330
28B3
100
AcDbEntity
  8
0
100
AcDbBlockEnd
  0
BLOCK
  5
28C1
330
28C0
100
AcDbEntity
  8
0
100
AcDbBlockBegin
  2
*D38
 70
     1
 10
0.0
 20
0.0
 30
0.0
  3
*D38
  1
*D370
  0
LINE
  5
28C2
330
28C0
100
AcDbEntity
  8
Dim
  6
Continuous
 62
     0
370
    -2
100
AcDbLine
 10
659.0582126221279
 20
621.4959863852894
 30
0.0
 11
659.0582126221279
 21
251.1339053815284
 31
0.0
  0
LINE
  5
28C3
330
28C0
100
AcDbEntity
  8
Dim
  6
Continuous
 62
     0
370
    -2
100
AcDbLine
 10
179.2485958128671
 20
619.5455442896193
 30
0.0
 11
179.2485958128671
 21
251.1339053815284
 31
0.0
  0
LINE
  5
28C4
330
28C0
100
AcDbEntity
  8
Dim
  6
Continuous
 62
     0
370
    -2
100
AcDbLine
 10
651.0582126221279
 20
251.1339053815284
 30
0.0
 11
187.2485958128671
 21
251.1339053815284
 31
0.0
  0
INSERT
  5
28C5
330
28C0
100
AcDbEntity
  8
Dim
 62
     0
370
    -2
100
AcDbBlockReference
  2
_DOT
 10
659.0582126221279
 20
251.1339053815284
 30
0.0
 41
8.0
 42
8.0
 43
8.0
  0
INSERT
  5
28C6
330
28C0
100
AcDbEntity
  8
Dim
 62
     0
370
    -2
100
AcDbBlockReference
  2
_DOT
 10
179.2485958128671
 20
251.1339053815284
 30
0.0
 41
8.0
 42
8.0
 43
8.0
 50
180.0
  0
MTEXT
  5
28C7
330
28C0
100
AcDbEntity
  8
Dim
 62
     0
100
AcDbMText
 10
419.1534042174975
 20
283.1339053815284
 30
0.0
 40
24.0
 41
0.0
 46
0.0
 71
     5
 72
     1
  1
\A1;480
  7
ＭＳ ゴシック
 73
     1
 44
1.0
  0
POINT
  5
28C8
330
28C0
100
AcDbEntity
  8
Defpoints
 62
     0
100
AcDbPoint
 10
659.0582126221279
 20
651.4959863852894
 30
0.0
  0
POINT
  5
28C9
330
28C0
100
AcDbEntity
  8
Defpoints
 62
     0
100
AcDbPoint
 10
179.2485958128671
 20
649.5455442896193
 30
0.0
  0
POINT
  5
28CA
330
28C0
100
AcDbEntity
  8
Defpoints
 62
     0
100
AcDbPoint
 10
179.2485958128671
 20
251.1339053815284
 30
0.0
  0
ENDBLK
  5
28CB
330
28C0
100
AcDbEntity
  8
0
100
AcDbBlockEnd
  0
BLOCK
  5
28CF
330
28CE
100
AcDbEntity
  8
0
100
AcDbBlockBegin
  2
*D39
 70
     1
 10
0.0
 20
0.0
 30
0.0
  3
*D39
  1
*D371
  0
LINE
  5
28D0
330
28CE
100
AcDbEntity
  8
Dim
  6
Continuous
 62
     0
370
    -2
100
AcDbLine
 10
389.2497808272769
 20
556.9669870136024
 30
0.0
 11
84.89816733942483
 21
556.9669870136024
 31
0.0
  0
LINE
  5
28D1
330
28CE
100
AcDbEntity
  8
Dim
  6
Continuous
 62
     0
370
    -2
100
AcDbLine
 10
159.2488533297919
 20
821.9669870136024
 30
0.0
 11
84.89816733942484
 21
821.9669870136024
 31
0.0
  0
LINE
  5
28D2
330
28CE
100
AcDbEntity
  8
Dim
  6
Continuous
 62
     0
370
    -2
100
AcDbLine
 10
84.89816733942483
 20
564.9669870136024
 30
0.0
 11
84.89816733942484
 21
813.9669870136024
 31
0.0
  0
INSERT
  5
28D3
330
28CE
100
AcDbEntity
  8
Dim
 62
     0
370
    -2
100
AcDbBlockReference
  2
_DOT
 10
84.89816733942483
 20
556.9669870136024
 30
0.0
 41
8.0
 42
8.0
 43
8.0
 50
270.0
  0
INSERT
  5
28D4
330
28CE
100
AcDbEntity
  8
Dim
 62
     0
370
    -2
100
AcDbBlockReference
  2
_DOT
 10
84.89816733942484
 20
821.9669870136024
 30
0.0
 41
8.0
 42
8.0
 43
8.0
 50
90.0
  0
MTEXT
  5
28D5
330
28CE
100
AcDbEntity
  8
Dim
 62
     0
100
AcDbMText
 10
52.89816733942484
 20
689.4669870136024
 30
0.0
 40
24.0
 41
0.0
 46
0.0
 71
     5
 72
     1
  1
\A1;265
  7
ＭＳ ゴシック
 11
5.362586684981888E-17
 21
1.0
 31
0.0
 73
     1
 44
1.0
  0
POINT
  5
28D6
330
28CE
100
AcDbEntity
  8
Defpoints
 62
     0
100
AcDbPoint
 10
419.2497808272769
 20
556.9669870136024
 30
0.0
  0
POINT
  5
28D7
330
28CE
100
AcDbEntity
  8
Defpoints
 62
     0
100
AcDbPoint
 10
189.2488533297919
 20
821.9669870136024
 30
0.0
  0
POINT
  5
28D8
330
28CE
100
AcDbEntity
  8
Defpoints
 62
     0
100
AcDbPoint
 10
84.89816733942484
 20
821.9669870136024
 30
0.0
  0
ENDBLK
  5
28D9
330
28CE
100
AcDbEntity
  8
0
100
AcDbBlockEnd
  0
BLOCK
  5
28DC
330
28DB
100
AcDbEntity
  8
0
100
AcDbBlockBegin
  2
*D40
 70
     1
 10
0.0
 20
0.0
 30
0.0
  3
*D40
  1
*D372
  0
LINE
  5
28DD
330
28DB
100
AcDbEntity
  8
Dim
  6
Continuous
 62
     0
370
    -2
100
AcDbLine
 10
679.2507083247629
 20
821.9669870136024
 30
0.0
 11
812.6089567960869
 21
821.9669870136024
 31
0.0
  0
LINE
  5
28DE
330
28DB
100
AcDbEntity
  8
Dim
  6
Continuous
 62
     0
370
    -2
100
AcDbLine
 10
742.2231490911599
 20
836.9669870136024
 30
0.0
 11
812.6089567960869
 21
836.9669870136024
 31
0.0
  0
LINE
  5
28DF
330
28DB
100
AcDbEntity
  8
Dim
  6
Continuous
 62
     0
370
    -2
100
AcDbLine
 10
812.6089567960869
 20
836.9669870136024
 30
0.0
 11
812.6089567960869
 21
919.2709870136025
 31
0.0
  0
LINE
  5
28E0
330
28DB
100
AcDbEntity
  8
Dim
  6
Continuous
 62
     0
370
    -2
100
AcDbLine
 10
812.6089567960869
 20
829.9669870136024
 30
0.0
 11
812.6089567960869
 21
828.9669870136024
 31
0.0
  0
INSERT
  5
28E1
330
28DB
100
AcDbEntity
  8
Dim
 62
     0
370
    -2
100
AcDbBlockReference
  2
_DOT
 10
812.6089567960869
 20
821.9669870136024
 30
0.0
 41
8.0
 42
8.0
 43
8.0
 50
270.0
  0
INSERT
  5
28E2
330
28DB
100
AcDbEntity
  8
Dim
 62
     0
370
    -2
100
AcDbBlockReference
  2
_DOT
 10
812.6089567960869
 20
836.9669870136024
 30
0.0
 41
8.0
 42
8.0
 43
8.0
 50
90.0
  0
MTEXT
  5
28E3
330
28DB
100
AcDbEntity
  8
Dim
 62
     0
100
AcDbMText
 10
780.6089567960869
 20
886.1189870136025
 30
0.0
 40
24.0
 41
0.0
 46
0.0
 71
     5
 72
     1
  1
\A1;15
  7
ＭＳ ゴシック
 11
0.0
 21
1.0
 31
0.0
 73
     1
 44
1.0
  0
POINT
  5
28E4
330
28DB
100
AcDbEntity
  8
Defpoints
 62
     0
100
AcDbPoint
 10
649.2507083247629
 20
821.9669870136024
 30
0.0
  0
POINT
  5
28E5
330
28DB
100
AcDbEntity
  8
Defpoints
 62
     0
100
AcDbPoint
 10
712.2231490911599
 20
836.9669870136024
 30
0.0
  0
POINT
  5
28E6
330
28DB
100
AcDbEntity
  8
Defpoints
 62
     0
100
AcDbPoint
 10
812.6089567960869
 20
836.9669870136024
 30
0.0
  0
ENDBLK
  5
28E7
330
28DB
100
AcDbEntity
  8
0
100
AcDbBlockEnd
  0
BLOCK
  5
294C
330
294B
100
AcDbEntity
  8
0
100
AcDbBlockBegin
  2
*D41
 70
     1
 10
0.0
 20
0.0
 30
0.0
  3
*D41
  1
*D42
  0
LINE
  5
294E
330
294B
100
AcDbEntity
  8
Dim
  6
Continuous
 62
     0
370
    -2
100
AcDbLine
 10
1539.444648686191
 20
1894.326697431682
 30
0.0
 11
1539.444648686191
 21
1965.45188707328
 31
0.0
  0
ARC
  5
294F
330
294B
100
AcDbEntity
  8
Dim
  6
Continuous
 62
     0
370
    -2
100
AcDbCircle
 10
1539.444648686191
 20
1824.346257848134
 30
0.0
 40
141.1056292251467
100
AcDbArc
 50
48.24892748565953
 51
86.75117392459453
  0
INSERT
  5
2950
330
294B
100
AcDbEntity
  8
Dim
 62
     0
370
    -2
100
AcDbBlockReference
  2
_DOT
 10
1639.221219375592
 20
1924.123181735812
 30
0.0
 41
8.0
 42
8.0
 43
8.0
 50
316.624514447957
  0
INSERT
  5
2951
330
294B
100
AcDbEntity
  8
Dim
 62
     0
370
    -2
100
AcDbBlockReference
  2
_DOT
 10
1539.444648686191
 20
1965.45188707328
 30
0.0
 41
8.0
 42
8.0
 43
8.0
 50
178.3755869622973
  0
MTEXT
  5
2952
330
294B
100
AcDbEntity
  8
Dim
 62
     0
100
AcDbMText
 10
1605.849890205591
 20
1984.663093822193
 30
0.0
 40
24.0
 41
0.0
 46
0.0
 71
     5
 72
     1
  1
\A1;45%%d
  7
ＭＳ ゴシック
 11
0.9238798711748234
 21
-0.3826826147579633
 31
0.0
 73
     1
 44
1.0
  0
POINT
  5
2953
330
294B
100
AcDbEntity
  8
Defpoints
 62
     0
100
AcDbPoint
 10
1609.997319106122
 20
1946.547400623645
 30
0.0
  0
POINT
  5
2954
330
294B
100
AcDbEntity
  8
Defpoints
 62
     0
100
AcDbPoint
 10
1774.162948543655
 20
2059.065388583012
 30
0.0
  0
POINT
  5
2955
330
294B
100
AcDbEntity
  8
Defpoints
 62
     0
100
AcDbPoint
 10
1539.444648686191
 20
1864.326697431682
 30
0.0
  0
POINT
  5
2956
330
294B
100
AcDbEntity
  8
Defpoints
 62
     0
100
AcDbPoint
 10
1539.444648686191
 20
1846.939178547821
 30
0.0
  0
POINT
  5
2957
330
294B
100
AcDbEntity
  8
Defpoints
 62
     0
100
AcDbPoint
 10
1579.518714826353
 20
1864.420465846159
 30
0.0
  0
ENDBLK
  5
294D
330
294B
100
AcDbEntity
  8
0
100
AcDbBlockEnd
  0
BLOCK
  5
2959
330
2958
100
AcDbEntity
  8
0
100
AcDbBlockBegin
  2
*D42
 70
     1
 10
0.0
 20
0.0
 30
0.0
  3
*D42
  1
*D43
  0
LINE
  5
295B
330
2958
100
AcDbEntity
  8
Dim
  6
Continuous
 62
     0
370
    -2
100
AcDbLine
 10
1797.092918924765
 20
2171.847553885404
 30
0.0
 11
1930.451167396089
 21
2171.847553885404
 31
0.0
  0
LINE
  5
295C
330
2958
100
AcDbEntity
  8
Dim
  6
Continuous
 62
     0
370
    -2
100
AcDbLine
 10
1567.090613388176
 20
1846.846677673021
 30
0.0
 11
1930.451167396089
 21
1846.846677673021
 31
0.0
  0
LINE
  5
295D
330
2958
100
AcDbEntity
  8
Dim
  6
Continuous
 62
     0
370
    -2
100
AcDbLine
 10
1930.451167396089
 20
2163.847553885404
 30
0.0
 11
1930.451167396089
 21
1854.846677673021
 31
0.0
  0
INSERT
  5
295E
330
2958
100
AcDbEntity
  8
Dim
 62
     0
370
    -2
100
AcDbBlockReference
  2
_DOT
 10
1930.451167396089
 20
2171.847553885404
 30
0.0
 41
8.0
 42
8.0
 43
8.0
 50
90.0
  0
INSERT
  5
295F
330
2958
100
AcDbEntity
  8
Dim
 62
     0
370
    -2
100
AcDbBlockReference
  2
_DOT
 10
1930.451167396089
 20
1846.846677673021
 30
0.0
 41
8.0
 42
8.0
 43
8.0
 50
270.0
  0
MTEXT
  5
2960
330
2958
100
AcDbEntity
  8
Dim
 62
     0
100
AcDbMText
 10
1898.451167396089
 20
2009.347115779213
 30
0.0
 40
24.0
 41
0.0
 46
0.0
 71
     5
 72
     1
  1
\A1;325
  7
ＭＳ ゴシック
 11
0.0
 21
1.0
 31
0.0
 73
     1
 44
1.0
  0
POINT
  5
2961
330
2958
100
AcDbEntity
  8
Defpoints
 62
     0
100
AcDbPoint
 10
1767.092918924765
 20
2171.847553885404
 30
0.0
  0
POINT
  5
2962
330
2958
100
AcDbEntity
  8
Defpoints
 62
     0
100
AcDbPoint
 10
1537.090613388176
 20
1846.846677673021
 30
0.0
  0
POINT
  5
2963
330
2958
100
AcDbEntity
  8
Defpoints
 62
     0
100
AcDbPoint
 10
1930.451167396089
 20
1846.846677673021
 30
0.0
  0
ENDBLK
  5
295A
330
2958
100
AcDbEntity
  8
0
100
AcDbBlockEnd
  0
BLOCK
  5
2965
330
2964
100
AcDbEntity
  8
0
100
AcDbBlockBegin
  2
*D43
 70
     1
 10
0.0
 20
0.0
 30
0.0
  3
*D43
  1
*D44
  0
LINE
  5
2967
330
2964
100
AcDbEntity
  8
Dim
  6
Continuous
 62
     0
370
    -2
100
AcDbLine
 10
1776.90042322213
 20
1971.376553257091
 30
0.0
 11
1776.90042322213
 21
1601.01447225333
 31
0.0
  0
LINE
  5
2968
330
2964
100
AcDbEntity
  8
Dim
  6
Continuous
 62
     0
370
    -2
100
AcDbLine
 10
1297.090806412869
 20
1969.426111161421
 30
0.0
 11
1297.090806412869
 21
1601.01447225333
 31
0.0
  0
LINE
  5
2969
330
2964
100
AcDbEntity
  8
Dim
  6
Continuous
 62
     0
370
    -2
100
AcDbLine
 10
1768.90042322213
 20
1601.01447225333
 30
0.0
 11
1305.090806412869
 21
1601.01447225333
 31
0.0
  0
INSERT
  5
296A
330
2964
100
AcDbEntity
  8
Dim
 62
     0
370
    -2
100
AcDbBlockReference
  2
_DOT
 10
1776.90042322213
 20
1601.01447225333
 30
0.0
 41
8.0
 42
8.0
 43
8.0
  0
INSERT
  5
296B
330
2964
100
AcDbEntity
  8
Dim
 62
     0
370
    -2
100
AcDbBlockReference
  2
_DOT
 10
1297.090806412869
 20
1601.01447225333
 30
0.0
 41
8.0
 42
8.0
 43
8.0
 50
180.0
  0
MTEXT
  5
296C
330
2964
100
AcDbEntity
  8
Dim
 62
     0
100
AcDbMText
 10
1536.995614817499
 20
1633.01447225333
 30
0.0
 40
24.0
 41
0.0
 46
0.0
 71
     5
 72
     1
  1
\A1;480
  7
ＭＳ ゴシック
 73
     1
 44
1.0
  0
POINT
  5
296D
330
2964
100
AcDbEntity
  8
Defpoints
 62
     0
100
AcDbPoint
 10
1776.90042322213
 20
2001.376553257091
 30
0.0
  0
POINT
  5
296E
330
2964
100
AcDbEntity
  8
Defpoints
 62
     0
100
AcDbPoint
 10
1297.090806412869
 20
1999.426111161421
 30
0.0
  0
POINT
  5
296F
330
2964
100
AcDbEntity
  8
Defpoints
 62
     0
100
AcDbPoint
 10
1297.090806412869
 20
1601.01447225333
 30
0.0
  0
ENDBLK
  5
2966
330
2964
100
AcDbEntity
  8
0
100
AcDbBlockEnd
  0
BLOCK
  5
2971
330
2970
100
AcDbEntity
  8
0
100
AcDbBlockBegin
  2
*D44
 70
     1
 10
0.0
 20
0.0
 30
0.0
  3
*D44
  1
*D45
  0
LINE
  5
2973
330
2970
100
AcDbEntity
  8
Dim
  6
Continuous
 62
     0
370
    -2
100
AcDbLine
 10
1507.091991427279
 20
1906.847553885404
 30
0.0
 11
1202.740377939427
 21
1906.847553885404
 31
0.0
  0
LINE
  5
2974
330
2970
100
AcDbEntity
  8
Dim
  6
Continuous
 62
     0
370
    -2
100
AcDbLine
 10
1277.091063929794
 20
2171.847553885404
 30
0.0
 11
1202.740377939427
 21
2171.847553885404
 31
0.0
  0
LINE
  5
2975
330
2970
100
AcDbEntity
  8
Dim
  6
Continuous
 62
     0
370
    -2
100
AcDbLine
 10
1202.740377939427
 20
1914.847553885404
 30
0.0
 11
1202.740377939427
 21
2163.847553885404
 31
0.0
  0
INSERT
  5
2976
330
2970
100
AcDbEntity
  8
Dim
 62
     0
370
    -2
100
AcDbBlockReference
  2
_DOT
 10
1202.740377939427
 20
1906.847553885404
 30
0.0
 41
8.0
 42
8.0
 43
8.0
 50
270.0
  0
INSERT
  5
2977
330
2970
100
AcDbEntity
  8
Dim
 62
     0
370
    -2
100
AcDbBlockReference
  2
_DOT
 10
1202.740377939427
 20
2171.847553885404
 30
0.0
 41
8.0
 42
8.0
 43
8.0
 50
90.0
  0
MTEXT
  5
2978
330
2970
100
AcDbEntity
  8
Dim
 62
     0
100
AcDbMText
 10
1170.740377939427
 20
2039.347553885404
 30
0.0
 40
24.0
 41
0.0
 46
0.0
 71
     5
 72
     1
  1
\A1;265
  7
ＭＳ ゴシック
 11
0.0
 21
1.0
 31
0.0
 73
     1
 44
1.0
  0
POINT
  5
2979
330
2970
100
AcDbEntity
  8
Defpoints
 62
     0
100
AcDbPoint
 10
1537.091991427279
 20
1906.847553885404
 30
0.0
  0
POINT
  5
297A
330
2970
100
AcDbEntity
  8
Defpoints
 62
     0
100
AcDbPoint
 10
1307.091063929794
 20
2171.847553885404
 30
0.0
  0
POINT
  5
297B
330
2970
100
AcDbEntity
  8
Defpoints
 62
     0
100
AcDbPoint
 10
1202.740377939427
 20
2171.847553885404
 30
0.0
  0
ENDBLK
  5
2972
330
2970
100
AcDbEntity
  8
0
100
AcDbBlockEnd
  0
BLOCK
  5
297D
330
297C
100
AcDbEntity
  8
0
100
AcDbBlockBegin
  2
*D45
 70
     1
 10
0.0
 20
0.0
 30
0.0
  3
*D45
  1
*D46
  0
LINE
  5
297F
330
297C
100
AcDbEntity
  8
Dim
  6
Continuous
 62
     0
370
    -2
100
AcDbLine
 10
1797.092918924765
 20
2171.847553885404
 30
0.0
 11
1930.451167396089
 21
2171.847553885404
 31
0.0
  0
LINE
  5
2980
330
297C
100
AcDbEntity
  8
Dim
  6
Continuous
 62
     0
370
    -2
100
AcDbLine
 10
1860.065359691162
 20
2186.847553885404
 30
0.0
 11
1930.451167396089
 21
2186.847553885404
 31
0.0
  0
LINE
  5
2981
330
297C
100
AcDbEntity
  8
Dim
  6
Continuous
 62
     0
370
    -2
100
AcDbLine
 10
1930.451167396089
 20
2186.847553885404
 30
0.0
 11
1930.451167396089
 21
2269.151553885404
 31
0.0
  0
LINE
  5
2982
330
297C
100
AcDbEntity
  8
Dim
  6
Continuous
 62
     0
370
    -2
100
AcDbLine
 10
1930.451167396089
 20
2179.847553885404
 30
0.0
 11
1930.451167396089
 21
2178.847553885404
 31
0.0
  0
INSERT
  5
2983
330
297C
100
AcDbEntity
  8
Dim
 62
     0
370
    -2
100
AcDbBlockReference
  2
_DOT
 10
1930.451167396089
 20
2171.847553885404
 30
0.0
 41
8.0
 42
8.0
 43
8.0
 50
270.0
  0
INSERT
  5
2984
330
297C
100
AcDbEntity
  8
Dim
 62
     0
370
    -2
100
AcDbBlockReference
  2
_DOT
 10
1930.451167396089
 20
2186.847553885404
 30
0.0
 41
8.0
 42
8.0
 43
8.0
 50
90.0
  0
MTEXT
  5
2985
330
297C
100
AcDbEntity
  8
Dim
 62
     0
100
AcDbMText
 10
1898.451167396089
 20
2235.999553885404
 30
0.0
 40
24.0
 41
0.0
 46
0.0
 71
     5
 72
     1
  1
\A1;15
  7
ＭＳ ゴシック
 11
0.0
 21
1.0
 31
0.0
 73
     1
 44
1.0
  0
POINT
  5
2986
330
297C
100
AcDbEntity
  8
Defpoints
 62
     0
100
AcDbPoint
 10
1767.092918924765
 20
2171.847553885404
 30
0.0
  0
POINT
  5
2987
330
297C
100
AcDbEntity
  8
Defpoints
 62
     0
100
AcDbPoint
 10
1830.065359691162
 20
2186.847553885404
 30
0.0
  0
POINT
  5
2988
330
297C
100
AcDbEntity
  8
Defpoints
 62
     0
100
AcDbPoint
 10
1930.451167396089
 20
2186.847553885404
 30
0.0
  0
ENDBLK
  5
297E
330
297C
100
AcDbEntity
  8
0
100
AcDbBlockEnd
  0
BLOCK
  5
299B
330
299A
100
AcDbEntity
  8
0
100
AcDbBlockBegin
  2
*D46
 70
     1
 10
0.0
 20
0.0
 30
0.0
  3
*D46
  1
*D47
  0
LINE
  5
299D
330
299A
100
AcDbEntity
  8
Dim
 62
     0
370
    -2
100
AcDbLine
 10
1294.113171082839
 20
936.8274519867621
 30
0.0
 11
1252.729715565147
 21
936.8274519867621
 31
0.0
  0
LINE
  5
299E
330
299A
100
AcDbEntity
  8
Dim
 62
     0
370
    -2
100
AcDbLine
 10
1474.961831858368
 20
933.8274519867621
 30
0.0
 11
1252.729715565147
 21
933.8274519867621
 31
0.0
  0
LINE
  5
299F
330
299A
100
AcDbEntity
  8
Dim
 62
     0
370
    -2
100
AcDbLine
 10
1252.729715565147
 20
927.8274519867621
 30
0.0
 11
1252.729715565147
 21
942.8274519867621
 31
0.0
  0
INSERT
  5
29A0
330
299A
100
AcDbEntity
  8
Dim
 62
     0
370
    -2
100
AcDbBlockReference
  2
_DOT
 10
1252.729715565147
 20
936.8274519867621
 30
0.0
 41
9.0
 42
9.0
 43
9.0
 50
90.0
  0
INSERT
  5
29A1
330
299A
100
AcDbEntity
  8
Dim
 62
     0
370
    -2
100
AcDbBlockReference
  2
_DOT
 10
1252.729715565147
 20
933.8274519867621
 30
0.0
 41
9.0
 42
9.0
 43
9.0
 50
270.0
  0
MTEXT
  5
29A2
330
299A
100
AcDbEntity
  8
Dim
 62
     0
100
AcDbMText
 10
1230.513406971397
 20
935.3274519867621
 30
0.0
 40
24.4326171875
 41
0.0
 46
0.0
 71
     5
 72
     1
  1
\A1;3
  7
ＭＳ ゴシック
 11
0.0
 21
1.0
 31
0.0
 73
     1
 44
1.0
  0
POINT
  5
29A3
330
299A
100
AcDbEntity
  8
Defpoints
 62
     0
100
AcDbPoint
 10
1319.113171082839
 20
936.8274519867621
 30
0.0
  0
POINT
  5
29A4
330
299A
100
AcDbEntity
  8
Defpoints
 62
     0
100
AcDbPoint
 10
1499.961831858368
 20
933.8274519867621
 30
0.0
  0
POINT
  5
29AE
330
299A
100
AcDbEntity
  8
Defpoints
 62
     0
100
AcDbPoint
 10
1252.729715565147
 20
933.8274519867621
 30
0.0
  0
ENDBLK
  5
299C
330
299A
100
AcDbEntity
  8
0
100
AcDbBlockEnd
  0
BLOCK
  5
29BF
330
29BE
100
AcDbEntity
  8
0
100
AcDbBlockBegin
  2
*D47
 70
     1
 10
0.0
 20
0.0
 30
0.0
  3
*D47
  1
*D48
  0
LINE
  5
29C1
330
29BE
100
AcDbEntity
  8
Dim
 62
     0
370
    -2
100
AcDbLine
 10
1803.054363477641
 20
1078.813656497033
 30
0.0
 11
1803.054363477641
 21
1141.157378349183
 31
0.0
  0
LINE
  5
29C2
330
29BE
100
AcDbEntity
  8
Dim
 62
     0
370
    -2
100
AcDbLine
 10
1744.054363477641
 20
1078.813656497033
 30
0.0
 11
1744.054363477641
 21
1141.157378349183
 31
0.0
  0
LINE
  5
29C3
330
29BE
100
AcDbEntity
  8
Dim
 62
     0
370
    -2
100
AcDbLine
 10
1794.054363477641
 20
1141.157378349183
 30
0.0
 11
1753.054363477641
 21
1141.157378349183
 31
0.0
  0
INSERT
  5
29C4
330
29BE
100
AcDbEntity
  8
Dim
 62
     0
370
    -2
100
AcDbBlockReference
  2
_DOT
 10
1803.054363477641
 20
1141.157378349183
 30
0.0
 41
9.0
 42
9.0
 43
9.0
  0
INSERT
  5
29C5
330
29BE
100
AcDbEntity
  8
Dim
 62
     0
370
    -2
100
AcDbBlockReference
  2
_DOT
 10
1744.054363477641
 20
1141.157378349183
 30
0.0
 41
9.0
 42
9.0
 43
9.0
 50
180.0
  0
MTEXT
  5
29C6
330
29BE
100
AcDbEntity
  8
Dim
 62
     0
100
AcDbMText
 10
1773.554363477641
 20
1163.373686942933
 30
0.0
 40
24.4326171875
 41
0.0
 46
0.0
 71
     5
 72
     1
  1
\A1;59
  7
ＭＳ ゴシック
 73
     1
 44
1.0
  0
POINT
  5
29C7
330
29BE
100
AcDbEntity
  8
Defpoints
 62
     0
100
AcDbPoint
 10
1803.054363477641
 20
1053.813656497033
 30
0.0
  0
POINT
  5
29C8
330
29BE
100
AcDbEntity
  8
Defpoints
 62
     0
100
AcDbPoint
 10
1744.054363477641
 20
1053.813656497033
 30
0.0
  0
POINT
  5
29C9
330
29BE
100
AcDbEntity
  8
Defpoints
 62
     0
100
AcDbPoint
 10
1744.054363477641
 20
1141.157378349183
 30
0.0
  0
ENDBLK
  5
29C0
330
29BE
100
AcDbEntity
  8
0
100
AcDbBlockEnd
  0
BLOCK
  5
29CF
330
29CE
100
AcDbEntity
  8
0
100
AcDbBlockBegin
  2
*D48
 70
     1
 10
0.0
 20
0.0
 30
0.0
  3
*D48
  1
*D49
  0
LINE
  5
29D1
330
29CE
100
AcDbEntity
  8
Dim
 62
     0
370
    -2
100
AcDbLine
 10
975.1951906190075
 20
1056.827451986762
 30
0.0
 11
1064.947809694109
 21
1056.827451986762
 31
0.0
  0
LINE
  5
29D2
330
29CE
100
AcDbEntity
  8
Dim
 62
     0
370
    -2
100
AcDbLine
 10
710.3106131438647
 20
898.8274519867621
 30
0.0
 11
1064.947809694109
 21
898.8274519867621
 31
0.0
  0
LINE
  5
29D3
330
29CE
100
AcDbEntity
  8
Dim
 62
     0
370
    -2
100
AcDbLine
 10
1064.947809694109
 20
1047.827451986762
 30
0.0
 11
1064.947809694109
 21
907.8274519867621
 31
0.0
  0
INSERT
  5
29D4
330
29CE
100
AcDbEntity
  8
Dim
 62
     0
370
    -2
100
AcDbBlockReference
  2
_DOT
 10
1064.947809694109
 20
1056.827451986762
 30
0.0
 41
9.0
 42
9.0
 43
9.0
 50
90.0
  0
INSERT
  5
29D5
330
29CE
100
AcDbEntity
  8
Dim
 62
     0
370
    -2
100
AcDbBlockReference
  2
_DOT
 10
1064.947809694109
 20
898.8274519867621
 30
0.0
 41
9.0
 42
9.0
 43
9.0
 50
270.0
  0
MTEXT
  5
29D6
330
29CE
100
AcDbEntity
  8
Dim
 62
     0
100
AcDbMText
 10
1042.731501100359
 20
977.8274519867621
 30
0.0
 40
24.4326171875
 41
0.0
 46
0.0
 71
     5
 72
     1
  1
\A1;158
  7
ＭＳ ゴシック
 11
0.0
 21
1.0
 31
0.0
 73
     1
 44
1.0
  0
POINT
  5
29D7
330
29CE
100
AcDbEntity
  8
Defpoints
 62
     0
100
AcDbPoint
 10
950.1951906190075
 20
1056.827451986762
 30
0.0
  0
POINT
  5
29D8
330
29CE
100
AcDbEntity
  8
Defpoints
 62
     0
100
AcDbPoint
 10
685.3106131438647
 20
898.8274519867621
 30
0.0
  0
POINT
  5
29D9
330
29CE
100
AcDbEntity
  8
Defpoints
 62
     0
100
AcDbPoint
 10
1064.947809694109
 20
898.8274519867621
 30
0.0
  0
ENDBLK
  5
29D0
330
29CE
100
AcDbEntity
  8
0
100
AcDbBlockEnd
  0
ENDSEC
  0
SECTION
  2
ENTITIES
  0
MTEXT
  5
177
330
A
100
AcDbEntity
  8
template
390
1D
100
AcDbMText
 10
82.00000000048226
 20
348.023957835319
 30
0.0
 40
16.28841145833333
 41
0.0
 46
0.0
 71
     1
 72
     1
  1
品名
  7
ＭＳ ゴシック
 73
     1
 44
0.7828267384257843
  0
MTEXT
  5
178
330
A
100
AcDbEntity
  8
template
390
1D
100
AcDbMText
 10
82.00000000048226
 20
263.0239578353188
 30
0.0
 40
16.28841145833333
 41
0.0
 46
0.0
 71
     1
 72
     1
  1
仕様
  7
ＭＳ ゴシック
 73
     1
 44
0.7828267384257843
  0
LINE
  5
179
330
A
100
AcDbEntity
  8
template
390
1D
100
AcDbLine
 10
2025.0
 20
271.4388797103189
 30
0.0
 11
75.00000000000023
 21
271.4388797103189
 31
0.0
  0
LWPOLYLINE
  5
17A
330
A
100
AcDbEntity
  8
template
390
1D
100
AcDbPolyline
 90
        5
 70
   128
 43
0.0
 10
2025.0
 20
2901.438879710319
 10
75.00000000000023
 20
2901.438879710319
 10
75.00000000000023
 20
101.4388797103188
 10
2025.0
 20
101.4388797103188
 10
2025.0
 20
2901.438879710319
  0
LINE
  5
17B
330
A
100
AcDbEntity
  8
template
390
1D
100
AcDbLine
 10
2025.0
 20
356.4388797103188
 30
0.0
 11
75.00000000000023
 21
356.4388797103188
 31
0.0
  0
LINE
  5
17C
330
A
100
AcDbEntity
  8
template
390
1D
100
AcDbLine
 10
2025.000000000482
 20
186.4388797103189
 30
0.0
 11
1272.000000000482
 21
186.4388797103189
 31
0.0
  0
MTEXT
  5
17E
330
A
100
AcDbEntity
  8
template
390
1D
100
AcDbMText
 10
1301.871406252743
 20
156.5284852370108
 30
0.0
 40
24.4326171875
 41
0.0
 46
0.0
 71
     1
 72
     1
  1
大洋金物株式会社 ティーフォルム事業部
  7
ＭＳ ゴシック
 73
     1
 44
0.7828267384257843
  0
MTEXT
  5
180
330
A
100
AcDbEntity
  8
template
390
1D
100
AcDbMText
 10
1834.000000000742
 20
234.4414968978188
 30
0.0
 40
24.4326171875
 41
0.0
 46
0.0
 71
     1
 72
     1
  1
1:10
  7
ＭＳ ゴシック
 73
     1
 44
0.7828267384257843
  0
MTEXT
  5
181
330
A
100
AcDbEntity
  8
template
390
1D
100
AcDbMText
 10
1781.000000000742
 20
263.0239578353188
 30
0.0
 40
16.28841145833333
 41
0.0
 46
0.0
 71
     1
 72
     1
  1
縮尺
  7
ＭＳ ゴシック
 73
     1
 44
0.7828267384257843
  0
LINE
  5
182
330
A
100
AcDbEntity
  8
template
390
1D
100
AcDbLine
 10
1774.000000000742
 20
186.4388797103189
 30
0.0
 11
1774.000000000742
 21
271.4388797103189
 31
0.0
  0
MTEXT
  5
183
330
A
100
AcDbEntity
  8
template
390
1D
100
AcDbMText
 10
1530.000000000742
 20
263.0239578353188
 30
0.0
 40
16.28841145833333
 41
0.0
 46
0.0
 71
     1
 72
     1
  1
容量
  7
ＭＳ ゴシック
 73
     1
 44
0.7828267384257843
  0
LINE
  5
184
330
A
100
AcDbEntity
  8
template
390
1D
100
AcDbLine
 10
1523.000000000742
 20
186.4388797103189
 30
0.0
 11
1523.000000000742
 21
271.4388797103189
 31
0.0
  0
MTEXT
  5
185
330
A
100
AcDbEntity
  8
template
390
1D
100
AcDbMText
 10
1279.000000000742
 20
348.023957835319
 30
0.0
 40
16.28841145833333
 41
0.0
 46
0.0
 71
     1
 72
     1
  1
品番
  7
ＭＳ ゴシック
 73
     1
 44
0.7828267384257843
  0
MTEXT
  5
186
330
A
100
AcDbEntity
  8
template
390
1D
100
AcDbMText
 10
1279.000000000742
 20
263.0239578353188
 30
0.0
 40
16.28841145833333
 41
0.0
 46
0.0
 71
     1
 72
     1
  1
重量
  7
ＭＳ ゴシック
 73
     1
 44
0.7828267384257843
  0
MTEXT
  5
187
330
A
100
AcDbEntity
  8
template
390
1D
100
AcDbMText
 10
1332.000000000742
 20
319.4414968978188
 30
0.0
 40
24.4326171875
 41
0.0
 46
24.4326171875
 71
     1
 72
     1
  1
{FLN70-6901}
  7
ＭＳ ゴシック
 73
     1
 44
0.7828267384257843
1001
ACAD
1000
ACAD_MTEXT_DEFINED_HEIGHT_BEGIN
1070
    46
1040
24.4326171875
1000
ACAD_MTEXT_DEFINED_HEIGHT_END
  0
LINE
  5
188
330
A
100
AcDbEntity
  8
template
390
1D
100
AcDbLine
 10
1272.000000000742
 20
101.4388797103188
 30
0.0
 11
1272.000000000742
 21
356.4388797103188
 31
0.0
  0
MTEXT
  5
189
330
A
100
AcDbEntity
  8
template
390
1D
100
AcDbMText
 10
135.0000000004822
 20
319.4414968978188
 30
0.0
 40
24.4326171875
 41
0.0
 46
27.5355595703125
 71
     1
 72
     1
  1
{洗面器 -KALDEWEI, Silenio-}
  7
ＭＳ ゴシック
 73
     1
 44
0.7828267384257843
1001
ACAD
1000
ACAD_MTEXT_DEFINED_HEIGHT_BEGIN
1070
    46
1040
27.5355595703125
1000
ACAD_MTEXT_DEFINED_HEIGHT_END
  0
MTEXT
  5
18A
330
A
100
AcDbEntity
  8
template
390
1D
100
AcDbMText
 10
135.0000000004822
 20
234.4414968978188
 30
0.0
 40
24.4326171875
 41
0.0
 46
111.236517578125
 71
     1
 72
     1
  1
{カウンター置き/オーバーフロー付/型紙、オーバーフロー部品、\P水栓取付用スペーサー付属/\Pホーロー、背面ホーロー仕上げ/ホワイト}
  7
ＭＳ ゴシック
 73
     1
 44
0.9822934569727008
1001
ACAD
1000
ACAD_MTEXT_DEFINED_HEIGHT_BEGIN
1070
    46
1040
111.236517578125
1000
ACAD_MTEXT_DEFINED_HEIGHT_END
  0
MTEXT
  5
1A6
330
A
100
AcDbEntity
  8
template
390
1D
100
AcDbMText
 10
1332.000000000742
 20
234.4414968978188
 30
0.0
 40
24.4326171875
 41
0.0
 46
28.390701171875
 71
     1
 72
     1
  1
{12.7kg}
  7
ＭＳ ゴシック
 73
     1
 44
0.7828267384257843
1001
ACAD
1000
ACAD_MTEXT_DEFINED_HEIGHT_BEGIN
1070
    46
1040
28.390701171875
1000
ACAD_MTEXT_DEFINED_HEIGHT_END
  0
MTEXT
  5
374
330
A
100
AcDbEntity
  8
template
390
1D
100
AcDbMText
 10
1581.992122669024
 20
234.4414968978188
 30
0.0
 40
24.4326171875
 41
0.0
 46
24.4326171875
 71
     1
 72
     1
  1
{4L}
  7
ＭＳ ゴシック
 73
     1
 44
0.7828267384257843
1001
ACAD
1000
ACAD_MTEXT_DEFINED_HEIGHT_BEGIN
1070
    46
1040
24.4326171875
1000
ACAD_MTEXT_DEFINED_HEIGHT_END
  0
INSERT
  5
3D0
330
A
100
AcDbEntity
  8
template
100
AcDbBlockReference
  2
名称未設定-1
 10
1873.559250554905
 20
30.23897196054438
 30
0.0
 41
0.7619999999999999
 42
0.7619999999999999
 43
0.7619999999999999
  0
MTEXT
  5
BDB
102
{ACAD_XDICTIONARY
360
BDC
102
}
330
A
100
AcDbEntity
  8
template
  6
Continuous
100
AcDbMText
 10
78.95663872901252
 20
86.10730750352229
 30
0.0
 40
23.0
 41
0.0
 46
23.0
 71
     1
 72
     1
  1
{20180111N}
  7
ＭＳ ゴシック
 73
     1
 44
1.0
1001
ACAD
1000
ACAD_MTEXT_DEFINED_HEIGHT_BEGIN
1070
    46
1040
23.0
1000
ACAD_MTEXT_DEFINED_HEIGHT_END
  0
LWPOLYLINE
  5
BEE
330
A
100
AcDbEntity
  8
PRINT BORDER
100
AcDbPolyline
 90
        4
 70
     1
 43
0.0
 10
0.0
 20
0.0
 10
0.0
 20
2970.0
 10
2100.0
 20
2970.0
 10
2100.0
 20
0.0
  0
INSERT
  5
1273
330
A
100
AcDbEntity
  8
0
 62
     7
100
AcDbBlockReference
  2
BLOCK_2
 10
591.2037060744204
 20
943.564364962162
 30
0.0
  0
INSERT
  5
127B
330
A
100
AcDbEntity
  8
0
 62
     7
100
AcDbBlockReference
  2
BLOCK_2
 10
1291.863324028138
 20
1038.76992320659
 30
0.0
  0
INSERT
  5
127C
330
A
100
AcDbEntity
  8
0
 62
     7
100
AcDbBlockReference
  2
BLOCK_2
 10
652.1648429406905
 20
1595.641631888467
 30
0.0
  0
CIRCLE
  5
142C
330
A
100
AcDbEntity
  8
Dim
  6
Continuous
100
AcDbCircle
 10
1366.841726484681
 20
1758.85027442579
 30
0.0
 40
0.0
  0
MTEXT
  5
1F39
330
A
100
AcDbEntity
  8
レイヤー 1
 62
     7
420
 16777215
100
AcDbMText
 10
873.416178256262
 20
1552.386200051229
 30
0.0
 40
5.100000000000001
 41
0.0
 46
0.0
 71
     7
 72
     1
  1
\fFranklinGothicLTCom BkCn|b0|i0|c0|p34;\W1; 
 73
     1
 44
1.0
  0
SPLINE
  5
2164
330
A
100
AcDbEntity
  8
MODEL
100
AcDbSpline
210
0.0
220
0.0
230
1.0
 70
     8
 71
     3
 72
     8
 73
     4
 74
     0
 42
0.000000001
 43
0.0000000001
 40
0.0
 40
0.0
 40
0.0
 40
0.0
 40
1.0
 40
1.0
 40
1.0
 40
1.0
 10
950.1951906190075
 20
2183.552654287983
 30
0.0
 10
950.1951906190075
 20
2185.213528955113
 30
0.0
 10
948.8526502630765
 20
2186.552609155488
 30
0.0
 10
947.1986959070591
 20
2186.552609155488
 30
0.0
  0
SPLINE
  5
2165
330
A
100
AcDbEntity
  8
MODEL
100
AcDbSpline
210
0.0
220
0.0
230
1.0
 70
     8
 71
     3
 72
     8
 73
     4
 74
     0
 42
0.000000001
 43
0.0000000001
 40
0.0
 40
0.0
 40
0.0
 40
0.0
 40
1.0
 40
1.0
 40
1.0
 40
1.0
 10
947.1986959070591
 20
1726.552609160389
 30
0.0
 10
948.8526502630765
 20
1726.552609160389
 30
0.0
 10
950.1951906190075
 20
1727.898609671876
 30
0.0
 10
950.1951906190075
 20
1729.549103872337
 30
0.0
  0
SPLINE
  5
2166
330
A
100
AcDbEntity
  8
MODEL
100
AcDbSpline
210
0.0
220
0.0
230
1.0
 70
     8
 71
     3
 72
     8
 73
     4
 74
     0
 42
0.000000001
 43
0.0000000001
 40
0.0
 40
0.0
 40
0.0
 40
0.0
 40
1.0
 40
1.0
 40
1.0
 40
1.0
 10
350.1972968070452
 20
1729.552564027895
 30
0.0
 10
350.1972968070452
 20
1727.891689360764
 30
0.0
 10
351.5398371629752
 20
1726.552609160389
 30
0.0
 10
353.1937915189927
 20
1726.552609160389
 30
0.0
  0
SPLINE
  5
2167
330
A
100
AcDbEntity
  8
MODEL
100
AcDbSpline
210
0.0
220
0.0
230
1.0
 70
     8
 71
     3
 72
     8
 73
     4
 74
     0
 42
0.000000001
 43
0.0000000001
 40
0.0
 40
0.0
 40
0.0
 40
0.0
 40
1.0
 40
1.0
 40
1.0
 40
1.0
 10
353.1937915189927
 20
2186.556069311043
 30
0.0
 10
351.5398371629752
 20
2186.556069311043
 30
0.0
 10
350.1972968070452
 20
2185.206608644
 30
0.0
 10
350.1972968070452
 20
2183.55611444354
 30
0.0
  0
LINE
  5
2168
330
A
100
AcDbEntity
  8
MODEL
100
AcDbLine
 10
950.1951906190075
 20
1729.552564027895
 30
0.0
 11
950.1951906190075
 21
2183.55611444354
 31
0.0
  0
LINE
  5
2169
102
{ACAD_REACTORS
330
2607
102
}
330
A
100
AcDbEntity
  8
MODEL
100
AcDbLine
 10
350.1972968070452
 20
2183.552654287983
 30
0.0
 11
350.1972968070452
 21
1729.549103872337
 31
0.0
  0
LINE
  5
216A
330
A
100
AcDbEntity
  8
MODEL
100
AcDbLine
 10
650.1997038685822
 20
2065.706676343969
 30
0.0
 11
652.3103987580603
 21
2065.620172455057
 31
0.0
  0
LINE
  5
216B
330
A
100
AcDbEntity
  8
MODEL
100
AcDbLine
 10
656.0266058257648
 20
2065.132290521587
 30
0.0
 11
657.7013211151213
 21
2064.76205387704
 31
0.0
  0
LINE
  5
216C
330
A
100
AcDbEntity
  8
MODEL
100
AcDbLine
 10
657.7013211151213
 20
2064.76205387704
 30
0.0
 11
659.874298804617
 21
2064.052721987952
 31
0.0
  0
LINE
  5
216D
330
A
100
AcDbEntity
  8
MODEL
100
AcDbLine
 10
659.874298804617
 20
2064.052721987952
 30
0.0
 11
661.7635437384779
 21
2063.166922165482
 31
0.0
  0
LINE
  5
216E
330
A
100
AcDbEntity
  8
MODEL
100
AcDbLine
 10
661.7635437384779
 20
2063.166922165482
 30
0.0
 11
663.3344543611387
 21
2062.12541534297
 31
0.0
  0
LINE
  5
216F
330
A
100
AcDbEntity
  8
MODEL
100
AcDbLine
 10
663.3344543611387
 20
2062.12541534297
 30
0.0
 11
664.5316681836955
 21
2060.948962453752
 31
0.0
  0
LINE
  5
2170
330
A
100
AcDbEntity
  8
MODEL
100
AcDbLine
 10
664.5316681836955
 20
2060.948962453752
 30
0.0
 11
665.313663339469
 21
2059.675625208953
 31
0.0
  0
LINE
  5
2171
330
A
100
AcDbEntity
  8
MODEL
100
AcDbLine
 10
665.313663339469
 20
2059.675625208953
 30
0.0
 11
665.6735195173476
 21
2058.336545008578
 31
0.0
  0
LINE
  5
2172
330
A
100
AcDbEntity
  8
MODEL
100
AcDbLine
 10
665.6735195173476
 20
2058.336545008578
 30
0.0
 11
665.5904757839909
 21
2056.959403097083
 31
0.0
  0
LINE
  5
2173
330
A
100
AcDbEntity
  8
MODEL
100
AcDbLine
 10
665.5904757839909
 20
2056.959403097083
 30
0.0
 11
665.0714524505128
 21
2055.59956196337
 31
0.0
  0
LINE
  5
2174
330
A
100
AcDbEntity
  8
MODEL
100
AcDbLine
 10
665.0714524505128
 20
2055.59956196337
 30
0.0
 11
664.1372104502514
 21
2054.288163007448
 31
0.0
  0
LINE
  5
2175
330
A
100
AcDbEntity
  8
MODEL
100
AcDbLine
 10
664.1372104502514
 20
2054.288163007448
 30
0.0
 11
662.8015904054341
 21
2053.070188251553
 31
0.0
  0
LINE
  5
2176
330
A
100
AcDbEntity
  8
MODEL
100
AcDbLine
 10
662.8015904054341
 20
2053.070188251553
 30
0.0
 11
661.1130344938521
 21
2051.969858784579
 31
0.0
  0
LINE
  5
2177
330
A
100
AcDbEntity
  8
MODEL
100
AcDbLine
 10
661.1130344938521
 20
2051.969858784579
 30
0.0
 11
659.1061442710688
 21
2051.04253709543
 31
0.0
  0
LINE
  5
2178
330
A
100
AcDbEntity
  8
MODEL
100
AcDbLine
 10
659.1061442710688
 20
2051.04253709543
 30
0.0
 11
656.8570431593303
 21
2050.305523961893
 31
0.0
  0
LINE
  5
2179
330
A
100
AcDbEntity
  8
MODEL
100
AcDbLine
 10
656.8570431593303
 20
2050.305523961893
 30
0.0
 11
654.4072530253129
 21
2049.796881095082
 31
0.0
  0
LINE
  5
217A
330
A
100
AcDbEntity
  8
MODEL
100
AcDbLine
 10
654.4072530253129
 20
2049.796881095082
 30
0.0
 11
654.1719624474694
 21
2049.769199850632
 31
0.0
  0
LINE
  5
217B
330
A
100
AcDbEntity
  8
MODEL
100
AcDbLine
 10
652.3103987580603
 20
2049.565050672797
 30
0.0
 11
651.8398176023742
 21
2049.516608495004
 31
0.0
  0
LINE
  5
217C
330
A
100
AcDbEntity
  8
MODEL
100
AcDbLine
 10
651.8398176023742
 20
2049.516608495004
 30
0.0
 11
650.1997038685822
 21
2049.464706161657
 31
0.0
  0
LINE
  5
217D
330
A
100
AcDbEntity
  8
MODEL
100
AcDbLine
 10
650.1997038685822
 20
2065.706676343969
 30
0.0
 11
648.0820886679915
 21
2065.620172455057
 31
0.0
  0
LINE
  5
217E
330
A
100
AcDbEntity
  8
MODEL
100
AcDbLine
 10
644.365881600287
 20
2065.132290521587
 30
0.0
 11
642.6911663109304
 21
2064.76205387704
 31
0.0
  0
LINE
  5
217F
330
A
100
AcDbEntity
  8
MODEL
100
AcDbLine
 10
642.6911663109304
 20
2064.76205387704
 30
0.0
 11
640.5181886214348
 21
2064.052721987952
 31
0.0
  0
LINE
  5
2180
330
A
100
AcDbEntity
  8
MODEL
100
AcDbLine
 10
640.5181886214348
 20
2064.052721987952
 30
0.0
 11
638.6289436875738
 21
2063.166922165482
 31
0.0
  0
LINE
  5
2181
330
A
100
AcDbEntity
  8
MODEL
100
AcDbLine
 10
638.6289436875738
 20
2063.166922165482
 30
0.0
 11
637.058033064913
 21
2062.12541534297
 31
0.0
  0
LINE
  5
2182
330
A
100
AcDbEntity
  8
MODEL
100
AcDbLine
 10
637.058033064913
 20
2062.12541534297
 30
0.0
 11
635.86773955347
 21
2060.948962453752
 31
0.0
  0
LINE
  5
2183
330
A
100
AcDbEntity
  8
MODEL
100
AcDbLine
 10
635.86773955347
 20
2060.948962453752
 30
0.0
 11
635.0788240865827
 21
2059.675625208953
 31
0.0
  0
LINE
  5
2184
330
A
100
AcDbEntity
  8
MODEL
100
AcDbLine
 10
635.0788240865827
 20
2059.675625208953
 30
0.0
 11
634.7189679087052
 21
2058.336545008578
 31
0.0
  0
LINE
  5
2185
330
A
100
AcDbEntity
  8
MODEL
100
AcDbLine
 10
634.7189679087052
 20
2058.336545008578
 30
0.0
 11
634.8020116420608
 21
2056.959403097083
 31
0.0
  0
LINE
  5
2186
330
A
100
AcDbEntity
  8
MODEL
100
AcDbLine
 10
634.8020116420608
 20
2056.959403097083
 30
0.0
 11
635.3210349755399
 21
2055.59956196337
 31
0.0
  0
LINE
  5
2187
330
A
100
AcDbEntity
  8
MODEL
100
AcDbLine
 10
635.3210349755399
 20
2055.59956196337
 30
0.0
 11
636.2552769758004
 21
2054.288163007448
 31
0.0
  0
LINE
  5
2188
330
A
100
AcDbEntity
  8
MODEL
100
AcDbLine
 10
636.2552769758004
 20
2054.288163007448
 30
0.0
 11
637.5908970206176
 21
2053.070188251553
 31
0.0
  0
LINE
  5
2189
330
A
100
AcDbEntity
  8
MODEL
100
AcDbLine
 10
637.5908970206176
 20
2053.070188251553
 30
0.0
 11
639.2794529322006
 21
2051.969858784579
 31
0.0
  0
LINE
  5
218A
330
A
100
AcDbEntity
  8
MODEL
100
AcDbLine
 10
639.2794529322006
 20
2051.969858784579
 30
0.0
 11
641.2863431549829
 21
2051.04253709543
 31
0.0
  0
LINE
  5
218B
330
A
100
AcDbEntity
  8
MODEL
100
AcDbLine
 10
641.2863431549829
 20
2051.04253709543
 30
0.0
 11
643.5423645778351
 21
2050.305523961893
 31
0.0
  0
LINE
  5
218C
330
A
100
AcDbEntity
  8
MODEL
100
AcDbLine
 10
643.5423645778351
 20
2050.305523961893
 30
0.0
 11
645.9852344007388
 21
2049.796881095082
 31
0.0
  0
LINE
  5
218D
330
A
100
AcDbEntity
  8
MODEL
100
AcDbLine
 10
645.9852344007388
 20
2049.796881095082
 30
0.0
 11
646.2205249785824
 21
2049.769199850632
 31
0.0
  0
LINE
  5
218E
330
A
100
AcDbEntity
  8
MODEL
100
AcDbLine
 10
648.0820886679915
 20
2049.565050672797
 30
0.0
 11
648.5526698236785
 21
2049.516608495004
 31
0.0
  0
LINE
  5
218F
330
A
100
AcDbEntity
  8
MODEL
100
AcDbLine
 10
648.5526698236785
 20
2049.516608495004
 30
0.0
 11
650.1927835574695
 21
2049.464706161657
 31
0.0
  0
LINE
  5
2190
330
A
100
AcDbEntity
  8
MODEL
100
AcDbLine
 10
947.1986959070591
 20
2186.552609155488
 30
0.0
 11
353.1937915189927
 21
2186.552609155488
 31
0.0
  0
LINE
  5
2191
330
A
100
AcDbEntity
  8
MODEL
100
AcDbLine
 10
353.1937915189927
 20
1726.552609160389
 30
0.0
 11
947.1986959070591
 21
1726.552609160389
 31
0.0
  0
SPLINE
  5
2192
330
A
100
AcDbEntity
  8
MODEL
100
AcDbSpline
210
0.0
220
0.0
230
1.0
 70
    11
 71
     3
 72
    17
 73
    13
 74
     0
 42
0.000000001
 43
0.0000000001
 40
0.0
 40
0.0
 40
0.0
 40
0.0
 40
1.0
 40
1.0
 40
1.0
 40
2.0
 40
2.0
 40
2.0
 40
3.0
 40
3.0
 40
3.0
 40
4.0
 40
4.0
 40
4.0
 40
4.0
 10
632.6982370636964
 20
2127.051774205542
 30
0.0
 10
632.6982370636964
 20
2136.719448830462
 30
0.0
 10
640.5320292436612
 20
2144.549780854872
 30
0.0
 10
650.1997038685822
 20
2144.549780854872
 30
0.0
 10
659.8604581823905
 20
2144.549780854872
 30
0.0
 10
667.6942503623562
 20
2136.719448830462
 30
0.0
 10
667.6942503623562
 20
2127.051774205542
 30
0.0
 10
667.6942503623562
 20
2117.387559736178
 30
0.0
 10
659.8604581823905
 20
2109.550307400655
 30
0.0
 10
650.1997038685822
 20
2109.550307400655
 30
0.0
 10
640.5320292436612
 20
2109.550307400655
 30
0.0
 10
632.6982370636964
 20
2117.387559736178
 30
0.0
 10
632.6982370636964
 20
2127.051774205542
 30
0.0
  0
SPLINE
  5
2195
330
A
100
AcDbEntity
  8
MODEL
100
AcDbSpline
210
0.0
220
0.0
230
1.0
 70
     8
 71
     3
 72
    11
 73
     7
 74
     0
 42
0.000000001
 43
0.0000000001
 40
0.0
 40
0.0
 40
0.0
 40
0.0
 40
1.0
 40
1.0
 40
1.0
 40
2.0
 40
2.0
 40
2.0
 40
2.0
 10
630.0131563518355
 20
1902.100141164958
 30
0.0
 10
636.0961098202007
 20
1890.951519961846
 30
0.0
 10
650.0751382685473
 20
1886.851235627367
 30
0.0
 10
661.2237594716606
 20
1892.944569562402
 30
0.0
 10
672.3654603636603
 20
1899.030983186323
 30
0.0
 10
676.4692048536942
 20
1913.006551479113
 30
0.0
 10
670.38625138533
 20
1924.15171252667
 30
0.0
  0
SPLINE
  5
2196
330
A
100
AcDbEntity
  8
MODEL
100
AcDbSpline
210
0.0
220
0.0
230
1.0
 70
     8
 71
     3
 72
    11
 73
     7
 74
     0
 42
0.000000001
 43
0.0000000001
 40
0.0
 40
0.0
 40
0.0
 40
0.0
 40
1.0
 40
1.0
 40
1.0
 40
2.0
 40
2.0
 40
2.0
 40
2.0
 10
670.3793310742162
 20
1924.15171252667
 30
0.0
 10
664.296377605852
 20
1935.300333729783
 30
0.0
 10
650.3173491575045
 20
1939.404078219816
 30
0.0
 10
639.1756482655048
 20
1933.307284129227
 30
0.0
 10
628.0270270623915
 20
1927.220870505305
 30
0.0
 10
623.9232825723576
 20
1913.24876236807
 30
0.0
 10
630.0131563518355
 20
1902.100141164958
 30
0.0
  0
LINE
  5
219F
330
A
100
AcDbEntity
  8
MODEL
100
AcDbLine
 10
353.1937915189926
 20
2070.554354278655
 30
0.0
 11
947.1917755959463
 21
2070.554354278655
 31
0.0
  0
LINE
  5
21A9
330
A
100
AcDbEntity
  8
MODEL
100
AcDbLine
 10
353.1937915189927
 20
2082.052451192977
 30
0.0
 11
947.1986959070591
 21
2082.052451192977
 31
0.0
  0
LINE
  5
21AA
330
A
100
AcDbEntity
  8
MODEL
100
AcDbLine
 10
947.1986959070591
 20
2183.552654287983
 30
0.0
 11
947.1986959070591
 21
1729.552564027895
 31
0.0
  0
LINE
  5
21AF
330
A
100
AcDbEntity
  8
MODEL
100
AcDbLine
 10
353.1937915189927
 20
1729.552564027895
 30
0.0
 11
353.1937915189927
 21
2183.552654287983
 31
0.0
  0
SPLINE
  5
21B0
330
A
100
AcDbEntity
  8
MODEL
100
AcDbSpline
210
0.0
220
0.0
230
1.0
 70
     8
 71
     3
 72
    11
 73
     7
 74
     0
 42
0.000000001
 43
0.0000000001
 40
0.0
 40
0.0
 40
0.0
 40
0.0
 40
1.0
 40
1.0
 40
1.0
 40
2.0
 40
2.0
 40
2.0
 40
2.0
 10
650.1997038685822
 20
1877.183561002445
 30
0.0
 10
670.0748373852425
 20
1877.114357891316
 30
0.0
 10
686.2545247675374
 20
1893.172939829131
 30
0.0
 10
686.3237278786686
 20
1913.054993656906
 30
0.0
 10
686.3237278786686
 20
1913.054993656906
 30
0.0
 10
686.3237278786686
 20
1913.127656923593
 30
0.0
 10
686.3237278786686
 20
1913.127656923593
 30
0.0
  0
LINE
  5
21B1
330
A
100
AcDbEntity
  8
MODEL
100
AcDbLine
 10
947.1986959070591
 20
1729.552564027895
 30
0.0
 11
650.1997038685822
 21
1729.552564027895
 31
0.0
  0
SPLINE
  5
21B2
330
A
100
AcDbEntity
  8
MODEL
100
AcDbSpline
210
0.0
220
0.0
230
1.0
 70
     8
 71
     3
 72
     8
 73
     4
 74
     0
 42
0.000000001
 43
0.0000000001
 40
0.0
 40
0.0
 40
0.0
 40
0.0
 40
1.0
 40
1.0
 40
1.0
 40
1.0
 10
686.3237278786686
 20
1913.127656923593
 30
0.0
 10
686.3237278786686
 20
1919.162168214166
 30
0.0
 10
684.8081797449116
 20
1925.110175615827
 30
0.0
 10
681.9085693885463
 20
1930.411133928418
 30
0.0
  0
SPLINE
  5
21B3
330
A
100
AcDbEntity
  8
MODEL
100
AcDbSpline
210
0.0
220
0.0
230
1.0
 70
     8
 71
     3
 72
     8
 73
     4
 74
     0
 42
0.000000001
 43
0.0000000001
 40
0.0
 40
0.0
 40
0.0
 40
0.0
 40
1.0
 40
1.0
 40
1.0
 40
1.0
 10
681.9085693885463
 20
1930.411133928418
 30
0.0
 10
675.5834050312249
 20
1942.009575353879
 30
0.0
 10
663.4105777833817
 20
1949.223999689226
 30
0.0
 10
650.1997038685822
 20
1949.210159066999
 30
0.0
  0
LINE
  5
21B4
330
A
100
AcDbEntity
  8
MODEL
100
AcDbLine
 10
353.1937915189927
 20
1729.552564027895
 30
0.0
 11
650.1927835574695
 21
1729.552564027895
 31
0.0
  0
SPLINE
  5
21B5
330
A
100
AcDbEntity
  8
MODEL
100
AcDbSpline
210
0.0
220
0.0
230
1.0
 70
     8
 71
     3
 72
     8
 73
     4
 74
     0
 42
0.000000001
 43
0.0000000001
 40
0.0
 40
0.0
 40
0.0
 40
0.0
 40
1.0
 40
1.0
 40
1.0
 40
1.0
 10
614.068759547384
 20
1913.127656923593
 30
0.0
 10
614.068759547384
 20
1907.075844855237
 30
0.0
 10
615.6050686144793
 20
1901.127837453575
 30
0.0
 10
618.5254399041838
 20
1895.826879140985
 30
0.0
  0
SPLINE
  5
21B6
330
A
100
AcDbEntity
  8
MODEL
100
AcDbSpline
210
0.0
220
0.0
230
1.0
 70
     8
 71
     3
 72
     8
 73
     4
 74
     0
 42
0.000000001
 43
0.0000000001
 40
0.0
 40
0.0
 40
0.0
 40
0.0
 40
1.0
 40
1.0
 40
1.0
 40
1.0
 10
618.5254399041838
 20
1895.83033929654
 30
0.0
 10
624.88520581707
 20
1884.30110098221
 30
0.0
 10
637.0234315093484
 20
1877.155879757994
 30
0.0
 10
650.1997038685822
 20
1877.183561002445
 30
0.0
  0
SPLINE
  5
21B7
330
A
100
AcDbEntity
  8
MODEL
100
AcDbSpline
210
0.0
220
0.0
230
1.0
 70
     8
 71
     3
 72
    11
 73
     7
 74
     0
 42
0.000000001
 43
0.0000000001
 40
0.0
 40
0.0
 40
0.0
 40
0.0
 40
1.0
 40
1.0
 40
1.0
 40
2.0
 40
2.0
 40
2.0
 40
2.0
 10
650.1997038685822
 20
1949.213619222556
 30
0.0
 10
630.2622875519046
 20
1949.227459844782
 30
0.0
 10
614.0895204807233
 20
1933.08583417361
 30
0.0
 10
614.068759547384
 20
1913.151878012488
 30
0.0
 10
614.068759547384
 20
1913.151878012488
 30
0.0
 10
614.068759547384
 20
1913.127656923593
 30
0.0
 10
614.068759547384
 20
1913.127656923593
 30
0.0
  0
LINE
  5
21B8
330
A
100
AcDbEntity
  8
MODEL
100
AcDbLine
 10
947.1986959070591
 20
2183.552654287983
 30
0.0
 11
353.1937915189927
 21
2183.552654287983
 31
0.0
  0
SPLINE
  5
2238
330
A
100
AcDbEntity
  8
MODEL
100
AcDbSpline
210
0.0
220
0.0
230
1.0
 70
     8
 71
     3
 72
     8
 73
     4
 74
     0
 42
0.000000001
 43
0.0000000001
 40
0.0
 40
0.0
 40
0.0
 40
0.0
 40
1.0
 40
1.0
 40
1.0
 40
1.0
 10
1803.054363477641
 20
939.8412474764931
 30
0.0
 10
1803.047443166528
 20
938.204593898258
 30
0.0
 10
1801.739504366163
 20
936.8724340089981
 30
0.0
 10
1800.099390632371
 20
936.8274519867621
 30
0.0
  0
SPLINE
  5
2239
330
A
100
AcDbEntity
  8
MODEL
100
AcDbSpline
210
0.0
220
0.0
230
1.0
 70
     8
 71
     3
 72
     8
 73
     4
 74
     0
 42
0.000000001
 43
0.0000000001
 40
0.0
 40
0.0
 40
0.0
 40
0.0
 40
1.0
 40
1.0
 40
1.0
 40
1.0
 10
1344.113171082839
 20
936.8274519867621
 30
0.0
 10
1342.479977660161
 20
936.868973853441
 30
0.0
 10
1341.165118548683
 20
938.201133742702
 30
0.0
 10
1341.15819823757
 20
939.8377873209361
 30
0.0
  0
SPLINE
  5
223A
330
A
100
AcDbEntity
  8
MODEL
100
AcDbSpline
210
0.0
220
0.0
230
1.0
 70
     8
 71
     3
 72
     8
 73
     4
 74
     0
 42
0.000000001
 43
0.0000000001
 40
0.0
 40
0.0
 40
0.0
 40
0.0
 40
1.0
 40
1.0
 40
1.0
 40
1.0
 10
1341.15819823757
 20
1053.813656497033
 30
0.0
 10
1341.165118548683
 20
1055.450310075267
 30
0.0
 10
1342.473057349048
 20
1056.782469964529
 30
0.0
 10
1344.113171082839
 20
1056.823991831207
 30
0.0
  0
SPLINE
  5
223B
330
A
100
AcDbEntity
  8
MODEL
100
AcDbSpline
210
0.0
220
0.0
230
1.0
 70
     8
 71
     3
 72
     8
 73
     4
 74
     0
 42
0.000000001
 43
0.0000000001
 40
0.0
 40
0.0
 40
0.0
 40
0.0
 40
1.0
 40
1.0
 40
1.0
 40
1.0
 10
1800.099390632371
 20
1056.827451986762
 30
0.0
 10
1801.732584055049
 20
1056.782469964529
 30
0.0
 10
1803.047443166528
 20
1055.450310075267
 30
0.0
 10
1803.054363477641
 20
1053.813656497033
 30
0.0
  0
LINE
  5
223C
330
A
100
AcDbEntity
  8
MODEL
100
AcDbLine
 10
1692.267102868931
 20
1056.827451986762
 30
0.0
 11
1695.318960069784
 21
1056.848212920102
 31
0.0
  0
LINE
  5
223D
330
A
100
AcDbEntity
  8
MODEL
100
AcDbLine
 10
1695.318960069784
 20
1056.848212920102
 30
0.0
 11
1698.156287626131
 21
1056.827451986762
 31
0.0
  0
LINE
  5
223F
330
A
100
AcDbEntity
  8
MODEL
100
AcDbLine
 10
1500.366875704242
 20
935.7462285974029
 30
0.0
 11
1494.913670547165
 21
943.0229357327667
 31
0.0
  0
SPLINE
  5
2240
330
A
100
AcDbEntity
  8
MODEL
100
AcDbSpline
210
0.0
220
0.0
230
1.0
 70
     8
 71
     3
 72
     8
 73
     4
 74
     0
 42
0.000000001
 43
0.0000000001
 40
0.0
 40
0.0
 40
0.0
 40
0.0
 40
1.0
 40
1.0
 40
1.0
 40
1.0
 10
1556.615164431058
 20
935.7462285974029
 30
0.0
 10
1555.67186174099
 20
934.5508948374978
 30
0.0
 10
1554.082330563684
 20
933.7185774412796
 30
0.0
 10
1552.462977763232
 20
933.7393383746196
 30
0.0
  0
SPLINE
  5
2241
330
A
100
AcDbEntity
  8
MODEL
100
AcDbSpline
210
0.0
220
0.0
230
1.0
 70
     8
 71
     3
 72
     8
 73
     4
 74
     0
 42
0.000000001
 43
0.0000000001
 40
0.0
 40
0.0
 40
0.0
 40
0.0
 40
1.0
 40
1.0
 40
1.0
 40
1.0
 10
1504.38757646092
 20
933.7358782190624
 30
0.0
 10
1502.858128499093
 20
933.7847592141554
 30
0.0
 10
1501.363400504521
 20
934.4590507303767
 30
0.0
 10
1500.366875704242
 20
935.7393082862884
 30
0.0
  0
LINE
  5
2242
330
A
100
AcDbEntity
  8
MODEL
100
AcDbLine
 10
1803.109725966545
 20
939.8412474764931
 30
0.0
 11
1803.054363477641
 21
1053.813656497033
 31
0.0
  0
LINE
  5
2243
330
A
100
AcDbEntity
  8
MODEL
100
AcDbLine
 10
1686.606288378462
 20
1056.827451986762
 30
0.0
 11
1528.49102006765
 21
1056.827451986762
 31
0.0
  0
LINE
  5
2244
102
{ACAD_REACTORS
330
2597
102
}
330
A
100
AcDbEntity
  8
MODEL
100
AcDbLine
 10
1528.49102006765
 20
1056.827451986762
 30
0.0
 11
1344.113171082839
 21
1056.827451986762
 31
0.0
  0
LINE
  5
2245
330
A
100
AcDbEntity
  8
MODEL
100
AcDbLine
 10
1698.156287626131
 20
1056.827451986762
 30
0.0
 11
1800.099390632371
 21
1056.827451986762
 31
0.0
  0
LINE
  5
2246
330
A
100
AcDbEntity
  8
MODEL
100
AcDbLine
 10
1686.606288378462
 20
1056.827451986762
 30
0.0
 11
1698.156287626131
 21
1056.827451986762
 31
0.0
  0
LINE
  5
2247
330
A
100
AcDbEntity
  8
MODEL
100
AcDbLine
 10
1800.099390632371
 20
936.8274519867621
 30
0.0
 11
1344.120091393953
 21
936.8274519867621
 31
0.0
  0
LINE
  5
2248
330
A
100
AcDbEntity
  8
MODEL
100
AcDbLine
 10
1341.15819823757
 20
1053.813656497033
 30
0.0
 11
1341.102835748665
 21
939.8377873209361
 31
0.0
  0
LINE
  5
2263
330
A
100
AcDbEntity
  8
MODEL
100
AcDbLine
 10
1552.456057452119
 20
933.7358782190624
 30
0.0
 11
1516.934100508868
 21
933.7358782190624
 31
0.0
  0
LINE
  5
2264
330
A
100
AcDbEntity
  8
MODEL
100
AcDbLine
 10
1516.934100508868
 20
933.7358782190624
 30
0.0
 11
1504.484460816504
 21
933.7358782190624
 31
0.0
  0
LINE
  5
2266
330
A
100
AcDbEntity
  8
MODEL
100
AcDbLine
 10
1344.113171082839
 20
939.841247476493
 30
0.0
 11
1344.113171082839
 21
1053.813656497033
 31
0.0
  0
LINE
  5
2268
330
A
100
AcDbEntity
  8
MODEL
100
AcDbLine
 10
1800.099390632371
 20
1053.813656497033
 30
0.0
 11
1800.099390632371
 21
939.841247476493
 31
0.0
  0
LINE
  5
2269
330
A
100
AcDbEntity
  8
MODEL
100
AcDbLine
 10
1800.099390632371
 20
1053.813656497033
 30
0.0
 11
1344.120091393953
 21
1053.813656497033
 31
0.0
  0
LINE
  5
228D
330
A
100
AcDbEntity
  8
MODEL
100
AcDbLine
 10
1556.615164431058
 20
935.7462285974029
 30
0.0
 11
1500.477600682051
 21
935.7462285974029
 31
0.0
  0
LINE
  5
228E
330
A
100
AcDbEntity
  8
MODEL
100
AcDbLine
 10
1552.59446367438
 20
933.7358782190624
 30
0.0
 11
1504.38757646092
 21
933.7358782190624
 31
0.0
  0
LINE
  5
23EA
330
A
100
AcDbEntity
  8
MODEL
100
AcDbLine
 10
350.1972968070452
 20
1056.827451986762
 30
0.0
 11
350.1972968070452
 21
936.8274519867621
 31
0.0
  0
LINE
  5
23EC
330
A
100
AcDbEntity
  8
MODEL
100
AcDbLine
 10
950.1951906190075
 20
1056.827451986762
 30
0.0
 11
350.1972968070452
 21
1056.827451986762
 31
0.0
  0
LINE
  5
23FC
330
A
100
AcDbEntity
  8
HIDDEN
100
AcDbLine
 10
683.9777424113463
 20
943.2859075550621
 30
0.0
 11
678.3238482319903
 21
935.7462285974029
 31
0.0
  0
LINE
  5
23FD
330
A
100
AcDbEntity
  8
HIDDEN
100
AcDbLine
 10
622.0755595051742
 20
935.7462285974029
 30
0.0
 11
616.6223543480974
 21
943.0229357327667
 31
0.0
  0
SPLINE
  5
23FE
330
A
100
AcDbEntity
  8
MODEL
100
AcDbSpline
210
0.0
220
0.0
230
1.0
 70
     8
 71
     3
 72
     8
 73
     4
 74
     0
 42
0.000000001
 43
0.0000000001
 40
0.0
 40
0.0
 40
0.0
 40
0.0
 40
1.0
 40
1.0
 40
1.0
 40
1.0
 10
678.3238482319903
 20
935.7462285974029
 30
0.0
 10
677.3273234317123
 20
934.462510885932
 30
0.0
 10
675.7910143646163
 20
933.7185774412796
 30
0.0
 10
674.1716615641642
 20
933.7393383746196
 30
0.0
  0
SPLINE
  5
23FF
330
A
100
AcDbEntity
  8
MODEL
100
AcDbSpline
210
0.0
220
0.0
230
1.0
 70
     8
 71
     3
 72
     8
 73
     4
 74
     0
 42
0.000000001
 43
0.0000000001
 40
0.0
 40
0.0
 40
0.0
 40
0.0
 40
1.0
 40
1.0
 40
1.0
 40
1.0
 10
626.2346664841143
 20
933.7358782190624
 30
0.0
 10
624.6083933725483
 20
933.7151172857241
 30
0.0
 10
623.0720843054532
 20
934.4590507303767
 30
0.0
 10
622.0755595051742
 20
935.7393082862884
 30
0.0
  0
SPLINE
  5
2400
330
A
100
AcDbEntity
  8
HIDDEN
100
AcDbSpline
210
0.0
220
0.0
230
1.0
 70
     8
 71
     3
 72
     8
 73
     4
 74
     0
 42
0.000000001
 43
0.0000000001
 40
0.0
 40
0.0
 40
0.0
 40
0.0
 40
1.0
 40
1.0
 40
1.0
 40
1.0
 10
683.9639017891202
 20
943.2686067772793
 30
0.0
 10
684.6490125893113
 20
944.1820878442024
 30
0.0
 10
685.6662983229292
 20
944.8049158443755
 30
0.0
 10
686.7943090343551
 20
945.0056048666543
 30
0.0
  0
SPLINE
  5
2401
330
A
100
AcDbEntity
  8
HIDDEN
100
AcDbSpline
210
0.0
220
0.0
230
1.0
 70
     8
 71
     3
 72
     8
 73
     4
 74
     0
 42
0.000000001
 43
0.0000000001
 40
0.0
 40
0.0
 40
0.0
 40
0.0
 40
1.0
 40
1.0
 40
1.0
 40
1.0
 10
613.7781064806363
 20
944.714951799906
 30
0.0
 10
614.9199578142882
 20
944.5246432442973
 30
0.0
 10
615.9580044812442
 20
943.9018152441242
 30
0.0
 10
616.6569559036614
 20
942.9641130883056
 30
0.0
  0
LINE
  5
2402
330
A
100
AcDbEntity
  8
MODEL
100
AcDbLine
 10
674.1647412530513
 20
933.7358782190624
 30
0.0
 11
638.6427843098002
 21
933.7358782190624
 31
0.0
  0
LINE
  5
2403
330
A
100
AcDbEntity
  8
MODEL
100
AcDbLine
 10
638.6427843098002
 20
933.7358782190624
 30
0.0
 11
626.1931446174362
 21
933.7358782190624
 31
0.0
  0
LINE
  5
2409
330
A
100
AcDbEntity
  8
HIDDEN
100
AcDbLine
 10
686.7943090343551
 20
945.0090650222098
 30
0.0
 11
686.6005403231902
 21
945.0090650222098
 31
0.0
  0
LINE
  5
240A
330
A
100
AcDbEntity
  8
HIDDEN
100
AcDbLine
 10
686.6005403231902
 20
945.0090650222098
 30
0.0
 11
686.0261545008073
 21
945.0021447110971
 31
0.0
  0
LINE
  5
240B
330
A
100
AcDbEntity
  8
HIDDEN
100
AcDbLine
 10
686.0261545008073
 20
945.0021447110971
 30
0.0
 11
615.4551665944767
 21
944.9952243999842
 31
0.0
  0
LINE
  5
2416
330
A
100
AcDbEntity
  8
HIDDEN
100
AcDbLine
 10
650.1997038685822
 20
942.9779537105328
 30
0.0
 11
656.5041072925653
 21
942.9779537105328
 31
0.0
  0
LINE
  5
2417
330
A
100
AcDbEntity
  8
HIDDEN
100
AcDbLine
 10
656.5041072925653
 20
942.9779537105328
 30
0.0
 11
662.6009013831563
 21
942.9987146438712
 31
0.0
  0
LINE
  5
2418
330
A
100
AcDbEntity
  8
HIDDEN
100
AcDbLine
 10
662.6009013831563
 20
942.9987146438712
 30
0.0
 11
668.3101580514171
 21
943.0402365105494
 31
0.0
  0
LINE
  5
2419
330
A
100
AcDbEntity
  8
HIDDEN
100
AcDbLine
 10
668.3101580514171
 20
943.0402365105494
 30
0.0
 11
673.4588695195212
 21
943.0955989994534
 31
0.0
  0
LINE
  5
241A
330
A
100
AcDbEntity
  8
HIDDEN
100
AcDbLine
 10
673.4588695195212
 20
943.0955989994534
 30
0.0
 11
677.8117452096242
 21
943.1682622661417
 31
0.0
  0
LINE
  5
241B
330
A
100
AcDbEntity
  8
HIDDEN
100
AcDbLine
 10
677.8117452096242
 20
943.1682622661417
 30
0.0
 11
679.6248667212433
 21
943.2028638217055
 31
0.0
  0
LINE
  5
241C
330
A
100
AcDbEntity
  8
HIDDEN
100
AcDbLine
 10
679.6248667212433
 20
943.2028638217055
 30
0.0
 11
681.1611757883381
 21
943.2305450661584
 31
0.0
  0
LINE
  5
241D
330
A
100
AcDbEntity
  8
HIDDEN
100
AcDbLine
 10
681.1611757883381
 20
943.2305450661584
 30
0.0
 11
682.3791505442343
 21
943.2513059994965
 31
0.0
  0
LINE
  5
241E
330
A
100
AcDbEntity
  8
HIDDEN
100
AcDbLine
 10
682.3791505442343
 20
943.2513059994965
 30
0.0
 11
683.2580300555903
 21
943.258226310611
 31
0.0
  0
LINE
  5
241F
330
A
100
AcDbEntity
  8
HIDDEN
100
AcDbLine
 10
683.2580300555903
 20
943.258226310611
 30
0.0
 11
683.7908940112943
 21
943.2651466217239
 31
0.0
  0
LINE
  5
2420
330
A
100
AcDbEntity
  8
HIDDEN
100
AcDbLine
 10
683.7908940112943
 20
943.2651466217239
 30
0.0
 11
683.9639017891202
 21
943.2651466217239
 31
0.0
  0
LINE
  5
2421
330
A
100
AcDbEntity
  8
HIDDEN
100
AcDbLine
 10
634.1169008418703
 20
942.9710333994183
 30
0.0
 11
637.8469485318003
 21
942.9710333994183
 31
0.0
  0
LINE
  5
2422
330
A
100
AcDbEntity
  8
HIDDEN
100
AcDbLine
 10
637.8469485318003
 20
942.9710333994183
 30
0.0
 11
641.8122867995742
 21
942.9710333994183
 31
0.0
  0
LINE
  5
2423
330
A
100
AcDbEntity
  8
HIDDEN
100
AcDbLine
 10
641.8122867995742
 20
942.9710333994183
 30
0.0
 11
645.9575531562873
 21
942.9710333994183
 31
0.0
  0
LINE
  5
2424
330
A
100
AcDbEntity
  8
HIDDEN
100
AcDbLine
 10
645.9575531562873
 20
942.9710333994183
 30
0.0
 11
650.1997038685822
 21
942.9779537105328
 31
0.0
  0
LINE
  5
2425
330
A
100
AcDbEntity
  8
MODEL
100
AcDbLine
 10
636.7189378203743
 20
935.7462285974029
 30
0.0
 11
678.1854420097293
 21
935.7462285974029
 31
0.0
  0
SPLINE
  5
2426
330
A
100
AcDbEntity
  8
HIDDEN
100
AcDbSpline
210
0.0
220
0.0
230
1.0
 70
     8
 71
     3
 72
     8
 73
     4
 74
     0
 42
0.000000001
 43
0.0000000001
 40
0.0
 40
0.0
 40
0.0
 40
0.0
 40
1.0
 40
1.0
 40
1.0
 40
1.0
 10
616.6569559036614
 20
942.967573243863
 30
0.0
 10
622.4769375497312
 20
943.016015421654
 30
0.0
 10
628.2969191958011
 20
943.016015421654
 30
0.0
 10
634.1169008418703
 20
942.9744935549757
 30
0.0
  0
LINE
  5
2427
330
A
100
AcDbEntity
  8
MODEL
100
AcDbLine
 10
636.7189378203743
 20
935.7462285974029
 30
0.0
 11
622.1862844829832
 21
935.7462285974029
 31
0.0
  0
LINE
  5
2428
330
A
100
AcDbEntity
  8
MODEL
100
AcDbLine
 10
674.3031474753122
 20
933.7358782190624
 30
0.0
 11
626.0962602618522
 21
933.7358782190624
 31
0.0
  0
LINE
  5
2451
330
A
100
AcDbEntity
  8
MODEL
100
AcDbLine
 10
350.1972968070452
 20
936.8274519867621
 30
0.0
 11
950.2021109301193
 21
936.8274519867621
 31
0.0
  0
LINE
  5
2453
330
A
100
AcDbEntity
  8
MODEL
100
AcDbLine
 10
1800.099390632371
 20
939.841247476493
 30
0.0
 11
1344.113171082839
 21
939.841247476493
 31
0.0
  0
LINE
  5
245B
330
A
100
AcDbEntity
  8
MODEL
100
AcDbLine
 10
950.2021109301193
 20
1056.827451986762
 30
0.0
 11
950.2021109301193
 21
936.8274519867621
 31
0.0
  0
LINE
  5
2465
330
A
100
AcDbEntity
  8
MODEL
100
AcDbLine
 10
353.1937915189927
 20
1053.813656497031
 30
0.0
 11
353.1937915189927
 21
939.841247476493
 31
0.0
  0
SPLINE
  5
2466
330
A
100
AcDbEntity
  8
HIDDEN
100
AcDbSpline
210
0.0
220
0.0
230
1.0
 70
     8
 71
     3
 72
    11
 73
     7
 74
     0
 42
0.000000001
 43
0.0000000001
 40
4.114450734154105
 40
4.114450734154105
 40
4.114450734154105
 40
4.114450734154105
 40
61.98116041806438
 40
147.5582757105572
 40
229.0259255092717
 40
290.6987069996301
 40
290.6987069996301
 40
290.6987069996301
 40
290.6987069996301
 10
356.039290130406
 20
1053.813656497032
 30
0.0
 10
369.3849377163936
 20
1039.692186598507
 30
0.0
 10
402.7652177529802
 20
1005.077374657678
 30
0.0
 10
472.5636826156924
 20
973.662738995984
 30
0.0
 10
545.7445445585017
 20
951.9752360087895
 30
0.0
 10
593.2920306972679
 20
946.9011482639719
 30
0.0
 10
613.7781064806363
 20
944.714951799906
 30
0.0
  0
SPLINE
  5
2470
330
A
100
AcDbEntity
  8
HIDDEN
100
AcDbSpline
210
0.0
220
0.0
230
1.0
 70
     8
 71
     3
 72
    11
 73
     7
 74
     0
 42
0.000000001
 43
0.0000000001
 40
4.114450734153331
 40
4.114450734153331
 40
4.114450734153331
 40
4.114450734153331
 40
61.98116041806434
 40
147.5582757105573
 40
229.0259255092717
 40
290.6987069996302
 40
290.6987069996302
 40
290.6987069996302
 40
290.6987069996302
 10
944.3601176067591
 20
1053.813656497032
 30
0.0
 10
931.0144700207711
 20
1039.692186598508
 30
0.0
 10
897.6341899841847
 20
1005.077374657678
 30
0.0
 10
827.8357251214719
 20
973.6627389959839
 30
0.0
 10
754.6548631786629
 20
951.9752360087895
 30
0.0
 10
707.1073770398964
 20
946.9011482639718
 30
0.0
 10
686.6213012565281
 20
944.714951799906
 30
0.0
  0
LINE
  5
247D
330
A
100
AcDbEntity
  8
MODEL
100
AcDbLine
 10
947.2056162181717
 20
1053.813656497031
 30
0.0
 11
947.2056162181717
 21
939.841247476493
 31
0.0
  0
LINE
  5
247E
330
A
100
AcDbEntity
  8
MODEL
100
AcDbLine
 10
947.2056162181717
 20
939.841247476493
 30
0.0
 11
353.1937915189927
 21
939.841247476493
 31
0.0
  0
LINE
  5
2480
330
A
100
AcDbEntity
  8
MODEL
100
AcDbLine
 10
947.2056162181717
 20
1053.813656497031
 30
0.0
 11
353.1937915189927
 21
1053.813656497031
 31
0.0
  0
SPLINE
  5
249B
330
A
100
AcDbEntity
  8
HIDDEN
100
AcDbSpline
210
0.0
220
0.0
230
1.0
 70
  1064
 71
     3
 72
    22
 73
    18
 74
    16
 42
0.000000001
 43
0.0000000001
 44
0.0
 40
0.0
 40
0.0
 40
0.0
 40
0.0
 40
22.55308274100574
 40
52.6783591782165
 40
90.18421992853803
 40
112.0636863171007
 40
137.9749208798925
 40
150.2527547807157
 40
160.0675716978808
 40
167.9676329692498
 40
169.798548051499
 40
172.0488143774508
 40
174.4730576610645
 40
176.6630463813988
 40
178.1922974786499
 40
179.9386993940777
 40
180.8940174380097
 40
180.8940174380097
 40
180.8940174380097
 40
180.8940174380097
 10
1371.558025956507
 20
1053.813656497033
 30
0.0
 10
1374.582962006765
 20
1046.914034440571
 30
0.0
 10
1381.648455871906
 20
1030.798243395145
 30
0.0
 10
1398.914589638139
 20
1006.050996025815
 30
0.0
 10
1417.500127522574
 20
982.5506710977857
 30
0.0
 10
1439.354895534503
 20
964.1680603023804
 30
0.0
 10
1457.010475762653
 20
954.2988618437809
 30
0.0
 10
1472.216818100934
 20
949.2326794390466
 30
0.0
 10
1481.875279404726
 20
946.6623258749305
 30
0.0
 10
1488.290930390391
 20
945.4052008347453
 30
0.0
 10
1492.206817050816
 20
944.7450732071864
 30
0.0
 10
1494.33035643885
 20
943.965093123666
 30
0.0
 10
1495.648303903501
 20
942.0017113592229
 30
0.0
 10
1496.889080198636
 20
940.3939641318052
 30
0.0
 10
1497.979305092342
 20
938.9303152926695
 30
0.0
 10
1498.825628925262
 20
937.8030978199197
 30
0.0
 10
1499.365651036482
 20
937.082317281589
 30
0.0
 10
1499.556600829477
 20
936.8274519867621
 30
0.0
 11
1371.558025956507
 21
1053.813656497033
 31
0.0
 11
1381.186379211967
 21
1033.419138735862
 31
0.0
 11
1397.71867731278
 21
1008.235505163158
 31
0.0
 11
1421.895593528273
 21
979.5620625213762
 31
0.0
 11
1438.699535931093
 21
965.5499759825715
 31
0.0
 11
1461.419364760035
 21
953.0919884022444
 31
0.0
 11
1473.032884004289
 21
949.1080988380685
 31
0.0
 11
1482.525651169189
 21
946.6145065156416
 31
0.0
 11
1490.274055339976
 21
945.0739868314072
 31
0.0
 11
1492.069422679704
 21
944.714951799906
 31
0.0
 11
1494.127942193701
 21
943.8059985842747
 31
0.0
 11
1495.705979872152
 21
941.9656854088789
 31
0.0
 11
1497.019306346039
 21
940.2131945620614
 31
0.0
 11
1497.936391412547
 21
938.9894446287695
 31
0.0
 11
1498.983700856784
 21
937.5919244757049
 31
0.0
 11
1499.556600829477
 21
936.8274519867621
 31
0.0
  0
SPLINE
  5
249C
330
A
100
AcDbEntity
  8
HIDDEN
100
AcDbSpline
210
0.0
220
0.0
230
1.0
 70
  1064
 71
     3
 72
    21
 73
    17
 74
    15
 42
0.000000001
 43
0.0000000001
 44
0.0
 40
0.0
 40
0.0
 40
0.0
 40
0.0
 40
9.459149443339316
 40
39.5040952886951
 40
67.94439589457657
 40
95.77413314985847
 40
109.9805880607852
 40
128.0199838695916
 40
149.5193842095086
 40
164.5622340126145
 40
170.3082281287328
 40
174.6430496069068
 40
176.3336695816137
 40
179.0734047344439
 40
181.598502072056
 40
185.732836407867
 40
185.732836407867
 40
185.732836407867
 40
185.732836407867
 10
1690.060622624534
 20
1053.813656497033
 30
0.0
 10
1688.857668036122
 20
1050.897440206929
 30
0.0
 10
1683.83378793218
 20
1038.71849252281
 30
0.0
 10
1672.062679770734
 20
1019.235142468952
 30
0.0
 10
1655.075221418501
 20
995.9595876964632
 30
0.0
 10
1638.272924976905
 20
979.3649356572655
 30
0.0
 10
1622.362196563996
 20
967.1504330922744
 30
0.0
 10
1606.744711383431
 20
958.26795282426
 30
0.0
 10
1590.020879127559
 20
950.9914963444286
 30
0.0
 10
1576.253018038484
 20
947.4987628432509
 30
0.0
 10
1568.237060206172
 20
945.533489184975
 30
0.0
 10
1564.097494647478
 20
945.1338437619647
 30
0.0
 10
1561.961474994846
 20
943.0383747389537
 30
0.0
 10
1560.677027452907
 20
941.116396215155
 30
0.0
 10
1558.763577699178
 20
938.6311047405758
 30
0.0
 10
1557.438070795185
 20
936.8512222097415
 30
0.0
 10
1556.615164431058
 20
935.7462285974029
 30
0.0
 11
1690.060622624534
 21
1053.813656497033
 31
0.0
 11
1686.347406026571
 21
1045.113798412671
 31
0.0
 11
1671.421016860783
 21
1019.038874111308
 31
0.0
 11
1654.35704942071
 21
996.2864739355678
 31
0.0
 11
1634.537944405315
 21
976.7493975911713
 31
0.0
 11
1623.216238582986
 21
968.1678861620094
 31
0.0
 11
1607.619953647365
 21
959.1028049514684
 31
0.0
 11
1587.800088689681
 21
950.7723086856278
 31
0.0
 11
1573.297104730298
 21
946.7784651142433
 31
0.0
 11
1567.680034534526
 21
945.5681053337507
 31
0.0
 11
1563.504334144092
 21
944.4044028387084
 31
0.0
 11
1562.255217988188
 21
943.2651466217239
 31
0.0
 11
1560.610432210848
 21
941.0740673318958
 31
0.0
 11
1559.095522151172
 21
939.0538782131478
 31
0.0
 11
1556.615164431058
 21
935.7462285974029
 31
0.0
  0
LINE
  5
24A4
330
A
100
AcDbEntity
  8
HIDDEN
 48
0.5
100
AcDbLine
 10
1564.679340781998
 20
945.0984105550344
 30
0.0
 11
1492.302699353302
 21
945.0984105550344
 31
0.0
  0
SPLINE
  5
254B
330
A
100
AcDbEntity
  8
MODEL
  6
Continuous
100
AcDbSpline
210
0.0
220
0.0
230
1.0
 70
     8
 71
     3
 72
    10
 73
     6
 74
     0
 42
0.000000001
 43
0.0000000001
 40
0.0
 40
0.0
 40
0.0
 40
0.0
 40
28.26457167667983
 40
59.75084139836831
 40
60.89580146925439
 40
60.89580146925439
 40
60.89580146925439
 40
60.89580146925439
 10
1576.498746347661
 20
926.3191243181415
 30
0.0
 10
1585.962807198826
 20
926.0682936412463
 30
0.0
 10
1605.969676765826
 20
925.5380417002494
 30
0.0
 10
1625.721309767482
 20
932.2688043147325
 30
0.0
 10
1635.216054782487
 20
937.7156943306184
 30
0.0
 10
1635.54785283205
 20
937.9090477365102
 30
0.0
  0
LINE
  5
254C
330
A
100
AcDbEntity
  8
MODEL
  6
Continuous
100
AcDbLine
 10
1552.929682957315
 20
926.5524586121351
 30
0.0
 11
1565.825060515636
 21
926.5524586121351
 31
0.0
  0
LINE
  5
254D
330
A
100
AcDbEntity
  8
MODEL
  6
Continuous
100
AcDbLine
 10
1552.929682957315
 20
905.9192978259898
 30
0.0
 11
1565.825060515636
 21
905.9192978259898
 31
0.0
  0
LINE
  5
254E
330
A
100
AcDbEntity
  8
MODEL
  6
Continuous
100
AcDbLine
 10
1565.825060515636
 20
926.5524586121351
 30
0.0
 11
1565.825060515636
 21
905.9192978259898
 31
0.0
  0
LINE
  5
254F
330
A
100
AcDbEntity
  8
MODEL
  6
Continuous
100
AcDbLine
 10
1565.825060515636
 20
929.5096804205525
 30
0.0
 11
1565.825060515636
 21
902.9620760175724
 31
0.0
  0
LINE
  5
2550
330
A
100
AcDbEntity
  8
MODEL
  6
Continuous
100
AcDbLine
 10
1565.825060515636
 20
929.5096804205525
 30
0.0
 11
1576.498746347661
 21
929.5096804205525
 31
0.0
  0
LINE
  5
2551
330
A
100
AcDbEntity
  8
MODEL
  6
Continuous
100
AcDbLine
 10
1576.498746347661
 20
929.5096804205525
 30
0.0
 11
1576.498746347661
 21
902.9620760175724
 31
0.0
  0
LINE
  5
2552
330
A
100
AcDbEntity
  8
MODEL
  6
Continuous
100
AcDbLine
 10
1565.825060515636
 20
902.9620760175724
 30
0.0
 11
1576.498746347661
 21
902.9620760175724
 31
0.0
  0
LINE
  5
2553
330
A
100
AcDbEntity
  8
MODEL
  6
Continuous
100
AcDbLine
 10
1565.825060515636
 20
908.412687841691
 30
0.0
 11
1576.498746347661
 21
908.412687841691
 31
0.0
  0
LINE
  5
2554
330
A
100
AcDbEntity
  8
MODEL
  6
Continuous
100
AcDbLine
 10
1565.825060515636
 20
924.0590685964339
 30
0.0
 11
1576.498746347661
 21
924.0590685964339
 31
0.0
  0
SPLINE
  5
2555
330
A
100
AcDbEntity
  8
MODEL
  6
Continuous
100
AcDbSpline
210
0.0
220
0.0
230
1.0
 70
     8
 71
     3
 72
    25
 73
    21
 74
     0
 42
0.000000001
 43
0.0000000001
 40
0.0
 40
0.0
 40
0.0
 40
0.0
 40
8.636155543889636
 40
17.80844760705519
 40
22.59662210295897
 40
27.52279371621348
 40
32.58796078924063
 40
37.69713199520453
 40
42.80562312308917
 40
47.91501192653631
 40
53.02673821686997
 40
58.14218332369721
 40
63.26275053468186
 40
68.38994414142451
 40
73.51720453653647
 40
78.61766945329502
 40
83.69153529518832
 40
88.74119547244176
 40
93.76863335476773
 40
98.72791158884588
 40
98.72791158884588
 40
98.72791158884588
 40
98.72791158884588
 10
1575.995356736112
 20
907.3257939387955
 30
0.0
 10
1578.873064726507
 20
907.2495246232777
 30
0.0
 10
1584.807132888498
 20
907.0935535995
 30
0.0
 10
1592.34221713153
 20
907.119023909937
 30
0.0
 10
1598.631912579561
 20
907.4157903386092
 30
0.0
 10
1603.542377766388
 20
907.829425291553
 30
0.0
 10
1608.53624606845
 20
908.4753728007441
 30
0.0
 10
1613.551477459364
 20
909.3814116489767
 30
0.0
 10
1618.530443929106
 20
910.5357918689836
 30
0.0
 10
1623.447959863709
 20
911.9320280643076
 30
0.0
 10
1628.294101364402
 20
913.5659905831922
 30
0.0
 10
1633.058779197481
 20
915.4344175746862
 30
0.0
 10
1637.731603529782
 20
917.5346165618666
 30
0.0
 10
1642.299552564066
 20
919.862903550499
 30
0.0
 10
1646.740466414474
 20
922.4117985169996
 30
0.0
 10
1651.036143456694
 20
925.1654799384384
 30
0.0
 10
1655.175107716954
 20
928.1048635494907
 30
0.0
 10
1659.154769606189
 20
931.2170413211188
 30
0.0
 10
1662.961738517105
 20
934.4796773237246
 30
0.0
 10
1665.393590088
 20
936.7544258964376
 30
0.0
 10
1666.576796974559
 20
937.9090477365284
 30
0.0
  0
LINE
  5
2556
330
A
100
AcDbEntity
  8
MODEL
  6
Continuous
100
AcDbLine
 10
1555.146456706781
 20
898.7358782190624
 30
0.0
 11
1501.83558342852
 21
898.7358782190624
 31
0.0
  0
LINE
  5
2557
330
A
100
AcDbEntity
  8
MODEL
  6
Continuous
100
AcDbLine
 10
1555.146456706781
 20
933.7358782190624
 30
0.0
 11
1555.146456706781
 21
930.5692500710309
 31
0.0
  0
LINE
  5
2558
330
A
100
AcDbEntity
  8
MODEL
  6
Continuous
100
AcDbLine
 10
1501.83558342852
 20
933.7358782190624
 30
0.0
 11
1501.83558342852
 21
930.5692500710309
 31
0.0
  0
LINE
  5
2559
330
A
100
AcDbEntity
  8
MODEL
  6
Continuous
100
AcDbLine
 10
1501.83558342852
 20
933.7358782190624
 30
0.0
 11
1555.146456706781
 21
933.7358782190624
 31
0.0
  0
LINE
  5
255A
330
A
100
AcDbEntity
  8
HIDDEN
 48
0.5
100
AcDbLine
 10
1689.949317541533
 20
1034.42838411623
 30
0.0
 11
1680.034256314831
 21
1011.478622442723
 31
0.0
  0
LINE
  5
255B
330
A
100
AcDbEntity
  8
HIDDEN
 48
0.5
100
AcDbLine
 10
1689.949317541533
 20
1034.42838411623
 30
0.0
 11
1695.63730766395
 21
1031.970982984011
 31
0.0
  0
LINE
  5
255C
330
A
100
AcDbEntity
  8
HIDDEN
 48
0.5
100
AcDbLine
 10
1695.63730766395
 20
1031.970982984011
 30
0.0
 11
1679.07313439653
 21
993.8579306558702
 31
0.0
  0
LINE
  5
255D
330
A
100
AcDbEntity
  8
HIDDEN
 48
0.5
100
AcDbLine
 10
1685.722246437248
 20
1009.021221310504
 30
0.0
 11
1680.034256314831
 21
1011.478622442723
 31
0.0
  0
LINE
  5
255E
330
A
100
AcDbEntity
  8
HIDDEN
 48
0.5
100
AcDbLine
 10
1695.63730766395
 20
1031.970982984011
 30
0.0
 11
1713.810667706127
 21
1024.119486307202
 31
0.0
  0
LINE
  5
255F
330
A
100
AcDbEntity
  8
HIDDEN
 48
0.5
100
AcDbLine
 10
1713.810667706127
 20
1024.119486307202
 30
0.0
 11
1701.042293145606
 21
994.565341716257
 31
0.0
  0
LINE
  5
2560
330
A
100
AcDbEntity
  8
HIDDEN
 48
0.5
100
AcDbLine
 10
1701.042293145606
 20
994.565341716257
 30
0.0
 11
1682.868933103429
 21
1002.416838393065
 31
0.0
  0
LINE
  5
2561
330
A
100
AcDbEntity
  8
HIDDEN
 48
0.5
100
AcDbLine
 10
1701.042293145606
 20
994.565341716257
 30
0.0
 11
1697.329134930838
 21
985.9707305346889
 31
0.0
  0
LINE
  5
2562
330
A
100
AcDbEntity
  8
HIDDEN
 48
0.5
100
AcDbLine
 10
1697.329134930838
 20
985.9707305346889
 30
0.0
 11
1679.07313439653
 21
993.8579306558702
 31
0.0
  0
SPLINE
  5
2563
330
A
100
AcDbEntity
  8
HIDDEN
 48
0.5
100
AcDbSpline
210
0.0
220
0.0
230
1.0
 70
     8
 71
     3
 72
    19
 73
    15
 74
     0
 42
0.000000001
 43
0.0000000001
 40
98.72791158881991
 40
98.72791158881991
 40
98.72791158881991
 40
98.72791158881991
 40
98.77542673049834
 40
103.7627614902627
 40
108.7314542237962
 40
113.6819947977643
 40
118.6156411310903
 40
123.5342135669684
 40
128.439127042166
 40
133.3316273135808
 40
138.2128033462619
 40
143.0828840546065
 40
147.8162027109986
 40
156.2368052394255
 40
156.2368052394255
 40
156.2368052394255
 40
156.2368052394255
 10
1666.576796974541
 20
937.90904773651
 30
0.0
 10
1666.588133350561
 20
937.9201102374886
 30
0.0
 10
1667.789132928674
 20
939.0925699894567
 30
0.0
 10
1670.125330057163
 20
941.4732703648551
 30
0.0
 10
1673.455906313425
 20
945.1625443294331
 30
0.0
 10
1676.621906670874
 20
948.9706631046306
 30
0.0
 10
1679.622725409984
 20
952.8891777723034
 30
0.0
 10
1682.457879255296
 20
956.9105291166518
 30
0.0
 10
1685.127112888272
 20
961.027493950019
 30
0.0
 10
1687.630087890495
 20
965.2330652057669
 30
0.0
 10
1689.966563244297
 20
969.5201020566053
 30
0.0
 10
1692.116733467497
 20
973.8443915213631
 30
0.0
 10
1694.595840105864
 20
979.3181653132029
 30
0.0
 10
1696.26521826628
 20
983.373311325815
 30
0.0
 10
1697.329134930838
 20
985.9707305346889
 30
0.0
  0
SPLINE
  5
2564
330
A
100
AcDbEntity
  8
HIDDEN
 48
0.5
100
AcDbSpline
210
0.0
220
0.0
230
1.0
 70
     8
 71
     3
 72
    10
 73
     6
 74
     0
 42
0.000000001
 43
0.0000000001
 40
60.89580146925395
 40
60.89580146925395
 40
60.89580146925395
 40
60.89580146925395
 40
95.11749522657652
 40
120.3442268025031
 40
133.1633651210827
 40
133.1633651210827
 40
133.1633651210827
 40
133.1633651210827
 10
1635.547852832049
 20
937.9090477365098
 30
0.0
 10
1645.464959576742
 20
943.688184679022
 30
0.0
 10
1660.593980633432
 20
957.1938809035664
 30
0.0
 10
1673.454211203854
 20
977.809615478688
 30
0.0
 10
1678.263669580056
 20
989.55130539368
 30
0.0
 10
1679.884163797509
 20
993.5075389488992
 30
0.0
  0
DIMENSION
  5
2595
102
{ACAD_REACTORS
330
2597
102
}
102
{ACAD_XDICTIONARY
360
2596
102
}
330
A
100
AcDbEntity
  8
Dim
100
AcDbDimension
  2
*D26
 10
1252.729715565147
 20
936.8274519867621
 30
0.0
 11
1230.513406971397
 21
996.8274519867621
 31
0.0
 70
    32
 71
     5
 42
120.0
 73
     0
 74
     0
 75
     0
  3
JIS
100
AcDbAlignedDimension
 13
1344.113171082839
 23
1056.827451986762
 33
0.0
 14
1344.113171082839
 24
936.8274519867621
 34
0.0
 50
90.0
100
AcDbRotatedDimension
1001
ACAD
1000
DSTYLE
1002
{
1070
   179
1070
     0
1070
   271
1070
     0
1070
    43
1040
25.0
1070
    44
1040
0.0
1070
    42
1040
25.0
1002
}
  0
DIMENSION
  5
25E3
330
A
100
AcDbEntity
  8
Dim
100
AcDbDimension
  2
*D29
 10
1803.054363477641
 20
789.5564106197932
 30
0.0
 11
1666.354363477641
 21
811.7727192135432
 31
0.0
 70
    32
 71
     5
 42
273.3999999999999
 73
     0
 74
     0
 75
     0
  3
JIS
100
AcDbAlignedDimension
 13
1529.654363477641
 23
887.7387352123775
 33
0.0
 14
1803.054363477641
 24
939.8412474764931
 34
0.0
100
AcDbRotatedDimension
1001
ACAD
1000
DSTYLE
1002
{
1070
   179
1070
     0
1070
   271
1070
     0
1070
    43
1040
25.0
1070
    44
1040
0.0
1070
    42
1040
25.0
1002
}
  0
DIMENSION
  5
2605
102
{ACAD_REACTORS
330
2607
102
}
102
{ACAD_XDICTIONARY
360
2606
102
}
330
A
100
AcDbEntity
  8
Dim
100
AcDbDimension
  2
*D30
 10
950.1972968070452
 20
2299.135661671172
 30
0.0
 11
650.1972968070452
 21
2321.351970264922
 31
0.0
 70
    32
 71
     5
 42
600.0
 73
     0
 74
     0
 75
     0
  3
JIS
100
AcDbAlignedDimension
 13
350.1972968070452
 23
2183.552654287983
 33
0.0
 14
950.1972968070452
 24
2183.552654287983
 34
0.0
100
AcDbRotatedDimension
1001
ACAD
1000
DSTYLE
1002
{
1070
   179
1070
     0
1070
   271
1070
     0
1070
    43
1040
25.0
1070
    44
1040
0.0
1070
    42
1040
25.0
1002
}
  0
DIMENSION
  5
2614
330
A
100
AcDbEntity
  8
Dim
100
AcDbDimension
  2
*D31
 10
1054.271954927328
 20
1726.552609155488
 30
0.0
 11
1032.055646333578
 21
1956.552609155488
 31
0.0
 70
    32
 71
     5
 42
460.0
 73
     0
 74
     0
 75
     0
  3
JIS
100
AcDbAlignedDimension
 13
947.1986959070591
 23
2186.552609155488
 33
0.0
 14
947.1986959070591
 24
1726.552609155488
 34
0.0
 50
90.0
100
AcDbRotatedDimension
1001
ACAD
1000
DSTYLE
1002
{
1070
   179
1070
     0
1070
   271
1070
     0
1070
    43
1040
25.0
1070
    44
1040
0.0
1070
    42
1040
25.0
1002
}
  0
DIMENSION
  5
2621
330
A
100
AcDbEntity
  8
Dim
100
AcDbDimension
  2
*D32
 10
254.6449818969942
 20
1729.552564027895
 30
0.0
 11
232.4286733032442
 21
1905.802564027895
 31
0.0
 70
    32
 71
     5
 42
352.5000000000002
 73
     0
 74
     0
 75
     0
  3
JIS
100
AcDbAlignedDimension
 13
353.1937915189927
 23
2082.052564027895
 33
0.0
 14
353.1937915189927
 24
1729.552564027895
 34
0.0
 50
90.0
100
AcDbRotatedDimension
1001
ACAD
1000
DSTYLE
1002
{
1070
   179
1070
     0
1070
   271
1070
     0
1070
    43
1040
25.0
1070
    44
1040
0.0
1070
    42
1040
25.0
1002
}
  0
DIMENSION
  5
2633
330
A
100
AcDbEntity
  8
Dim
100
AcDbDimension
  2
*D33
 10
353.1986959070591
 20
1598.541913585828
 30
0.0
 11
650.1986959070591
 21
1620.758222179578
 31
0.0
 70
    32
 71
     5
 42
594.0
 73
     0
 74
     0
 75
     0
  3
JIS
100
AcDbAlignedDimension
 13
947.1986959070591
 23
1729.552564027895
 33
0.0
 14
353.1986959070591
 24
1729.552564027895
 34
0.0
100
AcDbRotatedDimension
1001
ACAD
1000
DSTYLE
1002
{
1070
   179
1070
     0
1070
   271
1070
     0
1070
    43
1040
25.0
1070
    44
1040
0.0
1070
    42
1040
25.0
1002
}
  0
DIMENSION
  5
273F
330
A
100
AcDbEntity
  8
Dim
  6
Continuous
100
AcDbDimension
  2
*D35
 10
1529.59828327995
 20
1057.181964845815
 30
0.0
 11
1529.59828327995
 21
1151.369924806753
 31
0.0
 70
   160
  1
110(深さ)
 71
     5
 42
112.083554290781
 73
     0
 74
     1
 75
     1
  3
JIS
100
AcDbAlignedDimension
 13
1529.598270008799
 23
945.0984105550344
 33
0.0
 14
1529.59828327995
 24
1057.181964845815
 34
0.0
 50
90.0
100
AcDbRotatedDimension
1001
ACAD
1000
DSTYLE
1002
{
1070
   172
1070
     1
1070
    76
1070
     1
1070
    75
1070
     1
1070
   175
1070
     0
1070
   179
1070
     0
1070
   271
1070
     0
1070
    43
1040
25.0
1070
    44
1040
0.0
1070
    42
1040
25.0
1002
}
  0
MTEXT
  5
27B2
330
A
100
AcDbEntity
  8
Dim
390
1D
100
AcDbMText
 10
767.6321310344539
 20
2240.683802258135
 30
0.0
 40
24.0
 41
1169.771715461011
 46
24.72
 71
     1
 72
     1
  1
{%%c35}
  7
ＭＳ ゴシック
 73
     1
 44
1.174240107638677
1001
ACAD
1000
ACAD_MTEXT_DEFINED_HEIGHT_BEGIN
1070
    46
1040
24.72
1000
ACAD_MTEXT_DEFINED_HEIGHT_END
  0
LINE
  5
27B3
330
A
100
AcDbEntity
  8
Dim
100
AcDbLine
 10
760.1628591308111
 20
2212.106566417299
 30
0.0
 11
664.0447497552359
 21
2137.750969847069
 31
0.0
  0
LINE
  5
281C
330
A
100
AcDbEntity
  8
Dim
  6
CENTER
 48
0.1
100
AcDbLine
 10
1726.055591014945
 20
1039.310367731642
 30
0.0
 11
1726.055591014945
 21
1074.475702668135
 31
0.0
  0
LINE
  5
281D
330
A
100
AcDbEntity
  8
Dim
  6
CENTER
 48
0.1
100
AcDbLine
 10
1761.055591014945
 20
1039.310367731642
 30
0.0
 11
1761.055591014945
 21
1074.475702668135
 31
0.0
  0
LINE
  5
28F5
102
{ACAD_REACTORS
330
2942
102
}
330
A
100
AcDbEntity
  8
MODEL
100
AcDbLine
 10
1777.083702422855
 20
2139.092081167368
 30
0.0
 11
1777.083702422855
 21
2082.088460134808
 31
0.0
  0
LINE
  5
28F6
102
{ACAD_REACTORS
330
2942
102
}
330
A
100
AcDbEntity
  8
MODEL
100
AcDbLine
 10
1297.090806412869
 20
2161.847985388032
 30
0.0
 11
1297.282353848213
 21
2163.798427483702
 31
0.0
  0
LINE
  5
28F7
102
{ACAD_REACTORS
330
2942
102
}
330
A
100
AcDbEntity
  8
MODEL
100
AcDbLine
 10
1297.282353848213
 20
2163.798427483702
 30
0.0
 11
1297.851483997827
 21
2165.674627722688
 31
0.0
  0
LINE
  5
28F8
102
{ACAD_REACTORS
330
2942
102
}
330
A
100
AcDbEntity
  8
MODEL
100
AcDbLine
 10
1297.851483997827
 20
2165.674627722688
 30
0.0
 11
1298.775975981176
 21
2167.403205522745
 31
0.0
  0
LINE
  5
28F9
102
{ACAD_REACTORS
330
2942
102
}
330
A
100
AcDbEntity
  8
MODEL
100
AcDbLine
 10
1298.775975981176
 20
2167.403205522745
 30
0.0
 11
1300.018967252248
 21
2168.918359516696
 31
0.0
  0
LINE
  5
28FA
102
{ACAD_REACTORS
330
2942
102
}
330
A
100
AcDbEntity
  8
MODEL
100
AcDbLine
 10
1300.018967252248
 20
2168.918359516696
 30
0.0
 11
1301.535154775527
 21
2170.162212062209
 31
0.0
  0
LINE
  5
28FB
102
{ACAD_REACTORS
330
2942
102
}
330
A
100
AcDbEntity
  8
MODEL
100
AcDbLine
 10
1301.535154775527
 20
2170.162212062209
 30
0.0
 11
1303.264421595137
 21
2171.08584277112
 31
0.0
  0
LINE
  5
28FC
102
{ACAD_REACTORS
330
2942
102
}
330
A
100
AcDbEntity
  8
MODEL
100
AcDbLine
 10
1303.264421595137
 20
2171.08584277112
 30
0.0
 11
1305.140105069458
 21
2171.65531743051
 31
0.0
  0
LINE
  5
28FD
102
{ACAD_REACTORS
330
2942
102
}
330
A
100
AcDbEntity
  8
MODEL
100
AcDbLine
 10
1305.140105069458
 20
2171.65531743051
 30
0.0
 11
1307.091063929794
 21
2171.847553885404
 31
0.0
  0
LINE
  5
28FE
102
{ACAD_REACTORS
330
2942
102
}
330
A
100
AcDbEntity
  8
MODEL
100
AcDbLine
 10
1777.090937128146
 20
2161.848329897809
 30
0.0
 11
1777.090937128146
 21
2066.136451731228
 31
0.0
  0
LINE
  5
28FF
102
{ACAD_REACTORS
330
2942
102
}
330
A
100
AcDbEntity
  8
MODEL
100
AcDbLine
 10
1300.018967252248
 20
2059.065388583012
 30
0.0
 11
1299.360264560926
 21
2059.79247646483
 31
0.0
  0
LINE
  5
2900
102
{ACAD_REACTORS
330
2942
102
}
330
A
100
AcDbEntity
  8
MODEL
100
AcDbLine
 10
1299.360264560926
 20
2059.79247646483
 30
0.0
 11
1298.775975981176
 21
2060.581231596516
 31
0.0
  0
LINE
  5
2901
102
{ACAD_REACTORS
330
2942
102
}
330
A
100
AcDbEntity
  8
MODEL
100
AcDbLine
 10
1298.775975981176
 20
2060.581231596516
 30
0.0
 11
1298.271613669411
 21
2061.422352214121
 31
0.0
  0
LINE
  5
2902
102
{ACAD_REACTORS
330
2942
102
}
330
A
100
AcDbEntity
  8
MODEL
100
AcDbLine
 10
1298.271613669411
 20
2061.422352214121
 30
0.0
 11
1297.851483997827
 21
2062.30998165146
 31
0.0
  0
LINE
  5
2903
102
{ACAD_REACTORS
330
2942
102
}
330
A
100
AcDbEntity
  8
MODEL
100
AcDbLine
 10
1297.851483997827
 20
2062.30998165146
 30
0.0
 11
1297.520926867951
 21
2063.23430137992
 31
0.0
  0
LINE
  5
2904
102
{ACAD_REACTORS
330
2942
102
}
330
A
100
AcDbEntity
  8
MODEL
100
AcDbLine
 10
1297.520926867951
 20
2063.23430137992
 30
0.0
 11
1297.282353848213
 21
2064.185320616007
 31
0.0
  0
LINE
  5
2905
102
{ACAD_REACTORS
330
2942
102
}
330
A
100
AcDbEntity
  8
MODEL
100
AcDbLine
 10
1297.282353848213
 20
2064.185320616007
 30
0.0
 11
1297.139554546144
 21
2065.156838183752
 31
0.0
  0
LINE
  5
2906
102
{ACAD_REACTORS
330
2942
102
}
330
A
100
AcDbEntity
  8
MODEL
100
AcDbLine
 10
1297.139554546144
 20
2065.156838183752
 30
0.0
 11
1297.090806412869
 21
2066.136451731228
 31
0.0
  0
LINE
  5
2907
102
{ACAD_REACTORS
330
2942
102
}
330
A
100
AcDbEntity
  8
MODEL
100
AcDbLine
 10
1300.018967252248
 20
2059.065388583012
 30
0.0
 11
1494.665268028205
 21
1864.420465846159
 31
0.0
  0
LINE
  5
2908
102
{ACAD_REACTORS
330
2942
102
}
330
A
100
AcDbEntity
  8
MODEL
100
AcDbLine
 10
1297.090806412869
 20
2161.847985388032
 30
0.0
 11
1297.090806412869
 21
2066.136451731228
 31
0.0
  0
LINE
  5
2909
102
{ACAD_REACTORS
330
2942
102
}
330
A
100
AcDbEntity
  8
MODEL
100
AcDbLine
 10
1307.091063929794
 20
2171.847553885404
 30
0.0
 11
1767.092918924765
 21
2171.847553885404
 31
0.0
  0
LINE
  5
290A
102
{ACAD_REACTORS
330
2942
102
}
330
A
100
AcDbEntity
  8
MODEL
100
AcDbLine
 10
1777.090937128146
 20
2161.848329897809
 30
0.0
 11
1776.90042322213
 21
2163.798427483702
 31
0.0
  0
LINE
  5
290B
102
{ACAD_REACTORS
330
2942
102
}
330
A
100
AcDbEntity
  8
MODEL
100
AcDbLine
 10
1776.90042322213
 20
2163.798427483702
 30
0.0
 11
1776.332326601843
 21
2165.674627722688
 31
0.0
  0
LINE
  5
290C
102
{ACAD_REACTORS
330
2942
102
}
330
A
100
AcDbEntity
  8
MODEL
100
AcDbLine
 10
1776.332326601843
 20
2165.674627722688
 30
0.0
 11
1775.404561775624
 21
2167.403205522745
 31
0.0
  0
LINE
  5
290D
102
{ACAD_REACTORS
330
2942
102
}
330
A
100
AcDbEntity
  8
MODEL
100
AcDbLine
 10
1775.404561775624
 20
2167.403205522745
 30
0.0
 11
1774.162948543655
 21
2168.918704026474
 31
0.0
  0
LINE
  5
290E
102
{ACAD_REACTORS
330
2942
102
}
330
A
100
AcDbEntity
  8
MODEL
100
AcDbLine
 10
1774.162948543655
 20
2168.918704026474
 30
0.0
 11
1772.649172588806
 21
2170.162556571986
 31
0.0
  0
LINE
  5
290F
102
{ACAD_REACTORS
330
2942
102
}
330
A
100
AcDbEntity
  8
MODEL
100
AcDbLine
 10
1772.649172588806
 20
2170.162556571986
 30
0.0
 11
1770.920767043637
 21
2171.086187280894
 31
0.0
  0
LINE
  5
2910
102
{ACAD_REACTORS
330
2942
102
}
330
A
100
AcDbEntity
  8
MODEL
100
AcDbLine
 10
1770.920767043637
 20
2171.086187280894
 30
0.0
 11
1769.0438777851
 21
2171.65531743051
 31
0.0
  0
LINE
  5
2911
102
{ACAD_REACTORS
330
293C
330
2942
102
}
330
A
100
AcDbEntity
  8
MODEL
100
AcDbLine
 10
1769.0438777851
 20
2171.65531743051
 30
0.0
 11
1767.092918924765
 21
2171.847553885404
 31
0.0
  0
LINE
  5
2912
102
{ACAD_REACTORS
330
2942
102
}
330
A
100
AcDbEntity
  8
MODEL
100
AcDbLine
 10
1774.162948543655
 20
2059.065388583012
 30
0.0
 11
1774.822340254528
 21
2059.792820974606
 31
0.0
  0
LINE
  5
2913
102
{ACAD_REACTORS
330
2942
102
}
330
A
100
AcDbEntity
  8
MODEL
100
AcDbLine
 10
1774.822340254528
 20
2059.792820974606
 30
0.0
 11
1775.404561775624
 21
2060.581576106291
 31
0.0
  0
LINE
  5
2914
102
{ACAD_REACTORS
330
2942
102
}
330
A
100
AcDbEntity
  8
MODEL
100
AcDbLine
 10
1775.404561775624
 20
2060.581576106291
 30
0.0
 11
1775.908924087389
 21
2061.422352214121
 31
0.0
  0
LINE
  5
2915
102
{ACAD_REACTORS
330
2942
102
}
330
A
100
AcDbEntity
  8
MODEL
100
AcDbLine
 10
1775.908924087389
 20
2061.422352214121
 30
0.0
 11
1776.332326601843
 21
2062.30998165146
 31
0.0
  0
LINE
  5
2916
102
{ACAD_REACTORS
330
2942
102
}
330
A
100
AcDbEntity
  8
MODEL
100
AcDbLine
 10
1776.332326601843
 20
2062.30998165146
 30
0.0
 11
1776.660299908401
 21
2063.23430137992
 31
0.0
  0
LINE
  5
2917
102
{ACAD_REACTORS
330
2942
102
}
330
A
100
AcDbEntity
  8
MODEL
100
AcDbLine
 10
1776.660299908401
 20
2063.23430137992
 30
0.0
 11
1776.90042322213
 21
2064.185665125784
 31
0.0
  0
LINE
  5
2918
102
{ACAD_REACTORS
330
2942
102
}
330
A
100
AcDbEntity
  8
MODEL
100
AcDbLine
 10
1776.90042322213
 20
2064.185665125784
 30
0.0
 11
1777.045117327965
 21
2065.156838183752
 31
0.0
  0
LINE
  5
2919
102
{ACAD_REACTORS
330
2942
102
}
330
A
100
AcDbEntity
  8
MODEL
100
AcDbLine
 10
1777.045117327965
 20
2065.156838183752
 30
0.0
 11
1777.090937128146
 21
2066.136451731228
 31
0.0
  0
LINE
  5
291A
102
{ACAD_REACTORS
330
2939
330
2942
102
}
330
A
100
AcDbEntity
  8
MODEL
100
AcDbLine
 10
1774.162948543655
 20
2059.065388583012
 30
0.0
 11
1579.518714826353
 21
1864.420465846159
 31
0.0
  0
LINE
  5
291B
102
{ACAD_REACTORS
330
2942
102
}
330
A
100
AcDbEntity
  8
MODEL
100
AcDbLine
 10
1494.665268028205
 20
1864.420465846159
 30
0.0
 11
1498.124146177199
 21
1861.222037087667
 31
0.0
  0
LINE
  5
291C
102
{ACAD_REACTORS
330
2942
102
}
330
A
100
AcDbEntity
  8
MODEL
100
AcDbLine
 10
1498.124146177199
 20
1861.222037087667
 30
0.0
 11
1501.824181169251
 21
1858.306106345328
 31
0.0
  0
LINE
  5
291D
102
{ACAD_REACTORS
330
2942
102
}
330
A
100
AcDbEntity
  8
MODEL
100
AcDbLine
 10
1501.824181169251
 20
1858.306106345328
 30
0.0
 11
1505.741774084716
 21
1855.688865578605
 31
0.0
  0
LINE
  5
291E
102
{ACAD_REACTORS
330
2942
102
}
330
A
100
AcDbEntity
  8
MODEL
100
AcDbLine
 10
1505.741774084716
 20
1855.688865578605
 30
0.0
 11
1509.851947964852
 21
1853.386162237184
 31
0.0
  0
LINE
  5
291F
102
{ACAD_REACTORS
330
2942
102
}
330
A
100
AcDbEntity
  8
MODEL
100
AcDbLine
 10
1509.851947964852
 20
1853.386162237184
 30
0.0
 11
1514.130414870464
 21
1851.413499260975
 31
0.0
  0
LINE
  5
2920
102
{ACAD_REACTORS
330
2942
102
}
330
A
100
AcDbEntity
  8
MODEL
100
AcDbLine
 10
1514.130414870464
 20
1851.413499260975
 30
0.0
 11
1518.550475293929
 21
1849.783623511682
 31
0.0
  0
LINE
  5
2921
102
{ACAD_REACTORS
330
2942
102
}
330
A
100
AcDbEntity
  8
MODEL
100
AcDbLine
 10
1518.550475293929
 20
1849.783623511682
 30
0.0
 11
1523.085257472734
 21
1848.503425184824
 31
0.0
  0
LINE
  5
2922
102
{ACAD_REACTORS
330
2942
102
}
330
A
100
AcDbEntity
  8
MODEL
100
AcDbLine
 10
1523.085257472734
 20
1848.503425184824
 30
0.0
 11
1527.705478075936
 21
1847.586340161655
 31
0.0
  0
LINE
  5
2923
102
{ACAD_REACTORS
330
2942
102
}
330
A
100
AcDbEntity
  8
MODEL
100
AcDbLine
 10
1527.705478075936
 20
1847.586340161655
 30
0.0
 11
1532.383920831248
 21
1847.031679422623
 31
0.0
  0
LINE
  5
2924
102
{ACAD_REACTORS
330
293C
330
2942
102
}
330
A
100
AcDbEntity
  8
MODEL
100
AcDbLine
 10
1532.383920831248
 20
1847.031679422623
 30
0.0
 11
1537.090613388176
 21
1846.846677673021
 31
0.0
  0
LINE
  5
2925
102
{ACAD_REACTORS
330
2942
102
}
330
A
100
AcDbEntity
  8
MODEL
100
AcDbLine
 10
1537.090613388176
 20
1846.846677673021
 30
0.0
 11
1541.798683984206
 21
1847.031679422623
 31
0.0
  0
LINE
  5
2926
102
{ACAD_REACTORS
330
2942
102
}
330
A
100
AcDbEntity
  8
MODEL
100
AcDbLine
 10
1541.798683984206
 20
1847.031679422623
 30
0.0
 11
1546.478160268845
 21
1847.586340161655
 31
0.0
  0
LINE
  5
2927
102
{ACAD_REACTORS
330
2942
102
}
330
A
100
AcDbEntity
  8
MODEL
100
AcDbLine
 10
1546.478160268845
 20
1847.586340161655
 30
0.0
 11
1551.099069891599
 21
1848.503425184824
 31
0.0
  0
LINE
  5
2928
102
{ACAD_REACTORS
330
2942
102
}
330
A
100
AcDbEntity
  8
MODEL
100
AcDbLine
 10
1551.099069891599
 20
1848.503425184824
 30
0.0
 11
1555.633163050853
 21
1849.783623511682
 31
0.0
  0
LINE
  5
2929
102
{ACAD_REACTORS
330
2942
102
}
330
A
100
AcDbEntity
  8
MODEL
100
AcDbLine
 10
1555.633163050853
 20
1849.783623511682
 30
0.0
 11
1560.052534454766
 21
1851.413499260975
 31
0.0
  0
LINE
  5
292A
102
{ACAD_REACTORS
330
2942
102
}
330
A
100
AcDbEntity
  8
MODEL
100
AcDbLine
 10
1560.052534454766
 20
1851.413499260975
 30
0.0
 11
1564.33169037993
 21
1853.386162237184
 31
0.0
  0
LINE
  5
292B
102
{ACAD_REACTORS
330
2942
102
}
330
A
100
AcDbEntity
  8
MODEL
100
AcDbLine
 10
1564.33169037993
 20
1853.386162237184
 30
0.0
 11
1568.442381024731
 21
1855.688865578605
 31
0.0
  0
LINE
  5
292C
102
{ACAD_REACTORS
330
2942
102
}
330
A
100
AcDbEntity
  8
MODEL
100
AcDbLine
 10
1568.442381024731
 20
1855.688865578605
 30
0.0
 11
1572.357734626654
 21
1858.306106345328
 31
0.0
  0
LINE
  5
292D
102
{ACAD_REACTORS
330
2942
102
}
330
A
100
AcDbEntity
  8
MODEL
100
AcDbLine
 10
1572.357734626654
 20
1858.306106345328
 30
0.0
 11
1576.058803148032
 21
1861.222037087667
 31
0.0
  0
LINE
  5
292E
102
{ACAD_REACTORS
330
2942
102
}
330
A
100
AcDbEntity
  8
MODEL
100
AcDbLine
 10
1576.058803148032
 20
1861.222037087667
 30
0.0
 11
1579.518714826353
 21
1864.420465846159
 31
0.0
  0
LINE
  5
292F
330
A
100
AcDbEntity
  8
HIDDEN
100
AcDbLine
 10
1836.812051272188
 20
1726.558333375582
 30
0.0
 11
1236.811069667374
 21
1726.558333375582
 31
0.0
  0
LINE
  5
2930
330
A
100
AcDbEntity
  8
HIDDEN
440
 33554687
100
AcDbLine
 10
1836.812051272188
 20
2186.552609155488
 30
0.0
 11
1836.812051272188
 21
1726.558333375582
 31
0.0
  0
LINE
  5
2931
330
A
100
AcDbEntity
  8
HIDDEN
440
 33554687
100
AcDbLine
 10
1236.811069667374
 20
1726.558333375582
 30
0.0
 11
1236.811069667374
 21
2186.552609155488
 31
0.0
  0
LINE
  5
2932
330
A
100
AcDbEntity
  8
HIDDEN
440
 33554687
100
AcDbLine
 10
1236.811069667374
 20
2186.552609155488
 30
0.0
 11
1836.812051272188
 21
2186.552609155488
 31
0.0
  0
MTEXT
  5
2933
102
{ACAD_REACTORS
330
2934
102
}
330
A
100
AcDbEntity
  8
Dim
  6
Continuous
100
AcDbMText
 10
1619.471940236875
 20
1809.136720378527
 30
0.0
 40
24.0
 41
0.0
 46
24.0
 71
     7
 72
     1
  1
{R60}
  7
ＭＳ ゴシック
 73
     1
 44
0.25
1001
ACAD
1000
ACAD_MTEXT_DEFINED_HEIGHT_BEGIN
1070
    46
1040
24.0
1000
ACAD_MTEXT_DEFINED_HEIGHT_END
  0
LEADER
  5
2934
102
{ACAD_XDICTIONARY
360
2935
102
}
330
A
100
AcDbEntity
  8
Dim
  6
Continuous
100
AcDbLeader
  3
tfrom線あり
 73
     0
 74
     0
 40
24.0
 41
44.112
 76
     3
 10
1543.38341475792
 20
1846.89344607482
 30
0.0
 10
1592.566825618716
 20
1789.136720378527
 30
0.0
 10
1599.471940236875
 20
1789.136720378527
 30
0.0
340
2933
  0
MTEXT
  5
2936
330
A
100
AcDbEntity
  8
Dim
  6
Continuous
100
AcDbMText
 10
1168.071302386252
 20
2241.90862955153
 30
0.0
 40
24.0
 41
0.0
 46
0.0
 71
     9
 72
     1
  1
R10
  7
ＭＳ ゴシック
 73
     1
 44
0.25
  0
DIMENSION
  5
2937
102
{ACAD_REACTORS
330
2939
102
}
102
{ACAD_XDICTIONARY
360
2938
102
}
330
A
100
AcDbEntity
  8
Dim
  6
Continuous
100
AcDbDimension
  2
*D41
 10
1579.518714826353
 20
1864.420465846159
 30
0.0
 11
1605.849890205591
 21
1984.663093822193
 31
0.0
 70
    34
  1
<>
 71
     5
 42
0.7853963934546198
 73
     0
 74
     0
 75
     0
  3
tfrom線あり
100
AcDb2LineAngularDimension
 13
1539.444648686191
 23
1864.326697431682
 33
0.0
 14
1539.444648686191
 24
1846.939178547821
 34
0.0
 15
1774.162948543655
 25
2059.065388583012
 35
0.0
 16
1609.997319106122
 26
1946.547400623645
 36
0.0
1001
ACAD
1000
DSTYLE
1002
{
1070
   179
1070
     0
1002
}
  0
DIMENSION
  5
293A
102
{ACAD_REACTORS
330
293C
102
}
102
{ACAD_XDICTIONARY
360
293B
102
}
330
A
100
AcDbEntity
  8
Dim
  6
Continuous
100
AcDbDimension
  2
*D42
 10
1930.451167396089
 20
1846.846677673021
 30
0.0
 11
1898.451167396089
 21
2009.347115779213
 31
0.0
 70
    32
 71
     5
 42
325.0008762123828
 73
     0
 74
     0
 75
     0
  3
tfrom線あり
100
AcDbAlignedDimension
 13
1767.092918924765
 23
2171.847553885404
 33
0.0
 14
1537.090613388176
 24
1846.846677673021
 34
0.0
 50
90.0
100
AcDbRotatedDimension
  0
DIMENSION
  5
293D
330
A
100
AcDbEntity
  8
Dim
  6
Continuous
100
AcDbDimension
  2
*D43
 10
1297.090806412869
 20
1601.01447225333
 30
0.0
 11
1536.995614817499
 21
1633.01447225333
 31
0.0
 70
    32
 71
     5
 42
479.8096168092611
 73
     0
 74
     0
 75
     0
  3
tfrom線あり
100
AcDbAlignedDimension
 13
1776.90042322213
 23
2001.376553257091
 33
0.0
 14
1297.090806412869
 24
1999.426111161421
 34
0.0
100
AcDbRotatedDimension
  0
LINE
  5
293E
330
A
100
AcDbEntity
  8
Dim
  6
Continuous
100
AcDbLine
 10
1537.091991427279
 20
1906.847553885404
 30
0.0
 11
1407.908858919513
 21
1906.847553885404
 31
0.0
  0
DIMENSION
  5
293F
330
A
100
AcDbEntity
  8
Dim
  6
Continuous
100
AcDbDimension
  2
*D44
 10
1202.740377939427
 20
2171.847553885404
 30
0.0
 11
1170.740377939427
 21
2039.347553885404
 31
0.0
 70
    32
 71
     5
 42
264.9999999999998
 73
     0
 74
     0
 75
     0
  3
tfrom線あり
100
AcDbAlignedDimension
 13
1537.091991427279
 23
1906.847553885404
 33
0.0
 14
1307.091063929794
 24
2171.847553885404
 34
0.0
 50
90.0
100
AcDbRotatedDimension
  0
DIMENSION
  5
2940
330
A
100
AcDbEntity
  8
Dim
  6
Continuous
100
AcDbDimension
  2
*D45
 10
1930.451167396089
 20
2186.847553885404
 30
0.0
 11
1930.451167396089
 21
2235.999553885404
 31
0.0
 70
   160
 71
     5
 42
15.0
 73
     0
 74
     1
 75
     1
  3
tfrom線あり
100
AcDbAlignedDimension
 13
1767.092918924765
 23
2171.847553885404
 33
0.0
 14
1830.065359691162
 24
2186.847553885404
 34
0.0
 50
90.0
100
AcDbRotatedDimension
1001
ACAD
1000
DSTYLE
1002
{
1070
   172
1070
     1
1002
}
  0
CIRCLE
  5
2941
330
A
100
AcDbEntity
  8
HIDDEN
  6
HIDDEN
 48
0.5
100
AcDbCircle
 10
1536.81156046978
 20
1913.131047555755
 30
0.0
 40
22.99933001054539
  0
HATCH
  5
2942
330
A
100
AcDbEntity
  8
Dim
  6
Continuous
100
AcDbHatch
 10
0.0
 20
0.0
 30
0.0
210
0.0
220
0.0
230
1.0
  2
ANSI31
 70
     0
 71
     1
 91
        2
 92
        1
 93
        1
 72
     1
 10
1777.083702422855
 20
2139.092081167368
 11
1777.083702422855
 21
2082.088460134808
 97
        1
330
28F5
 92
        1
 93
       57
 72
     1
 10
1777.090937128146
 20
2161.848329897809
 11
1777.090937128146
 21
2066.136451731228
 72
     1
 10
1777.090937128146
 20
2161.848329897809
 11
1776.90042322213
 21
2163.798427483702
 72
     1
 10
1776.90042322213
 20
2163.798427483702
 11
1776.332326601843
 21
2165.674627722688
 72
     1
 10
1776.332326601843
 20
2165.674627722688
 11
1775.404561775624
 21
2167.403205522745
 72
     1
 10
1775.404561775624
 20
2167.403205522745
 11
1774.162948543655
 21
2168.918704026474
 72
     1
 10
1774.162948543655
 20
2168.918704026474
 11
1772.649172588806
 21
2170.162556571986
 72
     1
 10
1772.649172588806
 20
2170.162556571986
 11
1770.920767043637
 21
2171.086187280894
 72
     1
 10
1770.920767043637
 20
2171.086187280894
 11
1769.0438777851
 21
2171.65531743051
 72
     1
 10
1769.0438777851
 20
2171.65531743051
 11
1767.092918924765
 21
2171.847553885404
 72
     1
 10
1307.091063929794
 20
2171.847553885404
 11
1767.092918924765
 21
2171.847553885404
 72
     1
 10
1777.045117327965
 20
2065.156838183752
 11
1777.090937128146
 21
2066.136451731228
 72
     1
 10
1776.90042322213
 20
2064.185665125784
 11
1777.045117327965
 21
2065.156838183752
 72
     1
 10
1776.660299908401
 20
2063.23430137992
 11
1776.90042322213
 21
2064.185665125784
 72
     1
 10
1776.332326601843
 20
2062.30998165146
 11
1776.660299908401
 21
2063.23430137992
 72
     1
 10
1775.908924087389
 20
2061.422352214121
 11
1776.332326601843
 21
2062.30998165146
 72
     1
 10
1775.404561775624
 20
2060.581576106291
 11
1775.908924087389
 21
2061.422352214121
 72
     1
 10
1774.822340254528
 20
2059.792820974606
 11
1775.404561775624
 21
2060.581576106291
 72
     1
 10
1774.162948543655
 20
2059.065388583012
 11
1774.822340254528
 21
2059.792820974606
 72
     1
 10
1774.162948543655
 20
2059.065388583012
 11
1579.518714826353
 21
1864.420465846159
 72
     1
 10
1305.140105069458
 20
2171.65531743051
 11
1307.091063929794
 21
2171.847553885404
 72
     1
 10
1303.264421595137
 20
2171.08584277112
 11
1305.140105069458
 21
2171.65531743051
 72
     1
 10
1301.535154775527
 20
2170.162212062209
 11
1303.264421595137
 21
2171.08584277112
 72
     1
 10
1300.018967252248
 20
2168.918359516696
 11
1301.535154775527
 21
2170.162212062209
 72
     1
 10
1298.775975981176
 20
2167.403205522745
 11
1300.018967252248
 21
2168.918359516696
 72
     1
 10
1297.851483997827
 20
2165.674627722688
 11
1298.775975981176
 21
2167.403205522745
 72
     1
 10
1297.282353848213
 20
2163.798427483702
 11
1297.851483997827
 21
2165.674627722688
 72
     1
 10
1297.090806412869
 20
2161.847985388032
 11
1297.282353848213
 21
2163.798427483702
 72
     1
 10
1297.090806412869
 20
2161.847985388032
 11
1297.090806412869
 21
2066.136451731228
 72
     1
 10
1297.139554546144
 20
2065.156838183752
 11
1297.090806412869
 21
2066.136451731228
 72
     1
 10
1297.282353848213
 20
2064.185320616007
 11
1297.139554546144
 21
2065.156838183752
 72
     1
 10
1297.520926867951
 20
2063.23430137992
 11
1297.282353848213
 21
2064.185320616007
 72
     1
 10
1297.851483997827
 20
2062.30998165146
 11
1297.520926867951
 21
2063.23430137992
 72
     1
 10
1298.271613669411
 20
2061.422352214121
 11
1297.851483997827
 21
2062.30998165146
 72
     1
 10
1298.775975981176
 20
2060.581231596516
 11
1298.271613669411
 21
2061.422352214121
 72
     1
 10
1299.360264560926
 20
2059.79247646483
 11
1298.775975981176
 21
2060.581231596516
 72
     1
 10
1300.018967252248
 20
2059.065388583012
 11
1299.360264560926
 21
2059.79247646483
 72
     1
 10
1300.018967252248
 20
2059.065388583012
 11
1494.665268028205
 21
1864.420465846159
 72
     1
 10
1494.665268028205
 20
1864.420465846159
 11
1498.124146177199
 21
1861.222037087667
 72
     1
 10
1498.124146177199
 20
1861.222037087667
 11
1501.824181169251
 21
1858.306106345328
 72
     1
 10
1501.824181169251
 20
1858.306106345328
 11
1505.741774084716
 21
1855.688865578605
 72
     1
 10
1505.741774084716
 20
1855.688865578605
 11
1509.851947964852
 21
1853.386162237184
 72
     1
 10
1509.851947964852
 20
1853.386162237184
 11
1514.130414870464
 21
1851.413499260975
 72
     1
 10
1514.130414870464
 20
1851.413499260975
 11
1518.550475293929
 21
1849.783623511682
 72
     1
 10
1518.550475293929
 20
1849.783623511682
 11
1523.085257472734
 21
1848.503425184824
 72
     1
 10
1523.085257472734
 20
1848.503425184824
 11
1527.705478075936
 21
1847.586340161655
 72
     1
 10
1527.705478075936
 20
1847.586340161655
 11
1532.383920831248
 21
1847.031679422623
 72
     1
 10
1532.383920831248
 20
1847.031679422623
 11
1537.090613388176
 21
1846.846677673021
 72
     1
 10
1537.090613388176
 20
1846.846677673021
 11
1541.798683984206
 21
1847.031679422623
 72
     1
 10
1541.798683984206
 20
1847.031679422623
 11
1546.478160268845
 21
1847.586340161655
 72
     1
 10
1546.478160268845
 20
1847.586340161655
 11
1551.099069891599
 21
1848.503425184824
 72
     1
 10
1551.099069891599
 20
1848.503425184824
 11
1555.633163050853
 21
1849.783623511682
 72
     1
 10
1555.633163050853
 20
1849.783623511682
 11
1560.052534454766
 21
1851.413499260975
 72
     1
 10
1560.052534454766
 20
1851.413499260975
 11
1564.33169037993
 21
1853.386162237184
 72
     1
 10
1564.33169037993
 20
1853.386162237184
 11
1568.442381024731
 21
1855.688865578605
 72
     1
 10
1568.442381024731
 20
1855.688865578605
 11
1572.357734626654
 21
1858.306106345328
 72
     1
 10
1572.357734626654
 20
1858.306106345328
 11
1576.058803148032
 21
1861.222037087667
 72
     1
 10
1576.058803148032
 20
1861.222037087667
 11
1579.518714826353
 21
1864.420465846159
 97
       57
330
28FE
330
290A
330
290B
330
290C
330
290D
330
290E
330
290F
330
2910
330
2911
330
2909
330
2919
330
2918
330
2917
330
2916
330
2915
330
2914
330
2913
330
2912
330
291A
330
28FD
330
28FC
330
28FB
330
28FA
330
28F9
330
28F8
330
28F7
330
28F6
330
2908
330
2906
330
2905
330
2904
330
2903
330
2902
330
2901
330
2900
330
28FF
330
2907
330
291B
330
291C
330
291D
330
291E
330
291F
330
2920
330
2921
330
2922
330
2923
330
2924
330
2925
330
2926
330
2927
330
2928
330
2929
330
292A
330
292B
330
292C
330
292D
330
292E
 75
     0
 76
     1
 52
0.0
 41
5.0
 77
     0
 78
     1
 53
45.0
 43
-4202.195810000174
 44
8721.620095212395
 45
-11.22532015133644
 46
11.22532015133644
 79
     0
 98
        1
 10
-4202.195810000174
 20
8721.620095212395
1001
ACAD
1010
0.0
1020
0.0
1030
0.0
  0
CIRCLE
  5
2943
330
A
100
AcDbEntity
  8
HIDDEN
  6
HIDDEN
 48
0.5
100
AcDbCircle
 10
1536.813832335133
 20
2127.052325703271
 30
0.0
 40
17.50109652755145
  0
MTEXT
  5
2944
330
A
100
AcDbEntity
  8
Dim
  6
Continuous
100
AcDbMText
 10
1168.071302386252
 20
1915.700573789079
 30
0.0
 40
24.0
 41
0.0
 46
0.0
 71
     9
 72
     1
  1
R10
  7
ＭＳ ゴシック
 73
     1
 44
0.25
  0
LINE
  5
2945
330
A
100
AcDbEntity
  8
Dim
  6
Continuous
100
AcDbLine
 10
1117.842210600002
 20
1901.554157327944
 30
0.0
 11
1174.483859284718
 21
1901.554157327944
 31
0.0
  0
LINE
  5
2946
330
A
100
AcDbEntity
  8
Dim
  6
Continuous
100
AcDbLine
 10
1174.483859284718
 20
1901.554157327944
 30
0.0
 11
1297.851483997827
 21
2062.30998165146
 31
0.0
  0
LINE
  5
2947
330
A
100
AcDbEntity
  8
Dim
  6
Continuous
100
AcDbLine
 10
1117.842210600002
 20
2229.08992382178
 30
0.0
 11
1177.951715326639
 21
2229.08992382178
 31
0.0
  0
LINE
  5
2948
330
A
100
AcDbEntity
  8
Dim
  6
Continuous
100
AcDbLine
 10
1177.951715326639
 20
2229.08992382178
 30
0.0
 11
1301.535154775527
 21
2170.162212062209
 31
0.0
  0
MTEXT
  5
2949
330
A
100
AcDbEntity
  8
Dim
390
1D
100
AcDbMText
 10
1302.792105336581
 20
1508.970087512741
 30
0.0
 40
24.0
 41
789.9999999999998
 46
151.9402781481255
 71
     1
 72
     1
  1
{\pxr0.447879;\fＭＳ ゴシック|b0|i0|c1|p0;※こちらの切込寸法は参考寸法です。\P\pr0;　製品に付属している型紙とは\P　一部寸法が異なりますので\P　加工を行う際はご注意ください。}
  7
ＭＳ ゴシック
 73
     1
 44
1.043768984567712
1001
ACAD
1000
ACAD_MTEXT_DEFINED_HEIGHT_BEGIN
1070
    46
1040
151.9402781481255
1000
ACAD_MTEXT_DEFINED_HEIGHT_END
  0
MTEXT
  5
294A
330
A
100
AcDbEntity
  8
Dim
390
1D
100
AcDbMText
 10
1389.143247448774
 20
2356.261621476791
 30
0.0
 40
24.4326171875
 41
0.0
 46
27.413396484375
 71
     1
 72
     1
  1
{カウンター切込寸法}
  7
ＭＳ ゴシック
 73
     1
 44
0.7828267384257843
1001
ACAD
1000
ACAD_MTEXT_DEFINED_HEIGHT_BEGIN
1070
    46
1040
27.413396484375
1000
ACAD_MTEXT_DEFINED_HEIGHT_END
  0
DIMENSION
  5
2999
330
A
100
AcDbEntity
  8
Dim
100
AcDbDimension
  2
*D46
 10
1252.729715565147
 20
933.8274519867621
 30
0.0
 11
1252.729715565147
 21
935.3274519867621
 31
0.0
 70
   160
 71
     5
 42
2.999999999999989
 73
     0
 74
     0
 75
     0
  3
JIS
100
AcDbAlignedDimension
 13
1319.113171082839
 23
936.8274519867621
 33
0.0
 14
1499.961831858368
 24
933.8274519867621
 34
0.0
 50
90.0
100
AcDbRotatedDimension
1001
ACAD
1000
DSTYLE
1002
{
1070
   179
1070
     0
1070
   271
1070
     0
1070
    43
1040
25.0
1070
    44
1040
0.0
1070
    42
1040
25.0
1002
}
  0
DIMENSION
  5
29BD
330
A
100
AcDbEntity
  8
Dim
100
AcDbDimension
  2
*D47
 10
1744.054363477641
 20
1141.157378349183
 30
0.0
 11
1773.554363477641
 21
1163.373686942933
 31
0.0
 70
    32
 71
     5
 42
59.0
 73
     0
 74
     0
 75
     0
  3
JIS
100
AcDbAlignedDimension
 13
1803.054363477641
 23
1053.813656497033
 33
0.0
 14
1744.054363477641
 24
1053.813656497033
 34
0.0
100
AcDbRotatedDimension
1001
ACAD
1000
DSTYLE
1002
{
1070
   179
1070
     0
1070
   271
1070
     0
1070
    43
1040
25.0
1070
    44
1040
0.0
1070
    42
1040
25.0
1002
}
  0
DIMENSION
  5
29CD
330
A
100
AcDbEntity
  8
Dim
100
AcDbDimension
  2
*D48
 10
1064.947809694109
 20
898.8274519867621
 30
0.0
 11
1042.731501100359
 21
977.8274519867621
 31
0.0
 70
    32
 71
     5
 42
158.0
 73
     0
 74
     0
 75
     0
  3
JIS
100
AcDbAlignedDimension
 13
950.1951906190075
 23
1056.827451986762
 33
0.0
 14
685.3106131438647
 24
898.8274519867621
 34
0.0
 50
90.0
100
AcDbRotatedDimension
1001
ACAD
1000
DSTYLE
1002
{
1070
   179
1070
     0
1070
   271
1070
     0
1070
    43
1040
25.0
1070
    44
1040
0.0
1070
    42
1040
25.0
1002
}
  0
LINE
  5
29F5
330
A
100
AcDbEntity
  8
MODEL
100
AcDbLine
 10
1501.83558342852
 20
930.5692500710309
 30
0.0
 11
1555.146456706781
 21
930.5692500710309
 31
0.0
  0
LINE
  5
29F7
330
A
100
AcDbEntity
  8
MODEL
100
AcDbLine
 10
1501.83558342852
 20
901.902506367094
 30
0.0
 11
1555.146456706781
 21
901.902506367094
 31
0.0
  0
LINE
  5
29F8
330
A
100
AcDbEntity
  8
MODEL
100
AcDbLine
 10
1504.052357177986
 20
930.5692500710309
 30
0.0
 11
1504.052357177986
 21
901.902506367094
 31
0.0
  0
LINE
  5
29F9
330
A
100
AcDbEntity
  8
MODEL
100
AcDbLine
 10
1552.929682957315
 20
930.5692500710309
 30
0.0
 11
1552.929682957315
 21
901.902506367094
 31
0.0
  0
LINE
  5
29FA
330
A
100
AcDbEntity
  8
MODEL
  6
Continuous
100
AcDbLine
 10
1555.146456706781
 20
901.902506367094
 30
0.0
 11
1555.146456706781
 21
898.7358782190624
 31
0.0
  0
LINE
  5
29FB
330
A
100
AcDbEntity
  8
MODEL
  6
Continuous
100
AcDbLine
 10
1501.83558342852
 20
901.902506367094
 30
0.0
 11
1501.83558342852
 21
898.7358782190624
 31
0.0
  0
LINE
  5
29FF
102
{ACAD_REACTORS
330
2A09
102
}
330
A
100
AcDbEntity
  8
MODEL
100
AcDbLine
 10
623.5442672294517
 20
930.5692500710309
 30
0.0
 11
676.8551405077127
 21
930.5692500710309
 31
0.0
  0
LINE
  5
2A00
102
{ACAD_REACTORS
330
2A09
102
}
330
A
100
AcDbEntity
  8
MODEL
  6
Continuous
100
AcDbLine
 10
676.8551405077127
 20
933.7358782190624
 30
0.0
 11
676.8551405077127
 21
930.5692500710309
 31
0.0
  0
LINE
  5
2A01
102
{ACAD_REACTORS
330
2A09
102
}
330
A
100
AcDbEntity
  8
MODEL
  6
Continuous
100
AcDbLine
 10
623.5442672294517
 20
933.7358782190624
 30
0.0
 11
676.8551405077127
 21
933.7358782190624
 31
0.0
  0
LINE
  5
2A02
102
{ACAD_REACTORS
330
2A09
102
}
330
A
100
AcDbEntity
  8
MODEL
  6
Continuous
100
AcDbLine
 10
623.5442672294517
 20
933.7358782190624
 30
0.0
 11
623.5442672294517
 21
930.5692500710309
 31
0.0
  0
LINE
  5
2A03
102
{ACAD_REACTORS
330
2A09
102
}
330
A
100
AcDbEntity
  8
MODEL
100
AcDbLine
 10
625.7610409789173
 20
930.5692500710309
 30
0.0
 11
625.7610409789173
 21
901.902506367094
 31
0.0
  0
LINE
  5
2A04
102
{ACAD_REACTORS
330
2A09
102
}
330
A
100
AcDbEntity
  8
MODEL
100
AcDbLine
 10
674.6383667582469
 20
930.5692500710309
 30
0.0
 11
674.6383667582469
 21
901.902506367094
 31
0.0
  0
LINE
  5
2A05
102
{ACAD_REACTORS
330
2A09
102
}
330
A
100
AcDbEntity
  8
MODEL
  6
Continuous
100
AcDbLine
 10
676.8551405077127
 20
898.7358782190624
 30
0.0
 11
623.5442672294517
 21
898.7358782190624
 31
0.0
  0
LINE
  5
2A06
102
{ACAD_REACTORS
330
2A09
102
}
330
A
100
AcDbEntity
  8
MODEL
100
AcDbLine
 10
623.5442672294517
 20
901.902506367094
 30
0.0
 11
676.8551405077127
 21
901.902506367094
 31
0.0
  0
LINE
  5
2A07
102
{ACAD_REACTORS
330
2A09
102
}
330
A
100
AcDbEntity
  8
MODEL
  6
Continuous
100
AcDbLine
 10
676.8551405077127
 20
901.902506367094
 30
0.0
 11
676.8551405077127
 21
898.7358782190624
 31
0.0
  0
LINE
  5
2A08
102
{ACAD_REACTORS
330
2A09
102
}
330
A
100
AcDbEntity
  8
MODEL
  6
Continuous
100
AcDbLine
 10
623.5442672294517
 20
901.902506367094
 30
0.0
 11
623.5442672294517
 21
898.7358782190624
 31
0.0
  0
VIEWPORT
  5
349
330
B
100
AcDbEntity
 67
     1
  8
0
100
AcDbViewport
 10
202.5
 20
128.5
 30
0.0
 40
486.0
 41
308.4
 68
     1
 69
     1
 12
202.5
 22
128.5
 13
0.0
 23
0.0
 14
0.5
 24
0.5
 15
0.0
 25
0.0
 16
0.0
 26
0.0
 36
1.0
 17
0.0
 27
0.0
 37
0.0
 42
50.0
 43
0.0
 44
0.0
 45
308.4
 50
0.0
 51
0.0
 72
   100
 90
   557152
  1

281
     0
 71
     1
 74
     0
110
0.0
120
0.0
130
0.0
111
1.0
121
0.0
131
0.0
112
0.0
122
1.0
132
0.0
 79
     0
146
0.0
170
     0
 61
     5
348
26C
292
     1
282
     1
141
0.0
142
0.0
 63
   256
  0
VIEWPORT
  5
34A
330
B
100
AcDbEntity
 67
     1
  8
0
100
AcDbViewport
 10
202.5
 20
128.5
 30
0.0
 40
324.0
 41
205.6
 68
     2
 69
     2
 12
986.6781359294573
 22
1427.077061889956
 13
0.0
 23
0.0
 14
0.5
 24
0.5
 15
0.0
 25
0.0
 16
0.0
 26
0.0
 36
1.0
 17
0.0
 27
0.0
 37
0.0
 42
50.0
 43
0.0
 44
0.0
 45
2890.021615685494
 50
0.0
 51
0.0
 72
   100
 90
   557152
  1

281
     0
 71
     1
 74
     0
110
0.0
120
0.0
130
0.0
111
1.0
121
0.0
131
0.0
112
0.0
122
1.0
132
0.0
 79
     0
146
0.0
170
     0
 61
     5
348
26C
292
     1
282
     1
141
0.0
142
0.0
 63
   256
  0
ENDSEC
  0
SECTION
  2
OBJECTS
  0
DICTIONARY
  5
19
330
0
100
AcDbDictionary
281
     1
  3
ACAD_COLOR
350
38F
  3
ACAD_DETAILVIEWSTYLE
350
8CF
  3
ACAD_FIELDLIST
350
BA6
  3
ACAD_GROUP
350
1A
  3
ACAD_IMAGE_VARS
350
27B
  3
ACAD_LAYOUT
350
1E
  3
ACAD_MATERIAL
350
263
  3
ACAD_MLEADERSTYLE
350
336
  3
ACAD_MLINESTYLE
350
1B
  3
ACAD_PLOTSETTINGS
350
22
  3
ACAD_PLOTSTYLENAME
350
1F
  3
ACAD_SCALELIST
350
241
  3
ACAD_SECTIONVIEWSTYLE
350
8D0
  3
ACAD_TABLESTYLE
350
278
  3
ACAD_VISUALSTYLE
350
267
  3
ACDB_RECOMPOSE_DATA
350
2FC0
  3
AcDbVariableDictionary
350
330
  3
APPDATA
350
27A
  3
DimOffsetDictionary
350
C08
  0
SUN
  5
8C2
330
15
100
AcDbSun
 90
        1
290
     0
 63
     7
421
 16777215
 40
1.0
291
     1
 91
  2455826
 92
 54000000
292
     0
 70
     2
 71
   256
280
     1
  0
DICTIONARY
  5
2E1
330
2
100
AcDbDictionary
280
     1
281
     1
  3
ACAD_LAYERSTATES
360
2E2
  3
ACLYDICTIONARY
360
BFE
  0
DICTIONARY
  5
BDC
330
BDB
100
AcDbDictionary
280
     1
281
     1
  3
ACAD_FIELD
360
BE4
  0
DICTIONARY
  5
2596
330
2595
100
AcDbDictionary
280
     1
281
     1
  3
ACAD_DIMASSOC
360
2597
  0
DICTIONARY
  5
2606
330
2605
100
AcDbDictionary
280
     1
281
     1
  3
ACAD_DIMASSOC
360
2607
  0
DICTIONARY
  5
2935
330
2934
100
AcDbDictionary
280
     1
281
     1
  0
DICTIONARY
  5
2938
330
2937
100
AcDbDictionary
280
     1
281
     1
  3
ACAD_DIMASSOC
360
2939
  0
DICTIONARY
  5
293B
330
293A
100
AcDbDictionary
280
     1
281
     1
  3
ACAD_DIMASSOC
360
293C
  0
DICTIONARY
  5
38F
102
{ACAD_REACTORS
330
19
102
}
330
19
100
AcDbDictionary
281
     1
  0
DICTIONARY
  5
8CF
102
{ACAD_REACTORS
330
19
102
}
330
19
100
AcDbDictionary
281
     1
  0
FIELDLIST
  5
BA6
102
{ACAD_REACTORS
330
19
102
}
330
19
100
AcDbIdSet
 90
        2
330
BDF
330
BDE
100
AcDbFieldList
  0
DICTIONARY
  5
1A
102
{ACAD_REACTORS
330
19
102
}
330
19
100
AcDbDictionary
281
     1
  3
*A1
350
2A09
  0
RASTERVARIABLES
  5
27B
102
{ACAD_REACTORS
330
19
102
}
330
19
100
AcDbRasterVariables
 90
        0
 70
     1
 71
     1
 72
     1
  0
DICTIONARY
  5
1E
102
{ACAD_REACTORS
330
19
102
}
330
19
100
AcDbDictionary
281
     1
  3
Layout1
350
21
  3
Model
350
20
  0
DICTIONARY
  5
263
102
{ACAD_REACTORS
330
19
102
}
330
19
100
AcDbDictionary
281
     1
  3
ByBlock
350
1AFC
  3
ByLayer
350
264
  3
Global
350
266
  0
DICTIONARY
  5
336
102
{ACAD_REACTORS
330
19
102
}
330
19
100
AcDbDictionary
281
     1
  3
Standard
350
8D1
  0
DICTIONARY
  5
1B
102
{ACAD_REACTORS
330
19
102
}
330
19
100
AcDbDictionary
281
     1
  3
Standard
350
1C
  0
DICTIONARY
  5
22
102
{ACAD_REACTORS
330
19
102
}
330
19
100
AcDbDictionary
281
     1
  0
ACDBDICTIONARYWDFLT
  5
1F
102
{ACAD_REACTORS
330
19
102
}
330
19
100
AcDbDictionary
281
     1
  3
Normal
350
1D
100
AcDbDictionaryWithDefault
340
1D
  0
DICTIONARY
  5
241
102
{ACAD_REACTORS
330
19
102
}
330
19
100
AcDbDictionary
281
     1
  3
A0
350
242
  3
A1
350
243
  3
A2
350
244
  3
A3
350
245
  3
A4
350
246
  3
A5
350
247
  3
A6
350
248
  3
A7
350
249
  3
A8
350
24A
  3
A9
350
24B
  3
B0
350
24C
  3
B1
350
24D
  3
B2
350
24E
  3
B3
350
24F
  3
B4
350
250
  3
B5
350
251
  3
B6
350
252
  3
B7
350
253
  3
B8
350
254
  3
B9
350
255
  3
C0
350
256
  3
C1
350
257
  3
C2
350
258
  3
C3
350
259
  3
C4
350
25A
  3
C5
350
25B
  3
C6
350
25C
  3
C7
350
25D
  3
C8
350
25E
  3
C9
350
25F
  3
D0
350
260
  3
D1
350
261
  3
D2
350
262
  0
DICTIONARY
  5
8D0
102
{ACAD_REACTORS
330
19
102
}
330
19
100
AcDbDictionary
281
     1
  0
DICTIONARY
  5
278
102
{ACAD_REACTORS
330
19
102
}
330
19
100
AcDbDictionary
281
     1
  3
Standard
350
279
  0
DICTIONARY
  5
267
102
{ACAD_REACTORS
330
19
102
}
330
19
100
AcDbDictionary
281
     1
  3
2dWireframe
350
26C
  3
3D Hidden
350
26E
  3
3dWireframe
350
26D
  3
Basic
350
26F
  3
Brighten
350
273
  3
ColorChange
350
277
  3
Conceptual
350
271
  3
Dim
350
272
  3
EdgeColorOff
350
8BC
  3
Facepattern
350
276
  3
Flat
350
268
  3
FlatWithEdges
350
269
  3
Gouraud
350
26A
  3
GouraudWithEdges
350
26B
  3
Hidden
350
8B9
  3
JitterOff
350
8BA
  3
Linepattern
350
275
  3
OverhangOff
350
8BB
  3
Realistic
350
270
  3
Shaded
350
8C1
  3
Shaded with edges
350
8C0
  3
Shades of Gray
350
8BD
  3
Sketchy
350
8BE
  3
Thicken
350
274
  3
Wireframe
350
8B8
  3
X-Ray
350
8BF
  0
XRECORD
  5
2FC0
102
{ACAD_REACTORS
330
19
102
}
330
19
100
AcDbXrecord
280
     1
 90
        1
330
279
  0
DICTIONARY
  5
330
102
{ACAD_REACTORS
330
19
102
}
330
19
100
AcDbDictionary
281
     1
  3
CANNOSCALE
350
331
  3
CMLEADERSTYLE
350
8DA
  3
CTABLESTYLE
350
335
  3
HPTRANSPARENCY
350
C07
  3
XCLIPFRAME
350
64A
  0
DICTIONARY
  5
27A
102
{ACAD_REACTORS
330
19
102
}
330
19
100
AcDbDictionary
281
     1
  0
DICTIONARY
  5
C08
102
{ACAD_REACTORS
330
19
102
}
330
19
100
AcDbDictionary
281
     1
  3
DIMRAILANGLE
350
C0B
  3
DIMRAILFIRSTOFFSET
350
C09
  3
DIMRAILOFFSET
350
C0A
  3
DIMRAILSENABLED
350
C0C
  0
DICTIONARY
  5
2E2
102
{ACAD_REACTORS
330
2E1
102
}
330
2E1
100
AcDbDictionary
281
     1
  0
DICTIONARY
  5
BFE
102
{ACAD_REACTORS
330
2E1
102
}
330
2E1
100
AcDbDictionary
281
     1
1001
ACAD
1000
<All
  0
DICTIONARY
  5
BE4
102
{ACAD_REACTORS
330
BDC
102
}
330
BDC
100
AcDbDictionary
280
     1
281
     1
  3
TEXT
360
BDE
  0
DIMASSOC
  5
2597
102
{ACAD_REACTORS
330
2596
102
}
330
2596
100
AcDbDimAssoc
330
2595
 90
        1
 70
     0
 71
     1
  1
AcDbOsnapPointRef
 72
     1
331
2244
 73
     0
 91
        0
 40
0.0
 10
0.0
 20
0.0
 30
0.0
 75
     0
  0
DIMASSOC
  5
2607
102
{ACAD_REACTORS
330
2606
102
}
330
2606
100
AcDbDimAssoc
330
2605
 90
        1
 70
     0
 71
     1
  1
AcDbOsnapPointRef
 72
    13
331
2169
 73
     0
 91
        0
 40
0.0
 10
0.0
 20
0.0
 30
0.0
 75
     0
  0
DIMASSOC
  5
2939
102
{ACAD_REACTORS
330
2938
102
}
330
2938
100
AcDbDimAssoc
330
2937
 90
       12
 70
     0
 71
     1
  1
AcDbOsnapPointRef
 72
    13
331
291A
 73
     0
 91
        0
 40
0.0
 10
0.0
 20
0.0
 30
0.0
 75
     0
  1
AcDbOsnapPointRef
 72
     1
331
291A
 73
     0
 91
        0
 40
0.0
 10
0.0
 20
0.0
 30
0.0
 75
     0
  0
DIMASSOC
  5
293C
102
{ACAD_REACTORS
330
293B
102
}
330
293B
100
AcDbDimAssoc
330
293A
 90
        3
 70
     0
 71
     1
  1
AcDbOsnapPointRef
 72
     1
331
2911
 73
     0
 91
        0
 40
0.0
 10
0.0
 20
0.0
 30
0.0
 75
     0
  1
AcDbOsnapPointRef
 72
     1
331
2924
 73
     0
 91
        0
 40
0.0
 10
0.0
 20
0.0
 30
0.0
 75
     0
  0
GROUP
  5
2A09
102
{ACAD_REACTORS
330
1A
102
}
330
1A
100
AcDbGroup
300

 70
     1
 71
     1
340
29FF
340
2A00
340
2A01
340
2A02
340
2A03
340
2A04
340
2A05
340
2A06
340
2A07
340
2A08
  0
LAYOUT
  5
21
102
{ACAD_REACTORS
330
1E
102
}
330
1E
100
AcDbPlotSettings
  1

  2
none_device
  4
ISO_A3_(420.00_x_297.00_MM)
  6

 40
7.5
 41
20.0
 42
7.5
 43
20.0
 44
420.0
 45
297.0
 46
0.0
 47
0.0
 48
0.0
 49
0.0
140
0.0
141
0.0
142
1.0
143
1.0
 70
     0
 72
     1
 73
     0
 74
     0
  7

 75
     0
 76
     0
 77
     2
 78
   300
147
1.0
148
0.0
149
0.0
100
AcDbLayout
  1
Layout1
 70
     0
 71
     0
 10
0.0
 20
0.0
 11
0.0
 21
0.0
 12
0.0
 22
0.0
 32
0.0
 14
0.0
 24
0.0
 34
0.0
 15
0.0
 25
0.0
 35
0.0
146
0.0
 13
0.0
 23
0.0
 33
0.0
 16
0.0
 26
0.0
 36
0.0
 17
0.0
 27
0.0
 37
0.0
 76
     0
330
B
331
349
  0
LAYOUT
  5
20
102
{ACAD_REACTORS
330
1E
102
}
330
1E
100
AcDbPlotSettings
  1

  2
none_device
  4
ISO_A3_(420.00_x_297.00_MM)
  6

 40
7.5
 41
20.0
 42
7.5
 43
20.0
 44
420.0
 45
297.0
 46
0.0
 47
0.0
 48
0.0
 49
0.0
140
0.0
141
0.0
142
1.0
143
1.0
 70
  1024
 72
     1
 73
     0
 74
     0
  7

 75
     0
 76
     0
 77
     2
 78
   300
147
1.0
148
0.0
149
0.0
100
AcDbLayout
  1
Model
 70
     0
 71
     1
 10
0.0
 20
0.0
 11
2100.0
 21
2970.0
 12
0.0
 22
0.0
 32
0.0
 14
0.0
 24
0.0
 34
0.0
 15
2100.0
 25
2970.0
 35
0.0
146
0.0
 13
0.0
 23
0.0
 33
0.0
 16
0.0
 26
0.0
 36
0.0
 17
0.0
 27
0.0
 37
0.0
 76
     0
330
A
331
15
  0
MATERIAL
  5
1AFC
102
{ACAD_REACTORS
330
263
102
}
330
263
100
AcDbMaterial
  1
ByBlock
 72
     1
 94
      127
  0
MATERIAL
  5
264
102
{ACAD_REACTORS
330
263
102
}
330
263
100
AcDbMaterial
  1
ByLayer
 72
     1
 94
      127
  0
MATERIAL
  5
266
102
{ACAD_REACTORS
330
263
102
}
330
263
100
AcDbMaterial
  1
Global
 72
     1
 94
      127
  0
MLEADERSTYLE
  5
8D1
102
{ACAD_REACTORS
330
336
102
}
330
336
100
AcDbMLeaderStyle
170
     2
171
     1
172
     0
 90
        2
 40
0.0
 41
0.0
173
     1
 91
-1056964608
340
11
 92
       -2
290
     1
 42
2.0
291
     1
 43
8.0
  3
Standard
341
0
 44
4.0
300

342
17
174
     1
178
     6
175
     1
176
     0
 93
-1056964608
 45
4.0
292
     0
297
     0
 46
4.0
343
0
 94
-1056964608
 47
1.0
 49
1.0
140
1.0
293
     1
141
0.0
294
     1
177
     0
142
1.0
295
     0
296
     0
143
3.75
1001
ACAD_MLEADERVER
1070
     2
  0
MLINESTYLE
  5
1C
102
{ACAD_REACTORS
330
1B
102
}
330
1B
100
AcDbMlineStyle
  2
Standard
 70
     0
  3

 62
     0
 51
90.0
 52
90.0
 71
     2
 49
0.5
 62
   256
  6
BYLAYER
 49
-0.5
 62
   256
  6
BYLAYER
  0
ACDBPLACEHOLDER
  5
1D
102
{ACAD_REACTORS
330
1F
102
}
330
1F
  0
SCALE
  5
242
102
{ACAD_REACTORS
330
241
102
}
330
241
100
AcDbScale
 70
     0
300
1:1
140
1.0
141
1.0
290
     1
  0
SCALE
  5
243
102
{ACAD_REACTORS
330
241
102
}
330
241
100
AcDbScale
 70
     0
300
1:2
140
1.0
141
2.0
290
     0
  0
SCALE
  5
244
102
{ACAD_REACTORS
330
241
102
}
330
241
100
AcDbScale
 70
     0
300
1:4
140
1.0
141
4.0
290
     0
  0
SCALE
  5
245
102
{ACAD_REACTORS
330
241
102
}
330
241
100
AcDbScale
 70
     0
300
1:5
140
1.0
141
5.0
290
     0
  0
SCALE
  5
246
102
{ACAD_REACTORS
330
241
102
}
330
241
100
AcDbScale
 70
     0
300
1:8
140
1.0
141
8.0
290
     0
  0
SCALE
  5
247
102
{ACAD_REACTORS
330
241
102
}
330
241
100
AcDbScale
 70
     0
300
1:10
140
1.0
141
10.0
290
     0
  0
SCALE
  5
248
102
{ACAD_REACTORS
330
241
102
}
330
241
100
AcDbScale
 70
     0
300
1:16
140
1.0
141
16.0
290
     0
  0
SCALE
  5
249
102
{ACAD_REACTORS
330
241
102
}
330
241
100
AcDbScale
 70
     0
300
1:20
140
1.0
141
20.0
290
     0
  0
SCALE
  5
24A
102
{ACAD_REACTORS
330
241
102
}
330
241
100
AcDbScale
 70
     0
300
1:30
140
1.0
141
30.0
290
     0
  0
SCALE
  5
24B
102
{ACAD_REACTORS
330
241
102
}
330
241
100
AcDbScale
 70
     0
300
1:40
140
1.0
141
40.0
290
     0
  0
SCALE
  5
24C
102
{ACAD_REACTORS
330
241
102
}
330
241
100
AcDbScale
 70
     0
300
1:50
140
1.0
141
50.0
290
     0
  0
SCALE
  5
24D
102
{ACAD_REACTORS
330
241
102
}
330
241
100
AcDbScale
 70
     0
300
1:100
140
1.0
141
100.0
290
     0
  0
SCALE
  5
24E
102
{ACAD_REACTORS
330
241
102
}
330
241
100
AcDbScale
 70
     0
300
2:1
140
2.0
141
1.0
290
     0
  0
SCALE
  5
24F
102
{ACAD_REACTORS
330
241
102
}
330
241
100
AcDbScale
 70
     0
300
4:1
140
4.0
141
1.0
290
     0
  0
SCALE
  5
250
102
{ACAD_REACTORS
330
241
102
}
330
241
100
AcDbScale
 70
     0
300
8:1
140
8.0
141
1.0
290
     0
  0
SCALE
  5
251
102
{ACAD_REACTORS
330
241
102
}
330
241
100
AcDbScale
 70
     0
300
10:1
140
10.0
141
1.0
290
     0
  0
SCALE
  5
252
102
{ACAD_REACTORS
330
241
102
}
330
241
100
AcDbScale
 70
     0
300
100:1
140
100.0
141
1.0
290
     0
  0
SCALE
  5
253
102
{ACAD_REACTORS
330
241
102
}
330
241
100
AcDbScale
 70
     0
300
1/128" = 1'-0"
140
0.0078125
141
12.0
290
     0
  0
SCALE
  5
254
102
{ACAD_REACTORS
330
241
102
}
330
241
100
AcDbScale
 70
     0
300
1/64" = 1'-0"
140
0.015625
141
12.0
290
     0
  0
SCALE
  5
255
102
{ACAD_REACTORS
330
241
102
}
330
241
100
AcDbScale
 70
     0
300
1/32" = 1'-0"
140
0.03125
141
12.0
290
     0
  0
SCALE
  5
256
102
{ACAD_REACTORS
330
241
102
}
330
241
100
AcDbScale
 70
     0
300
1/16" = 1'-0"
140
0.0625
141
12.0
290
     0
  0
SCALE
  5
257
102
{ACAD_REACTORS
330
241
102
}
330
241
100
AcDbScale
 70
     0
300
3/32" = 1'-0"
140
0.09375
141
12.0
290
     0
  0
SCALE
  5
258
102
{ACAD_REACTORS
330
241
102
}
330
241
100
AcDbScale
 70
     0
300
1/8" = 1'-0"
140
0.125
141
12.0
290
     0
  0
SCALE
  5
259
102
{ACAD_REACTORS
330
241
102
}
330
241
100
AcDbScale
 70
     0
300
3/16" = 1'-0"
140
0.1875
141
12.0
290
     0
  0
SCALE
  5
25A
102
{ACAD_REACTORS
330
241
102
}
330
241
100
AcDbScale
 70
     0
300
1/4" = 1'-0"
140
0.25
141
12.0
290
     0
  0
SCALE
  5
25B
102
{ACAD_REACTORS
330
241
102
}
330
241
100
AcDbScale
 70
     0
300
3/8" = 1'-0"
140
0.375
141
12.0
290
     0
  0
SCALE
  5
25C
102
{ACAD_REACTORS
330
241
102
}
330
241
100
AcDbScale
 70
     0
300
1/2" = 1'-0"
140
0.5
141
12.0
290
     0
  0
SCALE
  5
25D
102
{ACAD_REACTORS
330
241
102
}
330
241
100
AcDbScale
 70
     0
300
3/4" = 1'-0"
140
0.75
141
12.0
290
     0
  0
SCALE
  5
25E
102
{ACAD_REACTORS
330
241
102
}
330
241
100
AcDbScale
 70
     0
300
1" = 1'-0"
140
1.0
141
12.0
290
     0
  0
SCALE
  5
25F
102
{ACAD_REACTORS
330
241
102
}
330
241
100
AcDbScale
 70
     0
300
1-1/2" = 1'-0"
140
1.5
141
12.0
290
     0
  0
SCALE
  5
260
102
{ACAD_REACTORS
330
241
102
}
330
241
100
AcDbScale
 70
     0
300
3" = 1'-0"
140
3.0
141
12.0
290
     0
  0
SCALE
  5
261
102
{ACAD_REACTORS
330
241
102
}
330
241
100
AcDbScale
 70
     0
300
6" = 1'-0"
140
6.0
141
12.0
290
     0
  0
SCALE
  5
262
102
{ACAD_REACTORS
330
241
102
}
330
241
100
AcDbScale
 70
     0
300
1'-0" = 1'-0"
140
12.0
141
12.0
290
     0
  0
TABLESTYLE
  5
279
102
{ACAD_REACTORS
330
278
102
}
102
{ACAD_XDICTIONARY
360
2FBE
102
}
330
278
100
AcDbTableStyle
  3
Standard
 70
     0
 71
     0
 40
0.06
 41
0.06
280
     0
281
     0
  7
Standard
140
4.5
170
     2
 62
     0
 63
   257
283
     0
 90
        4
 91
        0
  1

274
    -2
284
     1
 64
     0
275
    -2
285
     1
 65
     0
276
    -2
286
     1
 66
     0
277
    -2
287
     1
 67
     0
278
    -2
288
     1
 68
     0
279
    -2
289
     1
 69
     0
  7
Standard
140
6.0
170
     5
 62
     0
 63
   257
283
     0
 90
        4
 91
        0
  1

274
    -2
284
     1
 64
     0
275
    -2
285
     1
 65
     0
276
    -2
286
     1
 66
     0
277
    -2
287
     1
 67
     0
278
    -2
288
     1
 68
     0
279
    -2
289
     1
 69
     0
  7
Standard
140
4.5
170
     5
 62
     0
 63
   257
283
     0
 90
        4
 91
        0
  1

274
    -2
284
     1
 64
     0
275
    -2
285
     1
 65
     0
276
    -2
286
     1
 66
     0
277
    -2
287
     1
 67
     0
278
    -2
288
     1
 68
     0
279
    -2
289
     1
 69
     0
  0
VISUALSTYLE
  5
26C
102
{ACAD_REACTORS
330
267
102
}
330
267
100
AcDbVisualStyle
  2
2dWireframe
 70
     4
 71
     0
 72
     2
 73
     0
 90
        0
 40
-0.6
 41
-30.0
 62
     5
 63
     7
421
 16777215
 74
     1
 91
        4
 64
     7
 65
   257
 75
     1
175
     1
 42
1.0
 92
        0
 66
   257
 43
1.0
 76
     1
 77
     6
 78
     2
 67
     7
 79
     5
170
     0
171
     0
290
     0
174
     0
 93
        1
 44
0.0
173
     0
291
     0
 45
0.0
  0
VISUALSTYLE
  5
26E
102
{ACAD_REACTORS
330
267
102
}
330
267
100
AcDbVisualStyle
  2
3D Hidden
 70
     6
 71
     1
 72
     2
 73
     2
 90
        0
 40
-0.6
 41
-30.0
 62
     5
 63
     7
421
 16777215
 74
     2
 91
        2
 64
     7
 65
   257
 75
     2
175
     1
 42
40.0
 92
        0
 66
   257
 43
1.0
 76
     1
 77
     6
 78
     2
 67
     7
 79
     3
170
     0
171
     0
290
     0
174
     0
 93
        1
 44
0.0
173
     0
291
     0
 45
0.0
  0
VISUALSTYLE
  5
26D
102
{ACAD_REACTORS
330
267
102
}
330
267
100
AcDbVisualStyle
  2
3dWireframe
 70
     5
 71
     0
 72
     2
 73
     0
 90
        0
 40
-0.6
 41
-30.0
 62
     5
 63
     7
421
 16777215
 74
     1
 91
        4
 64
     7
 65
   257
 75
     1
175
     1
 42
1.0
 92
        0
 66
   257
 43
1.0
 76
     1
 77
     6
 78
     2
 67
     7
 79
     5
170
     0
171
     0
290
     0
174
     0
 93
        1
 44
0.0
173
     0
291
     0
 45
0.0
  0
VISUALSTYLE
  5
26F
102
{ACAD_REACTORS
330
267
102
}
330
267
100
AcDbVisualStyle
  2
Basic
 70
     7
 71
     1
 72
     0
 73
     1
 90
        0
 40
-0.6
 41
-30.0
 62
     5
 63
     7
421
 16777215
 74
     0
 91
        4
 64
     7
 65
   257
 75
     1
175
     1
 42
1.0
 92
        8
 66
     7
 43
1.0
 76
     1
 77
     6
 78
     2
 67
     7
 79
     5
170
     0
171
     0
290
     0
174
     0
 93
        1
 44
0.0
173
     0
291
     1
 45
0.0
  0
VISUALSTYLE
  5
273
102
{ACAD_REACTORS
330
267
102
}
330
267
100
AcDbVisualStyle
  2
Brighten
 70
    12
 71
     2
 72
     2
 73
     0
 90
        0
 40
-0.6
 41
-30.0
 62
     5
 63
     7
421
 16777215
 74
     1
 91
        4
 64
     7
 65
   257
 75
     1
175
     1
 42
1.0
 92
        8
 66
     7
 43
1.0
 76
     1
 77
     6
 78
     2
 67
     7
 79
     5
170
     0
171
     0
290
     0
174
     0
 93
        1
 44
50.0
173
     0
291
     1
 45
0.0
  0
VISUALSTYLE
  5
277
102
{ACAD_REACTORS
330
267
102
}
330
267
100
AcDbVisualStyle
  2
ColorChange
 70
    16
 71
     2
 72
     2
 73
     3
 90
        0
 40
-0.6
 41
-30.0
 62
     5
 63
     8
421
  8421504
 74
     1
 91
        4
 64
     7
 65
   257
 75
     1
175
     1
 42
1.0
 92
        8
 66
     8
424
  8421504
 43
1.0
 76
     1
 77
     6
 78
     2
 67
     7
 79
     5
170
     0
171
     0
290
     0
174
     0
 93
        1
 44
0.0
173
     0
291
     1
 45
0.0
  0
VISUALSTYLE
  5
271
102
{ACAD_REACTORS
330
267
102
}
330
267
100
AcDbVisualStyle
  2
Conceptual
 70
     9
 71
     3
 72
     2
 73
     0
 90
        0
 40
-0.6
 41
-30.0
 62
     5
 63
     7
421
 16777215
 74
     2
 91
        2
 64
     7
 65
   257
 75
     1
175
     1
 42
40.0
 92
        8
 66
     7
 43
1.0
 76
     1
 77
     6
 78
     2
 67
     7
 79
     3
170
     0
171
     0
290
     0
174
     0
 93
        1
 44
0.0
173
     0
291
     0
 45
0.0
  0
VISUALSTYLE
  5
272
102
{ACAD_REACTORS
330
267
102
}
330
267
100
AcDbVisualStyle
  2
Dim
 70
    11
 71
     2
 72
     2
 73
     0
 90
        0
 40
-0.6
 41
-30.0
 62
     5
 63
     7
421
 16777215
 74
     1
 91
        4
 64
     7
 65
   257
 75
     1
175
     1
 42
1.0
 92
        8
 66
     7
 43
1.0
 76
     1
 77
     6
 78
     2
 67
     7
 79
     5
170
     0
171
     0
290
     0
174
     0
 93
        1
 44
-50.0
173
     0
291
     1
 45
0.0
  0
VISUALSTYLE
  5
8BC
102
{ACAD_REACTORS
330
267
102
}
330
267
100
AcDbVisualStyle
  2
EdgeColorOff
 70
    22
 71
     2
 72
     2
 73
     0
 90
        0
 40
0.6
 41
30.0
 62
     5
 63
     7
421
 16777215
 74
     1
 91
        4
 64
     7
 65
   257
 75
     1
175
     1
 42
1.0
 92
        8
 66
     7
 43
1.0
 76
     1
 77
     6
 78
     2
 67
     7
 79
     5
170
     0
171
     0
290
     0
174
     0
 93
        1
 44
0.0
173
     0
291
     1
 45
0.0
  0
VISUALSTYLE
  5
276
102
{ACAD_REACTORS
330
267
102
}
330
267
100
AcDbVisualStyle
  2
Facepattern
 70
    15
 71
     2
 72
     2
 73
     0
 90
        0
 40
-0.6
 41
-30.0
 62
     5
 63
     7
421
 16777215
 74
     1
 91
        4
 64
     7
 65
   257
 75
     1
175
     1
 42
1.0
 92
        8
 66
     7
 43
1.0
 76
     1
 77
     6
 78
     2
 67
     7
 79
     5
170
     0
171
     0
290
     0
174
     0
 93
        1
 44
0.0
173
     0
291
     1
 45
0.0
  0
VISUALSTYLE
  5
268
102
{ACAD_REACTORS
330
267
102
}
330
267
100
AcDbVisualStyle
  2
Flat
 70
     0
 71
     2
 72
     1
 73
     1
 90
        2
 40
-0.6
 41
30.0
 62
     5
 63
     7
421
 16777215
 74
     0
 91
        4
 64
     7
 65
   257
 75
     1
175
     1
 42
1.0
 92
        8
 66
     7
 43
1.0
 76
     1
 77
     6
 78
     2
 67
     7
 79
     5
170
     0
171
     0
290
     0
174
     0
 93
       13
 44
0.0
173
     0
291
     1
 45
0.0
  0
VISUALSTYLE
  5
269
102
{ACAD_REACTORS
330
267
102
}
330
267
100
AcDbVisualStyle
  2
FlatWithEdges
 70
     1
 71
     2
 72
     1
 73
     1
 90
        2
 40
-0.6
 41
30.0
 62
     5
 63
     7
421
 16777215
 74
     1
 91
        4
 64
     7
 65
   257
 75
     1
175
     1
 42
1.0
 92
        0
 66
   257
 43
1.0
 76
     1
 77
     6
 78
     2
 67
     7
 79
     5
170
     0
171
     0
290
     0
174
     0
 93
       13
 44
0.0
173
     0
291
     1
 45
0.0
  0
VISUALSTYLE
  5
26A
102
{ACAD_REACTORS
330
267
102
}
330
267
100
AcDbVisualStyle
  2
Gouraud
 70
     2
 71
     2
 72
     2
 73
     1
 90
        2
 40
-0.6
 41
30.0
 62
     5
 63
     7
421
 16777215
 74
     0
 91
        4
 64
     7
 65
   257
 75
     1
175
     1
 42
1.0
 92
        0
 66
     7
 43
1.0
 76
     1
 77
     6
 78
     2
 67
     7
 79
     5
170
     0
171
     0
290
     0
174
     0
 93
       13
 44
0.0
173
     0
291
     1
 45
0.0
  0
VISUALSTYLE
  5
26B
102
{ACAD_REACTORS
330
267
102
}
330
267
100
AcDbVisualStyle
  2
GouraudWithEdges
 70
     3
 71
     2
 72
     2
 73
     1
 90
        2
 40
-0.6
 41
30.0
 62
     5
 63
     7
421
 16777215
 74
     1
 91
        4
 64
     7
 65
   257
 75
     1
175
     1
 42
1.0
 92
        0
 66
   257
 43
1.0
 76
     1
 77
     6
 78
     2
 67
     7
 79
     5
170
     0
171
     0
290
     0
174
     0
 93
       13
 44
0.0
173
     0
291
     1
 45
0.0
  0
VISUALSTYLE
  5
8B9
102
{ACAD_REACTORS
330
267
102
}
330
267
100
AcDbVisualStyle
  2
Hidden
 70
     6
 71
     1
 72
     2
 73
     2
 90
        0
 40
0.6
 41
30.0
 62
     5
 63
     7
421
 16777215
 74
     2
 91
        2
 64
     7
 65
   257
 75
     2
175
     1
 42
40.0
 92
        0
 66
   257
 43
1.0
 76
     1
 77
     6
 78
     2
 67
     7
 79
     3
170
     0
171
     0
290
     0
174
     0
 93
        1
 44
0.0
173
     0
291
     0
 45
0.0
  0
VISUALSTYLE
  5
8BA
102
{ACAD_REACTORS
330
267
102
}
330
267
100
AcDbVisualStyle
  2
JitterOff
 70
    20
 71
     2
 72
     2
 73
     0
 90
        0
 40
0.6
 41
30.0
 62
     5
 63
     7
421
 16777215
 74
     1
 91
        4
 64
     7
 65
   257
 75
     1
175
     1
 42
1.0
 92
       10
 66
     7
 43
1.0
 76
     1
 77
     6
 78
     2
 67
     7
 79
     5
170
     0
171
     0
290
     0
174
     0
 93
        1
 44
0.0
173
     0
291
     1
 45
0.0
  0
VISUALSTYLE
  5
275
102
{ACAD_REACTORS
330
267
102
}
330
267
100
AcDbVisualStyle
  2
Linepattern
 70
    14
 71
     2
 72
     2
 73
     0
 90
        0
 40
-0.6
 41
-30.0
 62
     5
 63
     7
421
 16777215
 74
     1
 91
        4
 64
     7
 65
   257
 75
     7
175
     7
 42
1.0
 92
        8
 66
     7
 43
1.0
 76
     1
 77
     6
 78
     2
 67
     7
 79
     5
170
     0
171
     0
290
     0
174
     0
 93
        1
 44
0.0
173
     0
291
     1
 45
0.0
  0
VISUALSTYLE
  5
8BB
102
{ACAD_REACTORS
330
267
102
}
330
267
100
AcDbVisualStyle
  2
OverhangOff
 70
    21
 71
     2
 72
     2
 73
     0
 90
        0
 40
0.6
 41
30.0
 62
     5
 63
     7
421
 16777215
 74
     1
 91
        4
 64
     7
 65
   257
 75
     1
175
     1
 42
1.0
 92
        9
 66
     7
 43
1.0
 76
     1
 77
     6
 78
     2
 67
     7
 79
     5
170
     0
171
     0
290
     0
174
     0
 93
        1
 44
0.0
173
     0
291
     1
 45
0.0
  0
VISUALSTYLE
  5
270
102
{ACAD_REACTORS
330
267
102
}
330
267
100
AcDbVisualStyle
  2
Realistic
 70
     8
 71
     2
 72
     2
 73
     0
 90
        0
 40
-0.6
 41
-30.0
 62
     5
 63
     7
421
 16777215
 74
     1
 91
        0
 64
     7
 65
   257
 75
     1
175
     1
 42
1.0
 92
        8
 66
     8
424
  7895160
 43
1.0
 76
     1
 77
     6
 78
     2
 67
     7
 79
     5
170
     0
171
     0
290
     0
174
     0
 93
       13
 44
0.0
173
     0
291
     0
 45
0.0
  0
VISUALSTYLE
  5
8C1
102
{ACAD_REACTORS
330
267
102
}
330
267
100
AcDbVisualStyle
  2
Shaded
 70
    27
 71
     2
 72
     2
 73
     1
 90
        2
 40
0.6
 41
30.0
 62
     5
 63
     7
421
 16777215
 74
     0
 91
        4
 64
     7
 65
   257
 75
     1
175
     1
 42
1.0
 92
        8
 66
   257
 43
1.0
 76
     1
 77
     6
 78
     2
 67
     8
425
  7895160
 79
     3
170
     0
171
     0
290
     0
174
     0
 93
        5
 44
0.0
173
     0
291
     0
 45
0.0
  0
VISUALSTYLE
  5
8C0
102
{ACAD_REACTORS
330
267
102
}
330
267
100
AcDbVisualStyle
  2
Shaded with edges
 70
    26
 71
     2
 72
     2
 73
     1
 90
        2
 40
0.6
 41
30.0
 62
     5
 63
     7
421
 16777215
 74
     1
 91
       10
 64
     7
 65
   257
 75
     2
175
     1
 42
1.0
 92
        8
 66
   257
 43
1.0
 76
     1
 77
     6
 78
     2
 67
     7
 79
     3
170
     0
171
     0
290
     0
174
     0
 93
        5
 44
0.0
173
     0
291
     0
 45
0.0
  0
VISUALSTYLE
  5
8BD
102
{ACAD_REACTORS
330
267
102
}
330
267
100
AcDbVisualStyle
  2
Shades of Gray
 70
    23
 71
     2
 72
     2
 73
     3
 90
        0
 40
0.6
 41
30.0
 62
     5
 63
     7
421
 16777215
 74
     2
 91
        2
 64
     7
 65
     7
 75
     1
175
     1
 42
40.0
 92
        8
 66
     7
 43
1.0
 76
     1
 77
     6
 78
     2
 67
     7
 79
     3
170
     0
171
     0
290
     0
174
     0
 93
        1
 44
0.0
173
     0
291
     0
 45
0.0
  0
VISUALSTYLE
  5
8BE
102
{ACAD_REACTORS
330
267
102
}
330
267
100
AcDbVisualStyle
  2
Sketchy
 70
    24
 71
     1
 72
     2
 73
     2
 90
        0
 40
0.6
 41
30.0
 62
     5
 63
     7
421
 16777215
 74
     2
 91
        2
 64
     7
 65
     7
 75
     1
175
     1
 42
40.0
 92
       11
 66
     7
 43
1.0
 76
     1
 77
     6
 78
     2
 67
     7
 79
     6
170
     0
171
     0
290
     0
174
     0
 93
        1
 44
0.0
173
     0
291
     0
 45
0.0
  0
VISUALSTYLE
  5
274
102
{ACAD_REACTORS
330
267
102
}
330
267
100
AcDbVisualStyle
  2
Thicken
 70
    13
 71
     2
 72
     2
 73
     0
 90
        0
 40
-0.6
 41
-30.0
 62
     5
 63
     7
421
 16777215
 74
     1
 91
        4
 64
     7
 65
   257
 75
     1
175
     1
 42
1.0
 92
       12
 66
     7
 43
1.0
 76
     1
 77
     6
 78
     2
 67
     7
 79
     5
170
     0
171
     0
290
     0
174
     0
 93
        1
 44
0.0
173
     0
291
     1
 45
0.0
  0
VISUALSTYLE
  5
8B8
102
{ACAD_REACTORS
330
267
102
}
330
267
100
AcDbVisualStyle
  2
Wireframe
 70
     5
 71
     0
 72
     2
 73
     0
 90
        0
 40
0.6
 41
30.0
 62
     5
 63
     7
421
 16777215
 74
     1
 91
        4
 64
     7
 65
   257
 75
     1
175
     1
 42
1.0
 92
        0
 66
   257
 43
1.0
 76
     1
 77
     6
 78
     2
 67
     7
 79
     3
170
     0
171
     0
290
     0
174
     0
 93
        1
 44
0.0
173
     0
291
     0
 45
0.0
  0
VISUALSTYLE
  5
8BF
102
{ACAD_REACTORS
330
267
102
}
330
267
100
AcDbVisualStyle
  2
X-Ray
 70
    25
 71
     2
 72
     2
 73
     1
 90
        1
 40
0.5
 41
30.0
 62
     5
 63
     7
421
 16777215
 74
     1
 91
        0
 64
     7
 65
   257
 75
     1
175
     1
 42
1.0
 92
        8
 66
     7
 43
1.0
 76
     1
 77
     6
 78
     2
 67
     7
 79
     3
170
     0
171
     0
290
     0
174
     0
 93
       13
 44
0.0
173
     0
291
     0
 45
0.0
  0
DICTIONARYVAR
  5
331
102
{ACAD_REACTORS
330
330
102
}
330
330
100
DictionaryVariables
280
     0
  1
1:1
  0
DICTIONARYVAR
  5
8DA
102
{ACAD_REACTORS
330
330
102
}
330
330
100
DictionaryVariables
280
     0
  1
Standard
  0
DICTIONARYVAR
  5
335
102
{ACAD_REACTORS
330
330
102
}
330
330
100
DictionaryVariables
280
     0
  1
Standard
  0
DICTIONARYVAR
  5
C07
102
{ACAD_REACTORS
330
330
102
}
330
330
100
DictionaryVariables
280
     0
  1
ByLayer
  0
DICTIONARYVAR
  5
64A
102
{ACAD_REACTORS
330
330
102
}
330
330
100
DictionaryVariables
280
     0
  1
0
  0
DICTIONARYVAR
  5
C0B
102
{ACAD_REACTORS
330
C08
102
}
330
C08
100
DictionaryVariables
280
     0
  1
0.261799
  0
DICTIONARYVAR
  5
C09
102
{ACAD_REACTORS
330
C08
102
}
330
C08
100
DictionaryVariables
280
     0
  1
0.400000
  0
DICTIONARYVAR
  5
C0A
102
{ACAD_REACTORS
330
C08
102
}
330
C08
100
DictionaryVariables
280
     0
  1
0.250000
  0
DICTIONARYVAR
  5
C0C
102
{ACAD_REACTORS
330
C08
102
}
330
C08
100
DictionaryVariables
280
     0
  1
1
  0
FIELD
  5
BDE
102
{ACAD_REACTORS
330
BE4
102
}
330
BE4
100
AcDbField
  1
_text
  2
{%<\_FldIdx 0>%N}
 90
        1
360
BDF
 97
        0
 91
       63
 92
        0
 94
        8
 95
        2
 96
        0
300

 93
        1
  6
ACFD_FIELDTEXT_CHECKSUM
 93
        2
 90
        2
140
4462.0
 94
        0
300

302

304
ACVALUE_END
  7
ACFD_FIELD_VALUE
 93
        6
 90
        4
  1
{20180111N}
 94
        0
300

302

304
ACVALUE_END
301
{20180111N}
 98
       11
  0
DICTIONARY
  5
2FBE
330
279
100
AcDbDictionary
280
     1
281
     1
  3
ACAD_ROUNDTRIP_2008_TABLESTYLE_CELLSTYLEMAP
360
2FBF
  0
FIELD
  5
BDF
330
BDE
100
AcDbField
  1
AcVar
  2
\AcVar Date \f "yyyyMMdd"
 90
        0
 97
        0
 91
       63
 92
        0
 94
        8
 95
        2
 96
        0
300

 93
        1
  6
Variable
 93
        2
 90
        4
  1
Date
 94
        0
300

302

304
ACVALUE_END
  7
ACFD_FIELD_VALUE
 93
        6
 90
        8
 92
       16
310
E207010000000B000500370000000000
 94
        0
300
yyyyMMdd
302

304
ACVALUE_END
301
20180111
 98
        8
  0
CELLSTYLEMAP
  5
2FBF
102
{ACAD_REACTORS
330
2FBE
102
}
330
2FBE
100
AcDbCellStyleMap
 90
        3
300
CELLSTYLE
  1
TABLEFORMAT_BEGIN
 90
        5
170
     1
 91
        0
 92
    32768
 62
   257
 93
        1
300
CONTENTFORMAT
  1
CONTENTFORMAT_BEGIN
 90
        0
 91
        0
 92
        4
 93
        0
300

 40
0.0
140
1.0
 94
        5
 62
     0
340
17
144
6.0
309
CONTENTFORMAT_END
171
     1
301
MARGIN
  1
CELLMARGIN_BEGIN
 40
0.06
 40
0.06
 40
0.06
 40
0.06
 40
0.18
 40
0.18
309
CELLMARGIN_END
 94
        6
 95
        1
302
GRIDFORMAT
  1
GRIDFORMAT_BEGIN
 90
        0
 91
        1
 62
     0
 92
       -2
340
0
 93
        0
 40
0.045
309
GRIDFORMAT_END
 95
        2
302
GRIDFORMAT
  1
GRIDFORMAT_BEGIN
 90
        0
 91
        1
 62
     0
 92
       -2
340
0
 93
        0
 40
0.045
309
GRIDFORMAT_END
 95
        4
302
GRIDFORMAT
  1
GRIDFORMAT_BEGIN
 90
        0
 91
        1
 62
     0
 92
       -2
340
0
 93
        0
 40
0.045
309
GRIDFORMAT_END
 95
        8
302
GRIDFORMAT
  1
GRIDFORMAT_BEGIN
 90
        0
 91
        1
 62
     0
 92
       -2
340
0
 93
        0
 40
0.045
309
GRIDFORMAT_END
 95
       16
302
GRIDFORMAT
  1
GRIDFORMAT_BEGIN
 90
        0
 91
        1
 62
     0
 92
       -2
340
0
 93
        0
 40
0.045
309
GRIDFORMAT_END
 95
       32
302
GRIDFORMAT
  1
GRIDFORMAT_BEGIN
 90
        0
 91
        1
 62
     0
 92
       -2
340
0
 93
        0
 40
0.045
309
GRIDFORMAT_END
309
TABLEFORMAT_END
  1
CELLSTYLE_BEGIN
 90
        1
 91
        1
300
_TITLE
309
CELLSTYLE_END
300
CELLSTYLE
  1
TABLEFORMAT_BEGIN
 90
        5
170
     1
 91
        0
 92
        0
 62
   257
 93
        1
300
CONTENTFORMAT
  1
CONTENTFORMAT_BEGIN
 90
        0
 91
        0
 92
        4
 93
        0
300

 40
0.0
140
1.0
 94
        5
 62
     0
340
17
144
4.5
309
CONTENTFORMAT_END
171
     1
301
MARGIN
  1
CELLMARGIN_BEGIN
 40
0.06
 40
0.06
 40
0.06
 40
0.06
 40
0.18
 40
0.18
309
CELLMARGIN_END
 94
        6
 95
        1
302
GRIDFORMAT
  1
GRIDFORMAT_BEGIN
 90
        0
 91
        1
 62
     0
 92
       -2
340
0
 93
        0
 40
0.045
309
GRIDFORMAT_END
 95
        2
302
GRIDFORMAT
  1
GRIDFORMAT_BEGIN
 90
        0
 91
        1
 62
     0
 92
       -2
340
0
 93
        0
 40
0.045
309
GRIDFORMAT_END
 95
        4
302
GRIDFORMAT
  1
GRIDFORMAT_BEGIN
 90
        0
 91
        1
 62
     0
 92
       -2
340
0
 93
        0
 40
0.045
309
GRIDFORMAT_END
 95
        8
302
GRIDFORMAT
  1
GRIDFORMAT_BEGIN
 90
        0
 91
        1
 62
     0
 92
       -2
340
0
 93
        0
 40
0.045
309
GRIDFORMAT_END
 95
       16
302
GRIDFORMAT
  1
GRIDFORMAT_BEGIN
 90
        0
 91
        1
 62
     0
 92
       -2
340
0
 93
        0
 40
0.045
309
GRIDFORMAT_END
 95
       32
302
GRIDFORMAT
  1
GRIDFORMAT_BEGIN
 90
        0
 91
        1
 62
     0
 92
       -2
340
0
 93
        0
 40
0.045
309
GRIDFORMAT_END
309
TABLEFORMAT_END
  1
CELLSTYLE_BEGIN
 90
        2
 91
        1
300
_HEADER
309
CELLSTYLE_END
300
CELLSTYLE
  1
TABLEFORMAT_BEGIN
 90
        5
170
     1
 91
        0
 92
        0
 62
   257
 93
        1
300
CONTENTFORMAT
  1
CONTENTFORMAT_BEGIN
 90
        0
 91
        0
 92
        4
 93
        0
300

 40
0.0
140
1.0
 94
        2
 62
     0
340
17
144
4.5
309
CONTENTFORMAT_END
171
     1
301
MARGIN
  1
CELLMARGIN_BEGIN
 40
0.06
 40
0.06
 40
0.06
 40
0.06
 40
0.18
 40
0.18
309
CELLMARGIN_END
 94
        6
 95
        1
302
GRIDFORMAT
  1
GRIDFORMAT_BEGIN
 90
        0
 91
        1
 62
     0
 92
       -2
340
0
 93
        0
 40
0.045
309
GRIDFORMAT_END
 95
        2
302
GRIDFORMAT
  1
GRIDFORMAT_BEGIN
 90
        0
 91
        1
 62
     0
 92
       -2
340
0
 93
        0
 40
0.045
309
GRIDFORMAT_END
 95
        4
302
GRIDFORMAT
  1
GRIDFORMAT_BEGIN
 90
        0
 91
        1
 62
     0
 92
       -2
340
0
 93
        0
 40
0.045
309
GRIDFORMAT_END
 95
        8
302
GRIDFORMAT
  1
GRIDFORMAT_BEGIN
 90
        0
 91
        1
 62
     0
 92
       -2
340
0
 93
        0
 40
0.045
309
GRIDFORMAT_END
 95
       16
302
GRIDFORMAT
  1
GRIDFORMAT_BEGIN
 90
        0
 91
        1
 62
     0
 92
       -2
340
0
 93
        0
 40
0.045
309
GRIDFORMAT_END
 95
       32
302
GRIDFORMAT
  1
GRIDFORMAT_BEGIN
 90
        0
 91
        1
 62
     0
 92
       -2
340
0
 93
        0
 40
0.045
309
GRIDFORMAT_END
309
TABLEFORMAT_END
  1
CELLSTYLE_BEGIN
 90
        3
 91
        2
300
_DATA
309
CELLSTYLE_END
  0
ENDSEC
  0
EOF
