  0
SECTION
  2
HEADER
  9
$ACADVER
  1
AC1021
  9
$ACADMAINTVER
 70
    25
  9
$DWGCODEPAGE
  3
ANSI_932
  9
$LASTSAVEDBY
  1
Shimosaki
  9
$INSBASE
 10
0.0
 20
0.0
 30
0.0
  9
$EXTMIN
 10
0.0
 20
0.0
 30
0.0
  9
$EXTMAX
 10
3525.09468224247
 20
2970.0
 30
34.99521132346015
  9
$LIMMIN
 10
0.0
 20
0.0
  9
$LIMMAX
 10
2100.0
 20
2970.0
  9
$ORTHOMODE
 70
     0
  9
$REGENMODE
 70
     1
  9
$FILLMODE
 70
     1
  9
$QTEXTMODE
 70
     0
  9
$MIRRTEXT
 70
     1
  9
$LTSCALE
 40
5.0
  9
$ATTMODE
 70
     1
  9
$TEXTSIZE
 40
533.0403732820173
  9
$TRACEWID
 40
1.0
  9
$TEXTSTYLE
  7
Standard
  9
$CLAYER
  8
Dim
  9
$CELTYPE
  6
Continuous
  9
$CECOLOR
 62
   256
  9
$CELTSCALE
 40
1.0
  9
$DISPSILH
 70
     0
  9
$DIMSCALE
 40
1.0
  9
$DIMASZ
 40
9.0
  9
$DIMEXO
 40
25.0
  9
$DIMDLI
 40
25.0
  9
$DIMRND
 40
0.0
  9
$DIMDLE
 40
0.0
  9
$DIMEXE
 40
0.0
  9
$DIMTP
 40
0.0
  9
$DIMTM
 40
0.0
  9
$DIMTXT
 40
24.4326171875
  9
$DIMCEN
 40
0.0
  9
$DIMTSZ
 40
0.0
  9
$DIMTOL
 70
     0
  9
$DIMLIM
 70
     0
  9
$DIMTIH
 70
     0
  9
$DIMTOH
 70
     0
  9
$DIMSE1
 70
     0
  9
$DIMSE2
 70
     0
  9
$DIMTAD
 70
     1
  9
$DIMZIN
 70
    11
  9
$DIMBLK
  1
DOT
  9
$DIMASO
 70
     1
  9
$DIMSHO
 70
     1
  9
$DIMPOST
  1
<>
  9
$DIMAPOST
  1
[]
  9
$DIMALT
 70
     0
  9
$DIMALTD
 70
     1
  9
$DIMALTF
 40
1.0
  9
$DIMLFAC
 40
1.0
  9
$DIMTOFL
 70
     0
  9
$DIMTVP
 40
0.0
  9
$DIMTIX
 70
     1
  9
$DIMSOXD
 70
     0
  9
$DIMSAH
 70
     0
  9
$DIMBLK1
  1

  9
$DIMBLK2
  1

  9
$DIMSTYLE
  2
JIS
  9
$DIMCLRD
 70
     0
  9
$DIMCLRE
 70
     0
  9
$DIMCLRT
 70
     0
  9
$DIMTFAC
 40
1.0
  9
$DIMGAP
 40
10.0
  9
$DIMJUST
 70
     0
  9
$DIMSD1
 70
     0
  9
$DIMSD2
 70
     0
  9
$DIMTOLJ
 70
     1
  9
$DIMTZIN
 70
    11
  9
$DIMALTZ
 70
    11
  9
$DIMALTTZ
 70
    11
  9
$DIMUPT
 70
     0
  9
$DIMDEC
 70
     0
  9
$DIMTDEC
 70
     1
  9
$DIMALTU
 70
     2
  9
$DIMALTTD
 70
     2
  9
$DIMTXSTY
  7
ＭＳ ゴシック
  9
$DIMAUNIT
 70
     0
  9
$DIMADEC
 70
     0
  9
$DIMALTRND
 40
0.0
  9
$DIMAZIN
 70
     0
  9
$DIMDSEP
 70
    46
  9
$DIMATFIT
 70
     0
  9
$DIMFRAC
 70
     2
  9
$DIMLDRBLK
  1
DOT
  9
$DIMLUNIT
 70
     2
  9
$DIMLWD
 70
    -2
  9
$DIMLWE
 70
    -2
  9
$DIMTMOVE
 70
     0
  9
$DIMFXL
 40
1.0
  9
$DIMFXLON
 70
     0
  9
$DIMJOGANG
 40
0.7853981633974483
  9
$DIMTFILL
 70
     0
  9
$DIMTFILLCLR
 70
     0
  9
$DIMARCSYM
 70
     0
  9
$DIMLTYPE
  6

  9
$DIMLTEX1
  6

  9
$DIMLTEX2
  6

  9
$LUNITS
 70
     2
  9
$LUPREC
 70
     0
  9
$SKETCHINC
 40
0.1
  9
$FILLETRAD
 40
0.0
  9
$AUNITS
 70
     0
  9
$AUPREC
 70
     0
  9
$MENU
  1
acad
  9
$ELEVATION
 40
0.0
  9
$PELEVATION
 40
0.0
  9
$THICKNESS
 40
0.0
  9
$LIMCHECK
 70
     0
  9
$CHAMFERA
 40
0.0
  9
$CHAMFERB
 40
0.0
  9
$CHAMFERC
 40
0.0
  9
$CHAMFERD
 40
0.0
  9
$SKPOLY
 70
     0
  9
$TDCREATE
 40
2447893.375
  9
$TDUCREATE
 40
0.0
  9
$TDUPDATE
 40
2458130.623846933
  9
$TDUUPDATE
 40
2458130.248846933
  9
$TDINDWG
 40
0.0004856134
  9
$TDUSRTIMER
 40
2458130.2483614
  9
$USRTIMER
 70
     1
  9
$ANGBASE
 50
0.0
  9
$ANGDIR
 70
     0
  9
$PDMODE
 70
     1
  9
$PDSIZE
 40
-2.0
  9
$PLINEWID
 40
0.0
  9
$SPLFRAME
 70
     0
  9
$SPLINETYPE
 70
     6
  9
$SPLINESEGS
 70
     8
  9
$HANDSEED
  5
2814
  9
$SURFTAB1
 70
     6
  9
$SURFTAB2
 70
     6
  9
$SURFTYPE
 70
     6
  9
$SURFU
 70
     6
  9
$SURFV
 70
     6
  9
$UCSBASE
  2

  9
$UCSNAME
  2

  9
$UCSORG
 10
0.0
 20
0.0
 30
0.0
  9
$UCSXDIR
 10
1.0
 20
0.0
 30
0.0
  9
$UCSYDIR
 10
0.0
 20
1.0
 30
0.0
  9
$UCSORTHOREF
  2

  9
$UCSORTHOVIEW
 70
     0
  9
$UCSORGTOP
 10
0.0
 20
0.0
 30
0.0
  9
$UCSORGBOTTOM
 10
0.0
 20
0.0
 30
0.0
  9
$UCSORGLEFT
 10
0.0
 20
0.0
 30
0.0
  9
$UCSORGRIGHT
 10
0.0
 20
0.0
 30
0.0
  9
$UCSORGFRONT
 10
0.0
 20
0.0
 30
0.0
  9
$UCSORGBACK
 10
0.0
 20
0.0
 30
0.0
  9
$PUCSBASE
  2

  9
$PUCSNAME
  2

  9
$PUCSORG
 10
0.0
 20
0.0
 30
0.0
  9
$PUCSXDIR
 10
1.0
 20
0.0
 30
0.0
  9
$PUCSYDIR
 10
0.0
 20
1.0
 30
0.0
  9
$PUCSORTHOREF
  2

  9
$PUCSORTHOVIEW
 70
     0
  9
$PUCSORGTOP
 10
0.0
 20
0.0
 30
0.0
  9
$PUCSORGBOTTOM
 10
0.0
 20
0.0
 30
0.0
  9
$PUCSORGLEFT
 10
0.0
 20
0.0
 30
0.0
  9
$PUCSORGRIGHT
 10
0.0
 20
0.0
 30
0.0
  9
$PUCSORGFRONT
 10
0.0
 20
0.0
 30
0.0
  9
$PUCSORGBACK
 10
0.0
 20
0.0
 30
0.0
  9
$USERI1
 70
     0
  9
$USERI2
 70
     0
  9
$USERI3
 70
     0
  9
$USERI4
 70
     0
  9
$USERI5
 70
     0
  9
$USERR1
 40
0.0
  9
$USERR2
 40
0.0
  9
$USERR3
 40
0.0
  9
$USERR4
 40
0.0
  9
$USERR5
 40
0.0
  9
$WORLDVIEW
 70
     1
  9
$SHADEDGE
 70
     3
  9
$SHADEDIF
 70
    70
  9
$TILEMODE
 70
     1
  9
$MAXACTVP
 70
    64
  9
$PINSBASE
 10
0.0
 20
0.0
 30
0.0
  9
$PLIMCHECK
 70
     0
  9
$PEXTMIN
 10
0.0
 20
0.0
 30
0.0
  9
$PEXTMAX
 10
0.0
 20
0.0
 30
0.0
  9
$PLIMMIN
 10
-7.5
 20
-20.0
  9
$PLIMMAX
 10
412.5
 20
277.0
  9
$UNITMODE
 70
     0
  9
$VISRETAIN
 70
     0
  9
$PLINEGEN
 70
     1
  9
$PSLTSCALE
 70
     0
  9
$TREEDEPTH
 70
  3020
  9
$CMLSTYLE
  2
Standard
  9
$CMLJUST
 70
     0
  9
$CMLSCALE
 40
1.0
  9
$PROXYGRAPHICS
 70
     0
  9
$MEASUREMENT
 70
     1
  9
$CELWEIGHT
370
    -1
  9
$ENDCAPS
280
     0
  9
$JOINSTYLE
280
     0
  9
$LWDISPLAY
290
     1
  9
$INSUNITS
 70
     4
  9
$HYPERLINKBASE
  1

  9
$STYLESHEET
  1

  9
$XEDIT
290
     1
  9
$CEPSNTYPE
380
     0
  9
$PSTYLEMODE
290
     1
  9
$FINGERPRINTGUID
  2

  9
$VERSIONGUID
  2

  9
$EXTNAMES
290
     1
  9
$PSVPSCALE
 40
0.0
  9
$OLESTARTUP
290
     0
  9
$SORTENTS
280
   127
  9
$INDEXCTL
280
     0
  9
$HIDETEXT
280
     1
  9
$XCLIPFRAME
290
     0
  9
$HALOGAP
280
     0
  9
$OBSCOLOR
 70
   257
  9
$OBSLTYPE
280
     0
  9
$INTERSECTIONDISPLAY
280
     0
  9
$INTERSECTIONCOLOR
 70
   257
  9
$DIMASSOC
280
     2
  9
$PROJECTNAME
  1

  9
$CAMERADISPLAY
290
     0
  9
$LENSLENGTH
 40
50.0
  9
$CAMERAHEIGHT
 40
0.0
  9
$STEPSPERSEC
 40
2.0
  9
$STEPSIZE
 40
6.0
  9
$3DDWFPREC
 40
2.0
  9
$PSOLWIDTH
 40
0.25
  9
$PSOLHEIGHT
 40
4.0
  9
$LOFTANG1
 40
1.570796326794897
  9
$LOFTANG2
 40
1.570796326794897
  9
$LOFTMAG1
 40
0.0
  9
$LOFTMAG2
 40
0.0
  9
$LOFTPARAM
 70
     7
  9
$LOFTNORMALS
280
     1
  9
$LATITUDE
 40
37.795
  9
$LONGITUDE
 40
-122.394
  9
$NORTHDIRECTION
 40
0.0
  9
$TIMEZONE
 70
 -8000
  9
$LIGHTGLYPHDISPLAY
280
     1
  9
$TILEMODELIGHTSYNCH
280
     1
  9
$SOLIDHIST
280
     1
  9
$SHOWHIST
280
     1
  9
$DWFFRAME
280
     2
  9
$DGNFRAME
280
     2
  9
$REALWORLDSCALE
290
     1
  9
$INTERFERECOLOR
 62
   256
  9
$CSHADOW
280
     0
  9
$SHADOWPLANELOCATION
 40
0.0
  0
ENDSEC
  0
SECTION
  2
CLASSES
  0
CLASS
  1
LWPOLYLINE
  2
AcDbPolyline
  3
ObjectDBX Classes
 90
        0
 91
        1
280
     0
281
     1
  0
CLASS
  1
IMAGE
  2
AcDbRasterImage
  3
ISM
 90
      127
 91
        5
280
     0
281
     1
  0
CLASS
  1
OLE2FRAME
  2
AcDbOle2Frame
  3
ObjectDBX Classes
 90
        0
 91
        1
280
     0
281
     1
  0
CLASS
  1
HATCH
  2
AcDbHatch
  3
ObjectDBX Classes
 90
        0
 91
        1
280
     0
281
     1
  0
CLASS
  1
DICTIONARYVAR
  2
AcDbDictionaryVar
  3
ObjectDBX Classes
 90
        0
 91
        4
280
     0
281
     0
  0
CLASS
  1
RASTERVARIABLES
  2
AcDbRasterVariables
  3
ISM
 90
        0
 91
        4
280
     0
281
     0
  0
CLASS
  1
IMAGEDEF
  2
AcDbRasterImageDef
  3
ISM
 90
        0
 91
        4
280
     0
281
     0
  0
CLASS
  1
IMAGEDEF_REACTOR
  2
AcDbRasterImageDefReactor
  3
ISM
 90
        1
 91
        4
280
     0
281
     0
  0
CLASS
  1
IDBUFFER
  2
AcDbIdBuffer
  3
ObjectDBX Classes
 90
        0
 91
        4
280
     0
281
     0
  0
CLASS
  1
SPATIAL_FILTER
  2
AcDbSpatialFilter
  3
ObjectDBX Classes
 90
        0
 91
        4
280
     0
281
     0
  0
CLASS
  1
XRECORD
  2
AcDbXrecord
  3
ObjectDBX Classes
 90
        0
 91
        1
280
     0
281
     0
  0
CLASS
  1
SORTENTSTABLE
  2
AcDbSortentsTable
  3
ObjectDBX Classes
 90
        0
 91
        4
280
     0
281
     0
  0
CLASS
  1
LAYER_INDEX
  2
AcDbLayerIndex
  3
ObjectDBX Classes
 90
        0
 91
        4
280
     0
281
     0
  0
CLASS
  1
SPATIAL_INDEX
  2
AcDbSpatialIndex
  3
AutoCAD 2000
 90
        0
 91
        4
280
     0
281
     0
  0
CLASS
  1
OBJECT_PTR
  2
CAseDLPNTableRecord
  3
ASE-LPNTableRecord
 90
        1
 91
        4
280
     0
281
     0
  0
CLASS
  1
LAYOUT
  2
AcDbLayout
  3
ObjectDBX Classes
 90
        0
 91
        1
280
     0
281
     0
  0
CLASS
  1
PLOTSETTINGS
  2
AcDbPlotSettings
  3
ObjectDBX Classes
 90
        0
 91
        4
280
     0
281
     0
  0
CLASS
  1
ACDBDICTIONARYWDFLT
  2
AcDbDictionaryWithDefault
  3
ObjectDBX Classes
 90
        0
 91
        4
280
     0
281
     0
  0
CLASS
  1
ACDBPLACEHOLDER
  2
AcDbPlaceHolder
  3
ObjectDBX Classes
 90
        0
 91
        1
280
     0
281
     0
  0
CLASS
  1
SCALE
  2
AcDbScale
  3
ObjectDBX Classes
 90
     1153
 91
        4
280
     0
281
     0
  0
CLASS
  1
MATERIAL
  2
AcDbMaterial
  3
ObjectDBX Classes
 90
     1153
 91
        4
280
     0
281
     0
  0
CLASS
  1
VISUALSTYLE
  2
AcDbVisualStyle
  3
ObjectDBX Classes
 90
     4095
 91
        4
280
     0
281
     0
  0
CLASS
  1
TABLESTYLE
  2
AcDbTableStyle
  3
ObjectDBX Classes
 90
     4095
 91
        4
280
     0
281
     0
  0
CLASS
  1
DIMASSOC
  2
AcDbDimAssoc
  3
"AcDbDimAssoc|Product Desc:     AcDim ARX App For Dimension|Company:          Autodesk, Inc.|WEB Address:      www.autodesk.com"
 90
        0
 91
        4
280
     0
281
     0
  0
CLASS
  1
CELLSTYLEMAP
  2
AcDbCellStyleMap
  3
ObjectDBX Classes
 90
     1152
 91
        4
280
     0
281
     0
  0
CLASS
  1
SUN
  2
AcDbSun
  3
SCENEOE
 90
     1153
 91
        4
280
     0
281
     0
  0
CLASS
  1
MLEADERSTYLE
  2
AcDbMLeaderStyle
  3
ACDB_MLEADERSTYLE_CLASS
 90
     4095
 91
        4
280
     0
281
     0
  0
CLASS
  1
FIELD
  2
AcDbField
  3
ObjectDBX Classes
 90
     1152
 91
        4
280
     0
281
     0
  0
CLASS
  1
FIELDLIST
  2
AcDbFieldList
  3
ObjectDBX Classes
 90
     1152
 91
        4
280
     0
281
     0
  0
ENDSEC
  0
SECTION
  2
TABLES
  0
TABLE
  2
VPORT
  5
7
330
0
100
AcDbSymbolTable
 70
     1
  0
VPORT
  5
15
330
7
100
AcDbSymbolTableRecord
100
AcDbViewportTableRecord
  2
*ACTIVE
 70
     0
 10
0.0
 20
0.0
 11
1.0
 21
1.0
 12
1052.405412667002
 22
1739.687612473948
 13
0.0
 23
0.0
 14
1.0
 24
1.0
 15
0.0
 25
0.0
 16
0.0
 26
0.0
 36
1.0
 17
377.0474382459643
 27
-297.612370234516
 37
0.0
 40
3786.749999999999
 41
2.396092362344583
 42
50.0
 43
0.0
 44
0.0
 50
0.0
 51
0.0
 71
    16
 72
  2000
 73
     1
 74
     1
 75
     0
 76
     0
 77
     0
 78
     0
281
     0
 65
     1
110
0.0
120
0.0
130
0.0
111
1.0
121
0.0
131
0.0
112
0.0
122
1.0
132
0.0
 79
     0
146
0.0
348
26C
 60
     3
 61
     5
292
     1
282
     1
141
0.0
142
0.0
 63
   256
361
8C2
  0
ENDTAB
  0
TABLE
  2
LTYPE
  5
4
330
0
100
AcDbSymbolTable
 70
    11
  0
LTYPE
  5
11
330
4
100
AcDbSymbolTableRecord
100
AcDbLinetypeTableRecord
  2
ByBlock
 70
     0
  3

 72
    65
 73
     0
 40
0.0
  0
LTYPE
  5
12
330
4
100
AcDbSymbolTableRecord
100
AcDbLinetypeTableRecord
  2
ByLayer
 70
     0
  3

 72
    65
 73
     0
 40
0.0
  0
LTYPE
  5
13
330
4
100
AcDbSymbolTableRecord
100
AcDbLinetypeTableRecord
  2
Continuous
 70
     0
  3
Solid line
 72
    65
 73
     0
 40
0.0
  0
LTYPE
  5
8D4
330
4
100
AcDbSymbolTableRecord
100
AcDbLinetypeTableRecord
  2
HIDDEN
 70
     0
  3
Hidden _ _ _ _ _ _ _ _ _ _ _ _ _ _ _ _ _ _ _ _ 
 72
    65
 73
     2
 40
9.524999999999999
 49
6.35
 74
     0
 49
-3.175
 74
     0
  0
LTYPE
  5
BF2
330
4
100
AcDbSymbolTableRecord
100
AcDbLinetypeTableRecord
  2
BORDER
 70
     0
  3
Border __  __  . __  __  . __  __  . __  __  . 
 72
    65
 73
     6
 40
44.45
 49
12.7
 74
     0
 49
-6.35
 74
     0
 49
12.7
 74
     0
 49
-6.35
 74
     0
 49
0.0
 74
     0
 49
-6.35
 74
     0
  0
LTYPE
  5
1B00
330
4
100
AcDbSymbolTableRecord
100
AcDbLinetypeTableRecord
  2
AI-Linetype-1
 70
     0
  3
Adobe Illustrator Linetype No. 1
 72
    65
 73
     4
 40
28.67400121688843
 49
17.92200088500977
 74
     0
 49
-3.584000110626221
 74
     0
 49
3.584000110626221
 74
     0
 49
-3.584000110626221
 74
     0
  0
LTYPE
  5
1B01
330
4
100
AcDbSymbolTableRecord
100
AcDbLinetypeTableRecord
  2
AI-Linetype-2
 70
     0
  3
Adobe Illustrator Linetype No. 2
 72
    65
 73
     4
 40
28.67400121688843
 49
17.92200088500977
 74
     0
 49
-3.584000110626221
 74
     0
 49
3.584000110626221
 74
     0
 49
-3.584000110626221
 74
     0
  0
LTYPE
  5
1B02
330
4
100
AcDbSymbolTableRecord
100
AcDbLinetypeTableRecord
  2
AI-Linetype-3
 70
     0
  3
Adobe Illustrator Linetype No. 3
 72
    65
 73
     2
 40
2.115999937057495
 49
1.057999968528748
 74
     0
 49
-1.057999968528748
 74
     0
  0
LTYPE
  5
1B03
330
4
100
AcDbSymbolTableRecord
100
AcDbLinetypeTableRecord
  2
AI-Linetype-4
 70
     0
  3
Adobe Illustrator Linetype No. 4
 72
    65
 73
     2
 40
2.115999937057495
 49
1.057999968528748
 74
     0
 49
-1.057999968528748
 74
     0
  0
LTYPE
  5
1B04
330
4
100
AcDbSymbolTableRecord
100
AcDbLinetypeTableRecord
  2
AI-Linetype-5
 70
     0
  3
Adobe Illustrator Linetype No. 5
 72
    65
 73
     4
 40
28.79999971389771
 49
18.0
 74
     0
 49
-3.599999904632568
 74
     0
 49
3.599999904632568
 74
     0
 49
-3.599999904632568
 74
     0
  0
LTYPE
  5
1B05
330
4
100
AcDbSymbolTableRecord
100
AcDbLinetypeTableRecord
  2
AI-Linetype-6
 70
     0
  3
Adobe Illustrator Linetype No. 6
 72
    65
 73
     4
 40
28.79999971389771
 49
18.0
 74
     0
 49
-3.599999904632568
 74
     0
 49
3.599999904632568
 74
     0
 49
-3.599999904632568
 74
     0
  0
LTYPE
  5
208F
330
4
100
AcDbSymbolTableRecord
100
AcDbLinetypeTableRecord
  2
CENTER
 70
     0
  3
 Center _____  _  _____  _  _____  _  _____  _ 
 72
    65
 73
     4
 40
50.8
 49
31.75
 74
     0
 49
-6.35
 74
     0
 49
6.35
 74
     0
 49
-6.35
 74
     0
  0
LTYPE
  5
21BE
330
4
100
AcDbSymbolTableRecord
100
AcDbLinetypeTableRecord
  2
STYLE_12
 70
     0
  3

 72
    65
 73
     2
 40
0.3937007874015748
 49
0.1968503937007874
 74
     0
 49
-0.1968503937007874
 74
     0
  0
ENDTAB
  0
TABLE
  2
LAYER
  5
2
102
{ACAD_XDICTIONARY
360
2E1
102
}
330
0
100
AcDbSymbolTable
 70
     9
  0
LAYER
  5
14
330
2
100
AcDbSymbolTableRecord
100
AcDbLayerTableRecord
  2
0
 70
     0
 62
     7
  6
Continuous
370
    -3
390
1D
347
266
  0
LAYER
  5
4A
330
2
100
AcDbSymbolTableRecord
100
AcDbLayerTableRecord
  2
Defpoints
 70
     0
 62
     7
  6
Continuous
290
     0
370
    20
390
1D
347
266
  0
LAYER
  5
4B
330
2
100
AcDbSymbolTableRecord
100
AcDbLayerTableRecord
  2
template
 70
     0
 62
     7
  6
Continuous
370
    20
390
1D
347
266
  0
LAYER
  5
4D
330
2
100
AcDbSymbolTableRecord
100
AcDbLayerTableRecord
  2
MODEL
 70
     0
 62
     7
  6
Continuous
370
    20
390
1D
347
266
  0
LAYER
  5
382
330
2
100
AcDbSymbolTableRecord
100
AcDbLayerTableRecord
  2
レイヤー 1
 70
     0
 62
     7
  6
Continuous
370
    -3
390
1D
347
266
  0
LAYER
  5
5C4
330
2
100
AcDbSymbolTableRecord
100
AcDbLayerTableRecord
  2
HIDDEN
 70
     0
 62
   253
  6
HIDDEN
370
    20
390
1D
347
266
1001
AcAecLayerStandard
1000

1000

  0
LAYER
  5
5EB
330
2
100
AcDbSymbolTableRecord
100
AcDbLayerTableRecord
  2
Dim
 70
     0
 62
     3
  6
Continuous
370
    13
390
1D
347
266
1001
AcAecLayerStandard
1000

1000

  0
LAYER
  5
BF1
330
2
100
AcDbSymbolTableRecord
100
AcDbLayerTableRecord
  2
PRINT BORDER
 70
     0
 62
     4
  6
BORDER
290
     0
370
    20
390
1D
347
266
1001
AcAecLayerStandard
1000

1000

  0
LAYER
  5
21BC
330
2
100
AcDbSymbolTableRecord
100
AcDbLayerTableRecord
  2
LOGO
 70
     0
 62
     7
  6
Continuous
370
    -3
390
1D
347
266
  0
ENDTAB
  0
TABLE
  2
STYLE
  5
3
330
0
100
AcDbSymbolTable
 70
     2
  0
STYLE
  5
17
330
3
100
AcDbSymbolTableRecord
100
AcDbTextStyleTableRecord
  2
Standard
 70
     0
 40
0.0
 41
1.0
 50
0.0
 71
     0
 42
533.0403732820173
  3
txt
  4
BIGFONT.SHX
  0
STYLE
  5
39
330
3
100
AcDbSymbolTableRecord
100
AcDbTextStyleTableRecord
  2
ＭＳ ゴシック
 70
     0
 40
0.0
 41
1.0
 50
0.0
 71
     0
 42
2.5
  3
msgothic.ttc
  4
ＭＳ ゴシック
1001
ACAD
1000
ＭＳ ゴシック
1071
        0
  0
ENDTAB
  0
TABLE
  2
VIEW
  5
5
330
0
100
AcDbSymbolTable
 70
     0
  0
ENDTAB
  0
TABLE
  2
UCS
  5
6
330
0
100
AcDbSymbolTable
 70
     0
  0
ENDTAB
  0
TABLE
  2
APPID
  5
8
330
0
100
AcDbSymbolTable
 70
    11
  0
APPID
  5
16
330
8
100
AcDbSymbolTableRecord
100
AcDbRegAppTableRecord
  2
ACAD
 70
     0
  0
APPID
  5
5C5
330
8
100
AcDbSymbolTableRecord
100
AcDbRegAppTableRecord
  2
AcAecLayerStandard
 70
     0
  0
APPID
  5
913
330
8
100
AcDbSymbolTableRecord
100
AcDbRegAppTableRecord
  2
ACAD_DSTYLE_DIMBREAK
 70
     0
  0
APPID
  5
914
330
8
100
AcDbSymbolTableRecord
100
AcDbRegAppTableRecord
  2
ACAD_DSTYLE_DIMJAG
 70
     0
  0
APPID
  5
915
330
8
100
AcDbSymbolTableRecord
100
AcDbRegAppTableRecord
  2
ACAD_DSTYLE_DIMTALN
 70
     0
  0
APPID
  5
E4F
330
8
100
AcDbSymbolTableRecord
100
AcDbRegAppTableRecord
  2
ACAD_MLEADERVER
 70
     0
  0
APPID
  5
E79
330
8
100
AcDbSymbolTableRecord
100
AcDbRegAppTableRecord
  2
ACAD_PSEXT
 70
     0
  0
APPID
  5
E7A
330
8
100
AcDbSymbolTableRecord
100
AcDbRegAppTableRecord
  2
ACAD_NAV_VCDISPLAY
 70
     0
  0
APPID
  5
166E
330
8
100
AcDbSymbolTableRecord
100
AcDbRegAppTableRecord
  2
AcadAnnotative
 70
     0
  0
APPID
  5
166F
330
8
100
AcDbSymbolTableRecord
100
AcDbRegAppTableRecord
  2
GradientColor1ACI
 70
     0
  0
APPID
  5
1670
330
8
100
AcDbSymbolTableRecord
100
AcDbRegAppTableRecord
  2
GradientColor2ACI
 70
     0
  0
ENDTAB
  0
TABLE
  2
DIMSTYLE
  5
9
330
0
100
AcDbSymbolTable
 70
     3
100
AcDbDimStyleTable
  0
DIMSTYLE
105
18
330
9
100
AcDbSymbolTableRecord
100
AcDbDimStyleTableRecord
  2
Standard
 70
     0
178
     0
340
17
  0
DIMSTYLE
105
5C
102
{ACAD_REACTORS
330
1F4D
330
1F5D
330
1F6C
330
1F79
330
1FBF
330
1FCC
330
1FDD
330
203C
330
2058
330
26A4
330
26B7
102
}
330
9
100
AcDbSymbolTableRecord
100
AcDbDimStyleTableRecord
  2
JIS
 70
     0
  3
<>
  4
[]
 41
9.0
 42
0.0
 43
6.99999999999994
 44
19.9999999999962
 73
     0
 74
     0
 77
     1
 78
    11
140
24.4326171875
141
0.0
143
1.0
147
10.0
171
     1
174
     1
178
     0
179
     2
271
     1
272
     1
276
     2
284
    11
285
    11
286
    11
289
     0
340
39
341
4E
342
4E
  0
DIMSTYLE
105
21C5
102
{ACAD_REACTORS
330
26D4
330
26D5
330
26D6
330
26D7
330
26DA
330
26DC
102
}
330
9
100
AcDbSymbolTableRecord
100
AcDbDimStyleTableRecord
  2
tfrom線あり
 70
     0
  3
<>
  4
[]
 41
8.0
 42
30.0
 43
0.0
 44
0.0
 73
     0
 74
     0
 77
     1
 78
    11
140
24.0
141
0.0
143
1.0
147
20.0
171
     1
174
     1
178
     0
179
     2
271
     0
272
     1
276
     2
284
    11
285
    11
286
    11
289
     0
340
39
341
4E
342
4E
  0
ENDTAB
  0
TABLE
  2
BLOCK_RECORD
  5
1
330
0
100
AcDbSymbolTable
 70
    75
  0
BLOCK_RECORD
  5
A
330
1
100
AcDbSymbolTableRecord
100
AcDbBlockTableRecord
  2
*MODEL_SPACE
340
20
 70
     0
280
     1
281
     0
  0
BLOCK_RECORD
  5
B
330
1
100
AcDbSymbolTableRecord
100
AcDbBlockTableRecord
  2
*PAPER_SPACE
340
21
 70
     0
280
     1
281
     0
  0
BLOCK_RECORD
  5
4E
330
1
100
AcDbSymbolTableRecord
100
AcDbBlockTableRecord
  2
_DOT
340
0
102
{BLKREFS
331
19BF
331
19C0
331
19DB
331
19DC
331
19EB
331
19EC
331
19FA
331
19FB
331
1A0A
331
1A0B
331
1A1F
331
1A20
331
1A2C
331
1A2D
331
1A3C
331
1A3D
331
1A49
331
1A4A
331
1A8F
331
1A90
331
1AAA
331
1AAB
331
1E58
331
1E59
331
1F54
331
1F55
331
1F66
331
1F67
331
1F73
331
1F74
331
1F80
331
1F81
331
1FC6
331
1FC7
331
1FD3
331
1FD4
331
1FE4
331
1FE5
331
2025
331
2026
331
2032
331
2033
331
2043
331
2044
331
204F
331
2050
331
2061
331
2062
331
207E
331
207F
331
210C
331
210D
331
2118
331
2119
331
2124
331
2125
331
2130
331
2131
331
2235
331
2236
331
2242
331
2243
331
224F
331
2250
331
225C
331
225D
331
226B
331
226C
331
2278
331
2279
331
2285
331
2286
331
2292
331
2293
331
22A5
331
22A6
331
22B4
331
22B5
331
2406
331
2407
331
2413
331
2414
331
2422
331
2423
331
242F
331
2430
331
243D
331
243E
331
2452
331
2453
331
25EA
331
25EB
331
25F6
331
25F7
331
2602
331
2603
331
260E
331
260F
331
2619
331
261A
331
2625
331
2626
331
2631
331
2632
331
263D
331
263E
331
2649
331
264A
331
2655
331
2656
331
2661
331
2662
331
266D
331
266E
331
2679
331
267A
331
2685
331
2686
331
2692
331
2693
331
269E
331
269F
331
26AB
331
26AC
331
26BE
331
26BF
331
272D
331
272E
331
273A
331
273B
331
2746
331
2747
331
2752
331
2753
331
275E
331
275F
102
}
 70
     0
280
     1
281
     0
  0
BLOCK_RECORD
  5
3A5
330
1
100
AcDbSymbolTableRecord
100
AcDbBlockTableRecord
  2
名称未設定-1
340
0
102
{BLKREFS
331
3D0
102
}
 70
     1
280
     1
281
     0
  0
BLOCK_RECORD
  5
3A8
330
1
100
AcDbSymbolTableRecord
100
AcDbBlockTableRecord
  2
block 2
340
0
102
{BLKREFS
331
3A7
102
}
 70
     0
280
     1
281
     0
  0
BLOCK_RECORD
  5
3AB
330
1
100
AcDbSymbolTableRecord
100
AcDbBlockTableRecord
  2
block 3
340
0
102
{BLKREFS
331
3AA
102
}
 70
     0
280
     1
281
     0
  0
BLOCK_RECORD
  5
3AE
330
1
100
AcDbSymbolTableRecord
100
AcDbBlockTableRecord
  2
block 4
340
0
102
{BLKREFS
331
3AD
102
}
 70
     0
280
     1
281
     0
  0
BLOCK_RECORD
  5
3BD
330
1
100
AcDbSymbolTableRecord
100
AcDbBlockTableRecord
  2
block 5
340
0
102
{BLKREFS
331
3BC
102
}
 70
     0
280
     1
281
     0
  0
BLOCK_RECORD
  5
11F0
330
1
100
AcDbSymbolTableRecord
100
AcDbBlockTableRecord
  2
BLOCK_2
340
0
102
{BLKREFS
331
1273
331
127B
331
127C
102
}
 70
     0
280
     1
281
     0
  0
BLOCK_RECORD
  5
19B9
330
1
100
AcDbSymbolTableRecord
100
AcDbBlockTableRecord
  2
*D7
340
0
 70
     0
280
     1
281
     0
  0
BLOCK_RECORD
  5
19D5
330
1
100
AcDbSymbolTableRecord
100
AcDbBlockTableRecord
  2
*D8
340
0
 70
     0
280
     1
281
     0
  0
BLOCK_RECORD
  5
19E5
330
1
100
AcDbSymbolTableRecord
100
AcDbBlockTableRecord
  2
*D9
340
0
 70
     0
280
     1
281
     0
  0
BLOCK_RECORD
  5
19F4
330
1
100
AcDbSymbolTableRecord
100
AcDbBlockTableRecord
  2
*D10
340
0
 70
     0
280
     1
281
     0
  0
BLOCK_RECORD
  5
1A04
330
1
100
AcDbSymbolTableRecord
100
AcDbBlockTableRecord
  2
*D11
340
0
 70
     0
280
     1
281
     0
  0
BLOCK_RECORD
  5
1A19
330
1
100
AcDbSymbolTableRecord
100
AcDbBlockTableRecord
  2
*D12
340
0
 70
     0
280
     1
281
     0
  0
BLOCK_RECORD
  5
1A26
330
1
100
AcDbSymbolTableRecord
100
AcDbBlockTableRecord
  2
*D13
340
0
 70
     0
280
     1
281
     0
  0
BLOCK_RECORD
  5
1A36
330
1
100
AcDbSymbolTableRecord
100
AcDbBlockTableRecord
  2
*D14
340
0
 70
     0
280
     1
281
     0
  0
BLOCK_RECORD
  5
1A43
330
1
100
AcDbSymbolTableRecord
100
AcDbBlockTableRecord
  2
*D15
340
0
 70
     0
280
     1
281
     0
  0
BLOCK_RECORD
  5
1A89
330
1
100
AcDbSymbolTableRecord
100
AcDbBlockTableRecord
  2
*D16
340
0
 70
     0
280
     1
281
     0
  0
BLOCK_RECORD
  5
1AA5
330
1
100
AcDbSymbolTableRecord
100
AcDbBlockTableRecord
  2
*D17
340
0
 70
     0
280
     1
281
     0
  0
BLOCK_RECORD
  5
1E52
330
1
100
AcDbSymbolTableRecord
100
AcDbBlockTableRecord
  2
*D18
340
0
 70
     0
280
     1
281
     0
  0
BLOCK_RECORD
  5
1F4E
330
1
100
AcDbSymbolTableRecord
100
AcDbBlockTableRecord
  2
*D19
340
0
 70
     0
280
     1
281
     0
  0
BLOCK_RECORD
  5
1F60
330
1
100
AcDbSymbolTableRecord
100
AcDbBlockTableRecord
  2
*D20
340
0
 70
     0
280
     1
281
     0
  0
BLOCK_RECORD
  5
1F6D
330
1
100
AcDbSymbolTableRecord
100
AcDbBlockTableRecord
  2
*D21
340
0
 70
     0
280
     1
281
     0
  0
BLOCK_RECORD
  5
1F7A
330
1
100
AcDbSymbolTableRecord
100
AcDbBlockTableRecord
  2
*D22
340
0
 70
     0
280
     1
281
     0
  0
BLOCK_RECORD
  5
1FC0
330
1
100
AcDbSymbolTableRecord
100
AcDbBlockTableRecord
  2
*D23
340
0
 70
     0
280
     1
281
     0
  0
BLOCK_RECORD
  5
1FCD
330
1
100
AcDbSymbolTableRecord
100
AcDbBlockTableRecord
  2
*D24
340
0
 70
     0
280
     1
281
     0
  0
BLOCK_RECORD
  5
1FDE
330
1
100
AcDbSymbolTableRecord
100
AcDbBlockTableRecord
  2
*D25
340
0
 70
     0
280
     1
281
     0
  0
BLOCK_RECORD
  5
2021
330
1
100
AcDbSymbolTableRecord
100
AcDbBlockTableRecord
  2
*D26
340
0
 70
     0
280
     1
281
     0
  0
BLOCK_RECORD
  5
202D
330
1
100
AcDbSymbolTableRecord
100
AcDbBlockTableRecord
  2
*D27
340
0
 70
     0
280
     1
281
     0
  0
BLOCK_RECORD
  5
203E
330
1
100
AcDbSymbolTableRecord
100
AcDbBlockTableRecord
  2
*D28
340
0
 70
     0
280
     1
281
     0
  0
BLOCK_RECORD
  5
2049
330
1
100
AcDbSymbolTableRecord
100
AcDbBlockTableRecord
  2
*D29
340
0
 70
     0
280
     1
281
     0
  0
BLOCK_RECORD
  5
205B
330
1
100
AcDbSymbolTableRecord
100
AcDbBlockTableRecord
  2
*D30
340
0
 70
     0
280
     1
281
     0
  0
BLOCK_RECORD
  5
2077
330
1
100
AcDbSymbolTableRecord
100
AcDbBlockTableRecord
  2
*D31
340
0
 70
     0
280
     1
281
     0
  0
BLOCK_RECORD
  5
2106
330
1
100
AcDbSymbolTableRecord
100
AcDbBlockTableRecord
  2
*D32
340
0
 70
     0
280
     1
281
     0
  0
BLOCK_RECORD
  5
2112
330
1
100
AcDbSymbolTableRecord
100
AcDbBlockTableRecord
  2
*D33
340
0
 70
     0
280
     1
281
     0
  0
BLOCK_RECORD
  5
211E
330
1
100
AcDbSymbolTableRecord
100
AcDbBlockTableRecord
  2
*D34
340
0
 70
     0
280
     1
281
     0
  0
BLOCK_RECORD
  5
212A
330
1
100
AcDbSymbolTableRecord
100
AcDbBlockTableRecord
  2
*D35
340
0
 70
     0
280
     1
281
     0
  0
BLOCK_RECORD
  5
2230
330
1
100
AcDbSymbolTableRecord
100
AcDbBlockTableRecord
  2
*D36
340
0
 70
     0
280
     1
281
     0
  0
BLOCK_RECORD
  5
223D
330
1
100
AcDbSymbolTableRecord
100
AcDbBlockTableRecord
  2
*D37
340
0
 70
     0
280
     1
281
     0
  0
BLOCK_RECORD
  5
224A
330
1
100
AcDbSymbolTableRecord
100
AcDbBlockTableRecord
  2
*D38
340
0
 70
     0
280
     1
281
     0
  0
BLOCK_RECORD
  5
2257
330
1
100
AcDbSymbolTableRecord
100
AcDbBlockTableRecord
  2
*D39
340
0
 70
     0
280
     1
281
     0
  0
BLOCK_RECORD
  5
2267
330
1
100
AcDbSymbolTableRecord
100
AcDbBlockTableRecord
  2
*D40
340
0
 70
     0
280
     1
281
     0
  0
BLOCK_RECORD
  5
2273
330
1
100
AcDbSymbolTableRecord
100
AcDbBlockTableRecord
  2
*D41
340
0
 70
     0
280
     1
281
     0
  0
BLOCK_RECORD
  5
2280
330
1
100
AcDbSymbolTableRecord
100
AcDbBlockTableRecord
  2
*D42
340
0
 70
     0
280
     1
281
     0
  0
BLOCK_RECORD
  5
228D
330
1
100
AcDbSymbolTableRecord
100
AcDbBlockTableRecord
  2
*D43
340
0
 70
     0
280
     1
281
     0
  0
BLOCK_RECORD
  5
22A0
330
1
100
AcDbSymbolTableRecord
100
AcDbBlockTableRecord
  2
*D44
340
0
 70
     0
280
     1
281
     0
  0
BLOCK_RECORD
  5
22AF
330
1
100
AcDbSymbolTableRecord
100
AcDbBlockTableRecord
  2
*D45
340
0
 70
     0
280
     1
281
     0
  0
BLOCK_RECORD
  5
2401
330
1
100
AcDbSymbolTableRecord
100
AcDbBlockTableRecord
  2
*D46
340
0
 70
     0
280
     1
281
     0
  0
BLOCK_RECORD
  5
240E
330
1
100
AcDbSymbolTableRecord
100
AcDbBlockTableRecord
  2
*D47
340
0
 70
     0
280
     1
281
     0
  0
BLOCK_RECORD
  5
241D
330
1
100
AcDbSymbolTableRecord
100
AcDbBlockTableRecord
  2
*D48
340
0
 70
     0
280
     1
281
     0
  0
BLOCK_RECORD
  5
242A
330
1
100
AcDbSymbolTableRecord
100
AcDbBlockTableRecord
  2
*D49
340
0
 70
     0
280
     1
281
     0
  0
BLOCK_RECORD
  5
2437
330
1
100
AcDbSymbolTableRecord
100
AcDbBlockTableRecord
  2
*D50
340
0
 70
     0
280
     1
281
     0
  0
BLOCK_RECORD
  5
244D
330
1
100
AcDbSymbolTableRecord
100
AcDbBlockTableRecord
  2
*D51
340
0
 70
     0
280
     1
281
     0
  0
BLOCK_RECORD
  5
25E4
330
1
100
AcDbSymbolTableRecord
100
AcDbBlockTableRecord
  2
*D52
340
0
 70
     0
280
     1
281
     0
  0
BLOCK_RECORD
  5
25F0
330
1
100
AcDbSymbolTableRecord
100
AcDbBlockTableRecord
  2
*D53
340
0
 70
     0
280
     1
281
     0
  0
BLOCK_RECORD
  5
25FC
330
1
100
AcDbSymbolTableRecord
100
AcDbBlockTableRecord
  2
*D54
340
0
 70
     0
280
     1
281
     0
  0
BLOCK_RECORD
  5
2608
330
1
100
AcDbSymbolTableRecord
100
AcDbBlockTableRecord
  2
*D55
340
0
 70
     0
280
     1
281
     0
  0
BLOCK_RECORD
  5
2614
330
1
100
AcDbSymbolTableRecord
100
AcDbBlockTableRecord
  2
*D56
340
0
 70
     0
280
     1
281
     0
  0
BLOCK_RECORD
  5
261F
330
1
100
AcDbSymbolTableRecord
100
AcDbBlockTableRecord
  2
*D57
340
0
 70
     0
280
     1
281
     0
  0
BLOCK_RECORD
  5
262B
330
1
100
AcDbSymbolTableRecord
100
AcDbBlockTableRecord
  2
*D58
340
0
 70
     0
280
     1
281
     0
  0
BLOCK_RECORD
  5
2637
330
1
100
AcDbSymbolTableRecord
100
AcDbBlockTableRecord
  2
*D59
340
0
 70
     0
280
     1
281
     0
  0
BLOCK_RECORD
  5
2643
330
1
100
AcDbSymbolTableRecord
100
AcDbBlockTableRecord
  2
*D60
340
0
 70
     0
280
     1
281
     0
  0
BLOCK_RECORD
  5
264F
330
1
100
AcDbSymbolTableRecord
100
AcDbBlockTableRecord
  2
*D61
340
0
 70
     0
280
     1
281
     0
  0
BLOCK_RECORD
  5
265B
330
1
100
AcDbSymbolTableRecord
100
AcDbBlockTableRecord
  2
*D62
340
0
 70
     0
280
     1
281
     0
  0
BLOCK_RECORD
  5
2667
330
1
100
AcDbSymbolTableRecord
100
AcDbBlockTableRecord
  2
*D63
340
0
 70
     0
280
     1
281
     0
  0
BLOCK_RECORD
  5
2673
330
1
100
AcDbSymbolTableRecord
100
AcDbBlockTableRecord
  2
*D64
340
0
 70
     0
280
     1
281
     0
  0
BLOCK_RECORD
  5
267F
330
1
100
AcDbSymbolTableRecord
100
AcDbBlockTableRecord
  2
*D65
340
0
 70
     0
280
     1
281
     0
  0
BLOCK_RECORD
  5
268B
330
1
100
AcDbSymbolTableRecord
100
AcDbBlockTableRecord
  2
*D66
340
0
 70
     0
280
     1
281
     0
  0
BLOCK_RECORD
  5
2698
330
1
100
AcDbSymbolTableRecord
100
AcDbBlockTableRecord
  2
*D67
340
0
 70
     0
280
     1
281
     0
  0
BLOCK_RECORD
  5
26A5
330
1
100
AcDbSymbolTableRecord
100
AcDbBlockTableRecord
  2
*D68
340
0
 70
     0
280
     1
281
     0
  0
BLOCK_RECORD
  5
26B8
330
1
100
AcDbSymbolTableRecord
100
AcDbBlockTableRecord
  2
*D69
340
0
 70
     0
280
     1
281
     0
  0
BLOCK_RECORD
  5
2727
330
1
100
AcDbSymbolTableRecord
100
AcDbBlockTableRecord
  2
*D70
340
0
 70
     0
280
     1
281
     0
  0
BLOCK_RECORD
  5
2733
330
1
100
AcDbSymbolTableRecord
100
AcDbBlockTableRecord
  2
*D71
340
0
 70
     0
280
     1
281
     0
  0
BLOCK_RECORD
  5
2740
330
1
100
AcDbSymbolTableRecord
100
AcDbBlockTableRecord
  2
*D72
340
0
 70
     0
280
     1
281
     0
  0
BLOCK_RECORD
  5
274C
330
1
100
AcDbSymbolTableRecord
100
AcDbBlockTableRecord
  2
*D73
340
0
 70
     0
280
     1
281
     0
  0
BLOCK_RECORD
  5
2758
330
1
100
AcDbSymbolTableRecord
100
AcDbBlockTableRecord
  2
*D74
340
0
 70
     0
280
     1
281
     0
  0
ENDTAB
  0
ENDSEC
  0
SECTION
  2
BLOCKS
  0
BLOCK
  5
D
330
A
100
AcDbEntity
  8
0
390
1D
100
AcDbBlockBegin
  2
*MODEL_SPACE
 70
     0
 10
0.0
 20
0.0
 30
0.0
  3
*MODEL_SPACE
  1
*MODEL_SPACE
  0
ENDBLK
  5
E
330
A
100
AcDbEntity
  8
0
390
1D
100
AcDbBlockEnd
  0
BLOCK
  5
F
330
B
100
AcDbEntity
 67
     1
  8
0
390
1D
100
AcDbBlockBegin
  2
*PAPER_SPACE
 70
     0
 10
0.0
 20
0.0
 30
0.0
  3
*PAPER_SPACE
  1
*PAPER_SPACE
  0
ENDBLK
  5
10
330
B
100
AcDbEntity
 67
     1
  8
0
390
1D
100
AcDbBlockEnd
  0
BLOCK
  5
2BB
330
4E
100
AcDbEntity
  8
0
390
1D
100
AcDbBlockBegin
  2
_DOT
 70
     0
 10
0.0
 20
0.0
 30
0.0
  3
_DOT
  1
_DOT
  0
POLYLINE
  5
2BD
330
4E
100
AcDbEntity
  8
0
  6
ByBlock
 62
     0
370
    -2
390
1D
100
AcDb2dPolyline
 66
     1
 10
0.0
 20
0.0
 30
0.0
 70
     1
 40
0.5
 41
0.5
  0
VERTEX
  5
2BE
330
2BD
100
AcDbEntity
  8
0
  6
ByBlock
 62
     0
370
    -2
390
1D
100
AcDbVertex
100
AcDb2dVertex
 10
-0.25
 20
0.0
 30
0.0
 42
1.0
  0
VERTEX
  5
2BF
330
2BD
100
AcDbEntity
  8
0
  6
ByBlock
 62
     0
370
    -2
390
1D
100
AcDbVertex
100
AcDb2dVertex
 10
0.25
 20
0.0
 30
0.0
 42
1.0
  0
SEQEND
  5
2C0
330
2BD
100
AcDbEntity
  8
0
390
1D
  0
LINE
  5
2C1
330
4E
100
AcDbEntity
  8
0
  6
ByBlock
 62
     0
370
    -2
390
1D
100
AcDbLine
 10
-0.5
 20
0.0
 30
0.0
 11
-1.0
 21
0.0
 31
0.0
  0
ENDBLK
  5
2C2
330
4E
100
AcDbEntity
  8
0
390
1D
100
AcDbBlockEnd
  0
BLOCK
  5
3A6
330
3A5
100
AcDbEntity
  8
0
100
AcDbBlockBegin
  2
名称未設定-1
 70
     0
 10
0.0
 20
0.0
 30
0.0
  3
名称未設定-1
  1
名称未設定-1
  0
INSERT
  5
3A7
330
3A5
100
AcDbEntity
  8
レイヤー 1
100
AcDbBlockReference
  2
block 2
 10
0.0
 20
0.0
 30
0.0
  0
ENDBLK
  5
3CC
330
3A5
100
AcDbEntity
  8
0
100
AcDbBlockEnd
  0
BLOCK
  5
3A9
330
3A8
100
AcDbEntity
  8
0
100
AcDbBlockBegin
  2
block 2
 70
     0
 10
0.0
 20
0.0
 30
0.0
  3
block 2
  1
block 2
  0
INSERT
  5
3AA
330
3A8
100
AcDbEntity
  8
レイヤー 1
100
AcDbBlockReference
  2
block 3
 10
0.0
 20
0.0
 30
0.0
  0
ENDBLK
  5
3CB
330
3A8
100
AcDbEntity
  8
0
100
AcDbBlockEnd
  0
BLOCK
  5
3AC
330
3AB
100
AcDbEntity
  8
0
100
AcDbBlockBegin
  2
block 3
 70
     0
 10
0.0
 20
0.0
 30
0.0
  3
block 3
  1
block 3
  0
INSERT
  5
3AD
330
3AB
100
AcDbEntity
  8
レイヤー 1
100
AcDbBlockReference
  2
block 4
 10
0.0
 20
0.0
 30
0.0
  0
ENDBLK
  5
3CA
330
3AB
100
AcDbEntity
  8
0
100
AcDbBlockEnd
  0
BLOCK
  5
3AF
330
3AE
100
AcDbEntity
  8
0
100
AcDbBlockBegin
  2
block 4
 70
     0
 10
0.0
 20
0.0
 30
0.0
  3
block 4
  1
block 4
  0
POLYLINE
  5
3B0
330
3AE
100
AcDbEntity
  8
レイヤー 1
370
     0
100
AcDb2dPolyline
 66
     1
 10
0.0
 20
0.0
 30
0.0
  0
VERTEX
  5
3B1
330
3B0
100
AcDbEntity
  8
レイヤー 1
370
     0
100
AcDbVertex
100
AcDb2dVertex
 10
83.79545727667795
 20
167.6444858234922
 30
0.0
  0
VERTEX
  5
3B2
330
3B0
100
AcDbEntity
  8
レイヤー 1
370
     0
100
AcDbVertex
100
AcDb2dVertex
 10
83.79545727667795
 20
159.7968976406313
 30
0.0
  0
VERTEX
  5
3B3
330
3B0
100
AcDbEntity
  8
レイヤー 1
370
     0
100
AcDbVertex
100
AcDb2dVertex
 10
71.3631329975216
 20
159.7968976406313
 30
0.0
  0
VERTEX
  5
3B4
330
3B0
100
AcDbEntity
  8
レイヤー 1
370
     0
100
AcDbVertex
100
AcDb2dVertex
 10
71.3631329975216
 20
127.8027915271048
 30
0.0
  0
VERTEX
  5
3B5
330
3B0
100
AcDbEntity
  8
レイヤー 1
370
     0
100
AcDbVertex
100
AcDb2dVertex
 10
60.43011526263018
 20
127.8027915271048
 30
0.0
  0
VERTEX
  5
3B6
330
3B0
100
AcDbEntity
  8
レイヤー 1
370
     0
100
AcDbVertex
100
AcDb2dVertex
 10
60.43011526263018
 20
159.7968976406313
 30
0.0
  0
VERTEX
  5
3B7
330
3B0
100
AcDbEntity
  8
レイヤー 1
370
     0
100
AcDbVertex
100
AcDb2dVertex
 10
48.21793273020759
 20
159.7968976406313
 30
0.0
  0
VERTEX
  5
3B8
330
3B0
100
AcDbEntity
  8
レイヤー 1
370
     0
100
AcDbVertex
100
AcDb2dVertex
 10
48.21793273020759
 20
167.6444858234922
 30
0.0
  0
VERTEX
  5
3B9
330
3B0
100
AcDbEntity
  8
レイヤー 1
370
     0
100
AcDbVertex
100
AcDb2dVertex
 10
83.79545727667795
 20
167.6444858234922
 30
0.0
  0
SEQEND
  5
3BA
330
3B0
100
AcDbEntity
  8
レイヤー 1
370
     0
  0
HATCH
  5
3BB
330
3AE
100
AcDbEntity
  8
レイヤー 1
 62
   250
420
  2234388
100
AcDbHatch
 10
0.0
 20
0.0
 30
0.0
210
0.0
220
0.0
230
1.0
  2
SOLID
 70
     1
 71
     0
 91
        1
 92
        1
 93
        8
 72
     1
 10
83.79545727667795
 20
167.6444858234922
 11
83.79545727667795
 21
159.7968976406313
 72
     1
 10
83.79545727667795
 20
159.7968976406313
 11
71.3631329975216
 21
159.7968976406313
 72
     1
 10
71.3631329975216
 20
159.7968976406313
 11
71.3631329975216
 21
127.8027915271048
 72
     1
 10
71.3631329975216
 20
127.8027915271048
 11
60.43011526263018
 21
127.8027915271048
 72
     1
 10
60.43011526263018
 20
127.8027915271048
 11
60.43011526263018
 21
159.7968976406313
 72
     1
 10
60.43011526263018
 20
159.7968976406313
 11
48.21793273020759
 21
159.7968976406313
 72
     1
 10
48.21793273020759
 20
159.7968976406313
 11
48.21793273020759
 21
167.6444858234922
 72
     1
 10
48.21793273020759
 20
167.6444858234922
 11
83.79545727667795
 21
167.6444858234922
 97
        0
 75
     2
 76
     1
 98
        0
  0
INSERT
  5
3BC
330
3AE
100
AcDbEntity
  8
レイヤー 1
100
AcDbBlockReference
  2
block 5
 10
0.0
 20
0.0
 30
0.0
  0
ENDBLK
  5
3C9
330
3AE
100
AcDbEntity
  8
0
100
AcDbBlockEnd
  0
BLOCK
  5
3BE
330
3BD
100
AcDbEntity
  8
0
100
AcDbBlockBegin
  2
block 5
 70
     0
 10
0.0
 20
0.0
 30
0.0
  3
block 5
  1
block 5
  0
SPLINE
  5
3BF
330
3BD
100
AcDbEntity
  8
レイヤー 1
370
     0
100
AcDbSpline
210
0.0
220
0.0
230
1.0
 70
    11
 71
     3
 72
    56
 73
    52
 74
     0
 42
0.000000001
 43
0.0000000001
 40
0.0
 40
0.0
 40
0.0
 40
0.0
 40
1.0
 40
1.0
 40
1.0
 40
2.0
 40
2.0
 40
2.0
 40
3.0
 40
3.0
 40
3.0
 40
4.0
 40
4.0
 40
4.0
 40
5.0
 40
5.0
 40
5.0
 40
6.0
 40
6.0
 40
6.0
 40
7.0
 40
7.0
 40
7.0
 40
8.0
 40
8.0
 40
8.0
 40
9.0
 40
9.0
 40
9.0
 40
10.0
 40
10.0
 40
10.0
 40
11.0
 40
11.0
 40
11.0
 40
12.0
 40
12.0
 40
12.0
 40
13.0
 40
13.0
 40
13.0
 40
14.0
 40
14.0
 40
14.0
 40
15.0
 40
15.0
 40
15.0
 40
16.0
 40
16.0
 40
16.0
 40
17.0
 40
17.0
 40
17.0
 40
17.0
 10
100.4504378777679
 20
166.69157178364
 30
0.0
 10
101.9848844191641
 20
167.1313385124438
 30
0.0
 10
103.9637485713373
 20
166.7649523658846
 30
0.0
 10
103.9637485713373
 20
166.7649523658846
 30
0.0
 10
103.9637485713373
 20
166.7649523658846
 30
0.0
 10
103.0132460999156
 20
163.911205638077
 30
0.0
 10
103.0132460999156
 20
163.911205638077
 30
0.0
 10
103.0132460999156
 20
163.911205638077
 30
0.0
 10
101.0674548862189
 20
164.3601018759394
 30
0.0
 10
99.57090442016032
 20
163.1805004036133
 30
0.0
 10
98.40508333886608
 20
162.258247733807
 30
0.0
 10
97.65301849830304
 20
159.804132345923
 30
0.0
 10
97.3598406791005
 20
158.8699940888517
 30
0.0
 10
97.3598406791005
 20
158.8699940888517
 30
0.0
 10
96.07137411762282
 20
154.9119212747295
 30
0.0
 10
96.07137411762282
 20
154.9119212747295
 30
0.0
 10
96.07137411762282
 20
154.9119212747295
 30
0.0
 10
100.3012651448482
 20
154.9119212747295
 30
0.0
 10
100.3012651448482
 20
154.9119212747295
 30
0.0
 10
100.3012651448482
 20
154.9119212747295
 30
0.0
 10
99.64152892419852
 20
152.4199098115079
 30
0.0
 10
99.64152892419852
 20
152.4199098115079
 30
0.0
 10
99.64152892419852
 20
152.4199098115079
 30
0.0
 10
95.38097652692731
 20
152.4199098115079
 30
0.0
 10
95.38097652692731
 20
152.4199098115079
 30
0.0
 10
95.38097652692731
 20
152.4199098115079
 30
0.0
 10
87.75353009080013
 20
127.8027915271048
 30
0.0
 10
87.75353009080013
 20
127.8027915271048
 30
0.0
 10
87.75353009080013
 20
127.8027915271048
 30
0.0
 10
85.36538832498108
 20
127.8027915271048
 30
0.0
 10
85.36538832498108
 20
127.8027915271048
 30
0.0
 10
85.36538832498108
 20
127.8027915271048
 30
0.0
 10
93.00006946639998
 20
152.4199098115079
 30
0.0
 10
93.00006946639998
 20
152.4199098115079
 30
0.0
 10
93.00006946639998
 20
152.4199098115079
 30
0.0
 10
89.85297266450198
 20
152.4199098115079
 30
0.0
 10
89.85297266450198
 20
152.4199098115079
 30
0.0
 10
89.85297266450198
 20
152.4199098115079
 30
0.0
 10
90.51270888515164
 20
154.9119212747295
 30
0.0
 10
90.51270888515164
 20
154.9119212747295
 30
0.0
 10
90.51270888515164
 20
154.9119212747295
 30
0.0
 10
93.6904670570955
 20
154.9119212747295
 30
0.0
 10
93.6904670570955
 20
154.9119212747295
 30
0.0
 10
93.6904670570955
 20
154.9119212747295
 30
0.0
 10
94.81598049462158
 20
158.3616699146644
 30
0.0
 10
94.81598049462158
 20
158.3616699146644
 30
0.0
 10
95.7237637538445
 20
161.2605474231013
 30
0.0
 10
96.4968436907311
 20
162.8139420021662
 30
0.0
 10
97.15657991138076
 20
163.9844139654337
 30
0.0
 10
97.81183750494507
 20
165.1523021053827
 30
0.0
 10
99.1047826935081
 20
166.3084769129547
 30
0.0
 10
100.4504378777679
 20
166.69157178364
 30
0.0
  0
HATCH
  5
3C0
330
3BD
100
AcDbEntity
  8
レイヤー 1
 62
   250
420
  2234388
100
AcDbHatch
 10
0.0
 20
0.0
 30
0.0
210
0.0
220
0.0
230
1.0
  2
SOLID
 70
     1
 71
     0
 91
        1
 92
        1
 93
        1
 72
     4
 94
        3
 73
     0
 74
     1
 95
       56
 96
       52
 40
0.0
 40
0.0
 40
0.0
 40
0.0
 40
1.0
 40
1.0
 40
1.0
 40
2.0
 40
2.0
 40
2.0
 40
3.0
 40
3.0
 40
3.0
 40
4.0
 40
4.0
 40
4.0
 40
5.0
 40
5.0
 40
5.0
 40
6.0
 40
6.0
 40
6.0
 40
7.0
 40
7.0
 40
7.0
 40
8.0
 40
8.0
 40
8.0
 40
9.0
 40
9.0
 40
9.0
 40
10.0
 40
10.0
 40
10.0
 40
11.0
 40
11.0
 40
11.0
 40
12.0
 40
12.0
 40
12.0
 40
13.0
 40
13.0
 40
13.0
 40
14.0
 40
14.0
 40
14.0
 40
15.0
 40
15.0
 40
15.0
 40
16.0
 40
16.0
 40
16.0
 40
17.0
 40
17.0
 40
17.0
 40
17.0
 10
100.4504378777679
 20
166.69157178364
 10
101.9848844191641
 20
167.1313385124438
 10
103.9637485713373
 20
166.7649523658846
 10
103.9637485713373
 20
166.7649523658846
 10
103.9637485713373
 20
166.7649523658846
 10
103.0132460999156
 20
163.911205638077
 10
103.0132460999156
 20
163.911205638077
 10
103.0132460999156
 20
163.911205638077
 10
101.0674548862189
 20
164.3601018759394
 10
99.57090442016032
 20
163.1805004036133
 10
98.40508333886608
 20
162.258247733807
 10
97.65301849830304
 20
159.804132345923
 10
97.3598406791005
 20
158.8699940888517
 10
97.3598406791005
 20
158.8699940888517
 10
96.07137411762282
 20
154.9119212747295
 10
96.07137411762282
 20
154.9119212747295
 10
96.07137411762282
 20
154.9119212747295
 10
100.3012651448482
 20
154.9119212747295
 10
100.3012651448482
 20
154.9119212747295
 10
100.3012651448482
 20
154.9119212747295
 10
99.64152892419852
 20
152.4199098115079
 10
99.64152892419852
 20
152.4199098115079
 10
99.64152892419852
 20
152.4199098115079
 10
95.38097652692731
 20
152.4199098115079
 10
95.38097652692731
 20
152.4199098115079
 10
95.38097652692731
 20
152.4199098115079
 10
87.75353009080013
 20
127.8027915271048
 10
87.75353009080013
 20
127.8027915271048
 10
87.75353009080013
 20
127.8027915271048
 10
85.36538832498108
 20
127.8027915271048
 10
85.36538832498108
 20
127.8027915271048
 10
85.36538832498108
 20
127.8027915271048
 10
93.00006946639998
 20
152.4199098115079
 10
93.00006946639998
 20
152.4199098115079
 10
93.00006946639998
 20
152.4199098115079
 10
89.85297266450198
 20
152.4199098115079
 10
89.85297266450198
 20
152.4199098115079
 10
89.85297266450198
 20
152.4199098115079
 10
90.51270888515164
 20
154.9119212747295
 10
90.51270888515164
 20
154.9119212747295
 10
90.51270888515164
 20
154.9119212747295
 10
93.6904670570955
 20
154.9119212747295
 10
93.6904670570955
 20
154.9119212747295
 10
93.6904670570955
 20
154.9119212747295
 10
94.81598049462158
 20
158.3616699146644
 10
94.81598049462158
 20
158.3616699146644
 10
95.7237637538445
 20
161.2605474231013
 10
96.4968436907311
 20
162.8139420021662
 10
97.15657991138076
 20
163.9844139654337
 10
97.81183750494507
 20
165.1523021053827
 10
99.1047826935081
 20
166.3084769129547
 10
100.4504378777679
 20
166.69157178364
 97
        0
 75
     2
 76
     1
 98
        0
  0
SPLINE
  5
3C1
330
3BD
100
AcDbEntity
  8
レイヤー 1
370
     0
100
AcDbSpline
210
0.0
220
0.0
230
1.0
 70
    11
 71
     3
 72
    38
 73
    34
 74
     0
 42
0.000000001
 43
0.0000000001
 40
0.0
 40
0.0
 40
0.0
 40
0.0
 40
1.0
 40
1.0
 40
1.0
 40
2.0
 40
2.0
 40
2.0
 40
3.0
 40
3.0
 40
3.0
 40
4.0
 40
4.0
 40
4.0
 40
5.0
 40
5.0
 40
5.0
 40
6.0
 40
6.0
 40
6.0
 40
7.0
 40
7.0
 40
7.0
 40
8.0
 40
8.0
 40
8.0
 40
9.0
 40
9.0
 40
9.0
 40
10.0
 40
10.0
 40
10.0
 40
11.0
 40
11.0
 40
11.0
 40
11.0
 10
126.377554584636
 20
154.8151140277308
 30
0.0
 10
126.377554584636
 20
154.8151140277308
 30
0.0
 10
128.8311532078563
 20
154.8151140277308
 30
0.0
 10
128.8311532078563
 20
154.8151140277308
 30
0.0
 10
128.8311532078563
 20
154.8151140277308
 30
0.0
 10
127.7345785914971
 20
151.3062819612468
 30
0.0
 10
127.7345785914971
 20
151.3062819612468
 30
0.0
 10
128.571392836906
 20
152.2922689395754
 30
0.0
 10
129.8860421413442
 20
153.604506675583
 30
0.0
 10
131.0163787157314
 20
154.2664822097754
 30
0.0
 10
132.7044766171327
 20
155.2500576196734
 30
0.0
 10
133.6642808525008
 20
155.3847609420097
 30
0.0
 10
134.7284715499351
 20
155.3565111403944
 30
0.0
 10
134.7284715499351
 20
155.3565111403944
 30
0.0
 10
133.6877075172549
 20
152.0345756272799
 30
0.0
 10
133.6877075172549
 20
152.0345756272799
 30
0.0
 10
133.011434827367
 20
152.3184516825359
 30
0.0
 10
130.930940291334
 20
151.7768823149844
 30
0.0
 10
129.739280976855
 20
150.9162968950455
 30
0.0
 10
128.66613302525
 20
150.1454562717016
 30
0.0
 10
127.9192358313239
 20
149.4857200510519
 30
0.0
 10
127.0393578639405
 20
147.8282835196966
 30
0.0
 10
126.164647543194
 20
146.1699857139017
 30
0.0
 10
125.4742499524985
 20
143.5262176944419
 30
0.0
 10
124.2822461282437
 20
139.6959580071401
 30
0.0
 10
124.2822461282437
 20
139.6959580071401
 30
0.0
 10
120.5753209406769
 20
127.8027915271048
 30
0.0
 10
120.5753209406769
 20
127.8027915271048
 30
0.0
 10
120.5753209406769
 20
127.8027915271048
 30
0.0
 10
118.1964809388044
 20
127.8027915271048
 30
0.0
 10
118.1964809388044
 20
127.8027915271048
 30
0.0
 10
118.1964809388044
 20
127.8027915271048
 30
0.0
 10
126.377554584636
 20
154.8151140277308
 30
0.0
 10
126.377554584636
 20
154.8151140277308
 30
0.0
  0
HATCH
  5
3C2
330
3BD
100
AcDbEntity
  8
レイヤー 1
 62
   250
420
  2234388
100
AcDbHatch
 10
0.0
 20
0.0
 30
0.0
210
0.0
220
0.0
230
1.0
  2
SOLID
 70
     1
 71
     0
 91
        1
 92
        1
 93
        1
 72
     4
 94
        3
 73
     0
 74
     1
 95
       38
 96
       34
 40
0.0
 40
0.0
 40
0.0
 40
0.0
 40
1.0
 40
1.0
 40
1.0
 40
2.0
 40
2.0
 40
2.0
 40
3.0
 40
3.0
 40
3.0
 40
4.0
 40
4.0
 40
4.0
 40
5.0
 40
5.0
 40
5.0
 40
6.0
 40
6.0
 40
6.0
 40
7.0
 40
7.0
 40
7.0
 40
8.0
 40
8.0
 40
8.0
 40
9.0
 40
9.0
 40
9.0
 40
10.0
 40
10.0
 40
10.0
 40
11.0
 40
11.0
 40
11.0
 40
11.0
 10
126.377554584636
 20
154.8151140277308
 10
126.377554584636
 20
154.8151140277308
 10
128.8311532078563
 20
154.8151140277308
 10
128.8311532078563
 20
154.8151140277308
 10
128.8311532078563
 20
154.8151140277308
 10
127.7345785914971
 20
151.3062819612468
 10
127.7345785914971
 20
151.3062819612468
 10
128.571392836906
 20
152.2922689395754
 10
129.8860421413442
 20
153.604506675583
 10
131.0163787157314
 20
154.2664822097754
 10
132.7044766171327
 20
155.2500576196734
 10
133.6642808525008
 20
155.3847609420097
 10
134.7284715499351
 20
155.3565111403944
 10
134.7284715499351
 20
155.3565111403944
 10
133.6877075172549
 20
152.0345756272799
 10
133.6877075172549
 20
152.0345756272799
 10
133.011434827367
 20
152.3184516825359
 10
130.930940291334
 20
151.7768823149844
 10
129.739280976855
 20
150.9162968950455
 10
128.66613302525
 20
150.1454562717016
 10
127.9192358313239
 20
149.4857200510519
 10
127.0393578639405
 20
147.8282835196966
 10
126.164647543194
 20
146.1699857139017
 10
125.4742499524985
 20
143.5262176944419
 10
124.2822461282437
 20
139.6959580071401
 10
124.2822461282437
 20
139.6959580071401
 10
120.5753209406769
 20
127.8027915271048
 10
120.5753209406769
 20
127.8027915271048
 10
120.5753209406769
 20
127.8027915271048
 10
118.1964809388044
 20
127.8027915271048
 10
118.1964809388044
 20
127.8027915271048
 10
118.1964809388044
 20
127.8027915271048
 10
126.377554584636
 20
154.8151140277308
 10
126.377554584636
 20
154.8151140277308
 97
        0
 75
     2
 76
     1
 98
        0
  0
SPLINE
  5
3C3
330
3BD
100
AcDbEntity
  8
レイヤー 1
370
     0
100
AcDbSpline
210
0.0
220
0.0
230
1.0
 70
    11
 71
     3
 72
   104
 73
   100
 74
     0
 42
0.000000001
 43
0.0000000001
 40
0.0
 40
0.0
 40
0.0
 40
0.0
 40
1.0
 40
1.0
 40
1.0
 40
2.0
 40
2.0
 40
2.0
 40
3.0
 40
3.0
 40
3.0
 40
4.0
 40
4.0
 40
4.0
 40
5.0
 40
5.0
 40
5.0
 40
6.0
 40
6.0
 40
6.0
 40
7.0
 40
7.0
 40
7.0
 40
8.0
 40
8.0
 40
8.0
 40
9.0
 40
9.0
 40
9.0
 40
10.0
 40
10.0
 40
10.0
 40
11.0
 40
11.0
 40
11.0
 40
12.0
 40
12.0
 40
12.0
 40
13.0
 40
13.0
 40
13.0
 40
14.0
 40
14.0
 40
14.0
 40
15.0
 40
15.0
 40
15.0
 40
16.0
 40
16.0
 40
16.0
 40
17.0
 40
17.0
 40
17.0
 40
18.0
 40
18.0
 40
18.0
 40
19.0
 40
19.0
 40
19.0
 40
20.0
 40
20.0
 40
20.0
 40
21.0
 40
21.0
 40
21.0
 40
22.0
 40
22.0
 40
22.0
 40
23.0
 40
23.0
 40
23.0
 40
24.0
 40
24.0
 40
24.0
 40
25.0
 40
25.0
 40
25.0
 40
26.0
 40
26.0
 40
26.0
 40
27.0
 40
27.0
 40
27.0
 40
28.0
 40
28.0
 40
28.0
 40
29.0
 40
29.0
 40
29.0
 40
30.0
 40
30.0
 40
30.0
 40
31.0
 40
31.0
 40
31.0
 40
32.0
 40
32.0
 40
32.0
 40
33.0
 40
33.0
 40
33.0
 40
33.0
 10
139.8926730891197
 20
154.8294111834263
 30
0.0
 10
139.8926730891197
 20
154.8294111834263
 30
0.0
 10
142.0344903652445
 20
154.8294111834263
 30
0.0
 10
142.0344903652445
 20
154.8294111834263
 30
0.0
 10
142.0344903652445
 20
154.8294111834263
 30
0.0
 10
140.9516961399171
 20
151.3157559800812
 30
0.0
 10
140.9516961399171
 20
151.3157559800812
 30
0.0
 10
141.8928968473923
 20
152.7887075264977
 30
0.0
 10
142.7341897198865
 20
153.4484437471474
 30
0.0
 10
143.8552245303272
 20
154.2926649527359
 30
0.0
 10
144.9803934580775
 20
155.1296514530327
 30
0.0
 10
146.3139908001845
 20
155.3044901642492
 30
0.0
 10
147.241066606852
 20
155.3044901642492
 30
0.0
 10
148.3855280820469
 20
155.3044901642492
 30
0.0
 10
149.4969166187653
 20
155.0752189084569
 30
0.0
 10
150.0784491203092
 20
153.8172414621372
 30
0.0
 10
150.5228667310863
 20
152.833838307127
 30
0.0
 10
150.5414702589793
 20
152.7201500811143
 30
0.0
 10
150.4140016419347
 20
150.7765981809602
 30
0.0
 10
151.5818897818837
 20
152.7699317437168
 30
0.0
 10
152.4424752018226
 20
153.6256940267945
 30
0.0
 10
153.9038856707499
 20
154.4507949398263
 30
0.0
 10
155.4455669174378
 20
155.3044901642492
 30
0.0
 10
156.339225275853
 20
155.3659851592288
 30
0.0
 10
157.3748216618963
 20
155.2147453676543
 30
0.0
 10
158.911679771723
 20
154.9877134254046
 30
0.0
 10
159.8859534176746
 20
154.4390816074493
 30
0.0
 10
160.3965169054045
 20
152.7816450760939
 30
0.0
 10
160.9070803931344
 20
151.1219692311958
 30
0.0
 10
160.6328506116007
 20
150.2303779314354
 30
0.0
 10
159.9992971339115
 20
147.597634224801
 30
0.0
 10
159.7105979417943
 20
146.4014962832367
 30
0.0
 10
159.2947746424084
 20
144.9400858143094
 30
0.0
 10
158.7463150793409
 20
143.2092687007094
 30
0.0
 10
158.7463150793409
 20
143.2092687007094
 30
0.0
 10
153.9038856707499
 20
127.8027915271048
 30
0.0
 10
153.9038856707499
 20
127.8027915271048
 30
0.0
 10
153.9038856707499
 20
127.8027915271048
 30
0.0
 10
151.3882752878863
 20
127.8027915271048
 30
0.0
 10
151.3882752878863
 20
127.8027915271048
 30
0.0
 10
151.3882752878863
 20
127.8027915271048
 30
0.0
 10
155.6250565106276
 20
141.2751908193897
 30
0.0
 10
155.6250565106276
 20
141.2751908193897
 30
0.0
 10
156.5094131050963
 20
144.0936252951782
 30
0.0
 10
157.109893644309
 20
146.1506931664571
 30
0.0
 10
157.4220195011804
 20
147.4415712963654
 30
0.0
 10
157.8095929989511
 20
149.0530157726519
 30
0.0
 10
157.9656559273867
 20
149.5826995529385
 30
0.0
 10
157.7816877071116
 20
150.7529992613181
 30
0.0
 10
157.6111553680925
 20
151.8430281919372
 30
0.0
 10
157.0582171779396
 20
152.5547853887321
 30
0.0
 10
156.1170164704645
 20
152.5547853887321
 30
0.0
 10
155.1096698860365
 20
152.5547853887321
 30
0.0
 10
154.2962823053817
 20
152.4412694176073
 30
0.0
 10
153.156643967048
 20
151.2945686288697
 30
0.0
 10
152.0170056287143
 20
150.1476955852443
 30
0.0
 10
151.076149431015
 20
148.7930831468137
 30
0.0
 10
150.3337308641742
 20
147.2290087646991
 30
0.0
 10
149.5957909244188
 20
145.6683794803425
 30
0.0
 10
148.8530278478023
 20
143.6822806228776
 30
0.0
 10
148.0964843801539
 20
141.2751908193897
 30
0.0
 10
148.0964843801539
 20
141.2751908193897
 30
0.0
 10
143.8552245303272
 20
127.8027915271048
 30
0.0
 10
143.8552245303272
 20
127.8027915271048
 30
0.0
 10
143.8552245303272
 20
127.8027915271048
 30
0.0
 10
141.486030802177
 20
127.8027915271048
 30
0.0
 10
141.486030802177
 20
127.8027915271048
 30
0.0
 10
141.486030802177
 20
127.8027915271048
 30
0.0
 10
146.3329388378533
 20
143.2092687007094
 30
0.0
 10
146.3329388378533
 20
143.2092687007094
 30
0.0
 10
146.8483254624444
 20
144.8408669988801
 30
0.0
 10
147.2314203331297
 20
146.1837661049335
 30
0.0
 10
147.4867020769946
 20
147.224185627838
 30
0.0
 10
147.9169947869641
 20
149.0197705792876
 30
0.0
 10
148.0306830129768
 20
150.2400242051577
 30
0.0
 10
147.709255392159
 20
151.3157559800812
 30
0.0
 10
147.3874832615654
 20
152.3916600098926
 30
0.0
 10
146.8245542879144
 20
152.6683013598569
 30
0.0
 10
145.8840425999909
 20
152.6683013598569
 30
0.0
 10
145.0989048209514
 20
152.6683013598569
 30
0.0
 10
144.3282364524954
 20
152.3275811915945
 30
0.0
 10
143.4531816219731
 20
151.6538923250251
 30
0.0
 10
142.34627171234
 20
150.8074318058939
 30
0.0
 10
141.901854101563
 20
150.1097995099067
 30
0.0
 10
141.3578731655808
 20
149.289521733736
 30
0.0
 10
140.6299240093235
 20
148.192602607601
 30
0.0
 10
140.2850697237515
 20
147.455696197173
 30
0.0
 10
139.6652966370942
 20
145.8385673095858
 30
0.0
 10
139.0506911970739
 20
144.2214384219986
 30
0.0
 10
138.463991048893
 20
142.3252566160164
 30
0.0
 10
138.0571250036777
 20
141.0154304484394
 30
0.0
 10
138.0571250036777
 20
141.0154304484394
 30
0.0
 10
133.9009590684727
 20
127.8027915271048
 30
0.0
 10
133.9009590684727
 20
127.8027915271048
 30
0.0
 10
133.9009590684727
 20
127.8027915271048
 30
0.0
 10
131.4180771143097
 20
127.8027915271048
 30
0.0
 10
131.4180771143097
 20
127.8027915271048
 30
0.0
 10
131.4180771143097
 20
127.8027915271048
 30
0.0
 10
139.8926730891197
 20
154.8294111834263
 30
0.0
 10
139.8926730891197
 20
154.8294111834263
 30
0.0
  0
HATCH
  5
3C4
330
3BD
100
AcDbEntity
  8
レイヤー 1
 62
   250
420
  2234388
100
AcDbHatch
 10
0.0
 20
0.0
 30
0.0
210
0.0
220
0.0
230
1.0
  2
SOLID
 70
     1
 71
     0
 91
        1
 92
        1
 93
        1
 72
     4
 94
        3
 73
     0
 74
     1
 95
      104
 96
      100
 40
0.0
 40
0.0
 40
0.0
 40
0.0
 40
1.0
 40
1.0
 40
1.0
 40
2.0
 40
2.0
 40
2.0
 40
3.0
 40
3.0
 40
3.0
 40
4.0
 40
4.0
 40
4.0
 40
5.0
 40
5.0
 40
5.0
 40
6.0
 40
6.0
 40
6.0
 40
7.0
 40
7.0
 40
7.0
 40
8.0
 40
8.0
 40
8.0
 40
9.0
 40
9.0
 40
9.0
 40
10.0
 40
10.0
 40
10.0
 40
11.0
 40
11.0
 40
11.0
 40
12.0
 40
12.0
 40
12.0
 40
13.0
 40
13.0
 40
13.0
 40
14.0
 40
14.0
 40
14.0
 40
15.0
 40
15.0
 40
15.0
 40
16.0
 40
16.0
 40
16.0
 40
17.0
 40
17.0
 40
17.0
 40
18.0
 40
18.0
 40
18.0
 40
19.0
 40
19.0
 40
19.0
 40
20.0
 40
20.0
 40
20.0
 40
21.0
 40
21.0
 40
21.0
 40
22.0
 40
22.0
 40
22.0
 40
23.0
 40
23.0
 40
23.0
 40
24.0
 40
24.0
 40
24.0
 40
25.0
 40
25.0
 40
25.0
 40
26.0
 40
26.0
 40
26.0
 40
27.0
 40
27.0
 40
27.0
 40
28.0
 40
28.0
 40
28.0
 40
29.0
 40
29.0
 40
29.0
 40
30.0
 40
30.0
 40
30.0
 40
31.0
 40
31.0
 40
31.0
 40
32.0
 40
32.0
 40
32.0
 40
33.0
 40
33.0
 40
33.0
 40
33.0
 10
139.8926730891197
 20
154.8294111834263
 10
139.8926730891197
 20
154.8294111834263
 10
142.0344903652445
 20
154.8294111834263
 10
142.0344903652445
 20
154.8294111834263
 10
142.0344903652445
 20
154.8294111834263
 10
140.9516961399171
 20
151.3157559800812
 10
140.9516961399171
 20
151.3157559800812
 10
141.8928968473923
 20
152.7887075264977
 10
142.7341897198865
 20
153.4484437471474
 10
143.8552245303272
 20
154.2926649527359
 10
144.9803934580775
 20
155.1296514530327
 10
146.3139908001845
 20
155.3044901642492
 10
147.241066606852
 20
155.3044901642492
 10
148.3855280820469
 20
155.3044901642492
 10
149.4969166187653
 20
155.0752189084569
 10
150.0784491203092
 20
153.8172414621372
 10
150.5228667310863
 20
152.833838307127
 10
150.5414702589793
 20
152.7201500811143
 10
150.4140016419347
 20
150.7765981809602
 10
151.5818897818837
 20
152.7699317437168
 10
152.4424752018226
 20
153.6256940267945
 10
153.9038856707499
 20
154.4507949398263
 10
155.4455669174378
 20
155.3044901642492
 10
156.339225275853
 20
155.3659851592288
 10
157.3748216618963
 20
155.2147453676543
 10
158.911679771723
 20
154.9877134254046
 10
159.8859534176746
 20
154.4390816074493
 10
160.3965169054045
 20
152.7816450760939
 10
160.9070803931344
 20
151.1219692311958
 10
160.6328506116007
 20
150.2303779314354
 10
159.9992971339115
 20
147.597634224801
 10
159.7105979417943
 20
146.4014962832367
 10
159.2947746424084
 20
144.9400858143094
 10
158.7463150793409
 20
143.2092687007094
 10
158.7463150793409
 20
143.2092687007094
 10
153.9038856707499
 20
127.8027915271048
 10
153.9038856707499
 20
127.8027915271048
 10
153.9038856707499
 20
127.8027915271048
 10
151.3882752878863
 20
127.8027915271048
 10
151.3882752878863
 20
127.8027915271048
 10
151.3882752878863
 20
127.8027915271048
 10
155.6250565106276
 20
141.2751908193897
 10
155.6250565106276
 20
141.2751908193897
 10
156.5094131050963
 20
144.0936252951782
 10
157.109893644309
 20
146.1506931664571
 10
157.4220195011804
 20
147.4415712963654
 10
157.8095929989511
 20
149.0530157726519
 10
157.9656559273867
 20
149.5826995529385
 10
157.7816877071116
 20
150.7529992613181
 10
157.6111553680925
 20
151.8430281919372
 10
157.0582171779396
 20
152.5547853887321
 10
156.1170164704645
 20
152.5547853887321
 10
155.1096698860365
 20
152.5547853887321
 10
154.2962823053817
 20
152.4412694176073
 10
153.156643967048
 20
151.2945686288697
 10
152.0170056287143
 20
150.1476955852443
 10
151.076149431015
 20
148.7930831468137
 10
150.3337308641742
 20
147.2290087646991
 10
149.5957909244188
 20
145.6683794803425
 10
148.8530278478023
 20
143.6822806228776
 10
148.0964843801539
 20
141.2751908193897
 10
148.0964843801539
 20
141.2751908193897
 10
143.8552245303272
 20
127.8027915271048
 10
143.8552245303272
 20
127.8027915271048
 10
143.8552245303272
 20
127.8027915271048
 10
141.486030802177
 20
127.8027915271048
 10
141.486030802177
 20
127.8027915271048
 10
141.486030802177
 20
127.8027915271048
 10
146.3329388378533
 20
143.2092687007094
 10
146.3329388378533
 20
143.2092687007094
 10
146.8483254624444
 20
144.8408669988801
 10
147.2314203331297
 20
146.1837661049335
 10
147.4867020769946
 20
147.224185627838
 10
147.9169947869641
 20
149.0197705792876
 10
148.0306830129768
 20
150.2400242051577
 10
147.709255392159
 20
151.3157559800812
 10
147.3874832615654
 20
152.3916600098926
 10
146.8245542879144
 20
152.6683013598569
 10
145.8840425999909
 20
152.6683013598569
 10
145.0989048209514
 20
152.6683013598569
 10
144.3282364524954
 20
152.3275811915945
 10
143.4531816219731
 20
151.6538923250251
 10
142.34627171234
 20
150.8074318058939
 10
141.901854101563
 20
150.1097995099067
 10
141.3578731655808
 20
149.289521733736
 10
140.6299240093235
 20
148.192602607601
 10
140.2850697237515
 20
147.455696197173
 10
139.6652966370942
 20
145.8385673095858
 10
139.0506911970739
 20
144.2214384219986
 10
138.463991048893
 20
142.3252566160164
 10
138.0571250036777
 20
141.0154304484394
 10
138.0571250036777
 20
141.0154304484394
 10
133.9009590684727
 20
127.8027915271048
 10
133.9009590684727
 20
127.8027915271048
 10
133.9009590684727
 20
127.8027915271048
 10
131.4180771143097
 20
127.8027915271048
 10
131.4180771143097
 20
127.8027915271048
 10
131.4180771143097
 20
127.8027915271048
 10
139.8926730891197
 20
154.8294111834263
 10
139.8926730891197
 20
154.8294111834263
 97
        0
 75
     2
 76
     1
 98
        0
  0
SPLINE
  5
3C5
330
3BD
100
AcDbEntity
  8
レイヤー 1
370
     0
100
AcDbSpline
210
0.0
220
0.0
230
1.0
 70
    11
 71
     3
 72
    29
 73
    25
 74
     0
 42
0.000000001
 43
0.0000000001
 40
0.0
 40
0.0
 40
0.0
 40
0.0
 40
1.0
 40
1.0
 40
1.0
 40
2.0
 40
2.0
 40
2.0
 40
3.0
 40
3.0
 40
3.0
 40
4.0
 40
4.0
 40
4.0
 40
5.0
 40
5.0
 40
5.0
 40
6.0
 40
6.0
 40
6.0
 40
7.0
 40
7.0
 40
7.0
 40
8.0
 40
8.0
 40
8.0
 40
8.0
 10
101.6420971922469
 20
132.8388354296931
 30
0.0
 10
101.630039350094
 20
134.7164137077823
 30
0.0
 10
102.2236296937908
 20
138.0598810818841
 30
0.0
 10
103.7487744712405
 20
142.5378191476827
 30
0.0
 10
105.819967243327
 20
148.5896501242061
 30
0.0
 10
107.0602024361932
 20
150.8074318058939
 30
0.0
 10
108.1522984254671
 20
151.8833358357054
 30
0.0
 10
109.741177511439
 20
153.4532668840085
 30
0.0
 10
111.8740375333931
 20
153.5290590346837
 30
0.0
 10
112.5075910110823
 20
153.4532668840085
 30
0.0
 10
113.4012493694975
 20
153.3490526768302
 30
0.0
 10
114.6683563248758
 20
152.7580461564518
 30
0.0
 10
114.7493161221879
 20
150.7838328862519
 30
0.0
 10
114.8106388622796
 20
149.0909118479895
 30
0.0
 10
114.3186789024427
 20
145.9191825971221
 30
0.0
 10
112.6164561002338
 20
140.9489400617108
 30
0.0
 10
110.6444821435766
 20
135.1746117095912
 30
0.0
 10
109.4669477299053
 20
132.8960240524753
 30
0.0
 10
108.5212683953448
 20
131.9072809959403
 30
0.0
 10
106.7346406980658
 20
130.0538184021569
 30
0.0
 10
104.8222669326213
 20
130.2336525051225
 30
0.0
 10
104.5408024457958
 20
130.2336525051225
 30
0.0
 10
104.1721769856939
 20
130.2336525051225
 30
0.0
 10
101.6465758193322
 20
130.6305277668397
 30
0.0
 10
101.6420971922469
 20
132.8388354296931
 30
0.0
  0
SPLINE
  5
3C6
330
3BD
100
AcDbEntity
  8
レイヤー 1
370
     0
100
AcDbSpline
210
0.0
220
0.0
230
1.0
 70
    11
 71
     3
 72
    32
 73
    28
 74
     0
 42
0.000000001
 43
0.0000000001
 40
0.0
 40
0.0
 40
0.0
 40
0.0
 40
1.0
 40
1.0
 40
1.0
 40
2.0
 40
2.0
 40
2.0
 40
3.0
 40
3.0
 40
3.0
 40
4.0
 40
4.0
 40
4.0
 40
5.0
 40
5.0
 40
5.0
 40
6.0
 40
6.0
 40
6.0
 40
7.0
 40
7.0
 40
7.0
 40
8.0
 40
8.0
 40
8.0
 40
9.0
 40
9.0
 40
9.0
 40
9.0
 10
106.2595617172429
 20
153.4105476718098
 30
0.0
 10
104.8222669326213
 20
151.5474388043041
 30
0.0
 10
103.7177685914188
 20
149.8758773721411
 30
0.0
 10
101.9232171692965
 20
144.6141795664062
 30
0.0
 10
100.2754269116635
 20
139.7999999594306
 30
0.0
 10
99.22777268346732
 20
136.3052927937542
 30
0.0
 10
99.06964269637689
 20
132.039572749846
 30
0.0
 10
98.94665270641765
 20
128.8673267343149
 30
0.0
 10
100.8807305877373
 20
127.8027915271048
 30
0.0
 10
103.7129454545577
 20
127.8027915271048
 30
0.0
 10
104.9352661390825
 20
127.8027915271048
 30
0.0
 10
108.0151835347002
 20
127.8827177950895
 30
0.0
 10
110.2045431598849
 20
130.5926316915021
 30
0.0
 10
111.7417457794874
 20
132.4984597712065
 30
0.0
 10
113.155269389579
 20
134.475256864725
 30
0.0
 10
115.0562743324223
 20
140.9489400617108
 30
0.0
 10
116.6361961642235
 20
146.3680788349845
 30
0.0
 10
117.7282921534974
 20
149.8639917848761
 30
0.0
 10
117.6480213757369
 20
151.8595646611754
 30
0.0
 10
117.6480213757369
 20
151.8595646611754
 30
0.0
 10
117.6480213757369
 20
151.8595646611754
 30
0.0
 10
117.6480213757369
 20
151.8595646611754
 30
0.0
 10
117.13229024137
 20
155.18150017429
 30
0.0
 10
114.7162431837115
 20
155.886194920681
 30
0.0
 10
113.3351034925446
 20
155.886194920681
 30
0.0
 10
111.9829026225447
 20
155.886194920681
 30
0.0
 10
108.3414342923792
 20
156.1251124501957
 30
0.0
 10
106.2595617172429
 20
153.4105476718098
 30
0.0
  0
HATCH
  5
3C7
330
3BD
100
AcDbEntity
  8
レイヤー 1
 62
   250
420
  2234388
100
AcDbHatch
 10
0.0
 20
0.0
 30
0.0
210
0.0
220
0.0
230
1.0
  2
SOLID
 70
     1
 71
     0
 91
        2
 92
        1
 93
        1
 72
     4
 94
        3
 73
     0
 74
     1
 95
       29
 96
       25
 40
0.0
 40
0.0
 40
0.0
 40
0.0
 40
1.0
 40
1.0
 40
1.0
 40
2.0
 40
2.0
 40
2.0
 40
3.0
 40
3.0
 40
3.0
 40
4.0
 40
4.0
 40
4.0
 40
5.0
 40
5.0
 40
5.0
 40
6.0
 40
6.0
 40
6.0
 40
7.0
 40
7.0
 40
7.0
 40
8.0
 40
8.0
 40
8.0
 40
8.0
 10
101.6420971922469
 20
132.8388354296931
 10
101.630039350094
 20
134.7164137077823
 10
102.2236296937908
 20
138.0598810818841
 10
103.7487744712405
 20
142.5378191476827
 10
105.819967243327
 20
148.5896501242061
 10
107.0602024361932
 20
150.8074318058939
 10
108.1522984254671
 20
151.8833358357054
 10
109.741177511439
 20
153.4532668840085
 10
111.8740375333931
 20
153.5290590346837
 10
112.5075910110823
 20
153.4532668840085
 10
113.4012493694975
 20
153.3490526768302
 10
114.6683563248758
 20
152.7580461564518
 10
114.7493161221879
 20
150.7838328862519
 10
114.8106388622796
 20
149.0909118479895
 10
114.3186789024427
 20
145.9191825971221
 10
112.6164561002338
 20
140.9489400617108
 10
110.6444821435766
 20
135.1746117095912
 10
109.4669477299053
 20
132.8960240524753
 10
108.5212683953448
 20
131.9072809959403
 10
106.7346406980658
 20
130.0538184021569
 10
104.8222669326213
 20
130.2336525051225
 10
104.5408024457958
 20
130.2336525051225
 10
104.1721769856939
 20
130.2336525051225
 10
101.6465758193322
 20
130.6305277668397
 10
101.6420971922469
 20
132.8388354296931
 97
        0
 92
        1
 93
        1
 72
     4
 94
        3
 73
     0
 74
     1
 95
       32
 96
       28
 40
0.0
 40
0.0
 40
0.0
 40
0.0
 40
1.0
 40
1.0
 40
1.0
 40
2.0
 40
2.0
 40
2.0
 40
3.0
 40
3.0
 40
3.0
 40
4.0
 40
4.0
 40
4.0
 40
5.0
 40
5.0
 40
5.0
 40
6.0
 40
6.0
 40
6.0
 40
7.0
 40
7.0
 40
7.0
 40
8.0
 40
8.0
 40
8.0
 40
9.0
 40
9.0
 40
9.0
 40
9.0
 10
106.2595617172429
 20
153.4105476718098
 10
104.8222669326213
 20
151.5474388043041
 10
103.7177685914188
 20
149.8758773721411
 10
101.9232171692965
 20
144.6141795664062
 10
100.2754269116635
 20
139.7999999594306
 10
99.22777268346732
 20
136.3052927937542
 10
99.06964269637689
 20
132.039572749846
 10
98.94665270641765
 20
128.8673267343149
 10
100.8807305877373
 20
127.8027915271048
 10
103.7129454545577
 20
127.8027915271048
 10
104.9352661390825
 20
127.8027915271048
 10
108.0151835347002
 20
127.8827177950895
 10
110.2045431598849
 20
130.5926316915021
 10
111.7417457794874
 20
132.4984597712065
 10
113.155269389579
 20
134.475256864725
 10
115.0562743324223
 20
140.9489400617108
 10
116.6361961642235
 20
146.3680788349845
 10
117.7282921534974
 20
149.8639917848761
 10
117.6480213757369
 20
151.8595646611754
 10
117.6480213757369
 20
151.8595646611754
 10
117.6480213757369
 20
151.8595646611754
 10
117.6480213757369
 20
151.8595646611754
 10
117.13229024137
 20
155.18150017429
 10
114.7162431837115
 20
155.886194920681
 10
113.3351034925446
 20
155.886194920681
 10
111.9829026225447
 20
155.886194920681
 10
108.3414342923792
 20
156.1251124501957
 10
106.2595617172429
 20
153.4105476718098
 97
        0
 75
     2
 76
     1
 98
        0
  0
ENDBLK
  5
3C8
330
3BD
100
AcDbEntity
  8
0
100
AcDbBlockEnd
  0
BLOCK
  5
11F1
330
11F0
100
AcDbEntity
  8
0
100
AcDbBlockBegin
  2
BLOCK_2
 70
     0
 10
0.0
 20
0.0
 30
0.0
  3
BLOCK_2
  1
BLOCK_2
  0
ENDBLK
  5
11F2
330
11F0
100
AcDbEntity
  8
0
100
AcDbBlockEnd
  0
BLOCK
  5
19BA
330
19B9
100
AcDbEntity
  8
0
100
AcDbBlockBegin
  2
*D7
 70
     1
 10
0.0
 20
0.0
 30
0.0
  3
*D7
  1
*D171
  0
LINE
  5
19BC
330
19B9
100
AcDbEntity
  8
Dim
  6
Continuous
 62
     0
370
    -2
100
AcDbLine
 10
-1099.996083546581
 20
2038.96504316011
 30
0.0
 11
-1099.996083546581
 21
2303.281849329459
 31
0.0
  0
LINE
  5
19BD
330
19B9
100
AcDbEntity
  8
Dim
  6
Continuous
 62
     0
370
    -2
100
AcDbLine
 10
-1799.89088807097
 20
2038.96504316011
 30
0.0
 11
-1799.89088807097
 21
2303.281849329459
 31
0.0
  0
LINE
  5
19BE
330
19B9
100
AcDbEntity
  8
Dim
  6
Continuous
 62
     0
370
    -2
100
AcDbLine
 10
-1108.996083546581
 20
2303.281849329459
 30
0.0
 11
-1790.89088807097
 21
2303.281849329459
 31
0.0
  0
INSERT
  5
19BF
330
19B9
100
AcDbEntity
  8
Dim
 62
     0
370
    -2
100
AcDbBlockReference
  2
_DOT
 10
-1099.996083546581
 20
2303.281849329459
 30
0.0
 41
9.0
 42
9.0
 43
9.0
  0
INSERT
  5
19C0
330
19B9
100
AcDbEntity
  8
Dim
 62
     0
370
    -2
100
AcDbBlockReference
  2
_DOT
 10
-1799.89088807097
 20
2303.281849329459
 30
0.0
 41
9.0
 42
9.0
 43
9.0
 50
180.0
  0
MTEXT
  5
19C1
330
19B9
100
AcDbEntity
  8
Dim
  6
Continuous
 62
     0
100
AcDbMText
 10
-1449.943485808775
 20
2325.498157923209
 30
0.0
 40
24.4326171875
 41
0.0
 46
0.0
 71
     5
 72
     1
  1
\A1;700
  7
ＭＳ ゴシック
 73
     1
 44
1.0
  0
POINT
  5
19C2
330
19B9
100
AcDbEntity
  8
Defpoints
 62
     0
100
AcDbPoint
 10
-1099.996083546581
 20
2013.96504316011
 30
0.0
  0
POINT
  5
19C3
330
19B9
100
AcDbEntity
  8
Defpoints
 62
     0
100
AcDbPoint
 10
-1799.89088807097
 20
2013.96504316011
 30
0.0
  0
POINT
  5
19C4
330
19B9
100
AcDbEntity
  8
Defpoints
 62
     0
100
AcDbPoint
 10
-1799.89088807097
 20
2303.281849329459
 30
0.0
  0
ENDBLK
  5
19BB
330
19B9
100
AcDbEntity
  8
0
100
AcDbBlockEnd
  0
BLOCK
  5
19D6
330
19D5
100
AcDbEntity
  8
0
100
AcDbBlockBegin
  2
*D8
 70
     1
 10
0.0
 20
0.0
 30
0.0
  3
*D8
  1
*D173
  0
LINE
  5
19D8
330
19D5
100
AcDbEntity
  8
Dim
  6
Continuous
 62
     0
370
    -2
100
AcDbLine
 10
-1249.325954287327
 20
2198.454981313166
 30
0.0
 11
-1025.715534479406
 21
2198.454981313166
 31
0.0
  0
LINE
  5
19D9
330
19D5
100
AcDbEntity
  8
Dim
  6
Continuous
 62
     0
370
    -2
100
AcDbLine
 10
-1249.325954287327
 20
1828.454981313166
 30
0.0
 11
-1025.715534479406
 21
1828.454981313166
 31
0.0
  0
LINE
  5
19DA
330
19D5
100
AcDbEntity
  8
Dim
  6
Continuous
 62
     0
370
    -2
100
AcDbLine
 10
-1025.715534479406
 20
2189.454981313166
 30
0.0
 11
-1025.715534479406
 21
1837.454981313166
 31
0.0
  0
INSERT
  5
19DB
330
19D5
100
AcDbEntity
  8
Dim
 62
     0
370
    -2
100
AcDbBlockReference
  2
_DOT
 10
-1025.715534479406
 20
2198.454981313166
 30
0.0
 41
9.0
 42
9.0
 43
9.0
 50
90.0
  0
INSERT
  5
19DC
330
19D5
100
AcDbEntity
  8
Dim
 62
     0
370
    -2
100
AcDbBlockReference
  2
_DOT
 10
-1025.715534479406
 20
1828.454981313166
 30
0.0
 41
9.0
 42
9.0
 43
9.0
 50
270.0
  0
MTEXT
  5
19DD
330
19D5
100
AcDbEntity
  8
Dim
  6
Continuous
 62
     0
100
AcDbMText
 10
-1047.931843073156
 20
2013.454981313166
 30
0.0
 40
24.4326171875
 41
0.0
 46
0.0
 71
     5
 72
     1
  1
\A1;370
  7
ＭＳ ゴシック
 11
0.0
 21
1.0
 31
0.0
 73
     1
 44
1.0
  0
POINT
  5
19DE
330
19D5
100
AcDbEntity
  8
Defpoints
 62
     0
100
AcDbPoint
 10
-1274.325954287327
 20
2198.454981313166
 30
0.0
  0
POINT
  5
19DF
330
19D5
100
AcDbEntity
  8
Defpoints
 62
     0
100
AcDbPoint
 10
-1274.325954287327
 20
1828.454981313166
 30
0.0
  0
POINT
  5
19E0
330
19D5
100
AcDbEntity
  8
Defpoints
 62
     0
100
AcDbPoint
 10
-1025.715534479406
 20
1828.454981313166
 30
0.0
  0
ENDBLK
  5
19D7
330
19D5
100
AcDbEntity
  8
0
100
AcDbBlockEnd
  0
BLOCK
  5
19E6
330
19E5
100
AcDbEntity
  8
0
100
AcDbBlockBegin
  2
*D9
 70
     1
 10
0.0
 20
0.0
 30
0.0
  3
*D9
  1
*D174
  0
LINE
  5
19E8
330
19E5
100
AcDbEntity
  8
Dim
  6
Continuous
 62
     0
370
    -2
100
AcDbLine
 10
-1658.462652838284
 20
2171.208593363257
 30
0.0
 11
-1848.980854296902
 21
2171.208593363257
 31
0.0
  0
LINE
  5
19E9
330
19E5
100
AcDbEntity
  8
Dim
  6
Continuous
 62
     0
370
    -2
100
AcDbLine
 10
-1658.462652838284
 20
1856.208593363257
 30
0.0
 11
-1848.980854296902
 21
1856.208593363257
 31
0.0
  0
LINE
  5
19EA
330
19E5
100
AcDbEntity
  8
Dim
  6
Continuous
 62
     0
370
    -2
100
AcDbLine
 10
-1848.980854296902
 20
2162.208593363257
 30
0.0
 11
-1848.980854296902
 21
1865.208593363257
 31
0.0
  0
INSERT
  5
19EB
330
19E5
100
AcDbEntity
  8
Dim
 62
     0
370
    -2
100
AcDbBlockReference
  2
_DOT
 10
-1848.980854296902
 20
2171.208593363257
 30
0.0
 41
9.0
 42
9.0
 43
9.0
 50
90.0
  0
INSERT
  5
19EC
330
19E5
100
AcDbEntity
  8
Dim
 62
     0
370
    -2
100
AcDbBlockReference
  2
_DOT
 10
-1848.980854296902
 20
1856.208593363257
 30
0.0
 41
9.0
 42
9.0
 43
9.0
 50
270.0
  0
MTEXT
  5
19ED
330
19E5
100
AcDbEntity
  8
Dim
  6
Continuous
 62
     0
100
AcDbMText
 10
-1871.197162890652
 20
2013.708593363257
 30
0.0
 40
24.4326171875
 41
0.0
 46
0.0
 71
     5
 72
     1
  1
\A1;315
  7
ＭＳ ゴシック
 11
0.0
 21
1.0
 31
0.0
 73
     1
 44
1.0
  0
POINT
  5
19EE
330
19E5
100
AcDbEntity
  8
Defpoints
 62
     0
100
AcDbPoint
 10
-1633.462652838284
 20
2171.208593363257
 30
0.0
  0
POINT
  5
19EF
330
19E5
100
AcDbEntity
  8
Defpoints
 62
     0
100
AcDbPoint
 10
-1633.462652838284
 20
1856.208593363257
 30
0.0
  0
POINT
  5
19F0
330
19E5
100
AcDbEntity
  8
Defpoints
 62
     0
100
AcDbPoint
 10
-1848.980854296902
 20
1856.208593363257
 30
0.0
  0
ENDBLK
  5
19E7
330
19E5
100
AcDbEntity
  8
0
100
AcDbBlockEnd
  0
BLOCK
  5
19F5
330
19F4
100
AcDbEntity
  8
0
100
AcDbBlockBegin
  2
*D10
 70
     1
 10
0.0
 20
0.0
 30
0.0
  3
*D10
  1
*D175
  0
LINE
  5
19F7
330
19F4
100
AcDbEntity
  8
Dim
  6
Continuous
 62
     0
370
    -2
100
AcDbLine
 10
-1769.89088878071
 20
1962.447941487623
 30
0.0
 11
-1769.89088878071
 21
1742.239402837962
 31
0.0
  0
LINE
  5
19F8
330
19F4
100
AcDbEntity
  8
Dim
  6
Continuous
 62
     0
370
    -2
100
AcDbLine
 10
-1129.996082836847
 20
1962.447941487651
 30
0.0
 11
-1129.996082836847
 21
1742.239402837962
 31
0.0
  0
LINE
  5
19F9
330
19F4
100
AcDbEntity
  8
Dim
  6
Continuous
 62
     0
370
    -2
100
AcDbLine
 10
-1760.89088878071
 20
1742.239402837962
 30
0.0
 11
-1138.996082836847
 21
1742.239402837962
 31
0.0
  0
INSERT
  5
19FA
330
19F4
100
AcDbEntity
  8
Dim
 62
     0
370
    -2
100
AcDbBlockReference
  2
_DOT
 10
-1769.89088878071
 20
1742.239402837962
 30
0.0
 41
9.0
 42
9.0
 43
9.0
 50
180.0
  0
INSERT
  5
19FB
330
19F4
100
AcDbEntity
  8
Dim
 62
     0
370
    -2
100
AcDbBlockReference
  2
_DOT
 10
-1129.996082836847
 20
1742.239402837962
 30
0.0
 41
9.0
 42
9.0
 43
9.0
  0
MTEXT
  5
19FC
330
19F4
100
AcDbEntity
  8
Dim
  6
Continuous
 62
     0
100
AcDbMText
 10
-1449.943485808778
 20
1764.455711431712
 30
0.0
 40
24.4326171875
 41
0.0
 46
0.0
 71
     5
 72
     1
  1
\A1;640
  7
ＭＳ ゴシック
 73
     1
 44
1.0
  0
POINT
  5
19FD
330
19F4
100
AcDbEntity
  8
Defpoints
 62
     0
100
AcDbPoint
 10
-1769.89088878071
 20
1987.447941487623
 30
0.0
  0
POINT
  5
19FE
330
19F4
100
AcDbEntity
  8
Defpoints
 62
     0
100
AcDbPoint
 10
-1129.996082836847
 20
1987.447941487651
 30
0.0
  0
POINT
  5
19FF
330
19F4
100
AcDbEntity
  8
Defpoints
 62
     0
100
AcDbPoint
 10
-1129.996082836847
 20
1742.239402837962
 30
0.0
  0
ENDBLK
  5
19F6
330
19F4
100
AcDbEntity
  8
0
100
AcDbBlockEnd
  0
BLOCK
  5
1A05
330
1A04
100
AcDbEntity
  8
0
100
AcDbBlockBegin
  2
*D11
 70
     1
 10
0.0
 20
0.0
 30
0.0
  3
*D11
  1
*D176
  0
LINE
  5
1A07
330
1A04
100
AcDbEntity
  8
Dim
  6
Continuous
 62
     0
370
    -2
100
AcDbLine
 10
-327.3720526930472
 20
986.4496762339288
 30
0.0
 11
-327.3720526930472
 21
735.8857509555712
 31
0.0
  0
LINE
  5
1A08
330
1A04
100
AcDbEntity
  8
Dim
  6
Continuous
 62
     0
370
    -2
100
AcDbLine
 10
-512.3720526930472
 20
778.9884752019805
 30
0.0
 11
-512.3720526930472
 21
735.8857509555712
 31
0.0
  0
LINE
  5
1A09
330
1A04
100
AcDbEntity
  8
Dim
  6
Continuous
 62
     0
370
    -2
100
AcDbLine
 10
-336.3720526930472
 20
735.8857509555712
 30
0.0
 11
-503.3720526930472
 21
735.8857509555712
 31
0.0
  0
INSERT
  5
1A0A
330
1A04
100
AcDbEntity
  8
Dim
 62
     0
370
    -2
100
AcDbBlockReference
  2
_DOT
 10
-327.3720526930472
 20
735.8857509555712
 30
0.0
 41
9.0
 42
9.0
 43
9.0
  0
INSERT
  5
1A0B
330
1A04
100
AcDbEntity
  8
Dim
 62
     0
370
    -2
100
AcDbBlockReference
  2
_DOT
 10
-512.3720526930472
 20
735.8857509555712
 30
0.0
 41
9.0
 42
9.0
 43
9.0
 50
180.0
  0
MTEXT
  5
1A0C
330
1A04
100
AcDbEntity
  8
Dim
  6
Continuous
 62
     0
100
AcDbMText
 10
-419.8720526930472
 20
758.1020595493212
 30
0.0
 40
24.4326171875
 41
0.0
 46
0.0
 71
     5
 72
     1
  1
\A1;185
  7
ＭＳ ゴシック
 73
     1
 44
1.0
  0
POINT
  5
1A0D
330
1A04
100
AcDbEntity
  8
Defpoints
 62
     0
100
AcDbPoint
 10
-327.3720526930472
 20
1011.449676233929
 30
0.0
  0
POINT
  5
1A0E
330
1A04
100
AcDbEntity
  8
Defpoints
 62
     0
100
AcDbPoint
 10
-512.3720526930472
 20
803.9884752019805
 30
0.0
  0
POINT
  5
1A0F
330
1A04
100
AcDbEntity
  8
Defpoints
 62
     0
100
AcDbPoint
 10
-512.3720526930472
 20
735.8857509555712
 30
0.0
  0
ENDBLK
  5
1A06
330
1A04
100
AcDbEntity
  8
0
100
AcDbBlockEnd
  0
BLOCK
  5
1A1A
330
1A19
100
AcDbEntity
  8
0
100
AcDbBlockBegin
  2
*D12
 70
     1
 10
0.0
 20
0.0
 30
0.0
  3
*D12
  1
*D177
  0
LINE
  5
1A1C
330
1A19
100
AcDbEntity
  8
Dim
  6
Continuous
 62
     0
370
    -2
100
AcDbLine
 10
-719.6927189960682
 20
1042.146970822732
 30
0.0
 11
-761.3768901128972
 21
1042.146970822732
 31
0.0
  0
LINE
  5
1A1D
330
1A19
100
AcDbEntity
  8
Dim
  6
Continuous
 62
     0
370
    -2
100
AcDbLine
 10
-702.471264939091
 20
967.2331786268264
 30
0.0
 11
-761.3768901128972
 21
967.2331786268264
 31
0.0
  0
LINE
  5
1A1E
330
1A19
100
AcDbEntity
  8
Dim
  6
Continuous
 62
     0
370
    -2
100
AcDbLine
 10
-761.3768901128972
 20
1033.146970822732
 30
0.0
 11
-761.3768901128972
 21
976.2331786268264
 31
0.0
  0
INSERT
  5
1A1F
330
1A19
100
AcDbEntity
  8
Dim
 62
     0
370
    -2
100
AcDbBlockReference
  2
_DOT
 10
-761.3768901128972
 20
1042.146970822732
 30
0.0
 41
9.0
 42
9.0
 43
9.0
 50
90.0
  0
INSERT
  5
1A20
330
1A19
100
AcDbEntity
  8
Dim
 62
     0
370
    -2
100
AcDbBlockReference
  2
_DOT
 10
-761.3768901128972
 20
967.2331786268264
 30
0.0
 41
9.0
 42
9.0
 43
9.0
 50
270.0
  0
MTEXT
  5
1A21
330
1A19
100
AcDbEntity
  8
Dim
  6
Continuous
 62
     0
100
AcDbMText
 10
-783.5931987066472
 20
1004.690074724779
 30
0.0
 40
24.4326171875
 41
0.0
 46
0.0
 71
     5
 72
     1
  1
\A1;75
  7
ＭＳ ゴシック
 11
0.0
 21
1.0
 31
0.0
 73
     1
 44
1.0
  0
POINT
  5
1A22
330
1A19
100
AcDbEntity
  8
Defpoints
 62
     0
100
AcDbPoint
 10
-694.6927189960682
 20
1042.146970822732
 30
0.0
  0
POINT
  5
1A23
330
1A19
100
AcDbEntity
  8
Defpoints
 62
     0
100
AcDbPoint
 10
-677.471264939091
 20
967.2331786268264
 30
0.0
  0
POINT
  5
1A24
330
1A19
100
AcDbEntity
  8
Defpoints
 62
     0
100
AcDbPoint
 10
-761.3768901128972
 20
967.2331786268264
 30
0.0
  0
ENDBLK
  5
1A1B
330
1A19
100
AcDbEntity
  8
0
100
AcDbBlockEnd
  0
BLOCK
  5
1A27
330
1A26
100
AcDbEntity
  8
0
100
AcDbBlockBegin
  2
*D13
 70
     1
 10
0.0
 20
0.0
 30
0.0
  3
*D13
  1
*D178
  0
LINE
  5
1A29
330
1A26
100
AcDbEntity
  8
Dim
  6
Continuous
 62
     0
370
    -2
100
AcDbLine
 10
-727.471264939091
 20
967.2331786268264
 30
0.0
 11
-761.3768901128972
 21
967.2331786268264
 31
0.0
  0
LINE
  5
1A2A
330
1A26
100
AcDbEntity
  8
Dim
  6
Continuous
 62
     0
370
    -2
100
AcDbLine
 10
-664.2463188304221
 20
892.2331786268264
 30
0.0
 11
-761.3768901128972
 21
892.2331786268264
 31
0.0
  0
LINE
  5
1A2B
330
1A26
100
AcDbEntity
  8
Dim
  6
Continuous
 62
     0
370
    -2
100
AcDbLine
 10
-761.3768901128972
 20
958.2331786268264
 30
0.0
 11
-761.3768901128972
 21
901.2331786268264
 31
0.0
  0
INSERT
  5
1A2C
330
1A26
100
AcDbEntity
  8
Dim
 62
     0
370
    -2
100
AcDbBlockReference
  2
_DOT
 10
-761.3768901128972
 20
967.2331786268264
 30
0.0
 41
9.0
 42
9.0
 43
9.0
 50
90.0
  0
INSERT
  5
1A2D
330
1A26
100
AcDbEntity
  8
Dim
 62
     0
370
    -2
100
AcDbBlockReference
  2
_DOT
 10
-761.3768901128972
 20
892.2331786268264
 30
0.0
 41
9.0
 42
9.0
 43
9.0
 50
270.0
  0
MTEXT
  5
1A2E
330
1A26
100
AcDbEntity
  8
Dim
  6
Continuous
 62
     0
100
AcDbMText
 10
-783.5931987066472
 20
929.7331786268264
 30
0.0
 40
24.4326171875
 41
0.0
 46
0.0
 71
     5
 72
     1
  1
\A1;75
  7
ＭＳ ゴシック
 11
0.0
 21
1.0
 31
0.0
 73
     1
 44
1.0
  0
POINT
  5
1A2F
330
1A26
100
AcDbEntity
  8
Defpoints
 62
     0
100
AcDbPoint
 10
-702.471264939091
 20
967.2331786268264
 30
0.0
  0
POINT
  5
1A30
330
1A26
100
AcDbEntity
  8
Defpoints
 62
     0
100
AcDbPoint
 10
-639.2463188304221
 20
892.2331786268264
 30
0.0
  0
POINT
  5
1A31
330
1A26
100
AcDbEntity
  8
Defpoints
 62
     0
100
AcDbPoint
 10
-761.3768901128972
 20
892.2331786268264
 30
0.0
  0
ENDBLK
  5
1A28
330
1A26
100
AcDbEntity
  8
0
100
AcDbBlockEnd
  0
BLOCK
  5
1A37
330
1A36
100
AcDbEntity
  8
0
100
AcDbBlockBegin
  2
*D14
 70
     1
 10
0.0
 20
0.0
 30
0.0
  3
*D14
  1
*D179
  0
LINE
  5
1A39
330
1A36
100
AcDbEntity
  8
Dim
  6
Continuous
 62
     0
370
    -2
100
AcDbLine
 10
-1079.023640787445
 20
1042.154778093721
 30
0.0
 11
-1010.950968915361
 21
1042.154778093721
 31
0.0
  0
LINE
  5
1A3A
330
1A36
100
AcDbEntity
  8
Dim
  6
Continuous
 62
     0
370
    -2
100
AcDbLine
 10
-1127.580864198037
 20
892.1547780937206
 30
0.0
 11
-1010.950968915361
 21
892.1547780937206
 31
0.0
  0
LINE
  5
1A3B
330
1A36
100
AcDbEntity
  8
Dim
  6
Continuous
 62
     0
370
    -2
100
AcDbLine
 10
-1010.950968915361
 20
1033.154778093721
 30
0.0
 11
-1010.950968915361
 21
901.1547780937206
 31
0.0
  0
INSERT
  5
1A3C
330
1A36
100
AcDbEntity
  8
Dim
 62
     0
370
    -2
100
AcDbBlockReference
  2
_DOT
 10
-1010.950968915361
 20
1042.154778093721
 30
0.0
 41
9.0
 42
9.0
 43
9.0
 50
90.0
  0
INSERT
  5
1A3D
330
1A36
100
AcDbEntity
  8
Dim
 62
     0
370
    -2
100
AcDbBlockReference
  2
_DOT
 10
-1010.950968915361
 20
892.1547780937206
 30
0.0
 41
9.0
 42
9.0
 43
9.0
 50
270.0
  0
MTEXT
  5
1A3E
330
1A36
100
AcDbEntity
  8
Dim
  6
Continuous
 62
     0
100
AcDbMText
 10
-1033.167277509111
 20
967.1547780937207
 30
0.0
 40
24.4326171875
 41
0.0
 46
0.0
 71
     5
 72
     1
  1
\A1;150
  7
ＭＳ ゴシック
 11
0.0
 21
1.0
 31
0.0
 73
     1
 44
1.0
  0
POINT
  5
1A3F
330
1A36
100
AcDbEntity
  8
Defpoints
 62
     0
100
AcDbPoint
 10
-1104.023640787445
 20
1042.154778093721
 30
0.0
  0
POINT
  5
1A40
330
1A36
100
AcDbEntity
  8
Defpoints
 62
     0
100
AcDbPoint
 10
-1152.580864198037
 20
892.1547780937206
 30
0.0
  0
POINT
  5
1A41
330
1A36
100
AcDbEntity
  8
Defpoints
 62
     0
100
AcDbPoint
 10
-1010.950968915361
 20
892.1547780937206
 30
0.0
  0
ENDBLK
  5
1A38
330
1A36
100
AcDbEntity
  8
0
100
AcDbBlockEnd
  0
BLOCK
  5
1A44
330
1A43
100
AcDbEntity
  8
0
100
AcDbBlockBegin
  2
*D15
 70
     1
 10
0.0
 20
0.0
 30
0.0
  3
*D15
  1
*D180
  0
LINE
  5
1A46
330
1A43
100
AcDbEntity
  8
Dim
  6
Continuous
 62
     0
370
    -2
100
AcDbLine
 10
-1730.498314026006
 20
864.0829322445534
 30
0.0
 11
-1730.498314026006
 21
800.3750743564613
 31
0.0
  0
LINE
  5
1A47
330
1A43
100
AcDbEntity
  8
Dim
  6
Continuous
 62
     0
370
    -2
100
AcDbLine
 10
-1165.498314026006
 20
864.0829322445534
 30
0.0
 11
-1165.498314026006
 21
800.3750743564613
 31
0.0
  0
LINE
  5
1A48
330
1A43
100
AcDbEntity
  8
Dim
  6
Continuous
 62
     0
370
    -2
100
AcDbLine
 10
-1721.498314026006
 20
800.3750743564613
 30
0.0
 11
-1174.498314026006
 21
800.3750743564613
 31
0.0
  0
INSERT
  5
1A49
330
1A43
100
AcDbEntity
  8
Dim
 62
     0
370
    -2
100
AcDbBlockReference
  2
_DOT
 10
-1730.498314026006
 20
800.3750743564613
 30
0.0
 41
9.0
 42
9.0
 43
9.0
 50
180.0
  0
INSERT
  5
1A4A
330
1A43
100
AcDbEntity
  8
Dim
 62
     0
370
    -2
100
AcDbBlockReference
  2
_DOT
 10
-1165.498314026006
 20
800.3750743564613
 30
0.0
 41
9.0
 42
9.0
 43
9.0
  0
MTEXT
  5
1A4B
330
1A43
100
AcDbEntity
  8
Dim
  6
Continuous
 62
     0
100
AcDbMText
 10
-1447.998314026006
 20
822.5913829502113
 30
0.0
 40
24.4326171875
 41
0.0
 46
0.0
 71
     5
 72
     1
  1
\A1;565
  7
ＭＳ ゴシック
 73
     1
 44
1.0
  0
POINT
  5
1A4C
330
1A43
100
AcDbEntity
  8
Defpoints
 62
     0
100
AcDbPoint
 10
-1730.498314026006
 20
889.0829322445534
 30
0.0
  0
POINT
  5
1A4D
330
1A43
100
AcDbEntity
  8
Defpoints
 62
     0
100
AcDbPoint
 10
-1165.498314026006
 20
889.0829322445534
 30
0.0
  0
POINT
  5
1A4E
330
1A43
100
AcDbEntity
  8
Defpoints
 62
     0
100
AcDbPoint
 10
-1165.498314026006
 20
800.3750743564613
 30
0.0
  0
ENDBLK
  5
1A45
330
1A43
100
AcDbEntity
  8
0
100
AcDbBlockEnd
  0
BLOCK
  5
1A8A
330
1A89
100
AcDbEntity
  8
0
100
AcDbBlockBegin
  2
*D16
 70
     1
 10
0.0
 20
0.0
 30
0.0
  3
*D16
  1
*D182
  0
LINE
  5
1A8C
330
1A89
100
AcDbEntity
  8
Dim
  6
Continuous
 62
     0
370
    -2
100
AcDbLine
 10
-629.8720526930472
 20
868.9935144224153
 30
0.0
 11
-629.8720526930472
 21
803.9884752019805
 31
0.0
  0
LINE
  5
1A8D
330
1A89
100
AcDbEntity
  8
Dim
  6
Continuous
 62
     0
370
    -2
100
AcDbLine
 10
-394.8720526930472
 20
868.9935144224153
 30
0.0
 11
-394.8720526930472
 21
803.9884752019805
 31
0.0
  0
LINE
  5
1A8E
330
1A89
100
AcDbEntity
  8
Dim
  6
Continuous
 62
     0
370
    -2
100
AcDbLine
 10
-620.8720526930472
 20
803.9884752019805
 30
0.0
 11
-403.8720526930472
 21
803.9884752019805
 31
0.0
  0
INSERT
  5
1A8F
330
1A89
100
AcDbEntity
  8
Dim
 62
     0
370
    -2
100
AcDbBlockReference
  2
_DOT
 10
-629.8720526930472
 20
803.9884752019805
 30
0.0
 41
9.0
 42
9.0
 43
9.0
 50
180.0
  0
INSERT
  5
1A90
330
1A89
100
AcDbEntity
  8
Dim
 62
     0
370
    -2
100
AcDbBlockReference
  2
_DOT
 10
-394.8720526930472
 20
803.9884752019805
 30
0.0
 41
9.0
 42
9.0
 43
9.0
  0
MTEXT
  5
1A91
330
1A89
100
AcDbEntity
  8
Dim
  6
Continuous
 62
     0
100
AcDbMText
 10
-512.3720526930472
 20
826.2047837957305
 30
0.0
 40
24.4326171875
 41
0.0
 46
0.0
 71
     5
 72
     1
  1
\A1;235
  7
ＭＳ ゴシック
 73
     1
 44
1.0
  0
POINT
  5
1A92
330
1A89
100
AcDbEntity
  8
Defpoints
 62
     0
100
AcDbPoint
 10
-629.8720526930472
 20
893.9935144224153
 30
0.0
  0
POINT
  5
1A93
330
1A89
100
AcDbEntity
  8
Defpoints
 62
     0
100
AcDbPoint
 10
-394.8720526930472
 20
893.9935144224153
 30
0.0
  0
POINT
  5
1A94
330
1A89
100
AcDbEntity
  8
Defpoints
 62
     0
100
AcDbPoint
 10
-394.8720526930472
 20
803.9884752019805
 30
0.0
  0
ENDBLK
  5
1A8B
330
1A89
100
AcDbEntity
  8
0
100
AcDbBlockEnd
  0
BLOCK
  5
1AA6
330
1AA5
100
AcDbEntity
  8
0
100
AcDbBlockBegin
  2
*D17
 70
     1
 10
0.0
 20
0.0
 30
0.0
  3
*D17
  1
*D183
  0
LINE
  5
1AA8
330
1AA5
100
AcDbEntity
  8
Dim
  6
Continuous
 62
     0
370
    -2
100
AcDbLine
 10
-512.3720447192811
 20
1042.148728416899
 30
0.0
 11
-512.3720447192811
 21
1212.524648338775
 31
0.0
  0
LINE
  5
1AA9
330
1AA5
100
AcDbEntity
  8
Dim
  6
Continuous
 62
     0
370
    -2
100
AcDbLine
 10
-512.3720447192811
 20
929.8244651276623
 30
0.0
 11
-512.3720447192811
 21
1033.148728416899
 31
0.0
  0
INSERT
  5
1AAA
330
1AA5
100
AcDbEntity
  8
Dim
 62
     0
370
    -2
100
AcDbBlockReference
  2
_DOT
 10
-512.3720447192811
 20
920.8244651276623
 30
0.0
 41
9.0
 42
9.0
 43
9.0
 50
270.0
  0
INSERT
  5
1AAB
330
1AA5
100
AcDbEntity
  8
Dim
 62
     0
370
    -2
100
AcDbBlockReference
  2
_DOT
 10
-512.3720447192811
 20
1042.148728416899
 30
0.0
 41
9.0
 42
9.0
 43
9.0
 50
90.0
  0
MTEXT
  5
1AAC
330
1AA5
100
AcDbEntity
  8
Dim
  6
Continuous
 62
     0
100
AcDbMText
 10
-536.7506399341248
 20
1136.336688377837
 30
0.0
 40
24.4326171875
 41
0.0
 46
0.0
 71
     5
 72
     1
  1
\A1;120(深さ)
  7
ＭＳ ゴシック
 11
0.0
 21
1.0
 31
0.0
 73
     1
 44
1.0
  0
POINT
  5
1AAD
330
1AA5
100
AcDbEntity
  8
Defpoints
 62
     0
100
AcDbPoint
 10
-512.372057990432
 20
920.8244651276623
 30
0.0
  0
POINT
  5
1AAE
330
1AA5
100
AcDbEntity
  8
Defpoints
 62
     0
100
AcDbPoint
 10
-512.3720507163941
 20
1042.148728416899
 30
0.0
  0
POINT
  5
1AB3
330
1AA5
100
AcDbEntity
  8
Defpoints
 62
     0
100
AcDbPoint
 10
-512.3720447192811
 20
1042.148728416899
 30
0.0
  0
ENDBLK
  5
1AA7
330
1AA5
100
AcDbEntity
  8
0
100
AcDbBlockEnd
  0
BLOCK
  5
1E53
330
1E52
100
AcDbEntity
  8
0
100
AcDbBlockBegin
  2
*D18
 70
     1
 10
0.0
 20
0.0
 30
0.0
  3
*D18
  1
*D19
  0
LINE
  5
1E55
330
1E52
100
AcDbEntity
  8
Dim
  6
Continuous
 62
     0
370
    -2
100
AcDbLine
 10
1439.975321682982
 20
1685.224290985195
 30
0.0
 11
1839.604589225406
 21
1685.224290985195
 31
0.0
  0
LINE
  5
1E56
330
1E52
100
AcDbEntity
  8
Dim
  6
Continuous
 62
     0
370
    -2
100
AcDbLine
 10
1472.869138182748
 20
1225.224291002911
 30
0.0
 11
1839.604589225406
 21
1225.224291002911
 31
0.0
  0
LINE
  5
1E57
330
1E52
100
AcDbEntity
  8
Dim
  6
Continuous
 62
     0
370
    -2
100
AcDbLine
 10
1839.604589225406
 20
1676.224290985195
 30
0.0
 11
1839.604589225406
 21
1234.224291002911
 31
0.0
  0
INSERT
  5
1E58
330
1E52
100
AcDbEntity
  8
Dim
 62
     0
370
    -2
100
AcDbBlockReference
  2
_DOT
 10
1839.604589225406
 20
1685.224290985195
 30
0.0
 41
9.0
 42
9.0
 43
9.0
 50
90.0
  0
INSERT
  5
1E59
330
1E52
100
AcDbEntity
  8
Dim
 62
     0
370
    -2
100
AcDbBlockReference
  2
_DOT
 10
1839.604589225406
 20
1225.224291002911
 30
0.0
 41
9.0
 42
9.0
 43
9.0
 50
270.0
  0
MTEXT
  5
1E5A
330
1E52
100
AcDbEntity
  8
Dim
  6
Continuous
 62
     0
100
AcDbMText
 10
1817.388280631656
 20
1455.224290994052
 30
0.0
 40
24.4326171875
 41
0.0
 46
0.0
 71
     5
 72
     1
  1
\A1;459.99999998
  7
ＭＳ ゴシック
 11
0.0
 21
1.0
 31
0.0
 73
     1
 44
1.0
  0
POINT
  5
1E5B
330
1E52
100
AcDbEntity
  8
Defpoints
 62
     0
100
AcDbPoint
 10
1414.975321682982
 20
1685.224290985195
 30
0.0
  0
POINT
  5
1E5C
330
1E52
100
AcDbEntity
  8
Defpoints
 62
     0
100
AcDbPoint
 10
1447.869138182748
 20
1225.224291002911
 30
0.0
  0
POINT
  5
1E5D
330
1E52
100
AcDbEntity
  8
Defpoints
 62
     0
100
AcDbPoint
 10
1839.604589225406
 20
1225.224291002911
 30
0.0
  0
ENDBLK
  5
1E54
330
1E52
100
AcDbEntity
  8
0
100
AcDbBlockEnd
  0
BLOCK
  5
1F4F
330
1F4E
100
AcDbEntity
  8
0
100
AcDbBlockBegin
  2
*D19
 70
     1
 10
0.0
 20
0.0
 30
0.0
  3
*D19
  1
*D19
  0
LINE
  5
1F51
330
1F4E
100
AcDbEntity
  8
Dim
  6
Continuous
 62
     0
370
    -2
100
AcDbLine
 10
520.4968133750117
 20
566.8274404316899
 30
0.0
 11
520.4968133750117
 21
472.9646752038373
 31
0.0
  0
LINE
  5
1F52
330
1F4E
100
AcDbEntity
  8
Dim
  6
Continuous
 62
     0
370
    -2
100
AcDbLine
 10
872.9968133750117
 20
566.8274404316899
 30
0.0
 11
872.9968133750117
 21
472.9646752038372
 31
0.0
  0
LINE
  5
1F53
330
1F4E
100
AcDbEntity
  8
Dim
  6
Continuous
 62
     0
370
    -2
100
AcDbLine
 10
529.4968133750117
 20
472.9646752038373
 30
0.0
 11
863.9968133750117
 21
472.9646752038372
 31
0.0
  0
INSERT
  5
1F54
330
1F4E
100
AcDbEntity
  8
Dim
 62
     0
370
    -2
100
AcDbBlockReference
  2
_DOT
 10
520.4968133750117
 20
472.9646752038373
 30
0.0
 41
9.0
 42
9.0
 43
9.0
 50
180.0
  0
INSERT
  5
1F55
330
1F4E
100
AcDbEntity
  8
Dim
 62
     0
370
    -2
100
AcDbBlockReference
  2
_DOT
 10
872.9968133750117
 20
472.9646752038372
 30
0.0
 41
9.0
 42
9.0
 43
9.0
 50
360.0
  0
MTEXT
  5
1F56
330
1F4E
100
AcDbEntity
  8
Dim
  6
Continuous
 62
     0
100
AcDbMText
 10
696.7468133750117
 20
495.1809837975873
 30
0.0
 40
24.4326171875
 41
0.0
 46
0.0
 71
     5
 72
     1
  1
\A1;352.5
  7
ＭＳ ゴシック
 73
     1
 44
1.0
  0
POINT
  5
1F57
330
1F4E
100
AcDbEntity
  8
Defpoints
 62
     0
100
AcDbPoint
 10
520.4968133750117
 20
591.8274404316899
 30
0.0
  0
POINT
  5
1F58
330
1F4E
100
AcDbEntity
  8
Defpoints
 62
     0
100
AcDbPoint
 10
872.9968133750117
 20
591.8274404316899
 30
0.0
  0
POINT
  5
1F59
330
1F4E
100
AcDbEntity
  8
Defpoints
 62
     0
100
AcDbPoint
 10
872.9968133750117
 20
472.9646752038372
 30
0.0
  0
ENDBLK
  5
1F50
330
1F4E
100
AcDbEntity
  8
0
100
AcDbBlockEnd
  0
BLOCK
  5
1F61
330
1F60
100
AcDbEntity
  8
0
100
AcDbBlockBegin
  2
*D20
 70
     1
 10
0.0
 20
0.0
 30
0.0
  3
*D20
  1
*D20
  0
LINE
  5
1F63
330
1F60
100
AcDbEntity
  8
Dim
  6
Continuous
 62
     0
370
    -2
100
AcDbLine
 10
396.4441291741132
 20
588.827485564269
 30
0.0
 11
296.48055716853
 21
588.827485564269
 31
0.0
  0
LINE
  5
1F64
330
1F60
100
AcDbEntity
  8
Dim
  6
Continuous
 62
     0
370
    -2
100
AcDbLine
 10
396.4441291741132
 20
1488.827485564269
 30
0.0
 11
296.4805571685301
 21
1488.827485564269
 31
0.0
  0
LINE
  5
1F65
330
1F60
100
AcDbEntity
  8
Dim
  6
Continuous
 62
     0
370
    -2
100
AcDbLine
 10
296.48055716853
 20
597.827485564269
 30
0.0
 11
296.4805571685301
 21
1479.827485564269
 31
0.0
  0
INSERT
  5
1F66
330
1F60
100
AcDbEntity
  8
Dim
 62
     0
370
    -2
100
AcDbBlockReference
  2
_DOT
 10
296.48055716853
 20
588.827485564269
 30
0.0
 41
9.0
 42
9.0
 43
9.0
 50
270.0
  0
INSERT
  5
1F67
330
1F60
100
AcDbEntity
  8
Dim
 62
     0
370
    -2
100
AcDbBlockReference
  2
_DOT
 10
296.4805571685301
 20
1488.827485564269
 30
0.0
 41
9.0
 42
9.0
 43
9.0
 50
90.0
  0
MTEXT
  5
1F68
330
1F60
100
AcDbEntity
  8
Dim
  6
Continuous
 62
     0
100
AcDbMText
 10
274.26424857478
 20
1038.827485564269
 30
0.0
 40
24.4326171875
 41
0.0
 46
0.0
 71
     5
 72
     1
  1
\A1;900
  7
ＭＳ ゴシック
 11
6.315935428978667E-17
 21
1.0
 31
0.0
 73
     1
 44
1.0
  0
POINT
  5
1F69
330
1F60
100
AcDbEntity
  8
Defpoints
 62
     0
100
AcDbPoint
 10
421.4441291741132
 20
588.827485564269
 30
0.0
  0
POINT
  5
1F6A
330
1F60
100
AcDbEntity
  8
Defpoints
 62
     0
100
AcDbPoint
 10
421.4441291741132
 20
1488.827485564269
 30
0.0
  0
POINT
  5
1F6B
330
1F60
100
AcDbEntity
  8
Defpoints
 62
     0
100
AcDbPoint
 10
296.4805571685301
 20
1488.827485564269
 30
0.0
  0
ENDBLK
  5
1F62
330
1F60
100
AcDbEntity
  8
0
100
AcDbBlockEnd
  0
BLOCK
  5
1F6E
330
1F6D
100
AcDbEntity
  8
0
100
AcDbBlockBegin
  2
*D21
 70
     1
 10
0.0
 20
0.0
 30
0.0
  3
*D21
  1
*D21
  0
LINE
  5
1F70
330
1F6D
100
AcDbEntity
  8
Dim
  6
Continuous
 62
     0
370
    -2
100
AcDbLine
 10
897.9967005302778
 20
591.8274404316899
 30
0.0
 11
993.1091905223275
 21
591.8274404316899
 31
0.0
  0
LINE
  5
1F71
330
1F6D
100
AcDbEntity
  8
Dim
  6
Continuous
 62
     0
370
    -2
100
AcDbLine
 10
897.9967005302778
 20
1485.82744043169
 30
0.0
 11
993.1091905223275
 21
1485.82744043169
 31
0.0
  0
LINE
  5
1F72
330
1F6D
100
AcDbEntity
  8
Dim
  6
Continuous
 62
     0
370
    -2
100
AcDbLine
 10
993.1091905223275
 20
600.8274404316899
 30
0.0
 11
993.1091905223275
 21
1476.82744043169
 31
0.0
  0
INSERT
  5
1F73
330
1F6D
100
AcDbEntity
  8
Dim
 62
     0
370
    -2
100
AcDbBlockReference
  2
_DOT
 10
993.1091905223275
 20
591.8274404316899
 30
0.0
 41
9.0
 42
9.0
 43
9.0
 50
270.0
  0
INSERT
  5
1F74
330
1F6D
100
AcDbEntity
  8
Dim
 62
     0
370
    -2
100
AcDbBlockReference
  2
_DOT
 10
993.1091905223275
 20
1485.82744043169
 30
0.0
 41
9.0
 42
9.0
 43
9.0
 50
90.0
  0
MTEXT
  5
1F75
330
1F6D
100
AcDbEntity
  8
Dim
  6
Continuous
 62
     0
100
AcDbMText
 10
970.8928819285775
 20
1038.82744043169
 30
0.0
 40
24.4326171875
 41
0.0
 46
0.0
 71
     5
 72
     1
  1
\A1;894
  7
ＭＳ ゴシック
 11
0.0
 21
1.0
 31
0.0
 73
     1
 44
1.0
  0
POINT
  5
1F76
330
1F6D
100
AcDbEntity
  8
Defpoints
 62
     0
100
AcDbPoint
 10
872.9967005302778
 20
591.8274404316899
 30
0.0
  0
POINT
  5
1F77
330
1F6D
100
AcDbEntity
  8
Defpoints
 62
     0
100
AcDbPoint
 10
872.9967005302778
 20
1485.82744043169
 30
0.0
  0
POINT
  5
1F78
330
1F6D
100
AcDbEntity
  8
Defpoints
 62
     0
100
AcDbPoint
 10
993.1091905223275
 20
1485.82744043169
 30
0.0
  0
ENDBLK
  5
1F6F
330
1F6D
100
AcDbEntity
  8
0
100
AcDbBlockEnd
  0
BLOCK
  5
1F7B
330
1F7A
100
AcDbEntity
  8
0
100
AcDbBlockBegin
  2
*D22
 70
     1
 10
0.0
 20
0.0
 30
0.0
  3
*D22
  1
*D22
  0
LINE
  5
1F7D
330
1F7A
100
AcDbEntity
  8
Dim
  6
Continuous
 62
     0
370
    -2
100
AcDbLine
 10
415.9966554154134
 20
1510.827530696848
 30
0.0
 11
415.9966554154134
 21
1607.570644058361
 31
0.0
  0
LINE
  5
1F7E
330
1F7A
100
AcDbEntity
  8
Dim
  6
Continuous
 62
     0
370
    -2
100
AcDbLine
 10
875.9966554154134
 20
1510.827530696848
 30
0.0
 11
875.9966554154134
 21
1607.570644058361
 31
0.0
  0
LINE
  5
1F7F
330
1F7A
100
AcDbEntity
  8
Dim
  6
Continuous
 62
     0
370
    -2
100
AcDbLine
 10
424.9966554154134
 20
1607.570644058361
 30
0.0
 11
866.9966554154134
 21
1607.570644058361
 31
0.0
  0
INSERT
  5
1F80
330
1F7A
100
AcDbEntity
  8
Dim
 62
     0
370
    -2
100
AcDbBlockReference
  2
_DOT
 10
415.9966554154134
 20
1607.570644058361
 30
0.0
 41
9.0
 42
9.0
 43
9.0
 50
180.0
  0
INSERT
  5
1F81
330
1F7A
100
AcDbEntity
  8
Dim
 62
     0
370
    -2
100
AcDbBlockReference
  2
_DOT
 10
875.9966554154134
 20
1607.570644058361
 30
0.0
 41
9.0
 42
9.0
 43
9.0
  0
MTEXT
  5
1F82
330
1F7A
100
AcDbEntity
  8
Dim
  6
Continuous
 62
     0
100
AcDbMText
 10
645.9966554154134
 20
1629.786952652111
 30
0.0
 40
24.4326171875
 41
0.0
 46
0.0
 71
     5
 72
     1
  1
\A1;460
  7
ＭＳ ゴシック
 73
     1
 44
1.0
  0
POINT
  5
1F83
330
1F7A
100
AcDbEntity
  8
Defpoints
 62
     0
100
AcDbPoint
 10
415.9966554154134
 20
1485.827530696848
 30
0.0
  0
POINT
  5
1F84
330
1F7A
100
AcDbEntity
  8
Defpoints
 62
     0
100
AcDbPoint
 10
875.9966554154134
 20
1485.827530696848
 30
0.0
  0
POINT
  5
1F85
330
1F7A
100
AcDbEntity
  8
Defpoints
 62
     0
100
AcDbPoint
 10
875.9966554154134
 20
1607.570644058361
 30
0.0
  0
ENDBLK
  5
1F7C
330
1F7A
100
AcDbEntity
  8
0
100
AcDbBlockEnd
  0
BLOCK
  5
1FC1
330
1FC0
100
AcDbEntity
  8
0
100
AcDbBlockBegin
  2
*D23
 70
     1
 10
0.0
 20
0.0
 30
0.0
  3
*D23
  1
*D24
  0
LINE
  5
1FC3
330
1FC0
100
AcDbEntity
  8
Dim
  6
Continuous
 62
     0
370
    -2
100
AcDbLine
 10
1622.045067717121
 20
1513.827485564269
 30
0.0
 11
1622.045067717121
 21
1555.601276273557
 31
0.0
  0
LINE
  5
1FC4
330
1FC0
100
AcDbEntity
  8
Dim
  6
Continuous
 62
     0
370
    -2
100
AcDbLine
 10
1780.045067717121
 20
1100.57609932147
 30
0.0
 11
1780.045067717121
 21
1555.601276273557
 31
0.0
  0
LINE
  5
1FC5
330
1FC0
100
AcDbEntity
  8
Dim
  6
Continuous
 62
     0
370
    -2
100
AcDbLine
 10
1631.045067717121
 20
1555.601276273557
 30
0.0
 11
1771.045067717121
 21
1555.601276273557
 31
0.0
  0
INSERT
  5
1FC6
330
1FC0
100
AcDbEntity
  8
Dim
 62
     0
370
    -2
100
AcDbBlockReference
  2
_DOT
 10
1622.045067717121
 20
1555.601276273557
 30
0.0
 41
9.0
 42
9.0
 43
9.0
 50
180.0
  0
INSERT
  5
1FC7
330
1FC0
100
AcDbEntity
  8
Dim
 62
     0
370
    -2
100
AcDbBlockReference
  2
_DOT
 10
1780.045067717121
 20
1555.601276273557
 30
0.0
 41
9.0
 42
9.0
 43
9.0
  0
MTEXT
  5
1FC8
330
1FC0
100
AcDbEntity
  8
Dim
  6
Continuous
 62
     0
100
AcDbMText
 10
1701.045067717121
 20
1577.817584867307
 30
0.0
 40
24.4326171875
 41
0.0
 46
0.0
 71
     5
 72
     1
  1
\A1;158
  7
ＭＳ ゴシック
 73
     1
 44
1.0
  0
POINT
  5
1FC9
330
1FC0
100
AcDbEntity
  8
Defpoints
 62
     0
100
AcDbPoint
 10
1622.045067717121
 20
1488.827485564269
 30
0.0
  0
POINT
  5
1FCA
330
1FC0
100
AcDbEntity
  8
Defpoints
 62
     0
100
AcDbPoint
 10
1780.045067717121
 20
1075.57609932147
 30
0.0
  0
POINT
  5
1FCB
330
1FC0
100
AcDbEntity
  8
Defpoints
 62
     0
100
AcDbPoint
 10
1780.045067717121
 20
1555.601276273557
 30
0.0
  0
ENDBLK
  5
1FC2
330
1FC0
100
AcDbEntity
  8
0
100
AcDbBlockEnd
  0
BLOCK
  5
1FCE
330
1FCD
100
AcDbEntity
  8
0
100
AcDbBlockBegin
  2
*D24
 70
     1
 10
0.0
 20
0.0
 30
0.0
  3
*D24
  1
*D25
  0
LINE
  5
1FD0
330
1FCD
100
AcDbEntity
  8
Dim
  6
Continuous
 62
     0
370
    -2
100
AcDbLine
 10
1622.045067717121
 20
1982.013694460858
 30
0.0
 11
1622.045067717121
 21
1915.826761041885
 31
0.0
  0
LINE
  5
1FD1
330
1FCD
100
AcDbEntity
  8
Dim
  6
Continuous
 62
     0
370
    -2
100
AcDbLine
 10
1662.045067717121
 20
1982.013694460858
 30
0.0
 11
1662.045067717121
 21
1915.826761041885
 31
0.0
  0
LINE
  5
1FD2
330
1FCD
100
AcDbEntity
  8
Dim
  6
Continuous
 62
     0
370
    -2
100
AcDbLine
 10
1631.045067717121
 20
1915.826761041885
 30
0.0
 11
1653.045067717121
 21
1915.826761041885
 31
0.0
  0
INSERT
  5
1FD3
330
1FCD
100
AcDbEntity
  8
Dim
 62
     0
370
    -2
100
AcDbBlockReference
  2
_DOT
 10
1622.045067717121
 20
1915.826761041885
 30
0.0
 41
9.0
 42
9.0
 43
9.0
 50
180.0
  0
INSERT
  5
1FD4
330
1FCD
100
AcDbEntity
  8
Dim
 62
     0
370
    -2
100
AcDbBlockReference
  2
_DOT
 10
1662.045067717121
 20
1915.826761041885
 30
0.0
 41
9.0
 42
9.0
 43
9.0
  0
MTEXT
  5
1FD5
330
1FCD
100
AcDbEntity
  8
Dim
  6
Continuous
 62
     0
100
AcDbMText
 10
1642.045067717121
 20
1938.043069635635
 30
0.0
 40
24.4326171875
 41
0.0
 46
0.0
 71
     5
 72
     1
  1
\A1;40
  7
ＭＳ ゴシック
 73
     1
 44
1.0
  0
POINT
  5
1FD6
330
1FCD
100
AcDbEntity
  8
Defpoints
 62
     0
100
AcDbPoint
 10
1622.045067717121
 20
2007.013694460858
 30
0.0
  0
POINT
  5
1FD7
330
1FCD
100
AcDbEntity
  8
Defpoints
 62
     0
100
AcDbPoint
 10
1662.045067717121
 20
2007.013694460858
 30
0.0
  0
POINT
  5
1FD8
330
1FCD
100
AcDbEntity
  8
Defpoints
 62
     0
100
AcDbPoint
 10
1662.045067717121
 20
1915.826761041885
 30
0.0
  0
ENDBLK
  5
1FCF
330
1FCD
100
AcDbEntity
  8
0
100
AcDbBlockEnd
  0
BLOCK
  5
1FDF
330
1FDE
100
AcDbEntity
  8
0
100
AcDbBlockBegin
  2
*D25
 70
     1
 10
0.0
 20
0.0
 30
0.0
  3
*D25
  1
*D26
  0
LINE
  5
1FE1
330
1FDE
100
AcDbEntity
  8
Dim
  6
Continuous
 62
     0
370
    -2
100
AcDbLine
 10
1770.136641481392
 20
2188.113791987965
 30
0.0
 11
1837.157210625075
 21
2188.113791987965
 31
0.0
  0
LINE
  5
1FE2
330
1FDE
100
AcDbEntity
  8
Dim
  6
Continuous
 62
     0
370
    -2
100
AcDbLine
 10
1697.534335281507
 20
2461.513791987965
 30
0.0
 11
1837.157210625075
 21
2461.513791987965
 31
0.0
  0
LINE
  5
1FE3
330
1FDE
100
AcDbEntity
  8
Dim
  6
Continuous
 62
     0
370
    -2
100
AcDbLine
 10
1837.157210625075
 20
2197.113791987965
 30
0.0
 11
1837.157210625075
 21
2452.513791987965
 31
0.0
  0
INSERT
  5
1FE4
330
1FDE
100
AcDbEntity
  8
Dim
 62
     0
370
    -2
100
AcDbBlockReference
  2
_DOT
 10
1837.157210625075
 20
2188.113791987965
 30
0.0
 41
9.0
 42
9.0
 43
9.0
 50
270.0
  0
INSERT
  5
1FE5
330
1FDE
100
AcDbEntity
  8
Dim
 62
     0
370
    -2
100
AcDbBlockReference
  2
_DOT
 10
1837.157210625075
 20
2461.513791987965
 30
0.0
 41
9.0
 42
9.0
 43
9.0
 50
90.0
  0
MTEXT
  5
1FE6
330
1FDE
100
AcDbEntity
  8
Dim
  6
Continuous
 62
     0
100
AcDbMText
 10
1814.940902031325
 20
2324.813791987965
 30
0.0
 40
24.4326171875
 41
0.0
 46
0.0
 71
     5
 72
     1
  1
\A1;273
  7
ＭＳ ゴシック
 11
0.0
 21
1.0
 31
0.0
 73
     1
 44
1.0
  0
POINT
  5
1FE7
330
1FDE
100
AcDbEntity
  8
Defpoints
 62
     0
100
AcDbPoint
 10
1745.136641481392
 20
2188.113791987965
 30
0.0
  0
POINT
  5
1FE8
330
1FDE
100
AcDbEntity
  8
Defpoints
 62
     0
100
AcDbPoint
 10
1672.534335281507
 20
2461.513791987965
 30
0.0
  0
POINT
  5
1FE9
330
1FDE
100
AcDbEntity
  8
Defpoints
 62
     0
100
AcDbPoint
 10
1837.157210625075
 20
2461.513791987965
 30
0.0
  0
ENDBLK
  5
1FE0
330
1FDE
100
AcDbEntity
  8
0
100
AcDbBlockEnd
  0
BLOCK
  5
2022
330
2021
100
AcDbEntity
  8
0
100
AcDbBlockBegin
  2
*D26
 70
     1
 10
0.0
 20
0.0
 30
0.0
  3
*D26
  1
*D46
  0
LINE
  5
2023
330
2021
100
AcDbEntity
  8
Dim
  6
Continuous
 62
     0
370
    -2
100
AcDbLine
 10
39.36800585937498
 20
116.5835542907807
 30
0.0
 11
39.368005859375
 21
286.9594742126561
 31
0.0
  0
LINE
  5
2024
330
2021
100
AcDbEntity
  8
Dim
  6
Continuous
 62
     0
370
    -2
100
AcDbLine
 10
39.36800585937497
 20
13.5
 30
0.0
 11
39.36800585937498
 21
107.5835542907807
 31
0.0
  0
INSERT
  5
2025
330
2021
100
AcDbEntity
  8
Dim
 62
     0
370
    -2
100
AcDbBlockReference
  2
_DOT
 10
39.36800585937497
 20
4.5
 30
0.0
 41
9.0
 42
9.0
 43
9.0
 50
270.0
  0
INSERT
  5
2026
330
2021
100
AcDbEntity
  8
Dim
 62
     0
370
    -2
100
AcDbBlockReference
  2
_DOT
 10
39.36800585937498
 20
116.5835542907807
 30
0.0
 41
9.0
 42
9.0
 43
9.0
 50
90.0
  0
MTEXT
  5
2027
330
2021
100
AcDbEntity
  8
Dim
  6
Continuous
 62
     0
100
AcDbMText
 10
14.98941064453123
 20
210.7715142517186
 30
0.0
 40
24.4326171875
 41
0.0
 46
0.0
 71
     5
 72
     1
  1
\A1;110(深さ)
  7
ＭＳ ゴシック
 11
6.339402245549102E-17
 21
1.0
 31
0.0
 73
     1
 44
1.0
  0
POINT
  5
2028
330
2021
100
AcDbEntity
  8
Defpoints
 62
     0
100
AcDbPoint
 10
39.36799258822407
 20
4.5
 30
0.0
  0
POINT
  5
2029
330
2021
100
AcDbEntity
  8
Defpoints
 62
     0
100
AcDbPoint
 10
39.36800585937499
 20
116.5835542907807
 30
0.0
  0
POINT
  5
202A
330
2021
100
AcDbEntity
  8
Defpoints
 62
     0
100
AcDbPoint
 10
39.36800585937499
 20
116.5835542907807
 30
0.0
  0
ENDBLK
  5
202B
330
2021
100
AcDbEntity
  8
0
100
AcDbBlockEnd
  0
BLOCK
  5
202E
330
202D
100
AcDbEntity
  8
0
100
AcDbBlockBegin
  2
*D27
 70
     1
 10
0.0
 20
0.0
 30
0.0
  3
*D27
  1
*D24
  0
LINE
  5
202F
330
202D
100
AcDbEntity
  8
Dim
  6
Continuous
 62
     0
370
    -2
100
AcDbLine
 10
313.98707335533
 20
135.8463876396756
 30
0.0
 11
313.98707335533
 21
170.6274570317137
 31
0.0
  0
LINE
  5
2030
330
202D
100
AcDbEntity
  8
Dim
  6
Continuous
 62
     0
370
    -2
100
AcDbLine
 10
268.98707335533
 20
141.5835542907807
 30
0.0
 11
268.98707335533
 21
170.6274570317137
 31
0.0
  0
LINE
  5
2031
330
202D
100
AcDbEntity
  8
Dim
  6
Continuous
 62
     0
370
    -2
100
AcDbLine
 10
304.98707335533
 20
170.6274570317137
 30
0.0
 11
277.98707335533
 21
170.6274570317137
 31
0.0
  0
INSERT
  5
2032
330
202D
100
AcDbEntity
  8
Dim
 62
     0
370
    -2
100
AcDbBlockReference
  2
_DOT
 10
313.98707335533
 20
170.6274570317137
 30
0.0
 41
9.0
 42
9.0
 43
9.0
  0
INSERT
  5
2033
330
202D
100
AcDbEntity
  8
Dim
 62
     0
370
    -2
100
AcDbBlockReference
  2
_DOT
 10
268.98707335533
 20
170.6274570317137
 30
0.0
 41
9.0
 42
9.0
 43
9.0
 50
180.0
  0
MTEXT
  5
2034
330
202D
100
AcDbEntity
  8
Dim
  6
Continuous
 62
     0
100
AcDbMText
 10
291.48707335533
 20
192.8437656254637
 30
0.0
 40
24.4326171875
 41
0.0
 46
0.0
 71
     5
 72
     1
  1
\A1;45
  7
ＭＳ ゴシック
 73
     1
 44
1.0
  0
POINT
  5
2035
330
202D
100
AcDbEntity
  8
Defpoints
 62
     0
100
AcDbPoint
 10
313.98707335533
 20
110.8463876396756
 30
0.0
  0
POINT
  5
2036
330
202D
100
AcDbEntity
  8
Defpoints
 62
     0
100
AcDbPoint
 10
268.98707335533
 20
116.5835542907807
 30
0.0
  0
POINT
  5
2037
330
202D
100
AcDbEntity
  8
Defpoints
 62
     0
100
AcDbPoint
 10
268.98707335533
 20
170.6274570317137
 30
0.0
  0
ENDBLK
  5
2038
330
202D
100
AcDbEntity
  8
0
100
AcDbBlockEnd
  0
BLOCK
  5
203F
330
203E
100
AcDbEntity
  8
0
100
AcDbBlockBegin
  2
*D28
 70
     1
 10
0.0
 20
0.0
 30
0.0
  3
*D28
  1
*D30
  0
LINE
  5
2041
330
203E
100
AcDbEntity
  8
Dim
  6
Continuous
 62
     0
370
    -2
100
AcDbLine
 10
1622.134923350582
 20
2188.116890538813
 30
0.0
 11
1451.759003428706
 21
2188.116890538813
 31
0.0
  0
LINE
  5
2042
330
203E
100
AcDbEntity
  8
Dim
  6
Continuous
 62
     0
370
    -2
100
AcDbLine
 10
1725.218477641362
 20
2188.116890538813
 30
0.0
 11
1631.134923350582
 21
2188.116890538813
 31
0.0
  0
INSERT
  5
2043
330
203E
100
AcDbEntity
  8
Dim
 62
     0
370
    -2
100
AcDbBlockReference
  2
_DOT
 10
1734.218477641362
 20
2188.116890538813
 30
0.0
 41
9.0
 42
9.0
 43
9.0
  0
INSERT
  5
2044
330
203E
100
AcDbEntity
  8
Dim
 62
     0
370
    -2
100
AcDbBlockReference
  2
_DOT
 10
1622.134923350582
 20
2188.116890538813
 30
0.0
 41
9.0
 42
9.0
 43
9.0
 50
180.0
  0
MTEXT
  5
2045
330
203E
100
AcDbEntity
  8
Dim
  6
Continuous
 62
     0
100
AcDbMText
 10
1527.946963389643
 20
2212.495485753656
 30
0.0
 40
24.4326171875
 41
0.0
 46
0.0
 71
     5
 72
     1
  1
\A1;110(深さ)
  7
ＭＳ ゴシック
 73
     1
 44
1.0
  0
POINT
  5
2046
330
203E
100
AcDbEntity
  8
Defpoints
 62
     0
100
AcDbPoint
 10
1734.218477641362
 20
2188.116877267661
 30
0.0
  0
POINT
  5
2047
330
203E
100
AcDbEntity
  8
Defpoints
 62
     0
100
AcDbPoint
 10
1622.134923350582
 20
2188.116890538813
 30
0.0
  0
POINT
  5
2048
330
203E
100
AcDbEntity
  8
Defpoints
 62
     0
100
AcDbPoint
 10
1622.134923350582
 20
2188.116890538813
 30
0.0
  0
ENDBLK
  5
2040
330
203E
100
AcDbEntity
  8
0
100
AcDbBlockEnd
  0
BLOCK
  5
204A
330
2049
100
AcDbEntity
  8
0
100
AcDbBlockBegin
  2
*D29
 70
     1
 10
0.0
 20
0.0
 30
0.0
  3
*D29
  1
*D31
  0
LINE
  5
204C
330
2049
100
AcDbEntity
  8
Dim
  6
Continuous
 62
     0
370
    -2
100
AcDbLine
 10
1894.763455864966
 20
1061.027337799478
 30
0.0
 11
1894.763455864966
 21
1095.808407191516
 31
0.0
  0
LINE
  5
204D
330
2049
100
AcDbEntity
  8
Dim
  6
Continuous
 62
     0
370
    -2
100
AcDbLine
 10
1849.763455864966
 20
1064.041133289124
 30
0.0
 11
1849.763455864966
 21
1095.808407191516
 31
0.0
  0
LINE
  5
204E
330
2049
100
AcDbEntity
  8
Dim
  6
Continuous
 62
     0
370
    -2
100
AcDbLine
 10
1885.763455864966
 20
1095.808407191516
 30
0.0
 11
1858.763455864966
 21
1095.808407191516
 31
0.0
  0
INSERT
  5
204F
330
2049
100
AcDbEntity
  8
Dim
 62
     0
370
    -2
100
AcDbBlockReference
  2
_DOT
 10
1894.763455864966
 20
1095.808407191516
 30
0.0
 41
9.0
 42
9.0
 43
9.0
  0
INSERT
  5
2050
330
2049
100
AcDbEntity
  8
Dim
 62
     0
370
    -2
100
AcDbBlockReference
  2
_DOT
 10
1849.763455864966
 20
1095.808407191516
 30
0.0
 41
9.0
 42
9.0
 43
9.0
 50
180.0
  0
MTEXT
  5
2051
330
2049
100
AcDbEntity
  8
Dim
  6
Continuous
 62
     0
100
AcDbMText
 10
1872.263455864966
 20
1118.024715785266
 30
0.0
 40
24.4326171875
 41
0.0
 46
0.0
 71
     5
 72
     1
  1
\A1;45
  7
ＭＳ ゴシック
 73
     1
 44
1.0
  0
POINT
  5
2052
330
2049
100
AcDbEntity
  8
Defpoints
 62
     0
100
AcDbPoint
 10
1894.763455864966
 20
1036.027337799478
 30
0.0
  0
POINT
  5
2053
330
2049
100
AcDbEntity
  8
Defpoints
 62
     0
100
AcDbPoint
 10
1849.763455864966
 20
1039.041133289124
 30
0.0
  0
POINT
  5
2054
330
2049
100
AcDbEntity
  8
Defpoints
 62
     0
100
AcDbPoint
 10
1849.763455864966
 20
1095.808407191516
 30
0.0
  0
ENDBLK
  5
204B
330
2049
100
AcDbEntity
  8
0
100
AcDbBlockEnd
  0
BLOCK
  5
205C
330
205B
100
AcDbEntity
  8
0
100
AcDbBlockBegin
  2
*D30
 70
     1
 10
0.0
 20
0.0
 30
0.0
  3
*D30
  1
*D32
  0
LINE
  5
205E
330
205B
100
AcDbEntity
  8
Dim
  6
Continuous
 62
     0
370
    -2
100
AcDbLine
 10
1600.058863206767
 20
2462.735958034767
 30
0.0
 11
1564.792532275003
 21
2462.735958034767
 31
0.0
  0
LINE
  5
205F
330
205B
100
AcDbEntity
  8
Dim
  6
Continuous
 62
     0
370
    -2
100
AcDbLine
 10
1600.058863206767
 20
2403.735958034767
 30
0.0
 11
1564.792532275003
 21
2403.735958034767
 31
0.0
  0
LINE
  5
2060
330
205B
100
AcDbEntity
  8
Dim
  6
Continuous
 62
     0
370
    -2
100
AcDbLine
 10
1564.792532275003
 20
2453.735958034767
 30
0.0
 11
1564.792532275003
 21
2412.735958034767
 31
0.0
  0
INSERT
  5
2061
330
205B
100
AcDbEntity
  8
Dim
 62
     0
370
    -2
100
AcDbBlockReference
  2
_DOT
 10
1564.792532275003
 20
2462.735958034767
 30
0.0
 41
9.0
 42
9.0
 43
9.0
 50
90.0
  0
INSERT
  5
2062
330
205B
100
AcDbEntity
  8
Dim
 62
     0
370
    -2
100
AcDbBlockReference
  2
_DOT
 10
1564.792532275003
 20
2403.735958034767
 30
0.0
 41
9.0
 42
9.0
 43
9.0
 50
270.0
  0
MTEXT
  5
2063
330
205B
100
AcDbEntity
  8
Dim
  6
Continuous
 62
     0
100
AcDbMText
 10
1542.576223681253
 20
2432.985958034767
 30
0.0
 40
24.4326171875
 41
0.0
 46
0.0
 71
     5
 72
     1
  1
\A1;59
  7
ＭＳ ゴシック
 11
0.0
 21
1.0
 31
0.0
 73
     1
 44
1.0
  0
POINT
  5
2064
330
205B
100
AcDbEntity
  8
Defpoints
 62
     0
100
AcDbPoint
 10
1625.058863206767
 20
2462.735958034767
 30
0.0
  0
POINT
  5
2065
330
205B
100
AcDbEntity
  8
Defpoints
 62
     0
100
AcDbPoint
 10
1625.058863206767
 20
2403.735958034767
 30
0.0
  0
POINT
  5
2066
330
205B
100
AcDbEntity
  8
Defpoints
 62
     0
100
AcDbPoint
 10
1564.792532275003
 20
2403.735958034767
 30
0.0
  0
ENDBLK
  5
205D
330
205B
100
AcDbEntity
  8
0
100
AcDbBlockEnd
  0
BLOCK
  5
2078
330
2077
100
AcDbEntity
  8
0
100
AcDbBlockBegin
  2
*D31
 70
     1
 10
0.0
 20
0.0
 30
0.0
  3
*D31
  1
*D33
  0
LINE
  5
207A
330
2077
100
AcDbEntity
  8
Dim
  6
Continuous
 62
     0
370
    -2
100
AcDbLine
 10
661.5327782907948
 20
2185.59044072032
 30
0.0
 11
612.6412910288907
 21
2185.59044072032
 31
0.0
  0
LINE
  5
207B
330
2077
100
AcDbEntity
  8
Dim
  6
Continuous
 62
     0
370
    -2
100
AcDbLine
 10
661.5327782907948
 20
2245.089545590831
 30
0.0
 11
612.6412910288907
 21
2245.089545590831
 31
0.0
  0
LINE
  5
207C
330
2077
100
AcDbEntity
  8
Dim
  6
Continuous
 62
     0
370
    -2
100
AcDbLine
 10
612.6412910288907
 20
2176.59044072032
 30
0.0
 11
612.6412910288907
 21
2167.59044072032
 31
0.0
  0
LINE
  5
207D
330
2077
100
AcDbEntity
  8
Dim
  6
Continuous
 62
     0
370
    -2
100
AcDbLine
 10
612.6412910288907
 20
2254.089545590831
 30
0.0
 11
612.6412910288907
 21
2263.089545590831
 31
0.0
  0
INSERT
  5
207E
330
2077
100
AcDbEntity
  8
Dim
 62
     0
370
    -2
100
AcDbBlockReference
  2
_DOT
 10
612.6412910288907
 20
2185.59044072032
 30
0.0
 41
9.0
 42
9.0
 43
9.0
 50
90.0
  0
INSERT
  5
207F
330
2077
100
AcDbEntity
  8
Dim
 62
     0
370
    -2
100
AcDbBlockReference
  2
_DOT
 10
612.6412910288907
 20
2245.089545590831
 30
0.0
 41
9.0
 42
9.0
 43
9.0
 50
270.0
  0
MTEXT
  5
2080
330
2077
100
AcDbEntity
  8
Dim
  6
Continuous
 62
     0
100
AcDbMText
 10
590.4249824351407
 20
2215.339993155576
 30
0.0
 40
24.4326171875
 41
0.0
 46
0.0
 71
     5
 72
     1
  1
\A1;59.5
  7
ＭＳ ゴシック
 11
0.0
 21
1.0
 31
0.0
 73
     1
 44
1.0
  0
POINT
  5
2081
330
2077
100
AcDbEntity
  8
Defpoints
 62
     0
100
AcDbPoint
 10
686.5327782907948
 20
2185.59044072032
 30
0.0
  0
POINT
  5
2082
330
2077
100
AcDbEntity
  8
Defpoints
 62
     0
100
AcDbPoint
 10
686.5327782907948
 20
2245.089545590831
 30
0.0
  0
POINT
  5
2083
330
2077
100
AcDbEntity
  8
Defpoints
 62
     0
100
AcDbPoint
 10
612.6412910288907
 20
2245.089545590831
 30
0.0
  0
ENDBLK
  5
2079
330
2077
100
AcDbEntity
  8
0
100
AcDbBlockEnd
  0
BLOCK
  5
2107
330
2106
100
AcDbEntity
  8
0
100
AcDbBlockBegin
  2
*D32
 70
     1
 10
0.0
 20
0.0
 30
0.0
  3
*D32
  1
*D34
  0
LINE
  5
2109
330
2106
100
AcDbEntity
  8
Dim
  6
Continuous
 62
     0
370
    -2
100
AcDbLine
 10
3941.002308070723
 20
2140.589387631233
 30
0.0
 11
3906.669592387599
 21
2140.589387631233
 31
0.0
  0
LINE
  5
210A
330
2106
100
AcDbEntity
  8
Dim
  6
Continuous
 62
     0
370
    -2
100
AcDbLine
 10
3941.002308070723
 20
1788.089387631233
 30
0.0
 11
3906.669592387599
 21
1788.089387631233
 31
0.0
  0
LINE
  5
210B
330
2106
100
AcDbEntity
  8
Dim
  6
Continuous
 62
     0
370
    -2
100
AcDbLine
 10
3906.669592387599
 20
2131.589387631233
 30
0.0
 11
3906.669592387599
 21
1797.089387631233
 31
0.0
  0
INSERT
  5
210C
330
2106
100
AcDbEntity
  8
Dim
 62
     0
370
    -2
100
AcDbBlockReference
  2
_DOT
 10
3906.669592387599
 20
2140.589387631233
 30
0.0
 41
9.0
 42
9.0
 43
9.0
 50
90.0
  0
INSERT
  5
210D
330
2106
100
AcDbEntity
  8
Dim
 62
     0
370
    -2
100
AcDbBlockReference
  2
_DOT
 10
3906.669592387599
 20
1788.089387631233
 30
0.0
 41
9.0
 42
9.0
 43
9.0
 50
270.0
  0
MTEXT
  5
210E
330
2106
100
AcDbEntity
  8
Dim
  6
Continuous
 62
     0
100
AcDbMText
 10
3884.453283793849
 20
1964.339387631233
 30
0.0
 40
24.4326171875
 41
0.0
 46
0.0
 71
     5
 72
     1
  1
\A1;352.5
  7
ＭＳ ゴシック
 11
0.0
 21
1.0
 31
0.0
 73
     1
 44
1.0
  0
POINT
  5
210F
330
2106
100
AcDbEntity
  8
Defpoints
 62
     0
100
AcDbPoint
 10
3966.002308070723
 20
2140.589387631233
 30
0.0
  0
POINT
  5
2110
330
2106
100
AcDbEntity
  8
Defpoints
 62
     0
100
AcDbPoint
 10
3966.002308070723
 20
1788.089387631233
 30
0.0
  0
POINT
  5
2111
330
2106
100
AcDbEntity
  8
Defpoints
 62
     0
100
AcDbPoint
 10
3906.669592387599
 20
1788.089387631233
 30
0.0
  0
ENDBLK
  5
2108
330
2106
100
AcDbEntity
  8
0
100
AcDbBlockEnd
  0
BLOCK
  5
2113
330
2112
100
AcDbEntity
  8
0
100
AcDbBlockBegin
  2
*D33
 70
     1
 10
0.0
 20
0.0
 30
0.0
  3
*D33
  1
*D35
  0
LINE
  5
2115
330
2112
100
AcDbEntity
  8
Dim
  6
Continuous
 62
     0
370
    -2
100
AcDbLine
 10
3963.002353203302
 20
2264.642071832131
 30
0.0
 11
3963.002353203302
 21
2364.605643837715
 31
0.0
  0
LINE
  5
2116
330
2112
100
AcDbEntity
  8
Dim
  6
Continuous
 62
     0
370
    -2
100
AcDbLine
 10
4863.002353203302
 20
2264.642071832131
 30
0.0
 11
4863.002353203302
 21
2364.605643837715
 31
0.0
  0
LINE
  5
2117
330
2112
100
AcDbEntity
  8
Dim
  6
Continuous
 62
     0
370
    -2
100
AcDbLine
 10
3972.002353203302
 20
2364.605643837715
 30
0.0
 11
4854.002353203302
 21
2364.605643837715
 31
0.0
  0
INSERT
  5
2118
330
2112
100
AcDbEntity
  8
Dim
 62
     0
370
    -2
100
AcDbBlockReference
  2
_DOT
 10
3963.002353203302
 20
2364.605643837715
 30
0.0
 41
9.0
 42
9.0
 43
9.0
 50
180.0
  0
INSERT
  5
2119
330
2112
100
AcDbEntity
  8
Dim
 62
     0
370
    -2
100
AcDbBlockReference
  2
_DOT
 10
4863.002353203302
 20
2364.605643837715
 30
0.0
 41
9.0
 42
9.0
 43
9.0
  0
MTEXT
  5
211A
330
2112
100
AcDbEntity
  8
Dim
  6
Continuous
 62
     0
100
AcDbMText
 10
4413.002353203302
 20
2386.821952431465
 30
0.0
 40
24.4326171875
 41
0.0
 46
0.0
 71
     5
 72
     1
  1
\A1;900
  7
ＭＳ ゴシック
 73
     1
 44
1.0
  0
POINT
  5
211B
330
2112
100
AcDbEntity
  8
Defpoints
 62
     0
100
AcDbPoint
 10
3963.002353203302
 20
2239.642071832131
 30
0.0
  0
POINT
  5
211C
330
2112
100
AcDbEntity
  8
Defpoints
 62
     0
100
AcDbPoint
 10
4863.002353203302
 20
2239.642071832131
 30
0.0
  0
POINT
  5
211D
330
2112
100
AcDbEntity
  8
Defpoints
 62
     0
100
AcDbPoint
 10
4863.002353203302
 20
2364.605643837715
 30
0.0
  0
ENDBLK
  5
2114
330
2112
100
AcDbEntity
  8
0
100
AcDbBlockEnd
  0
BLOCK
  5
211F
330
211E
100
AcDbEntity
  8
0
100
AcDbBlockBegin
  2
*D34
 70
     1
 10
0.0
 20
0.0
 30
0.0
  3
*D34
  1
*D36
  0
LINE
  5
2121
330
211E
100
AcDbEntity
  8
Dim
  6
Continuous
 62
     0
370
    -2
100
AcDbLine
 10
3966.002308070723
 20
1763.089500475967
 30
0.0
 11
3966.002308070723
 21
1667.977010483918
 31
0.0
  0
LINE
  5
2122
330
211E
100
AcDbEntity
  8
Dim
  6
Continuous
 62
     0
370
    -2
100
AcDbLine
 10
4860.002308070723
 20
1763.089500475967
 30
0.0
 11
4860.002308070723
 21
1667.977010483918
 31
0.0
  0
LINE
  5
2123
330
211E
100
AcDbEntity
  8
Dim
  6
Continuous
 62
     0
370
    -2
100
AcDbLine
 10
3975.002308070723
 20
1667.977010483918
 30
0.0
 11
4851.002308070723
 21
1667.977010483918
 31
0.0
  0
INSERT
  5
2124
330
211E
100
AcDbEntity
  8
Dim
 62
     0
370
    -2
100
AcDbBlockReference
  2
_DOT
 10
3966.002308070723
 20
1667.977010483918
 30
0.0
 41
9.0
 42
9.0
 43
9.0
 50
180.0
  0
INSERT
  5
2125
330
211E
100
AcDbEntity
  8
Dim
 62
     0
370
    -2
100
AcDbBlockReference
  2
_DOT
 10
4860.002308070723
 20
1667.977010483918
 30
0.0
 41
9.0
 42
9.0
 43
9.0
  0
MTEXT
  5
2126
330
211E
100
AcDbEntity
  8
Dim
  6
Continuous
 62
     0
100
AcDbMText
 10
4413.002308070723
 20
1690.193319077668
 30
0.0
 40
24.4326171875
 41
0.0
 46
0.0
 71
     5
 72
     1
  1
\A1;894
  7
ＭＳ ゴシック
 73
     1
 44
1.0
  0
POINT
  5
2127
330
211E
100
AcDbEntity
  8
Defpoints
 62
     0
100
AcDbPoint
 10
3966.002308070723
 20
1788.089500475967
 30
0.0
  0
POINT
  5
2128
330
211E
100
AcDbEntity
  8
Defpoints
 62
     0
100
AcDbPoint
 10
4860.002308070723
 20
1788.089500475967
 30
0.0
  0
POINT
  5
2129
330
211E
100
AcDbEntity
  8
Defpoints
 62
     0
100
AcDbPoint
 10
4860.002308070723
 20
1667.977010483918
 30
0.0
  0
ENDBLK
  5
2120
330
211E
100
AcDbEntity
  8
0
100
AcDbBlockEnd
  0
BLOCK
  5
212B
330
212A
100
AcDbEntity
  8
0
100
AcDbBlockBegin
  2
*D35
 70
     1
 10
0.0
 20
0.0
 30
0.0
  3
*D35
  1
*D37
  0
LINE
  5
212D
330
212A
100
AcDbEntity
  8
Dim
  6
Continuous
 62
     0
370
    -2
100
AcDbLine
 10
4885.002398335881
 20
2245.089545590831
 30
0.0
 11
4981.745511697394
 21
2245.089545590831
 31
0.0
  0
LINE
  5
212E
330
212A
100
AcDbEntity
  8
Dim
  6
Continuous
 62
     0
370
    -2
100
AcDbLine
 10
4885.002398335881
 20
1785.089545590831
 30
0.0
 11
4981.745511697394
 21
1785.089545590831
 31
0.0
  0
LINE
  5
212F
330
212A
100
AcDbEntity
  8
Dim
  6
Continuous
 62
     0
370
    -2
100
AcDbLine
 10
4981.745511697394
 20
2236.089545590831
 30
0.0
 11
4981.745511697394
 21
1794.089545590831
 31
0.0
  0
INSERT
  5
2130
330
212A
100
AcDbEntity
  8
Dim
 62
     0
370
    -2
100
AcDbBlockReference
  2
_DOT
 10
4981.745511697394
 20
2245.089545590831
 30
0.0
 41
9.0
 42
9.0
 43
9.0
 50
90.0
  0
INSERT
  5
2131
330
212A
100
AcDbEntity
  8
Dim
 62
     0
370
    -2
100
AcDbBlockReference
  2
_DOT
 10
4981.745511697394
 20
1785.089545590831
 30
0.0
 41
9.0
 42
9.0
 43
9.0
 50
270.0
  0
MTEXT
  5
2132
330
212A
100
AcDbEntity
  8
Dim
  6
Continuous
 62
     0
100
AcDbMText
 10
4959.529203103644
 20
2015.089545590831
 30
0.0
 40
24.4326171875
 41
0.0
 46
0.0
 71
     5
 72
     1
  1
\A1;460
  7
ＭＳ ゴシック
 11
0.0
 21
1.0
 31
0.0
 73
     1
 44
1.0
  0
POINT
  5
2133
330
212A
100
AcDbEntity
  8
Defpoints
 62
     0
100
AcDbPoint
 10
4860.002398335881
 20
2245.089545590831
 30
0.0
  0
POINT
  5
2134
330
212A
100
AcDbEntity
  8
Defpoints
 62
     0
100
AcDbPoint
 10
4860.002398335881
 20
1785.089545590831
 30
0.0
  0
POINT
  5
2135
330
212A
100
AcDbEntity
  8
Defpoints
 62
     0
100
AcDbPoint
 10
4981.745511697394
 20
1785.089545590831
 30
0.0
  0
ENDBLK
  5
212C
330
212A
100
AcDbEntity
  8
0
100
AcDbBlockEnd
  0
BLOCK
  5
2231
330
2230
100
AcDbEntity
  8
0
100
AcDbBlockBegin
  2
*D36
 70
     1
 10
0.0
 20
0.0
 30
0.0
  3
*D36
  1
*D334
  0
LINE
  5
2232
330
2230
100
AcDbEntity
  8
Dim
  6
Continuous
 62
     0
370
    -2
100
AcDbLine
 10
342.5493487326798
 20
6098.489931605748
 30
0.0
 11
239.5619688382118
 21
6098.489931605748
 31
0.0
  0
LINE
  5
2233
330
2230
100
AcDbEntity
  8
Dim
  6
Continuous
 62
     0
370
    -2
100
AcDbLine
 10
342.5493487326798
 20
6998.491602230111
 30
0.0
 11
239.5619688382121
 21
6998.491602230111
 31
0.0
  0
LINE
  5
2234
330
2230
100
AcDbEntity
  8
Dim
  6
Continuous
 62
     0
370
    -2
100
AcDbLine
 10
239.5619688382118
 20
6106.489931605748
 30
0.0
 11
239.5619688382121
 21
6990.491602230111
 31
0.0
  0
INSERT
  5
2235
330
2230
100
AcDbEntity
  8
Dim
 62
     0
370
    -2
100
AcDbBlockReference
  2
_DOT
 10
239.5619688382118
 20
6098.489931605748
 30
0.0
 41
8.0
 42
8.0
 43
8.0
 50
270.0
  0
INSERT
  5
2236
330
2230
100
AcDbEntity
  8
Dim
 62
     0
370
    -2
100
AcDbBlockReference
  2
_DOT
 10
239.5619688382121
 20
6998.491602230111
 30
0.0
 41
8.0
 42
8.0
 43
8.0
 50
89.99999999999999
  0
MTEXT
  5
2237
330
2230
100
AcDbEntity
  8
Dim
  6
Continuous
 62
     0
100
AcDbMText
 10
207.561968838212
 20
6548.49076691793
 30
0.0
 40
24.0
 41
0.0
 46
0.0
 71
     5
 72
     1
  1
\A1;900
  7
ＭＳ ゴシック
 11
2.842165667272392E-16
 21
1.0
 31
0.0
 73
     1
 44
1.0
  0
POINT
  5
2238
330
2230
100
AcDbEntity
  8
Defpoints
 62
     0
100
AcDbPoint
 10
372.5493487326798
 20
6098.489931605748
 30
0.0
  0
POINT
  5
2239
330
2230
100
AcDbEntity
  8
Defpoints
 62
     0
100
AcDbPoint
 10
372.5493487326798
 20
6998.491602230111
 30
0.0
  0
POINT
  5
223A
330
2230
100
AcDbEntity
  8
Defpoints
 62
     0
100
AcDbPoint
 10
239.5619688382121
 20
6998.491602230111
 30
0.0
  0
ENDBLK
  5
223B
330
2230
100
AcDbEntity
  8
0
100
AcDbBlockEnd
  0
BLOCK
  5
223E
330
223D
100
AcDbEntity
  8
0
100
AcDbBlockBegin
  2
*D37
 70
     1
 10
0.0
 20
0.0
 30
0.0
  3
*D37
  1
*D335
  0
LINE
  5
223F
330
223D
100
AcDbEntity
  8
Dim
  6
Continuous
 62
     0
370
    -2
100
AcDbLine
 10
369.548668585498
 20
7025.49092208293
 30
0.0
 11
369.548668585498
 21
7088.804201727367
 31
0.0
  0
LINE
  5
2240
330
223D
100
AcDbEntity
  8
Dim
  6
Continuous
 62
     0
370
    -2
100
AcDbLine
 10
829.5484565218162
 20
7025.49092208293
 30
0.0
 11
829.5484565218162
 21
7088.804201727367
 31
0.0
  0
LINE
  5
2241
330
223D
100
AcDbEntity
  8
Dim
  6
Continuous
 62
     0
370
    -2
100
AcDbLine
 10
377.548668585498
 20
7088.804201727367
 30
0.0
 11
821.5484565218162
 21
7088.804201727367
 31
0.0
  0
INSERT
  5
2242
330
223D
100
AcDbEntity
  8
Dim
 62
     0
370
    -2
100
AcDbBlockReference
  2
_DOT
 10
369.548668585498
 20
7088.804201727367
 30
0.0
 41
8.0
 42
8.0
 43
8.0
 50
180.0
  0
INSERT
  5
2243
330
223D
100
AcDbEntity
  8
Dim
 62
     0
370
    -2
100
AcDbBlockReference
  2
_DOT
 10
829.5484565218162
 20
7088.804201727367
 30
0.0
 41
8.0
 42
8.0
 43
8.0
  0
MTEXT
  5
2244
330
223D
100
AcDbEntity
  8
Dim
  6
Continuous
 62
     0
100
AcDbMText
 10
599.5485625536571
 20
7120.804201727367
 30
0.0
 40
24.0
 41
0.0
 46
0.0
 71
     5
 72
     1
  1
\A1;460
  7
ＭＳ ゴシック
 73
     1
 44
1.0
  0
POINT
  5
2245
330
223D
100
AcDbEntity
  8
Defpoints
 62
     0
100
AcDbPoint
 10
369.548668585498
 20
6995.49092208293
 30
0.0
  0
POINT
  5
2246
330
223D
100
AcDbEntity
  8
Defpoints
 62
     0
100
AcDbPoint
 10
829.5484565218162
 20
6995.49092208293
 30
0.0
  0
POINT
  5
2247
330
223D
100
AcDbEntity
  8
Defpoints
 62
     0
100
AcDbPoint
 10
829.5484565218162
 20
7088.804201727367
 30
0.0
  0
ENDBLK
  5
2248
330
223D
100
AcDbEntity
  8
0
100
AcDbBlockEnd
  0
BLOCK
  5
224B
330
224A
100
AcDbEntity
  8
0
100
AcDbBlockBegin
  2
*D38
 70
     1
 10
0.0
 20
0.0
 30
0.0
  3
*D38
  1
*D336
  0
LINE
  5
224C
330
224A
100
AcDbEntity
  8
Dim
  6
Continuous
 62
     0
370
    -2
100
AcDbLine
 10
856.5477763746312
 20
6995.49092208293
 30
0.0
 11
954.4326498781572
 21
6995.49092208293
 31
0.0
  0
LINE
  5
224D
330
224A
100
AcDbEntity
  8
Dim
  6
Continuous
 62
     0
370
    -2
100
AcDbLine
 10
856.5477763746312
 20
6101.490611752933
 30
0.0
 11
954.432649878157
 21
6101.490611752933
 31
0.0
  0
LINE
  5
224E
330
224A
100
AcDbEntity
  8
Dim
  6
Continuous
 62
     0
370
    -2
100
AcDbLine
 10
954.4326498781572
 20
6987.49092208293
 30
0.0
 11
954.432649878157
 21
6109.490611752933
 31
0.0
  0
INSERT
  5
224F
330
224A
100
AcDbEntity
  8
Dim
 62
     0
370
    -2
100
AcDbBlockReference
  2
_DOT
 10
954.4326498781572
 20
6995.49092208293
 30
0.0
 41
8.0
 42
8.0
 43
8.0
 50
89.99999999999999
  0
INSERT
  5
2250
330
224A
100
AcDbEntity
  8
Dim
 62
     0
370
    -2
100
AcDbBlockReference
  2
_DOT
 10
954.432649878157
 20
6101.490611752933
 30
0.0
 41
8.0
 42
8.0
 43
8.0
 50
270.0
  0
MTEXT
  5
2251
330
224A
100
AcDbEntity
  8
Dim
  6
Continuous
 62
     0
100
AcDbMText
 10
922.4326498781571
 20
6548.490766917931
 30
0.0
 40
24.0
 41
0.0
 46
0.0
 71
     5
 72
     1
  1
\A1;894
  7
ＭＳ ゴシック
 11
2.543328820090711E-16
 21
1.0
 31
0.0
 73
     1
 44
1.0
  0
POINT
  5
2252
330
224A
100
AcDbEntity
  8
Defpoints
 62
     0
100
AcDbPoint
 10
826.5477763746312
 20
6995.49092208293
 30
0.0
  0
POINT
  5
2253
330
224A
100
AcDbEntity
  8
Defpoints
 62
     0
100
AcDbPoint
 10
826.5477763746312
 20
6101.490611752933
 30
0.0
  0
POINT
  5
2254
330
224A
100
AcDbEntity
  8
Defpoints
 62
     0
100
AcDbPoint
 10
954.432649878157
 20
6101.490611752933
 30
0.0
  0
ENDBLK
  5
2255
330
224A
100
AcDbEntity
  8
0
100
AcDbBlockEnd
  0
BLOCK
  5
2258
330
2257
100
AcDbEntity
  8
0
100
AcDbBlockBegin
  2
*D39
 70
     1
 10
0.0
 20
0.0
 30
0.0
  3
*D39
  1
*D337
  0
LINE
  5
2259
330
2257
100
AcDbEntity
  8
Dim
  6
Continuous
 62
     0
370
    -2
100
AcDbLine
 10
826.5477763746312
 20
6071.490611752933
 30
0.0
 11
826.5477763746312
 21
6008.430226594811
 31
0.0
  0
LINE
  5
225A
330
2257
100
AcDbEntity
  8
Dim
  6
Continuous
 62
     0
370
    -2
100
AcDbLine
 10
474.0488188777508
 20
6071.490611752933
 30
0.0
 11
474.0488188777508
 21
6008.430226594811
 31
0.0
  0
LINE
  5
225B
330
2257
100
AcDbEntity
  8
Dim
  6
Continuous
 62
     0
370
    -2
100
AcDbLine
 10
818.5477763746312
 20
6008.430226594811
 30
0.0
 11
482.0488188777508
 21
6008.430226594811
 31
0.0
  0
INSERT
  5
225C
330
2257
100
AcDbEntity
  8
Dim
 62
     0
370
    -2
100
AcDbBlockReference
  2
_DOT
 10
826.5477763746312
 20
6008.430226594811
 30
0.0
 41
8.0
 42
8.0
 43
8.0
  0
INSERT
  5
225D
330
2257
100
AcDbEntity
  8
Dim
 62
     0
370
    -2
100
AcDbBlockReference
  2
_DOT
 10
474.0488188777508
 20
6008.430226594811
 30
0.0
 41
8.0
 42
8.0
 43
8.0
 50
180.0
  0
MTEXT
  5
225E
330
2257
100
AcDbEntity
  8
Dim
  6
Continuous
 62
     0
100
AcDbMText
 10
650.298297626191
 20
6040.430226594811
 30
0.0
 40
24.0
 41
0.0
 46
0.0
 71
     5
 72
     1
  1
\A1;353
  7
ＭＳ ゴシック
 73
     1
 44
1.0
  0
POINT
  5
225F
330
2257
100
AcDbEntity
  8
Defpoints
 62
     0
100
AcDbPoint
 10
826.5477763746312
 20
6101.490611752933
 30
0.0
  0
POINT
  5
2260
330
2257
100
AcDbEntity
  8
Defpoints
 62
     0
100
AcDbPoint
 10
474.0488188777508
 20
6101.490611752933
 30
0.0
  0
POINT
  5
2261
330
2257
100
AcDbEntity
  8
Defpoints
 62
     0
100
AcDbPoint
 10
474.0488188777508
 20
6008.430226594811
 30
0.0
  0
ENDBLK
  5
2262
330
2257
100
AcDbEntity
  8
0
100
AcDbBlockEnd
  0
BLOCK
  5
2268
330
2267
100
AcDbEntity
  8
0
100
AcDbBlockBegin
  2
*D40
 70
     1
 10
0.0
 20
0.0
 30
0.0
  3
*D40
  1
*D340
  0
LINE
  5
2269
330
2267
100
AcDbEntity
  8
Dim
  6
Continuous
 62
     0
370
    -2
100
AcDbLine
 10
1614.287527807484
 20
7743.194822791336
 30
0.0
 11
1419.258977683765
 21
7743.194822791336
 31
0.0
  0
LINE
  5
226A
330
2267
100
AcDbEntity
  8
Dim
  6
Continuous
 62
     0
370
    -2
100
AcDbLine
 10
1622.287527807484
 20
7743.194822791336
 30
0.0
 11
1718.632165694617
 21
7743.194822791336
 31
0.0
  0
INSERT
  5
226B
330
2267
100
AcDbEntity
  8
Dim
 62
     0
370
    -2
100
AcDbBlockReference
  2
_DOT
 10
1614.287527807484
 20
7743.194822791336
 30
0.0
 41
8.0
 42
8.0
 43
8.0
 50
180.0
  0
INSERT
  5
226C
330
2267
100
AcDbEntity
  8
Dim
 62
     0
370
    -2
100
AcDbBlockReference
  2
_DOT
 10
1726.632165694617
 20
7743.194822791336
 30
0.0
 41
8.0
 42
8.0
 43
8.0
  0
MTEXT
  5
226D
330
2267
100
AcDbEntity
  8
Dim
  6
Continuous
 62
     0
100
AcDbMText
 10
1504.274977683765
 20
7777.318822791336
 30
0.0
 40
24.0
 41
0.0
 46
0.0
 71
     5
 72
     1
  1
\A1;110(深さ)
  7
ＭＳ ゴシック
 73
     1
 44
1.0
  0
POINT
  5
226E
330
2267
100
AcDbEntity
  8
Defpoints
 62
     0
100
AcDbPoint
 10
1614.287527807484
 20
7765.696523159298
 30
0.0
  0
POINT
  5
226F
330
2267
100
AcDbEntity
  8
Defpoints
 62
     0
100
AcDbPoint
 10
1726.632165694617
 20
7765.696523159298
 30
0.0
  0
POINT
  5
2270
330
2267
100
AcDbEntity
  8
Defpoints
 62
     0
100
AcDbPoint
 10
1726.632165694617
 20
7743.194822791336
 30
0.0
  0
ENDBLK
  5
2271
330
2267
100
AcDbEntity
  8
0
100
AcDbBlockEnd
  0
BLOCK
  5
2274
330
2273
100
AcDbEntity
  8
0
100
AcDbBlockBegin
  2
*D41
 70
     1
 10
0.0
 20
0.0
 30
0.0
  3
*D41
  1
*D341
  0
LINE
  5
2275
330
2273
100
AcDbEntity
  8
Dim
  6
Continuous
 62
     0
370
    -2
100
AcDbLine
 10
1681.108732644578
 20
8015.305869203939
 30
0.0
 11
1827.138279149771
 21
8015.305869203939
 31
0.0
  0
LINE
  5
2276
330
2273
100
AcDbEntity
  8
Dim
  6
Continuous
 62
     0
370
    -2
100
AcDbLine
 10
1757.09725389194
 20
7743.194822791336
 30
0.0
 11
1827.138279149771
 21
7743.194822791336
 31
0.0
  0
LINE
  5
2277
330
2273
100
AcDbEntity
  8
Dim
  6
Continuous
 62
     0
370
    -2
100
AcDbLine
 10
1827.138279149771
 20
8007.305869203939
 30
0.0
 11
1827.138279149771
 21
7751.194822791336
 31
0.0
  0
INSERT
  5
2278
330
2273
100
AcDbEntity
  8
Dim
 62
     0
370
    -2
100
AcDbBlockReference
  2
_DOT
 10
1827.138279149771
 20
8015.305869203939
 30
0.0
 41
8.0
 42
8.0
 43
8.0
 50
90.0
  0
INSERT
  5
2279
330
2273
100
AcDbEntity
  8
Dim
 62
     0
370
    -2
100
AcDbBlockReference
  2
_DOT
 10
1827.138279149771
 20
7743.194822791336
 30
0.0
 41
8.0
 42
8.0
 43
8.0
 50
270.0
  0
MTEXT
  5
227A
330
2273
100
AcDbEntity
  8
Dim
  6
Continuous
 62
     0
100
AcDbMText
 10
1795.138279149771
 20
7879.250345997638
 30
0.0
 40
24.0
 41
0.0
 46
0.0
 71
     5
 72
     1
  1
\A1;273
  7
ＭＳ ゴシック
 11
0.0
 21
1.0
 31
0.0
 73
     1
 44
1.0
  0
POINT
  5
227B
330
2273
100
AcDbEntity
  8
Defpoints
 62
     0
100
AcDbPoint
 10
1651.108732644578
 20
8015.305869203939
 30
0.0
  0
POINT
  5
227C
330
2273
100
AcDbEntity
  8
Defpoints
 62
     0
100
AcDbPoint
 10
1727.09725389194
 20
7743.194822791336
 30
0.0
  0
POINT
  5
227D
330
2273
100
AcDbEntity
  8
Defpoints
 62
     0
100
AcDbPoint
 10
1827.138279149771
 20
7743.194822791336
 30
0.0
  0
ENDBLK
  5
227E
330
2273
100
AcDbEntity
  8
0
100
AcDbBlockEnd
  0
BLOCK
  5
2281
330
2280
100
AcDbEntity
  8
0
100
AcDbBlockBegin
  2
*D42
 70
     1
 10
0.0
 20
0.0
 30
0.0
  3
*D42
  1
*D342
  0
LINE
  5
2282
330
2280
100
AcDbEntity
  8
Dim
  6
Continuous
 62
     0
370
    -2
100
AcDbLine
 10
1614.287527807484
 20
7530.504733784384
 30
0.0
 11
1614.287527807484
 21
7493.616546269953
 31
0.0
  0
LINE
  5
2283
330
2280
100
AcDbEntity
  8
Dim
  6
Continuous
 62
     0
370
    -2
100
AcDbLine
 10
1654.093909851852
 20
7530.501288686627
 30
0.0
 11
1654.093909851852
 21
7493.616546269953
 31
0.0
  0
LINE
  5
2284
330
2280
100
AcDbEntity
  8
Dim
  6
Continuous
 62
     0
370
    -2
100
AcDbLine
 10
1622.287527807484
 20
7493.616546269953
 30
0.0
 11
1646.093909851852
 21
7493.616546269953
 31
0.0
  0
INSERT
  5
2285
330
2280
100
AcDbEntity
  8
Dim
 62
     0
370
    -2
100
AcDbBlockReference
  2
_DOT
 10
1614.287527807484
 20
7493.616546269953
 30
0.0
 41
8.0
 42
8.0
 43
8.0
 50
180.0
  0
INSERT
  5
2286
330
2280
100
AcDbEntity
  8
Dim
 62
     0
370
    -2
100
AcDbBlockReference
  2
_DOT
 10
1654.093909851852
 20
7493.616546269953
 30
0.0
 41
8.0
 42
8.0
 43
8.0
  0
MTEXT
  5
2287
330
2280
100
AcDbEntity
  8
Dim
  6
Continuous
 62
     0
100
AcDbMText
 10
1634.19071882967
 20
7525.616546269953
 30
0.0
 40
24.0
 41
0.0
 46
0.0
 71
     5
 72
     1
  1
\A1;40
  7
ＭＳ ゴシック
 73
     1
 44
1.0
  0
POINT
  5
2288
330
2280
100
AcDbEntity
  8
Defpoints
 62
     0
100
AcDbPoint
 10
1614.287527807484
 20
7560.504733784384
 30
0.0
  0
POINT
  5
2289
330
2280
100
AcDbEntity
  8
Defpoints
 62
     0
100
AcDbPoint
 10
1654.093909851852
 20
7560.501288686627
 30
0.0
  0
POINT
  5
228A
330
2280
100
AcDbEntity
  8
Defpoints
 62
     0
100
AcDbPoint
 10
1654.093909851852
 20
7493.616546269953
 30
0.0
  0
ENDBLK
  5
228B
330
2280
100
AcDbEntity
  8
0
100
AcDbBlockEnd
  0
BLOCK
  5
228E
330
228D
100
AcDbEntity
  8
0
100
AcDbBlockBegin
  2
*D43
 70
     1
 10
0.0
 20
0.0
 30
0.0
  3
*D43
  1
*D343
  0
LINE
  5
228F
330
228D
100
AcDbEntity
  8
Dim
  6
Continuous
 62
     0
370
    -2
100
AcDbLine
 10
1654.093909851852
 20
7530.501288686627
 30
0.0
 11
1654.093909851852
 21
7493.616546269953
 31
0.0
  0
LINE
  5
2290
330
228D
100
AcDbEntity
  8
Dim
  6
Continuous
 62
     0
370
    -2
100
AcDbLine
 10
1737.093909851852
 20
7678.338508025251
 30
0.0
 11
1737.093909851852
 21
7493.616546269953
 31
0.0
  0
LINE
  5
2291
330
228D
100
AcDbEntity
  8
Dim
  6
Continuous
 62
     0
370
    -2
100
AcDbLine
 10
1662.093909851852
 20
7493.616546269953
 30
0.0
 11
1729.093909851852
 21
7493.616546269953
 31
0.0
  0
INSERT
  5
2292
330
228D
100
AcDbEntity
  8
Dim
 62
     0
370
    -2
100
AcDbBlockReference
  2
_DOT
 10
1654.093909851852
 20
7493.616546269953
 30
0.0
 41
8.0
 42
8.0
 43
8.0
 50
180.0
  0
INSERT
  5
2293
330
228D
100
AcDbEntity
  8
Dim
 62
     0
370
    -2
100
AcDbBlockReference
  2
_DOT
 10
1737.093909851852
 20
7493.616546269953
 30
0.0
 41
8.0
 42
8.0
 43
8.0
  0
MTEXT
  5
2294
330
228D
100
AcDbEntity
  8
Dim
  6
Continuous
 62
     0
100
AcDbMText
 10
1695.593909851852
 20
7525.616546269953
 30
0.0
 40
24.0
 41
0.0
 46
0.0
 71
     5
 72
     1
  1
\A1;83
  7
ＭＳ ゴシック
 73
     1
 44
1.0
  0
POINT
  5
2295
330
228D
100
AcDbEntity
  8
Defpoints
 62
     0
100
AcDbPoint
 10
1654.093909851852
 20
7560.501288686627
 30
0.0
  0
POINT
  5
2296
330
228D
100
AcDbEntity
  8
Defpoints
 62
     0
100
AcDbPoint
 10
1737.093909851852
 20
7708.338508025251
 30
0.0
  0
POINT
  5
2297
330
228D
100
AcDbEntity
  8
Defpoints
 62
     0
100
AcDbPoint
 10
1737.093909851852
 20
7493.616546269953
 30
0.0
  0
ENDBLK
  5
2298
330
228D
100
AcDbEntity
  8
0
100
AcDbBlockEnd
  0
BLOCK
  5
22A1
330
22A0
100
AcDbEntity
  8
0
100
AcDbBlockBegin
  2
*D44
 70
     1
 10
0.0
 20
0.0
 30
0.0
  3
*D44
  1
*D344
  0
LINE
  5
22A2
330
22A0
100
AcDbEntity
  8
Dim
  6
Continuous
 62
     0
370
    -2
100
AcDbLine
 10
1614.287527807484
 20
7028.491602230111
 30
0.0
 11
1614.287527807484
 21
7118.207200068063
 31
0.0
  0
LINE
  5
22A3
330
22A0
100
AcDbEntity
  8
Dim
  6
Continuous
 62
     0
370
    -2
100
AcDbLine
 10
1737.287527807484
 20
6798.030868415145
 30
0.0
 11
1737.287527807484
 21
7118.207200068063
 31
0.0
  0
LINE
  5
22A4
330
22A0
100
AcDbEntity
  8
Dim
  6
Continuous
 62
     0
370
    -2
100
AcDbLine
 10
1622.287527807484
 20
7118.207200068063
 30
0.0
 11
1729.287527807484
 21
7118.207200068063
 31
0.0
  0
INSERT
  5
22A5
330
22A0
100
AcDbEntity
  8
Dim
 62
     0
370
    -2
100
AcDbBlockReference
  2
_DOT
 10
1614.287527807484
 20
7118.207200068063
 30
0.0
 41
8.0
 42
8.0
 43
8.0
 50
180.0
  0
INSERT
  5
22A6
330
22A0
100
AcDbEntity
  8
Dim
 62
     0
370
    -2
100
AcDbBlockReference
  2
_DOT
 10
1737.287527807484
 20
7118.207200068063
 30
0.0
 41
8.0
 42
8.0
 43
8.0
  0
MTEXT
  5
22A7
330
22A0
100
AcDbEntity
  8
Dim
  6
Continuous
 62
     0
100
AcDbMText
 10
1675.787527807484
 20
7150.207200068063
 30
0.0
 40
24.0
 41
0.0
 46
0.0
 71
     5
 72
     1
  1
\A1;123
  7
ＭＳ ゴシック
 73
     1
 44
1.0
  0
POINT
  5
22A8
330
22A0
100
AcDbEntity
  8
Defpoints
 62
     0
100
AcDbPoint
 10
1614.287527807484
 20
6998.491602230111
 30
0.0
  0
POINT
  5
22A9
330
22A0
100
AcDbEntity
  8
Defpoints
 62
     0
100
AcDbPoint
 10
1737.287527807484
 20
6768.030868415145
 30
0.0
  0
POINT
  5
22AA
330
22A0
100
AcDbEntity
  8
Defpoints
 62
     0
100
AcDbPoint
 10
1737.287527807484
 20
7118.207200068063
 30
0.0
  0
ENDBLK
  5
22AB
330
22A0
100
AcDbEntity
  8
0
100
AcDbBlockEnd
  0
BLOCK
  5
22B0
330
22AF
100
AcDbEntity
  8
0
100
AcDbBlockBegin
  2
*D45
 70
     1
 10
0.0
 20
0.0
 30
0.0
  3
*D45
  1
*D345
  0
LINE
  5
22B1
330
22AF
100
AcDbEntity
  8
Dim
  6
Continuous
 62
     0
370
    -2
100
AcDbLine
 10
1587.267537368121
 20
8015.305869203939
 30
0.0
 11
1550.471921525806
 21
8015.305869203939
 31
0.0
  0
LINE
  5
22B2
330
22AF
100
AcDbEntity
  8
Dim
  6
Continuous
 62
     0
370
    -2
100
AcDbLine
 10
1605.265717776554
 20
7955.805869203939
 30
0.0
 11
1550.471921525806
 21
7955.805869203939
 31
0.0
  0
LINE
  5
22B3
330
22AF
100
AcDbEntity
  8
Dim
  6
Continuous
 62
     0
370
    -2
100
AcDbLine
 10
1550.471921525806
 20
8007.305869203939
 30
0.0
 11
1550.471921525806
 21
7963.805869203939
 31
0.0
  0
INSERT
  5
22B4
330
22AF
100
AcDbEntity
  8
Dim
 62
     0
370
    -2
100
AcDbBlockReference
  2
_DOT
 10
1550.471921525806
 20
8015.305869203939
 30
0.0
 41
8.0
 42
8.0
 43
8.0
 50
90.0
  0
INSERT
  5
22B5
330
22AF
100
AcDbEntity
  8
Dim
 62
     0
370
    -2
100
AcDbBlockReference
  2
_DOT
 10
1550.471921525806
 20
7955.805869203939
 30
0.0
 41
8.0
 42
8.0
 43
8.0
 50
270.0
  0
MTEXT
  5
22B6
330
22AF
100
AcDbEntity
  8
Dim
  6
Continuous
 62
     0
100
AcDbMText
 10
1518.471921525806
 20
7985.555869203939
 30
0.0
 40
24.0
 41
0.0
 46
0.0
 71
     5
 72
     1
  1
\A1;59
  7
ＭＳ ゴシック
 11
0.0
 21
1.0
 31
0.0
 73
     1
 44
1.0
  0
POINT
  5
22B7
330
22AF
100
AcDbEntity
  8
Defpoints
 62
     0
100
AcDbPoint
 10
1617.267537368121
 20
8015.305869203939
 30
0.0
  0
POINT
  5
22B8
330
22AF
100
AcDbEntity
  8
Defpoints
 62
     0
100
AcDbPoint
 10
1635.265717776554
 20
7955.805869203939
 30
0.0
  0
POINT
  5
22B9
330
22AF
100
AcDbEntity
  8
Defpoints
 62
     0
100
AcDbPoint
 10
1550.471921525806
 20
7955.805869203939
 30
0.0
  0
ENDBLK
  5
22BA
330
22AF
100
AcDbEntity
  8
0
100
AcDbBlockEnd
  0
BLOCK
  5
2402
330
2401
100
AcDbEntity
  8
0
100
AcDbBlockBegin
  2
*D46
 70
     1
 10
0.0
 20
0.0
 30
0.0
  3
*D46
  1
*D349
  0
LINE
  5
2403
330
2401
100
AcDbEntity
  8
Dim
  6
Continuous
 62
     0
370
    -2
100
AcDbLine
 10
389.8809465334361
 20
8203.454208996405
 30
0.0
 11
389.8809465334361
 21
8295.876666435868
 31
0.0
  0
LINE
  5
2404
330
2401
100
AcDbEntity
  8
Dim
  6
Continuous
 62
     0
370
    -2
100
AcDbLine
 10
809.7484128894921
 20
8204.666303679274
 30
0.0
 11
809.7484128894921
 21
8295.876666435868
 31
0.0
  0
LINE
  5
2405
330
2401
100
AcDbEntity
  8
Dim
  6
Continuous
 62
     0
370
    -2
100
AcDbLine
 10
397.8809465334361
 20
8295.876666435868
 30
0.0
 11
801.7484128894921
 21
8295.876666435868
 31
0.0
  0
INSERT
  5
2406
330
2401
100
AcDbEntity
  8
Dim
 62
     0
370
    -2
100
AcDbBlockReference
  2
_DOT
 10
389.8809465334361
 20
8295.876666435868
 30
0.0
 41
8.0
 42
8.0
 43
8.0
 50
180.0
  0
INSERT
  5
2407
330
2401
100
AcDbEntity
  8
Dim
 62
     0
370
    -2
100
AcDbBlockReference
  2
_DOT
 10
809.7484128894921
 20
8295.876666435868
 30
0.0
 41
8.0
 42
8.0
 43
8.0
  0
MTEXT
  5
2408
330
2401
100
AcDbEntity
  8
Dim
  6
Continuous
 62
     0
100
AcDbMText
 10
599.8146797114641
 20
8327.876666435868
 30
0.0
 40
24.0
 41
0.0
 46
0.0
 71
     5
 72
     1
  1
\A1;420
  7
ＭＳ ゴシック
 73
     1
 44
1.0
  0
POINT
  5
2409
330
2401
100
AcDbEntity
  8
Defpoints
 62
     0
100
AcDbPoint
 10
389.8809465334361
 20
8173.454208996405
 30
0.0
  0
POINT
  5
240A
330
2401
100
AcDbEntity
  8
Defpoints
 62
     0
100
AcDbPoint
 10
809.7484128894921
 20
8174.666303679274
 30
0.0
  0
POINT
  5
240B
330
2401
100
AcDbEntity
  8
Defpoints
 62
     0
100
AcDbPoint
 10
809.7484128894921
 20
8295.876666435868
 30
0.0
  0
ENDBLK
  5
240C
330
2401
100
AcDbEntity
  8
0
100
AcDbBlockEnd
  0
BLOCK
  5
240F
330
240E
100
AcDbEntity
  8
0
100
AcDbBlockBegin
  2
*D47
 70
     1
 10
0.0
 20
0.0
 30
0.0
  3
*D47
  1
*D350
  0
LINE
  5
2410
330
240E
100
AcDbEntity
  8
Dim
  6
Continuous
 62
     0
370
    -2
100
AcDbLine
 10
332.7267107781749
 20
7836.995898627639
 30
0.0
 11
266.2469543209299
 21
7836.995898627639
 31
0.0
  0
LINE
  5
2411
330
240E
100
AcDbEntity
  8
Dim
  6
Continuous
 62
     0
370
    -2
100
AcDbLine
 10
332.7267107781749
 20
7616.995745411739
 30
0.0
 11
266.2469543209299
 21
7616.995745411739
 31
0.0
  0
LINE
  5
2412
330
240E
100
AcDbEntity
  8
Dim
  6
Continuous
 62
     0
370
    -2
100
AcDbLine
 10
266.2469543209299
 20
7828.995898627639
 30
0.0
 11
266.2469543209299
 21
7624.995745411739
 31
0.0
  0
INSERT
  5
2413
330
240E
100
AcDbEntity
  8
Dim
 62
     0
370
    -2
100
AcDbBlockReference
  2
_DOT
 10
266.2469543209299
 20
7836.995898627639
 30
0.0
 41
8.0
 42
8.0
 43
8.0
 50
90.0
  0
INSERT
  5
2414
330
240E
100
AcDbEntity
  8
Dim
 62
     0
370
    -2
100
AcDbBlockReference
  2
_DOT
 10
266.2469543209299
 20
7616.995745411739
 30
0.0
 41
8.0
 42
8.0
 43
8.0
 50
270.0
  0
MTEXT
  5
2415
330
240E
100
AcDbEntity
  8
Dim
  6
Continuous
 62
     0
100
AcDbMText
 10
234.2469543209299
 20
7726.99582201969
 30
0.0
 40
24.0
 41
0.0
 46
0.0
 71
     5
 72
     1
  1
\A1;220
  7
ＭＳ ゴシック
 11
0.0
 21
1.0
 31
0.0
 73
     1
 44
1.0
  0
POINT
  5
2416
330
240E
100
AcDbEntity
  8
Defpoints
 62
     0
100
AcDbPoint
 10
362.7267107781749
 20
7836.995898627639
 30
0.0
  0
POINT
  5
2417
330
240E
100
AcDbEntity
  8
Defpoints
 62
     0
100
AcDbPoint
 10
362.7267107781749
 20
7616.995745411739
 30
0.0
  0
POINT
  5
2418
330
240E
100
AcDbEntity
  8
Defpoints
 62
     0
100
AcDbPoint
 10
266.2469543209299
 20
7616.995745411739
 30
0.0
  0
ENDBLK
  5
2419
330
240E
100
AcDbEntity
  8
0
100
AcDbBlockEnd
  0
BLOCK
  5
241E
330
241D
100
AcDbEntity
  8
0
100
AcDbBlockBegin
  2
*D48
 70
     1
 10
0.0
 20
0.0
 30
0.0
  3
*D48
  1
*D351
  0
LINE
  5
241F
330
241D
100
AcDbEntity
  8
Dim
  6
Continuous
 62
     0
370
    -2
100
AcDbLine
 10
384.6905622512909
 20
7694.004522752413
 30
0.0
 11
384.6905622512909
 21
7523.824750571262
 31
0.0
  0
LINE
  5
2420
330
241D
100
AcDbEntity
  8
Dim
  6
Continuous
 62
     0
370
    -2
100
AcDbLine
 10
369.548668585498
 20
7697.332838707861
 30
0.0
 11
369.548668585498
 21
7523.824750571262
 31
0.0
  0
LINE
  5
2421
330
241D
100
AcDbEntity
  8
Dim
  6
Continuous
 62
     0
370
    -2
100
AcDbLine
 10
369.548668585498
 20
7523.824750571262
 30
0.0
 11
287.244668585498
 21
7523.824750571262
 31
0.0
  0
INSERT
  5
2422
330
241D
100
AcDbEntity
  8
Dim
 62
     0
370
    -2
100
AcDbBlockReference
  2
_DOT
 10
384.6905622512909
 20
7523.824750571262
 30
0.0
 41
8.0
 42
8.0
 43
8.0
  0
INSERT
  5
2423
330
241D
100
AcDbEntity
  8
Dim
 62
     0
370
    -2
100
AcDbBlockReference
  2
_DOT
 10
369.548668585498
 20
7523.824750571262
 30
0.0
 41
8.0
 42
8.0
 43
8.0
 50
180.0
  0
MTEXT
  5
2424
330
241D
100
AcDbEntity
  8
Dim
  6
Continuous
 62
     0
100
AcDbMText
 10
320.396668585498
 20
7555.824750571262
 30
0.0
 40
24.0
 41
0.0
 46
0.0
 71
     5
 72
     1
  1
\A1;15
  7
ＭＳ ゴシック
 73
     1
 44
1.0
  0
POINT
  5
2425
330
241D
100
AcDbEntity
  8
Defpoints
 62
     0
100
AcDbPoint
 10
384.6905622512909
 20
7724.004522752413
 30
0.0
  0
POINT
  5
2426
330
241D
100
AcDbEntity
  8
Defpoints
 62
     0
100
AcDbPoint
 10
369.548668585498
 20
7727.332838707861
 30
0.0
  0
POINT
  5
2427
330
241D
100
AcDbEntity
  8
Defpoints
 62
     0
100
AcDbPoint
 10
369.548668585498
 20
7523.824750571262
 30
0.0
  0
ENDBLK
  5
2428
330
241D
100
AcDbEntity
  8
0
100
AcDbBlockEnd
  0
BLOCK
  5
242B
330
242A
100
AcDbEntity
  8
0
100
AcDbBlockBegin
  2
*D49
 70
     1
 10
0.0
 20
0.0
 30
0.0
  3
*D49
  1
*D352
  0
LINE
  5
242C
330
242A
100
AcDbEntity
  8
Dim
  6
Continuous
 62
     0
370
    -2
100
AcDbLine
 10
829.558191519207
 20
8157.632869510014
 30
0.0
 11
953.1761841495609
 21
8157.632869510014
 31
0.0
  0
LINE
  5
242D
330
242A
100
AcDbEntity
  8
Dim
  6
Continuous
 62
     0
370
    -2
100
AcDbLine
 10
829.558191519207
 20
7297.316167196304
 30
0.0
 11
953.1761841495609
 21
7297.316167196304
 31
0.0
  0
LINE
  5
242E
330
242A
100
AcDbEntity
  8
Dim
  6
Continuous
 62
     0
370
    -2
100
AcDbLine
 10
953.1761841495609
 20
8149.632869510014
 30
0.0
 11
953.1761841495609
 21
7305.316167196304
 31
0.0
  0
INSERT
  5
242F
330
242A
100
AcDbEntity
  8
Dim
 62
     0
370
    -2
100
AcDbBlockReference
  2
_DOT
 10
953.1761841495609
 20
8157.632869510014
 30
0.0
 41
8.0
 42
8.0
 43
8.0
 50
90.0
  0
INSERT
  5
2430
330
242A
100
AcDbEntity
  8
Dim
 62
     0
370
    -2
100
AcDbBlockReference
  2
_DOT
 10
953.1761841495609
 20
7297.316167196304
 30
0.0
 41
8.0
 42
8.0
 43
8.0
 50
270.0
  0
MTEXT
  5
2431
330
242A
100
AcDbEntity
  8
Dim
  6
Continuous
 62
     0
100
AcDbMText
 10
921.1761841495609
 20
7727.47451835316
 30
0.0
 40
24.0
 41
0.0
 46
0.0
 71
     5
 72
     1
  1
\A1;860
  7
ＭＳ ゴシック
 11
0.0
 21
1.0
 31
0.0
 73
     1
 44
1.0
  0
POINT
  5
2432
330
242A
100
AcDbEntity
  8
Defpoints
 62
     0
100
AcDbPoint
 10
799.558191519207
 20
8157.632869510014
 30
0.0
  0
POINT
  5
2433
330
242A
100
AcDbEntity
  8
Defpoints
 62
     0
100
AcDbPoint
 10
799.558191519207
 20
7297.316167196304
 30
0.0
  0
POINT
  5
2434
330
242A
100
AcDbEntity
  8
Defpoints
 62
     0
100
AcDbPoint
 10
953.1761841495609
 20
7297.316167196304
 30
0.0
  0
ENDBLK
  5
2435
330
242A
100
AcDbEntity
  8
0
100
AcDbBlockEnd
  0
BLOCK
  5
2438
330
2437
100
AcDbEntity
  8
0
100
AcDbBlockBegin
  2
*D50
 70
     1
 10
0.0
 20
0.0
 30
0.0
  3
*D50
  1
*D354
  0
LINE
  5
2439
330
2437
100
AcDbEntity
  8
Dim
  6
Continuous
 62
     0
370
    -2
100
AcDbLine
 10
389.8809465334361
 20
8179.585465657191
 30
0.0
 11
389.8809465334361
 21
8295.876666435868
 31
0.0
  0
LINE
  5
243A
330
2437
100
AcDbEntity
  8
Dim
  6
Continuous
 62
     0
370
    -2
100
AcDbLine
 10
369.8809465334361
 20
8179.585465657191
 30
0.0
 11
369.8809465334361
 21
8295.876666435868
 31
0.0
  0
LINE
  5
243B
330
2437
100
AcDbEntity
  8
Dim
  6
Continuous
 62
     0
370
    -2
100
AcDbLine
 10
369.8809465334361
 20
8295.876666435868
 30
0.0
 11
285.1767100785409
 21
8295.876666435868
 31
0.0
  0
LINE
  5
243C
330
2437
100
AcDbEntity
  8
Dim
  6
Continuous
 62
     0
370
    -2
100
AcDbLine
 10
381.8809465334361
 20
8295.876666435868
 30
0.0
 11
377.8809465334361
 21
8295.876666435868
 31
0.0
  0
INSERT
  5
243D
330
2437
100
AcDbEntity
  8
Dim
 62
     0
370
    -2
100
AcDbBlockReference
  2
_DOT
 10
389.8809465334361
 20
8295.876666435868
 30
0.0
 41
8.0
 42
8.0
 43
8.0
  0
INSERT
  5
243E
330
2437
100
AcDbEntity
  8
Dim
 62
     0
370
    -2
100
AcDbBlockReference
  2
_DOT
 10
369.8809465334361
 20
8295.876666435868
 30
0.0
 41
8.0
 42
8.0
 43
8.0
 50
180.0
  0
MTEXT
  5
243F
330
2437
100
AcDbEntity
  8
Dim
  6
Continuous
 62
     0
100
AcDbMText
 10
319.4327100785408
 20
8327.876666435868
 30
0.0
 40
24.0
 41
0.0
 46
0.0
 71
     5
 72
     1
  1
\A1;20
  7
ＭＳ ゴシック
 73
     1
 44
1.0
  0
POINT
  5
2440
330
2437
100
AcDbEntity
  8
Defpoints
 62
     0
100
AcDbPoint
 10
389.8809465334361
 20
8149.585465657191
 30
0.0
  0
POINT
  5
2441
330
2437
100
AcDbEntity
  8
Defpoints
 62
     0
100
AcDbPoint
 10
369.8809465334361
 20
8149.585465657191
 30
0.0
  0
POINT
  5
2442
330
2437
100
AcDbEntity
  8
Defpoints
 62
     0
100
AcDbPoint
 10
369.8809465334361
 20
8295.876666435868
 30
0.0
  0
ENDBLK
  5
2443
330
2437
100
AcDbEntity
  8
0
100
AcDbBlockEnd
  0
BLOCK
  5
244E
330
244D
100
AcDbEntity
  8
0
100
AcDbBlockBegin
  2
*D51
 70
     1
 10
0.0
 20
0.0
 30
0.0
  3
*D51
  1
*D438
  0
LINE
  5
244F
330
244D
100
AcDbEntity
  8
Dim
  6
Continuous
 62
     0
370
    -2
100
AcDbLine
 10
369.548668585498
 20
6071.490611752933
 30
0.0
 11
369.548668585498
 21
6008.430226594811
 31
0.0
  0
LINE
  5
2450
330
244D
100
AcDbEntity
  8
Dim
  6
Continuous
 62
     0
370
    -2
100
AcDbLine
 10
474.0488188777508
 20
6041.490611752933
 30
0.0
 11
474.0488188777508
 21
6008.430226594811
 31
0.0
  0
LINE
  5
2451
330
244D
100
AcDbEntity
  8
Dim
  6
Continuous
 62
     0
370
    -2
100
AcDbLine
 10
377.548668585498
 20
6008.430226594811
 30
0.0
 11
466.0488188777508
 21
6008.430226594811
 31
0.0
  0
INSERT
  5
2452
330
244D
100
AcDbEntity
  8
Dim
 62
     0
370
    -2
100
AcDbBlockReference
  2
_DOT
 10
369.548668585498
 20
6008.430226594811
 30
0.0
 41
8.0
 42
8.0
 43
8.0
 50
180.0
  0
INSERT
  5
2453
330
244D
100
AcDbEntity
  8
Dim
 62
     0
370
    -2
100
AcDbBlockReference
  2
_DOT
 10
474.0488188777508
 20
6008.430226594811
 30
0.0
 41
8.0
 42
8.0
 43
8.0
  0
MTEXT
  5
2454
330
244D
100
AcDbEntity
  8
Dim
  6
Continuous
 62
     0
100
AcDbMText
 10
421.7987437316242
 20
6040.430226594811
 30
0.0
 40
24.0
 41
0.0
 46
0.0
 71
     5
 72
     1
  1
\A1;104
  7
ＭＳ ゴシック
 73
     1
 44
1.0
  0
POINT
  5
2455
330
244D
100
AcDbEntity
  8
Defpoints
 62
     0
100
AcDbPoint
 10
369.548668585498
 20
6101.490611752933
 30
0.0
  0
POINT
  5
2456
330
244D
100
AcDbEntity
  8
Defpoints
 62
     0
100
AcDbPoint
 10
474.0488188777508
 20
6071.490611752933
 30
0.0
  0
POINT
  5
2457
330
244D
100
AcDbEntity
  8
Defpoints
 62
     0
100
AcDbPoint
 10
474.0488188777508
 20
6008.430226594811
 30
0.0
  0
ENDBLK
  5
2458
330
244D
100
AcDbEntity
  8
0
100
AcDbBlockEnd
  0
BLOCK
  5
25E5
330
25E4
100
AcDbEntity
  8
0
100
AcDbBlockBegin
  2
*D52
 70
     1
 10
0.0
 20
0.0
 30
0.0
  3
*D52
  1
*D53
  0
LINE
  5
25E7
330
25E4
100
AcDbEntity
  8
Dim
  6
Continuous
 62
     0
370
    -2
100
AcDbLine
 10
2860.692405164891
 20
547.090011584135
 30
0.0
 11
2757.705025270423
 21
547.090011584135
 31
0.0
  0
LINE
  5
25E8
330
25E4
100
AcDbEntity
  8
Dim
  6
Continuous
 62
     0
370
    -2
100
AcDbLine
 10
2860.692405164891
 20
1447.091682208498
 30
0.0
 11
2757.705025270423
 21
1447.091682208498
 31
0.0
  0
LINE
  5
25E9
330
25E4
100
AcDbEntity
  8
Dim
  6
Continuous
 62
     0
370
    -2
100
AcDbLine
 10
2757.705025270423
 20
555.090011584135
 30
0.0
 11
2757.705025270423
 21
1439.091682208498
 31
0.0
  0
INSERT
  5
25EA
330
25E4
100
AcDbEntity
  8
Dim
 62
     0
370
    -2
100
AcDbBlockReference
  2
_DOT
 10
2757.705025270423
 20
547.090011584135
 30
0.0
 41
8.0
 42
8.0
 43
8.0
 50
269.9999999999999
  0
INSERT
  5
25EB
330
25E4
100
AcDbEntity
  8
Dim
 62
     0
370
    -2
100
AcDbBlockReference
  2
_DOT
 10
2757.705025270423
 20
1447.091682208498
 30
0.0
 41
8.0
 42
8.0
 43
8.0
 50
89.99999999999996
  0
MTEXT
  5
25EC
330
25E4
100
AcDbEntity
  8
Dim
  6
Continuous
 62
     0
100
AcDbMText
 10
2725.705025270423
 20
997.0908468963166
 30
0.0
 40
24.0
 41
0.0
 46
0.0
 71
     5
 72
     1
  1
\A1;900
  7
ＭＳ ゴシック
 11
5.052738964039807E-16
 21
1.0
 31
0.0
 73
     1
 44
1.0
  0
POINT
  5
25ED
330
25E4
100
AcDbEntity
  8
Defpoints
 62
     0
100
AcDbPoint
 10
2890.692405164891
 20
547.090011584135
 30
0.0
  0
POINT
  5
25EE
330
25E4
100
AcDbEntity
  8
Defpoints
 62
     0
100
AcDbPoint
 10
2890.692405164891
 20
1447.091682208498
 30
0.0
  0
POINT
  5
25EF
330
25E4
100
AcDbEntity
  8
Defpoints
 62
     0
100
AcDbPoint
 10
2757.705025270423
 20
1447.091682208498
 30
0.0
  0
ENDBLK
  5
25E6
330
25E4
100
AcDbEntity
  8
0
100
AcDbBlockEnd
  0
BLOCK
  5
25F1
330
25F0
100
AcDbEntity
  8
0
100
AcDbBlockBegin
  2
*D53
 70
     1
 10
0.0
 20
0.0
 30
0.0
  3
*D53
  1
*D54
  0
LINE
  5
25F3
330
25F0
100
AcDbEntity
  8
Dim
  6
Continuous
 62
     0
370
    -2
100
AcDbLine
 10
2887.691725017709
 20
1474.091002061316
 30
0.0
 11
2887.691725017709
 21
1537.404281705754
 31
0.0
  0
LINE
  5
25F4
330
25F0
100
AcDbEntity
  8
Dim
  6
Continuous
 62
     0
370
    -2
100
AcDbLine
 10
3347.691512954027
 20
1474.091002061316
 30
0.0
 11
3347.691512954027
 21
1537.404281705754
 31
0.0
  0
LINE
  5
25F5
330
25F0
100
AcDbEntity
  8
Dim
  6
Continuous
 62
     0
370
    -2
100
AcDbLine
 10
2895.691725017709
 20
1537.404281705754
 30
0.0
 11
3339.691512954027
 21
1537.404281705754
 31
0.0
  0
INSERT
  5
25F6
330
25F0
100
AcDbEntity
  8
Dim
 62
     0
370
    -2
100
AcDbBlockReference
  2
_DOT
 10
2887.691725017709
 20
1537.404281705754
 30
0.0
 41
8.0
 42
8.0
 43
8.0
 50
180.0
  0
INSERT
  5
25F7
330
25F0
100
AcDbEntity
  8
Dim
 62
     0
370
    -2
100
AcDbBlockReference
  2
_DOT
 10
3347.691512954027
 20
1537.404281705754
 30
0.0
 41
8.0
 42
8.0
 43
8.0
  0
MTEXT
  5
25F8
330
25F0
100
AcDbEntity
  8
Dim
  6
Continuous
 62
     0
100
AcDbMText
 10
3117.691618985868
 20
1569.404281705754
 30
0.0
 40
24.0
 41
0.0
 46
0.0
 71
     5
 72
     1
  1
\A1;460
  7
ＭＳ ゴシック
 73
     1
 44
1.0
  0
POINT
  5
25F9
330
25F0
100
AcDbEntity
  8
Defpoints
 62
     0
100
AcDbPoint
 10
2887.691725017709
 20
1444.091002061316
 30
0.0
  0
POINT
  5
25FA
330
25F0
100
AcDbEntity
  8
Defpoints
 62
     0
100
AcDbPoint
 10
3347.691512954027
 20
1444.091002061316
 30
0.0
  0
POINT
  5
25FB
330
25F0
100
AcDbEntity
  8
Defpoints
 62
     0
100
AcDbPoint
 10
3347.691512954027
 20
1537.404281705754
 30
0.0
  0
ENDBLK
  5
25F2
330
25F0
100
AcDbEntity
  8
0
100
AcDbBlockEnd
  0
BLOCK
  5
25FD
330
25FC
100
AcDbEntity
  8
0
100
AcDbBlockBegin
  2
*D54
 70
     1
 10
0.0
 20
0.0
 30
0.0
  3
*D54
  1
*D55
  0
LINE
  5
25FF
330
25FC
100
AcDbEntity
  8
Dim
  6
Continuous
 62
     0
370
    -2
100
AcDbLine
 10
3374.690832806842
 20
1444.091002061316
 30
0.0
 11
3472.575706310368
 21
1444.091002061316
 31
0.0
  0
LINE
  5
2600
330
25FC
100
AcDbEntity
  8
Dim
  6
Continuous
 62
     0
370
    -2
100
AcDbLine
 10
3374.690832806842
 20
550.0906917313196
 30
0.0
 11
3472.575706310368
 21
550.0906917313196
 31
0.0
  0
LINE
  5
2601
330
25FC
100
AcDbEntity
  8
Dim
  6
Continuous
 62
     0
370
    -2
100
AcDbLine
 10
3472.575706310368
 20
1436.091002061316
 30
0.0
 11
3472.575706310368
 21
558.0906917313196
 31
0.0
  0
INSERT
  5
2602
330
25FC
100
AcDbEntity
  8
Dim
 62
     0
370
    -2
100
AcDbBlockReference
  2
_DOT
 10
3472.575706310368
 20
1444.091002061316
 30
0.0
 41
8.0
 42
8.0
 43
8.0
 50
89.99999999999996
  0
INSERT
  5
2603
330
25FC
100
AcDbEntity
  8
Dim
 62
     0
370
    -2
100
AcDbBlockReference
  2
_DOT
 10
3472.575706310368
 20
550.0906917313196
 30
0.0
 41
8.0
 42
8.0
 43
8.0
 50
269.9999999999999
  0
MTEXT
  5
2604
330
25FC
100
AcDbEntity
  8
Dim
  6
Continuous
 62
     0
100
AcDbMText
 10
3440.575706310368
 20
997.090846896318
 30
0.0
 40
24.0
 41
0.0
 46
0.0
 71
     5
 72
     1
  1
\A1;894
  7
ＭＳ ゴシック
 11
5.086657640181422E-16
 21
1.0
 31
0.0
 73
     1
 44
1.0
  0
POINT
  5
2605
330
25FC
100
AcDbEntity
  8
Defpoints
 62
     0
100
AcDbPoint
 10
3344.690832806842
 20
1444.091002061316
 30
0.0
  0
POINT
  5
2606
330
25FC
100
AcDbEntity
  8
Defpoints
 62
     0
100
AcDbPoint
 10
3344.690832806842
 20
550.0906917313196
 30
0.0
  0
POINT
  5
2607
330
25FC
100
AcDbEntity
  8
Defpoints
 62
     0
100
AcDbPoint
 10
3472.575706310368
 20
550.0906917313196
 30
0.0
  0
ENDBLK
  5
25FE
330
25FC
100
AcDbEntity
  8
0
100
AcDbBlockEnd
  0
BLOCK
  5
2609
330
2608
100
AcDbEntity
  8
0
100
AcDbBlockBegin
  2
*D55
 70
     1
 10
0.0
 20
0.0
 30
0.0
  3
*D55
  1
*D56
  0
LINE
  5
260B
330
2608
100
AcDbEntity
  8
Dim
  6
Continuous
 62
     0
370
    -2
100
AcDbLine
 10
3344.690832806842
 20
520.0906917313196
 30
0.0
 11
3344.690832806842
 21
457.0303065731977
 31
0.0
  0
LINE
  5
260C
330
2608
100
AcDbEntity
  8
Dim
  6
Continuous
 62
     0
370
    -2
100
AcDbLine
 10
2992.191875309962
 20
520.0906917313196
 30
0.0
 11
2992.191875309962
 21
457.0303065731978
 31
0.0
  0
LINE
  5
260D
330
2608
100
AcDbEntity
  8
Dim
  6
Continuous
 62
     0
370
    -2
100
AcDbLine
 10
3336.690832806842
 20
457.0303065731977
 30
0.0
 11
3000.191875309962
 21
457.0303065731978
 31
0.0
  0
INSERT
  5
260E
330
2608
100
AcDbEntity
  8
Dim
 62
     0
370
    -2
100
AcDbBlockReference
  2
_DOT
 10
3344.690832806842
 20
457.0303065731977
 30
0.0
 41
8.0
 42
8.0
 43
8.0
 50
360.0
  0
INSERT
  5
260F
330
2608
100
AcDbEntity
  8
Dim
 62
     0
370
    -2
100
AcDbBlockReference
  2
_DOT
 10
2992.191875309962
 20
457.0303065731978
 30
0.0
 41
8.0
 42
8.0
 43
8.0
 50
180.0
  0
MTEXT
  5
2610
330
2608
100
AcDbEntity
  8
Dim
  6
Continuous
 62
     0
100
AcDbMText
 10
3168.441354058402
 20
489.0303065731978
 30
0.0
 40
24.0
 41
0.0
 46
0.0
 71
     5
 72
     1
  1
\A1;353
  7
ＭＳ ゴシック
 73
     1
 44
1.0
  0
POINT
  5
2611
330
2608
100
AcDbEntity
  8
Defpoints
 62
     0
100
AcDbPoint
 10
3344.690832806842
 20
550.0906917313196
 30
0.0
  0
POINT
  5
2612
330
2608
100
AcDbEntity
  8
Defpoints
 62
     0
100
AcDbPoint
 10
2992.191875309962
 20
550.0906917313196
 30
0.0
  0
POINT
  5
2613
330
2608
100
AcDbEntity
  8
Defpoints
 62
     0
100
AcDbPoint
 10
2992.191875309962
 20
457.0303065731978
 30
0.0
  0
ENDBLK
  5
260A
330
2608
100
AcDbEntity
  8
0
100
AcDbBlockEnd
  0
BLOCK
  5
2615
330
2614
100
AcDbEntity
  8
0
100
AcDbBlockBegin
  2
*D56
 70
     1
 10
0.0
 20
0.0
 30
0.0
  3
*D56
  1
*D57
  0
LINE
  5
2617
330
2614
100
AcDbEntity
  8
Dim
  6
Continuous
 62
     0
370
    -2
100
AcDbLine
 10
4132.430584239695
 20
2191.794902769724
 30
0.0
 11
3937.402034115976
 21
2191.794902769724
 31
0.0
  0
LINE
  5
2618
330
2614
100
AcDbEntity
  8
Dim
  6
Continuous
 62
     0
370
    -2
100
AcDbLine
 10
4140.430584239695
 20
2191.794902769724
 30
0.0
 11
4236.775222126827
 21
2191.794902769724
 31
0.0
  0
INSERT
  5
2619
330
2614
100
AcDbEntity
  8
Dim
 62
     0
370
    -2
100
AcDbBlockReference
  2
_DOT
 10
4132.430584239695
 20
2191.794902769724
 30
0.0
 41
8.0
 42
8.0
 43
8.0
 50
180.0
  0
INSERT
  5
261A
330
2614
100
AcDbEntity
  8
Dim
 62
     0
370
    -2
100
AcDbBlockReference
  2
_DOT
 10
4244.775222126827
 20
2191.794902769724
 30
0.0
 41
8.0
 42
8.0
 43
8.0
  0
MTEXT
  5
261B
330
2614
100
AcDbEntity
  8
Dim
  6
Continuous
 62
     0
100
AcDbMText
 10
4022.418034115975
 20
2225.918902769724
 30
0.0
 40
24.0
 41
0.0
 46
0.0
 71
     5
 72
     1
  1
\A1;110(深さ)
  7
ＭＳ ゴシック
 73
     1
 44
1.0
  0
POINT
  5
261C
330
2614
100
AcDbEntity
  8
Defpoints
 62
     0
100
AcDbPoint
 10
4132.430584239695
 20
2214.296603137685
 30
0.0
  0
POINT
  5
261D
330
2614
100
AcDbEntity
  8
Defpoints
 62
     0
100
AcDbPoint
 10
4244.775222126827
 20
2214.296603137685
 30
0.0
  0
POINT
  5
261E
330
2614
100
AcDbEntity
  8
Defpoints
 62
     0
100
AcDbPoint
 10
4244.775222126827
 20
2191.794902769724
 30
0.0
  0
ENDBLK
  5
2616
330
2614
100
AcDbEntity
  8
0
100
AcDbBlockEnd
  0
BLOCK
  5
2620
330
261F
100
AcDbEntity
  8
0
100
AcDbBlockBegin
  2
*D57
 70
     1
 10
0.0
 20
0.0
 30
0.0
  3
*D57
  1
*D58
  0
LINE
  5
2622
330
261F
100
AcDbEntity
  8
Dim
  6
Continuous
 62
     0
370
    -2
100
AcDbLine
 10
4199.251789076789
 20
2463.905949182327
 30
0.0
 11
4345.281335581982
 21
2463.905949182327
 31
0.0
  0
LINE
  5
2623
330
261F
100
AcDbEntity
  8
Dim
  6
Continuous
 62
     0
370
    -2
100
AcDbLine
 10
4275.24031032415
 20
2191.794902769724
 30
0.0
 11
4345.281335581982
 21
2191.794902769724
 31
0.0
  0
LINE
  5
2624
330
261F
100
AcDbEntity
  8
Dim
  6
Continuous
 62
     0
370
    -2
100
AcDbLine
 10
4345.281335581982
 20
2455.905949182327
 30
0.0
 11
4345.281335581982
 21
2199.794902769724
 31
0.0
  0
INSERT
  5
2625
330
261F
100
AcDbEntity
  8
Dim
 62
     0
370
    -2
100
AcDbBlockReference
  2
_DOT
 10
4345.281335581982
 20
2463.905949182327
 30
0.0
 41
8.0
 42
8.0
 43
8.0
 50
90.0
  0
INSERT
  5
2626
330
261F
100
AcDbEntity
  8
Dim
 62
     0
370
    -2
100
AcDbBlockReference
  2
_DOT
 10
4345.281335581982
 20
2191.794902769724
 30
0.0
 41
8.0
 42
8.0
 43
8.0
 50
270.0
  0
MTEXT
  5
2627
330
261F
100
AcDbEntity
  8
Dim
  6
Continuous
 62
     0
100
AcDbMText
 10
4313.281335581982
 20
2327.850425976026
 30
0.0
 40
24.0
 41
0.0
 46
0.0
 71
     5
 72
     1
  1
\A1;273
  7
ＭＳ ゴシック
 11
0.0
 21
1.0
 31
0.0
 73
     1
 44
1.0
  0
POINT
  5
2628
330
261F
100
AcDbEntity
  8
Defpoints
 62
     0
100
AcDbPoint
 10
4169.251789076789
 20
2463.905949182327
 30
0.0
  0
POINT
  5
2629
330
261F
100
AcDbEntity
  8
Defpoints
 62
     0
100
AcDbPoint
 10
4245.24031032415
 20
2191.794902769724
 30
0.0
  0
POINT
  5
262A
330
261F
100
AcDbEntity
  8
Defpoints
 62
     0
100
AcDbPoint
 10
4345.281335581982
 20
2191.794902769724
 30
0.0
  0
ENDBLK
  5
2621
330
261F
100
AcDbEntity
  8
0
100
AcDbBlockEnd
  0
BLOCK
  5
262C
330
262B
100
AcDbEntity
  8
0
100
AcDbBlockBegin
  2
*D58
 70
     1
 10
0.0
 20
0.0
 30
0.0
  3
*D58
  1
*D59
  0
LINE
  5
262E
330
262B
100
AcDbEntity
  8
Dim
  6
Continuous
 62
     0
370
    -2
100
AcDbLine
 10
4132.430584239695
 20
1979.104813762771
 30
0.0
 11
4132.430584239695
 21
1942.21662624834
 31
0.0
  0
LINE
  5
262F
330
262B
100
AcDbEntity
  8
Dim
  6
Continuous
 62
     0
370
    -2
100
AcDbLine
 10
4172.236966284063
 20
1979.101368665014
 30
0.0
 11
4172.236966284063
 21
1942.21662624834
 31
0.0
  0
LINE
  5
2630
330
262B
100
AcDbEntity
  8
Dim
  6
Continuous
 62
     0
370
    -2
100
AcDbLine
 10
4140.430584239695
 20
1942.21662624834
 30
0.0
 11
4164.236966284063
 21
1942.21662624834
 31
0.0
  0
INSERT
  5
2631
330
262B
100
AcDbEntity
  8
Dim
 62
     0
370
    -2
100
AcDbBlockReference
  2
_DOT
 10
4132.430584239695
 20
1942.21662624834
 30
0.0
 41
8.0
 42
8.0
 43
8.0
 50
180.0
  0
INSERT
  5
2632
330
262B
100
AcDbEntity
  8
Dim
 62
     0
370
    -2
100
AcDbBlockReference
  2
_DOT
 10
4172.236966284063
 20
1942.21662624834
 30
0.0
 41
8.0
 42
8.0
 43
8.0
  0
MTEXT
  5
2633
330
262B
100
AcDbEntity
  8
Dim
  6
Continuous
 62
     0
100
AcDbMText
 10
4152.333775261881
 20
1974.21662624834
 30
0.0
 40
24.0
 41
0.0
 46
0.0
 71
     5
 72
     1
  1
\A1;40
  7
ＭＳ ゴシック
 73
     1
 44
1.0
  0
POINT
  5
2634
330
262B
100
AcDbEntity
  8
Defpoints
 62
     0
100
AcDbPoint
 10
4132.430584239695
 20
2009.104813762771
 30
0.0
  0
POINT
  5
2635
330
262B
100
AcDbEntity
  8
Defpoints
 62
     0
100
AcDbPoint
 10
4172.236966284063
 20
2009.101368665014
 30
0.0
  0
POINT
  5
2636
330
262B
100
AcDbEntity
  8
Defpoints
 62
     0
100
AcDbPoint
 10
4172.236966284063
 20
1942.21662624834
 30
0.0
  0
ENDBLK
  5
262D
330
262B
100
AcDbEntity
  8
0
100
AcDbBlockEnd
  0
BLOCK
  5
2638
330
2637
100
AcDbEntity
  8
0
100
AcDbBlockBegin
  2
*D59
 70
     1
 10
0.0
 20
0.0
 30
0.0
  3
*D59
  1
*D60
  0
LINE
  5
263A
330
2637
100
AcDbEntity
  8
Dim
  6
Continuous
 62
     0
370
    -2
100
AcDbLine
 10
4172.236966284063
 20
1979.101368665014
 30
0.0
 11
4172.236966284063
 21
1942.21662624834
 31
0.0
  0
LINE
  5
263B
330
2637
100
AcDbEntity
  8
Dim
  6
Continuous
 62
     0
370
    -2
100
AcDbLine
 10
4255.236966284063
 20
2126.938588003638
 30
0.0
 11
4255.236966284063
 21
1942.21662624834
 31
0.0
  0
LINE
  5
263C
330
2637
100
AcDbEntity
  8
Dim
  6
Continuous
 62
     0
370
    -2
100
AcDbLine
 10
4180.236966284063
 20
1942.21662624834
 30
0.0
 11
4247.236966284063
 21
1942.21662624834
 31
0.0
  0
INSERT
  5
263D
330
2637
100
AcDbEntity
  8
Dim
 62
     0
370
    -2
100
AcDbBlockReference
  2
_DOT
 10
4172.236966284063
 20
1942.21662624834
 30
0.0
 41
8.0
 42
8.0
 43
8.0
 50
180.0
  0
INSERT
  5
263E
330
2637
100
AcDbEntity
  8
Dim
 62
     0
370
    -2
100
AcDbBlockReference
  2
_DOT
 10
4255.236966284063
 20
1942.21662624834
 30
0.0
 41
8.0
 42
8.0
 43
8.0
  0
MTEXT
  5
263F
330
2637
100
AcDbEntity
  8
Dim
  6
Continuous
 62
     0
100
AcDbMText
 10
4213.736966284063
 20
1974.21662624834
 30
0.0
 40
24.0
 41
0.0
 46
0.0
 71
     5
 72
     1
  1
\A1;83
  7
ＭＳ ゴシック
 73
     1
 44
1.0
  0
POINT
  5
2640
330
2637
100
AcDbEntity
  8
Defpoints
 62
     0
100
AcDbPoint
 10
4172.236966284063
 20
2009.101368665014
 30
0.0
  0
POINT
  5
2641
330
2637
100
AcDbEntity
  8
Defpoints
 62
     0
100
AcDbPoint
 10
4255.236966284063
 20
2156.938588003638
 30
0.0
  0
POINT
  5
2642
330
2637
100
AcDbEntity
  8
Defpoints
 62
     0
100
AcDbPoint
 10
4255.236966284063
 20
1942.21662624834
 30
0.0
  0
ENDBLK
  5
2639
330
2637
100
AcDbEntity
  8
0
100
AcDbBlockEnd
  0
BLOCK
  5
2644
330
2643
100
AcDbEntity
  8
0
100
AcDbBlockBegin
  2
*D60
 70
     1
 10
0.0
 20
0.0
 30
0.0
  3
*D60
  1
*D61
  0
LINE
  5
2646
330
2643
100
AcDbEntity
  8
Dim
  6
Continuous
 62
     0
370
    -2
100
AcDbLine
 10
4132.430584239695
 20
1477.091682208498
 30
0.0
 11
4132.430584239695
 21
1566.80728004645
 31
0.0
  0
LINE
  5
2647
330
2643
100
AcDbEntity
  8
Dim
  6
Continuous
 62
     0
370
    -2
100
AcDbLine
 10
4255.430584239695
 20
1246.630948393532
 30
0.0
 11
4255.430584239695
 21
1566.80728004645
 31
0.0
  0
LINE
  5
2648
330
2643
100
AcDbEntity
  8
Dim
  6
Continuous
 62
     0
370
    -2
100
AcDbLine
 10
4140.430584239695
 20
1566.80728004645
 30
0.0
 11
4247.430584239695
 21
1566.80728004645
 31
0.0
  0
INSERT
  5
2649
330
2643
100
AcDbEntity
  8
Dim
 62
     0
370
    -2
100
AcDbBlockReference
  2
_DOT
 10
4132.430584239695
 20
1566.80728004645
 30
0.0
 41
8.0
 42
8.0
 43
8.0
 50
180.0
  0
INSERT
  5
264A
330
2643
100
AcDbEntity
  8
Dim
 62
     0
370
    -2
100
AcDbBlockReference
  2
_DOT
 10
4255.430584239695
 20
1566.80728004645
 30
0.0
 41
8.0
 42
8.0
 43
8.0
  0
MTEXT
  5
264B
330
2643
100
AcDbEntity
  8
Dim
  6
Continuous
 62
     0
100
AcDbMText
 10
4193.930584239695
 20
1598.80728004645
 30
0.0
 40
24.0
 41
0.0
 46
0.0
 71
     5
 72
     1
  1
\A1;123
  7
ＭＳ ゴシック
 73
     1
 44
1.0
  0
POINT
  5
264C
330
2643
100
AcDbEntity
  8
Defpoints
 62
     0
100
AcDbPoint
 10
4132.430584239695
 20
1447.091682208498
 30
0.0
  0
POINT
  5
264D
330
2643
100
AcDbEntity
  8
Defpoints
 62
     0
100
AcDbPoint
 10
4255.430584239695
 20
1216.630948393532
 30
0.0
  0
POINT
  5
264E
330
2643
100
AcDbEntity
  8
Defpoints
 62
     0
100
AcDbPoint
 10
4255.430584239695
 20
1566.80728004645
 30
0.0
  0
ENDBLK
  5
2645
330
2643
100
AcDbEntity
  8
0
100
AcDbBlockEnd
  0
BLOCK
  5
2650
330
264F
100
AcDbEntity
  8
0
100
AcDbBlockBegin
  2
*D61
 70
     1
 10
0.0
 20
0.0
 30
0.0
  3
*D61
  1
*D62
  0
LINE
  5
2652
330
264F
100
AcDbEntity
  8
Dim
  6
Continuous
 62
     0
370
    -2
100
AcDbLine
 10
4105.410593800332
 20
2463.905949182327
 30
0.0
 11
4068.614977958017
 21
2463.905949182327
 31
0.0
  0
LINE
  5
2653
330
264F
100
AcDbEntity
  8
Dim
  6
Continuous
 62
     0
370
    -2
100
AcDbLine
 10
4123.408774208765
 20
2404.405949182327
 30
0.0
 11
4068.614977958017
 21
2404.405949182327
 31
0.0
  0
LINE
  5
2654
330
264F
100
AcDbEntity
  8
Dim
  6
Continuous
 62
     0
370
    -2
100
AcDbLine
 10
4068.614977958017
 20
2455.905949182327
 30
0.0
 11
4068.614977958017
 21
2412.405949182327
 31
0.0
  0
INSERT
  5
2655
330
264F
100
AcDbEntity
  8
Dim
 62
     0
370
    -2
100
AcDbBlockReference
  2
_DOT
 10
4068.614977958017
 20
2463.905949182327
 30
0.0
 41
8.0
 42
8.0
 43
8.0
 50
90.0
  0
INSERT
  5
2656
330
264F
100
AcDbEntity
  8
Dim
 62
     0
370
    -2
100
AcDbBlockReference
  2
_DOT
 10
4068.614977958017
 20
2404.405949182327
 30
0.0
 41
8.0
 42
8.0
 43
8.0
 50
270.0
  0
MTEXT
  5
2657
330
264F
100
AcDbEntity
  8
Dim
  6
Continuous
 62
     0
100
AcDbMText
 10
4036.614977958017
 20
2434.155949182327
 30
0.0
 40
24.0
 41
0.0
 46
0.0
 71
     5
 72
     1
  1
\A1;59
  7
ＭＳ ゴシック
 11
0.0
 21
1.0
 31
0.0
 73
     1
 44
1.0
  0
POINT
  5
2658
330
264F
100
AcDbEntity
  8
Defpoints
 62
     0
100
AcDbPoint
 10
4135.410593800332
 20
2463.905949182327
 30
0.0
  0
POINT
  5
2659
330
264F
100
AcDbEntity
  8
Defpoints
 62
     0
100
AcDbPoint
 10
4153.408774208765
 20
2404.405949182327
 30
0.0
  0
POINT
  5
265A
330
264F
100
AcDbEntity
  8
Defpoints
 62
     0
100
AcDbPoint
 10
4068.614977958017
 20
2404.405949182327
 30
0.0
  0
ENDBLK
  5
2651
330
264F
100
AcDbEntity
  8
0
100
AcDbBlockEnd
  0
BLOCK
  5
265C
330
265B
100
AcDbEntity
  8
0
100
AcDbBlockBegin
  2
*D62
 70
     1
 10
0.0
 20
0.0
 30
0.0
  3
*D62
  1
*D63
  0
LINE
  5
265E
330
265B
100
AcDbEntity
  8
Dim
  6
Continuous
 62
     0
370
    -2
100
AcDbLine
 10
2908.024002965647
 20
2652.054288974793
 30
0.0
 11
2908.024002965647
 21
2711.171718437929
 31
0.0
  0
LINE
  5
265F
330
265B
100
AcDbEntity
  8
Dim
  6
Continuous
 62
     0
370
    -2
100
AcDbLine
 10
3327.891469321703
 20
2653.266383657662
 30
0.0
 11
3327.891469321703
 21
2711.171718437929
 31
0.0
  0
LINE
  5
2660
330
265B
100
AcDbEntity
  8
Dim
  6
Continuous
 62
     0
370
    -2
100
AcDbLine
 10
2916.024002965647
 20
2711.171718437929
 30
0.0
 11
3319.891469321703
 21
2711.171718437929
 31
0.0
  0
INSERT
  5
2661
330
265B
100
AcDbEntity
  8
Dim
 62
     0
370
    -2
100
AcDbBlockReference
  2
_DOT
 10
2908.024002965647
 20
2711.171718437929
 30
0.0
 41
8.0
 42
8.0
 43
8.0
 50
180.0
  0
INSERT
  5
2662
330
265B
100
AcDbEntity
  8
Dim
 62
     0
370
    -2
100
AcDbBlockReference
  2
_DOT
 10
3327.891469321703
 20
2711.171718437929
 30
0.0
 41
8.0
 42
8.0
 43
8.0
  0
MTEXT
  5
2663
330
265B
100
AcDbEntity
  8
Dim
  6
Continuous
 62
     0
100
AcDbMText
 10
3117.957736143675
 20
2743.171718437929
 30
0.0
 40
24.0
 41
0.0
 46
0.0
 71
     5
 72
     1
  1
\A1;420
  7
ＭＳ ゴシック
 73
     1
 44
1.0
  0
POINT
  5
2664
330
265B
100
AcDbEntity
  8
Defpoints
 62
     0
100
AcDbPoint
 10
2908.024002965647
 20
2622.054288974793
 30
0.0
  0
POINT
  5
2665
330
265B
100
AcDbEntity
  8
Defpoints
 62
     0
100
AcDbPoint
 10
3327.891469321703
 20
2623.266383657662
 30
0.0
  0
POINT
  5
2666
330
265B
100
AcDbEntity
  8
Defpoints
 62
     0
100
AcDbPoint
 10
3327.891469321703
 20
2711.171718437929
 30
0.0
  0
ENDBLK
  5
265D
330
265B
100
AcDbEntity
  8
0
100
AcDbBlockEnd
  0
BLOCK
  5
2668
330
2667
100
AcDbEntity
  8
0
100
AcDbBlockBegin
  2
*D63
 70
     1
 10
0.0
 20
0.0
 30
0.0
  3
*D63
  1
*D64
  0
LINE
  5
266A
330
2667
100
AcDbEntity
  8
Dim
  6
Continuous
 62
     0
370
    -2
100
AcDbLine
 10
2850.869767210386
 20
2285.595978606026
 30
0.0
 11
2784.390010753141
 21
2285.595978606026
 31
0.0
  0
LINE
  5
266B
330
2667
100
AcDbEntity
  8
Dim
  6
Continuous
 62
     0
370
    -2
100
AcDbLine
 10
2850.869767210386
 20
2065.595825390126
 30
0.0
 11
2784.390010753141
 21
2065.595825390126
 31
0.0
  0
LINE
  5
266C
330
2667
100
AcDbEntity
  8
Dim
  6
Continuous
 62
     0
370
    -2
100
AcDbLine
 10
2784.390010753141
 20
2277.595978606026
 30
0.0
 11
2784.390010753141
 21
2073.595825390126
 31
0.0
  0
INSERT
  5
266D
330
2667
100
AcDbEntity
  8
Dim
 62
     0
370
    -2
100
AcDbBlockReference
  2
_DOT
 10
2784.390010753141
 20
2285.595978606026
 30
0.0
 41
8.0
 42
8.0
 43
8.0
 50
90.0
  0
INSERT
  5
266E
330
2667
100
AcDbEntity
  8
Dim
 62
     0
370
    -2
100
AcDbBlockReference
  2
_DOT
 10
2784.390010753141
 20
2065.595825390126
 30
0.0
 41
8.0
 42
8.0
 43
8.0
 50
270.0
  0
MTEXT
  5
266F
330
2667
100
AcDbEntity
  8
Dim
  6
Continuous
 62
     0
100
AcDbMText
 10
2752.390010753141
 20
2175.595901998076
 30
0.0
 40
24.0
 41
0.0
 46
0.0
 71
     5
 72
     1
  1
\A1;220
  7
ＭＳ ゴシック
 11
0.0
 21
1.0
 31
0.0
 73
     1
 44
1.0
  0
POINT
  5
2670
330
2667
100
AcDbEntity
  8
Defpoints
 62
     0
100
AcDbPoint
 10
2880.869767210386
 20
2285.595978606026
 30
0.0
  0
POINT
  5
2671
330
2667
100
AcDbEntity
  8
Defpoints
 62
     0
100
AcDbPoint
 10
2880.869767210386
 20
2065.595825390126
 30
0.0
  0
POINT
  5
2672
330
2667
100
AcDbEntity
  8
Defpoints
 62
     0
100
AcDbPoint
 10
2784.390010753141
 20
2065.595825390126
 30
0.0
  0
ENDBLK
  5
2669
330
2667
100
AcDbEntity
  8
0
100
AcDbBlockEnd
  0
BLOCK
  5
2674
330
2673
100
AcDbEntity
  8
0
100
AcDbBlockBegin
  2
*D64
 70
     1
 10
0.0
 20
0.0
 30
0.0
  3
*D64
  1
*D65
  0
LINE
  5
2676
330
2673
100
AcDbEntity
  8
Dim
  6
Continuous
 62
     0
370
    -2
100
AcDbLine
 10
2902.833618683502
 20
2142.604602730801
 30
0.0
 11
2902.833618683502
 21
1972.424830549649
 31
0.0
  0
LINE
  5
2677
330
2673
100
AcDbEntity
  8
Dim
  6
Continuous
 62
     0
370
    -2
100
AcDbLine
 10
2887.691725017709
 20
2145.932918686248
 30
0.0
 11
2887.691725017709
 21
1972.424830549649
 31
0.0
  0
LINE
  5
2678
330
2673
100
AcDbEntity
  8
Dim
  6
Continuous
 62
     0
370
    -2
100
AcDbLine
 10
2887.691725017709
 20
1972.424830549649
 30
0.0
 11
2805.387725017709
 21
1972.424830549649
 31
0.0
  0
INSERT
  5
2679
330
2673
100
AcDbEntity
  8
Dim
 62
     0
370
    -2
100
AcDbBlockReference
  2
_DOT
 10
2902.833618683502
 20
1972.424830549649
 30
0.0
 41
8.0
 42
8.0
 43
8.0
  0
INSERT
  5
267A
330
2673
100
AcDbEntity
  8
Dim
 62
     0
370
    -2
100
AcDbBlockReference
  2
_DOT
 10
2887.691725017709
 20
1972.424830549649
 30
0.0
 41
8.0
 42
8.0
 43
8.0
 50
180.0
  0
MTEXT
  5
267B
330
2673
100
AcDbEntity
  8
Dim
  6
Continuous
 62
     0
100
AcDbMText
 10
2838.539725017709
 20
2004.424830549649
 30
0.0
 40
24.0
 41
0.0
 46
0.0
 71
     5
 72
     1
  1
\A1;15
  7
ＭＳ ゴシック
 73
     1
 44
1.0
  0
POINT
  5
267C
330
2673
100
AcDbEntity
  8
Defpoints
 62
     0
100
AcDbPoint
 10
2902.833618683502
 20
2172.604602730801
 30
0.0
  0
POINT
  5
267D
330
2673
100
AcDbEntity
  8
Defpoints
 62
     0
100
AcDbPoint
 10
2887.691725017709
 20
2175.932918686248
 30
0.0
  0
POINT
  5
267E
330
2673
100
AcDbEntity
  8
Defpoints
 62
     0
100
AcDbPoint
 10
2887.691725017709
 20
1972.424830549649
 30
0.0
  0
ENDBLK
  5
2675
330
2673
100
AcDbEntity
  8
0
100
AcDbBlockEnd
  0
BLOCK
  5
2680
330
267F
100
AcDbEntity
  8
0
100
AcDbBlockBegin
  2
*D65
 70
     1
 10
0.0
 20
0.0
 30
0.0
  3
*D65
  1
*D66
  0
LINE
  5
2682
330
267F
100
AcDbEntity
  8
Dim
  6
Continuous
 62
     0
370
    -2
100
AcDbLine
 10
3347.701247951418
 20
2606.232949488401
 30
0.0
 11
3471.319240581772
 21
2606.232949488401
 31
0.0
  0
LINE
  5
2683
330
267F
100
AcDbEntity
  8
Dim
  6
Continuous
 62
     0
370
    -2
100
AcDbLine
 10
3347.701247951418
 20
1745.916247174691
 30
0.0
 11
3471.319240581772
 21
1745.916247174691
 31
0.0
  0
LINE
  5
2684
330
267F
100
AcDbEntity
  8
Dim
  6
Continuous
 62
     0
370
    -2
100
AcDbLine
 10
3471.319240581772
 20
2598.232949488401
 30
0.0
 11
3471.319240581772
 21
1753.916247174691
 31
0.0
  0
INSERT
  5
2685
330
267F
100
AcDbEntity
  8
Dim
 62
     0
370
    -2
100
AcDbBlockReference
  2
_DOT
 10
3471.319240581772
 20
2606.232949488401
 30
0.0
 41
8.0
 42
8.0
 43
8.0
 50
90.0
  0
INSERT
  5
2686
330
267F
100
AcDbEntity
  8
Dim
 62
     0
370
    -2
100
AcDbBlockReference
  2
_DOT
 10
3471.319240581772
 20
1745.916247174691
 30
0.0
 41
8.0
 42
8.0
 43
8.0
 50
270.0
  0
MTEXT
  5
2687
330
267F
100
AcDbEntity
  8
Dim
  6
Continuous
 62
     0
100
AcDbMText
 10
3439.319240581772
 20
2176.074598331546
 30
0.0
 40
24.0
 41
0.0
 46
0.0
 71
     5
 72
     1
  1
\A1;860
  7
ＭＳ ゴシック
 11
0.0
 21
1.0
 31
0.0
 73
     1
 44
1.0
  0
POINT
  5
2688
330
267F
100
AcDbEntity
  8
Defpoints
 62
     0
100
AcDbPoint
 10
3317.701247951418
 20
2606.232949488401
 30
0.0
  0
POINT
  5
2689
330
267F
100
AcDbEntity
  8
Defpoints
 62
     0
100
AcDbPoint
 10
3317.701247951418
 20
1745.916247174691
 30
0.0
  0
POINT
  5
268A
330
267F
100
AcDbEntity
  8
Defpoints
 62
     0
100
AcDbPoint
 10
3471.319240581772
 20
1745.916247174691
 30
0.0
  0
ENDBLK
  5
2681
330
267F
100
AcDbEntity
  8
0
100
AcDbBlockEnd
  0
BLOCK
  5
268C
330
268B
100
AcDbEntity
  8
0
100
AcDbBlockBegin
  2
*D66
 70
     1
 10
0.0
 20
0.0
 30
0.0
  3
*D66
  1
*D67
  0
LINE
  5
268E
330
268B
100
AcDbEntity
  8
Dim
  6
Continuous
 62
     0
370
    -2
100
AcDbLine
 10
2908.024002965647
 20
2628.185545635578
 30
0.0
 11
2908.024002965647
 21
2711.171718437929
 31
0.0
  0
LINE
  5
268F
330
268B
100
AcDbEntity
  8
Dim
  6
Continuous
 62
     0
370
    -2
100
AcDbLine
 10
2888.024002965647
 20
2628.185545635578
 30
0.0
 11
2888.024002965647
 21
2711.171718437929
 31
0.0
  0
LINE
  5
2690
330
268B
100
AcDbEntity
  8
Dim
  6
Continuous
 62
     0
370
    -2
100
AcDbLine
 10
2888.024002965647
 20
2711.171718437929
 30
0.0
 11
2803.319766510752
 21
2711.171718437929
 31
0.0
  0
LINE
  5
2691
330
268B
100
AcDbEntity
  8
Dim
  6
Continuous
 62
     0
370
    -2
100
AcDbLine
 10
2900.024002965647
 20
2711.171718437929
 30
0.0
 11
2896.024002965647
 21
2711.171718437929
 31
0.0
  0
INSERT
  5
2692
330
268B
100
AcDbEntity
  8
Dim
 62
     0
370
    -2
100
AcDbBlockReference
  2
_DOT
 10
2908.024002965647
 20
2711.171718437929
 30
0.0
 41
8.0
 42
8.0
 43
8.0
  0
INSERT
  5
2693
330
268B
100
AcDbEntity
  8
Dim
 62
     0
370
    -2
100
AcDbBlockReference
  2
_DOT
 10
2888.024002965647
 20
2711.171718437929
 30
0.0
 41
8.0
 42
8.0
 43
8.0
 50
180.0
  0
MTEXT
  5
2694
330
268B
100
AcDbEntity
  8
Dim
  6
Continuous
 62
     0
100
AcDbMText
 10
2837.575766510752
 20
2743.171718437929
 30
0.0
 40
24.0
 41
0.0
 46
0.0
 71
     5
 72
     1
  1
\A1;20
  7
ＭＳ ゴシック
 73
     1
 44
1.0
  0
POINT
  5
2695
330
268B
100
AcDbEntity
  8
Defpoints
 62
     0
100
AcDbPoint
 10
2908.024002965647
 20
2598.185545635578
 30
0.0
  0
POINT
  5
2696
330
268B
100
AcDbEntity
  8
Defpoints
 62
     0
100
AcDbPoint
 10
2888.024002965647
 20
2598.185545635578
 30
0.0
  0
POINT
  5
2697
330
268B
100
AcDbEntity
  8
Defpoints
 62
     0
100
AcDbPoint
 10
2888.024002965647
 20
2711.171718437929
 30
0.0
  0
ENDBLK
  5
268D
330
268B
100
AcDbEntity
  8
0
100
AcDbBlockEnd
  0
BLOCK
  5
2699
330
2698
100
AcDbEntity
  8
0
100
AcDbBlockBegin
  2
*D67
 70
     1
 10
0.0
 20
0.0
 30
0.0
  3
*D67
  1
*D68
  0
LINE
  5
269B
330
2698
100
AcDbEntity
  8
Dim
  6
Continuous
 62
     0
370
    -2
100
AcDbLine
 10
2887.691725017709
 20
520.0906917313196
 30
0.0
 11
2887.691725017709
 21
457.0303065731978
 31
0.0
  0
LINE
  5
269C
330
2698
100
AcDbEntity
  8
Dim
  6
Continuous
 62
     0
370
    -2
100
AcDbLine
 10
2992.191875309962
 20
490.0906917313196
 30
0.0
 11
2992.191875309962
 21
457.0303065731978
 31
0.0
  0
LINE
  5
269D
330
2698
100
AcDbEntity
  8
Dim
  6
Continuous
 62
     0
370
    -2
100
AcDbLine
 10
2895.691725017709
 20
457.0303065731978
 30
0.0
 11
2984.191875309962
 21
457.0303065731978
 31
0.0
  0
INSERT
  5
269E
330
2698
100
AcDbEntity
  8
Dim
 62
     0
370
    -2
100
AcDbBlockReference
  2
_DOT
 10
2887.691725017709
 20
457.0303065731978
 30
0.0
 41
8.0
 42
8.0
 43
8.0
 50
180.0
  0
INSERT
  5
269F
330
2698
100
AcDbEntity
  8
Dim
 62
     0
370
    -2
100
AcDbBlockReference
  2
_DOT
 10
2992.191875309962
 20
457.0303065731978
 30
0.0
 41
8.0
 42
8.0
 43
8.0
  0
MTEXT
  5
26A0
330
2698
100
AcDbEntity
  8
Dim
  6
Continuous
 62
     0
100
AcDbMText
 10
2939.941800163835
 20
489.0303065731978
 30
0.0
 40
24.0
 41
0.0
 46
0.0
 71
     5
 72
     1
  1
\A1;104
  7
ＭＳ ゴシック
 73
     1
 44
1.0
  0
POINT
  5
26A1
330
2698
100
AcDbEntity
  8
Defpoints
 62
     0
100
AcDbPoint
 10
2887.691725017709
 20
550.0906917313196
 30
0.0
  0
POINT
  5
26A2
330
2698
100
AcDbEntity
  8
Defpoints
 62
     0
100
AcDbPoint
 10
2992.191875309962
 20
520.0906917313196
 30
0.0
  0
POINT
  5
26A3
330
2698
100
AcDbEntity
  8
Defpoints
 62
     0
100
AcDbPoint
 10
2992.191875309962
 20
457.0303065731978
 30
0.0
  0
ENDBLK
  5
269A
330
2698
100
AcDbEntity
  8
0
100
AcDbBlockEnd
  0
BLOCK
  5
26A6
330
26A5
100
AcDbEntity
  8
0
100
AcDbBlockBegin
  2
*D68
 70
     1
 10
0.0
 20
0.0
 30
0.0
  3
*D68
  1
*D69
  0
LINE
  5
26A8
330
26A5
100
AcDbEntity
  8
Dim
  6
Continuous
 62
     0
370
    -2
100
AcDbLine
 10
520.4968133750117
 20
541.8274404316899
 30
0.0
 11
520.4968133750117
 21
472.9646752038373
 31
0.0
  0
LINE
  5
26A9
330
26A5
100
AcDbEntity
  8
Dim
  6
Continuous
 62
     0
370
    -2
100
AcDbLine
 10
416.4968133750117
 20
541.8274404316899
 30
0.0
 11
416.4968133750117
 21
472.9646752038373
 31
0.0
  0
LINE
  5
26AA
330
26A5
100
AcDbEntity
  8
Dim
  6
Continuous
 62
     0
370
    -2
100
AcDbLine
 10
511.4968133750117
 20
472.9646752038373
 30
0.0
 11
425.4968133750117
 21
472.9646752038373
 31
0.0
  0
INSERT
  5
26AB
330
26A5
100
AcDbEntity
  8
Dim
 62
     0
370
    -2
100
AcDbBlockReference
  2
_DOT
 10
520.4968133750117
 20
472.9646752038373
 30
0.0
 41
9.0
 42
9.0
 43
9.0
  0
INSERT
  5
26AC
330
26A5
100
AcDbEntity
  8
Dim
 62
     0
370
    -2
100
AcDbBlockReference
  2
_DOT
 10
416.4968133750117
 20
472.9646752038373
 30
0.0
 41
9.0
 42
9.0
 43
9.0
 50
180.0
  0
MTEXT
  5
26AD
330
26A5
100
AcDbEntity
  8
Dim
  6
Continuous
 62
     0
100
AcDbMText
 10
468.4968133750117
 20
495.1809837975873
 30
0.0
 40
24.4326171875
 41
0.0
 46
0.0
 71
     5
 72
     1
  1
\A1;104
  7
ＭＳ ゴシック
 73
     1
 44
1.0
  0
POINT
  5
26AE
330
26A5
100
AcDbEntity
  8
Defpoints
 62
     0
100
AcDbPoint
 10
520.4968133750117
 20
566.8274404316899
 30
0.0
  0
POINT
  5
26AF
330
26A5
100
AcDbEntity
  8
Defpoints
 62
     0
100
AcDbPoint
 10
416.4968133750117
 20
566.8274404316899
 30
0.0
  0
POINT
  5
26B0
330
26A5
100
AcDbEntity
  8
Defpoints
 62
     0
100
AcDbPoint
 10
416.4968133750117
 20
472.9646752038373
 30
0.0
  0
ENDBLK
  5
26A7
330
26A5
100
AcDbEntity
  8
0
100
AcDbBlockEnd
  0
BLOCK
  5
26B9
330
26B8
100
AcDbEntity
  8
0
100
AcDbBlockBegin
  2
*D69
 70
     1
 10
0.0
 20
0.0
 30
0.0
  3
*D69
  1
*D70
  0
LINE
  5
26BB
330
26B8
100
AcDbEntity
  8
Dim
  6
Continuous
 62
     0
370
    -2
100
AcDbLine
 10
1662.045067717121
 20
1957.013694460858
 30
0.0
 11
1662.045067717121
 21
1915.826761041885
 31
0.0
  0
LINE
  5
26BC
330
26B8
100
AcDbEntity
  8
Dim
  6
Continuous
 62
     0
370
    -2
100
AcDbLine
 10
1745.045067717121
 20
2130.144540273105
 30
0.0
 11
1745.045067717121
 21
1915.826761041885
 31
0.0
  0
LINE
  5
26BD
330
26B8
100
AcDbEntity
  8
Dim
  6
Continuous
 62
     0
370
    -2
100
AcDbLine
 10
1671.045067717121
 20
1915.826761041885
 30
0.0
 11
1736.045067717121
 21
1915.826761041885
 31
0.0
  0
INSERT
  5
26BE
330
26B8
100
AcDbEntity
  8
Dim
 62
     0
370
    -2
100
AcDbBlockReference
  2
_DOT
 10
1662.045067717121
 20
1915.826761041885
 30
0.0
 41
9.0
 42
9.0
 43
9.0
 50
180.0
  0
INSERT
  5
26BF
330
26B8
100
AcDbEntity
  8
Dim
 62
     0
370
    -2
100
AcDbBlockReference
  2
_DOT
 10
1745.045067717121
 20
1915.826761041885
 30
0.0
 41
9.0
 42
9.0
 43
9.0
  0
MTEXT
  5
26C0
330
26B8
100
AcDbEntity
  8
Dim
  6
Continuous
 62
     0
100
AcDbMText
 10
1703.545067717121
 20
1938.043069635635
 30
0.0
 40
24.4326171875
 41
0.0
 46
0.0
 71
     5
 72
     1
  1
\A1;83
  7
ＭＳ ゴシック
 73
     1
 44
1.0
  0
POINT
  5
26C1
330
26B8
100
AcDbEntity
  8
Defpoints
 62
     0
100
AcDbPoint
 10
1662.045067717121
 20
1982.013694460858
 30
0.0
  0
POINT
  5
26C2
330
26B8
100
AcDbEntity
  8
Defpoints
 62
     0
100
AcDbPoint
 10
1745.045067717121
 20
2155.144540273105
 30
0.0
  0
POINT
  5
26C3
330
26B8
100
AcDbEntity
  8
Defpoints
 62
     0
100
AcDbPoint
 10
1745.045067717121
 20
1915.826761041885
 30
0.0
  0
ENDBLK
  5
26BA
330
26B8
100
AcDbEntity
  8
0
100
AcDbBlockEnd
  0
BLOCK
  5
2728
330
2727
100
AcDbEntity
  8
0
100
AcDbBlockBegin
  2
*D70
 70
     1
 10
0.0
 20
0.0
 30
0.0
  3
*D70
  1
*D71
  0
LINE
  5
272A
330
2727
100
AcDbEntity
  8
Dim
  6
Continuous
 62
     0
370
    -2
100
AcDbLine
 10
436.3291454093173
 20
2763.386495931919
 30
0.0
 11
436.3291454093173
 21
2807.204042409037
 31
0.0
  0
LINE
  5
272B
330
2727
100
AcDbEntity
  8
Dim
  6
Continuous
 62
     0
370
    -2
100
AcDbLine
 10
856.1966117653733
 20
2764.598590614788
 30
0.0
 11
856.1966117653733
 21
2807.204042409037
 31
0.0
  0
LINE
  5
272C
330
2727
100
AcDbEntity
  8
Dim
  6
Continuous
 62
     0
370
    -2
100
AcDbLine
 10
444.3291454093173
 20
2807.204042409037
 30
0.0
 11
848.1966117653733
 21
2807.204042409037
 31
0.0
  0
INSERT
  5
272D
330
2727
100
AcDbEntity
  8
Dim
 62
     0
370
    -2
100
AcDbBlockReference
  2
_DOT
 10
436.3291454093173
 20
2807.204042409037
 30
0.0
 41
8.0
 42
8.0
 43
8.0
 50
180.0
  0
INSERT
  5
272E
330
2727
100
AcDbEntity
  8
Dim
 62
     0
370
    -2
100
AcDbBlockReference
  2
_DOT
 10
856.1966117653733
 20
2807.204042409037
 30
0.0
 41
8.0
 42
8.0
 43
8.0
  0
MTEXT
  5
272F
330
2727
100
AcDbEntity
  8
Dim
  6
Continuous
 62
     0
100
AcDbMText
 10
646.2628785873453
 20
2839.204042409037
 30
0.0
 40
24.0
 41
0.0
 46
0.0
 71
     5
 72
     1
  1
\A1;420
  7
ＭＳ ゴシック
 73
     1
 44
1.0
  0
POINT
  5
2730
330
2727
100
AcDbEntity
  8
Defpoints
 62
     0
100
AcDbPoint
 10
436.3291454093173
 20
2733.386495931919
 30
0.0
  0
POINT
  5
2731
330
2727
100
AcDbEntity
  8
Defpoints
 62
     0
100
AcDbPoint
 10
856.1966117653733
 20
2734.598590614788
 30
0.0
  0
POINT
  5
2732
330
2727
100
AcDbEntity
  8
Defpoints
 62
     0
100
AcDbPoint
 10
856.1966117653733
 20
2807.204042409037
 30
0.0
  0
ENDBLK
  5
2729
330
2727
100
AcDbEntity
  8
0
100
AcDbBlockEnd
  0
BLOCK
  5
2734
330
2733
100
AcDbEntity
  8
0
100
AcDbBlockBegin
  2
*D71
 70
     1
 10
0.0
 20
0.0
 30
0.0
  3
*D71
  1
*D72
  0
LINE
  5
2736
330
2733
100
AcDbEntity
  8
Dim
  6
Continuous
 62
     0
370
    -2
100
AcDbLine
 10
436.3291454093173
 20
2739.517752592704
 30
0.0
 11
436.3291454093173
 21
2807.204042409037
 31
0.0
  0
LINE
  5
2737
330
2733
100
AcDbEntity
  8
Dim
  6
Continuous
 62
     0
370
    -2
100
AcDbLine
 10
416.3291454093173
 20
2739.517752592704
 30
0.0
 11
416.3291454093173
 21
2807.204042409037
 31
0.0
  0
LINE
  5
2738
330
2733
100
AcDbEntity
  8
Dim
  6
Continuous
 62
     0
370
    -2
100
AcDbLine
 10
416.3291454093173
 20
2807.204042409037
 30
0.0
 11
331.624908954422
 21
2807.204042409037
 31
0.0
  0
LINE
  5
2739
330
2733
100
AcDbEntity
  8
Dim
  6
Continuous
 62
     0
370
    -2
100
AcDbLine
 10
428.3291454093173
 20
2807.204042409037
 30
0.0
 11
424.3291454093173
 21
2807.204042409037
 31
0.0
  0
INSERT
  5
273A
330
2733
100
AcDbEntity
  8
Dim
 62
     0
370
    -2
100
AcDbBlockReference
  2
_DOT
 10
436.3291454093173
 20
2807.204042409037
 30
0.0
 41
8.0
 42
8.0
 43
8.0
  0
INSERT
  5
273B
330
2733
100
AcDbEntity
  8
Dim
 62
     0
370
    -2
100
AcDbBlockReference
  2
_DOT
 10
416.3291454093173
 20
2807.204042409037
 30
0.0
 41
8.0
 42
8.0
 43
8.0
 50
180.0
  0
MTEXT
  5
273C
330
2733
100
AcDbEntity
  8
Dim
  6
Continuous
 62
     0
100
AcDbMText
 10
365.880908954422
 20
2839.204042409037
 30
0.0
 40
24.0
 41
0.0
 46
0.0
 71
     5
 72
     1
  1
\A1;20
  7
ＭＳ ゴシック
 73
     1
 44
1.0
  0
POINT
  5
273D
330
2733
100
AcDbEntity
  8
Defpoints
 62
     0
100
AcDbPoint
 10
436.3291454093173
 20
2709.517752592704
 30
0.0
  0
POINT
  5
273E
330
2733
100
AcDbEntity
  8
Defpoints
 62
     0
100
AcDbPoint
 10
416.3291454093173
 20
2709.517752592704
 30
0.0
  0
POINT
  5
273F
330
2733
100
AcDbEntity
  8
Defpoints
 62
     0
100
AcDbPoint
 10
416.3291454093173
 20
2807.204042409037
 30
0.0
  0
ENDBLK
  5
2735
330
2733
100
AcDbEntity
  8
0
100
AcDbBlockEnd
  0
BLOCK
  5
2741
330
2740
100
AcDbEntity
  8
0
100
AcDbBlockBegin
  2
*D72
 70
     1
 10
0.0
 20
0.0
 30
0.0
  3
*D72
  1
*D73
  0
LINE
  5
2743
330
2740
100
AcDbEntity
  8
Dim
  6
Continuous
 62
     0
370
    -2
100
AcDbLine
 10
379.1749096540561
 20
2396.928185563152
 30
0.0
 11
312.6951531968111
 21
2396.928185563152
 31
0.0
  0
LINE
  5
2744
330
2740
100
AcDbEntity
  8
Dim
  6
Continuous
 62
     0
370
    -2
100
AcDbLine
 10
379.1749096540561
 20
2176.928032347253
 30
0.0
 11
312.6951531968111
 21
2176.928032347253
 31
0.0
  0
LINE
  5
2745
330
2740
100
AcDbEntity
  8
Dim
  6
Continuous
 62
     0
370
    -2
100
AcDbLine
 10
312.6951531968111
 20
2388.928185563152
 30
0.0
 11
312.6951531968111
 21
2184.928032347253
 31
0.0
  0
INSERT
  5
2746
330
2740
100
AcDbEntity
  8
Dim
 62
     0
370
    -2
100
AcDbBlockReference
  2
_DOT
 10
312.6951531968111
 20
2396.928185563152
 30
0.0
 41
8.0
 42
8.0
 43
8.0
 50
90.0
  0
INSERT
  5
2747
330
2740
100
AcDbEntity
  8
Dim
 62
     0
370
    -2
100
AcDbBlockReference
  2
_DOT
 10
312.6951531968111
 20
2176.928032347253
 30
0.0
 41
8.0
 42
8.0
 43
8.0
 50
270.0
  0
MTEXT
  5
2748
330
2740
100
AcDbEntity
  8
Dim
  6
Continuous
 62
     0
100
AcDbMText
 10
280.6951531968111
 20
2286.928108955202
 30
0.0
 40
24.0
 41
0.0
 46
0.0
 71
     5
 72
     1
  1
\A1;220
  7
ＭＳ ゴシック
 11
0.0
 21
1.0
 31
0.0
 73
     1
 44
1.0
  0
POINT
  5
2749
330
2740
100
AcDbEntity
  8
Defpoints
 62
     0
100
AcDbPoint
 10
409.1749096540561
 20
2396.928185563152
 30
0.0
  0
POINT
  5
274A
330
2740
100
AcDbEntity
  8
Defpoints
 62
     0
100
AcDbPoint
 10
409.1749096540561
 20
2176.928032347253
 30
0.0
  0
POINT
  5
274B
330
2740
100
AcDbEntity
  8
Defpoints
 62
     0
100
AcDbPoint
 10
312.6951531968111
 20
2176.928032347253
 30
0.0
  0
ENDBLK
  5
2742
330
2740
100
AcDbEntity
  8
0
100
AcDbBlockEnd
  0
BLOCK
  5
274D
330
274C
100
AcDbEntity
  8
0
100
AcDbBlockBegin
  2
*D73
 70
     1
 10
0.0
 20
0.0
 30
0.0
  3
*D73
  1
*D74
  0
LINE
  5
274F
330
274C
100
AcDbEntity
  8
Dim
  6
Continuous
 62
     0
370
    -2
100
AcDbLine
 10
431.1387611271721
 20
2253.936809687928
 30
0.0
 11
431.1387611271721
 21
2083.757037506775
 31
0.0
  0
LINE
  5
2750
330
274C
100
AcDbEntity
  8
Dim
  6
Continuous
 62
     0
370
    -2
100
AcDbLine
 10
415.9968674613792
 20
2257.265125643374
 30
0.0
 11
415.9968674613792
 21
2083.757037506775
 31
0.0
  0
LINE
  5
2751
330
274C
100
AcDbEntity
  8
Dim
  6
Continuous
 62
     0
370
    -2
100
AcDbLine
 10
415.9968674613792
 20
2083.757037506775
 30
0.0
 11
333.6928674613792
 21
2083.757037506775
 31
0.0
  0
INSERT
  5
2752
330
274C
100
AcDbEntity
  8
Dim
 62
     0
370
    -2
100
AcDbBlockReference
  2
_DOT
 10
431.1387611271721
 20
2083.757037506775
 30
0.0
 41
8.0
 42
8.0
 43
8.0
  0
INSERT
  5
2753
330
274C
100
AcDbEntity
  8
Dim
 62
     0
370
    -2
100
AcDbBlockReference
  2
_DOT
 10
415.9968674613792
 20
2083.757037506775
 30
0.0
 41
8.0
 42
8.0
 43
8.0
 50
180.0
  0
MTEXT
  5
2754
330
274C
100
AcDbEntity
  8
Dim
  6
Continuous
 62
     0
100
AcDbMText
 10
366.8448674613792
 20
2115.757037506775
 30
0.0
 40
24.0
 41
0.0
 46
0.0
 71
     5
 72
     1
  1
\A1;15
  7
ＭＳ ゴシック
 73
     1
 44
1.0
  0
POINT
  5
2755
330
274C
100
AcDbEntity
  8
Defpoints
 62
     0
100
AcDbPoint
 10
431.1387611271721
 20
2283.936809687928
 30
0.0
  0
POINT
  5
2756
330
274C
100
AcDbEntity
  8
Defpoints
 62
     0
100
AcDbPoint
 10
415.9968674613792
 20
2287.265125643374
 30
0.0
  0
POINT
  5
2757
330
274C
100
AcDbEntity
  8
Defpoints
 62
     0
100
AcDbPoint
 10
415.9968674613792
 20
2083.757037506775
 30
0.0
  0
ENDBLK
  5
274E
330
274C
100
AcDbEntity
  8
0
100
AcDbBlockEnd
  0
BLOCK
  5
2759
330
2758
100
AcDbEntity
  8
0
100
AcDbBlockBegin
  2
*D74
 70
     1
 10
0.0
 20
0.0
 30
0.0
  3
*D74
  1
*D75
  0
LINE
  5
275B
330
2758
100
AcDbEntity
  8
Dim
  6
Continuous
 62
     0
370
    -2
100
AcDbLine
 10
876.0063903950881
 20
2717.565156445527
 30
0.0
 11
999.6243830254421
 21
2717.565156445527
 31
0.0
  0
LINE
  5
275C
330
2758
100
AcDbEntity
  8
Dim
  6
Continuous
 62
     0
370
    -2
100
AcDbLine
 10
876.0063903950881
 20
1857.248454131818
 30
0.0
 11
999.6243830254421
 21
1857.248454131818
 31
0.0
  0
LINE
  5
275D
330
2758
100
AcDbEntity
  8
Dim
  6
Continuous
 62
     0
370
    -2
100
AcDbLine
 10
999.6243830254421
 20
2709.565156445527
 30
0.0
 11
999.6243830254421
 21
1865.248454131818
 31
0.0
  0
INSERT
  5
275E
330
2758
100
AcDbEntity
  8
Dim
 62
     0
370
    -2
100
AcDbBlockReference
  2
_DOT
 10
999.6243830254421
 20
2717.565156445527
 30
0.0
 41
8.0
 42
8.0
 43
8.0
 50
90.0
  0
INSERT
  5
275F
330
2758
100
AcDbEntity
  8
Dim
 62
     0
370
    -2
100
AcDbBlockReference
  2
_DOT
 10
999.6243830254421
 20
1857.248454131818
 30
0.0
 41
8.0
 42
8.0
 43
8.0
 50
270.0
  0
MTEXT
  5
2760
330
2758
100
AcDbEntity
  8
Dim
  6
Continuous
 62
     0
100
AcDbMText
 10
967.6243830254421
 20
2287.406805288672
 30
0.0
 40
24.0
 41
0.0
 46
0.0
 71
     5
 72
     1
  1
\A1;860
  7
ＭＳ ゴシック
 11
0.0
 21
1.0
 31
0.0
 73
     1
 44
1.0
  0
POINT
  5
2761
330
2758
100
AcDbEntity
  8
Defpoints
 62
     0
100
AcDbPoint
 10
846.0063903950881
 20
2717.565156445527
 30
0.0
  0
POINT
  5
2762
330
2758
100
AcDbEntity
  8
Defpoints
 62
     0
100
AcDbPoint
 10
846.0063903950881
 20
1857.248454131818
 30
0.0
  0
POINT
  5
2763
330
2758
100
AcDbEntity
  8
Defpoints
 62
     0
100
AcDbPoint
 10
999.6243830254421
 20
1857.248454131818
 30
0.0
  0
ENDBLK
  5
275A
330
2758
100
AcDbEntity
  8
0
100
AcDbBlockEnd
  0
ENDSEC
  0
SECTION
  2
ENTITIES
  0
MTEXT
  5
177
330
A
100
AcDbEntity
  8
template
390
1D
100
AcDbMText
 10
82.00000000048226
 20
348.023957835319
 30
0.0
 40
16.28841145833333
 41
0.0
 46
0.0
 71
     1
 72
     1
  1
品名
  7
ＭＳ ゴシック
 73
     1
 44
0.7828267384257843
  0
MTEXT
  5
178
330
A
100
AcDbEntity
  8
template
390
1D
100
AcDbMText
 10
82.00000000048226
 20
263.0239578353188
 30
0.0
 40
16.28841145833333
 41
0.0
 46
0.0
 71
     1
 72
     1
  1
仕様
  7
ＭＳ ゴシック
 73
     1
 44
0.7828267384257843
  0
LINE
  5
179
330
A
100
AcDbEntity
  8
template
390
1D
100
AcDbLine
 10
2025.0
 20
271.4388797103189
 30
0.0
 11
75.00000000000023
 21
271.4388797103189
 31
0.0
  0
LWPOLYLINE
  5
17A
330
A
100
AcDbEntity
  8
template
390
1D
100
AcDbPolyline
 90
        5
 70
   128
 43
0.0
 10
2025.0
 20
2901.438879710319
 10
75.00000000000023
 20
2901.438879710319
 10
75.00000000000023
 20
101.4388797103188
 10
2025.0
 20
101.4388797103188
 10
2025.0
 20
2901.438879710319
  0
LINE
  5
17B
330
A
100
AcDbEntity
  8
template
390
1D
100
AcDbLine
 10
2025.0
 20
356.4388797103188
 30
0.0
 11
75.00000000000023
 21
356.4388797103188
 31
0.0
  0
LINE
  5
17C
330
A
100
AcDbEntity
  8
template
390
1D
100
AcDbLine
 10
2025.000000000482
 20
186.4388797103189
 30
0.0
 11
1272.000000000482
 21
186.4388797103189
 31
0.0
  0
MTEXT
  5
17E
330
A
100
AcDbEntity
  8
template
390
1D
100
AcDbMText
 10
1301.871406252743
 20
156.5284852370108
 30
0.0
 40
24.4326171875
 41
0.0
 46
0.0
 71
     1
 72
     1
  1
大洋金物株式会社 ティーフォルム事業部
  7
ＭＳ ゴシック
 73
     1
 44
0.7828267384257843
  0
MTEXT
  5
180
330
A
100
AcDbEntity
  8
template
390
1D
100
AcDbMText
 10
1834.000000000742
 20
234.4414968978188
 30
0.0
 40
24.4326171875
 41
0.0
 46
0.0
 71
     1
 72
     1
  1
1:10
  7
ＭＳ ゴシック
 73
     1
 44
0.7828267384257843
  0
MTEXT
  5
181
330
A
100
AcDbEntity
  8
template
390
1D
100
AcDbMText
 10
1781.000000000742
 20
263.0239578353188
 30
0.0
 40
16.28841145833333
 41
0.0
 46
0.0
 71
     1
 72
     1
  1
縮尺
  7
ＭＳ ゴシック
 73
     1
 44
0.7828267384257843
  0
LINE
  5
182
330
A
100
AcDbEntity
  8
template
390
1D
100
AcDbLine
 10
1774.000000000742
 20
186.4388797103189
 30
0.0
 11
1774.000000000742
 21
271.4388797103189
 31
0.0
  0
MTEXT
  5
183
330
A
100
AcDbEntity
  8
template
390
1D
100
AcDbMText
 10
1530.000000000742
 20
263.0239578353188
 30
0.0
 40
16.28841145833333
 41
0.0
 46
0.0
 71
     1
 72
     1
  1
容量
  7
ＭＳ ゴシック
 73
     1
 44
0.7828267384257843
  0
LINE
  5
184
330
A
100
AcDbEntity
  8
template
390
1D
100
AcDbLine
 10
1523.000000000742
 20
186.4388797103189
 30
0.0
 11
1523.000000000742
 21
271.4388797103189
 31
0.0
  0
MTEXT
  5
185
330
A
100
AcDbEntity
  8
template
390
1D
100
AcDbMText
 10
1279.000000000742
 20
348.023957835319
 30
0.0
 40
16.28841145833333
 41
0.0
 46
0.0
 71
     1
 72
     1
  1
品番
  7
ＭＳ ゴシック
 73
     1
 44
0.7828267384257843
  0
MTEXT
  5
186
330
A
100
AcDbEntity
  8
template
390
1D
100
AcDbMText
 10
1279.000000000742
 20
263.0239578353188
 30
0.0
 40
16.28841145833333
 41
0.0
 46
0.0
 71
     1
 72
     1
  1
重量
  7
ＭＳ ゴシック
 73
     1
 44
0.7828267384257843
  0
MTEXT
  5
187
330
A
100
AcDbEntity
  8
template
390
1D
100
AcDbMText
 10
1332.000000000742
 20
319.4414968978188
 30
0.0
 40
24.4326171875
 41
0.0
 46
24.4326171875
 71
     1
 72
     1
  1
{FLN70-6906}
  7
ＭＳ ゴシック
 73
     1
 44
0.7828267384257843
1001
ACAD
1000
ACAD_MTEXT_DEFINED_HEIGHT_BEGIN
1070
    46
1040
24.4326171875
1000
ACAD_MTEXT_DEFINED_HEIGHT_END
  0
LINE
  5
188
330
A
100
AcDbEntity
  8
template
390
1D
100
AcDbLine
 10
1272.000000000742
 20
101.4388797103188
 30
0.0
 11
1272.000000000742
 21
356.4388797103188
 31
0.0
  0
MTEXT
  5
189
330
A
100
AcDbEntity
  8
template
390
1D
100
AcDbMText
 10
135.0000000004822
 20
319.4414968978188
 30
0.0
 40
24.4326171875
 41
0.0
 46
27.5355595703125
 71
     1
 72
     1
  1
{洗面器 -KALDEWEI, Silenio-}
  7
ＭＳ ゴシック
 73
     1
 44
0.7828267384257843
1001
ACAD
1000
ACAD_MTEXT_DEFINED_HEIGHT_BEGIN
1070
    46
1040
27.5355595703125
1000
ACAD_MTEXT_DEFINED_HEIGHT_END
  0
MTEXT
  5
18A
330
A
100
AcDbEntity
  8
template
390
1D
100
AcDbMText
 10
135.0000000004822
 20
234.4414968978188
 30
0.0
 40
24.4326171875
 41
0.0
 46
111.236517578125
 71
     1
 72
     1
  1
{オーバーカウンター/オーバーフロー付/型紙、オーバーフロー部品、\P水栓取付用スペーサー付属/\Pホーロー/ホワイト}
  7
ＭＳ ゴシック
 73
     1
 44
0.9822934569727008
1001
ACAD
1000
ACAD_MTEXT_DEFINED_HEIGHT_BEGIN
1070
    46
1040
111.236517578125
1000
ACAD_MTEXT_DEFINED_HEIGHT_END
  0
MTEXT
  5
1A6
330
A
100
AcDbEntity
  8
template
390
1D
100
AcDbMText
 10
1332.000000000742
 20
234.4414968978188
 30
0.0
 40
24.4326171875
 41
0.0
 46
28.390701171875
 71
     1
 72
     1
  1
{10.7kg}
  7
ＭＳ ゴシック
 73
     1
 44
0.7828267384257843
1001
ACAD
1000
ACAD_MTEXT_DEFINED_HEIGHT_BEGIN
1070
    46
1040
28.390701171875
1000
ACAD_MTEXT_DEFINED_HEIGHT_END
  0
MTEXT
  5
374
330
A
100
AcDbEntity
  8
template
390
1D
100
AcDbMText
 10
1581.992122669024
 20
234.4414968978188
 30
0.0
 40
24.4326171875
 41
0.0
 46
24.4326171875
 71
     1
 72
     1
  1
{7L}
  7
ＭＳ ゴシック
 73
     1
 44
0.7828267384257843
1001
ACAD
1000
ACAD_MTEXT_DEFINED_HEIGHT_BEGIN
1070
    46
1040
24.4326171875
1000
ACAD_MTEXT_DEFINED_HEIGHT_END
  0
INSERT
  5
3D0
330
A
100
AcDbEntity
  8
template
100
AcDbBlockReference
  2
名称未設定-1
 10
1873.559250554905
 20
30.23897196054438
 30
0.0
 41
0.7619999999999999
 42
0.7619999999999999
 43
0.7619999999999999
  0
MTEXT
  5
BDB
102
{ACAD_XDICTIONARY
360
BDC
102
}
330
A
100
AcDbEntity
  8
template
  6
Continuous
100
AcDbMText
 10
78.95663872901252
 20
86.10730750352229
 30
0.0
 40
23.0
 41
0.0
 46
23.0
 71
     1
 72
     1
  1
{20180111N}
  7
ＭＳ ゴシック
 73
     1
 44
1.0
1001
ACAD
1000
ACAD_MTEXT_DEFINED_HEIGHT_BEGIN
1070
    46
1040
23.0
1000
ACAD_MTEXT_DEFINED_HEIGHT_END
  0
LWPOLYLINE
  5
BEE
330
A
100
AcDbEntity
  8
PRINT BORDER
100
AcDbPolyline
 90
        4
 70
     1
 43
0.0
 10
0.0
 20
0.0
 10
0.0
 20
2970.0
 10
2100.0
 20
2970.0
 10
2100.0
 20
0.0
  0
INSERT
  5
1273
330
A
100
AcDbEntity
  8
0
 62
     7
100
AcDbBlockReference
  2
BLOCK_2
 10
591.2037060744204
 20
943.564364962162
 30
0.0
  0
INSERT
  5
127B
330
A
100
AcDbEntity
  8
0
 62
     7
100
AcDbBlockReference
  2
BLOCK_2
 10
1291.863324028138
 20
1038.76992320659
 30
0.0
  0
INSERT
  5
127C
330
A
100
AcDbEntity
  8
0
 62
     7
100
AcDbBlockReference
  2
BLOCK_2
 10
652.1648429406905
 20
1595.641631888467
 30
0.0
  0
CIRCLE
  5
142C
330
A
100
AcDbEntity
  8
Dim
  6
Continuous
100
AcDbCircle
 10
1366.841726484681
 20
1758.85027442579
 30
0.0
 40
0.0
  0
SPLINE
  5
1CBA
330
A
100
AcDbEntity
  8
MODEL
100
AcDbSpline
210
0.0
220
0.0
230
1.0
 70
     8
 71
     3
 72
     8
 73
     4
 74
     0
 42
0.000000001
 43
0.0000000001
 40
0.0
 40
0.0
 40
0.0
 40
0.0
 40
1.0
 40
1.0
 40
1.0
 40
1.0
 10
873.0001606858341
 20
588.827485564269
 30
0.0
 10
874.657575197361
 20
588.827485564269
 30
0.0
 10
876.0001155532536
 20
590.1700259201621
 30
0.0
 10
876.0001155532536
 20
591.8274404316899
 30
0.0
  0
SPLINE
  5
1CBB
330
A
100
AcDbEntity
  8
MODEL
100
AcDbSpline
210
0.0
220
0.0
230
1.0
 70
     8
 71
     3
 72
     8
 73
     4
 74
     0
 42
0.000000001
 43
0.0000000001
 40
0.0
 40
0.0
 40
0.0
 40
0.0
 40
1.0
 40
1.0
 40
1.0
 40
1.0
 10
415.9966554154134
 20
591.8274404316899
 30
0.0
 10
415.9966554154134
 20
590.1700259201621
 30
0.0
 10
417.3391957713065
 20
588.827485564269
 30
0.0
 10
418.9983403606125
 20
588.827485564269
 30
0.0
  0
LINE
  5
1CBD
102
{ACAD_REACTORS
330
1F5F
102
}
330
A
100
AcDbEntity
  8
MODEL
100
AcDbLine
 10
418.9966102828348
 20
588.827485564269
 30
0.0
 11
873.0001606858341
 21
588.827485564269
 31
0.0
  0
LINE
  5
1CBE
330
A
100
AcDbEntity
  8
MODEL
100
AcDbLine
 10
536.8460483791218
 20
1038.827485564269
 30
0.0
 11
536.9290921124757
 21
1040.941640609245
 31
0.0
  0
LINE
  5
1CBF
330
A
100
AcDbEntity
  8
MODEL
100
AcDbLine
 10
537.4204342014887
 20
1044.654387521289
 30
0.0
 11
537.7837505349125
 21
1046.332562966155
 31
0.0
  0
LINE
  5
1CC0
330
A
100
AcDbEntity
  8
MODEL
100
AcDbLine
 10
537.7837505349125
 20
1046.332562966155
 30
0.0
 11
538.4930824239805
 21
1048.502080500034
 31
0.0
  0
LINE
  5
1CC1
330
A
100
AcDbEntity
  8
MODEL
100
AcDbLine
 10
538.4930824239805
 20
1048.502080500034
 30
0.0
 11
539.3823424019815
 21
1050.398245744955
 31
0.0
  0
LINE
  5
1CC2
330
A
100
AcDbEntity
  8
MODEL
100
AcDbLine
 10
539.3823424019815
 20
1050.398245744955
 30
0.0
 11
540.4238492244658
 21
1051.962236056459
 31
0.0
  0
LINE
  5
1CC3
330
A
100
AcDbEntity
  8
MODEL
100
AcDbLine
 10
540.4238492244658
 20
1051.962236056459
 30
0.0
 11
541.5968419580936
 21
1053.155989723426
 31
0.0
  0
LINE
  5
1CC4
330
A
100
AcDbEntity
  8
MODEL
100
AcDbLine
 10
541.5968419580936
 20
1053.155989723426
 30
0.0
 11
542.8736393584145
 21
1053.948365345847
 31
0.0
  0
LINE
  5
1CC5
330
A
100
AcDbEntity
  8
MODEL
100
AcDbLine
 10
542.8736393584145
 20
1053.948365345847
 30
0.0
 11
544.2161797143076
 21
1054.301301212603
 31
0.0
  0
LINE
  5
1CC6
330
A
100
AcDbEntity
  8
MODEL
100
AcDbLine
 10
544.2161797143076
 20
1054.301301212603
 30
0.0
 11
545.5864013146515
 21
1054.225177790361
 31
0.0
  0
LINE
  5
1CC7
330
A
100
AcDbEntity
  8
MODEL
100
AcDbLine
 10
545.5864013146515
 20
1054.225177790361
 30
0.0
 11
546.9497026038825
 21
1053.702694301341
 31
0.0
  0
LINE
  5
1CC8
330
A
100
AcDbEntity
  8
MODEL
100
AcDbLine
 10
546.9497026038825
 20
1053.702694301341
 30
0.0
 11
548.2611015597686
 21
1052.768452301106
 31
0.0
  0
LINE
  5
1CC9
330
A
100
AcDbEntity
  8
MODEL
100
AcDbLine
 10
548.2611015597686
 20
1052.768452301106
 30
0.0
 11
549.4825364711864
 21
1051.432832256326
 31
0.0
  0
LINE
  5
1CCA
330
A
100
AcDbEntity
  8
MODEL
100
AcDbLine
 10
549.4825364711864
 20
1051.432832256326
 30
0.0
 11
550.5759456270175
 21
1049.740816189234
 31
0.0
  0
LINE
  5
1CCB
330
A
100
AcDbEntity
  8
MODEL
100
AcDbLine
 10
550.5759456270175
 20
1049.740816189234
 30
0.0
 11
551.5067274716957
 21
1047.737386122064
 31
0.0
  0
LINE
  5
1CCC
330
A
100
AcDbEntity
  8
MODEL
100
AcDbLine
 10
551.5067274716957
 20
1047.737386122064
 30
0.0
 11
552.2402804496578
 21
1045.481364699275
 31
0.0
  0
LINE
  5
1CCD
330
A
100
AcDbEntity
  8
MODEL
100
AcDbLine
 10
552.2402804496578
 20
1045.481364699275
 30
0.0
 11
552.7558436275658
 21
1043.038494876439
 31
0.0
  0
LINE
  5
1CCE
330
A
100
AcDbEntity
  8
MODEL
100
AcDbLine
 10
552.7558436275658
 20
1043.038494876439
 30
0.0
 11
552.7835248720166
 21
1042.803204298601
 31
0.0
  0
LINE
  5
1CCF
330
A
100
AcDbEntity
  8
MODEL
100
AcDbLine
 10
552.9842138942886
 20
1040.938180453688
 30
0.0
 11
553.0326560720787
 21
1040.471059453571
 31
0.0
  0
LINE
  5
1CD0
330
A
100
AcDbEntity
  8
MODEL
100
AcDbLine
 10
553.0326560720787
 20
1040.471059453571
 30
0.0
 11
553.0810982498697
 21
1038.827485564269
 31
0.0
  0
LINE
  5
1CD1
330
A
100
AcDbEntity
  8
MODEL
100
AcDbLine
 10
536.8460483791218
 20
1038.827485564269
 30
0.0
 11
536.9290921124757
 21
1036.709870363737
 31
0.0
  0
LINE
  5
1CD2
330
A
100
AcDbEntity
  8
MODEL
100
AcDbLine
 10
537.4204342014887
 20
1032.997123451692
 30
0.0
 11
537.7837505349125
 21
1031.318948006826
 31
0.0
  0
LINE
  5
1CD3
330
A
100
AcDbEntity
  8
MODEL
100
AcDbLine
 10
537.7837505349125
 20
1031.318948006826
 30
0.0
 11
538.4930824239805
 21
1029.149430472948
 31
0.0
  0
LINE
  5
1CD4
330
A
100
AcDbEntity
  8
MODEL
100
AcDbLine
 10
538.4930824239805
 20
1029.149430472948
 30
0.0
 11
539.3823424019815
 21
1027.253265228027
 31
0.0
  0
LINE
  5
1CD5
330
A
100
AcDbEntity
  8
MODEL
100
AcDbLine
 10
539.3823424019815
 20
1027.253265228027
 30
0.0
 11
540.4238492244658
 21
1025.689274916522
 31
0.0
  0
LINE
  5
1CD6
330
A
100
AcDbEntity
  8
MODEL
100
AcDbLine
 10
540.4238492244658
 20
1025.689274916522
 30
0.0
 11
541.5968419580936
 21
1024.495521249556
 31
0.0
  0
LINE
  5
1CD7
330
A
100
AcDbEntity
  8
MODEL
100
AcDbLine
 10
541.5968419580936
 20
1024.495521249556
 30
0.0
 11
542.8736393584145
 21
1023.703145627134
 31
0.0
  0
LINE
  5
1CD8
330
A
100
AcDbEntity
  8
MODEL
100
AcDbLine
 10
542.8736393584145
 20
1023.703145627134
 30
0.0
 11
544.2161797143076
 21
1023.350209760379
 31
0.0
  0
LINE
  5
1CD9
330
A
100
AcDbEntity
  8
MODEL
100
AcDbLine
 10
544.2161797143076
 20
1023.350209760379
 30
0.0
 11
545.5864013146515
 21
1023.42633318262
 31
0.0
  0
LINE
  5
1CDA
330
A
100
AcDbEntity
  8
MODEL
100
AcDbLine
 10
545.5864013146515
 20
1023.42633318262
 30
0.0
 11
546.9497026038825
 21
1023.948816671641
 31
0.0
  0
LINE
  5
1CDB
330
A
100
AcDbEntity
  8
MODEL
100
AcDbLine
 10
546.9497026038825
 20
1023.948816671641
 30
0.0
 11
548.2611015597686
 21
1024.883058671875
 31
0.0
  0
LINE
  5
1CDC
330
A
100
AcDbEntity
  8
MODEL
100
AcDbLine
 10
548.2611015597686
 20
1024.883058671875
 30
0.0
 11
549.4825364711864
 21
1026.218678716655
 31
0.0
  0
LINE
  5
1CDD
330
A
100
AcDbEntity
  8
MODEL
100
AcDbLine
 10
549.4825364711864
 20
1026.218678716655
 30
0.0
 11
550.5759456270175
 21
1027.910694783747
 31
0.0
  0
LINE
  5
1CDE
330
A
100
AcDbEntity
  8
MODEL
100
AcDbLine
 10
550.5759456270175
 20
1027.910694783747
 30
0.0
 11
551.5067274716957
 21
1029.914124850918
 31
0.0
  0
LINE
  5
1CDF
330
A
100
AcDbEntity
  8
MODEL
100
AcDbLine
 10
551.5067274716957
 20
1029.914124850918
 30
0.0
 11
552.2402804496578
 21
1032.170146273707
 31
0.0
  0
LINE
  5
1CE0
330
A
100
AcDbEntity
  8
MODEL
100
AcDbLine
 10
552.2402804496578
 20
1032.170146273707
 30
0.0
 11
552.7558436275658
 21
1034.613016096543
 31
0.0
  0
LINE
  5
1CE1
330
A
100
AcDbEntity
  8
MODEL
100
AcDbLine
 10
552.7558436275658
 20
1034.613016096543
 30
0.0
 11
552.7835248720166
 21
1034.84830667438
 31
0.0
  0
LINE
  5
1CE2
330
A
100
AcDbEntity
  8
MODEL
100
AcDbLine
 10
552.9842138942886
 20
1036.713330519293
 30
0.0
 11
553.0326560720787
 21
1037.18045151941
 31
0.0
  0
LINE
  5
1CE3
330
A
100
AcDbEntity
  8
MODEL
100
AcDbLine
 10
553.0326560720787
 20
1037.18045151941
 30
0.0
 11
553.0810982498697
 21
1038.824025408713
 31
0.0
  0
LINE
  5
1CE4
330
A
100
AcDbEntity
  8
MODEL
100
AcDbLine
 10
415.9966554154134
 20
1038.827485564269
 30
0.0
 11
415.9966554154134
 21
591.8274404316899
 31
0.0
  0
LINE
  5
1CE5
330
A
100
AcDbEntity
  8
MODEL
100
AcDbLine
 10
875.9966553976979
 20
591.8274404316899
 30
0.0
 11
875.9966553976979
 21
1038.827485564269
 31
0.0
  0
SPLINE
  5
1CE6
330
A
100
AcDbEntity
  8
MODEL
100
AcDbSpline
210
0.0
220
0.0
230
1.0
 70
    11
 71
     3
 72
    17
 73
    13
 74
     0
 42
0.000000001
 43
0.0000000001
 40
0.0
 40
0.0
 40
0.0
 40
0.0
 40
1.0
 40
1.0
 40
1.0
 40
2.0
 40
2.0
 40
2.0
 40
3.0
 40
3.0
 40
3.0
 40
4.0
 40
4.0
 40
4.0
 40
4.0
 10
475.4957602859245
 20
1021.32601875987
 30
0.0
 10
465.8315458168286
 20
1021.32601875987
 30
0.0
 10
457.9977536370816
 20
1029.159810939617
 30
0.0
 10
457.9977536370816
 20
1038.827485564269
 30
0.0
 10
457.9977536370816
 20
1048.491700033365
 30
0.0
 10
465.8315458168286
 20
1056.325492213111
 30
0.0
 10
475.4957602859245
 20
1056.325492213111
 30
0.0
 10
485.1634349105766
 20
1056.325492213111
 30
0.0
 10
492.9989571681017
 20
1048.491700033365
 30
0.0
 10
492.9989571681017
 20
1038.827485564269
 30
0.0
 10
492.9989571681017
 20
1029.159810939617
 30
0.0
 10
485.1634349105766
 20
1021.32601875987
 30
0.0
 10
475.4957602859245
 20
1021.32601875987
 30
0.0
  0
SPLINE
  5
1CE9
330
A
100
AcDbEntity
  8
MODEL
100
AcDbSpline
210
0.0
220
0.0
230
1.0
 70
     8
 71
     3
 72
    11
 73
     7
 74
     0
 42
0.000000001
 43
0.0000000001
 40
0.0
 40
0.0
 40
0.0
 40
0.0
 40
1.0
 40
1.0
 40
1.0
 40
2.0
 40
2.0
 40
2.0
 40
2.0
 10
700.4491233980207
 20
1018.640938048084
 30
0.0
 10
711.5977446008228
 20
1024.730811827393
 30
0.0
 10
715.6945687796297
 20
1038.706380119794
 30
0.0
 10
709.611615311434
 20
1049.855001322596
 30
0.0
 10
703.5182813765687
 20
1061.000162369842
 30
0.0
 10
689.5427130841681
 20
1065.100446704206
 30
0.0
 10
678.3975520369222
 20
1059.010572924898
 30
0.0
  0
SPLINE
  5
1CEA
330
A
100
AcDbEntity
  8
MODEL
100
AcDbSpline
210
0.0
220
0.0
230
1.0
 70
     8
 71
     3
 72
    11
 73
     7
 74
     0
 42
0.000000001
 43
0.0000000001
 40
0.0
 40
0.0
 40
0.0
 40
0.0
 40
1.0
 40
1.0
 40
1.0
 40
2.0
 40
2.0
 40
2.0
 40
2.0
 10
678.3975520369222
 20
1059.010572924898
 30
0.0
 10
667.2523909896759
 20
1052.920699145589
 30
0.0
 10
663.1486464997561
 20
1038.945130853187
 30
0.0
 10
669.2385202790647
 20
1027.799969805942
 30
0.0
 10
675.3283940583729
 20
1016.651348603139
 30
0.0
 10
689.3005021952176
 20
1012.551064268776
 30
0.0
 10
700.4491233980207
 20
1018.64439820364
 30
0.0
  0
LINE
  5
1CF4
330
A
100
AcDbEntity
  8
MODEL
100
AcDbLine
 10
531.9949102890137
 20
888.8298926174498
 30
0.0
 11
531.9949102890137
 21
839.3289072272305
 31
0.0
  0
LINE
  5
1CF5
330
A
100
AcDbEntity
  8
MODEL
100
AcDbLine
 10
531.9949102890137
 20
1038.827485564269
 30
0.0
 11
531.9949102890137
 21
789.8279218370108
 31
0.0
  0
LINE
  5
1CF6
330
A
100
AcDbEntity
  8
MODEL
100
AcDbLine
 10
531.9949102890137
 20
789.8279218370108
 30
0.0
 11
531.9949102890137
 21
740.3269364467919
 31
0.0
  0
LINE
  5
1CF7
330
A
100
AcDbEntity
  8
MODEL
100
AcDbLine
 10
531.9949102890137
 20
740.3269364467919
 30
0.0
 11
531.9949102890137
 21
710.6249611504377
 31
0.0
  0
LINE
  5
1CF8
330
A
100
AcDbEntity
  8
MODEL
100
AcDbLine
 10
531.9949102890137
 20
710.6249611504377
 30
0.0
 11
531.9949102890137
 21
680.9264460096397
 31
0.0
  0
LINE
  5
1CF9
330
A
100
AcDbEntity
  8
MODEL
100
AcDbLine
 10
531.9949102890137
 20
680.9264460096397
 30
0.0
 11
531.9949102890137
 21
651.2279308688421
 31
0.0
  0
LINE
  5
1CFA
330
A
100
AcDbEntity
  8
MODEL
100
AcDbLine
 10
531.9949102890137
 20
651.2279308688421
 30
0.0
 11
531.9949102890137
 21
621.5259555724879
 31
0.0
  0
LINE
  5
1CFB
330
A
100
AcDbEntity
  8
MODEL
100
AcDbLine
 10
531.9949102890137
 20
621.5259555724879
 30
0.0
 11
531.9949102890137
 21
591.8274404316899
 31
0.0
  0
LINE
  5
1CFC
330
A
100
AcDbEntity
  8
MODEL
100
AcDbLine
 10
531.9949102890137
 20
591.8274404316899
 30
0.0
 11
520.4933532194555
 21
591.8274404316899
 31
0.0
  0
LINE
  5
1CFD
330
A
100
AcDbEntity
  8
MODEL
100
AcDbLine
 10
520.4968133750117
 20
591.8274404316899
 30
0.0
 11
520.4968133750117
 21
1038.827485564269
 31
0.0
  0
LINE
  5
1D01
330
A
100
AcDbEntity
  8
MODEL
100
AcDbLine
 10
531.9949102890137
 20
591.8274404316899
 30
0.0
 11
689.4250677952487
 21
591.8274404316899
 31
0.0
  0
LINE
  5
1D02
330
A
100
AcDbEntity
  8
MODEL
100
AcDbLine
 10
689.4250677952487
 20
591.8274404316899
 30
0.0
 11
872.9967005302778
 21
591.8274404316899
 31
0.0
  0
LINE
  5
1D03
330
A
100
AcDbEntity
  8
MODEL
100
AcDbLine
 10
520.4968133750117
 20
591.8274404316899
 30
0.0
 11
418.9983403606125
 21
591.8274404316899
 31
0.0
  0
SPLINE
  5
1D04
330
A
100
AcDbEntity
  8
MODEL
100
AcDbSpline
210
0.0
220
0.0
230
1.0
 70
     8
 71
     3
 72
    11
 73
     7
 74
     0
 42
0.000000001
 43
0.0000000001
 40
0.0
 40
0.0
 40
0.0
 40
0.0
 40
1.0
 40
1.0
 40
1.0
 40
2.0
 40
2.0
 40
2.0
 40
2.0
 10
725.365703559838
 20
1038.827485564269
 30
0.0
 10
725.4383668265236
 20
1058.706079235932
 30
0.0
 10
709.3763247335969
 20
1074.882306462219
 30
0.0
 10
689.4977310619338
 20
1074.951509573348
 30
0.0
 10
689.4977310619338
 20
1074.951509573348
 30
0.0
 10
689.4250677952487
 20
1074.951509573348
 30
0.0
 10
689.4250677952487
 20
1074.951509573348
 30
0.0
  0
LINE
  5
1D05
330
A
100
AcDbEntity
  8
MODEL
100
AcDbLine
 10
873.0001606858341
 20
1038.827485564269
 30
0.0
 11
873.0001606858341
 21
1038.824025408713
 31
0.0
  0
SPLINE
  5
1D06
330
A
100
AcDbEntity
  8
MODEL
100
AcDbSpline
210
0.0
220
0.0
230
1.0
 70
     8
 71
     3
 72
     8
 73
     4
 74
     0
 42
0.000000001
 43
0.0000000001
 40
0.0
 40
0.0
 40
0.0
 40
0.0
 40
1.0
 40
1.0
 40
1.0
 40
1.0
 10
689.4250677952487
 20
1074.951509573348
 30
0.0
 10
683.383636193731
 20
1074.948049417792
 30
0.0
 10
677.4390889477927
 20
1073.432501284077
 30
0.0
 10
672.1381306353487
 20
1070.53635108335
 30
0.0
  0
SPLINE
  5
1D07
330
A
100
AcDbEntity
  8
MODEL
100
AcDbSpline
210
0.0
220
0.0
230
1.0
 70
     8
 71
     3
 72
     8
 73
     4
 74
     0
 42
0.000000001
 43
0.0000000001
 40
0.0
 40
0.0
 40
0.0
 40
0.0
 40
1.0
 40
1.0
 40
1.0
 40
1.0
 10
672.1381306353487
 20
1070.53635108335
 30
0.0
 10
660.536229054655
 20
1064.211186726204
 30
0.0
 10
653.3218047195087
 20
1052.041819634257
 30
0.0
 10
653.3356453417337
 20
1038.827485564269
 30
0.0
  0
LINE
  5
1D08
330
A
100
AcDbEntity
  8
MODEL
100
AcDbLine
 10
873.0001606858341
 20
591.8274404316899
 30
0.0
 11
873.0001606858341
 21
1038.827485564269
 31
0.0
  0
SPLINE
  5
1D09
330
A
100
AcDbEntity
  8
MODEL
100
AcDbSpline
210
0.0
220
0.0
230
1.0
 70
     8
 71
     3
 72
     8
 73
     4
 74
     0
 42
0.000000001
 43
0.0000000001
 40
0.0
 40
0.0
 40
0.0
 40
0.0
 40
1.0
 40
1.0
 40
1.0
 40
1.0
 10
689.4250677952487
 20
1002.700001399633
 30
0.0
 10
695.4734197078797
 20
1002.700001399633
 30
0.0
 10
701.421427109376
 20
1004.236310466686
 30
0.0
 10
706.7189252662629
 20
1007.149761445196
 30
0.0
  0
SPLINE
  5
1D0A
330
A
100
AcDbEntity
  8
MODEL
100
AcDbSpline
210
0.0
220
0.0
230
1.0
 70
     8
 71
     3
 72
     8
 73
     4
 74
     0
 42
0.000000001
 43
0.0000000001
 40
0.0
 40
0.0
 40
0.0
 40
0.0
 40
1.0
 40
1.0
 40
1.0
 40
1.0
 10
706.7189252662629
 20
1007.153221600752
 30
0.0
 10
718.2481635802706
 20
1013.516447669018
 30
0.0
 10
725.396844959846
 20
1025.654673360958
 30
0.0
 10
725.365703559838
 20
1038.824025408713
 30
0.0
  0
SPLINE
  5
1D0B
330
A
100
AcDbEntity
  8
MODEL
100
AcDbSpline
210
0.0
220
0.0
230
1.0
 70
     8
 71
     3
 72
    11
 73
     7
 74
     0
 42
0.000000001
 43
0.0000000001
 40
0.0
 40
0.0
 40
0.0
 40
0.0
 40
1.0
 40
1.0
 40
1.0
 40
2.0
 40
2.0
 40
2.0
 40
2.0
 10
653.3356453417337
 20
1038.827485564269
 30
0.0
 10
653.318344563952
 20
1018.893529403703
 30
0.0
 10
669.4668905457879
 20
1002.717302177415
 30
0.0
 10
689.3973865507978
 20
1002.700001399633
 30
0.0
 10
689.3973865507978
 20
1002.700001399633
 30
0.0
 10
689.4250677952487
 20
1002.700001399633
 30
0.0
 10
689.4250677952487
 20
1002.700001399633
 30
0.0
  0
LINE
  5
1D0C
330
A
100
AcDbEntity
  8
MODEL
100
AcDbLine
 10
418.9966102828348
 20
1038.827485564269
 30
0.0
 11
418.9966102828348
 21
591.8274404316899
 31
0.0
  0
SPLINE
  5
1D8D
330
A
100
AcDbEntity
  8
MODEL
100
AcDbSpline
210
0.0
220
0.0
230
1.0
 70
     8
 71
     3
 72
     8
 73
     4
 74
     0
 42
0.000000001
 43
0.0000000001
 40
0.0
 40
0.0
 40
0.0
 40
0.0
 40
1.0
 40
1.0
 40
1.0
 40
1.0
 10
1659.207138393127
 20
2462.680595545864
 30
0.0
 10
1660.845522049095
 20
2462.670215079196
 30
0.0
 10
1662.181142093875
 20
2461.362276278867
 30
0.0
 10
1662.219203804995
 20
2459.722162545122
 30
0.0
  0
SPLINE
  5
1D8E
330
A
100
AcDbEntity
  8
MODEL
100
AcDbSpline
210
0.0
220
0.0
230
1.0
 70
     8
 71
     3
 72
     8
 73
     4
 74
     0
 42
0.000000001
 43
0.0000000001
 40
0.0
 40
0.0
 40
0.0
 40
0.0
 40
1.0
 40
1.0
 40
1.0
 40
1.0
 10
1662.220933882773
 20
2003.73594300829
 30
0.0
 10
1662.181142093875
 20
2002.0992894301
 30
0.0
 10
1660.845522049095
 20
2000.791350629772
 30
0.0
 10
1659.208868470905
 20
2000.777510007546
 30
0.0
  0
SPLINE
  5
1D8F
330
A
100
AcDbEntity
  8
MODEL
100
AcDbSpline
210
0.0
220
0.0
230
1.0
 70
     8
 71
     3
 72
     8
 73
     4
 74
     0
 42
0.000000001
 43
0.0000000001
 40
0.0
 40
0.0
 40
0.0
 40
0.0
 40
1.0
 40
1.0
 40
1.0
 40
1.0
 10
1625.058863206767
 20
2000.780970163104
 30
0.0
 10
1623.422209628578
 20
2000.791350629772
 30
0.0
 10
1622.086589583797
 20
2002.0992894301
 30
0.0
 10
1622.046797794898
 20
2003.739403163846
 30
0.0
  0
SPLINE
  5
1D90
330
A
100
AcDbEntity
  8
MODEL
100
AcDbSpline
210
0.0
220
0.0
230
1.0
 70
     8
 71
     3
 72
     8
 73
     4
 74
     0
 42
0.000000001
 43
0.0000000001
 40
0.0
 40
0.0
 40
0.0
 40
0.0
 40
1.0
 40
1.0
 40
1.0
 40
1.0
 10
1622.046797794898
 20
2459.722162545122
 30
0.0
 10
1622.088319661576
 20
2461.358816123311
 30
0.0
 10
1623.4204795508
 20
2462.670215079196
 30
0.0
 10
1625.058863206767
 20
2462.680595545864
 30
0.0
  0
LINE
  5
1D91
330
A
100
AcDbEntity
  8
MODEL
100
AcDbLine
 10
1622.045067717121
 20
2351.893334940241
 30
0.0
 11
1622.027766939338
 21
2354.941731985452
 31
0.0
  0
LINE
  5
1D92
330
A
100
AcDbEntity
  8
MODEL
100
AcDbLine
 10
1622.027766939338
 20
2354.941731985452
 30
0.0
 11
1622.045067717121
 21
2357.77905954172
 31
0.0
  0
LINE
  5
1D93
330
A
100
AcDbEntity
  8
MODEL
100
AcDbLine
 10
1735.586612145658
 20
2221.891830529788
 30
0.0
 11
1743.126291103109
 21
2216.23793635059
 31
0.0
  0
LINE
  5
1D94
330
A
100
AcDbEntity
  8
MODEL
100
AcDbLine
 10
1743.128021180887
 20
2159.993107780897
 30
0.0
 11
1735.853044123503
 21
2154.536442468415
 31
0.0
  0
SPLINE
  5
1D95
330
A
100
AcDbEntity
  8
MODEL
100
AcDbSpline
210
0.0
220
0.0
230
1.0
 70
     8
 71
     3
 72
     8
 73
     4
 74
     0
 42
0.000000001
 43
0.0000000001
 40
0.0
 40
0.0
 40
0.0
 40
0.0
 40
1.0
 40
1.0
 40
1.0
 40
1.0
 10
1743.128021180887
 20
2216.23793635059
 30
0.0
 10
1744.413468970099
 20
2215.244871705896
 30
0.0
 10
1745.15740241473
 20
2213.70164232773
 30
0.0
 10
1745.136641481392
 20
2212.078829371766
 30
0.0
  0
SPLINE
  5
1D96
330
A
100
AcDbEntity
  8
MODEL
100
AcDbSpline
210
0.0
220
0.0
230
1.0
 70
     8
 71
     3
 72
     8
 73
     4
 74
     0
 42
0.000000001
 43
0.0000000001
 40
0.0
 40
0.0
 40
0.0
 40
0.0
 40
1.0
 40
1.0
 40
1.0
 40
1.0
 10
1745.136641481392
 20
2164.148754604164
 30
0.0
 10
1745.15740241473
 20
2162.525941648202
 30
0.0
 10
1744.413468970099
 20
2160.982712270036
 30
0.0
 10
1743.128021180887
 20
2159.993107780897
 30
0.0
  0
LINE
  5
1D97
102
{ACAD_REACTORS
330
205A
102
}
330
A
100
AcDbEntity
  8
MODEL
100
AcDbLine
 10
1659.207138393127
 20
2462.735958034767
 30
0.0
 11
1625.058863206767
 21
2462.735958034767
 31
0.0
  0
LINE
  5
1D98
330
A
100
AcDbEntity
  8
MODEL
100
AcDbLine
 10
1622.045067717121
 20
2346.229060294374
 30
0.0
 11
1622.045067717121
 21
2188.113791987965
 31
0.0
  0
LINE
  5
1D99
330
A
100
AcDbEntity
  8
MODEL
100
AcDbLine
 10
1622.045067717121
 20
2188.113791987965
 30
0.0
 11
1622.045067717121
 21
2003.73594300829
 31
0.0
  0
LINE
  5
1D9A
330
A
100
AcDbEntity
  8
MODEL
100
AcDbLine
 10
1622.045067717121
 20
2357.77905954172
 30
0.0
 11
1622.045067717121
 21
2459.722162545122
 31
0.0
  0
LINE
  5
1D9B
330
A
100
AcDbEntity
  8
MODEL
100
AcDbLine
 10
1622.045067717121
 20
2346.229060294374
 30
0.0
 11
1622.045067717121
 21
2357.77905954172
 31
0.0
  0
LINE
  5
1D9C
330
A
100
AcDbEntity
  8
MODEL
100
AcDbLine
 10
1662.220933882773
 20
2459.722162545122
 30
0.0
 11
1662.220933882773
 21
2003.73594300829
 31
0.0
  0
LINE
  5
1D9D
330
A
100
AcDbEntity
  8
MODEL
100
AcDbLine
 10
1625.058863206767
 20
2000.725607674201
 30
0.0
 11
1659.207138393127
 21
2000.725607674201
 31
0.0
  0
LINE
  5
1D9E
330
A
100
AcDbEntity
  8
MODEL
100
AcDbLine
 10
1662.220933882773
 20
2051.403045953606
 30
0.0
 11
1664.495986161123
 21
2052.963576109552
 31
0.0
  0
LINE
  5
1D9F
330
A
100
AcDbEntity
  8
MODEL
100
AcDbLine
 10
1664.495986161123
 20
2052.963576109552
 30
0.0
 11
1672.644652496505
 21
2058.766256977677
 31
0.0
  0
LINE
  5
1DA0
330
A
100
AcDbEntity
  8
MODEL
100
AcDbLine
 10
1672.644652496505
 20
2058.766256977677
 30
0.0
 11
1681.052830498618
 21
2065.150243979283
 31
0.0
  0
LINE
  5
1DA1
330
A
100
AcDbEntity
  8
MODEL
100
AcDbLine
 10
1681.052830498618
 20
2065.150243979283
 30
0.0
 11
1689.014648433952
 21
2071.73492000316
 31
0.0
  0
LINE
  5
1DA2
330
A
100
AcDbEntity
  8
MODEL
100
AcDbLine
 10
1689.014648433952
 20
2071.73492000316
 30
0.0
 11
1696.81902929147
 21
2078.911282627185
 31
0.0
  0
LINE
  5
1DA3
330
A
100
AcDbEntity
  8
MODEL
100
AcDbLine
 10
1696.81902929147
 20
2078.911282627185
 30
0.0
 11
1704.282584826678
 21
2086.713933406925
 31
0.0
  0
LINE
  5
1DA4
330
A
100
AcDbEntity
  8
MODEL
100
AcDbLine
 10
1704.282584826678
 20
2086.713933406925
 30
0.0
 11
1711.24095765065
 21
2095.232836386842
 31
0.0
  0
LINE
  5
1DA5
330
A
100
AcDbEntity
  8
MODEL
100
AcDbLine
 10
1711.24095765065
 20
2095.232836386842
 30
0.0
 11
1717.583422785578
 21
2104.65483996699
 31
0.0
  0
LINE
  5
1DA6
330
A
100
AcDbEntity
  8
MODEL
100
AcDbLine
 10
1717.583422785578
 20
2104.65483996699
 30
0.0
 11
1721.912077386665
 21
2112.499012613405
 31
0.0
  0
LINE
  5
1DA7
330
A
100
AcDbEntity
  8
MODEL
100
AcDbLine
 10
1721.912077386665
 20
2112.499012613405
 30
0.0
 11
1725.775341065414
 21
2121.049056993331
 31
0.0
  0
LINE
  5
1DA8
330
A
100
AcDbEntity
  8
MODEL
100
AcDbLine
 10
1725.775341065414
 20
2121.049056993331
 30
0.0
 11
1729.133422032924
 21
2130.374176217897
 31
0.0
  0
LINE
  5
1DA9
330
A
100
AcDbEntity
  8
MODEL
100
AcDbLine
 10
1729.133422032924
 20
2130.374176217897
 30
0.0
 11
1731.939608189185
 21
2140.560874176013
 31
0.0
  0
LINE
  5
1DAA
330
A
100
AcDbEntity
  8
MODEL
100
AcDbLine
 10
1731.939608189185
 20
2140.560874176013
 30
0.0
 11
1734.157567900855
 21
2151.692194601033
 31
0.0
  0
LINE
  5
1DAB
330
A
100
AcDbEntity
  8
MODEL
100
AcDbLine
 10
1733.863454678558
 20
2224.708397152719
 30
0.0
 11
1731.185294277885
 21
2237.133815755843
 31
0.0
  0
LINE
  5
1DAC
330
A
100
AcDbEntity
  8
MODEL
100
AcDbLine
 10
1731.185294277885
 20
2237.133815755843
 30
0.0
 11
1727.578082110312
 21
2249.161316469977
 31
0.0
  0
LINE
  5
1DAD
330
A
100
AcDbEntity
  8
MODEL
100
AcDbLine
 10
1727.578082110312
 20
2249.161316469977
 30
0.0
 11
1722.993375998049
 21
2260.780518828452
 31
0.0
  0
LINE
  5
1DAE
330
A
100
AcDbEntity
  8
MODEL
100
AcDbLine
 10
1722.993375998049
 20
2260.780518828452
 30
0.0
 11
1717.387923996639
 21
2272.005263453495
 31
0.0
  0
LINE
  5
1DAF
330
A
100
AcDbEntity
  8
MODEL
100
AcDbLine
 10
1717.387923996639
 20
2272.005263453495
 30
0.0
 11
1710.709823772739
 21
2282.839010500663
 31
0.0
  0
LINE
  5
1DB0
330
A
100
AcDbEntity
  8
MODEL
100
AcDbLine
 10
1710.709823772739
 20
2282.839010500663
 30
0.0
 11
1702.910633148556
 21
2293.274839658842
 31
0.0
  0
LINE
  5
1DB1
330
A
100
AcDbEntity
  8
MODEL
100
AcDbLine
 10
1702.910633148556
 20
2293.274839658842
 30
0.0
 11
1693.957480646306
 21
2303.330051705814
 31
0.0
  0
LINE
  5
1DB2
330
A
100
AcDbEntity
  8
MODEL
100
AcDbLine
 10
1693.957480646306
 20
2303.330051705814
 30
0.0
 11
1683.795003777085
 21
2312.997726330466
 31
0.0
  0
LINE
  5
1DB3
330
A
100
AcDbEntity
  8
MODEL
100
AcDbLine
 10
1683.795003777085
 20
2312.997726330466
 30
0.0
 11
1672.383410751994
 21
2322.29516431058
 31
0.0
  0
LINE
  5
1DB4
330
A
100
AcDbEntity
  8
MODEL
100
AcDbLine
 10
1672.383410751994
 20
2322.29516431058
 30
0.0
 11
1666.250285028231
 21
2326.762225133926
 31
0.0
  0
SPLINE
  5
1DB5
330
A
100
AcDbEntity
  8
MODEL
100
AcDbSpline
210
0.0
220
0.0
230
1.0
 70
     8
 71
     3
 72
     8
 73
     4
 74
     0
 42
0.000000001
 43
0.0000000001
 40
0.0
 40
0.0
 40
0.0
 40
0.0
 40
1.0
 40
1.0
 40
1.0
 40
1.0
 10
1662.220933882773
 20
2329.464606623493
 30
0.0
 10
1663.57039454978
 20
2328.575346645492
 30
0.0
 10
1664.912934905673
 20
2327.675706200821
 30
0.0
 10
1666.248554950453
 20
2326.765685289481
 30
0.0
  0
SPLINE
  5
1DB6
330
A
100
AcDbEntity
  8
MODEL
100
AcDbSpline
210
0.0
220
0.0
230
1.0
 70
     8
 71
     3
 72
     8
 73
     4
 74
     0
 42
0.000000001
 43
0.0000000001
 40
0.0
 40
0.0
 40
0.0
 40
0.0
 40
1.0
 40
1.0
 40
1.0
 40
1.0
 10
1735.60391292344
 20
2221.877989907563
 30
0.0
 10
1734.68524162321
 20
2222.566560863292
 30
0.0
 10
1734.065873778609
 20
2223.580386441324
 30
0.0
 10
1733.863454678558
 20
2224.708397152719
 30
0.0
  0
SPLINE
  5
1DB7
330
A
100
AcDbEntity
  8
MODEL
100
AcDbSpline
210
0.0
220
0.0
230
1.0
 70
     8
 71
     3
 72
     8
 73
     4
 74
     0
 42
0.000000001
 43
0.0000000001
 40
0.0
 40
0.0
 40
0.0
 40
0.0
 40
1.0
 40
1.0
 40
1.0
 40
1.0
 10
1734.157567900855
 20
2151.688734445478
 30
0.0
 10
1734.344416300902
 20
2152.840966245768
 30
0.0
 10
1734.972434534393
 20
2153.875552757137
 30
0.0
 10
1735.903216379071
 20
2154.574504179536
 30
0.0
  0
LINE
  5
1DB8
330
A
100
AcDbEntity
  8
MODEL
100
AcDbLine
 10
1745.136641481392
 20
2212.078829371766
 30
0.0
 11
1745.136641481392
 21
2176.556872429506
 31
0.0
  0
LINE
  5
1DB9
330
A
100
AcDbEntity
  8
MODEL
100
AcDbLine
 10
1745.136641481392
 20
2176.556872429506
 30
0.0
 11
1745.136641481392
 21
2164.103772581931
 31
0.0
  0
SPLINE
  5
1DBA
330
A
100
AcDbEntity
  8
MODEL
100
AcDbSpline
210
0.0
220
0.0
230
1.0
 70
     8
 71
     3
 72
     8
 73
     4
 74
     0
 42
0.000000001
 43
0.0000000001
 40
0.0
 40
0.0
 40
0.0
 40
0.0
 40
1.0
 40
1.0
 40
1.0
 40
1.0
 10
1662.220933882773
 20
2329.464606623493
 30
0.0
 10
1663.57039454978
 20
2328.575346645492
 30
0.0
 10
1664.912934905673
 20
2327.675706200821
 30
0.0
 10
1666.248554950453
 20
2326.765685289481
 30
0.0
  0
LINE
  5
1DBB
330
A
100
AcDbEntity
  8
MODEL
100
AcDbLine
 10
1659.207138393127
 20
2003.73594300829
 30
0.0
 11
1625.058863206767
 21
2003.73594300829
 31
0.0
  0
LINE
  5
1DBC
330
A
100
AcDbEntity
  8
MODEL
100
AcDbLine
 10
1659.207138393127
 20
2459.722162545122
 30
0.0
 11
1659.207138393127
 21
2003.73594300829
 31
0.0
  0
LINE
  5
1DBD
330
A
100
AcDbEntity
  8
MODEL
100
AcDbLine
 10
1625.058863206767
 20
2459.722162545122
 30
0.0
 11
1659.207138393127
 21
2459.722162545122
 31
0.0
  0
LINE
  5
1DBE
330
A
100
AcDbEntity
  8
MODEL
100
AcDbLine
 10
1625.058863206767
 20
2459.722162545122
 30
0.0
 11
1625.058863206767
 21
2003.73594300829
 31
0.0
  0
SPLINE
  5
1DBF
330
A
100
AcDbEntity
  8
MODEL
100
AcDbSpline
210
0.0
220
0.0
230
1.0
 70
     8
 71
     3
 72
     8
 73
     4
 74
     0
 42
0.000000001
 43
0.0000000001
 40
0.0
 40
0.0
 40
0.0
 40
0.0
 40
1.0
 40
1.0
 40
1.0
 40
1.0
 10
1734.157567900855
 20
2151.688734445478
 30
0.0
 10
1734.10393548973
 20
2157.99659802484
 30
0.0
 10
1734.097015178617
 20
2164.301001448648
 30
0.0
 10
1734.135076889737
 20
2170.60886502801
 30
0.0
  0
LINE
  5
1DC0
330
A
100
AcDbEntity
  8
MODEL
100
AcDbLine
 10
1734.129886656403
 20
2188.113791987965
 30
0.0
 11
1734.133346811959
 21
2183.491024164582
 31
0.0
  0
LINE
  5
1DC1
330
A
100
AcDbEntity
  8
MODEL
100
AcDbLine
 10
1734.133346811959
 20
2183.491024164582
 30
0.0
 11
1734.136806967515
 21
2178.978981319003
 31
0.0
  0
LINE
  5
1DC2
330
A
100
AcDbEntity
  8
MODEL
100
AcDbLine
 10
1734.136806967515
 20
2178.978981319003
 30
0.0
 11
1734.136806967515
 21
2174.660707184584
 31
0.0
  0
LINE
  5
1DC3
330
A
100
AcDbEntity
  8
MODEL
100
AcDbLine
 10
1734.136806967515
 20
2174.660707184584
 30
0.0
 11
1734.136806967515
 21
2170.605404872454
 31
0.0
  0
LINE
  5
1DC4
330
A
100
AcDbEntity
  8
MODEL
100
AcDbLine
 10
1733.863454678558
 20
2224.708397152719
 30
0.0
 11
1733.863454678558
 21
2224.518088597115
 31
0.0
  0
LINE
  5
1DC5
330
A
100
AcDbEntity
  8
MODEL
100
AcDbLine
 10
1733.863454678558
 20
2224.518088597115
 30
0.0
 11
1733.868644911893
 21
2223.947162930306
 31
0.0
  0
LINE
  5
1DC6
330
A
100
AcDbEntity
  8
MODEL
100
AcDbLine
 10
1733.868644911893
 20
2223.947162930306
 30
0.0
 11
1733.879025378562
 21
2222.995620152289
 31
0.0
  0
LINE
  5
1DC7
330
A
100
AcDbEntity
  8
MODEL
100
AcDbLine
 10
1733.879025378562
 20
2222.995620152289
 30
0.0
 11
1733.899786311901
 21
2221.691141507517
 31
0.0
  0
LINE
  5
1DC8
330
A
100
AcDbEntity
  8
MODEL
100
AcDbLine
 10
1733.899786311901
 20
2221.691141507517
 30
0.0
 11
1733.924007400796
 21
2220.040647307101
 31
0.0
  0
LINE
  5
1DC9
330
A
100
AcDbEntity
  8
MODEL
100
AcDbLine
 10
1733.924007400796
 20
2220.040647307101
 30
0.0
 11
1733.953418723026
 21
2218.085659417722
 31
0.0
  0
LINE
  5
1DCA
330
A
100
AcDbEntity
  8
MODEL
100
AcDbLine
 10
1733.953418723026
 20
2218.085659417722
 30
0.0
 11
1733.984560123033
 21
2215.853859083828
 31
0.0
  0
LINE
  5
1DCB
330
A
100
AcDbEntity
  8
MODEL
100
AcDbLine
 10
1733.984560123033
 20
2215.853859083828
 30
0.0
 11
1734.017431600819
 21
2213.376387705427
 31
0.0
  0
LINE
  5
1DCC
330
A
100
AcDbEntity
  8
MODEL
100
AcDbLine
 10
1734.017431600819
 20
2213.376387705427
 30
0.0
 11
1734.05549331194
 21
2209.743224371181
 31
0.0
  0
LINE
  5
1DCD
330
A
100
AcDbEntity
  8
MODEL
100
AcDbLine
 10
1734.05549331194
 20
2209.743224371181
 30
0.0
 11
1734.088364789726
 21
2205.798647036856
 31
0.0
  0
LINE
  5
1DCE
330
A
100
AcDbEntity
  8
MODEL
100
AcDbLine
 10
1734.088364789726
 20
2205.798647036856
 30
0.0
 11
1734.112585878621
 21
2201.608398658025
 31
0.0
  0
LINE
  5
1DCF
330
A
100
AcDbEntity
  8
MODEL
100
AcDbLine
 10
1734.112585878621
 20
2201.608398658025
 30
0.0
 11
1734.126426500847
 21
2194.98220076747
 31
0.0
  0
LINE
  5
1DD0
330
A
100
AcDbEntity
  8
MODEL
100
AcDbLine
 10
1734.126426500847
 20
2194.98220076747
 30
0.0
 11
1734.129886656403
 21
2188.113791987965
 31
0.0
  0
LINE
  5
1DD1
330
A
100
AcDbEntity
  8
MODEL
100
AcDbLine
 10
1735.896296067958
 20
2188.113791987965
 30
0.0
 11
1735.892835912402
 21
2194.421655567329
 31
0.0
  0
LINE
  5
1DD2
330
A
100
AcDbEntity
  8
MODEL
100
AcDbLine
 10
1735.892835912402
 20
2194.421655567329
 30
0.0
 11
1735.87553513462
 21
2200.518449657751
 31
0.0
  0
LINE
  5
1DD3
330
A
100
AcDbEntity
  8
MODEL
100
AcDbLine
 10
1735.87553513462
 20
2200.518449657751
 30
0.0
 11
1735.83574334572
 21
2206.231166481408
 31
0.0
  0
LINE
  5
1DD4
330
A
100
AcDbEntity
  8
MODEL
100
AcDbLine
 10
1735.83574334572
 20
2206.231166481408
 30
0.0
 11
1735.771730467926
 21
2211.376417793812
 31
0.0
  0
LINE
  5
1DD5
330
A
100
AcDbEntity
  8
MODEL
100
AcDbLine
 10
1735.771730467926
 20
2211.376417793812
 30
0.0
 11
1735.70079727902
 21
2215.732753639353
 31
0.0
  0
LINE
  5
1DD6
330
A
100
AcDbEntity
  8
MODEL
100
AcDbLine
 10
1735.70079727902
 20
2215.732753639353
 30
0.0
 11
1735.669655879012
 21
2217.545875150919
 31
0.0
  0
LINE
  5
1DD7
330
A
100
AcDbEntity
  8
MODEL
100
AcDbLine
 10
1735.669655879012
 20
2217.545875150919
 30
0.0
 11
1735.641974634561
 21
2219.075263906858
 31
0.0
  0
LINE
  5
1DD8
330
A
100
AcDbEntity
  8
MODEL
100
AcDbLine
 10
1735.641974634561
 20
2219.075263906858
 30
0.0
 11
1735.619483623444
 21
2220.289778507165
 31
0.0
  0
LINE
  5
1DD9
330
A
100
AcDbEntity
  8
MODEL
100
AcDbLine
 10
1735.619483623444
 20
2220.289778507165
 30
0.0
 11
1735.609103156775
 21
2221.172118174053
 31
0.0
  0
LINE
  5
1DDA
330
A
100
AcDbEntity
  8
MODEL
100
AcDbLine
 10
1735.609103156775
 20
2221.172118174053
 30
0.0
 11
1735.605643001219
 21
2221.704982129742
 31
0.0
  0
LINE
  5
1DDB
330
A
100
AcDbEntity
  8
MODEL
100
AcDbLine
 10
1735.605643001219
 20
2221.704982129742
 30
0.0
 11
1735.602182845662
 21
2221.881450063119
 31
0.0
  0
LINE
  5
1DDC
330
A
100
AcDbEntity
  8
MODEL
100
AcDbLine
 10
1735.901486301293
 20
2172.034449117258
 30
0.0
 11
1735.904946456849
 21
2175.764496807085
 31
0.0
  0
LINE
  5
1DDD
330
A
100
AcDbEntity
  8
MODEL
100
AcDbLine
 10
1735.904946456849
 20
2175.764496807085
 30
0.0
 11
1735.901486301293
 21
2179.733295230305
 31
0.0
  0
LINE
  5
1DDE
330
A
100
AcDbEntity
  8
MODEL
100
AcDbLine
 10
1735.901486301293
 20
2179.733295230305
 30
0.0
 11
1735.898026145736
 21
2183.875101431344
 31
0.0
  0
LINE
  5
1DDF
330
A
100
AcDbEntity
  8
MODEL
100
AcDbLine
 10
1735.898026145736
 20
2183.875101431344
 30
0.0
 11
1735.898026145736
 21
2188.113791987965
 31
0.0
  0
LINE
  5
1DE0
330
A
100
AcDbEntity
  8
MODEL
100
AcDbLine
 10
1743.128021180887
 20
2174.633025940132
 30
0.0
 11
1743.128021180887
 21
2216.099530128333
 31
0.0
  0
SPLINE
  5
1DE1
330
A
100
AcDbEntity
  8
MODEL
100
AcDbSpline
210
0.0
220
0.0
230
1.0
 70
     8
 71
     3
 72
     8
 73
     4
 74
     0
 42
0.000000001
 43
0.0000000001
 40
0.0
 40
0.0
 40
0.0
 40
0.0
 40
1.0
 40
1.0
 40
1.0
 40
1.0
 10
1735.904946456849
 20
2154.574504179536
 30
0.0
 10
1735.859964434616
 20
2160.391025669887
 30
0.0
 10
1735.854774201281
 20
2166.21446747135
 30
0.0
 10
1735.901486301293
 20
2172.030988961701
 30
0.0
  0
LINE
  5
1DE2
330
A
100
AcDbEntity
  8
MODEL
100
AcDbLine
 10
1743.128021180887
 20
2174.633025940132
 30
0.0
 11
1743.128021180887
 21
2160.103832758703
 31
0.0
  0
LINE
  5
1DE3
330
A
100
AcDbEntity
  8
MODEL
100
AcDbLine
 10
1745.136641481392
 20
2212.217235594023
 30
0.0
 11
1745.136641481392
 21
2164.010348381907
 31
0.0
  0
SPLINE
  5
1E95
330
A
100
AcDbEntity
  8
MODEL
100
AcDbSpline
210
0.0
220
0.0
230
1.0
 70
     8
 71
     3
 72
     8
 73
     4
 74
     0
 42
0.000000001
 43
0.0000000001
 40
0.0
 40
0.0
 40
0.0
 40
0.0
 40
1.0
 40
1.0
 40
1.0
 40
1.0
 10
873.0001606858341
 20
1488.827485564269
 30
0.0
 10
874.657575197361
 20
1488.827485564269
 30
0.0
 10
876.0001155532536
 20
1487.484945208376
 30
0.0
 10
876.0001155532536
 20
1485.827530696848
 30
0.0
  0
SPLINE
  5
1E96
330
A
100
AcDbEntity
  8
MODEL
100
AcDbSpline
210
0.0
220
0.0
230
1.0
 70
     8
 71
     3
 72
     8
 73
     4
 74
     0
 42
0.000000001
 43
0.0000000001
 40
0.0
 40
0.0
 40
0.0
 40
0.0
 40
1.0
 40
1.0
 40
1.0
 40
1.0
 10
415.9966554154134
 20
1485.827530696848
 30
0.0
 10
415.9966554154134
 20
1487.484945208376
 30
0.0
 10
417.3391957713065
 20
1488.827485564269
 30
0.0
 10
418.9983403606125
 20
1488.827485564269
 30
0.0
  0
LINE
  5
1E97
102
{ACAD_REACTORS
330
1F5F
102
}
330
A
100
AcDbEntity
  8
MODEL
100
AcDbLine
 10
418.9966102828348
 20
1488.827485564269
 30
0.0
 11
873.0001606858341
 21
1488.827485564269
 31
0.0
  0
LINE
  5
1E98
330
A
100
AcDbEntity
  8
MODEL
100
AcDbLine
 10
531.9949102890137
 20
1188.825078511088
 30
0.0
 11
531.9949102890137
 21
1238.326063901307
 31
0.0
  0
LINE
  5
1E99
330
A
100
AcDbEntity
  8
MODEL
100
AcDbLine
 10
531.9949102890137
 20
1038.827485564269
 30
0.0
 11
531.9949102890137
 21
1287.827049291527
 31
0.0
  0
LINE
  5
1E9A
330
A
100
AcDbEntity
  8
MODEL
100
AcDbLine
 10
531.9949102890137
 20
1287.827049291527
 30
0.0
 11
531.9949102890137
 21
1337.328034681746
 31
0.0
  0
LINE
  5
1E9B
330
A
100
AcDbEntity
  8
MODEL
100
AcDbLine
 10
531.9949102890137
 20
1337.328034681746
 30
0.0
 11
531.9949102890137
 21
1367.0300099781
 31
0.0
  0
LINE
  5
1E9C
330
A
100
AcDbEntity
  8
MODEL
100
AcDbLine
 10
531.9949102890137
 20
1367.0300099781
 30
0.0
 11
531.9949102890137
 21
1396.728525118898
 31
0.0
  0
LINE
  5
1E9D
330
A
100
AcDbEntity
  8
MODEL
100
AcDbLine
 10
531.9949102890137
 20
1396.728525118898
 30
0.0
 11
531.9949102890137
 21
1426.427040259696
 31
0.0
  0
LINE
  5
1E9E
330
A
100
AcDbEntity
  8
MODEL
100
AcDbLine
 10
531.9949102890137
 20
1426.427040259696
 30
0.0
 11
531.9949102890137
 21
1456.12901555605
 31
0.0
  0
LINE
  5
1E9F
330
A
100
AcDbEntity
  8
MODEL
100
AcDbLine
 10
531.9949102890137
 20
1456.12901555605
 30
0.0
 11
531.9949102890137
 21
1485.827530696848
 31
0.0
  0
LINE
  5
1EA0
330
A
100
AcDbEntity
  8
MODEL
100
AcDbLine
 10
531.9949102890137
 20
1485.827530696848
 30
0.0
 11
520.4933532194555
 21
1485.827530696848
 31
0.0
  0
LINE
  5
1EA1
330
A
100
AcDbEntity
  8
MODEL
100
AcDbLine
 10
531.9949102890137
 20
1485.827530696848
 30
0.0
 11
689.4250677952487
 21
1485.827530696848
 31
0.0
  0
LINE
  5
1EA2
330
A
100
AcDbEntity
  8
MODEL
100
AcDbLine
 10
689.4250677952487
 20
1485.827530696848
 30
0.0
 11
872.9967005302778
 21
1485.827530696848
 31
0.0
  0
LINE
  5
1EA3
330
A
100
AcDbEntity
  8
MODEL
100
AcDbLine
 10
520.4968133750117
 20
1485.827530696848
 30
0.0
 11
418.9983403606125
 21
1485.827530696848
 31
0.0
  0
LINE
  5
1EA4
330
A
100
AcDbEntity
  8
MODEL
100
AcDbLine
 10
873.0001606858341
 20
1485.827530696848
 30
0.0
 11
873.0001606858341
 21
1038.827485564269
 31
0.0
  0
LINE
  5
1EA5
330
A
100
AcDbEntity
  8
MODEL
100
AcDbLine
 10
418.9966102828348
 20
1038.827485564269
 30
0.0
 11
418.9966102828348
 21
1485.827530696848
 31
0.0
  0
LINE
  5
1EA6
330
A
100
AcDbEntity
  8
MODEL
100
AcDbLine
 10
520.4968133750117
 20
1485.827530696848
 30
0.0
 11
520.4968133750117
 21
1038.827485564269
 31
0.0
  0
LINE
  5
1EA7
330
A
100
AcDbEntity
  8
MODEL
100
AcDbLine
 10
415.9966554154134
 20
1038.827485564269
 30
0.0
 11
415.9966554154134
 21
1485.827530696848
 31
0.0
  0
LINE
  5
1EA8
330
A
100
AcDbEntity
  8
MODEL
100
AcDbLine
 10
875.9966553976979
 20
1485.827530696848
 30
0.0
 11
875.9966553976979
 21
1038.827485564269
 31
0.0
  0
LINE
  5
1EC1
330
A
100
AcDbEntity
  8
MODEL
100
AcDbLine
 10
1622.045067717121
 20
588.827485564269
 30
0.0
 11
1662.220933882773
 21
588.827485564269
 31
0.0
  0
LINE
  5
1EC2
330
A
100
AcDbEntity
  8
MODEL
100
AcDbLine
 10
1622.045067717121
 20
1488.827485564269
 30
0.0
 11
1622.045067717121
 21
588.827485564269
 31
0.0
  0
LINE
  5
1EC3
330
A
100
AcDbEntity
  8
MODEL
100
AcDbLine
 10
1662.220933882773
 20
1488.827485564269
 30
0.0
 11
1662.220933882773
 21
588.827485564269
 31
0.0
  0
LINE
  5
1EC5
330
A
100
AcDbEntity
  8
MODEL
100
AcDbLine
 10
1622.045067717121
 20
1488.827485564269
 30
0.0
 11
1662.220933882773
 21
1488.827485564269
 31
0.0
  0
LINE
  5
1ECB
102
{ACAD_REACTORS
330
1F07
102
}
330
A
100
AcDbEntity
  8
MODEL
100
AcDbLine
 10
1743.128021180887
 20
1010.706801357201
 30
0.0
 11
1735.853044123503
 21
1005.250136044719
 31
0.0
  0
SPLINE
  5
1ECD
102
{ACAD_REACTORS
330
1F07
102
}
330
A
100
AcDbEntity
  8
MODEL
100
AcDbSpline
210
0.0
220
0.0
230
1.0
 70
     8
 71
     3
 72
     8
 73
     4
 74
     0
 42
0.000000001
 43
0.0000000001
 40
0.0
 40
0.0
 40
0.0
 40
0.0
 40
1.0
 40
1.0
 40
1.0
 40
1.0
 10
1745.136641481392
 20
1014.862448180468
 30
0.0
 10
1745.15740241473
 20
1013.239635224505
 30
0.0
 10
1744.413468970099
 20
1011.696405846339
 30
0.0
 10
1743.128021180887
 20
1010.706801357201
 30
0.0
  0
SPLINE
  5
1ECF
102
{ACAD_REACTORS
330
1F07
102
}
330
A
100
AcDbEntity
  8
MODEL
100
AcDbSpline
210
0.0
220
0.0
230
1.0
 70
     8
 71
     3
 72
     8
 73
     4
 74
     0
 42
0.000000001
 43
0.0000000001
 40
0.0
 40
0.0
 40
0.0
 40
0.0
 40
1.0
 40
1.0
 40
1.0
 40
1.0
 10
1734.157567900855
 20
1002.402428021781
 30
0.0
 10
1734.344416300902
 20
1003.554659822071
 30
0.0
 10
1734.972434534393
 20
1004.589246333441
 30
0.0
 10
1735.903216379071
 20
1005.288197755839
 30
0.0
  0
LINE
  5
1ED0
102
{ACAD_REACTORS
330
1F07
102
}
330
A
100
AcDbEntity
  8
MODEL
100
AcDbLine
 10
1745.136641481392
 20
1038.827485564269
 30
0.0
 11
1745.136641481392
 21
1027.270566005809
 31
0.0
  0
LINE
  5
1ED1
102
{ACAD_REACTORS
330
1F07
102
}
330
A
100
AcDbEntity
  8
MODEL
100
AcDbLine
 10
1745.136641481392
 20
1027.270566005809
 30
0.0
 11
1745.136641481392
 21
1014.817466158235
 31
0.0
  0
LINE
  5
1EF5
102
{ACAD_REACTORS
330
1F07
102
}
330
A
100
AcDbEntity
  8
MODEL
100
AcDbLine
 10
1743.128021180887
 20
1038.827485564269
 30
0.0
 11
1743.128021180887
 21
1010.817526335007
 31
0.0
  0
LINE
  5
1EF6
102
{ACAD_REACTORS
330
1F07
102
}
330
A
100
AcDbEntity
  8
MODEL
100
AcDbLine
 10
1745.136641481392
 20
1038.827485564269
 30
0.0
 11
1745.136641481392
 21
1014.724041958211
 31
0.0
  0
LINE
  5
1EF8
102
{ACAD_REACTORS
330
1F07
102
}
330
A
100
AcDbEntity
  8
MODEL
100
AcDbLine
 10
1734.157567900855
 20
1002.402428021781
 30
0.0
 11
1734.157567900855
 21
1038.827485564269
 31
0.0
  0
LINE
  5
1EF9
102
{ACAD_REACTORS
330
1F07
102
}
330
A
100
AcDbEntity
  8
MODEL
100
AcDbLine
 10
1743.128021180887
 20
1066.948169771337
 30
0.0
 11
1735.853044123503
 21
1072.404835083819
 31
0.0
  0
SPLINE
  5
1EFA
102
{ACAD_REACTORS
330
1F07
102
}
330
A
100
AcDbEntity
  8
MODEL
100
AcDbSpline
210
0.0
220
0.0
230
1.0
 70
     8
 71
     3
 72
     8
 73
     4
 74
     0
 42
0.000000001
 43
0.0000000001
 40
0.0
 40
0.0
 40
0.0
 40
0.0
 40
1.0
 40
1.0
 40
1.0
 40
1.0
 10
1745.136641481392
 20
1062.79252294807
 30
0.0
 10
1745.15740241473
 20
1064.415335904033
 30
0.0
 10
1744.413468970099
 20
1065.958565282199
 30
0.0
 10
1743.128021180887
 20
1066.948169771337
 30
0.0
  0
SPLINE
  5
1EFB
102
{ACAD_REACTORS
330
1F07
102
}
330
A
100
AcDbEntity
  8
MODEL
100
AcDbSpline
210
0.0
220
0.0
230
1.0
 70
     8
 71
     3
 72
     8
 73
     4
 74
     0
 42
0.000000001
 43
0.0000000001
 40
0.0
 40
0.0
 40
0.0
 40
0.0
 40
1.0
 40
1.0
 40
1.0
 40
1.0
 10
1734.157567900855
 20
1075.252543106757
 30
0.0
 10
1734.344416300902
 20
1074.100311306466
 30
0.0
 10
1734.972434534393
 20
1073.065724795097
 30
0.0
 10
1735.903216379071
 20
1072.366773372699
 30
0.0
  0
LINE
  5
1EFC
102
{ACAD_REACTORS
330
1F07
102
}
330
A
100
AcDbEntity
  8
MODEL
100
AcDbLine
 10
1745.136641481392
 20
1050.384405122729
 30
0.0
 11
1745.136641481392
 21
1062.837504970303
 31
0.0
  0
LINE
  5
1EFD
102
{ACAD_REACTORS
330
1F07
102
}
330
A
100
AcDbEntity
  8
MODEL
100
AcDbLine
 10
1743.128021180887
 20
1038.827485564269
 30
0.0
 11
1743.128021180887
 21
1066.83744479353
 31
0.0
  0
LINE
  5
1EFE
102
{ACAD_REACTORS
330
1F07
102
}
330
A
100
AcDbEntity
  8
MODEL
100
AcDbLine
 10
1745.136641481392
 20
1038.827485564269
 30
0.0
 11
1745.136641481392
 21
1062.930929170327
 31
0.0
  0
LINE
  5
1EFF
102
{ACAD_REACTORS
330
1F07
102
}
330
A
100
AcDbEntity
  8
MODEL
100
AcDbLine
 10
1745.136641481392
 20
1038.827485564269
 30
0.0
 11
1745.136641481392
 21
1050.384405122729
 31
0.0
  0
LINE
  5
1F00
102
{ACAD_REACTORS
330
1F07
102
}
330
A
100
AcDbEntity
  8
MODEL
100
AcDbLine
 10
1734.157567900855
 20
1075.252543106757
 30
0.0
 11
1734.157567900855
 21
1038.827485564269
 31
0.0
  0
SPLINE
  5
1F0C
330
A
100
AcDbEntity
  8
MODEL
100
AcDbSpline
210
0.0
220
0.0
230
1.0
 70
     8
 71
     3
 72
    12
 73
     8
 74
     0
 42
0.000000001
 43
0.0000000001
 40
63.99980967845313
 40
63.99980967845313
 40
63.99980967845313
 40
63.99980967845313
 40
96.89434494044488
 40
194.8940594085667
 40
309.1560355214366
 40
392.8689692342783
 40
436.1996113943059
 40
436.1996113943059
 40
436.1996113943059
 40
436.1996113943059
 10
1662.220933882773
 20
642.0964210075786
 30
0.0
 10
1668.516701411803
 20
651.0422283809471
 30
0.0
 10
1691.766793493286
 20
687.6623302925227
 30
0.0
 10
1714.979058493835
 20
767.7906511715405
 30
0.0
 10
1728.129962441814
 20
865.2502127353468
 30
0.0
 10
1734.539204950391
 20
945.6039544906093
 30
0.0
 10
1734.254628234393
 20
987.9570831789374
 30
0.0
 10
1734.157567900855
 20
1002.402428021781
 30
0.0
  0
SPLINE
  5
1F10
330
A
100
AcDbEntity
  8
HIDDEN
 48
0.5
100
AcDbSpline
210
0.0
220
0.0
230
1.0
 70
     8
 71
     3
 72
     8
 73
     4
 74
     0
 42
0.000000001
 43
0.0000000001
 40
0.0
 40
0.0
 40
0.0
 40
0.0
 40
63.99980967845257
 40
63.99980967845257
 40
63.99980967845257
 40
63.99980967845257
 10
1622.045067717121
 20
591.8274404316903
 30
0.0
 10
1636.008458829244
 20
608.2594218567538
 30
0.0
 10
1649.971849941367
 20
624.6914032818172
 30
0.0
 10
1662.220933882773
 20
642.0964210075786
 30
0.0
  0
SPLINE
  5
1F20
330
A
100
AcDbEntity
  8
HIDDEN
 48
0.5
100
AcDbSpline
210
0.0
220
0.0
230
1.0
 70
     8
 71
     3
 72
     8
 73
     4
 74
     0
 42
0.000000001
 43
0.0000000001
 40
0.0
 40
0.0
 40
0.0
 40
0.0
 40
63.99980967845257
 40
63.99980967845257
 40
63.99980967845257
 40
63.99980967845257
 10
1622.045067717121
 20
1485.827530696847
 30
0.0
 10
1636.008458829244
 20
1469.395549271784
 30
0.0
 10
1649.971849941367
 20
1452.963567846721
 30
0.0
 10
1662.220933882773
 20
1435.558550120959
 30
0.0
  0
SPLINE
  5
1F22
330
A
100
AcDbEntity
  8
MODEL
100
AcDbSpline
210
0.0
220
0.0
230
1.0
 70
     8
 71
     3
 72
    12
 73
     8
 74
     0
 42
0.000000001
 43
0.0000000001
 40
63.99980967845313
 40
63.99980967845313
 40
63.99980967845313
 40
63.99980967845313
 40
96.89434494044488
 40
194.8940594085667
 40
309.1560355214366
 40
392.8689692342783
 40
436.1996113943059
 40
436.1996113943059
 40
436.1996113943059
 40
436.1996113943059
 10
1662.220933882773
 20
1435.558550120959
 30
0.0
 10
1668.516701411804
 20
1426.612742747591
 30
0.0
 10
1691.766793493287
 20
1389.992640836014
 30
0.0
 10
1714.979058493835
 20
1309.864319956997
 30
0.0
 10
1728.129962441814
 20
1212.404758393191
 30
0.0
 10
1734.539204950391
 20
1132.051016637928
 30
0.0
 10
1734.254628234393
 20
1089.6978879496
 30
0.0
 10
1734.157567900855
 20
1075.252543106757
 30
0.0
  0
DIMENSION
  5
1F4D
330
A
100
AcDbEntity
  8
Dim
  6
Continuous
100
AcDbDimension
  2
*D19
 10
872.9968133750117
 20
472.9646752038372
 30
0.0
 11
696.7468133750117
 21
495.1809837975873
 31
0.0
 70
    32
 71
     5
 42
352.5
 73
     0
 74
     0
 75
     0
 52
-270.0
  3
JIS
100
AcDbAlignedDimension
 13
520.4968133750117
 23
591.8274404316899
 33
0.0
 14
872.9968133750117
 24
591.8274404316899
 34
0.0
 50
180.0
100
AcDbRotatedDimension
1001
ACAD
1000
DSTYLE
1002
{
1070
   179
1070
     0
1070
   271
1070
     1
1070
    43
1040
25.0
1070
    44
1040
0.0
1070
    42
1040
25.0
1002
}
  0
DIMENSION
  5
1F5D
102
{ACAD_REACTORS
330
1F5F
102
}
102
{ACAD_XDICTIONARY
360
1F5E
102
}
330
A
100
AcDbEntity
  8
Dim
  6
Continuous
100
AcDbDimension
  2
*D20
 10
296.4805571685301
 20
1488.827485564269
 30
0.0
 11
274.26424857478
 21
1038.827485564269
 31
0.0
 70
    32
 71
     5
 42
900.0000000000002
 73
     0
 74
     0
 75
     0
  3
JIS
100
AcDbAlignedDimension
 13
421.4441291741132
 23
588.827485564269
 33
0.0
 14
421.4441291741132
 24
1488.827485564269
 34
0.0
 50
90.0
100
AcDbRotatedDimension
1001
ACAD
1000
DSTYLE
1002
{
1070
   179
1070
     0
1070
   271
1070
     0
1070
    43
1040
25.0
1070
    44
1040
0.0
1070
    42
1040
25.0
1002
}
  0
DIMENSION
  5
1F6C
330
A
100
AcDbEntity
  8
Dim
  6
Continuous
100
AcDbDimension
  2
*D21
 10
993.1091905223275
 20
1485.82744043169
 30
0.0
 11
970.8928819285775
 21
1038.82744043169
 31
0.0
 70
    32
 71
     5
 42
894.0000000000005
 73
     0
 74
     0
 75
     0
  3
JIS
100
AcDbAlignedDimension
 13
872.9967005302778
 23
591.8274404316899
 33
0.0
 14
872.9967005302778
 24
1485.82744043169
 34
0.0
 50
90.0
100
AcDbRotatedDimension
1001
ACAD
1000
DSTYLE
1002
{
1070
   179
1070
     0
1070
   271
1070
     0
1070
    43
1040
25.0
1070
    44
1040
0.0
1070
    42
1040
25.0
1002
}
  0
DIMENSION
  5
1F79
330
A
100
AcDbEntity
  8
Dim
  6
Continuous
100
AcDbDimension
  2
*D22
 10
875.9966554154134
 20
1607.570644058361
 30
0.0
 11
645.9966554154134
 21
1629.786952652111
 31
0.0
 70
    32
 71
     5
 42
460.0000000000001
 73
     0
 74
     0
 75
     0
 52
-270.0
  3
JIS
100
AcDbAlignedDimension
 13
415.9966554154134
 23
1485.827530696848
 33
0.0
 14
875.9966554154134
 24
1485.827530696848
 34
0.0
 50
180.0
100
AcDbRotatedDimension
1001
ACAD
1000
DSTYLE
1002
{
1070
   179
1070
     0
1070
   271
1070
     0
1070
    43
1040
25.0
1070
    44
1040
0.0
1070
    42
1040
25.0
1002
}
  0
LINE
  5
1F89
330
A
100
AcDbEntity
  8
Dim
  6
Continuous
100
AcDbLine
 10
462.4055050711977
 20
1050.439474605262
 30
0.0
 11
376.5970924773719
 21
1137.446540378361
 31
0.0
  0
MTEXT
  5
1FBB
330
A
100
AcDbEntity
  8
Dim
390
1D
100
AcDbMText
 10
353.2615057748412
 20
1148.322061488156
 30
0.0
 40
24.0
 41
1169.771715461011
 46
24.72
 71
     1
 72
     1
  1
{%%c35}
  7
ＭＳ ゴシック
 11
6.123233995736766E-17
 21
1.0
 31
0.0
 73
     1
 44
1.174240107638677
1001
ACAD
1000
ACAD_MTEXT_DEFINED_HEIGHT_BEGIN
1070
    46
1040
24.72
1000
ACAD_MTEXT_DEFINED_HEIGHT_END
  0
DIMENSION
  5
1FBF
330
A
100
AcDbEntity
  8
Dim
  6
Continuous
100
AcDbDimension
  2
*D23
 10
1780.045067717121
 20
1555.601276273557
 30
0.0
 11
1701.045067717121
 21
1577.817584867307
 31
0.0
 70
    32
 71
     5
 42
158.0000000000001
 73
     0
 74
     0
 75
     0
 52
-270.0
  3
JIS
100
AcDbAlignedDimension
 13
1622.045067717121
 23
1488.827485564269
 33
0.0
 14
1780.045067717121
 24
1075.57609932147
 34
0.0
 50
180.0
100
AcDbRotatedDimension
1001
ACAD
1000
DSTYLE
1002
{
1070
   179
1070
     0
1070
   271
1070
     0
1070
    43
1040
25.0
1070
    44
1040
0.0
1070
    42
1040
25.0
1002
}
  0
DIMENSION
  5
1FCC
330
A
100
AcDbEntity
  8
Dim
  6
Continuous
100
AcDbDimension
  2
*D24
 10
1662.045067717121
 20
1915.826761041885
 30
0.0
 11
1642.045067717121
 21
1915.826761041885
 31
0.0
 70
   160
 71
     5
 42
40.0
 73
     0
 74
     0
 75
     0
 52
-270.0
  3
JIS
100
AcDbAlignedDimension
 13
1622.045067717121
 23
2007.013694460858
 33
0.0
 14
1662.045067717121
 24
2007.013694460858
 34
0.0
 50
180.0
100
AcDbRotatedDimension
1001
ACAD
1000
DSTYLE
1002
{
1070
   179
1070
     0
1070
   271
1070
     0
1070
    43
1040
25.0
1070
    44
1040
0.0
1070
    42
1040
25.0
1002
}
  0
DIMENSION
  5
1FDD
330
A
100
AcDbEntity
  8
Dim
  6
Continuous
100
AcDbDimension
  2
*D25
 10
1837.157210625075
 20
2461.513791987965
 30
0.0
 11
1814.940902031325
 21
2324.813791987965
 31
0.0
 70
    32
 71
     5
 42
273.3999999999996
 73
     0
 74
     0
 75
     0
  3
JIS
100
AcDbAlignedDimension
 13
1745.136641481392
 23
2188.113791987965
 33
0.0
 14
1672.534335281507
 24
2461.513791987965
 34
0.0
 50
90.0
100
AcDbRotatedDimension
1001
ACAD
1000
DSTYLE
1002
{
1070
   179
1070
     0
1070
   271
1070
     0
1070
    43
1040
25.0
1070
    44
1040
0.0
1070
    42
1040
25.0
1002
}
  0
DIMENSION
  5
203C
330
A
100
AcDbEntity
  8
Dim
  6
Continuous
100
AcDbDimension
  2
*D28
 10
1622.134923350582
 20
2188.116890538813
 30
0.0
 11
1527.946963389643
 21
2188.116890538813
 31
0.0
 70
   160
  1
110(深さ)
 71
     5
 42
112.0835542907807
 73
     0
 74
     1
 75
     1
 52
-270.0
  3
JIS
100
AcDbAlignedDimension
 13
1734.218477641362
 23
2188.116877267661
 33
0.0
 14
1622.134923350582
 24
2188.116890538813
 34
0.0
 50
180.0
100
AcDbRotatedDimension
1001
ACAD
1000
DSTYLE
1002
{
1070
   172
1070
     1
1070
    76
1070
     1
1070
    75
1070
     1
1070
   175
1070
     0
1070
   179
1070
     0
1070
   271
1070
     0
1070
    43
1040
25.0
1070
    44
1040
0.0
1070
    42
1040
25.0
1002
}
  0
DIMENSION
  5
2058
102
{ACAD_REACTORS
330
205A
102
}
102
{ACAD_XDICTIONARY
360
2059
102
}
330
A
100
AcDbEntity
  8
Dim
  6
Continuous
100
AcDbDimension
  2
*D30
 10
1564.792532275003
 20
2403.735958034767
 30
0.0
 11
1564.792532275003
 21
2432.985958034767
 31
0.0
 70
   160
 71
     5
 42
59.0
 73
     0
 74
     0
 75
     0
  3
JIS
100
AcDbAlignedDimension
 13
1625.058863206767
 23
2462.735958034767
 33
0.0
 14
1625.058863206767
 24
2403.735958034767
 34
0.0
 50
90.0
100
AcDbRotatedDimension
1001
ACAD
1000
DSTYLE
1002
{
1070
   179
1070
     0
1070
   271
1070
     1
1070
    43
1040
25.0
1070
    44
1040
0.0
1070
    42
1040
25.0
1002
}
  0
LINE
  5
208E
330
A
100
AcDbEntity
  8
Dim
  6
CENTER
 48
0.1
100
AcDbLine
 10
1639.868332043107
 20
2385.735958034767
 30
0.0
 11
1604.702997106614
 21
2385.735958034767
 31
0.0
  0
LINE
  5
2093
330
A
100
AcDbEntity
  8
Dim
  6
CENTER
 48
0.1
100
AcDbLine
 10
1639.868332043107
 20
2420.735958034767
 30
0.0
 11
1604.702997106614
 21
2420.735958034767
 31
0.0
  0
SPLINE
  5
20A6
330
A
100
AcDbEntity
  8
HIDDEN
100
AcDbSpline
210
0.0
220
0.0
230
1.0
 70
     8
 71
     3
 72
     8
 73
     4
 74
     0
 42
0.000000001
 43
0.0000000001
 40
0.0
 40
0.0
 40
0.0
 40
0.0
 40
1.0
 40
1.0
 40
1.0
 40
1.0
 10
873.0001606858336
 20
1837.265125643374
 30
0.0
 10
874.6575751973605
 20
1837.265125643374
 30
0.0
 10
876.0001155532536
 20
1838.607665999267
 30
0.0
 10
876.0001155532536
 20
1840.265080510795
 30
0.0
  0
SPLINE
  5
20A7
330
A
100
AcDbEntity
  8
HIDDEN
100
AcDbSpline
210
0.0
220
0.0
230
1.0
 70
     8
 71
     3
 72
     8
 73
     4
 74
     0
 42
0.000000001
 43
0.0000000001
 40
0.0
 40
0.0
 40
0.0
 40
0.0
 40
1.0
 40
1.0
 40
1.0
 40
1.0
 10
415.9966554154134
 20
1840.265080510795
 30
0.0
 10
415.9966554154134
 20
1838.607665999267
 30
0.0
 10
417.3391957713065
 20
1837.265125643374
 30
0.0
 10
418.9983403606129
 20
1837.265125643374
 30
0.0
  0
LINE
  5
20A8
330
A
100
AcDbEntity
  8
HIDDEN
100
AcDbLine
 10
418.9966102828348
 20
1837.265125643374
 30
0.0
 11
873.0001606858336
 21
1837.265125643374
 31
0.0
  0
LINE
  5
20CF
330
A
100
AcDbEntity
  8
HIDDEN
100
AcDbLine
 10
415.9966554154134
 20
2287.265125643374
 30
0.0
 11
415.9966554154134
 21
1840.265080510795
 31
0.0
  0
LINE
  5
20D0
330
A
100
AcDbEntity
  8
HIDDEN
100
AcDbLine
 10
875.9966553976974
 20
1840.265080510795
 30
0.0
 11
875.9966553976974
 21
2287.265125643374
 31
0.0
  0
SPLINE
  5
20D1
330
A
100
AcDbEntity
  8
HIDDEN
 48
0.5
100
AcDbSpline
210
0.0
220
0.0
230
1.0
 70
    11
 71
     3
 72
    17
 73
    13
 74
     0
 42
0.000000001
 43
0.0000000001
 40
0.0
 40
0.0
 40
0.0
 40
0.0
 40
1.0
 40
1.0
 40
1.0
 40
2.0
 40
2.0
 40
2.0
 40
3.0
 40
3.0
 40
3.0
 40
4.0
 40
4.0
 40
4.0
 40
4.0
 10
475.4957602859249
 20
2269.763658838976
 30
0.0
 10
465.831545816829
 20
2269.763658838976
 30
0.0
 10
457.9977536370816
 20
2277.597451018722
 30
0.0
 10
457.9977536370816
 20
2287.265125643374
 30
0.0
 10
457.9977536370816
 20
2296.92934011247
 30
0.0
 10
465.831545816829
 20
2304.763132292217
 30
0.0
 10
475.4957602859249
 20
2304.763132292217
 30
0.0
 10
485.1634349105771
 20
2304.763132292217
 30
0.0
 10
492.9989571681017
 20
2296.92934011247
 30
0.0
 10
492.9989571681017
 20
2287.265125643374
 30
0.0
 10
492.9989571681017
 20
2277.597451018722
 30
0.0
 10
485.1634349105771
 20
2269.763658838976
 30
0.0
 10
475.4957602859249
 20
2269.763658838976
 30
0.0
  0
SPLINE
  5
20D2
330
A
100
AcDbEntity
  8
HIDDEN
 48
0.5
100
AcDbSpline
210
0.0
220
0.0
230
1.0
 70
     8
 71
     3
 72
    11
 73
     7
 74
     0
 42
0.000000001
 43
0.0000000001
 40
0.0
 40
0.0
 40
0.0
 40
0.0
 40
1.0
 40
1.0
 40
1.0
 40
2.0
 40
2.0
 40
2.0
 40
2.0
 10
700.4491233980207
 20
2267.078578127189
 30
0.0
 10
711.5977446008228
 20
2273.168451906498
 30
0.0
 10
715.6945687796297
 20
2287.144020198899
 30
0.0
 10
709.6116153114335
 20
2298.292641401702
 30
0.0
 10
703.5182813765687
 20
2309.437802448947
 30
0.0
 10
689.5427130841676
 20
2313.538086783311
 30
0.0
 10
678.3975520369218
 20
2307.448213004003
 30
0.0
  0
SPLINE
  5
20D3
330
A
100
AcDbEntity
  8
HIDDEN
 48
0.5
100
AcDbSpline
210
0.0
220
0.0
230
1.0
 70
     8
 71
     3
 72
    11
 73
     7
 74
     0
 42
0.000000001
 43
0.0000000001
 40
0.0
 40
0.0
 40
0.0
 40
0.0
 40
1.0
 40
1.0
 40
1.0
 40
2.0
 40
2.0
 40
2.0
 40
2.0
 10
678.3975520369218
 20
2307.448213004003
 30
0.0
 10
667.2523909896754
 20
2301.358339224694
 30
0.0
 10
663.1486464997556
 20
2287.382770932293
 30
0.0
 10
669.2385202790647
 20
2276.237609885047
 30
0.0
 10
675.3283940583724
 20
2265.088988682245
 30
0.0
 10
689.3005021952176
 20
2260.988704347882
 30
0.0
 10
700.4491233980207
 20
2267.082038282746
 30
0.0
  0
SPLINE
  5
20EA
330
A
100
AcDbEntity
  8
HIDDEN
100
AcDbSpline
210
0.0
220
0.0
230
1.0
 70
     8
 71
     3
 72
     8
 73
     4
 74
     0
 42
0.000000001
 43
0.0000000001
 40
0.0
 40
0.0
 40
0.0
 40
0.0
 40
1.0
 40
1.0
 40
1.0
 40
1.0
 10
873.0001606858336
 20
2737.265125643374
 30
0.0
 10
874.6575751973605
 20
2737.265125643374
 30
0.0
 10
876.0001155532536
 20
2735.922585287481
 30
0.0
 10
876.0001155532536
 20
2734.265170775954
 30
0.0
  0
SPLINE
  5
20EB
330
A
100
AcDbEntity
  8
HIDDEN
100
AcDbSpline
210
0.0
220
0.0
230
1.0
 70
     8
 71
     3
 72
     8
 73
     4
 74
     0
 42
0.000000001
 43
0.0000000001
 40
0.0
 40
0.0
 40
0.0
 40
0.0
 40
1.0
 40
1.0
 40
1.0
 40
1.0
 10
415.9966554154134
 20
2734.265170775954
 30
0.0
 10
415.9966554154134
 20
2735.922585287481
 30
0.0
 10
417.3391957713065
 20
2737.265125643374
 30
0.0
 10
418.9983403606129
 20
2737.265125643374
 30
0.0
  0
LINE
  5
20EC
330
A
100
AcDbEntity
  8
HIDDEN
100
AcDbLine
 10
418.9966102828348
 20
2737.265125643374
 30
0.0
 11
873.0001606858336
 21
2737.265125643374
 31
0.0
  0
LINE
  5
20FC
330
A
100
AcDbEntity
  8
HIDDEN
100
AcDbLine
 10
415.9966554154134
 20
2287.265125643374
 30
0.0
 11
415.9966554154134
 21
2734.265170775954
 31
0.0
  0
LINE
  5
20FD
330
A
100
AcDbEntity
  8
HIDDEN
100
AcDbLine
 10
875.9966553976974
 20
2734.265170775954
 30
0.0
 11
875.9966553976974
 21
2287.265125643374
 31
0.0
  0
MTEXT
  5
2170
330
A
100
AcDbEntity
  8
Dim
390
1D
100
AcDbMText
 10
202.2176584281097
 20
2148.084473479917
 30
34.99521132346015
 40
24.0
 41
0.0
 46
27.413396484375
 71
     1
 72
     1
  1
{カウンター切込寸法}
  7
ＭＳ ゴシック
 11
6.123233995736766E-17
 21
1.0
 31
0.0
 73
     1
 44
0.7828267384257843
1001
ACAD
1000
ACAD_MTEXT_DEFINED_HEIGHT_BEGIN
1070
    46
1040
27.413396484375
1000
ACAD_MTEXT_DEFINED_HEIGHT_END
  0
HATCH
  5
2477
330
A
100
AcDbEntity
  8
Dim
  6
Continuous
100
AcDbHatch
 10
0.0
 20
0.0
 30
0.0
210
0.0
220
0.0
230
1.0
  2
SOLID
 70
     1
 71
     0
 91
        2
 92
        1
 93
        1
 72
     2
 10
3411.238563063667
 20
654.7341679592912
 40
113.8561191788032
 50
0.0
 51
360.0
 73
     1
 97
        0
 92
       16
 93
        1
 72
     2
 10
3411.238563063667
 20
654.7341679592912
 40
113.8561191788032
 50
0.0
 51
360.0
 73
     1
 97
        0
 75
     0
 76
     1
 98
        1
 10
2616.010975609755
 20
6087.912500654684
450
        1
451
        0
460
0.0
461
0.0
452
        1
462
0.0
453
        2
463
0.0
 63
   252
421
  9868950
463
1.0
 63
     7
421
 16777215
470
LINEAR
1001
ACAD
1010
0.0
1020
0.0
1030
0.0
  0
MTEXT
  5
25DA
330
A
100
AcDbEntity
  8
レイヤー 1
100
AcDbMText
 10
8318.574621091178
 20
-444.7563180047634
 30
0.0
 40
0.158758563512107
 41
0.0
 46
0.0
 71
     7
 72
     1
  1
\fMyriad Pro|b0|i0|c0|p34;\W1; 
 73
     1
 44
1.0
  0
DIMENSION
  5
26A4
330
A
100
AcDbEntity
  8
Dim
  6
Continuous
100
AcDbDimension
  2
*D68
 10
416.4968133750117
 20
472.9646752038373
 30
0.0
 11
468.4968133750117
 21
495.1809837975873
 31
0.0
 70
    32
 71
     5
 42
104.0
 73
     0
 74
     0
 75
     0
  3
JIS
100
AcDbAlignedDimension
 13
520.4968133750117
 23
566.8274404316899
 33
0.0
 14
416.4968133750117
 24
566.8274404316899
 34
0.0
100
AcDbRotatedDimension
1001
ACAD
1000
DSTYLE
1002
{
1070
   179
1070
     0
1070
   271
1070
     0
1070
    43
1040
25.0
1070
    44
1040
0.0
1070
    42
1040
25.0
1002
}
  0
DIMENSION
  5
26B7
330
A
100
AcDbEntity
  8
Dim
  6
Continuous
100
AcDbDimension
  2
*D69
 10
1745.045067717121
 20
1915.826761041885
 30
0.0
 11
1703.545067717121
 21
1938.043069635635
 31
0.0
 70
    32
 71
     5
 42
83.0
 73
     0
 74
     0
 75
     0
  3
JIS
100
AcDbAlignedDimension
 13
1662.045067717121
 23
1982.013694460858
 33
0.0
 14
1745.045067717121
 24
2155.144540273105
 34
0.0
100
AcDbRotatedDimension
1001
ACAD
1000
DSTYLE
1002
{
1070
   179
1070
     0
1070
   271
1070
     0
1070
    43
1040
25.0
1070
    44
1040
0.0
1070
    42
1040
25.0
1002
}
  0
MTEXT
  5
26D0
330
A
100
AcDbEntity
  8
Dim
390
1D
100
AcDbMText
 10
1075.839066912561
 20
2046.562918943861
 30
0.0
 40
24.4326171875
 41
890.5170655866978
 46
154.6791104731425
 71
     1
 72
     1
  1
{\pxr0.447879;※こちらの切込寸法は参考寸法です。\P\pr0;　製品に付属している型紙とは\P　一部寸法が異なりますので\P　加工を行う際はご注意ください。}
  7
ＭＳ ゴシック
 11
3.061616997868383E-16
 21
1.0
 31
0.0
 73
     1
 44
1.043768984567712
1001
ACAD
1000
ACAD_MTEXT_DEFINED_HEIGHT_BEGIN
1070
    46
1040
154.6791104731425
1000
ACAD_MTEXT_DEFINED_HEIGHT_END
  0
DIMENSION
  5
26D4
330
A
100
AcDbEntity
  8
Dim
  6
Continuous
100
AcDbDimension
  2
*D70
 10
856.1966117653733
 20
2807.204042409037
 30
0.0
 11
646.2628785873453
 21
2839.204042409037
 31
0.0
 70
    32
 71
     5
 42
419.867466356056
 73
     0
 74
     0
 75
     0
 52
-270.0
  3
tfrom線あり
100
AcDbAlignedDimension
 13
436.3291454093173
 23
2733.386495931919
 33
0.0
 14
856.1966117653733
 24
2734.598590614788
 34
0.0
 50
180.0
100
AcDbRotatedDimension
  0
DIMENSION
  5
26D5
330
A
100
AcDbEntity
  8
Dim
  6
Continuous
100
AcDbDimension
  2
*D71
 10
416.3291454093173
 20
2807.204042409037
 30
0.0
 11
365.880908954422
 21
2807.204042409037
 31
0.0
 70
   160
 71
     5
 42
20.0
 73
     0
 74
     1
 75
     1
 52
-270.0
  3
tfrom線あり
100
AcDbAlignedDimension
 13
436.3291454093173
 23
2709.517752592704
 33
0.0
 14
416.3291454093173
 24
2709.517752592704
 34
0.0
 50
180.0
100
AcDbRotatedDimension
1001
ACAD
1000
DSTYLE
1002
{
1070
   172
1070
     1
1002
}
  0
DIMENSION
  5
26D6
330
A
100
AcDbEntity
  8
Dim
  6
Continuous
100
AcDbDimension
  2
*D72
 10
312.6951531968111
 20
2176.928032347253
 30
0.0
 11
280.6951531968111
 21
2286.928108955202
 31
0.0
 70
    32
 71
     5
 42
220.0001532158994
 73
     0
 74
     0
 75
     0
  3
tfrom線あり
100
AcDbAlignedDimension
 13
409.1749096540561
 23
2396.928185563152
 33
0.0
 14
409.1749096540561
 24
2176.928032347253
 34
0.0
 50
90.0
100
AcDbRotatedDimension
  0
DIMENSION
  5
26D7
102
{ACAD_REACTORS
330
26D9
102
}
102
{ACAD_XDICTIONARY
360
26D8
102
}
330
A
100
AcDbEntity
  8
Dim
  6
Continuous
100
AcDbDimension
  2
*D73
 10
415.9968674613792
 20
2083.757037506775
 30
0.0
 11
366.8448674613792
 21
2083.757037506775
 31
0.0
 70
   160
 71
     5
 42
15.14189366579285
 73
     0
 74
     1
 75
     1
 52
-270.0
  3
tfrom線あり
100
AcDbAlignedDimension
 13
431.1387611271721
 23
2283.936809687928
 33
0.0
 14
415.9968674613792
 24
2287.265125643374
 34
0.0
 50
180.0
100
AcDbRotatedDimension
  0
DIMENSION
  5
26DA
330
A
100
AcDbEntity
  8
Dim
  6
Continuous
100
AcDbDimension
  2
*D74
 10
999.6243830254421
 20
1857.248454131818
 30
0.0
 11
967.6243830254421
 21
2287.406805288672
 31
0.0
 70
    32
 71
     5
 42
860.3167023137094
 73
     0
 74
     0
 75
     0
  3
tfrom線あり
100
AcDbAlignedDimension
 13
846.0063903950881
 23
2717.565156445527
 33
0.0
 14
846.0063903950881
 24
1857.248454131818
 34
0.0
 50
90.0
100
AcDbRotatedDimension
  0
MTEXT
  5
26DB
330
A
100
AcDbEntity
  8
Dim
  6
Continuous
100
AcDbMText
 10
760.0135080603213
 20
1806.197646210059
 30
0.0
 40
24.0
 41
0.0
 46
0.0
 71
     9
 72
     1
  1
R10
  7
ＭＳ ゴシック
 11
6.123233995736766E-17
 21
1.0
 31
0.0
 73
     1
 44
0.25
  0
LEADER
  5
26DC
102
{ACAD_XDICTIONARY
360
26DD
102
}
330
A
100
AcDbEntity
  8
Dim
  6
Continuous
100
AcDbLeader
  3
tfrom線あり
 73
     0
 74
     0
 40
24.0
 41
44.112
 76
     3
 10
853.0736639357724
 20
1860.176098206533
 30
0.0
 10
780.0135080603213
 20
1814.50748652932
 30
0.0
 10
780.0135080603213
 20
1807.602371911161
 30
0.0
340
26DB
211
6.123233995736766E-17
221
-1.0
231
0.0
  0
LINE
  5
26DE
102
{ACAD_REACTORS
330
26F1
102
}
330
A
100
AcDbEntity
  8
MODEL
100
AcDbLine
 10
846.0063903950881
 20
1857.248454131818
 30
0.0
 11
847.9566602358714
 21
1857.44000156716
 31
0.0
  0
LINE
  5
26DF
102
{ACAD_REACTORS
330
26F1
102
}
330
A
100
AcDbEntity
  8
MODEL
100
AcDbLine
 10
847.9566602358714
 20
1857.44000156716
 30
0.0
 11
849.8328604748581
 21
1858.008614952113
 31
0.0
  0
LINE
  5
26E0
102
{ACAD_REACTORS
330
26F1
102
}
330
A
100
AcDbEntity
  8
MODEL
100
AcDbLine
 10
849.8328604748581
 20
1858.008614952113
 30
0.0
 11
851.560577000474
 21
1858.932762425684
 31
0.0
  0
LINE
  5
26E1
102
{ACAD_REACTORS
330
26F1
102
}
330
A
100
AcDbEntity
  8
MODEL
100
AcDbLine
 10
851.560577000474
 20
1858.932762425684
 30
0.0
 11
853.0736639357724
 21
1860.176098206533
 31
0.0
  0
LINE
  5
26E2
102
{ACAD_REACTORS
330
26F1
102
}
330
A
100
AcDbEntity
  8
MODEL
100
AcDbLine
 10
853.0736639357724
 20
1860.176098206533
 30
0.0
 11
854.3187222654992
 21
1861.69090769071
 31
0.0
  0
LINE
  5
26E3
102
{ACAD_REACTORS
330
26F1
102
}
330
A
100
AcDbEntity
  8
MODEL
100
AcDbLine
 10
854.3187222654992
 20
1861.69090769071
 30
0.0
 11
855.2426974841851
 21
1863.419140980989
 31
0.0
  0
LINE
  5
26E4
102
{ACAD_REACTORS
330
26F1
102
}
330
A
100
AcDbEntity
  8
MODEL
100
AcDbLine
 10
855.2426974841851
 20
1863.419140980989
 30
0.0
 11
855.8104495946973
 21
1865.294479945536
 31
0.0
  0
LINE
  5
26E5
102
{ACAD_REACTORS
330
26F1
102
}
330
A
100
AcDbEntity
  8
MODEL
100
AcDbLine
 10
855.8104495946973
 20
1865.294479945536
 30
0.0
 11
856.0009635007132
 21
1867.244749786319
 31
0.0
  0
LINE
  5
26E6
102
{ACAD_REACTORS
330
26F1
102
}
330
A
100
AcDbEntity
  8
MODEL
100
AcDbLine
 10
446.1335491186992
 20
1857.248454131818
 30
0.0
 11
846.0063903950881
 21
1857.248454131818
 31
0.0
  0
LINE
  5
26E7
102
{ACAD_REACTORS
330
26F1
102
}
330
A
100
AcDbEntity
  8
MODEL
100
AcDbLine
 10
436.1369089544223
 20
1867.244749786319
 30
0.0
 11
436.3291454093173
 21
1865.294479945536
 31
0.0
  0
LINE
  5
26E8
102
{ACAD_REACTORS
330
26F1
102
}
330
A
100
AcDbEntity
  8
MODEL
100
AcDbLine
 10
436.3291454093173
 20
1865.294479945536
 30
0.0
 11
436.8977587942691
 21
1863.419140980989
 31
0.0
  0
LINE
  5
26E9
102
{ACAD_REACTORS
330
26F1
102
}
330
A
100
AcDbEntity
  8
MODEL
100
AcDbLine
 10
436.8977587942691
 20
1863.419140980989
 30
0.0
 11
437.8213895031781
 21
1861.69090769071
 31
0.0
  0
LINE
  5
26EA
102
{ACAD_REACTORS
330
26F1
102
}
330
A
100
AcDbEntity
  8
MODEL
100
AcDbLine
 10
437.8213895031781
 20
1861.69090769071
 30
0.0
 11
439.0648975389131
 21
1860.176098206533
 31
0.0
  0
LINE
  5
26EB
102
{ACAD_REACTORS
330
26F1
102
}
330
A
100
AcDbEntity
  8
MODEL
100
AcDbLine
 10
439.0648975389131
 20
1860.176098206533
 30
0.0
 11
440.5797070230901
 21
1858.932762425684
 31
0.0
  0
LINE
  5
26EC
102
{ACAD_REACTORS
330
26F1
102
}
330
A
100
AcDbEntity
  8
MODEL
100
AcDbLine
 10
440.5797070230901
 20
1858.932762425684
 30
0.0
 11
442.307940313372
 21
1858.008614952113
 31
0.0
  0
LINE
  5
26ED
102
{ACAD_REACTORS
330
26F1
102
}
330
A
100
AcDbEntity
  8
MODEL
100
AcDbLine
 10
442.307940313372
 20
1858.008614952113
 30
0.0
 11
444.1832792779182
 21
1857.44000156716
 31
0.0
  0
LINE
  5
26EE
102
{ACAD_REACTORS
330
26F1
102
}
330
A
100
AcDbEntity
  8
MODEL
100
AcDbLine
 10
444.1832792779182
 20
1857.44000156716
 30
0.0
 11
446.1335491186992
 21
1857.248454131818
 31
0.0
  0
LINE
  5
26EF
102
{ACAD_REACTORS
330
26F1
102
}
330
A
100
AcDbEntity
  8
MODEL
100
AcDbLine
 10
436.1369089544223
 20
1867.244749786319
 30
0.0
 11
436.1369089544223
 21
2157.787069204016
 31
0.0
  0
LINE
  5
26F0
102
{ACAD_REACTORS
330
26F1
102
}
330
A
100
AcDbEntity
  8
MODEL
100
AcDbLine
 10
856.0044085984682
 20
2707.567138242147
 30
0.0
 11
856.0009635007132
 21
1867.244749786319
 31
0.0
  0
HATCH
  5
26F1
330
A
100
AcDbEntity
  8
Dim
  6
Continuous
100
AcDbHatch
 10
0.0
 20
0.0
 30
0.0
210
0.0
220
0.0
230
1.0
  2
ANSI31
 70
     0
 71
     1
 91
        2
 92
        1
 93
       70
 72
     1
 10
846.0063903950881
 20
2717.565156445527
 11
847.9563157260941
 21
2717.371197441754
 72
     1
 10
847.9563157260941
 20
2717.371197441754
 11
849.8328604748563
 21
2716.803100821465
 72
     1
 10
849.8328604748563
 20
2716.803100821465
 11
851.560577000474
 21
2715.879470112558
 72
     1
 10
851.560577000474
 20
2715.879470112558
 11
853.0774535433043
 21
2714.638201390364
 72
     1
 10
853.0774535433043
 20
2714.638201390364
 11
854.3187222654974
 21
2713.121324847532
 72
     1
 10
854.3187222654974
 20
2713.121324847532
 11
855.2426974841833
 21
2711.393263812138
 72
     1
 10
855.2426974841833
 20
2711.393263812138
 11
855.810449594695
 21
2709.517408082931
 72
     1
 10
855.810449594695
 20
2709.517408082931
 11
856.0044085984682
 21
2707.567138242147
 72
     1
 10
856.0044085984682
 20
2707.567138242147
 11
856.0009635007132
 21
1867.244749786319
 72
     1
 10
446.1335491186992
 20
2717.565156445527
 11
846.0063903950881
 21
2717.565156445527
 72
     1
 10
444.1832792779182
 20
2717.371197441754
 11
446.1335491186992
 21
2717.565156445527
 72
     1
 10
442.307940313372
 20
2716.803445331243
 11
444.1832792779182
 21
2717.371197441754
 72
     1
 10
440.5797070230901
 20
2715.879470112558
 11
442.307940313372
 21
2716.803445331243
 72
     1
 10
439.0648975389131
 20
2714.638201390364
 11
440.5797070230901
 21
2715.879470112558
 72
     1
 10
437.8213895031781
 20
2713.121324847536
 11
439.0648975389131
 21
2714.638201390364
 72
     1
 10
436.8977587942691
 20
2711.393263812138
 11
437.8213895031781
 21
2713.121324847536
 72
     1
 10
436.3291454093173
 20
2709.517752592704
 11
436.8977587942691
 21
2711.393263812138
 72
     1
 10
436.1369089544223
 20
2707.567138242147
 11
436.3291454093173
 21
2709.517752592704
 72
     1
 10
436.1369089544223
 20
2707.567138242147
 11
436.1369089544223
 21
2416.432262010077
 72
     1
 10
436.1167551325393
 20
2415.801120100819
 11
436.1369089544223
 21
2416.432262010077
 72
     1
 10
436.0569826864394
 20
2415.173078779544
 11
436.1167551325393
 21
2415.801120100819
 72
     1
 10
435.9579361258961
 20
2414.549171575576
 11
436.0569826864394
 21
2415.173078779544
 72
     1
 10
435.8192709411392
 20
2413.935255155105
 11
435.9579361258961
 21
2414.549171575576
 72
     1
 10
435.642192916378
 20
2413.328917949706
 11
435.8192709411392
 21
2413.935255155105
 72
     1
 10
435.4270465613954
 20
2412.736361135335
 11
435.642192916378
 21
2413.328917949706
 72
     1
 10
435.1755544250641
 20
2412.154484124017
 11
435.4270465613954
 21
2412.736361135335
 72
     1
 10
434.88737199761
 20
2411.593966718795
 11
435.1755544250641
 21
2412.154484124017
 72
     1
 10
434.0229969701372
 20
2409.90793587605
 11
434.88737199761
 21
2411.593966718795
 72
     1
 10
433.2666257573783
 20
2408.172984645139
 11
434.0229969701372
 21
2409.90793587605
 72
     1
 10
432.6217034570873
 20
2406.391869104274
 11
433.2666257573783
 21
2408.172984645139
 72
     1
 10
432.0904693828102
 20
2404.572168468519
 11
432.6217034570873
 21
2406.391869104274
 72
     1
 10
431.6751628480861
 20
2402.724218031147
 11
432.0904693828102
 21
2404.572168468519
 72
     1
 10
431.3775064017982
 20
2400.854907987677
 11
431.6751628480861
 21
2402.724218031147
 72
     1
 10
431.1980168086102
 20
2398.968372455419
 11
431.3775064017982
 21
2400.854907987677
 72
     1
 10
431.1387611271721
 20
2397.074602217866
 11
431.1980168086102
 21
2398.968372455419
 72
     1
 10
431.1387611271721
 20
2177.145762525558
 11
431.1387611271721
 21
2397.074602217866
 72
     1
 10
431.1387611271721
 20
2177.145762525558
 11
431.1980168086102
 21
2175.252681307556
 72
     1
 10
431.1980168086102
 20
2175.252681307556
 11
431.3775064017982
 21
2173.366662539961
 72
     1
 10
431.3775064017982
 20
2173.366662539961
 11
431.6751628480861
 21
2171.496318967161
 72
     1
 10
431.6751628480861
 20
2171.496318967161
 11
432.0904693828102
 21
2169.648024020017
 72
     1
 10
432.0904693828102
 20
2169.648024020017
 11
432.6217034570873
 21
2167.829873678252
 72
     1
 10
432.6217034570873
 20
2167.829873678252
 11
433.2666257573783
 21
2166.049102647161
 72
     1
 10
433.2666257573783
 20
2166.049102647161
 11
434.0229969701372
 21
2164.311567592932
 72
     1
 10
434.0229969701372
 20
2164.311567592932
 11
434.88737199761
 21
2162.626742534404
 72
     1
 10
434.88737199761
 20
2162.626742534404
 11
435.1755544250641
 21
2162.065191599856
 72
     1
 10
435.1755544250641
 20
2162.065191599856
 11
435.4270465613954
 21
2161.48555390208
 72
     1
 10
435.4270465613954
 20
2161.48555390208
 11
435.642192916378
 21
2160.892480323042
 72
     1
 10
435.642192916378
 20
2160.892480323042
 11
435.8192709411392
 21
2160.285798607866
 72
     1
 10
435.8192709411392
 20
2160.285798607866
 11
435.9579361258961
 21
2159.67015963852
 72
     1
 10
435.9579361258961
 20
2159.67015963852
 11
436.0569826864394
 21
2159.046080179666
 72
     1
 10
436.0569826864394
 20
2159.046080179666
 11
436.1167551325393
 21
2158.418038858389
 72
     1
 10
436.1167551325393
 20
2158.418038858389
 11
436.1369089544223
 21
2157.787069204016
 72
     1
 10
436.1369089544223
 20
1867.244749786319
 11
436.1369089544223
 21
2157.787069204016
 72
     1
 10
436.1369089544223
 20
1867.244749786319
 11
436.3291454093173
 21
1865.294479945536
 72
     1
 10
436.3291454093173
 20
1865.294479945536
 11
436.8977587942691
 21
1863.419140980989
 72
     1
 10
436.8977587942691
 20
1863.419140980989
 11
437.8213895031781
 21
1861.69090769071
 72
     1
 10
437.8213895031781
 20
1861.69090769071
 11
439.0648975389131
 21
1860.176098206533
 72
     1
 10
439.0648975389131
 20
1860.176098206533
 11
440.5797070230901
 21
1858.932762425684
 72
     1
 10
440.5797070230901
 20
1858.932762425684
 11
442.307940313372
 21
1858.008614952113
 72
     1
 10
442.307940313372
 20
1858.008614952113
 11
444.1832792779182
 21
1857.44000156716
 72
     1
 10
444.1832792779182
 20
1857.44000156716
 11
446.1335491186992
 21
1857.248454131818
 72
     1
 10
446.1335491186992
 20
1857.248454131818
 11
846.0063903950881
 21
1857.248454131818
 72
     1
 10
846.0063903950881
 20
1857.248454131818
 11
847.9566602358714
 21
1857.44000156716
 72
     1
 10
847.9566602358714
 20
1857.44000156716
 11
849.8328604748581
 21
1858.008614952113
 72
     1
 10
849.8328604748581
 20
1858.008614952113
 11
851.560577000474
 21
1858.932762425684
 72
     1
 10
851.560577000474
 20
1858.932762425684
 11
853.0736639357724
 21
1860.176098206533
 72
     1
 10
853.0736639357724
 20
1860.176098206533
 11
854.3187222654992
 21
1861.69090769071
 72
     1
 10
854.3187222654992
 20
1861.69090769071
 11
855.2426974841851
 21
1863.419140980989
 72
     1
 10
855.2426974841851
 20
1863.419140980989
 11
855.8104495946973
 21
1865.294479945536
 72
     1
 10
855.8104495946973
 20
1865.294479945536
 11
856.0009635007132
 21
1867.244749786319
 97
       70
330
26FD
330
26FE
330
26FF
330
2700
330
2701
330
2702
330
2703
330
2704
330
26F0
330
2705
330
26F9
330
26F8
330
26F7
330
26F6
330
26F5
330
26F4
330
26F3
330
26F2
330
26FC
330
2716
330
2715
330
2714
330
2713
330
2712
330
2711
330
2710
330
270F
330
270E
330
270D
330
270C
330
270B
330
270A
330
2709
330
2708
330
2707
330
2706
330
271F
330
2720
330
2721
330
2722
330
2723
330
2724
330
2725
330
2726
330
2717
330
2718
330
2719
330
271A
330
271B
330
271C
330
271D
330
271E
330
26EF
330
26E7
330
26E8
330
26E9
330
26EA
330
26EB
330
26EC
330
26ED
330
26EE
330
26E6
330
26DE
330
26DF
330
26E0
330
26E1
330
26E2
330
26E3
330
26E4
330
26E5
 92
        1
 93
        2
 72
     1
 10
446.1335491186992
 20
2717.565156445527
 11
446.1335491186992
 21
2717.565156445527
 72
     1
 10
446.1335491186992
 20
2717.565156445527
 11
446.1335491186992
 21
2717.565156445527
 97
        2
330
26FA
330
26FB
 75
     0
 76
     1
 52
0.0
 41
5.0
 77
     0
 78
     1
 53
45.0
 43
-2053.551801124119
 44
9016.966738809711
 45
-11.22532015133644
 46
11.22532015133644
 79
     0
 98
        1
 10
-2053.551801124119
 20
9016.966738809711
1001
ACAD
1010
0.0
1020
0.0
1030
0.0
  0
LINE
  5
26F2
102
{ACAD_REACTORS
330
26F1
102
}
330
A
100
AcDbEntity
  8
MODEL
100
AcDbLine
 10
436.1369089544223
 20
2707.567138242147
 30
0.0
 11
436.3291454093173
 21
2709.517752592704
 31
0.0
  0
LINE
  5
26F3
102
{ACAD_REACTORS
330
26F1
102
}
330
A
100
AcDbEntity
  8
MODEL
100
AcDbLine
 10
436.3291454093173
 20
2709.517752592704
 30
0.0
 11
436.8977587942691
 21
2711.393263812138
 31
0.0
  0
LINE
  5
26F4
102
{ACAD_REACTORS
330
26F1
102
}
330
A
100
AcDbEntity
  8
MODEL
100
AcDbLine
 10
436.8977587942691
 20
2711.393263812138
 30
0.0
 11
437.8213895031781
 21
2713.121324847536
 31
0.0
  0
LINE
  5
26F5
102
{ACAD_REACTORS
330
26F1
102
}
330
A
100
AcDbEntity
  8
MODEL
100
AcDbLine
 10
437.8213895031781
 20
2713.121324847536
 30
0.0
 11
439.0648975389131
 21
2714.638201390364
 31
0.0
  0
LINE
  5
26F6
102
{ACAD_REACTORS
330
26F1
102
}
330
A
100
AcDbEntity
  8
MODEL
100
AcDbLine
 10
439.0648975389131
 20
2714.638201390364
 30
0.0
 11
440.5797070230901
 21
2715.879470112558
 31
0.0
  0
LINE
  5
26F7
102
{ACAD_REACTORS
330
26F1
102
}
330
A
100
AcDbEntity
  8
MODEL
100
AcDbLine
 10
440.5797070230901
 20
2715.879470112558
 30
0.0
 11
442.307940313372
 21
2716.803445331243
 31
0.0
  0
LINE
  5
26F8
102
{ACAD_REACTORS
330
26F1
102
}
330
A
100
AcDbEntity
  8
MODEL
100
AcDbLine
 10
442.307940313372
 20
2716.803445331243
 30
0.0
 11
444.1832792779182
 21
2717.371197441754
 31
0.0
  0
LINE
  5
26F9
102
{ACAD_REACTORS
330
26F1
102
}
330
A
100
AcDbEntity
  8
MODEL
100
AcDbLine
 10
444.1832792779182
 20
2717.371197441754
 30
0.0
 11
446.1335491186992
 21
2717.565156445527
 31
0.0
  0
LINE
  5
26FA
102
{ACAD_REACTORS
330
26F1
102
}
330
A
100
AcDbEntity
  8
MODEL
100
AcDbLine
 10
446.1335491186992
 20
2717.565156445527
 30
0.0
 11
446.1335491186992
 21
2717.565156445527
 31
0.0
  0
LINE
  5
26FB
102
{ACAD_REACTORS
330
26F1
102
}
330
A
100
AcDbEntity
  8
MODEL
100
AcDbLine
 10
446.1335491186992
 20
2717.565156445527
 30
0.0
 11
446.1335491186992
 21
2717.565156445527
 31
0.0
  0
LINE
  5
26FC
102
{ACAD_REACTORS
330
26F1
102
}
330
A
100
AcDbEntity
  8
MODEL
100
AcDbLine
 10
436.1369089544223
 20
2707.567138242147
 30
0.0
 11
436.1369089544223
 21
2416.432262010077
 31
0.0
  0
LINE
  5
26FD
102
{ACAD_REACTORS
330
26F1
102
}
330
A
100
AcDbEntity
  8
MODEL
100
AcDbLine
 10
846.0063903950881
 20
2717.565156445527
 30
0.0
 11
847.9563157260941
 21
2717.371197441754
 31
0.0
  0
LINE
  5
26FE
102
{ACAD_REACTORS
330
26F1
102
}
330
A
100
AcDbEntity
  8
MODEL
100
AcDbLine
 10
847.9563157260941
 20
2717.371197441754
 30
0.0
 11
849.8328604748563
 21
2716.803100821465
 31
0.0
  0
LINE
  5
26FF
102
{ACAD_REACTORS
330
26F1
102
}
330
A
100
AcDbEntity
  8
MODEL
100
AcDbLine
 10
849.8328604748563
 20
2716.803100821465
 30
0.0
 11
851.560577000474
 21
2715.879470112558
 31
0.0
  0
LINE
  5
2700
102
{ACAD_REACTORS
330
26F1
102
}
330
A
100
AcDbEntity
  8
MODEL
100
AcDbLine
 10
851.560577000474
 20
2715.879470112558
 30
0.0
 11
853.0774535433043
 21
2714.638201390364
 31
0.0
  0
LINE
  5
2701
102
{ACAD_REACTORS
330
26F1
102
}
330
A
100
AcDbEntity
  8
MODEL
100
AcDbLine
 10
853.0774535433043
 20
2714.638201390364
 30
0.0
 11
854.3187222654974
 21
2713.121324847532
 31
0.0
  0
LINE
  5
2702
102
{ACAD_REACTORS
330
26F1
102
}
330
A
100
AcDbEntity
  8
MODEL
100
AcDbLine
 10
854.3187222654974
 20
2713.121324847532
 30
0.0
 11
855.2426974841833
 21
2711.393263812138
 31
0.0
  0
LINE
  5
2703
102
{ACAD_REACTORS
330
26F1
102
}
330
A
100
AcDbEntity
  8
MODEL
100
AcDbLine
 10
855.2426974841833
 20
2711.393263812138
 30
0.0
 11
855.810449594695
 21
2709.517408082931
 31
0.0
  0
LINE
  5
2704
102
{ACAD_REACTORS
330
26F1
102
}
330
A
100
AcDbEntity
  8
MODEL
100
AcDbLine
 10
855.810449594695
 20
2709.517408082931
 30
0.0
 11
856.0044085984682
 21
2707.567138242147
 31
0.0
  0
LINE
  5
2705
102
{ACAD_REACTORS
330
26F1
102
}
330
A
100
AcDbEntity
  8
MODEL
100
AcDbLine
 10
446.1335491186992
 20
2717.565156445527
 30
0.0
 11
846.0063903950881
 21
2717.565156445527
 31
0.0
  0
LINE
  5
2706
102
{ACAD_REACTORS
330
26D9
330
26F1
102
}
330
A
100
AcDbEntity
  8
MODEL
100
AcDbLine
 10
431.1387611271721
 20
2177.145762525558
 30
0.0
 11
431.1387611271721
 21
2397.074602217866
 31
0.0
  0
LINE
  5
2707
102
{ACAD_REACTORS
330
26F1
102
}
330
A
100
AcDbEntity
  8
MODEL
100
AcDbLine
 10
431.1387611271721
 20
2397.074602217866
 30
0.0
 11
431.1980168086102
 21
2398.968372455419
 31
0.0
  0
LINE
  5
2708
102
{ACAD_REACTORS
330
26F1
102
}
330
A
100
AcDbEntity
  8
MODEL
100
AcDbLine
 10
431.1980168086102
 20
2398.968372455419
 30
0.0
 11
431.3775064017982
 21
2400.854907987677
 31
0.0
  0
LINE
  5
2709
102
{ACAD_REACTORS
330
26F1
102
}
330
A
100
AcDbEntity
  8
MODEL
100
AcDbLine
 10
431.3775064017982
 20
2400.854907987677
 30
0.0
 11
431.6751628480861
 21
2402.724218031147
 31
0.0
  0
LINE
  5
270A
102
{ACAD_REACTORS
330
26F1
102
}
330
A
100
AcDbEntity
  8
MODEL
100
AcDbLine
 10
431.6751628480861
 20
2402.724218031147
 30
0.0
 11
432.0904693828102
 21
2404.572168468519
 31
0.0
  0
LINE
  5
270B
102
{ACAD_REACTORS
330
26F1
102
}
330
A
100
AcDbEntity
  8
MODEL
100
AcDbLine
 10
432.0904693828102
 20
2404.572168468519
 30
0.0
 11
432.6217034570873
 21
2406.391869104274
 31
0.0
  0
LINE
  5
270C
102
{ACAD_REACTORS
330
26F1
102
}
330
A
100
AcDbEntity
  8
MODEL
100
AcDbLine
 10
432.6217034570873
 20
2406.391869104274
 30
0.0
 11
433.2666257573783
 21
2408.172984645139
 31
0.0
  0
LINE
  5
270D
102
{ACAD_REACTORS
330
26F1
102
}
330
A
100
AcDbEntity
  8
MODEL
100
AcDbLine
 10
433.2666257573783
 20
2408.172984645139
 30
0.0
 11
434.0229969701372
 21
2409.90793587605
 31
0.0
  0
LINE
  5
270E
102
{ACAD_REACTORS
330
26F1
102
}
330
A
100
AcDbEntity
  8
MODEL
100
AcDbLine
 10
434.0229969701372
 20
2409.90793587605
 30
0.0
 11
434.88737199761
 21
2411.593966718795
 31
0.0
  0
LINE
  5
270F
102
{ACAD_REACTORS
330
26F1
102
}
330
A
100
AcDbEntity
  8
MODEL
100
AcDbLine
 10
434.88737199761
 20
2411.593966718795
 30
0.0
 11
435.1755544250641
 21
2412.154484124017
 31
0.0
  0
LINE
  5
2710
102
{ACAD_REACTORS
330
26F1
102
}
330
A
100
AcDbEntity
  8
MODEL
100
AcDbLine
 10
435.1755544250641
 20
2412.154484124017
 30
0.0
 11
435.4270465613954
 21
2412.736361135335
 31
0.0
  0
LINE
  5
2711
102
{ACAD_REACTORS
330
26F1
102
}
330
A
100
AcDbEntity
  8
MODEL
100
AcDbLine
 10
435.4270465613954
 20
2412.736361135335
 30
0.0
 11
435.642192916378
 21
2413.328917949706
 31
0.0
  0
LINE
  5
2712
102
{ACAD_REACTORS
330
26F1
102
}
330
A
100
AcDbEntity
  8
MODEL
100
AcDbLine
 10
435.642192916378
 20
2413.328917949706
 30
0.0
 11
435.8192709411392
 21
2413.935255155105
 31
0.0
  0
LINE
  5
2713
102
{ACAD_REACTORS
330
26F1
102
}
330
A
100
AcDbEntity
  8
MODEL
100
AcDbLine
 10
435.8192709411392
 20
2413.935255155105
 30
0.0
 11
435.9579361258961
 21
2414.549171575576
 31
0.0
  0
LINE
  5
2714
102
{ACAD_REACTORS
330
26F1
102
}
330
A
100
AcDbEntity
  8
MODEL
100
AcDbLine
 10
435.9579361258961
 20
2414.549171575576
 30
0.0
 11
436.0569826864394
 21
2415.173078779544
 31
0.0
  0
LINE
  5
2715
102
{ACAD_REACTORS
330
26F1
102
}
330
A
100
AcDbEntity
  8
MODEL
100
AcDbLine
 10
436.0569826864394
 20
2415.173078779544
 30
0.0
 11
436.1167551325393
 21
2415.801120100819
 31
0.0
  0
LINE
  5
2716
102
{ACAD_REACTORS
330
26F1
102
}
330
A
100
AcDbEntity
  8
MODEL
100
AcDbLine
 10
436.1167551325393
 20
2415.801120100819
 30
0.0
 11
436.1369089544223
 21
2416.432262010077
 31
0.0
  0
LINE
  5
2717
102
{ACAD_REACTORS
330
26F1
102
}
330
A
100
AcDbEntity
  8
MODEL
100
AcDbLine
 10
434.88737199761
 20
2162.626742534404
 30
0.0
 11
435.1755544250641
 21
2162.065191599856
 31
0.0
  0
LINE
  5
2718
102
{ACAD_REACTORS
330
26F1
102
}
330
A
100
AcDbEntity
  8
MODEL
100
AcDbLine
 10
435.1755544250641
 20
2162.065191599856
 30
0.0
 11
435.4270465613954
 21
2161.48555390208
 31
0.0
  0
LINE
  5
2719
102
{ACAD_REACTORS
330
26F1
102
}
330
A
100
AcDbEntity
  8
MODEL
100
AcDbLine
 10
435.4270465613954
 20
2161.48555390208
 30
0.0
 11
435.642192916378
 21
2160.892480323042
 31
0.0
  0
LINE
  5
271A
102
{ACAD_REACTORS
330
26F1
102
}
330
A
100
AcDbEntity
  8
MODEL
100
AcDbLine
 10
435.642192916378
 20
2160.892480323042
 30
0.0
 11
435.8192709411392
 21
2160.285798607866
 31
0.0
  0
LINE
  5
271B
102
{ACAD_REACTORS
330
26F1
102
}
330
A
100
AcDbEntity
  8
MODEL
100
AcDbLine
 10
435.8192709411392
 20
2160.285798607866
 30
0.0
 11
435.9579361258961
 21
2159.67015963852
 31
0.0
  0
LINE
  5
271C
102
{ACAD_REACTORS
330
26F1
102
}
330
A
100
AcDbEntity
  8
MODEL
100
AcDbLine
 10
435.9579361258961
 20
2159.67015963852
 30
0.0
 11
436.0569826864394
 21
2159.046080179666
 31
0.0
  0
LINE
  5
271D
102
{ACAD_REACTORS
330
26F1
102
}
330
A
100
AcDbEntity
  8
MODEL
100
AcDbLine
 10
436.0569826864394
 20
2159.046080179666
 30
0.0
 11
436.1167551325393
 21
2158.418038858389
 31
0.0
  0
LINE
  5
271E
102
{ACAD_REACTORS
330
26F1
102
}
330
A
100
AcDbEntity
  8
MODEL
100
AcDbLine
 10
436.1167551325393
 20
2158.418038858389
 30
0.0
 11
436.1369089544223
 21
2157.787069204016
 31
0.0
  0
LINE
  5
271F
102
{ACAD_REACTORS
330
26F1
102
}
330
A
100
AcDbEntity
  8
MODEL
100
AcDbLine
 10
431.1387611271721
 20
2177.145762525558
 30
0.0
 11
431.1980168086102
 21
2175.252681307556
 31
0.0
  0
LINE
  5
2720
102
{ACAD_REACTORS
330
26F1
102
}
330
A
100
AcDbEntity
  8
MODEL
100
AcDbLine
 10
431.1980168086102
 20
2175.252681307556
 30
0.0
 11
431.3775064017982
 21
2173.366662539961
 31
0.0
  0
LINE
  5
2721
102
{ACAD_REACTORS
330
26F1
102
}
330
A
100
AcDbEntity
  8
MODEL
100
AcDbLine
 10
431.3775064017982
 20
2173.366662539961
 30
0.0
 11
431.6751628480861
 21
2171.496318967161
 31
0.0
  0
LINE
  5
2722
102
{ACAD_REACTORS
330
26F1
102
}
330
A
100
AcDbEntity
  8
MODEL
100
AcDbLine
 10
431.6751628480861
 20
2171.496318967161
 30
0.0
 11
432.0904693828102
 21
2169.648024020017
 31
0.0
  0
LINE
  5
2723
102
{ACAD_REACTORS
330
26F1
102
}
330
A
100
AcDbEntity
  8
MODEL
100
AcDbLine
 10
432.0904693828102
 20
2169.648024020017
 30
0.0
 11
432.6217034570873
 21
2167.829873678252
 31
0.0
  0
LINE
  5
2724
102
{ACAD_REACTORS
330
26F1
102
}
330
A
100
AcDbEntity
  8
MODEL
100
AcDbLine
 10
432.6217034570873
 20
2167.829873678252
 30
0.0
 11
433.2666257573783
 21
2166.049102647161
 31
0.0
  0
LINE
  5
2725
102
{ACAD_REACTORS
330
26F1
102
}
330
A
100
AcDbEntity
  8
MODEL
100
AcDbLine
 10
433.2666257573783
 20
2166.049102647161
 30
0.0
 11
434.0229969701372
 21
2164.311567592932
 31
0.0
  0
LINE
  5
2726
102
{ACAD_REACTORS
330
26F1
102
}
330
A
100
AcDbEntity
  8
MODEL
100
AcDbLine
 10
434.0229969701372
 20
2164.311567592932
 30
0.0
 11
434.88737199761
 21
2162.626742534404
 31
0.0
  0
LINE
  5
27BD
102
{ACAD_REACTORS
330
27DF
102
}
330
A
100
AcDbEntity
  8
MODEL
  6
Continuous
100
AcDbLine
 10
1772.953221874465
 20
2214.769228627095
 30
0.0
 11
1772.953221874465
 21
2225.447832435951
 31
0.0
  0
LINE
  5
27BE
102
{ACAD_REACTORS
330
27DF
102
}
330
A
100
AcDbEntity
  8
MODEL
  6
Continuous
100
AcDbLine
 10
1752.320061088319
 20
2225.447832435951
 30
0.0
 11
1772.953221874465
 21
2225.447832435951
 31
0.0
  0
LINE
  5
27BF
102
{ACAD_REACTORS
330
27DF
102
}
330
A
100
AcDbEntity
  8
MODEL
  6
Continuous
100
AcDbLine
 10
1749.362839279902
 20
2225.447832435951
 30
0.0
 11
1775.910443682882
 21
2225.447832435951
 31
0.0
  0
LINE
  5
27C0
102
{ACAD_REACTORS
330
27DF
102
}
330
A
100
AcDbEntity
  8
MODEL
  6
Continuous
100
AcDbLine
 10
1749.362839279902
 20
2236.121518267977
 30
0.0
 11
1775.910443682882
 21
2236.121518267977
 31
0.0
  0
LINE
  5
27C1
102
{ACAD_REACTORS
330
27DF
102
}
330
A
100
AcDbEntity
  8
MODEL
  6
Continuous
100
AcDbLine
 10
1775.910443682882
 20
2225.447832435951
 30
0.0
 11
1775.910443682882
 21
2236.121518267977
 31
0.0
  0
LINE
  5
27C2
102
{ACAD_REACTORS
330
27DF
102
}
330
A
100
AcDbEntity
  8
MODEL
  6
Continuous
100
AcDbLine
 10
1770.459831858764
 20
2225.447832435951
 30
0.0
 11
1770.459831858764
 21
2236.121518267977
 31
0.0
  0
ARC
  5
27C3
102
{ACAD_REACTORS
330
27DF
102
}
330
A
100
AcDbEntity
  8
MODEL
  6
Continuous
100
AcDbCircle
 10
1592.278269338993
 20
2178.490773524707
 30
0.0
 40
189.8090773950268
100
AcDbArc
 50
17.67544820213448
 51
58.77671706062755
  0
LINE
  5
27C4
102
{ACAD_REACTORS
330
27DF
102
}
330
A
100
AcDbEntity
  8
MODEL
  6
Continuous
100
AcDbLine
 10
1641.88297545205
 20
2345.538164367877
 30
0.0
 11
1661.699662090371
 21
2330.296808434805
 31
0.0
  0
LINE
  5
27C5
102
{ACAD_REACTORS
330
27DF
102
}
330
A
100
AcDbEntity
  8
MODEL
  6
Continuous
100
AcDbLine
 10
1641.88297545205
 20
2345.538164367877
 30
0.0
 11
1645.6604735905
 21
2350.449636628957
 31
0.0
  0
LINE
  5
27C6
102
{ACAD_REACTORS
330
27DF
102
}
330
A
100
AcDbEntity
  8
MODEL
  6
Continuous
100
AcDbLine
 10
1645.6604735905
 20
2350.449636628957
 30
0.0
 11
1678.546322095933
 21
2325.042992579053
 31
0.0
  0
LINE
  5
27C7
102
{ACAD_REACTORS
330
27DF
102
}
330
A
100
AcDbEntity
  8
MODEL
  6
Continuous
100
AcDbLine
 10
1665.477160228822
 20
2335.208280695885
 30
0.0
 11
1661.699662090371
 21
2330.296808434805
 31
0.0
  0
LINE
  5
27C8
102
{ACAD_REACTORS
330
27DF
102
}
330
A
100
AcDbEntity
  8
MODEL
  6
Continuous
100
AcDbLine
 10
1645.6604735905
 20
2350.449636628957
 30
0.0
 11
1657.729733953342
 21
2366.14199048625
 31
0.0
  0
LINE
  5
27C9
102
{ACAD_REACTORS
330
27DF
102
}
330
A
100
AcDbEntity
  8
MODEL
  6
Continuous
100
AcDbLine
 10
1657.729733953342
 20
2366.14199048625
 30
0.0
 11
1683.249180758686
 21
2346.514543220509
 31
0.0
  0
LINE
  5
27CA
102
{ACAD_REACTORS
330
27DF
102
}
330
A
100
AcDbEntity
  8
MODEL
  6
Continuous
100
AcDbLine
 10
1683.249180758686
 20
2346.514543220509
 30
0.0
 11
1671.179920395844
 21
2330.822189363215
 31
0.0
  0
LINE
  5
27CB
102
{ACAD_REACTORS
330
27DF
102
}
330
A
100
AcDbEntity
  8
MODEL
  6
Continuous
100
AcDbLine
 10
1683.249180758686
 20
2346.514543220509
 30
0.0
 11
1690.670465519127
 21
2340.806704943658
 31
0.0
  0
LINE
  5
27CC
102
{ACAD_REACTORS
330
27DF
102
}
330
A
100
AcDbEntity
  8
MODEL
  6
Continuous
100
AcDbLine
 10
1690.670465519127
 20
2340.806704943658
 30
0.0
 11
1678.546322095933
 21
2325.042992579053
 31
0.0
  0
ARC
  5
27CD
102
{ACAD_REACTORS
330
27DF
102
}
330
A
100
AcDbEntity
  8
MODEL
  6
Continuous
100
AcDbCircle
 10
1584.113580762119
 20
2171.98314652434
 30
0.0
 40
179.8467656370586
100
AcDbArc
 50
20.89324675144695
 51
58.32681962272319
  0
LINE
  5
27CE
102
{ACAD_REACTORS
330
27DF
102
}
330
A
100
AcDbEntity
  8
MODEL
  6
Continuous
100
AcDbLine
 10
1780.136641481392
 20
2214.769228627095
 30
0.0
 11
1780.136641481392
 21
2161.458355348835
 31
0.0
  0
LINE
  5
27CF
102
{ACAD_REACTORS
330
27DF
102
}
330
A
100
AcDbEntity
  8
MODEL
  6
Continuous
100
AcDbLine
 10
1745.136641481392
 20
2214.769228627095
 30
0.0
 11
1780.136641481392
 21
2214.769228627095
 31
0.0
  0
LINE
  5
27D0
102
{ACAD_REACTORS
330
27DF
102
}
330
A
100
AcDbEntity
  8
MODEL
  6
Continuous
100
AcDbLine
 10
1745.136641481392
 20
2161.458355348835
 30
0.0
 11
1780.136641481392
 21
2161.458355348835
 31
0.0
  0
LINE
  5
27D1
102
{ACAD_REACTORS
330
27DF
102
}
330
A
100
AcDbEntity
  8
MODEL
  6
Continuous
100
AcDbLine
 10
1752.320061088319
 20
2214.769228627095
 30
0.0
 11
1752.320061088319
 21
2225.447832435951
 31
0.0
  0
LINE
  5
27D2
102
{ACAD_REACTORS
330
27DF
102
}
330
A
100
AcDbEntity
  8
MODEL
  6
Continuous
100
AcDbLine
 10
1749.362839279902
 20
2225.447832435951
 30
0.0
 11
1749.362839279902
 21
2236.121518267977
 31
0.0
  0
LINE
  5
27D3
102
{ACAD_REACTORS
330
27DF
102
}
330
A
100
AcDbEntity
  8
MODEL
  6
Continuous
100
AcDbLine
 10
1754.813451104021
 20
2225.447832435951
 30
0.0
 11
1754.813451104021
 21
2236.121518267977
 31
0.0
  0
LINE
  5
27D4
102
{ACAD_REACTORS
330
27DF
102
}
330
A
100
AcDbEntity
  8
MODEL
  6
Continuous
100
AcDbLine
 10
1745.136641481392
 20
2161.458355348835
 30
0.0
 11
1745.136641481392
 21
2214.769228627095
 31
0.0
  0
LINE
  5
27D5
102
{ACAD_REACTORS
330
27E0
102
}
330
A
100
AcDbEntity
  8
MODEL
100
AcDbLine
 10
1748.303269629424
 20
1012.172048925138
 30
0.0
 11
1748.303269629424
 21
1065.4829222034
 31
0.0
  0
LINE
  5
27D6
102
{ACAD_REACTORS
330
27E0
102
}
330
A
100
AcDbEntity
  8
MODEL
  6
Continuous
100
AcDbLine
 10
1745.136641481392
 20
1065.4829222034
 30
0.0
 11
1748.303269629424
 21
1065.4829222034
 31
0.0
  0
LINE
  5
27D7
102
{ACAD_REACTORS
330
27E0
102
}
330
A
100
AcDbEntity
  8
MODEL
  6
Continuous
100
AcDbLine
 10
1745.136641481392
 20
1012.172048925138
 30
0.0
 11
1745.136641481392
 21
1065.4829222034
 31
0.0
  0
LINE
  5
27D8
102
{ACAD_REACTORS
330
27E0
102
}
330
A
100
AcDbEntity
  8
MODEL
  6
Continuous
100
AcDbLine
 10
1745.136641481392
 20
1012.172048925138
 30
0.0
 11
1748.303269629424
 21
1012.172048925138
 31
0.0
  0
LINE
  5
27D9
102
{ACAD_REACTORS
330
27E0
102
}
330
A
100
AcDbEntity
  8
MODEL
100
AcDbLine
 10
1748.303269629424
 20
1014.388822674604
 30
0.0
 11
1776.97001333336
 21
1014.388822674604
 31
0.0
  0
LINE
  5
27DA
102
{ACAD_REACTORS
330
27E0
102
}
330
A
100
AcDbEntity
  8
MODEL
100
AcDbLine
 10
1748.303269629424
 20
1063.266148453933
 30
0.0
 11
1776.97001333336
 21
1063.266148453933
 31
0.0
  0
LINE
  5
27DB
102
{ACAD_REACTORS
330
27E0
102
}
330
A
100
AcDbEntity
  8
MODEL
  6
Continuous
100
AcDbLine
 10
1780.136641481392
 20
1065.4829222034
 30
0.0
 11
1780.136641481392
 21
1012.172048925138
 31
0.0
  0
LINE
  5
27DC
102
{ACAD_REACTORS
330
27E0
102
}
330
A
100
AcDbEntity
  8
MODEL
100
AcDbLine
 10
1776.97001333336
 20
1012.172048925138
 30
0.0
 11
1776.97001333336
 21
1065.4829222034
 31
0.0
  0
LINE
  5
27DD
102
{ACAD_REACTORS
330
27E0
102
}
330
A
100
AcDbEntity
  8
MODEL
  6
Continuous
100
AcDbLine
 10
1776.97001333336
 20
1065.4829222034
 30
0.0
 11
1780.136641481392
 21
1065.4829222034
 31
0.0
  0
LINE
  5
27DE
102
{ACAD_REACTORS
330
27E0
102
}
330
A
100
AcDbEntity
  8
MODEL
  6
Continuous
100
AcDbLine
 10
1776.97001333336
 20
1012.172048925138
 30
0.0
 11
1780.136641481392
 21
1012.172048925138
 31
0.0
  0
VIEWPORT
  5
349
330
B
100
AcDbEntity
 67
     1
  8
0
100
AcDbViewport
 10
202.5
 20
128.5
 30
0.0
 40
486.0
 41
308.4
 68
     1
 69
     1
 12
202.5
 22
128.5
 13
0.0
 23
0.0
 14
0.5
 24
0.5
 15
0.0
 25
0.0
 16
0.0
 26
0.0
 36
1.0
 17
0.0
 27
0.0
 37
0.0
 42
50.0
 43
0.0
 44
0.0
 45
308.4
 50
0.0
 51
0.0
 72
   100
 90
   557152
  1

281
     0
 71
     1
 74
     0
110
0.0
120
0.0
130
0.0
111
1.0
121
0.0
131
0.0
112
0.0
122
1.0
132
0.0
 79
     0
146
0.0
170
     0
 61
     5
348
26C
292
     1
282
     1
141
0.0
142
0.0
 63
   256
  0
VIEWPORT
  5
34A
330
B
100
AcDbEntity
 67
     1
  8
0
100
AcDbViewport
 10
202.5
 20
128.5
 30
0.0
 40
324.0
 41
205.6
 68
     2
 69
     2
 12
986.6781359294573
 22
1427.077061889956
 13
0.0
 23
0.0
 14
0.5
 24
0.5
 15
0.0
 25
0.0
 16
0.0
 26
0.0
 36
1.0
 17
0.0
 27
0.0
 37
0.0
 42
50.0
 43
0.0
 44
0.0
 45
2890.021615685494
 50
0.0
 51
0.0
 72
   100
 90
   557152
  1

281
     0
 71
     1
 74
     0
110
0.0
120
0.0
130
0.0
111
1.0
121
0.0
131
0.0
112
0.0
122
1.0
132
0.0
 79
     0
146
0.0
170
     0
 61
     5
348
26C
292
     1
282
     1
141
0.0
142
0.0
 63
   256
  0
ENDSEC
  0
SECTION
  2
OBJECTS
  0
DICTIONARY
  5
19
330
0
100
AcDbDictionary
281
     1
  3
ACAD_COLOR
350
38F
  3
ACAD_DETAILVIEWSTYLE
350
8CF
  3
ACAD_FIELDLIST
350
BA6
  3
ACAD_GROUP
350
1A
  3
ACAD_IMAGE_VARS
350
27B
  3
ACAD_LAYOUT
350
1E
  3
ACAD_MATERIAL
350
263
  3
ACAD_MLEADERSTYLE
350
336
  3
ACAD_MLINESTYLE
350
1B
  3
ACAD_PLOTSETTINGS
350
22
  3
ACAD_PLOTSTYLENAME
350
1F
  3
ACAD_SCALELIST
350
241
  3
ACAD_SECTIONVIEWSTYLE
350
8D0
  3
ACAD_TABLESTYLE
350
278
  3
ACAD_VISUALSTYLE
350
267
  3
ACDB_RECOMPOSE_DATA
350
2813
  3
AcDbVariableDictionary
350
330
  3
APPDATA
350
27A
  3
DimOffsetDictionary
350
C08
  0
SUN
  5
8C2
330
15
100
AcDbSun
 90
        1
290
     0
 63
     7
421
 16777215
 40
1.0
291
     1
 91
  2455826
 92
 54000000
292
     0
 70
     2
 71
   256
280
     1
  0
DICTIONARY
  5
2E1
330
2
100
AcDbDictionary
280
     1
281
     1
  3
ACAD_LAYERSTATES
360
2E2
  3
ACLYDICTIONARY
360
BFE
  0
DICTIONARY
  5
BDC
330
BDB
100
AcDbDictionary
280
     1
281
     1
  3
ACAD_FIELD
360
BE4
  0
DICTIONARY
  5
1F5E
330
1F5D
100
AcDbDictionary
280
     1
281
     1
  3
ACAD_DIMASSOC
360
1F5F
  0
DICTIONARY
  5
2059
330
2058
100
AcDbDictionary
280
     1
281
     1
  3
ACAD_DIMASSOC
360
205A
  0
DICTIONARY
  5
26D8
330
26D7
100
AcDbDictionary
280
     1
281
     1
  3
ACAD_DIMASSOC
360
26D9
  0
DICTIONARY
  5
26DD
330
26DC
100
AcDbDictionary
280
     1
281
     1
  0
DICTIONARY
  5
38F
102
{ACAD_REACTORS
330
19
102
}
330
19
100
AcDbDictionary
281
     1
  0
DICTIONARY
  5
8CF
102
{ACAD_REACTORS
330
19
102
}
330
19
100
AcDbDictionary
281
     1
  0
FIELDLIST
  5
BA6
102
{ACAD_REACTORS
330
19
102
}
330
19
100
AcDbIdSet
 90
        2
330
BDF
330
BDE
100
AcDbFieldList
  0
DICTIONARY
  5
1A
102
{ACAD_REACTORS
330
19
102
}
330
19
100
AcDbDictionary
281
     1
  3
*A1
350
1F07
  3
*A2
350
27DF
  3
*A3
350
27E0
  0
RASTERVARIABLES
  5
27B
102
{ACAD_REACTORS
330
19
102
}
330
19
100
AcDbRasterVariables
 90
        0
 70
     1
 71
     1
 72
     1
  0
DICTIONARY
  5
1E
102
{ACAD_REACTORS
330
19
102
}
330
19
100
AcDbDictionary
281
     1
  3
Layout1
350
21
  3
Model
350
20
  0
DICTIONARY
  5
263
102
{ACAD_REACTORS
330
19
102
}
330
19
100
AcDbDictionary
281
     1
  3
ByBlock
350
1AFC
  3
ByLayer
350
264
  3
Global
350
266
  0
DICTIONARY
  5
336
102
{ACAD_REACTORS
330
19
102
}
330
19
100
AcDbDictionary
281
     1
  3
Standard
350
8D1
  0
DICTIONARY
  5
1B
102
{ACAD_REACTORS
330
19
102
}
330
19
100
AcDbDictionary
281
     1
  3
Standard
350
1C
  0
DICTIONARY
  5
22
102
{ACAD_REACTORS
330
19
102
}
330
19
100
AcDbDictionary
281
     1
  0
ACDBDICTIONARYWDFLT
  5
1F
102
{ACAD_REACTORS
330
19
102
}
330
19
100
AcDbDictionary
281
     1
  3
Normal
350
1D
100
AcDbDictionaryWithDefault
340
1D
  0
DICTIONARY
  5
241
102
{ACAD_REACTORS
330
19
102
}
330
19
100
AcDbDictionary
281
     1
  3
A0
350
242
  3
A1
350
243
  3
A2
350
244
  3
A3
350
245
  3
A4
350
246
  3
A5
350
247
  3
A6
350
248
  3
A7
350
249
  3
A8
350
24A
  3
A9
350
24B
  3
B0
350
24C
  3
B1
350
24D
  3
B2
350
24E
  3
B3
350
24F
  3
B4
350
250
  3
B5
350
251
  3
B6
350
252
  3
B7
350
253
  3
B8
350
254
  3
B9
350
255
  3
C0
350
256
  3
C1
350
257
  3
C2
350
258
  3
C3
350
259
  3
C4
350
25A
  3
C5
350
25B
  3
C6
350
25C
  3
C7
350
25D
  3
C8
350
25E
  3
C9
350
25F
  3
D0
350
260
  3
D1
350
261
  3
D2
350
262
  0
DICTIONARY
  5
8D0
102
{ACAD_REACTORS
330
19
102
}
330
19
100
AcDbDictionary
281
     1
  0
DICTIONARY
  5
278
102
{ACAD_REACTORS
330
19
102
}
330
19
100
AcDbDictionary
281
     1
  3
Standard
350
279
  0
DICTIONARY
  5
267
102
{ACAD_REACTORS
330
19
102
}
330
19
100
AcDbDictionary
281
     1
  3
2dWireframe
350
26C
  3
3D Hidden
350
26E
  3
3dWireframe
350
26D
  3
Basic
350
26F
  3
Brighten
350
273
  3
ColorChange
350
277
  3
Conceptual
350
271
  3
Dim
350
272
  3
EdgeColorOff
350
8BC
  3
Facepattern
350
276
  3
Flat
350
268
  3
FlatWithEdges
350
269
  3
Gouraud
350
26A
  3
GouraudWithEdges
350
26B
  3
Hidden
350
8B9
  3
JitterOff
350
8BA
  3
Linepattern
350
275
  3
OverhangOff
350
8BB
  3
Realistic
350
270
  3
Shaded
350
8C1
  3
Shaded with edges
350
8C0
  3
Shades of Gray
350
8BD
  3
Sketchy
350
8BE
  3
Thicken
350
274
  3
Wireframe
350
8B8
  3
X-Ray
350
8BF
  0
XRECORD
  5
2813
102
{ACAD_REACTORS
330
19
102
}
330
19
100
AcDbXrecord
280
     1
 90
        1
330
279
  0
DICTIONARY
  5
330
102
{ACAD_REACTORS
330
19
102
}
330
19
100
AcDbDictionary
281
     1
  3
CANNOSCALE
350
331
  3
CMLEADERSTYLE
350
8DA
  3
CTABLESTYLE
350
335
  3
HPTRANSPARENCY
350
C07
  3
XCLIPFRAME
350
64A
  0
DICTIONARY
  5
27A
102
{ACAD_REACTORS
330
19
102
}
330
19
100
AcDbDictionary
281
     1
  0
DICTIONARY
  5
C08
102
{ACAD_REACTORS
330
19
102
}
330
19
100
AcDbDictionary
281
     1
  3
DIMRAILANGLE
350
C0B
  3
DIMRAILFIRSTOFFSET
350
C09
  3
DIMRAILOFFSET
350
C0A
  3
DIMRAILSENABLED
350
C0C
  0
DICTIONARY
  5
2E2
102
{ACAD_REACTORS
330
2E1
102
}
330
2E1
100
AcDbDictionary
281
     1
  0
DICTIONARY
  5
BFE
102
{ACAD_REACTORS
330
2E1
102
}
330
2E1
100
AcDbDictionary
281
     1
1001
ACAD
1000
<All
  0
DICTIONARY
  5
BE4
102
{ACAD_REACTORS
330
BDC
102
}
330
BDC
100
AcDbDictionary
280
     1
281
     1
  3
TEXT
360
BDE
  0
DIMASSOC
  5
1F5F
102
{ACAD_REACTORS
330
1F5E
102
}
330
1F5E
100
AcDbDimAssoc
330
1F5D
 90
        3
 70
     0
 71
     1
  1
AcDbOsnapPointRef
 72
    10
331
1CBD
 73
     0
 91
        0
 40
0.0053909686149058
 10
0.0
 20
0.0
 30
0.0
 75
     0
  1
AcDbOsnapPointRef
 72
    10
331
1E97
 73
     0
 91
        0
 40
0.0053909686149058
 10
0.0
 20
0.0
 30
0.0
 75
     0
  0
DIMASSOC
  5
205A
102
{ACAD_REACTORS
330
2059
102
}
330
2059
100
AcDbDimAssoc
330
2058
 90
        1
 70
     0
 71
     1
  1
AcDbOsnapPointRef
 72
     1
331
1D97
 73
     0
 91
        0
 40
0.0
 10
0.0
 20
0.0
 30
0.0
 75
     0
  0
DIMASSOC
  5
26D9
102
{ACAD_REACTORS
330
26D8
102
}
330
26D8
100
AcDbDimAssoc
330
26D7
 90
        1
 70
     0
 71
     1
  1
AcDbOsnapPointRef
 72
    10
331
2706
 73
     0
 91
        0
 40
0.4855709115356345
 10
0.0
 20
0.0
 30
0.0
 75
     0
  0
GROUP
  5
1F07
102
{ACAD_REACTORS
330
1A
102
}
330
1A
100
AcDbGroup
300

 70
     1
 71
     1
340
1ECB
340
1ECD
340
1ECF
340
1ED1
340
1EF5
340
1EF6
340
1ED0
340
1EF8
340
1EF9
340
1EFA
340
1EFB
340
1EFC
340
1EFD
340
1EFE
340
1EFF
340
1F00
  0
GROUP
  5
27DF
102
{ACAD_REACTORS
330
1A
102
}
330
1A
100
AcDbGroup
300

 70
     1
 71
     1
340
27BD
340
27BE
340
27BF
340
27C0
340
27C1
340
27C2
340
27C3
340
27C4
340
27C5
340
27C6
340
27C7
340
27C8
340
27C9
340
27CA
340
27CB
340
27CC
340
27CD
340
27CE
340
27CF
340
27D0
340
27D1
340
27D2
340
27D3
340
27D4
  0
GROUP
  5
27E0
102
{ACAD_REACTORS
330
1A
102
}
330
1A
100
AcDbGroup
300

 70
     1
 71
     1
340
27D9
340
27DA
340
27DB
340
27DC
340
27DD
340
27DE
340
27D5
340
27D6
340
27D7
340
27D8
  0
LAYOUT
  5
21
102
{ACAD_REACTORS
330
1E
102
}
330
1E
100
AcDbPlotSettings
  1

  2
none_device
  4
ISO_A3_(420.00_x_297.00_MM)
  6

 40
7.5
 41
20.0
 42
7.5
 43
20.0
 44
420.0
 45
297.0
 46
0.0
 47
0.0
 48
0.0
 49
0.0
140
0.0
141
0.0
142
1.0
143
1.0
 70
     0
 72
     1
 73
     0
 74
     0
  7

 75
     0
 76
     0
 77
     2
 78
   300
147
1.0
148
0.0
149
0.0
100
AcDbLayout
  1
Layout1
 70
     0
 71
     0
 10
0.0
 20
0.0
 11
0.0
 21
0.0
 12
0.0
 22
0.0
 32
0.0
 14
0.0
 24
0.0
 34
0.0
 15
0.0
 25
0.0
 35
0.0
146
0.0
 13
0.0
 23
0.0
 33
0.0
 16
0.0
 26
0.0
 36
0.0
 17
0.0
 27
0.0
 37
0.0
 76
     0
330
B
331
349
  0
LAYOUT
  5
20
102
{ACAD_REACTORS
330
1E
102
}
330
1E
100
AcDbPlotSettings
  1

  2
none_device
  4
ISO_A3_(420.00_x_297.00_MM)
  6

 40
7.5
 41
20.0
 42
7.5
 43
20.0
 44
420.0
 45
297.0
 46
0.0
 47
0.0
 48
0.0
 49
0.0
140
0.0
141
0.0
142
1.0
143
1.0
 70
  1024
 72
     1
 73
     0
 74
     0
  7

 75
     0
 76
     0
 77
     2
 78
   300
147
1.0
148
0.0
149
0.0
100
AcDbLayout
  1
Model
 70
     0
 71
     1
 10
0.0
 20
0.0
 11
2100.0
 21
2970.0
 12
0.0
 22
0.0
 32
0.0
 14
0.0
 24
0.0
 34
0.0
 15
3525.09468224247
 25
2970.0
 35
34.99521132346015
146
0.0
 13
0.0
 23
0.0
 33
0.0
 16
0.0
 26
0.0
 36
0.0
 17
0.0
 27
0.0
 37
0.0
 76
     0
330
A
331
15
  0
MATERIAL
  5
1AFC
102
{ACAD_REACTORS
330
263
102
}
330
263
100
AcDbMaterial
  1
ByBlock
 72
     1
 94
      127
  0
MATERIAL
  5
264
102
{ACAD_REACTORS
330
263
102
}
330
263
100
AcDbMaterial
  1
ByLayer
 72
     1
 94
      127
  0
MATERIAL
  5
266
102
{ACAD_REACTORS
330
263
102
}
330
263
100
AcDbMaterial
  1
Global
 72
     1
 94
      127
  0
MLEADERSTYLE
  5
8D1
102
{ACAD_REACTORS
330
336
102
}
330
336
100
AcDbMLeaderStyle
170
     2
171
     1
172
     0
 90
        2
 40
0.0
 41
0.0
173
     1
 91
-1056964608
340
11
 92
       -2
290
     1
 42
2.0
291
     1
 43
8.0
  3
Standard
341
0
 44
4.0
300

342
17
174
     1
178
     6
175
     1
176
     0
 93
-1056964608
 45
4.0
292
     0
297
     0
 46
4.0
343
0
 94
-1056964608
 47
1.0
 49
1.0
140
1.0
293
     1
141
0.0
294
     1
177
     0
142
1.0
295
     0
296
     0
143
3.75
1001
ACAD_MLEADERVER
1070
     2
  0
MLINESTYLE
  5
1C
102
{ACAD_REACTORS
330
1B
102
}
330
1B
100
AcDbMlineStyle
  2
Standard
 70
     0
  3

 62
     0
 51
90.0
 52
90.0
 71
     2
 49
0.5
 62
   256
  6
BYLAYER
 49
-0.5
 62
   256
  6
BYLAYER
  0
ACDBPLACEHOLDER
  5
1D
102
{ACAD_REACTORS
330
1F
102
}
330
1F
  0
SCALE
  5
242
102
{ACAD_REACTORS
330
241
102
}
330
241
100
AcDbScale
 70
     0
300
1:1
140
1.0
141
1.0
290
     1
  0
SCALE
  5
243
102
{ACAD_REACTORS
330
241
102
}
330
241
100
AcDbScale
 70
     0
300
1:2
140
1.0
141
2.0
290
     0
  0
SCALE
  5
244
102
{ACAD_REACTORS
330
241
102
}
330
241
100
AcDbScale
 70
     0
300
1:4
140
1.0
141
4.0
290
     0
  0
SCALE
  5
245
102
{ACAD_REACTORS
330
241
102
}
330
241
100
AcDbScale
 70
     0
300
1:5
140
1.0
141
5.0
290
     0
  0
SCALE
  5
246
102
{ACAD_REACTORS
330
241
102
}
330
241
100
AcDbScale
 70
     0
300
1:8
140
1.0
141
8.0
290
     0
  0
SCALE
  5
247
102
{ACAD_REACTORS
330
241
102
}
330
241
100
AcDbScale
 70
     0
300
1:10
140
1.0
141
10.0
290
     0
  0
SCALE
  5
248
102
{ACAD_REACTORS
330
241
102
}
330
241
100
AcDbScale
 70
     0
300
1:16
140
1.0
141
16.0
290
     0
  0
SCALE
  5
249
102
{ACAD_REACTORS
330
241
102
}
330
241
100
AcDbScale
 70
     0
300
1:20
140
1.0
141
20.0
290
     0
  0
SCALE
  5
24A
102
{ACAD_REACTORS
330
241
102
}
330
241
100
AcDbScale
 70
     0
300
1:30
140
1.0
141
30.0
290
     0
  0
SCALE
  5
24B
102
{ACAD_REACTORS
330
241
102
}
330
241
100
AcDbScale
 70
     0
300
1:40
140
1.0
141
40.0
290
     0
  0
SCALE
  5
24C
102
{ACAD_REACTORS
330
241
102
}
330
241
100
AcDbScale
 70
     0
300
1:50
140
1.0
141
50.0
290
     0
  0
SCALE
  5
24D
102
{ACAD_REACTORS
330
241
102
}
330
241
100
AcDbScale
 70
     0
300
1:100
140
1.0
141
100.0
290
     0
  0
SCALE
  5
24E
102
{ACAD_REACTORS
330
241
102
}
330
241
100
AcDbScale
 70
     0
300
2:1
140
2.0
141
1.0
290
     0
  0
SCALE
  5
24F
102
{ACAD_REACTORS
330
241
102
}
330
241
100
AcDbScale
 70
     0
300
4:1
140
4.0
141
1.0
290
     0
  0
SCALE
  5
250
102
{ACAD_REACTORS
330
241
102
}
330
241
100
AcDbScale
 70
     0
300
8:1
140
8.0
141
1.0
290
     0
  0
SCALE
  5
251
102
{ACAD_REACTORS
330
241
102
}
330
241
100
AcDbScale
 70
     0
300
10:1
140
10.0
141
1.0
290
     0
  0
SCALE
  5
252
102
{ACAD_REACTORS
330
241
102
}
330
241
100
AcDbScale
 70
     0
300
100:1
140
100.0
141
1.0
290
     0
  0
SCALE
  5
253
102
{ACAD_REACTORS
330
241
102
}
330
241
100
AcDbScale
 70
     0
300
1/128" = 1'-0"
140
0.0078125
141
12.0
290
     0
  0
SCALE
  5
254
102
{ACAD_REACTORS
330
241
102
}
330
241
100
AcDbScale
 70
     0
300
1/64" = 1'-0"
140
0.015625
141
12.0
290
     0
  0
SCALE
  5
255
102
{ACAD_REACTORS
330
241
102
}
330
241
100
AcDbScale
 70
     0
300
1/32" = 1'-0"
140
0.03125
141
12.0
290
     0
  0
SCALE
  5
256
102
{ACAD_REACTORS
330
241
102
}
330
241
100
AcDbScale
 70
     0
300
1/16" = 1'-0"
140
0.0625
141
12.0
290
     0
  0
SCALE
  5
257
102
{ACAD_REACTORS
330
241
102
}
330
241
100
AcDbScale
 70
     0
300
3/32" = 1'-0"
140
0.09375
141
12.0
290
     0
  0
SCALE
  5
258
102
{ACAD_REACTORS
330
241
102
}
330
241
100
AcDbScale
 70
     0
300
1/8" = 1'-0"
140
0.125
141
12.0
290
     0
  0
SCALE
  5
259
102
{ACAD_REACTORS
330
241
102
}
330
241
100
AcDbScale
 70
     0
300
3/16" = 1'-0"
140
0.1875
141
12.0
290
     0
  0
SCALE
  5
25A
102
{ACAD_REACTORS
330
241
102
}
330
241
100
AcDbScale
 70
     0
300
1/4" = 1'-0"
140
0.25
141
12.0
290
     0
  0
SCALE
  5
25B
102
{ACAD_REACTORS
330
241
102
}
330
241
100
AcDbScale
 70
     0
300
3/8" = 1'-0"
140
0.375
141
12.0
290
     0
  0
SCALE
  5
25C
102
{ACAD_REACTORS
330
241
102
}
330
241
100
AcDbScale
 70
     0
300
1/2" = 1'-0"
140
0.5
141
12.0
290
     0
  0
SCALE
  5
25D
102
{ACAD_REACTORS
330
241
102
}
330
241
100
AcDbScale
 70
     0
300
3/4" = 1'-0"
140
0.75
141
12.0
290
     0
  0
SCALE
  5
25E
102
{ACAD_REACTORS
330
241
102
}
330
241
100
AcDbScale
 70
     0
300
1" = 1'-0"
140
1.0
141
12.0
290
     0
  0
SCALE
  5
25F
102
{ACAD_REACTORS
330
241
102
}
330
241
100
AcDbScale
 70
     0
300
1-1/2" = 1'-0"
140
1.5
141
12.0
290
     0
  0
SCALE
  5
260
102
{ACAD_REACTORS
330
241
102
}
330
241
100
AcDbScale
 70
     0
300
3" = 1'-0"
140
3.0
141
12.0
290
     0
  0
SCALE
  5
261
102
{ACAD_REACTORS
330
241
102
}
330
241
100
AcDbScale
 70
     0
300
6" = 1'-0"
140
6.0
141
12.0
290
     0
  0
SCALE
  5
262
102
{ACAD_REACTORS
330
241
102
}
330
241
100
AcDbScale
 70
     0
300
1'-0" = 1'-0"
140
12.0
141
12.0
290
     0
  0
TABLESTYLE
  5
279
102
{ACAD_REACTORS
330
278
102
}
102
{ACAD_XDICTIONARY
360
2811
102
}
330
278
100
AcDbTableStyle
  3
Standard
 70
     0
 71
     0
 40
0.06
 41
0.06
280
     0
281
     0
  7
Standard
140
4.5
170
     2
 62
     0
 63
   257
283
     0
 90
        4
 91
        0
  1

274
    -2
284
     1
 64
     0
275
    -2
285
     1
 65
     0
276
    -2
286
     1
 66
     0
277
    -2
287
     1
 67
     0
278
    -2
288
     1
 68
     0
279
    -2
289
     1
 69
     0
  7
Standard
140
6.0
170
     5
 62
     0
 63
   257
283
     0
 90
        4
 91
        0
  1

274
    -2
284
     1
 64
     0
275
    -2
285
     1
 65
     0
276
    -2
286
     1
 66
     0
277
    -2
287
     1
 67
     0
278
    -2
288
     1
 68
     0
279
    -2
289
     1
 69
     0
  7
Standard
140
4.5
170
     5
 62
     0
 63
   257
283
     0
 90
        4
 91
        0
  1

274
    -2
284
     1
 64
     0
275
    -2
285
     1
 65
     0
276
    -2
286
     1
 66
     0
277
    -2
287
     1
 67
     0
278
    -2
288
     1
 68
     0
279
    -2
289
     1
 69
     0
  0
VISUALSTYLE
  5
26C
102
{ACAD_REACTORS
330
267
102
}
330
267
100
AcDbVisualStyle
  2
2dWireframe
 70
     4
 71
     0
 72
     2
 73
     0
 90
        0
 40
-0.6
 41
-30.0
 62
     5
 63
     7
421
 16777215
 74
     1
 91
        4
 64
     7
 65
   257
 75
     1
175
     1
 42
1.0
 92
        0
 66
   257
 43
1.0
 76
     1
 77
     6
 78
     2
 67
     7
 79
     5
170
     0
171
     0
290
     0
174
     0
 93
        1
 44
0.0
173
     0
291
     0
 45
0.0
  0
VISUALSTYLE
  5
26E
102
{ACAD_REACTORS
330
267
102
}
330
267
100
AcDbVisualStyle
  2
3D Hidden
 70
     6
 71
     1
 72
     2
 73
     2
 90
        0
 40
-0.6
 41
-30.0
 62
     5
 63
     7
421
 16777215
 74
     2
 91
        2
 64
     7
 65
   257
 75
     2
175
     1
 42
40.0
 92
        0
 66
   257
 43
1.0
 76
     1
 77
     6
 78
     2
 67
     7
 79
     3
170
     0
171
     0
290
     0
174
     0
 93
        1
 44
0.0
173
     0
291
     0
 45
0.0
  0
VISUALSTYLE
  5
26D
102
{ACAD_REACTORS
330
267
102
}
330
267
100
AcDbVisualStyle
  2
3dWireframe
 70
     5
 71
     0
 72
     2
 73
     0
 90
        0
 40
-0.6
 41
-30.0
 62
     5
 63
     7
421
 16777215
 74
     1
 91
        4
 64
     7
 65
   257
 75
     1
175
     1
 42
1.0
 92
        0
 66
   257
 43
1.0
 76
     1
 77
     6
 78
     2
 67
     7
 79
     5
170
     0
171
     0
290
     0
174
     0
 93
        1
 44
0.0
173
     0
291
     0
 45
0.0
  0
VISUALSTYLE
  5
26F
102
{ACAD_REACTORS
330
267
102
}
330
267
100
AcDbVisualStyle
  2
Basic
 70
     7
 71
     1
 72
     0
 73
     1
 90
        0
 40
-0.6
 41
-30.0
 62
     5
 63
     7
421
 16777215
 74
     0
 91
        4
 64
     7
 65
   257
 75
     1
175
     1
 42
1.0
 92
        8
 66
     7
 43
1.0
 76
     1
 77
     6
 78
     2
 67
     7
 79
     5
170
     0
171
     0
290
     0
174
     0
 93
        1
 44
0.0
173
     0
291
     1
 45
0.0
  0
VISUALSTYLE
  5
273
102
{ACAD_REACTORS
330
267
102
}
330
267
100
AcDbVisualStyle
  2
Brighten
 70
    12
 71
     2
 72
     2
 73
     0
 90
        0
 40
-0.6
 41
-30.0
 62
     5
 63
     7
421
 16777215
 74
     1
 91
        4
 64
     7
 65
   257
 75
     1
175
     1
 42
1.0
 92
        8
 66
     7
 43
1.0
 76
     1
 77
     6
 78
     2
 67
     7
 79
     5
170
     0
171
     0
290
     0
174
     0
 93
        1
 44
50.0
173
     0
291
     1
 45
0.0
  0
VISUALSTYLE
  5
277
102
{ACAD_REACTORS
330
267
102
}
330
267
100
AcDbVisualStyle
  2
ColorChange
 70
    16
 71
     2
 72
     2
 73
     3
 90
        0
 40
-0.6
 41
-30.0
 62
     5
 63
     8
421
  8421504
 74
     1
 91
        4
 64
     7
 65
   257
 75
     1
175
     1
 42
1.0
 92
        8
 66
     8
424
  8421504
 43
1.0
 76
     1
 77
     6
 78
     2
 67
     7
 79
     5
170
     0
171
     0
290
     0
174
     0
 93
        1
 44
0.0
173
     0
291
     1
 45
0.0
  0
VISUALSTYLE
  5
271
102
{ACAD_REACTORS
330
267
102
}
330
267
100
AcDbVisualStyle
  2
Conceptual
 70
     9
 71
     3
 72
     2
 73
     0
 90
        0
 40
-0.6
 41
-30.0
 62
     5
 63
     7
421
 16777215
 74
     2
 91
        2
 64
     7
 65
   257
 75
     1
175
     1
 42
40.0
 92
        8
 66
     7
 43
1.0
 76
     1
 77
     6
 78
     2
 67
     7
 79
     3
170
     0
171
     0
290
     0
174
     0
 93
        1
 44
0.0
173
     0
291
     0
 45
0.0
  0
VISUALSTYLE
  5
272
102
{ACAD_REACTORS
330
267
102
}
330
267
100
AcDbVisualStyle
  2
Dim
 70
    11
 71
     2
 72
     2
 73
     0
 90
        0
 40
-0.6
 41
-30.0
 62
     5
 63
     7
421
 16777215
 74
     1
 91
        4
 64
     7
 65
   257
 75
     1
175
     1
 42
1.0
 92
        8
 66
     7
 43
1.0
 76
     1
 77
     6
 78
     2
 67
     7
 79
     5
170
     0
171
     0
290
     0
174
     0
 93
        1
 44
-50.0
173
     0
291
     1
 45
0.0
  0
VISUALSTYLE
  5
8BC
102
{ACAD_REACTORS
330
267
102
}
330
267
100
AcDbVisualStyle
  2
EdgeColorOff
 70
    22
 71
     2
 72
     2
 73
     0
 90
        0
 40
0.6
 41
30.0
 62
     5
 63
     7
421
 16777215
 74
     1
 91
        4
 64
     7
 65
   257
 75
     1
175
     1
 42
1.0
 92
        8
 66
     7
 43
1.0
 76
     1
 77
     6
 78
     2
 67
     7
 79
     5
170
     0
171
     0
290
     0
174
     0
 93
        1
 44
0.0
173
     0
291
     1
 45
0.0
  0
VISUALSTYLE
  5
276
102
{ACAD_REACTORS
330
267
102
}
330
267
100
AcDbVisualStyle
  2
Facepattern
 70
    15
 71
     2
 72
     2
 73
     0
 90
        0
 40
-0.6
 41
-30.0
 62
     5
 63
     7
421
 16777215
 74
     1
 91
        4
 64
     7
 65
   257
 75
     1
175
     1
 42
1.0
 92
        8
 66
     7
 43
1.0
 76
     1
 77
     6
 78
     2
 67
     7
 79
     5
170
     0
171
     0
290
     0
174
     0
 93
        1
 44
0.0
173
     0
291
     1
 45
0.0
  0
VISUALSTYLE
  5
268
102
{ACAD_REACTORS
330
267
102
}
330
267
100
AcDbVisualStyle
  2
Flat
 70
     0
 71
     2
 72
     1
 73
     1
 90
        2
 40
-0.6
 41
30.0
 62
     5
 63
     7
421
 16777215
 74
     0
 91
        4
 64
     7
 65
   257
 75
     1
175
     1
 42
1.0
 92
        8
 66
     7
 43
1.0
 76
     1
 77
     6
 78
     2
 67
     7
 79
     5
170
     0
171
     0
290
     0
174
     0
 93
       13
 44
0.0
173
     0
291
     1
 45
0.0
  0
VISUALSTYLE
  5
269
102
{ACAD_REACTORS
330
267
102
}
330
267
100
AcDbVisualStyle
  2
FlatWithEdges
 70
     1
 71
     2
 72
     1
 73
     1
 90
        2
 40
-0.6
 41
30.0
 62
     5
 63
     7
421
 16777215
 74
     1
 91
        4
 64
     7
 65
   257
 75
     1
175
     1
 42
1.0
 92
        0
 66
   257
 43
1.0
 76
     1
 77
     6
 78
     2
 67
     7
 79
     5
170
     0
171
     0
290
     0
174
     0
 93
       13
 44
0.0
173
     0
291
     1
 45
0.0
  0
VISUALSTYLE
  5
26A
102
{ACAD_REACTORS
330
267
102
}
330
267
100
AcDbVisualStyle
  2
Gouraud
 70
     2
 71
     2
 72
     2
 73
     1
 90
        2
 40
-0.6
 41
30.0
 62
     5
 63
     7
421
 16777215
 74
     0
 91
        4
 64
     7
 65
   257
 75
     1
175
     1
 42
1.0
 92
        0
 66
     7
 43
1.0
 76
     1
 77
     6
 78
     2
 67
     7
 79
     5
170
     0
171
     0
290
     0
174
     0
 93
       13
 44
0.0
173
     0
291
     1
 45
0.0
  0
VISUALSTYLE
  5
26B
102
{ACAD_REACTORS
330
267
102
}
330
267
100
AcDbVisualStyle
  2
GouraudWithEdges
 70
     3
 71
     2
 72
     2
 73
     1
 90
        2
 40
-0.6
 41
30.0
 62
     5
 63
     7
421
 16777215
 74
     1
 91
        4
 64
     7
 65
   257
 75
     1
175
     1
 42
1.0
 92
        0
 66
   257
 43
1.0
 76
     1
 77
     6
 78
     2
 67
     7
 79
     5
170
     0
171
     0
290
     0
174
     0
 93
       13
 44
0.0
173
     0
291
     1
 45
0.0
  0
VISUALSTYLE
  5
8B9
102
{ACAD_REACTORS
330
267
102
}
330
267
100
AcDbVisualStyle
  2
Hidden
 70
     6
 71
     1
 72
     2
 73
     2
 90
        0
 40
0.6
 41
30.0
 62
     5
 63
     7
421
 16777215
 74
     2
 91
        2
 64
     7
 65
   257
 75
     2
175
     1
 42
40.0
 92
        0
 66
   257
 43
1.0
 76
     1
 77
     6
 78
     2
 67
     7
 79
     3
170
     0
171
     0
290
     0
174
     0
 93
        1
 44
0.0
173
     0
291
     0
 45
0.0
  0
VISUALSTYLE
  5
8BA
102
{ACAD_REACTORS
330
267
102
}
330
267
100
AcDbVisualStyle
  2
JitterOff
 70
    20
 71
     2
 72
     2
 73
     0
 90
        0
 40
0.6
 41
30.0
 62
     5
 63
     7
421
 16777215
 74
     1
 91
        4
 64
     7
 65
   257
 75
     1
175
     1
 42
1.0
 92
       10
 66
     7
 43
1.0
 76
     1
 77
     6
 78
     2
 67
     7
 79
     5
170
     0
171
     0
290
     0
174
     0
 93
        1
 44
0.0
173
     0
291
     1
 45
0.0
  0
VISUALSTYLE
  5
275
102
{ACAD_REACTORS
330
267
102
}
330
267
100
AcDbVisualStyle
  2
Linepattern
 70
    14
 71
     2
 72
     2
 73
     0
 90
        0
 40
-0.6
 41
-30.0
 62
     5
 63
     7
421
 16777215
 74
     1
 91
        4
 64
     7
 65
   257
 75
     7
175
     7
 42
1.0
 92
        8
 66
     7
 43
1.0
 76
     1
 77
     6
 78
     2
 67
     7
 79
     5
170
     0
171
     0
290
     0
174
     0
 93
        1
 44
0.0
173
     0
291
     1
 45
0.0
  0
VISUALSTYLE
  5
8BB
102
{ACAD_REACTORS
330
267
102
}
330
267
100
AcDbVisualStyle
  2
OverhangOff
 70
    21
 71
     2
 72
     2
 73
     0
 90
        0
 40
0.6
 41
30.0
 62
     5
 63
     7
421
 16777215
 74
     1
 91
        4
 64
     7
 65
   257
 75
     1
175
     1
 42
1.0
 92
        9
 66
     7
 43
1.0
 76
     1
 77
     6
 78
     2
 67
     7
 79
     5
170
     0
171
     0
290
     0
174
     0
 93
        1
 44
0.0
173
     0
291
     1
 45
0.0
  0
VISUALSTYLE
  5
270
102
{ACAD_REACTORS
330
267
102
}
330
267
100
AcDbVisualStyle
  2
Realistic
 70
     8
 71
     2
 72
     2
 73
     0
 90
        0
 40
-0.6
 41
-30.0
 62
     5
 63
     7
421
 16777215
 74
     1
 91
        0
 64
     7
 65
   257
 75
     1
175
     1
 42
1.0
 92
        8
 66
     8
424
  7895160
 43
1.0
 76
     1
 77
     6
 78
     2
 67
     7
 79
     5
170
     0
171
     0
290
     0
174
     0
 93
       13
 44
0.0
173
     0
291
     0
 45
0.0
  0
VISUALSTYLE
  5
8C1
102
{ACAD_REACTORS
330
267
102
}
330
267
100
AcDbVisualStyle
  2
Shaded
 70
    27
 71
     2
 72
     2
 73
     1
 90
        2
 40
0.6
 41
30.0
 62
     5
 63
     7
421
 16777215
 74
     0
 91
        4
 64
     7
 65
   257
 75
     1
175
     1
 42
1.0
 92
        8
 66
   257
 43
1.0
 76
     1
 77
     6
 78
     2
 67
     8
425
  7895160
 79
     3
170
     0
171
     0
290
     0
174
     0
 93
        5
 44
0.0
173
     0
291
     0
 45
0.0
  0
VISUALSTYLE
  5
8C0
102
{ACAD_REACTORS
330
267
102
}
330
267
100
AcDbVisualStyle
  2
Shaded with edges
 70
    26
 71
     2
 72
     2
 73
     1
 90
        2
 40
0.6
 41
30.0
 62
     5
 63
     7
421
 16777215
 74
     1
 91
       10
 64
     7
 65
   257
 75
     2
175
     1
 42
1.0
 92
        8
 66
   257
 43
1.0
 76
     1
 77
     6
 78
     2
 67
     7
 79
     3
170
     0
171
     0
290
     0
174
     0
 93
        5
 44
0.0
173
     0
291
     0
 45
0.0
  0
VISUALSTYLE
  5
8BD
102
{ACAD_REACTORS
330
267
102
}
330
267
100
AcDbVisualStyle
  2
Shades of Gray
 70
    23
 71
     2
 72
     2
 73
     3
 90
        0
 40
0.6
 41
30.0
 62
     5
 63
     7
421
 16777215
 74
     2
 91
        2
 64
     7
 65
     7
 75
     1
175
     1
 42
40.0
 92
        8
 66
     7
 43
1.0
 76
     1
 77
     6
 78
     2
 67
     7
 79
     3
170
     0
171
     0
290
     0
174
     0
 93
        1
 44
0.0
173
     0
291
     0
 45
0.0
  0
VISUALSTYLE
  5
8BE
102
{ACAD_REACTORS
330
267
102
}
330
267
100
AcDbVisualStyle
  2
Sketchy
 70
    24
 71
     1
 72
     2
 73
     2
 90
        0
 40
0.6
 41
30.0
 62
     5
 63
     7
421
 16777215
 74
     2
 91
        2
 64
     7
 65
     7
 75
     1
175
     1
 42
40.0
 92
       11
 66
     7
 43
1.0
 76
     1
 77
     6
 78
     2
 67
     7
 79
     6
170
     0
171
     0
290
     0
174
     0
 93
        1
 44
0.0
173
     0
291
     0
 45
0.0
  0
VISUALSTYLE
  5
274
102
{ACAD_REACTORS
330
267
102
}
330
267
100
AcDbVisualStyle
  2
Thicken
 70
    13
 71
     2
 72
     2
 73
     0
 90
        0
 40
-0.6
 41
-30.0
 62
     5
 63
     7
421
 16777215
 74
     1
 91
        4
 64
     7
 65
   257
 75
     1
175
     1
 42
1.0
 92
       12
 66
     7
 43
1.0
 76
     1
 77
     6
 78
     2
 67
     7
 79
     5
170
     0
171
     0
290
     0
174
     0
 93
        1
 44
0.0
173
     0
291
     1
 45
0.0
  0
VISUALSTYLE
  5
8B8
102
{ACAD_REACTORS
330
267
102
}
330
267
100
AcDbVisualStyle
  2
Wireframe
 70
     5
 71
     0
 72
     2
 73
     0
 90
        0
 40
0.6
 41
30.0
 62
     5
 63
     7
421
 16777215
 74
     1
 91
        4
 64
     7
 65
   257
 75
     1
175
     1
 42
1.0
 92
        0
 66
   257
 43
1.0
 76
     1
 77
     6
 78
     2
 67
     7
 79
     3
170
     0
171
     0
290
     0
174
     0
 93
        1
 44
0.0
173
     0
291
     0
 45
0.0
  0
VISUALSTYLE
  5
8BF
102
{ACAD_REACTORS
330
267
102
}
330
267
100
AcDbVisualStyle
  2
X-Ray
 70
    25
 71
     2
 72
     2
 73
     1
 90
        1
 40
0.5
 41
30.0
 62
     5
 63
     7
421
 16777215
 74
     1
 91
        0
 64
     7
 65
   257
 75
     1
175
     1
 42
1.0
 92
        8
 66
     7
 43
1.0
 76
     1
 77
     6
 78
     2
 67
     7
 79
     3
170
     0
171
     0
290
     0
174
     0
 93
       13
 44
0.0
173
     0
291
     0
 45
0.0
  0
DICTIONARYVAR
  5
331
102
{ACAD_REACTORS
330
330
102
}
330
330
100
DictionaryVariables
280
     0
  1
1:1
  0
DICTIONARYVAR
  5
8DA
102
{ACAD_REACTORS
330
330
102
}
330
330
100
DictionaryVariables
280
     0
  1
Standard
  0
DICTIONARYVAR
  5
335
102
{ACAD_REACTORS
330
330
102
}
330
330
100
DictionaryVariables
280
     0
  1
Standard
  0
DICTIONARYVAR
  5
C07
102
{ACAD_REACTORS
330
330
102
}
330
330
100
DictionaryVariables
280
     0
  1
ByLayer
  0
DICTIONARYVAR
  5
64A
102
{ACAD_REACTORS
330
330
102
}
330
330
100
DictionaryVariables
280
     0
  1
0
  0
DICTIONARYVAR
  5
C0B
102
{ACAD_REACTORS
330
C08
102
}
330
C08
100
DictionaryVariables
280
     0
  1
0.261799
  0
DICTIONARYVAR
  5
C09
102
{ACAD_REACTORS
330
C08
102
}
330
C08
100
DictionaryVariables
280
     0
  1
0.400000
  0
DICTIONARYVAR
  5
C0A
102
{ACAD_REACTORS
330
C08
102
}
330
C08
100
DictionaryVariables
280
     0
  1
0.250000
  0
DICTIONARYVAR
  5
C0C
102
{ACAD_REACTORS
330
C08
102
}
330
C08
100
DictionaryVariables
280
     0
  1
1
  0
FIELD
  5
BDE
102
{ACAD_REACTORS
330
BE4
102
}
330
BE4
100
AcDbField
  1
_text
  2
{%<\_FldIdx 0>%N}
 90
        1
360
BDF
 97
        0
 91
       63
 92
        0
 94
        8
 95
        2
 96
        0
300

 93
        1
  6
ACFD_FIELDTEXT_CHECKSUM
 93
        2
 90
        2
140
4462.0
 94
        0
300

302

304
ACVALUE_END
  7
ACFD_FIELD_VALUE
 93
        6
 90
        4
  1
{20180111N}
 94
        0
300

302

304
ACVALUE_END
301
{20180111N}
 98
       11
  0
DICTIONARY
  5
2811
330
279
100
AcDbDictionary
280
     1
281
     1
  3
ACAD_ROUNDTRIP_2008_TABLESTYLE_CELLSTYLEMAP
360
2812
  0
FIELD
  5
BDF
330
BDE
100
AcDbField
  1
AcVar
  2
\AcVar Date \f "yyyyMMdd"
 90
        0
 97
        0
 91
       63
 92
        0
 94
        8
 95
        2
 96
        0
300

 93
        1
  6
Variable
 93
        2
 90
        4
  1
Date
 94
        0
300

302

304
ACVALUE_END
  7
ACFD_FIELD_VALUE
 93
        6
 90
        8
 92
       16
310
E207010000000B00050039003A000000
 94
        0
300
yyyyMMdd
302

304
ACVALUE_END
301
20180111
 98
        8
  0
CELLSTYLEMAP
  5
2812
102
{ACAD_REACTORS
330
2811
102
}
330
2811
100
AcDbCellStyleMap
 90
        3
300
CELLSTYLE
  1
TABLEFORMAT_BEGIN
 90
        5
170
     1
 91
        0
 92
    32768
 62
   257
 93
        1
300
CONTENTFORMAT
  1
CONTENTFORMAT_BEGIN
 90
        0
 91
        0
 92
        4
 93
        0
300

 40
0.0
140
1.0
 94
        5
 62
     0
340
17
144
6.0
309
CONTENTFORMAT_END
171
     1
301
MARGIN
  1
CELLMARGIN_BEGIN
 40
0.06
 40
0.06
 40
0.06
 40
0.06
 40
0.18
 40
0.18
309
CELLMARGIN_END
 94
        6
 95
        1
302
GRIDFORMAT
  1
GRIDFORMAT_BEGIN
 90
        0
 91
        1
 62
     0
 92
       -2
340
0
 93
        0
 40
0.045
309
GRIDFORMAT_END
 95
        2
302
GRIDFORMAT
  1
GRIDFORMAT_BEGIN
 90
        0
 91
        1
 62
     0
 92
       -2
340
0
 93
        0
 40
0.045
309
GRIDFORMAT_END
 95
        4
302
GRIDFORMAT
  1
GRIDFORMAT_BEGIN
 90
        0
 91
        1
 62
     0
 92
       -2
340
0
 93
        0
 40
0.045
309
GRIDFORMAT_END
 95
        8
302
GRIDFORMAT
  1
GRIDFORMAT_BEGIN
 90
        0
 91
        1
 62
     0
 92
       -2
340
0
 93
        0
 40
0.045
309
GRIDFORMAT_END
 95
       16
302
GRIDFORMAT
  1
GRIDFORMAT_BEGIN
 90
        0
 91
        1
 62
     0
 92
       -2
340
0
 93
        0
 40
0.045
309
GRIDFORMAT_END
 95
       32
302
GRIDFORMAT
  1
GRIDFORMAT_BEGIN
 90
        0
 91
        1
 62
     0
 92
       -2
340
0
 93
        0
 40
0.045
309
GRIDFORMAT_END
309
TABLEFORMAT_END
  1
CELLSTYLE_BEGIN
 90
        1
 91
        1
300
_TITLE
309
CELLSTYLE_END
300
CELLSTYLE
  1
TABLEFORMAT_BEGIN
 90
        5
170
     1
 91
        0
 92
        0
 62
   257
 93
        1
300
CONTENTFORMAT
  1
CONTENTFORMAT_BEGIN
 90
        0
 91
        0
 92
        4
 93
        0
300

 40
0.0
140
1.0
 94
        5
 62
     0
340
17
144
4.5
309
CONTENTFORMAT_END
171
     1
301
MARGIN
  1
CELLMARGIN_BEGIN
 40
0.06
 40
0.06
 40
0.06
 40
0.06
 40
0.18
 40
0.18
309
CELLMARGIN_END
 94
        6
 95
        1
302
GRIDFORMAT
  1
GRIDFORMAT_BEGIN
 90
        0
 91
        1
 62
     0
 92
       -2
340
0
 93
        0
 40
0.045
309
GRIDFORMAT_END
 95
        2
302
GRIDFORMAT
  1
GRIDFORMAT_BEGIN
 90
        0
 91
        1
 62
     0
 92
       -2
340
0
 93
        0
 40
0.045
309
GRIDFORMAT_END
 95
        4
302
GRIDFORMAT
  1
GRIDFORMAT_BEGIN
 90
        0
 91
        1
 62
     0
 92
       -2
340
0
 93
        0
 40
0.045
309
GRIDFORMAT_END
 95
        8
302
GRIDFORMAT
  1
GRIDFORMAT_BEGIN
 90
        0
 91
        1
 62
     0
 92
       -2
340
0
 93
        0
 40
0.045
309
GRIDFORMAT_END
 95
       16
302
GRIDFORMAT
  1
GRIDFORMAT_BEGIN
 90
        0
 91
        1
 62
     0
 92
       -2
340
0
 93
        0
 40
0.045
309
GRIDFORMAT_END
 95
       32
302
GRIDFORMAT
  1
GRIDFORMAT_BEGIN
 90
        0
 91
        1
 62
     0
 92
       -2
340
0
 93
        0
 40
0.045
309
GRIDFORMAT_END
309
TABLEFORMAT_END
  1
CELLSTYLE_BEGIN
 90
        2
 91
        1
300
_HEADER
309
CELLSTYLE_END
300
CELLSTYLE
  1
TABLEFORMAT_BEGIN
 90
        5
170
     1
 91
        0
 92
        0
 62
   257
 93
        1
300
CONTENTFORMAT
  1
CONTENTFORMAT_BEGIN
 90
        0
 91
        0
 92
        4
 93
        0
300

 40
0.0
140
1.0
 94
        2
 62
     0
340
17
144
4.5
309
CONTENTFORMAT_END
171
     1
301
MARGIN
  1
CELLMARGIN_BEGIN
 40
0.06
 40
0.06
 40
0.06
 40
0.06
 40
0.18
 40
0.18
309
CELLMARGIN_END
 94
        6
 95
        1
302
GRIDFORMAT
  1
GRIDFORMAT_BEGIN
 90
        0
 91
        1
 62
     0
 92
       -2
340
0
 93
        0
 40
0.045
309
GRIDFORMAT_END
 95
        2
302
GRIDFORMAT
  1
GRIDFORMAT_BEGIN
 90
        0
 91
        1
 62
     0
 92
       -2
340
0
 93
        0
 40
0.045
309
GRIDFORMAT_END
 95
        4
302
GRIDFORMAT
  1
GRIDFORMAT_BEGIN
 90
        0
 91
        1
 62
     0
 92
       -2
340
0
 93
        0
 40
0.045
309
GRIDFORMAT_END
 95
        8
302
GRIDFORMAT
  1
GRIDFORMAT_BEGIN
 90
        0
 91
        1
 62
     0
 92
       -2
340
0
 93
        0
 40
0.045
309
GRIDFORMAT_END
 95
       16
302
GRIDFORMAT
  1
GRIDFORMAT_BEGIN
 90
        0
 91
        1
 62
     0
 92
       -2
340
0
 93
        0
 40
0.045
309
GRIDFORMAT_END
 95
       32
302
GRIDFORMAT
  1
GRIDFORMAT_BEGIN
 90
        0
 91
        1
 62
     0
 92
       -2
340
0
 93
        0
 40
0.045
309
GRIDFORMAT_END
309
TABLEFORMAT_END
  1
CELLSTYLE_BEGIN
 90
        3
 91
        2
300
_DATA
309
CELLSTYLE_END
  0
ENDSEC
  0
EOF
