  0
SECTION
  2
HEADER
  9
$ACADVER
  1
AC1015
  9
$ACADMAINTVER
 70
               6
  9
$DWGCODEPAGE
  3
ANSI_932
  9
$INSBASE
 10
0.0
 20
0.0
 30
0.0
  9
$EXTMIN
 10
-2099.9999999999995
 20
-2969.9945852826004
 30
-29.668611111111108
  9
$EXTMAX
 10
2099.9999999999995
 20
2970.0054147174001
 30
29.668611111111108
  9
$LIMMIN
 10
0.0
 20
0.0
  9
$LIMMAX
 10
0.0
 20
0.0
  9
$ORTHOMODE
 70
               0
  9
$REGENMODE
 70
               1
  9
$FILLMODE
 70
               1
  9
$QTEXTMODE
 70
               0
  9
$MIRRTEXT
 70
               1
  9
$LTSCALE
 40
101.59999999999999
  9
$ATTMODE
 70
               1
  9
$TEXTSIZE
 40
0.2
  9
$TRACEWID
 40
1.0
  9
$TEXTSTYLE
  7
Standard
  9
$CLAYER
  8
notes
  9
$CELTYPE
  6
Continuous
  9
$CECOLOR
 62
             256
  9
$CELTSCALE
 40
1.0
  9
$DISPSILH
 70
               0
  9
$DIMSCALE
 40
1.0
  9
$DIMASZ
 40
63.5
  9
$DIMEXO
 40
0.0
  9
$DIMDLI
 40
6.9999999999999396
  9
$DIMRND
 40
0.0
  9
$DIMDLE
 40
0.0
  9
$DIMEXE
 40
39.999999999992397
  9
$DIMTP
 40
0.0
  9
$DIMTM
 40
0.0
  9
$DIMTXT
 40
48.865234375000007
  9
$DIMCEN
 40
0.0
  9
$DIMTSZ
 40
0.0
  9
$DIMTOL
 70
               0
  9
$DIMLIM
 70
               0
  9
$DIMTIH
 70
               0
  9
$DIMTOH
 70
               0
  9
$DIMSE1
 70
               0
  9
$DIMSE2
 70
               0
  9
$DIMTAD
 70
               1
  9
$DIMZIN
 70
              11
  9
$DIMBLK
  1
VW_FILLEDARROW
  9
$DIMASO
 70
               1
  9
$DIMSHO
 70
               1
  9
$DIMPOST
  1
<>
  9
$DIMAPOST
  1
[]
  9
$DIMALT
 70
               0
  9
$DIMALTD
 70
               3
  9
$DIMALTF
 40
0.0393700787401575
  9
$DIMLFAC
 40
1.0
  9
$DIMTOFL
 70
               0
  9
$DIMTVP
 40
0.0
  9
$DIMTIX
 70
               1
  9
$DIMSOXD
 70
               0
  9
$DIMSAH
 70
               0
  9
$DIMBLK1
  1

  9
$DIMBLK2
  1

  9
$DIMSTYLE
  2
JIS
  9
$DIMCLRD
 70
               0
  9
$DIMCLRE
 70
               0
  9
$DIMCLRT
 70
               0
  9
$DIMTFAC
 40
1.0
  9
$DIMGAP
 40
1.00000000000108
  9
$DIMJUST
 70
               0
  9
$DIMSD1
 70
               0
  9
$DIMSD2
 70
               0
  9
$DIMTOLJ
 70
               1
  9
$DIMTZIN
 70
              11
  9
$DIMALTZ
 70
              15
  9
$DIMALTTZ
 70
              15
  9
$DIMUPT
 70
               0
  9
$DIMDEC
 70
               1
  9
$DIMTDEC
 70
               1
  9
$DIMALTU
 70
               4
  9
$DIMALTTD
 70
               2
  9
$DIMTXSTY
  7
ＭＳ ゴシック
  9
$DIMAUNIT
 70
               0
  9
$DIMADEC
 70
               2
  9
$DIMALTRND
 40
0.0
  9
$DIMAZIN
 70
               0
  9
$DIMDSEP
 70
              46
  9
$DIMATFIT
 70
               0
  9
$DIMFRAC
 70
               2
  9
$DIMLDRBLK
  1

  9
$DIMLUNIT
 70
               2
  9
$DIMLWD
 70
              -2
  9
$DIMLWE
 70
              -2
  9
$DIMTMOVE
 70
               0
  9
$LUNITS
 70
               2
  9
$LUPREC
 70
               4
  9
$SKETCHINC
 40
0.1
  9
$FILLETRAD
 40
0.0
  9
$AUNITS
 70
               0
  9
$AUPREC
 70
               0
  9
$MENU
  1
acad
  9
$ELEVATION
 40
0.0
  9
$PELEVATION
 40
0.0
  9
$THICKNESS
 40
0.0
  9
$LIMCHECK
 70
               0
  9
$CHAMFERA
 40
0.0
  9
$CHAMFERB
 40
0.0
  9
$CHAMFERC
 40
0.0
  9
$CHAMFERD
 40
0.0
  9
$SKPOLY
 70
               0
  9
$TDCREATE
 40
2455827.631516204
  9
$TDUCREATE
 40
0.000000000
  9
$TDUPDATE
 40
2455827.631516204
  9
$TDUUPDATE
 40
0.000000000
  9
$TDINDWG
 40
0.0000000000
  9
$TDUSRTIMER
 40
0.0000000000
  9
$USRTIMER
 70
               1
  9
$ANGBASE
 50
0.0
  9
$ANGDIR
 70
               0
  9
$PDMODE
 70
               1
  9
$PDSIZE
 40
-2.0
  9
$PLINEWID
 40
0.0
  9
$SPLFRAME
 70
               0
  9
$SPLINETYPE
 70
               6
  9
$SPLINESEGS
 70
               8
  9
$HANDSEED
  5
32F
  9
$SURFTAB1
 70
               6
  9
$SURFTAB2
 70
               6
  9
$SURFTYPE
 70
               6
  9
$SURFU
 70
               6
  9
$SURFV
 70
               6
  9
$UCSBASE
  2

  9
$UCSNAME
  2

  9
$UCSORG
 10
0.0
 20
0.0
 30
0.0
  9
$UCSXDIR
 10
1.0
 20
0.0
 30
0.0
  9
$UCSYDIR
 10
0.0
 20
1.0
 30
0.0
  9
$UCSORTHOREF
  2

  9
$UCSORTHOVIEW
 70
               0
  9
$UCSORGTOP
 10
0.0
 20
0.0
 30
0.0
  9
$UCSORGBOTTOM
 10
0.0
 20
0.0
 30
0.0
  9
$UCSORGLEFT
 10
0.0
 20
0.0
 30
0.0
  9
$UCSORGRIGHT
 10
0.0
 20
0.0
 30
0.0
  9
$UCSORGFRONT
 10
0.0
 20
0.0
 30
0.0
  9
$UCSORGBACK
 10
0.0
 20
0.0
 30
0.0
  9
$PUCSBASE
  2

  9
$PUCSNAME
  2

  9
$PUCSORG
 10
0.0
 20
0.0
 30
0.0
  9
$PUCSXDIR
 10
1.0
 20
0.0
 30
0.0
  9
$PUCSYDIR
 10
0.0
 20
1.0
 30
0.0
  9
$PUCSORTHOREF
  2

  9
$PUCSORTHOVIEW
 70
               0
  9
$PUCSORGTOP
 10
0.0
 20
0.0
 30
0.0
  9
$PUCSORGBOTTOM
 10
0.0
 20
0.0
 30
0.0
  9
$PUCSORGLEFT
 10
0.0
 20
0.0
 30
0.0
  9
$PUCSORGRIGHT
 10
0.0
 20
0.0
 30
0.0
  9
$PUCSORGFRONT
 10
0.0
 20
0.0
 30
0.0
  9
$PUCSORGBACK
 10
0.0
 20
0.0
 30
0.0
  9
$USERI1
 70
               0
  9
$USERI2
 70
               0
  9
$USERI3
 70
               0
  9
$USERI4
 70
               0
  9
$USERI5
 70
               0
  9
$USERR1
 40
0.0
  9
$USERR2
 40
0.0
  9
$USERR3
 40
0.0
  9
$USERR4
 40
0.0
  9
$USERR5
 40
0.0
  9
$WORLDVIEW
 70
               1
  9
$SHADEDGE
 70
               3
  9
$SHADEDIF
 70
              70
  9
$TILEMODE
 70
               1
  9
$MAXACTVP
 70
              64
  9
$PINSBASE
 10
0.0
 20
0.0
 30
0.0
  9
$PLIMCHECK
 70
               0
  9
$PEXTMIN
 10
1.0000000000000000E+20
 20
1.0000000000000000E+20
 30
1.0000000000000000E+20
  9
$PEXTMAX
 10
-1.0000000000000000E+20
 20
-1.0000000000000000E+20
 30
-1.0000000000000000E+20
  9
$PLIMMIN
 10
0.0
 20
0.0
  9
$PLIMMAX
 10
12.0
 20
9.0
  9
$UNITMODE
 70
               0
  9
$VISRETAIN
 70
               0
  9
$PLINEGEN
 70
               1
  9
$PSLTSCALE
 70
               0
  9
$TREEDEPTH
 70
            3020
  9
$CMLSTYLE
  2
Standard
  9
$CMLJUST
 70
               0
  9
$CMLSCALE
 40
1.0
  9
$PROXYGRAPHICS
 70
               0
  9
$MEASUREMENT
 70
               1
  9
$CELWEIGHT
370
               0
  9
$ENDCAPS
280
               0
  9
$JOINSTYLE
280
               0
  9
$LWDISPLAY
290
               1
  9
$INSUNITS
 70
               4
  9
$HYPERLINKBASE
  1

  9
$STYLESHEET
  1

  9
$XEDIT
290
               1
  9
$CEPSNTYPE
380
               0
  9
$PSTYLEMODE
290
               1
  9
$FINGERPRINTGUID
  2

  9
$VERSIONGUID
  2

  9
$EXTNAMES
290
               1
  9
$PSVPSCALE
 40
0.0
  0
ENDSEC
  0
SECTION
  2
CLASSES
  0
CLASS
  1
LWPOLYLINE
  2
AcDbPolyline
  3
AutoCAD 2000
 90
        0
280
               0
281
               1
  0
CLASS
  1
IMAGE
  2
AcDbRasterImage
  3
ISM
 90
      127
280
               0
281
               1
  0
CLASS
  1
OLE2FRAME
  2
AcDbOle2Frame
  3
AutoCAD 2000
 90
        0
280
               0
281
               1
  0
CLASS
  1
HATCH
  2
AcDbHatch
  3
AutoCAD 2000
 90
        0
280
               0
281
               1
  0
CLASS
  1
DICTIONARYVAR
  2
AcDbDictionaryVar
  3
AutoCAD 2000
 90
        0
280
               0
281
               0
  0
CLASS
  1
RASTERVARIABLES
  2
AcDbRasterVariables
  3
ISM
 90
        0
280
               0
281
               0
  0
CLASS
  1
IMAGEDEF
  2
AcDbRasterImageDef
  3
ISM
 90
        0
280
               0
281
               0
  0
CLASS
  1
IMAGEDEF_REACTOR
  2
AcDbRasterImageDefReactor
  3
ISM
 90
        1
280
               0
281
               0
  0
CLASS
  1
IDBUFFER
  2
AcDbIdBuffer
  3
AutoCAD 2000
 90
        0
280
               0
281
               0
  0
CLASS
  1
SPATIAL_FILTER
  2
AcDbSpatialFilter
  3
AutoCAD 2000
 90
        0
280
               0
281
               0
  0
CLASS
  1
XRECORD
  2
AcDbXrecord
  3
AutoCAD 2000
 90
        0
280
               0
281
               0
  0
CLASS
  1
SORTENTSTABLE
  2
AcDbSortentsTable
  3
AutoCAD 2000
 90
        0
280
               0
281
               0
  0
CLASS
  1
LAYER_INDEX
  2
AcDbLayerIndex
  3
AutoCAD 2000
 90
        0
280
               0
281
               0
  0
CLASS
  1
SPATIAL_INDEX
  2
AcDbSpatialIndex
  3
AutoCAD 2000
 90
        0
280
               0
281
               0
  0
CLASS
  1
OBJECT_PTR
  2
CAseDLPNTableRecord
  3
"ASE-LPNTableRecord"
 90
        1
280
               0
281
               0
  0
CLASS
  1
LAYOUT
  2
AcDbLayout
  3
AutoCAD 2000
 90
        0
280
               0
281
               0
  0
CLASS
  1
PLOTSETTINGS
  2
AcDbPlotSettings
  3
AutoCAD 2000
 90
        0
280
               0
281
               0
  0
CLASS
  1
ACDBDICTIONARYWDFLT
  2
AcDbDictionaryWithDefault
  3
AutoCAD 2000
 90
        0
280
               0
281
               0
  0
CLASS
  1
ACDBPLACEHOLDER
  2
AcDbPlaceHolder
  3
AutoCAD 2000
 90
        0
280
               0
281
               0
  0
ENDSEC
  0
SECTION
  2
TABLES
  0
TABLE
  2
VPORT
  5
7
100
AcDbSymbolTable
 70
               1
  0
VPORT
  5
15
100
AcDbSymbolTableRecord
100
AcDbViewportTableRecord
  2
*ACTIVE
 70
               0
 10
0.0
 20
0.0
 11
1.0
 21
1.0
 12
0.0
 22
0.0054147173996171
 13
0.0
 23
0.0
 14
1.0
 24
1.0
 15
0.0
 25
0.0
 16
0.0
 26
0.0
 36
1.0
 17
0.0
 27
0.0
 37
0.0
 40
5940.0
 41
0.688564
 42
50.0
 43
0.0
 44
0.0
 50
0.0
 51
0.0
 71
               0
 72
            2000
 73
               1
 74
               1
 75
               0
 76
               0
 77
               0
 78
               0
281
               0
 65
               0
110
0.0
120
0.0
130
0.0
111
1.0
121
0.0
131
0.0
112
0.0
122
1.0
132
0.0
345
0
346
0
 79
               0
146
0.0
  0
ENDTAB
  0
TABLE
  2
LTYPE
  5
4
100
AcDbSymbolTable
 70
              17
  0
LTYPE
  5
11
100
AcDbSymbolTableRecord
100
AcDbLinetypeTableRecord
  2
ByBlock
 70
              64
  3

 72
              65
 73
               0
 40
0.0
  0
LTYPE
  5
12
100
AcDbSymbolTableRecord
100
AcDbLinetypeTableRecord
  2
ByLayer
 70
              64
  3

 72
              65
 73
               0
 40
0.0
  0
LTYPE
  5
13
100
AcDbSymbolTableRecord
100
AcDbLinetypeTableRecord
  2
Continuous
 70
              64
  3
Solid line
 72
              65
 73
               0
 40
0.0
  0
LTYPE
  5
3E
100
AcDbSymbolTableRecord
100
AcDbLinetypeTableRecord
  2
STYLE_01
 70
               0
  3

 72
              65
 73
               2
 40
0.41664
 49
0.20828
 74
               0
 49
-0.20836
 74
               0
  0
LTYPE
  5
3F
100
AcDbSymbolTableRecord
100
AcDbLinetypeTableRecord
  2
STYLE_02
 70
               0
  3

 72
              65
 73
               2
 40
0.6944250000000001
 49
0.48607
 74
               0
 49
-0.2083550000000001
 74
               0
  0
LTYPE
  5
40
100
AcDbSymbolTableRecord
100
AcDbLinetypeTableRecord
  2
STYLE_03
 70
               0
  3

 72
              65
 73
               2
 40
1.25
 49
1.0416400000000001
 74
               0
 49
-0.2083599999999999
 74
               0
  0
LTYPE
  5
41
100
AcDbSymbolTableRecord
100
AcDbLinetypeTableRecord
  2
STYLE_04
 70
               0
  3

 72
              65
 73
               2
 40
1.5277099999999999
 49
1.3194249999999998
 74
               0
 49
-0.208285
 74
               0
  0
LTYPE
  5
42
100
AcDbSymbolTableRecord
100
AcDbLinetypeTableRecord
  2
STYLE_05
 70
               0
  3

 72
              65
 73
               2
 40
0.20828
 49
0.069425
 74
               0
 49
-0.138855
 74
               0
  0
LTYPE
  5
43
100
AcDbSymbolTableRecord
100
AcDbLinetypeTableRecord
  2
STYLE_06
 70
               0
  3

 72
              65
 73
               4
 40
1.0416400000000001
 49
0.625
 74
               0
 49
-0.20828
 74
               0
 49
0.06943
 74
               0
 49
-0.13893
 74
               0
  0
LTYPE
  5
44
100
AcDbSymbolTableRecord
100
AcDbLinetypeTableRecord
  2
STYLE_07
 70
               0
  3

 72
              65
 73
               6
 40
1.875
 49
0.625
 74
               0
 49
-0.20828
 74
               0
 49
0.6250000000000001
 74
               0
 49
-0.2083599999999999
 74
               0
 49
0.06943
 74
               0
 49
-0.1389299999999999
 74
               0
  0
LTYPE
  5
45
100
AcDbSymbolTableRecord
100
AcDbLinetypeTableRecord
  2
STYLE_08
 70
               0
  3

 72
              65
 73
               6
 40
1.25
 49
0.625
 74
               0
 49
-0.20828
 74
               0
 49
0.06943
 74
               0
 49
-0.13893
 74
               0
 49
0.0694299999999999
 74
               0
 49
-0.13893
 74
               0
  0
LTYPE
  5
46
100
AcDbSymbolTableRecord
100
AcDbLinetypeTableRecord
  2
STYLE_09
 70
               0
  3

 72
              65
 73
               4
 40
5.0
 49
3.75
 74
               0
 49
-0.2777849999999998
 74
               0
 49
0.6944300000000003
 74
               0
 49
-0.2777849999999998
 74
               0
  0
LTYPE
  5
47
100
AcDbSymbolTableRecord
100
AcDbLinetypeTableRecord
  2
STYLE_10
 70
               0
  3

 72
              65
 73
               6
 40
5.9375
 49
3.75
 74
               0
 49
-0.2777849999999998
 74
               0
 49
0.6944300000000003
 74
               0
 49
-0.2777849999999998
 74
               0
 49
0.625
 74
               0
 49
-0.3125
 74
               0
  0
LTYPE
  5
48
100
AcDbSymbolTableRecord
100
AcDbLinetypeTableRecord
  2
STYLE_11
 70
               0
  3

 72
              65
 73
               2
 40
0.1388889763779528
 49
0.0694444881889764
 74
               0
 49
-0.0694444881889764
 74
               0
  0
LTYPE
  5
49
100
AcDbSymbolTableRecord
100
AcDbLinetypeTableRecord
  2
STYLE_12
 70
               0
  3

 72
              65
 73
               4
 40
0.1318369094488189
 49
0.1004965551181102
 74
               0
 49
-0.0072951771653543
 74
               0
 49
0.01675
 74
               0
 49
-0.0072951771653543
 74
               0
  0
LTYPE
  5
4A
100
AcDbSymbolTableRecord
100
AcDbLinetypeTableRecord
  2
STYLE_13
 70
               0
  3

 72
              65
 73
               4
 40
0.1498992125984252
 49
0.1238576771653543
 74
               0
 49
-0.0086805118110236
 74
               0
 49
0.0086805118110236
 74
               0
 49
-0.0086805118110236
 74
               0
  0
LTYPE
  5
4B
100
AcDbSymbolTableRecord
100
AcDbLinetypeTableRecord
  2
STYLE_14
 70
               0
  3

 72
              65
 73
               4
 40
0.2256945866141732
 49
0.0694444881889764
 74
               0
 49
-0.0694444881889764
 74
               0
 49
0.0173611220472441
 74
               0
 49
-0.0694444881889764
 74
               0
  0
ENDTAB
  0
TABLE
  2
LAYER
  5
2
100
AcDbSymbolTable
 70
               5
  0
LAYER
  5
14
100
AcDbSymbolTableRecord
100
AcDbLayerTableRecord
  2
0
 70
               0
 62
               7
  6
Continuous
290
               1
370
              -3
390
1D
  0
LAYER
  5
4C
100
AcDbSymbolTableRecord
100
AcDbLayerTableRecord
  2
Defpoints
 70
               0
 62
               7
  6
Continuous
290
               0
370
              -3
390
1D
  0
LAYER
  5
4D
100
AcDbSymbolTableRecord
100
AcDbLayerTableRecord
  2
template
 70
               0
 62
               7
  6
Continuous
290
               1
370
              -3
390
1D
  0
LAYER
  5
4E
100
AcDbSymbolTableRecord
100
AcDbLayerTableRecord
  2
notes
 70
               0
 62
               7
  6
Continuous
290
               1
370
              -3
390
1D
  0
LAYER
  5
4F
100
AcDbSymbolTableRecord
100
AcDbLayerTableRecord
  2
FLN72-1701
 70
               0
 62
               7
  6
Continuous
290
               1
370
              -3
390
1D
  0
ENDTAB
  0
TABLE
  2
STYLE
  5
3
100
AcDbSymbolTable
 70
               3
  0
STYLE
  5
17
100
AcDbSymbolTableRecord
100
AcDbTextStyleTableRecord
  2
Standard
 70
               0
 40
0.0
 41
1.0
 50
0.0
 71
               0
 42
0.0
  3
txt
  4
BIGFONT.SHX
  0
STYLE
  5
3C
100
AcDbSymbolTableRecord
100
AcDbTextStyleTableRecord
  2
MS UI Gothic
 70
               0
 40
0.0
 41
1.0
 50
0.0
 71
               0
 42
0.0
  3

  4
MS UI Gothic
1001
ACAD
1000
MS UI Gothic
1071
        0
  0
STYLE
  5
3D
100
AcDbSymbolTableRecord
100
AcDbTextStyleTableRecord
  2
ＭＳ ゴシック
 70
               0
 40
0.0
 41
1.0
 50
0.0
 71
               0
 42
0.0
  3

  4
ＭＳ ゴシック
1001
ACAD
1000
ＭＳ ゴシック
1071
        0
  0
ENDTAB
  0
TABLE
  2
VIEW
  5
5
100
AcDbSymbolTable
 70
               0
  0
ENDTAB
  0
TABLE
  2
UCS
  5
6
100
AcDbSymbolTable
 70
               0
  0
ENDTAB
  0
TABLE
  2
APPID
  5
8
100
AcDbSymbolTable
 70
               1
  0
APPID
  5
16
100
AcDbSymbolTableRecord
100
AcDbRegAppTableRecord
  2
ACAD
 70
               0
  0
ENDTAB
  0
TABLE
  2
DIMSTYLE
  5
9
100
AcDbSymbolTable
 70
               4
100
AcDbDimStyleTable
 71
               0
  0
DIMSTYLE
105
18
100
AcDbSymbolTableRecord
100
AcDbDimStyleTableRecord
  2
Standard
 70
               0
  3

  4

 40
1.0
 41
0.18
 42
0.0625
 43
0.38
 44
0.18
 45
0.0
 46
0.0
 47
0.0
 48
0.0
 71
               0
 72
               0
 73
               1
 74
               1
 75
               0
 76
               0
 77
               0
 78
               0
 79
               0
140
0.18
141
0.09
142
0.0
143
25.399999999999999
144
1.0
145
0.0
146
1.0
147
0.09
148
0.0
170
               0
171
               2
172
               0
173
               0
174
               0
175
               0
176
               0
177
               0
178
               0
179
               0
271
               4
272
               4
273
               2
274
               2
275
               0
276
               0
277
               2
278
              46
279
               0
280
               0
281
               0
282
               0
283
               1
284
               0
285
               0
286
               0
288
               0
289
               3
340
17
341
0
342
0
343
0
344
0
371
              -2
372
              -2
  0
DIMSTYLE
105
58
100
AcDbSymbolTableRecord
100
AcDbDimStyleTableRecord
  2
Tform長さ固定
 70
               0
  3
<>
  4
[]
 40
1.0
 41
7.99951171875
 42
49.999999999999993
 43
0.9999999999999999
 44
0.0
 45
0.0
 46
0.0
 47
0.0
 48
0.0
 71
               0
 72
               0
 73
               0
 74
               0
 75
               0
 76
               0
 77
               1
 78
              11
 79
               0
140
48.865234375000007
141
0.0
142
0.0
143
0.0393700787401575
144
1.0
145
0.0
146
1.0
147
0.4999999999999999
148
0.0
170
               0
171
               3
172
               1
173
               0
174
               1
175
               0
176
               0
177
               0
178
               0
179
               2
271
               1
272
               1
273
               4
274
               2
275
               0
276
               2
277
               2
278
              46
279
               0
280
               0
281
               0
282
               0
283
               1
284
              11
285
              15
286
              15
288
               0
289
               0
340
3D
341
50
342
50
343
0
344
0
371
              -2
372
              -2
  0
DIMSTYLE
105
59
100
AcDbSymbolTableRecord
100
AcDbDimStyleTableRecord
  2
T-form線あり
 70
               0
  3
<>
  4
[]
 40
1.0
 41
7.99951171875
 42
49.999999999999993
 43
0.9999999999999999
 44
0.0
 45
0.0
 46
0.0
 47
0.0
 48
0.0
 71
               0
 72
               0
 73
               0
 74
               0
 75
               0
 76
               0
 77
               1
 78
              11
 79
               0
140
48.865234375000007
141
0.0
142
0.0
143
0.0393700787401575
144
1.0
145
0.0
146
1.0
147
0.4999999999999999
148
0.0
170
               0
171
               3
172
               1
173
               0
174
               1
175
               0
176
               0
177
               0
178
               0
179
               2
271
               1
272
               1
273
               4
274
               2
275
               0
276
               2
277
               2
278
              46
279
               0
280
               0
281
               0
282
               0
283
               1
284
              11
285
              15
286
              15
288
               0
289
               0
340
3D
341
50
342
50
343
0
344
0
371
              -2
372
              -2
  0
DIMSTYLE
105
5E
100
AcDbSymbolTableRecord
100
AcDbDimStyleTableRecord
  2
JIS
 70
               0
  3
<>
  4
[]
 40
1.0
 41
63.5
 42
0.0
 43
6.9999999999999396
 44
39.999999999992397
 45
0.0
 46
0.0
 47
0.0
 48
0.0
 71
               0
 72
               0
 73
               0
 74
               0
 75
               0
 76
               0
 77
               1
 78
              11
 79
               0
140
48.865234375000007
141
0.0
142
0.0
143
0.0393700787401575
144
1.0
145
0.0
146
1.0
147
1.00000000000108
148
0.0
170
               0
171
               3
172
               0
173
               0
174
               1
175
               0
176
               0
177
               0
178
               0
179
               2
271
               1
272
               1
273
               4
274
               2
275
               0
276
               2
277
               2
278
              46
279
               0
280
               0
281
               0
282
               0
283
               1
284
              11
285
              15
286
              15
288
               0
289
               0
340
3D
341
5A
342
5A
343
0
344
0
371
              -2
372
              -2
  0
ENDTAB
  0
TABLE
  2
BLOCK_RECORD
  5
1
100
AcDbSymbolTable
 70
              27
  0
BLOCK_RECORD
  5
A
100
AcDbSymbolTableRecord
100
AcDbBlockTableRecord
  2
*MODEL_SPACE
340
20
  0
BLOCK_RECORD
  5
B
100
AcDbSymbolTableRecord
100
AcDbBlockTableRecord
  2
*PAPER_SPACE
340
21
  0
BLOCK_RECORD
  5
50
100
AcDbSymbolTableRecord
100
AcDbBlockTableRecord
  2
_DOT
340
0
  0
BLOCK_RECORD
  5
5A
100
AcDbSymbolTableRecord
100
AcDbBlockTableRecord
  2
VW_FILLEDARROW
340
0
  0
BLOCK_RECORD
  5
23
100
AcDbSymbolTableRecord
100
AcDbBlockTableRecord
  2
グループ
340
0
102
{BLKREFS
331
68
102
}
  0
BLOCK_RECORD
  5
24
100
AcDbSymbolTableRecord
100
AcDbBlockTableRecord
  2
グループ-1
340
0
102
{BLKREFS
331
199
102
}
  0
BLOCK_RECORD
  5
25
100
AcDbSymbolTableRecord
100
AcDbBlockTableRecord
  2
*D4
340
0
  0
BLOCK_RECORD
  5
26
100
AcDbSymbolTableRecord
100
AcDbBlockTableRecord
  2
*D5
340
0
  0
BLOCK_RECORD
  5
27
100
AcDbSymbolTableRecord
100
AcDbBlockTableRecord
  2
*D6
340
0
  0
BLOCK_RECORD
  5
28
100
AcDbSymbolTableRecord
100
AcDbBlockTableRecord
  2
*D7
340
0
  0
BLOCK_RECORD
  5
29
100
AcDbSymbolTableRecord
100
AcDbBlockTableRecord
  2
*D8
340
0
  0
BLOCK_RECORD
  5
2A
100
AcDbSymbolTableRecord
100
AcDbBlockTableRecord
  2
*D9
340
0
  0
BLOCK_RECORD
  5
2B
100
AcDbSymbolTableRecord
100
AcDbBlockTableRecord
  2
*D10
340
0
  0
BLOCK_RECORD
  5
2C
100
AcDbSymbolTableRecord
100
AcDbBlockTableRecord
  2
*D11
340
0
  0
BLOCK_RECORD
  5
2D
100
AcDbSymbolTableRecord
100
AcDbBlockTableRecord
  2
*D12
340
0
  0
BLOCK_RECORD
  5
2E
100
AcDbSymbolTableRecord
100
AcDbBlockTableRecord
  2
*D13
340
0
  0
BLOCK_RECORD
  5
2F
100
AcDbSymbolTableRecord
100
AcDbBlockTableRecord
  2
*D14
340
0
  0
BLOCK_RECORD
  5
30
100
AcDbSymbolTableRecord
100
AcDbBlockTableRecord
  2
*D15
340
0
  0
BLOCK_RECORD
  5
31
100
AcDbSymbolTableRecord
100
AcDbBlockTableRecord
  2
*D16
340
0
  0
BLOCK_RECORD
  5
32
100
AcDbSymbolTableRecord
100
AcDbBlockTableRecord
  2
*D17
340
0
  0
BLOCK_RECORD
  5
33
100
AcDbSymbolTableRecord
100
AcDbBlockTableRecord
  2
*D18
340
0
  0
BLOCK_RECORD
  5
34
100
AcDbSymbolTableRecord
100
AcDbBlockTableRecord
  2
*D19
340
0
  0
BLOCK_RECORD
  5
35
100
AcDbSymbolTableRecord
100
AcDbBlockTableRecord
  2
*D20
340
0
  0
BLOCK_RECORD
  5
36
100
AcDbSymbolTableRecord
100
AcDbBlockTableRecord
  2
*D21
340
0
  0
BLOCK_RECORD
  5
37
100
AcDbSymbolTableRecord
100
AcDbBlockTableRecord
  2
*D22
340
0
  0
BLOCK_RECORD
  5
38
100
AcDbSymbolTableRecord
100
AcDbBlockTableRecord
  2
*D23
340
0
  0
BLOCK_RECORD
  5
39
100
AcDbSymbolTableRecord
100
AcDbBlockTableRecord
  2
*D24
340
0
  0
BLOCK_RECORD
  5
3A
100
AcDbSymbolTableRecord
100
AcDbBlockTableRecord
  2
グループ-2
340
0
102
{BLKREFS
331
31C
102
}
  0
BLOCK_RECORD
  5
3B
100
AcDbSymbolTableRecord
100
AcDbBlockTableRecord
  2
グループ-3
340
0
102
{BLKREFS
331
31D
102
}
  0
ENDTAB
  0
ENDSEC
  0
SECTION
  2
BLOCKS
  0
BLOCK
  5
D
100
AcDbEntity
  8
0
390
0
100
AcDbBlockBegin
  2
*MODEL_SPACE
 70
               0
 10
0.0
 20
0.0
 30
0.0
  3
*MODEL_SPACE
  1

  0
ENDBLK
  5
E
100
AcDbEntity
  8
0
390
0
100
AcDbBlockEnd
  0
BLOCK
  5
F
100
AcDbEntity
 67
               1
  8
0
390
0
100
AcDbBlockBegin
  2
*PAPER_SPACE
 70
               0
 10
0.0
 20
0.0
 30
0.0
  3
*PAPER_SPACE
  1

  0
ENDBLK
  5
10
100
AcDbEntity
 67
               1
  8
0
390
0
100
AcDbBlockEnd
  0
BLOCK
  5
51
100
AcDbEntity
  8
0
390
0
100
AcDbBlockBegin
  2
_DOT
 70
               0
 10
0.0
 20
0.0
 30
0.0
  3
_DOT
  1

  0
POLYLINE
  5
52
100
AcDbEntity
  8
0
370
              -2
390
0
  6
ByBlock
 62
               0
100
AcDb2dPolyline
 66
               1
 10
0.0
 20
0.0
 30
0.0
 70
               1
 40
0.5
 41
0.5
  0
VERTEX
  5
53
100
AcDbEntity
  8
0
370
              -2
390
0
  6
ByBlock
 62
               0
100
AcDbVertex
100
AcDb2dVertex
 10
-0.25
 20
0.0
 30
0.0
 42
1.0
  0
VERTEX
  5
54
100
AcDbEntity
  8
0
370
              -2
390
0
  6
ByBlock
 62
               0
100
AcDbVertex
100
AcDb2dVertex
 10
0.25
 20
0.0
 30
0.0
 42
1.0
  0
SEQEND
  5
55
100
AcDbEntity
  8
0
390
0
  0
LINE
  5
56
100
AcDbEntity
  8
0
370
              -2
390
0
  6
ByBlock
 62
               0
100
AcDbLine
 10
-0.5
 20
0.0
 30
0.0
 11
-1.0
 21
0.0
 31
0.0
  0
ENDBLK
  5
57
100
AcDbEntity
  8
0
390
0
100
AcDbBlockEnd
  0
BLOCK
  5
5B
100
AcDbEntity
  8
0
370
              -2
390
0
  6
ByBlock
 62
               0
100
AcDbBlockBegin
  2
VW_FILLEDARROW
 70
               0
 10
0.0
 20
0.0
 30
0.0
  3
VW_FILLEDARROW
  1

  0
SOLID
  5
5C
100
AcDbEntity
  8
0
370
              -2
390
0
 62
               0
100
AcDbTrace
 10
0.0
 20
0.0
 30
0.0
 11
-0.9921874999999999
 21
-0.2658558393652545
 31
0.0
 12
-0.9921874999999999
 22
0.2658558393652548
 32
0.0
 13
-0.9921874999999999
 23
0.2658558393652548
 33
0.0
  0
ENDBLK
  5
5D
100
AcDbEntity
  8
0
390
0
100
AcDbBlockEnd
  0
BLOCK
  5
5F
100
AcDbEntity
  8
template
390
0
100
AcDbBlockBegin
  2
グループ
 70
               0
 10
0.0
 20
0.0
 30
0.0
  3
グループ
  1

  0
LWPOLYLINE
  5
60
100
AcDbEntity
  8
0
370
              15
390
0
  6
Continuous
 62
               7
100
AcDbPolyline
 90
        8
 70
             129
 10
1774.8570156061496
 20
-2668.9740273299717
 10
1774.8570156061496
 20
-2680.9688047171235
 10
1755.854621770143
 20
-2680.9688047171235
 10
1755.854621770143
 20
-2729.8707312441411
 10
1739.1438672465774
 20
-2729.8707312441411
 10
1739.1438672465774
 20
-2680.9688047171235
 10
1720.4779533539586
 20
-2680.9688047171235
 10
1720.4779533539586
 20
-2668.9740273299717
  0
LWPOLYLINE
  5
61
100
AcDbEntity
  8
0
370
              15
390
0
  6
Continuous
 62
               7
100
AcDbPolyline
 90
      101
 70
             128
 10
1800.3135992672635
 20
-2670.4305243158447
 10
1800.3442993248336
 20
-2670.4218028024743
 42
-0.0222221607812283
 10
1800.9243084781756
 20
-2670.2845538719853
 10
1800.9558960061624
 20
-2670.2785470257913
 42
-0.0146883565586854
 10
1801.4813014166111
 20
-2670.1945406518926
 42
-0.0127458844187406
 10
1802.0105793509072
 20
-2670.1394667157483
 10
1802.1354895075428
 20
-2670.1296798705712
 42
-0.0198099018566978
 10
1802.9171877264966
 20
-2670.0995095557782
 10
1803.020810665384
 20
-2670.0996171071083
 42
-0.0147617382765147
 10
1804.0100575873269
 20
-2670.1298571575976
 10
1804.155440497078
 20
-2670.1386023713731
 42
-0.0162624549004703
 10
1804.9357477560116
 20
-2670.2110681219178
 10
1805.1788125385403
 20
-2670.241641239912
 42
-0.0080020874660664
 10
1805.4699706007132
 20
-2670.2830069344477
 10
1805.5466095418972
 20
-2670.295149490069
 42
-0.005382192967833
 10
1805.6835777525328
 20
-2670.318364537713
 10
1804.2307663541355
 20
-2674.6802214491408
 42
0.0108667757394062
 10
1804.096132213866
 20
-2674.6538472186994
 10
1804.021196167495
 20
-2674.6408517335121
 42
0.017066320330763
 10
1803.7347625936668
 20
-2674.6011925389289
 10
1803.5990119282978
 20
-2674.5870981977537
 42
0.0220162375276392
 10
1803.0382531125849
 20
-2674.5537334762134
 10
1802.8825419784835
 20
-2674.5513347416804
 42
0.028260691578391
 10
1802.2112693313272
 20
-2674.5789412956183
 10
1802.1234427837824
 20
-2674.5875412756259
 42
0.0169677213690595
 10
1801.6315937938648
 20
-2674.65261537473
 42
0.0190576269865374
 10
1801.1457778687111
 20
-2674.7529091189408
 10
1801.1332594924829
 20
-2674.7559950671612
 42
0.0213685642844021
 10
1800.6324905235224
 20
-2674.9023956373721
 10
1800.621510733695
 20
-2674.9061216294886
 42
0.0237595297591213
 10
1800.1145209638921
 20
-2675.105490673282
 10
1800.1043168158383
 20
-2675.1100742242361
 42
0.0261857468810989
 10
1799.5999752633782
 20
-2675.369146898985
 10
1799.5791228852058
 20
-2675.381277847921
 42
0.0272553062019101
 10
1799.1062633347274
 20
-2675.692022259811
 10
1799.0367373077024
 20
-2675.743344556
 42
0.0325996893180971
 10
1798.7364266204054
 20
-2675.9968403019379
 10
1798.6890077621485
 20
-2676.042476358974
 42
0.0138050960639914
 10
1798.5052414497391
 20
-2676.2293756820673
 42
0.0125280103805281
 10
1798.3315563840713
 20
-2676.4257023352679
 10
1798.2841954942553
 20
-2676.4820193316418
 42
0.0205218024729119
 10
1798.0339953432315
 20
-2676.8056059600949
 10
1797.9890626622537
 20
-2676.8689254197539
 42
0.0163110129581913
 10
1797.6776419037506
 20
-2677.3395862898942
 10
1797.6721941116491
 20
-2677.3484338138646
 42
0.0131897341896935
 10
1797.3785930698396
 20
-2677.854697998589
 10
1797.3751928791044
 20
-2677.8609344768647
 42
0.0107895576059858
 10
1797.0996394746903
 20
-2678.3933648961201
 10
1797.0981736956328
 20
-2678.3963533614283
 42
0.0091371507219095
 10
1796.8412137983303
 20
-2678.9454037569553
 10
1796.7817225355152
 20
-2679.0788167712653
 42
0.0135418326351206
 10
1796.4382946573771
 20
-2679.9086923417894
 10
1796.3710850405048
 20
-2680.0844246263619
 42
0.0092834542409608
 10
1796.0286269206617
 20
-2681.0322216229761
 10
1795.9773926652347
 20
-2681.1827037625385
 42
0.0054261043577207
 10
1795.7621163686404
 20
-2681.8382317086925
 10
1795.727064396227
 20
-2681.949008033338
 42
0.0008225090822161
 10
1795.5897242926255
 20
-2682.3855455494513
 10
1793.6203460287586
 20
-2688.4353281359645
 10
1800.0855937089063
 20
-2688.4353281359645
 10
1799.0772088491995
 20
-2692.2442847326693
 10
1792.5650962852328
 20
-2692.2442847326693
 10
1780.9067982205252
 20
-2729.870730864679
 10
1777.2566029999045
 20
-2729.870730864679
 10
1788.9259590709064
 20
-2692.2442847326693
 10
1784.1157263328257
 20
-2692.2442847326693
 10
1785.1241111925326
 20
-2688.4353281359645
 10
1789.9812088144326
 20
-2688.4353281359645
 10
1791.7015186508099
 20
-2683.1625021345667
 42
-0.0005863560650262
 10
1791.7749880070619
 20
-2682.9288492944747
 10
1791.9271636745377
 20
-2682.4468646952123
 42
-0.0087522378925693
 10
1792.3260999614515
 20
-2681.256312520919
 10
1792.5106285122743
 20
-2680.7360321839046
 42
-0.0077400953830536
 10
1793.0264958305406
 20
-2679.3500228287967
 10
1793.0580257736938
 20
-2679.2691610620363
 42
-0.0082369946330518
 10
1793.5521947149223
 20
-2678.0610029296331
 42
-0.0085725238363833
 10
1794.0866869069314
 20
-2676.8701508510521
 10
1794.2899461089467
 20
-2676.437308647081
 42
-0.0168109410595879
 10
1794.8638349664029
 20
-2675.3148935948802
 10
1795.1155217473481
 20
-2674.860965528836
 42
-0.0007817726859269
 10
1795.2240904474343
 20
-2674.6658770388231
 10
1795.224347059469
 20
-2674.6654176213501
 42
-0.0036626142157143
 10
1795.3341227875112
 20
-2674.4722218614133
 42
-0.0080221150679748
 10
1795.4483712983233
 20
-2674.2816633919101
 10
1795.509771201047
 20
-2674.1828814936634
 42
-0.020213932556849
 10
1795.7650826806605
 20
-2673.8069182923005
 10
1795.8732176110357
 20
-2673.6607605638187
 42
-0.0249323791798447
 10
1796.3915431984742
 20
-2673.0286700795095
 10
1796.439822826728
 20
-2672.9754415336847
 42
-0.0242132121536684
 10
1797.11918430981
 20
-2672.2956745612787
 10
1797.2150074553151
 20
-2672.2086562889031
 42
-0.025101752785879
 10
1797.7829708565946
 20
-2671.7426707973755
 10
1797.7858618102232
 20
-2671.7405322822169
 42
-0.0130868069040762
 10
1798.3823831101367
 20
-2671.3229713451324
 10
1798.3855067484199
 20
-2671.3209044645837
 42
-0.0290329526391372
 10
1799.0077290312088
 20
-2670.9592534613239
 10
1799.0674201551917
 20
-2670.9290486956393
 42
-0.0160250190043653
 10
1799.5992289827104
 20
-2670.6810164752178
 42
-0.0267600374781006
 10
1800.1497811376528
 20
-2670.4795198341194
 10
1800.2032529766896
 20
-2670.4631347164695
 42
-0.0049981587670053
 10
1800.3135992672635
 20
-2670.4305243158447
 42
-0.0049981587670053
  0
LWPOLYLINE
  5
62
100
AcDbEntity
  8
0
370
              15
390
0
  6
Continuous
 62
               7
100
AcDbPolyline
 90
      118
 70
             128
 10
1839.9423343961573
 20
-2688.5832947916192
 10
1843.6925782451563
 20
-2688.5832947916192
 10
1842.0165004339565
 20
-2693.9464278444193
 42
-0.0010587229211422
 10
1842.0794120651524
 20
-2693.8726187776474
 10
1842.1958002463643
 20
-2693.7366542653572
 42
-0.0071874740407281
 10
1842.4965506825697
 20
-2693.3953728812889
 10
1842.7799962290849
 20
-2693.0829005986725
 42
-0.0148118053512363
 10
1843.6802548145149
 20
-2692.1476729066421
 10
1843.8546994843159
 20
-2691.9768782649376
 42
-0.0086273358692412
 10
1844.5257970863308
 20
-2691.3421269969067
 10
1844.6134645187838
 20
-2691.2620277082397
 42
-0.0103138323110657
 10
1845.1295119232495
 20
-2690.809701433564
 10
1845.2210607358813
 20
-2690.7327373390622
 42
-0.0060206748566775
 10
1845.5667568641281
 20
-2690.4491480375345
 10
1845.5708191258984
 20
-2690.4458966262732
 42
-0.0067069027288388
 10
1845.9154047552252
 20
-2690.1775953586821
 10
1845.9205022870788
 20
-2690.1737350189301
 42
-0.0076184352042701
 10
1846.2623128188197
 20
-2689.9229852684439
 42
-0.0089652861674684
 10
1846.6122347442808
 20
-2689.6837187477845
 10
1846.6849381845836
 20
-2689.6358963208099
 42
-0.0156916245935726
 10
1847.076857178899
 20
-2689.3953713478641
 42
-0.002329901106332
 10
1847.4773812667786
 20
-2689.1690154688272
 10
1847.5081495316183
 20
-2689.1518154786531
 42
-0.0107669341484053
 10
1847.9766231818176
 20
-2688.9030152119558
 10
1848.0211527839706
 20
-2688.8805817120542
 42
-0.0078058045895926
 10
1848.588333019874
 20
-2688.6058588007782
 10
1848.6081471952944
 20
-2688.5966405450404
 42
-0.0181829330473932
 10
1849.2287660045174
 20
-2688.3349130628521
 10
1849.3368768896635
 20
-2688.2938828229603
 42
-0.0208411536025736
 10
1850.0350468245597
 20
-2688.0617018979756
 10
1850.0637590248136
 20
-2688.053465008069
 42
-0.0222799817135775
 10
1850.721198612649
 20
-2687.896181875788
 10
1850.7389765391213
 20
-2687.8927578546181
 42
-0.0215509523883926
 10
1851.3719184756828
 20
-2687.7989264775497
 10
1851.4568823977829
 20
-2687.7900514239677
 42
-0.0182545924873351
 10
1851.925099956391
 20
-2687.7583637731859
 10
1852.0039019890914
 20
-2687.7559146830272
 42
-0.0072962856529064
 10
1852.3157477484651
 20
-2687.7507760259832
 10
1852.3739470895953
 20
-2687.7506663551758
 42
-0.0059227516312887
 10
1852.569446087899
 20
-2687.7526137787563
 10
1852.6279305228147
 20
-2687.7538893119622
 42
-0.0011833111893351
 10
1852.7064330903077
 20
-2687.7557873205833
 10
1851.1156598990933
 20
-2692.8332552107813
 42
0.0143932051524636
 10
1851.0628571343898
 20
-2692.8128572706896
 10
1851.0483131895576
 20
-2692.8077148329758
 42
0.0234388603494022
 10
1850.9646514576934
 20
-2692.7824763615454
 10
1850.9472881318679
 20
-2692.7781144375354
 42
0.0199162742988474
 10
1850.8267104637048
 20
-2692.7528809668647
 10
1850.7850825880955
 20
-2692.7458865680082
 42
0.0293643550669223
 10
1850.578932870575
 20
-2692.7235864767017
 10
1850.5295625091367
 20
-2692.7211632426647
 42
0.0214606686870448
 10
1850.223280677234
 20
-2692.71928612183
 10
1850.2045368555957
 20
-2692.7199759449186
 42
0.0167564054187873
 10
1849.8614964733808
 20
-2692.7441300296546
 10
1849.844576887861
 20
-2692.745892710509
 42
0.0137677553246399
 10
1849.4698702613323
 20
-2692.7953913275956
 10
1849.4551667823157
 20
-2692.7977471675317
 42
0.0118497261481205
 10
1849.0541712541105
 20
-2692.8717818679102
 10
1849.0418712396186
 20
-2692.8743555933502
 42
0.0106421143891936
 10
1848.6201094650505
 20
-2692.9720203444995
 10
1848.6102918482704
 20
-2692.97451502987
 42
0.0099746379706426
 10
1848.1733749099415
 20
-2693.0948640865008
 10
1848.0502788296048
 20
-2693.1314278437608
 42
0.0191613675860962
 10
1847.3783099045756
 20
-2693.3593826043343
 10
1847.2021903590787
 20
-2693.4267564249849
 42
0.0205274080147135
 10
1846.4315768152815
 20
-2693.7584132406359
 10
1846.3162782513105
 20
-2693.8137491697839
 42
0.0181256912193595
 10
1845.7997243699836
 20
-2694.0851168077361
 10
1845.6938136033502
 20
-2694.1457520341687
 42
0.0140709242412418
 10
1845.403903734099
 20
-2694.3227413810346
 10
1845.3514059968652
 20
-2694.3568550184636
 42
0.0086667884399223
 10
1845.173553673777
 20
-2694.4768603542311
 42
0.003640819201488
 10
1844.9986871977594
 20
-2694.6012220697803
 10
1844.928233448773
 20
-2694.6521039616414
 42
0.0052260781283436
 10
1844.6157760539713
 20
-2694.8827687349244
 10
1844.5833623414715
 20
-2694.9072249561459
 42
0.0050024435892504
 10
1844.2113556553486
 20
-2695.1937900926746
 10
1844.1807193423235
 20
-2695.2178821375619
 42
0.0136138710277092
 10
1843.7598368056708
 20
-2695.5678151473908
 10
1843.6925010540858
 20
-2695.626973092817
 42
0.0172815186909998
 10
1843.1636939707632
 20
-2696.1249664380612
 10
1843.1585692790754
 20
-2696.130138072358
 42
0.0189403857991616
 10
1842.657405681914
 20
-2696.6757486019706
 10
1842.5921426948451
 20
-2696.7524364649616
 42
0.0185044199506342
 10
1842.2082298168853
 20
-2697.2389336272072
 42
0.0088565243901835
 10
1841.8513096036284
 20
-2697.7459664675071
 10
1841.8329536443314
 20
-2697.7730492270271
 42
0.0157195347233255
 10
1841.4665124316512
 20
-2698.3520936456789
 10
1841.3743465477992
 20
-2698.5083980397039
 42
0.009545187978228
 10
1841.0441754475262
 20
-2699.0935873244134
 10
1841.021879609661
 20
-2699.1349286686882
 42
0.0100351706259463
 10
1840.7577921113484
 20
-2699.6490397896587
 42
0.0086935915427105
 10
1840.5131298077608
 20
-2700.1727060804665
 10
1840.5064883249313
 20
-2700.1875907264111
 42
0.0072580174868562
 10
1840.2657954210395
 20
-2700.748774709582
 10
1840.2592721544288
 20
-2700.7646147616133
 42
0.0060005122612748
 10
1840.0208708177479
 20
-2701.3638341028113
 10
1840.0144488610601
 20
-2701.3805571586327
 42
0.0049017786976095
 10
1839.7766485433483
 20
-2702.0184151198332
 10
1839.7703169305644
 20
-2702.0359209943026
 42
0.0039415167601332
 10
1839.5314443744517
 20
-2702.713005119127
 10
1839.5251821691468
 20
-2702.7312115208811
 42
0.0031035838764651
 10
1839.2835725977411
 20
-2703.4480912444869
 10
1839.2773525086998
 20
-2703.4669324871775
 42
0.0025070747152459
 10
1839.0315498060806
 20
-2704.2242269210296
 10
1838.9569620132183
 20
-2704.4580102515715
 42
0.002908191028505
 10
1838.5729254175881
 20
-2705.6863375681824
 10
1838.4913190805626
 20
-2705.9527840527066
 42
0.000926645373586
 10
1837.9544843319077
 20
-2707.7172329726377
 10
1837.9127093867482
 20
-2707.8554567307065
 42
-0.0005809993666905
 10
1837.3580360254696
 20
-2709.6830729443036
 10
1837.2254724289335
 20
-2710.1180428085904
 42
-0.001201870816555
 10
1836.9315038100654
 20
-2711.0743681376644
 10
1836.8268641066136
 20
-2711.4118864204283
 42
-0.0002691059611808
 10
1836.7397251445971
 20
-2711.6924216600796
 10
1831.0738133480186
 20
-2729.870730864679
 10
1827.4378355640615
 20
-2729.870730864679
 10
1839.9423343961573
 20
-2688.5832947916192
  0
SPLINE
  5
63
100
AcDbEntity
  8
0
370
              15
390
0
  6
Continuous
 62
               7
100
AcDbSpline
210
0.0
220
0.0
230
1.0
 70
              13
 71
               2
 72
             782
 73
             779
 74
               0
 42
0.000001
 43
0.000001
 40
0.0
 40
0.0
 40
0.0
 40
1.0
 40
1.0
 40
2.0
 40
2.0
 40
3.0
 40
3.0
 40
4.0
 40
4.0
 40
5.0
 40
5.0
 40
6.0
 40
6.0
 40
7.0
 40
7.0
 40
8.0
 40
8.0
 40
9.0
 40
9.0
 40
10.0
 40
10.0
 40
11.0
 40
11.0
 40
12.0
 40
12.0
 40
13.0
 40
13.0
 40
14.0
 40
14.0
 40
15.0
 40
15.0
 40
16.0
 40
16.0
 40
17.0
 40
17.0
 40
18.0
 40
18.0
 40
19.0
 40
19.0
 40
20.0
 40
20.0
 40
21.0
 40
21.0
 40
22.0
 40
22.0
 40
23.0
 40
23.0
 40
24.0
 40
24.0
 40
25.0
 40
25.0
 40
26.0
 40
26.0
 40
27.0
 40
27.0
 40
28.0
 40
28.0
 40
29.0
 40
29.0
 40
30.0
 40
30.0
 40
31.0
 40
31.0
 40
32.0
 40
32.0
 40
33.0
 40
33.0
 40
34.0
 40
34.0
 40
35.0
 40
35.0
 40
36.0
 40
36.0
 40
37.0
 40
37.0
 40
38.0
 40
38.0
 40
39.0
 40
39.0
 40
40.0
 40
40.0
 40
41.0
 40
41.0
 40
42.0
 40
42.0
 40
43.0
 40
43.0
 40
44.0
 40
44.0
 40
45.0
 40
45.0
 40
46.0
 40
46.0
 40
47.0
 40
47.0
 40
48.0
 40
48.0
 40
49.0
 40
49.0
 40
50.0
 40
50.0
 40
51.0
 40
51.0
 40
52.0
 40
52.0
 40
53.0
 40
53.0
 40
54.0
 40
54.0
 40
55.0
 40
55.0
 40
56.0
 40
56.0
 40
57.0
 40
57.0
 40
58.0
 40
58.0
 40
59.0
 40
59.0
 40
60.0
 40
60.0
 40
61.0
 40
61.0
 40
62.0
 40
62.0
 40
63.0
 40
63.0
 40
64.0
 40
64.0
 40
65.0
 40
65.0
 40
66.0
 40
66.0
 40
67.0
 40
67.0
 40
68.0
 40
68.0
 40
69.0
 40
69.0
 40
70.0
 40
70.0
 40
71.0
 40
71.0
 40
72.0
 40
72.0
 40
73.0
 40
73.0
 40
74.0
 40
74.0
 40
75.0
 40
75.0
 40
76.0
 40
76.0
 40
77.0
 40
77.0
 40
78.0
 40
78.0
 40
79.0
 40
79.0
 40
80.0
 40
80.0
 40
81.0
 40
81.0
 40
82.0
 40
82.0
 40
83.0
 40
83.0
 40
84.0
 40
84.0
 40
85.0
 40
85.0
 40
86.0
 40
86.0
 40
87.0
 40
87.0
 40
88.0
 40
88.0
 40
89.0
 40
89.0
 40
90.0
 40
90.0
 40
91.0
 40
91.0
 40
92.0
 40
92.0
 40
93.0
 40
93.0
 40
94.0
 40
94.0
 40
95.0
 40
95.0
 40
96.0
 40
96.0
 40
97.0
 40
97.0
 40
98.0
 40
98.0
 40
99.0
 40
99.0
 40
100.0
 40
100.0
 40
101.0
 40
101.0
 40
102.0
 40
102.0
 40
103.0
 40
103.0
 40
104.0
 40
104.0
 40
105.0
 40
105.0
 40
106.0
 40
106.0
 40
107.0
 40
107.0
 40
108.0
 40
108.0
 40
109.0
 40
109.0
 40
110.0
 40
110.0
 40
111.0
 40
111.0
 40
112.0
 40
112.0
 40
113.0
 40
113.0
 40
114.0
 40
114.0
 40
115.0
 40
115.0
 40
116.0
 40
116.0
 40
117.0
 40
117.0
 40
118.0
 40
118.0
 40
119.0
 40
119.0
 40
120.0
 40
120.0
 40
121.0
 40
121.0
 40
122.0
 40
122.0
 40
123.0
 40
123.0
 40
124.0
 40
124.0
 40
125.0
 40
125.0
 40
126.0
 40
126.0
 40
127.0
 40
127.0
 40
128.0
 40
128.0
 40
129.0
 40
129.0
 40
130.0
 40
130.0
 40
131.0
 40
131.0
 40
132.0
 40
132.0
 40
133.0
 40
133.0
 40
134.0
 40
134.0
 40
135.0
 40
135.0
 40
136.0
 40
136.0
 40
137.0
 40
137.0
 40
138.0
 40
138.0
 40
139.0
 40
139.0
 40
140.0
 40
140.0
 40
141.0
 40
141.0
 40
142.0
 40
142.0
 40
143.0
 40
143.0
 40
144.0
 40
144.0
 40
145.0
 40
145.0
 40
146.0
 40
146.0
 40
147.0
 40
147.0
 40
148.0
 40
148.0
 40
149.0
 40
149.0
 40
150.0
 40
150.0
 40
151.0
 40
151.0
 40
152.0
 40
152.0
 40
153.0
 40
153.0
 40
154.0
 40
154.0
 40
155.0
 40
155.0
 40
156.0
 40
156.0
 40
157.0
 40
157.0
 40
158.0
 40
158.0
 40
159.0
 40
159.0
 40
160.0
 40
160.0
 40
161.0
 40
161.0
 40
162.0
 40
162.0
 40
163.0
 40
163.0
 40
164.0
 40
164.0
 40
165.0
 40
165.0
 40
166.0
 40
166.0
 40
167.0
 40
167.0
 40
168.0
 40
168.0
 40
169.0
 40
169.0
 40
170.0
 40
170.0
 40
171.0
 40
171.0
 40
172.0
 40
172.0
 40
173.0
 40
173.0
 40
174.0
 40
174.0
 40
175.0
 40
175.0
 40
176.0
 40
176.0
 40
177.0
 40
177.0
 40
178.0
 40
178.0
 40
179.0
 40
179.0
 40
180.0
 40
180.0
 40
181.0
 40
181.0
 40
182.0
 40
182.0
 40
183.0
 40
183.0
 40
184.0
 40
184.0
 40
185.0
 40
185.0
 40
186.0
 40
186.0
 40
187.0
 40
187.0
 40
188.0
 40
188.0
 40
189.0
 40
189.0
 40
190.0
 40
190.0
 40
191.0
 40
191.0
 40
192.0
 40
192.0
 40
193.0
 40
193.0
 40
194.0
 40
194.0
 40
195.0
 40
195.0
 40
196.0
 40
196.0
 40
197.0
 40
197.0
 40
198.0
 40
198.0
 40
199.0
 40
199.0
 40
200.0
 40
200.0
 40
201.0
 40
201.0
 40
202.0
 40
202.0
 40
203.0
 40
203.0
 40
204.0
 40
204.0
 40
205.0
 40
205.0
 40
206.0
 40
206.0
 40
207.0
 40
207.0
 40
208.0
 40
208.0
 40
209.0
 40
209.0
 40
210.0
 40
210.0
 40
211.0
 40
211.0
 40
212.0
 40
212.0
 40
213.0
 40
213.0
 40
214.0
 40
214.0
 40
215.0
 40
215.0
 40
216.0
 40
216.0
 40
217.0
 40
217.0
 40
218.0
 40
218.0
 40
219.0
 40
219.0
 40
220.0
 40
220.0
 40
221.0
 40
221.0
 40
222.0
 40
222.0
 40
223.0
 40
223.0
 40
224.0
 40
224.0
 40
225.0
 40
225.0
 40
226.0
 40
226.0
 40
227.0
 40
227.0
 40
228.0
 40
228.0
 40
229.0
 40
229.0
 40
230.0
 40
230.0
 40
231.0
 40
231.0
 40
232.0
 40
232.0
 40
233.0
 40
233.0
 40
234.0
 40
234.0
 40
235.0
 40
235.0
 40
236.0
 40
236.0
 40
237.0
 40
237.0
 40
238.0
 40
238.0
 40
239.0
 40
239.0
 40
240.0
 40
240.0
 40
241.0
 40
241.0
 40
242.0
 40
242.0
 40
243.0
 40
243.0
 40
244.0
 40
244.0
 40
245.0
 40
245.0
 40
246.0
 40
246.0
 40
247.0
 40
247.0
 40
248.0
 40
248.0
 40
249.0
 40
249.0
 40
250.0
 40
250.0
 40
251.0
 40
251.0
 40
252.0
 40
252.0
 40
253.0
 40
253.0
 40
254.0
 40
254.0
 40
255.0
 40
255.0
 40
256.0
 40
256.0
 40
257.0
 40
257.0
 40
258.0
 40
258.0
 40
259.0
 40
259.0
 40
260.0
 40
260.0
 40
261.0
 40
261.0
 40
262.0
 40
262.0
 40
263.0
 40
263.0
 40
264.0
 40
264.0
 40
265.0
 40
265.0
 40
266.0
 40
266.0
 40
267.0
 40
267.0
 40
268.0
 40
268.0
 40
269.0
 40
269.0
 40
270.0
 40
270.0
 40
271.0
 40
271.0
 40
272.0
 40
272.0
 40
273.0
 40
273.0
 40
274.0
 40
274.0
 40
275.0
 40
275.0
 40
276.0
 40
276.0
 40
277.0
 40
277.0
 40
278.0
 40
278.0
 40
279.0
 40
279.0
 40
280.0
 40
280.0
 40
281.0
 40
281.0
 40
282.0
 40
282.0
 40
283.0
 40
283.0
 40
284.0
 40
284.0
 40
285.0
 40
285.0
 40
286.0
 40
286.0
 40
287.0
 40
287.0
 40
288.0
 40
288.0
 40
289.0
 40
289.0
 40
290.0
 40
290.0
 40
291.0
 40
291.0
 40
292.0
 40
292.0
 40
293.0
 40
293.0
 40
294.0
 40
294.0
 40
295.0
 40
295.0
 40
296.0
 40
296.0
 40
297.0
 40
297.0
 40
298.0
 40
298.0
 40
299.0
 40
299.0
 40
300.0
 40
300.0
 40
301.0
 40
301.0
 40
302.0
 40
302.0
 40
303.0
 40
303.0
 40
304.0
 40
304.0
 40
305.0
 40
305.0
 40
306.0
 40
306.0
 40
307.0
 40
307.0
 40
308.0
 40
308.0
 40
309.0
 40
309.0
 40
310.0
 40
310.0
 40
311.0
 40
311.0
 40
312.0
 40
312.0
 40
313.0
 40
313.0
 40
314.0
 40
314.0
 40
315.0
 40
315.0
 40
316.0
 40
316.0
 40
317.0
 40
317.0
 40
318.0
 40
318.0
 40
319.0
 40
319.0
 40
320.0
 40
320.0
 40
321.0
 40
321.0
 40
322.0
 40
322.0
 40
323.0
 40
323.0
 40
324.0
 40
324.0
 40
325.0
 40
325.0
 40
326.0
 40
326.0
 40
327.0
 40
327.0
 40
328.0
 40
328.0
 40
329.0
 40
329.0
 40
330.0
 40
330.0
 40
331.0
 40
331.0
 40
332.0
 40
332.0
 40
333.0
 40
333.0
 40
334.0
 40
334.0
 40
335.0
 40
335.0
 40
336.0
 40
336.0
 40
337.0
 40
337.0
 40
338.0
 40
338.0
 40
339.0
 40
339.0
 40
340.0
 40
340.0
 40
341.0
 40
341.0
 40
342.0
 40
342.0
 40
343.0
 40
343.0
 40
344.0
 40
344.0
 40
345.0
 40
345.0
 40
346.0
 40
346.0
 40
347.0
 40
347.0
 40
348.0
 40
348.0
 40
349.0
 40
349.0
 40
350.0
 40
350.0
 40
351.0
 40
351.0
 40
352.0
 40
352.0
 40
353.0
 40
353.0
 40
354.0
 40
354.0
 40
355.0
 40
355.0
 40
356.0
 40
356.0
 40
357.0
 40
357.0
 40
358.0
 40
358.0
 40
359.0
 40
359.0
 40
360.0
 40
360.0
 40
361.0
 40
361.0
 40
362.0
 40
362.0
 40
363.0
 40
363.0
 40
364.0
 40
364.0
 40
365.0
 40
365.0
 40
366.0
 40
366.0
 40
367.0
 40
367.0
 40
368.0
 40
368.0
 40
369.0
 40
369.0
 40
370.0
 40
370.0
 40
371.0
 40
371.0
 40
372.0
 40
372.0
 40
373.0
 40
373.0
 40
374.0
 40
374.0
 40
375.0
 40
375.0
 40
376.0
 40
376.0
 40
377.0
 40
377.0
 40
378.0
 40
378.0
 40
379.0
 40
379.0
 40
380.0
 40
380.0
 40
381.0
 40
381.0
 40
382.0
 40
382.0
 40
383.0
 40
383.0
 40
384.0
 40
384.0
 40
385.0
 40
385.0
 40
386.0
 40
386.0
 40
387.0
 40
387.0
 40
388.0
 40
388.0
 40
389.0
 40
389.0
 40
389.0
 10
1860.5997432976226
 20
-2688.5614420648944
 30
0.0
 41
1.0
 10
1862.2365915150635
 20
-2688.5614420648944
 30
0.0
 41
1.0
 10
1863.8734397325045
 20
-2688.5614420648944
 30
0.0
 41
1.0
 10
1863.0459322614711
 20
-2691.2466945933938
 30
0.0
 41
1.0
 10
1862.2184247904374
 20
-2693.9319471218932
 30
0.0
 41
1.0
 10
1862.2551037807266
 20
-2693.8745455761418
 30
0.0
 41
0.9999957264449635
 10
1862.2921177743799
 20
-2693.8173594758537
 30
0.0
 41
1.0
 10
1862.3529764226819
 20
-2693.7233337190596
 30
0.0
 41
1.0
 10
1862.4138350709841
 20
-2693.6293079622656
 30
0.0
 41
1.0
 10
1862.572566361197
 20
-2693.384070348457
 30
0.0
 41
0.9995394069080581
 10
1862.7458831443032
 20
-2693.1489142249711
 30
0.0
 41
1.0
 10
1862.81739686882
 20
-2693.051884439788
 30
0.0
 41
1.0
 10
1862.8889105933367
 20
-2692.9548546546048
 30
0.0
 41
1.0
 10
1863.1563639289739
 20
-2692.5919741043499
 30
0.0
 41
0.9994460617143366
 10
1863.4473648915514
 20
-2692.2476893090488
 30
0.0
 41
1.0
 10
1863.456141253504
 20
-2692.2373059482807
 30
0.0
 41
1.0
 10
1863.4649176154569
 20
-2692.226922587512
 30
0.0
 41
1.0
 10
1863.7383658541285
 20
-2691.9034045137482
 30
0.0
 41
0.9994359394934378
 10
1864.0329143148301
 20
-2691.5989721114202
 30
0.0
 41
1.0
 10
1864.0376810227408
 20
-2691.5940454506699
 30
0.0
 41
1.0
 10
1864.0424477306515
 20
-2691.5891187899192
 30
0.0
 41
1.0
 10
1864.3274627755363
 20
-2691.2945397090875
 30
0.0
 41
0.9995293688567949
 10
1864.6300061374973
 20
-2691.0179932847623
 30
0.0
 41
1.0
 10
1864.6685936560243
 20
-2690.9827215134596
 30
0.0
 41
1.0
 10
1864.7071811745514
 20
-2690.947449742157
 30
0.0
 41
1.0
 10
1864.9325494994639
 20
-2690.7414468604325
 30
0.0
 41
0.9997087614803569
 10
1865.1675952773717
 20
-2690.5465582988386
 30
0.0
 41
1.0
 10
1865.2059274237422
 20
-2690.5147751418062
 30
0.0
 41
1.0
 10
1865.2442595701129
 20
-2690.4829919847743
 30
0.0
 41
1.0
 10
1865.4026410552956
 20
-2690.3516697372315
 30
0.0
 41
0.9999595338701152
 10
1865.5633595969921
 20
-2690.2232182759326
 30
0.0
 41
1.0
 10
1865.7240781387216
 20
-2690.0947668146082
 30
0.0
 41
0.9999749417497325
 10
1865.8865992074159
 20
-2689.9686037067095
 30
0.0
 41
1.0
 10
1865.92857149973
 20
-2689.9360211321145
 30
0.0
 41
1.0
 10
1865.9705437920443
 20
-2689.9034385575196
 30
0.0
 41
1.0
 10
1866.1396795626472
 20
-2689.7721405378384
 30
0.0
 41
0.9999792037126249
 10
1866.3104947621941
 20
-2689.6430349745451
 30
0.0
 41
1.0
 10
1866.3521444141452
 20
-2689.6115553299323
 30
0.0
 41
1.0
 10
1866.3937940660962
 20
-2689.58007568532
 30
0.0
 41
1.0
 10
1866.481309961855
 20
-2689.5139294111655
 30
0.0
 41
0.9999993373911212
 10
1866.5686733340194
 20
-2689.4475818204096
 30
0.0
 41
1.0
 10
1866.6560367063073
 20
-2689.3812342295605
 30
0.0
 41
0.9999160953814502
 10
1866.7450895281481
 20
-2689.3171720991627
 30
0.0
 41
1.0
 10
1866.8107333029857
 20
-2689.2699497879939
 30
0.0
 41
1.0
 10
1866.876377077823
 20
-2689.2227274768256
 30
0.0
 41
1.0
 10
1867.096717449341
 20
-2689.064220724089
 30
0.0
 41
0.9980964527231465
 10
1867.3348954363414
 20
-2688.9340457783778
 30
0.0
 41
1.0
 10
1867.4089606502002
 20
-2688.8935658191904
 30
0.0
 41
1.0
 10
1867.4830258640588
 20
-2688.8530858600025
 30
0.0
 41
1.0
 10
1867.8416798906017
 20
-2688.6570653586018
 30
0.0
 41
0.9984572810572661
 10
1868.2198570233177
 20
-2688.5020208359101
 30
0.0
 41
1.0
 10
1868.2271495621073
 20
-2688.4990310512349
 30
0.0
 41
1.0
 10
1868.234442100897
 20
-2688.49604126656
 30
0.0
 41
1.0
 10
1868.5980341560335
 20
-2688.346976313218
 30
0.0
 41
0.9987838528033862
 10
1868.974539473154
 20
-2688.2344450328856
 30
0.0
 41
1.0
 10
1868.9830153715484
 20
-2688.2319117255061
 30
0.0
 41
1.0
 10
1868.991491269943
 20
-2688.2293784181265
 30
0.0
 41
1.0
 10
1869.3510447902686
 20
-2688.121913752555
 30
0.0
 41
0.9990652816207043
 10
1869.7185366537042
 20
-2688.04590639347
 30
0.0
 41
1.0
 10
1869.7289134557636
 20
-2688.0437601872577
 30
0.0
 41
1.0
 10
1869.7392902578233
 20
-2688.0416139810454
 30
0.0
 41
1.0
 10
1870.0860285171323
 20
-2687.9698990343863
 30
0.0
 41
0.9992909934270049
 10
1870.4371800500526
 20
-2687.9244781694529
 30
0.0
 41
1.0
 10
1870.7883315829656
 20
-2687.8790573045198
 30
0.0
 41
0.9994553539448754
 10
1871.1417144491488
 20
-2687.8568986961077
 30
0.0
 41
1.0
 10
1871.2125832647444
 20
-2687.852454920012
 30
0.0
 41
1.0
 10
1871.2834520803397
 20
-2687.8480111439162
 30
0.0
 41
1.0
 10
1871.6159036134779
 20
-2687.8271650190927
 30
0.0
 41
0.9990928098292961
 10
1871.9489231972821
 20
-2687.8346843015615
 30
0.0
 41
1.0
 10
1872.0260468678252
 20
-2687.8364256846276
 30
0.0
 41
1.0
 10
1872.1031705383684
 20
-2687.8381670676936
 30
0.0
 41
1.0
 10
1872.2819427810866
 20
-2687.8422035840308
 30
0.0
 41
0.9998382089205333
 10
1872.4604541466597
 20
-2687.8526678370872
 30
0.0
 41
1.0
 10
1872.4613139590992
 20
-2687.8527182388916
 30
0.0
 41
1.0
 10
1872.4621737715388
 20
-2687.852768640696
 30
0.0
 41
1.0
 10
1872.6389655122318
 20
-2687.8631320901432
 30
0.0
 41
0.9997558016758341
 10
1872.8151266666337
 20
-2687.8812971208763
 30
0.0
 41
1.0
 10
1872.816078943499
 20
-2687.8813953158424
 30
0.0
 41
1.0
 10
1872.8170312203642
 20
-2687.881493510808
 30
0.0
 41
1.0
 10
1872.9912878210409
 20
-2687.8994621516099
 30
0.0
 41
0.9996565144181716
 10
1873.1643635277196
 20
-2687.9265367649868
 30
0.0
 41
1.0
 10
1873.1652953784715
 20
-2687.9266825364493
 30
0.0
 41
1.0
 10
1873.1662272292235
 20
-2687.9268283079114
 30
0.0
 41
1.0
 10
1873.3374392344003
 20
-2687.9536113783643
 30
0.0
 41
0.9995321806867199
 10
1873.5066933950595
 20
-2687.9908123552236
 30
0.0
 41
1.0
 10
1873.5074717842022
 20
-2687.9909834401551
 30
0.0
 41
1.0
 10
1873.508250173345
 20
-2687.9911545250866
 30
0.0
 41
1.0
 10
1873.6759475557146
 20
-2688.0280133320821
 30
0.0
 41
0.9993819199219232
 10
1873.8406406241079
 20
-2688.0765640986037
 30
0.0
 41
1.0
 10
1873.8411174911034
 20
-2688.0767046768224
 30
0.0
 41
1.0
 10
1873.841594358099
 20
-2688.076845255041
 30
0.0
 41
1.0
 10
1874.0053336924989
 20
-2688.125114865124
 30
0.0
 41
0.9992088568504867
 10
1874.1647187304768
 20
-2688.1862453367139
 30
0.0
 41
1.0
 10
1874.3240807122347
 20
-2688.2473645381801
 30
0.0
 41
0.9990226101773279
 10
1874.4774220520492
 20
-2688.322319401409
 30
0.0
 41
1.0
 10
1874.6307403356443
 20
-2688.3972629945151
 30
0.0
 41
0.9988424273972592
 10
1874.7761475900688
 20
-2688.4865925450213
 30
0.0
 41
1.0
 10
1874.7766830068281
 20
-2688.4869214731661
 30
0.0
 41
1.0
 10
1874.7772184235873
 20
-2688.487250401311
 30
0.0
 41
1.0
 10
1874.9236965115297
 20
-2688.577237808106
 30
0.0
 41
0.9986928844490697
 10
1875.0602222449488
 20
-2688.6817092766651
 30
0.0
 41
1.0
 10
1875.0613848293942
 20
-2688.6825989031208
 30
0.0
 41
1.0
 10
1875.0625474138396
 20
-2688.6834885295766
 30
0.0
 41
1.0
 10
1875.2013983161496
 20
-2688.7897392510467
 30
0.0
 41
0.9986007262277985
 10
1875.3282506556825
 20
-2688.9100607904334
 30
0.0
 41
1.0
 10
1875.3300394865976
 20
-2688.9117575261043
 30
0.0
 41
1.0
 10
1875.3318283175126
 20
-2688.9134542617749
 30
0.0
 41
1.0
 10
1875.4622583188764
 20
-2689.0371692725034
 30
0.0
 41
0.9985581491381195
 10
1875.5786735422787
 20
-2689.1741542530458
 30
0.0
 41
1.0
 10
1875.59719044947
 20
-2689.1959429684493
 30
0.0
 41
1.0
 10
1875.6157073566615
 20
-2689.2177316838524
 30
0.0
 41
1.0
 10
1875.7691563944486
 20
-2689.3982940952033
 30
0.0
 41
0.9970460233520636
 10
1875.8931401967684
 20
-2689.6002282635677
 30
0.0
 41
1.0
 10
1875.9220789269275
 20
-2689.64736118173
 30
0.0
 41
1.0
 10
1875.9510176570866
 20
-2689.6944940998928
 30
0.0
 41
1.0
 10
1876.0304910571101
 20
-2689.8239335479552
 30
0.0
 41
0.9988468816637008
 10
1876.0971837986126
 20
-2689.9603984528094
 30
0.0
 41
1.0
 10
1876.1112558435968
 20
-2689.9891922950865
 30
0.0
 41
1.0
 10
1876.1253278885811
 20
-2690.017986137364
 30
0.0
 41
1.0
 10
1876.1638765401162
 20
-2690.0968633576663
 30
0.0
 41
0.9998431189996929
 10
1876.1996071951057
 20
-2690.1770564665462
 30
0.0
 41
1.0
 10
1876.2353378501298
 20
-2690.2572495755048
 30
0.0
 41
0.9999989989972418
 10
1876.2712952970164
 20
-2690.3373412507672
 30
0.0
 41
1.0
 10
1876.2836399201665
 20
-2690.3648376843066
 30
0.0
 41
1.0
 10
1876.2959845433165
 20
-2690.3923341178461
 30
0.0
 41
1.0
 10
1876.3566312365326
 20
-2690.5274186602519
 30
0.0
 41
0.999879035632118
 10
1876.4130469968088
 20
-2690.6643241641277
 30
0.0
 41
1.0
 10
1876.4267173593801
 20
-2690.6974983669888
 30
0.0
 41
1.0
 10
1876.4403877219513
 20
-2690.73067256985
 30
0.0
 41
1.0
 10
1876.4875030467135
 20
-2690.845008479625
 30
0.0
 41
0.9998227574560588
 10
1876.5302805434899
 20
-2690.9610370961736
 30
0.0
 41
1.0
 10
1876.5730580402694
 20
-2691.0770657127318
 30
0.0
 41
0.9996797971041512
 10
1876.6099106101863
 20
-2691.1951099509629
 30
0.0
 41
1.0
 10
1876.6177182156375
 20
-2691.2201188673016
 30
0.0
 41
1.0
 10
1876.625525821089
 20
-2691.2451277836408
 30
0.0
 41
1.0
 10
1876.6779936019097
 20
-2691.4131898545529
 30
0.0
 41
0.9979274938734355
 10
1876.7084426488682
 20
-2691.5865985718738
 30
0.0
 41
1.0
 10
1876.7128900233902
 20
-2691.6119265735142
 30
0.0
 41
1.0
 10
1876.7173373979122
 20
-2691.6372545751542
 30
0.0
 41
1.0
 10
1876.7391972773091
 20
-2691.7617475897364
 30
0.0
 41
0.999498598213714
 10
1876.7531336076631
 20
-2691.8873745920228
 30
0.0
 41
1.0
 10
1876.7670699380167
 20
-2692.0130015942973
 30
0.0
 41
0.9996372611201243
 10
1876.7742216695522
 20
-2692.139196751662
 30
0.0
 41
1.0
 10
1876.7745588245311
 20
-2692.1451459858308
 30
0.0
 41
1.0
 10
1876.7748959795099
 20
-2692.1510952199997
 30
0.0
 41
1.0
 10
1876.7827220210029
 20
-2692.2891888456907
 30
0.0
 41
0.9997730630736228
 10
1876.7846586479786
 20
-2692.427490493757
 30
0.0
 41
1.0
 10
1876.7847728608149
 20
-2692.4356468520423
 30
0.0
 41
1.0
 10
1876.7848870736511
 20
-2692.4438032103276
 30
0.0
 41
1.0
 10
1876.7870521263001
 20
-2692.5984175749691
 30
0.0
 41
0.9998772614070121
 10
1876.7843719528357
 20
-2692.7530238681179
 30
0.0
 41
1.0
 10
1876.7841934264384
 20
-2692.7633221957749
 30
0.0
 41
1.0
 10
1876.7840149000413
 20
-2692.7736205234319
 30
0.0
 41
1.0
 10
1876.7809776737818
 20
-2692.9488234719279
 30
0.0
 41
0.9999415567328087
 10
1876.7741530532896
 20
-2693.1239197952841
 30
0.0
 41
1.0
 10
1876.7736704119397
 20
-2693.1363027147418
 30
0.0
 41
1.0
 10
1876.7731877705896
 20
-2693.1486856341999
 30
0.0
 41
1.0
 10
1876.7653978673954
 20
-2693.3485477965155
 30
0.0
 41
0.9999716810421983
 10
1876.7546007011595
 20
-2693.5482700729558
 30
0.0
 41
1.0
 10
1876.7481751035812
 20
-2693.6671285722869
 30
0.0
 41
1.0
 10
1876.7417495060026
 20
-2693.7859870716179
 30
0.0
 41
1.0
 10
1876.7256016876981
 20
-2694.0846838741641
 30
0.0
 41
0.9999819129911648
 10
1876.7058621044657
 20
-2694.3831648295709
 30
0.0
 41
1.0
 10
1876.6861225212326
 20
-2694.6816457849936
 30
0.0
 41
1.0
 10
1876.6812438801048
 20
-2694.7560318766923
 30
0.0
 41
1.0
 10
1876.7266403477042
 20
-2694.6785498821382
 30
0.0
 41
0.9999982128158768
 10
1876.7723294651701
 20
-2694.6012400942991
 30
0.0
 41
1.0
 10
1876.8261485849935
 20
-2694.5101736660977
 30
0.0
 41
1.0
 10
1876.8799677048171
 20
-2694.4191072378962
 30
0.0
 41
1.0
 10
1877.0332950618674
 20
-2694.1596645937584
 30
0.0
 41
0.9998609190058981
 10
1877.1951896875985
 20
-2693.9054798298885
 30
0.0
 41
1.0
 10
1877.254486330555
 20
-2693.8123803639851
 30
0.0
 41
1.0
 10
1877.3137829735115
 20
-2693.7192808980817
 30
0.0
 41
1.0
 10
1877.4783274139902
 20
-2693.4609357580839
 30
0.0
 41
0.9999067609731702
 10
1877.6498654329216
 20
-2693.2071803791969
 30
0.0
 41
1.0
 10
1877.6546748393303
 20
-2693.200065847077
 30
0.0
 41
1.0
 10
1877.6594842457389
 20
-2693.1929513149576
 30
0.0
 41
1.0
 10
1877.8214034518592
 20
-2692.9534250003007
 30
0.0
 41
0.9998784952151018
 10
1877.9907106712124
 20
-2692.7190625668964
 30
0.0
 41
1.0
 10
1878.1600178905783
 20
-2692.4847001334751
 30
0.0
 41
0.9998532968284247
 10
1878.3372531322259
 20
-2692.2562743165313
 30
0.0
 41
1.0
 10
1878.3771767102066
 20
-2692.2048196744927
 30
0.0
 41
1.0
 10
1878.4171002881876
 20
-2692.1533650324541
 30
0.0
 41
1.0
 10
1878.6540683877038
 20
-2691.8479538105194
 30
0.0
 41
0.9991551975795382
 10
1878.9153172869496
 20
-2691.5630346863536
 30
0.0
 41
1.0
 10
1878.9223365189159
 20
-2691.5553794830976
 30
0.0
 41
1.0
 10
1878.9293557508822
 20
-2691.5477242798415
 30
0.0
 41
1.0
 10
1879.1765661862032
 20
-2691.2781155621801
 30
0.0
 41
0.9997418144180776
 10
1879.4357704655977
 20
-2691.0200167409616
 30
0.0
 41
1.0
 10
1879.6949747449971
 20
-2690.7619179197382
 30
0.0
 41
0.9989238204632881
 10
1879.9769798414973
 20
-2690.5289479956623
 30
0.0
 41
1.0
 10
1880.0674751977831
 20
-2690.4541880124393
 30
0.0
 41
1.0
 10
1880.1579705540687
 20
-2690.3794280292163
 30
0.0
 41
1.0
 10
1880.4384506685083
 20
-2690.1477179226376
 30
0.0
 41
0.9990825084096954
 10
1880.73773053371
 20
-2689.9408599269764
 30
0.0
 41
1.0
 10
1880.7578212618262
 20
-2689.9269735008156
 30
0.0
 41
1.0
 10
1880.7779119899424
 20
-2689.9130870746549
 30
0.0
 41
1.0
 10
1881.0370103989173
 20
-2689.7340019313106
 30
0.0
 41
0.9998164899825629
 10
1881.3027788056704
 20
-2689.5649734482777
 30
0.0
 41
1.0
 10
1881.3264699267183
 20
-2689.5499059152289
 30
0.0
 41
1.0
 10
1881.3501610477663
 20
-2689.5348383821802
 30
0.0
 41
1.0
 10
1881.5685472124217
 20
-2689.3959449652452
 30
0.0
 41
0.9997473449130689
 10
1881.7929551269217
 20
-2689.2670070496133
 30
0.0
 41
1.0
 10
1882.0173630414099
 20
-2689.1380691339878
 30
0.0
 41
0.999932786114679
 10
1882.2447002629376
 20
-2689.0143691506246
 30
0.0
 41
1.0
 10
1882.2458042680641
 20
-2689.0137684332635
 30
0.0
 41
1.0
 10
1882.2469082731905
 20
-2689.0131677159025
 30
0.0
 41
1.0
 10
1882.4764535049633
 20
-2688.8882662978217
 30
0.0
 41
0.9996956420484265
 10
1882.7118801566467
 20
-2688.7748393638708
 30
0.0
 41
1.0
 10
1882.7727609664321
 20
-2688.7455074104109
 30
0.0
 41
1.0
 10
1882.8336417762173
 20
-2688.7161754569511
 30
0.0
 41
1.0
 10
1883.0395959897021
 20
-2688.6169481400652
 30
0.0
 41
0.9998070570176726
 10
1883.249288767581
 20
-2688.5258869662648
 30
0.0
 41
1.0
 10
1883.458981545459
 20
-2688.4348257924639
 30
0.0
 41
0.9997827436147982
 10
1883.6722874186707
 20
-2688.3525834498437
 30
0.0
 41
1.0
 10
1883.7107331179395
 20
-2688.3377603025765
 30
0.0
 41
1.0
 10
1883.7491788172083
 20
-2688.3229371553093
 30
0.0
 41
1.0
 10
1884.0393760889542
 20
-2688.2110485181556
 30
0.0
 41
0.9988031841976705
 10
1884.3391168141638
 20
-2688.1280483898199
 30
0.0
 41
1.0
 10
1884.3889513108918
 20
-2688.1142488982059
 30
0.0
 41
1.0
 10
1884.4387858076198
 20
-2688.1004494065919
 30
0.0
 41
1.0
 10
1884.7733258589128
 20
-2688.0078131217788
 30
0.0
 41
0.9984748040550251
 10
1885.1160396762082
 20
-2687.9526246572495
 30
0.0
 41
1.0
 10
1885.1255179487064
 20
-2687.9510983362225
 30
0.0
 41
1.0
 10
1885.1349962212046
 20
-2687.9495720151958
 30
0.0
 41
1.0
 10
1885.4587534935063
 20
-2687.8974361927199
 30
0.0
 41
0.9984436495479774
 10
1885.7863029809555
 20
-2687.8816802850824
 30
0.0
 41
1.0
 10
1885.8296973972181
 20
-2687.8795929106832
 30
0.0
 41
1.0
 10
1885.8730918134806
 20
-2687.8775055362839
 30
0.0
 41
1.0
 10
1886.113852468405
 20
-2687.865924377445
 30
0.0
 41
0.9987954789335299
 10
1886.3545889582247
 20
-2687.8779974329295
 30
0.0
 41
1.0
 10
1886.3945185432162
 20
-2687.8799999216071
 30
0.0
 41
1.0
 10
1886.434448128208
 20
-2687.8820024102843
 30
0.0
 41
1.0
 10
1886.5953254480471
 20
-2687.8900704884145
 30
0.0
 41
0.9997941595876596
 10
1886.7557430042332
 20
-2687.9046586202562
 30
0.0
 41
1.0
 10
1886.9161605604295
 20
-2687.9192467520993
 30
0.0
 41
0.9998589466238764
 10
1887.0759976541465
 20
-2687.9392144610001
 30
0.0
 41
1.0
 10
1887.1408100577557
 20
-2687.9473111748375
 30
0.0
 41
1.0
 10
1887.205622461365
 20
-2687.9554078886754
 30
0.0
 41
1.0
 10
1887.4950843623026
 20
-2687.9915690252515
 30
0.0
 41
0.9993495063249205
 10
1887.7811868498286
 20
-2688.0485004447337
 30
0.0
 41
1.0
 10
1887.8470542441346
 20
-2688.0616073711635
 30
0.0
 41
1.0
 10
1887.9129216384406
 20
-2688.0747142975938
 30
0.0
 41
1.0
 10
1888.1315092848536
 20
-2688.1182109658648
 30
0.0
 41
0.9996788715560496
 10
1888.3476124287693
 20
-2688.1727265645918
 30
0.0
 41
1.0
 10
1888.3517384338488
 20
-2688.173767417738
 30
0.0
 41
1.0
 10
1888.3558644389284
 20
-2688.1748082708841
 30
0.0
 41
1.0
 10
1888.5637155726847
 20
-2688.2272421633188
 30
0.0
 41
0.9995480654492276
 10
1888.7680400431409
 20
-2688.2920720765669
 30
0.0
 41
1.0
 10
1888.7714193273991
 20
-2688.2931442863946
 30
0.0
 41
1.0
 10
1888.7747986116574
 20
-2688.2942164962228
 30
0.0
 41
1.0
 10
1888.972364513601
 20
-2688.3569019898159
 30
0.0
 41
0.9993867959456048
 10
1889.1650588304849
 20
-2688.433260728395
 30
0.0
 41
1.0
 10
1889.1675447286532
 20
-2688.4342458121869
 30
0.0
 41
1.0
 10
1889.1700306268215
 20
-2688.4352308959787
 30
0.0
 41
1.0
 10
1889.3577531473668
 20
-2688.5096194669732
 30
0.0
 41
0.9992050256521992
 10
1889.5389524974366
 20
-2688.598727265452
 30
0.0
 41
1.0
 10
1889.5404218628632
 20
-2688.5994498503746
 30
0.0
 41
1.0
 10
1889.5418912282901
 20
-2688.6001724352973
 30
0.0
 41
1.0
 10
1889.7201518475038
 20
-2688.6878350639295
 30
0.0
 41
0.999022235074129
 10
1889.8899719702908
 20
-2688.7909015993264
 30
0.0
 41
1.0
 10
1889.8903397408562
 20
-2688.791124805136
 30
0.0
 41
1.0
 10
1889.8907075114216
 20
-2688.7913480109455
 30
0.0
 41
1.0
 10
1890.0597920930784
 20
-2688.8939681347229
 30
0.0
 41
0.9988642743805237
 10
1890.2183411623159
 20
-2689.0122165097732
 30
0.0
 41
1.0
 10
1890.3768902315542
 20
-2689.1304648848241
 30
0.0
 41
0.9987681233311242
 10
1890.5229378001068
 20
-2689.2638462676255
 30
0.0
 41
1.0
 10
1890.5235956560382
 20
-2689.2644470700534
 30
0.0
 41
1.0
 10
1890.5242535119696
 20
-2689.2650478724818
 30
0.0
 41
1.0
 10
1890.6716167923846
 20
-2689.39963086014
 30
0.0
 41
0.9987496570898801
 10
1890.8048044030388
 20
-2689.5482564883132
 30
0.0
 41
1.0
 10
1890.80634874256
 20
-2689.5499798350293
 30
0.0
 41
1.0
 10
1890.8078930820811
 20
-2689.5517031817453
 30
0.0
 41
1.0
 10
1890.9441693717756
 20
-2689.7037755033475
 30
0.0
 41
0.9988147669826533
 10
1891.0650138802255
 20
-2689.8683775170325
 30
0.0
 41
1.0
 10
1891.0672525323819
 20
-2689.8714267797386
 30
0.0
 41
1.0
 10
1891.0694911845383
 20
-2689.8744760424452
 30
0.0
 41
1.0
 10
1891.1948129972991
 20
-2690.0451765815401
 30
0.0
 41
0.9989452636216141
 10
1891.3039468232221
 20
-2690.2266539598559
 30
0.0
 41
1.0
 10
1891.3066442753934
 20
-2690.2311395219081
 30
0.0
 41
1.0
 10
1891.3093417275645
 20
-2690.2356250839603
 30
0.0
 41
1.0
 10
1891.4238704578297
 20
-2690.4260735863804
 30
0.0
 41
0.9991046436070412
 10
1891.5218888844749
 20
-2690.6255224524352
 30
0.0
 41
1.0
 10
1891.524816607654
 20
-2690.6314798125786
 30
0.0
 41
1.0
 10
1891.5277443308332
 20
-2690.6374371727215
 30
0.0
 41
1.0
 10
1891.631618203837
 20
-2690.8488007590645
 30
0.0
 41
0.9992763831101611
 10
1891.7191244609485
 20
-2691.0674488829782
 30
0.0
 41
1.0
 10
1891.7220830002743
 20
-2691.0748412580433
 30
0.0
 41
1.0
 10
1891.7250415396002
 20
-2691.0822336331089
 30
0.0
 41
1.0
 10
1891.8184648753634
 20
-2691.3156665071556
 30
0.0
 41
0.9994163472884043
 10
1891.8957309377413
 20
-2691.5549336840777
 30
0.0
 41
1.0
 10
1891.8982072422361
 20
-2691.5626019716474
 30
0.0
 41
1.0
 10
1891.900683546731
 20
-2691.5702702592171
 30
0.0
 41
1.0
 10
1891.9804506687638
 20
-2691.8172823821678
 30
0.0
 41
0.9997268055891129
 10
1892.0485867805887
 20
-2692.0677524460725
 30
0.0
 41
1.0
 10
1892.0504471411275
 20
-2692.0745911782888
 30
0.0
 41
1.0
 10
1892.0523075016663
 20
-2692.0814299105054
 30
0.0
 41
1.0
 10
1892.1167228924123
 20
-2692.3182225099722
 30
0.0
 41
0.9996701319000749
 10
1892.1688941259536
 20
-2692.558010416501
 30
0.0
 41
1.0
 10
1892.2210653594957
 20
-2692.797798323033
 30
0.0
 41
0.9995785451109355
 10
1892.2592325141759
 20
-2693.0402098451023
 30
0.0
 41
1.0
 10
1892.2676720785221
 20
-2693.0938121546242
 30
0.0
 41
1.0
 10
1892.276111642868
 20
-2693.1474144641456
 30
0.0
 41
1.0
 10
1892.3292615947464
 20
-2693.4849864115549
 30
0.0
 41
0.9979925101215773
 10
1892.3393127665988
 20
-2693.8265690677404
 30
0.0
 41
1.0
 10
1892.3409623914481
 20
-2693.8826305147068
 30
0.0
 41
1.0
 10
1892.3426120162976
 20
-2693.9386919616727
 30
0.0
 41
1.0
 10
1892.3493639384515
 20
-2694.1681517239304
 30
0.0
 41
0.9995314902263373
 10
1892.3420635541745
 20
-2694.3975946914279
 30
0.0
 41
1.0
 10
1892.3347631698973
 20
-2694.6270376589305
 30
0.0
 41
0.9996245486944176
 10
1892.3149049796359
 20
-2694.8557362011798
 30
0.0
 41
1.0
 10
1892.3145788836473
 20
-2694.8594917134501
 30
0.0
 41
1.0
 10
1892.3142527876589
 20
-2694.8632472257204
 30
0.0
 41
1.0
 10
1892.2937424054194
 20
-2695.0994567925136
 30
0.0
 41
0.9997286095000868
 10
1892.2622517582763
 20
-2695.3344546103049
 30
0.0
 41
1.0
 10
1892.2614647729761
 20
-2695.3403274597058
 30
0.0
 41
1.0
 10
1892.2606777876758
 20
-2695.3462003091063
 30
0.0
 41
1.0
 10
1892.2276131699336
 20
-2695.5929438256912
 30
0.0
 41
0.9998265533969816
 10
1892.1853822524683
 20
-2695.8382847752678
 30
0.0
 41
1.0
 10
1892.1840291681929
 20
-2695.8461455322886
 30
0.0
 41
1.0
 10
1892.1826760839176
 20
-2695.8540062893098
 30
0.0
 41
1.0
 10
1892.1377389979027
 20
-2696.1150687529225
 30
0.0
 41
0.9999022530851953
 10
1892.0855200686824
 20
-2696.3747726902016
 30
0.0
 41
1.0
 10
1892.0835627863526
 20
-2696.3845069749723
 30
0.0
 41
1.0
 10
1892.0816055040225
 20
-2696.394241259743
 30
0.0
 41
1.0
 10
1892.0254720101361
 20
-2696.6734137665917
 30
0.0
 41
0.9999524761938338
 10
1891.9639060724671
 20
-2696.9514387529189
 30
0.0
 41
1.0
 10
1891.9613538581184
 20
-2696.9629642715136
 30
0.0
 41
1.0
 10
1891.9588016437697
 20
-2696.9744897901082
 30
0.0
 41
1.0
 10
1891.8921312773971
 20
-2697.2755658136512
 30
0.0
 41
0.9999813588717741
 10
1891.8217892758119
 20
-2697.5758052389365
 30
0.0
 41
1.0
 10
1891.8186814248961
 20
-2697.5890704197918
 30
0.0
 41
1.0
 10
1891.8155735739806
 20
-2697.6023356006476
 30
0.0
 41
1.0
 10
1891.7390158705621
 20
-2697.9291053876514
 30
0.0
 41
0.9999955237627469
 10
1891.660504114599
 20
-2698.2554111948734
 30
0.0
 41
1.0
 10
1891.6359408433316
 20
-2698.3574995759136
 30
0.0
 41
1.0
 10
1891.6113775720642
 20
-2698.4595879569542
 30
0.0
 41
1.0
 10
1891.4837392735681
 20
-2698.9900705262489
 30
0.0
 41
0.9999993604774109
 10
1891.3549013792738
 20
-2699.5202630274457
 30
0.0
 41
1.0
 10
1891.3454637081577
 20
-2699.5591008436177
 30
0.0
 41
1.0
 10
1891.3360260370416
 20
-2699.5979386597892
 30
0.0
 41
1.0
 10
1891.1883128005154
 20
-2700.2058067933276
 30
0.0
 41
0.9999659914736995
 10
1891.030593608747
 20
-2700.8111558864375
 30
0.0
 41
1.0
 10
1891.0206882308873
 20
-2700.8491741607963
 30
0.0
 41
1.0
 10
1891.0107828530276
 20
-2700.8871924351552
 30
0.0
 41
1.0
 10
1890.8332529055397
 20
-2701.5685780769836
 30
0.0
 41
0.9999441976030029
 10
1890.641366839614
 20
-2702.2460609275772
 30
0.0
 41
1.0
 10
1890.6079658027609
 20
-2702.3639883526394
 30
0.0
 41
1.0
 10
1890.5745647659078
 20
-2702.4819157777019
 30
0.0
 41
1.0
 10
1890.3158766262843
 20
-2703.3952534783907
 30
0.0
 41
0.9999625120733445
 10
1890.041411091637
 20
-2704.3039745463852
 30
0.0
 41
1.0
 10
1889.9698312054556
 20
-2704.5409665996904
 30
0.0
 41
1.0
 10
1889.8982513192741
 20
-2704.777958652995
 30
0.0
 41
1.0
 10
1889.7492109112059
 20
-2705.2714128091529
 30
0.0
 41
0.9999793386319124
 10
1889.5938388649424
 20
-2705.7629100875874
 30
0.0
 41
1.0
 10
1889.4384668186674
 20
-2706.2544073660597
 30
0.0
 41
1.0
 10
1889.416907700926
 20
-2706.322443174809
 30
0.0
 41
1.0
 10
1885.7161615943878
 20
-2718.0965870197442
 30
0.0
 41
1.0
 10
1882.0154154878494
 20
-2729.870730864679
 30
0.0
 41
1.0
 10
1880.0929021078023
 20
-2729.870730864679
 30
0.0
 41
1.0
 10
1878.1703887277552
 20
-2729.870730864679
 30
0.0
 41
1.0
 10
1881.4082782851119
 20
-2719.5746738611001
 30
0.0
 41
1.0
 10
1884.6461678424689
 20
-2709.2786168575212
 30
0.0
 41
1.0
 10
1884.7364994888285
 20
-2708.9905544129465
 30
0.0
 41
1.0
 10
1884.8268311351881
 20
-2708.7024919683718
 30
0.0
 41
1.0
 10
1885.1674399699041
 20
-2707.6163099100777
 30
0.0
 41
0.9999911657914182
 10
1885.4989055932519
 20
-2706.5273028473894
 30
0.0
 41
1.0
 10
1885.5582974802564
 20
-2706.3321749672768
 30
0.0
 41
1.0
 10
1885.6176893672609
 20
-2706.1370470871639
 30
0.0
 41
1.0
 10
1885.8303712166157
 20
-2705.4382957846519
 30
0.0
 41
0.9999952428153767
 10
1886.0387383952625
 20
-2704.7382457359627
 30
0.0
 41
1.0
 10
1886.048857335911
 20
-2704.7042491874681
 30
0.0
 41
1.0
 10
1886.0589762765594
 20
-2704.6702526389731
 30
0.0
 41
1.0
 10
1886.2471055738986
 20
-2704.0381956873089
 30
0.0
 41
0.9999931687465478
 10
1886.4305572496596
 20
-2703.4047652607228
 30
0.0
 41
1.0
 10
1886.4404277785779
 20
-2703.3706838421831
 30
0.0
 41
1.0
 10
1886.4502983074963
 20
-2703.3366024236434
 30
0.0
 41
1.0
 10
1886.6140089254004
 20
-2702.7713348342049
 30
0.0
 41
0.9999893840818839
 10
1886.7725033783206
 20
-2702.2045825756886
 30
0.0
 41
1.0
 10
1886.9309978312303
 20
-2701.63783031721
 30
0.0
 41
0.9999833980091085
 10
1887.0829503127068
 20
-2701.0692891511803
 30
0.0
 41
1.0
 10
1887.1009581861599
 20
-2701.0019113941917
 30
0.0
 41
1.0
 10
1887.1189660596128
 20
-2700.934533637203
 30
0.0
 41
1.0
 10
1887.2568951573453
 20
-2700.4184619726102
 30
0.0
 41
0.9999233658068563
 10
1887.3820050997813
 20
-2699.8991336551826
 30
0.0
 41
1.0
 10
1887.5071150422218
 20
-2699.3798053377377
 30
0.0
 41
1.0
 10
1887.586081879937
 20
-2699.0521920088854
 30
0.0
 41
1.0
 10
1887.5960390878854
 20
-2699.0108820851692
 30
0.0
 41
1.0
 10
1887.6059962958341
 20
-2698.969572161453
 30
0.0
 41
1.0
 10
1887.6650487176476
 20
-2698.7245786800527
 30
0.0
 41
0.9999868670850101
 10
1887.7215868856445
 20
-2698.4789927887423
 30
0.0
 41
1.0
 10
1887.7293818599692
 20
-2698.4451336138673
 30
0.0
 41
1.0
 10
1887.7371768342941
 20
-2698.4112744389922
 30
0.0
 41
1.0
 10
1887.778125053645
 20
-2698.2334068974164
 30
0.0
 41
0.9999778173347331
 10
1887.8167002498676
 20
-2698.0550096629904
 30
0.0
 41
1.0
 10
1887.8552754461002
 20
-2697.8766124285235
 30
0.0
 41
0.9999602692868953
 10
1887.8906641633648
 20
-2697.6975558516533
 30
0.0
 41
1.0
 10
1887.8970718275177
 20
-2697.6651349418935
 30
0.0
 41
1.0
 10
1887.9034794916706
 20
-2697.6327140321341
 30
0.0
 41
1.0
 10
1887.9516835372435
 20
-2697.3888156357352
 30
0.0
 41
0.9995617985319965
 10
1887.9853702316809
 20
-2697.1424921403204
 30
0.0
 41
1.0
 10
1887.9902992114926
 20
-2697.1064505055947
 30
0.0
 41
1.0
 10
1887.9952281913042
 20
-2697.070408870869
 30
0.0
 41
1.0
 10
1888.0357947134012
 20
-2696.7737787714645
 30
0.0
 41
0.9991121410639693
 10
1888.0512454205782
 20
-2696.4747865738491
 30
0.0
 41
1.0
 10
1888.0530830006273
 20
-2696.4392269006948
 30
0.0
 41
1.0
 10
1888.0549205806767
 20
-2696.4036672275406
 30
0.0
 41
1.0
 10
1888.0666961277552
 20
-2696.1757943762327
 30
0.0
 41
0.9989792494904508
 10
1888.05785794352
 20
-2695.9477887044404
 30
0.0
 41
1.0
 10
1888.0565619997828
 20
-2695.9143562125864
 30
0.0
 41
1.0
 10
1888.0552660560454
 20
-2695.8809237207329
 30
0.0
 41
1.0
 10
1888.0490197592853
 20
-2695.7197830326495
 30
0.0
 41
0.9997820295394546
 10
1888.036051764534
 20
-2695.5590435891554
 30
0.0
 41
1.0
 10
1888.0230837697825
 20
-2695.398304145665
 30
0.0
 41
0.9998335105971562
 10
1888.0042593787584
 20
-2695.238144912762
 30
0.0
 41
1.0
 10
1888.0010695294061
 20
-2695.2110054517989
 30
0.0
 41
1.0
 10
1887.9978796800538
 20
-2695.1838659908353
 30
0.0
 41
1.0
 10
1887.9726755903255
 20
-2694.9694278360053
 30
0.0
 41
0.9996876457879326
 10
1887.9367877647292
 20
-2694.7565169805762
 30
0.0
 41
1.0
 10
1887.9323244384384
 20
-2694.7300375100913
 30
0.0
 41
1.0
 10
1887.9278611121476
 20
-2694.7035580396059
 30
0.0
 41
1.0
 10
1887.9002694693049
 20
-2694.5398657516876
 30
0.0
 41
0.9995547496495519
 10
1887.8629628255198
 20
-2694.3781107573045
 30
0.0
 41
1.0
 10
1887.8622149117778
 20
-2694.374867935896
 30
0.0
 41
1.0
 10
1887.8614669980357
 20
-2694.371625114487
 30
0.0
 41
1.0
 10
1887.8256561817352
 20
-2694.2163557629242
 30
0.0
 41
0.9994899427175379
 10
1887.7800063643758
 20
-2694.0636891972536
 30
0.0
 41
1.0
 10
1887.7790893108936
 20
-2694.0606222976739
 30
0.0
 41
1.0
 10
1887.7781722574114
 20
-2694.0575553980948
 30
0.0
 41
1.0
 10
1887.7343565470167
 20
-2693.9110226315829
 30
0.0
 41
0.9993784877590231
 10
1887.6803252768041
 20
-2693.7679412212665
 30
0.0
 41
1.0
 10
1887.6792618948502
 20
-2693.7651252558253
 30
0.0
 41
1.0
 10
1887.6781985128964
 20
-2693.7623092903841
 30
0.0
 41
1.0
 10
1887.6262940065906
 20
-2693.6248598109473
 30
0.0
 41
0.9992430832254525
 10
1887.5638609362722
 20
-2693.4918615068118
 30
0.0
 41
1.0
 10
1887.5626967041594
 20
-2693.4893813965782
 30
0.0
 41
1.0
 10
1887.5615324720466
 20
-2693.4869012863442
 30
0.0
 41
1.0
 10
1887.5014278659537
 20
-2693.3588632026763
 30
0.0
 41
0.9990789632799295
 10
1887.4305666124001
 20
-2693.2364499791761
 30
0.0
 41
1.0
 10
1887.4293752000353
 20
-2693.2343918074566
 30
0.0
 41
1.0
 10
1887.4281837876708
 20
-2693.2323336357372
 30
0.0
 41
1.0
 10
1887.3597053588446
 20
-2693.1140367556732
 30
0.0
 41
0.9988874801120632
 10
1887.2803868067826
 20
-2693.0027173308408
 30
0.0
 41
1.0
 10
1887.2792757546554
 20
-2693.0011580274931
 30
0.0
 41
1.0
 10
1887.2781647025279
 20
-2692.999598724145
 30
0.0
 41
1.0
 10
1887.2010682547207
 20
-2692.891397906008
 30
0.0
 41
0.998676206069311
 10
1887.1132633121661
 20
-2692.7916904771273
 30
0.0
 41
1.0
 10
1887.1123753915026
 20
-2692.7906821934948
 30
0.0
 41
1.0
 10
1887.1114874708392
 20
-2692.7896739098628
 30
0.0
 41
1.0
 10
1887.0254583696146
 20
-2692.6919830482498
 30
0.0
 41
0.9984621642488807
 10
1886.9291432560581
 20
-2692.6044164473064
 30
0.0
 41
1.0
 10
1886.9286499870254
 20
-2692.6039679829801
 30
0.0
 41
1.0
 10
1886.9281567179926
 20
-2692.6035195186532
 30
0.0
 41
1.0
 10
1886.8328281425017
 20
-2692.5168498463636
 30
0.0
 41
0.998272469385192
 10
1886.7279908788196
 20
-2692.4419611453286
 30
0.0
 41
1.0
 10
1886.6231536151379
 20
-2692.3670724442941
 30
0.0
 41
0.9981399180158652
 10
1886.5099814883504
 20
-2692.3054994054069
 30
0.0
 41
1.0
 10
1886.5098901641932
 20
-2692.3054497190924
 30
0.0
 41
1.0
 10
1886.5097988400362
 20
-2692.3054000327779
 30
0.0
 41
1.0
 10
1886.3964440649356
 20
-2692.2437276212622
 30
0.0
 41
0.9980927086837029
 10
1886.2763533628031
 20
-2692.1964940035573
 30
0.0
 41
1.0
 10
1886.2754730233796
 20
-2692.1961477518071
 30
0.0
 41
1.0
 10
1886.2745926839561
 20
-2692.1958015000573
 30
0.0
 41
1.0
 10
1886.1527413029753
 20
-2692.1478753788519
 30
0.0
 41
0.9981411356560805
 10
1886.0259642601745
 20
-2692.1151300958404
 30
0.0
 41
1.0
 10
1886.0242000267733
 20
-2692.1146744114299
 30
0.0
 41
1.0
 10
1886.0224357933721
 20
-2692.1142187270193
 30
0.0
 41
1.0
 10
1885.8921302837664
 20
-2692.0805620751858
 30
0.0
 41
0.9983031812935216
 10
1885.7587954257751
 20
-2692.0622833528332
 30
0.0
 41
1.0
 10
1885.7410533749719
 20
-2692.0598511154913
 30
0.0
 41
1.0
 10
1885.7233113241687
 20
-2692.0574188781493
 30
0.0
 41
1.0
 10
1885.6146120391572
 20
-2692.0425174181669
 30
0.0
 41
0.9983887708263813
 10
1885.5049243405686
 20
-2692.0400280709
 30
0.0
 41
1.0
 10
1885.488797530141
 20
-2692.0396620751503
 30
0.0
 41
1.0
 10
1885.4726707197135
 20
-2692.0392960794006
 30
0.0
 41
1.0
 10
1885.3952366419903
 20
-2692.0375387236331
 30
0.0
 41
0.9998869563079831
 10
1885.3177847355776
 20
-2692.0381104623525
 30
0.0
 41
1.0
 10
1885.2403328290852
 20
-2692.0386822010723
 30
0.0
 41
0.9999972320085627
 10
1885.1628844705731
 20
-2692.039618400132
 30
0.0
 41
1.0
 10
1885.124178437502
 20
-2692.0400862803099
 30
0.0
 41
1.0
 10
1885.0854724044307
 20
-2692.0405541604878
 30
0.0
 41
1.0
 10
1884.930611979687
 20
-2692.0424261199032
 30
0.0
 41
0.9997304945087844
 10
1884.7760053672096
 20
-2692.0514843074752
 30
0.0
 41
1.0
 10
1884.7579060838034
 20
-2692.052544719455
 30
0.0
 41
1.0
 10
1884.739806800397
 20
-2692.0536051314348
 30
0.0
 41
1.0
 10
1884.5490016211027
 20
-2692.0647841429668
 30
0.0
 41
0.9997888306415331
 10
1884.3588169494158
 20
-2692.0837940719457
 30
0.0
 41
1.0
 10
1884.3413748262722
 20
-2692.0855375012097
 30
0.0
 41
1.0
 10
1884.3239327031285
 20
-2692.0872809304738
 30
0.0
 41
1.0
 10
1884.0988637851508
 20
-2692.1097777179803
 30
0.0
 41
0.998417023819027
 10
1883.8777454904466
 20
-2692.1574098818523
 30
0.0
 41
1.0
 10
1883.8049832284746
 20
-2692.1730839534644
 30
0.0
 41
1.0
 10
1883.7322209665028
 20
-2692.1887580250764
 30
0.0
 41
1.0
 10
1883.5018388296608
 20
-2692.2383857580953
 30
0.0
 41
0.9976592854198687
 10
1883.280382496851
 20
-2692.31898311239
 30
0.0
 41
1.0
 10
1883.0589261640393
 20
-2692.3995804666847
 30
0.0
 41
0.9993255074351625
 10
1882.8439825664543
 20
-2692.4962142636714
 30
0.0
 41
1.0
 10
1882.8347322086101
 20
-2692.5003730160697
 30
0.0
 41
1.0
 10
1882.8254818507662
 20
-2692.504531768468
 30
0.0
 41
1.0
 10
1882.5920375374906
 20
-2692.6094830702523
 30
0.0
 41
0.9976475078274926
 10
1882.375142848869
 20
-2692.7453790495692
 30
0.0
 41
1.0
 10
1882.3384580606025
 20
-2692.7683640071964
 30
0.0
 41
1.0
 10
1882.3017732723363
 20
-2692.7913489648231
 30
0.0
 41
1.0
 10
1882.133368889231
 20
-2692.8968632063606
 30
0.0
 41
0.9995131336406915
 10
1881.9718734593123
 20
-2693.0126756302698
 30
0.0
 41
1.0
 10
1881.8103780293984
 20
-2693.1284880541752
 30
0.0
 41
0.9995810107606254
 10
1881.6558547339416
 20
-2693.2534514191066
 30
0.0
 41
1.0
 10
1881.6499146715205
 20
-2693.2582551620362
 30
0.0
 41
1.0
 10
1881.6439746090996
 20
-2693.2630589049659
 30
0.0
 41
1.0
 10
1881.4775711888026
 20
-2693.3976297557556
 30
0.0
 41
0.9996617837954557
 10
1881.3183898145317
 20
-2693.5406706668755
 30
0.0
 41
1.0
 10
1881.2941283127766
 20
-2693.5624721328577
 30
0.0
 41
1.0
 10
1881.2698668110213
 20
-2693.5842735988404
 30
0.0
 41
1.0
 10
1881.133315756229
 20
-2693.706978829784
 30
0.0
 41
0.9997267750052974
 10
1881.0026487396608
 20
-2693.8359319028359
 30
0.0
 41
1.0
 10
1880.8719817230926
 20
-2693.9648849758869
 30
0.0
 41
0.9999667288965898
 10
1880.7434358367977
 20
-2694.0959525896774
 30
0.0
 41
1.0
 10
1880.6057809412487
 20
-2694.2363079071929
 30
0.0
 41
1.0
 10
1880.4681260456996
 20
-2694.376663224708
 30
0.0
 41
1.0
 10
1880.0642703683091
 20
-2694.7884414735263
 30
0.0
 41
0.998820533517514
 10
1879.7022591343525
 20
-2695.2374499376442
 30
0.0
 41
1.0
 10
1879.6409792045404
 20
-2695.3134564385073
 30
0.0
 41
1.0
 10
1879.5796992747282
 20
-2695.3894629393708
 30
0.0
 41
1.0
 10
1879.0951281811465
 20
-2695.9904844052166
 30
0.0
 41
0.9997077826754861
 10
1878.6401722789337
 20
-2696.614223993653
 30
0.0
 41
1.0
 10
1878.6367254486759
 20
-2696.6189495604076
 30
0.0
 41
1.0
 10
1878.633278618418
 20
-2696.6236751271626
 30
0.0
 41
1.0
 10
1878.171429055689
 20
-2697.2568658491091
 30
0.0
 41
0.9989147567078999
 10
1877.7705020499218
 20
-2697.930284771478
 30
0.0
 41
1.0
 10
1877.7210197593038
 20
-2698.0133979325901
 30
0.0
 41
1.0
 10
1877.6715374686858
 20
-2698.0965110937018
 30
0.0
 41
1.0
 10
1877.3611148714153
 20
-2698.6179138626003
 30
0.0
 41
0.9997476598181253
 10
1877.074424896397
 20
-2699.1527333597633
 30
0.0
 41
1.0
 10
1876.7877349213761
 20
-2699.6875528569312
 30
0.0
 41
0.9996258967109512
 10
1876.5307184175147
 20
-2700.2372487301755
 30
0.0
 41
1.0
 10
1876.5043185986151
 20
-2700.2937115303671
 30
0.0
 41
1.0
 10
1876.4779187797155
 20
-2700.3501743305587
 30
0.0
 41
1.0
 10
1876.1975013377189
 20
-2700.9499191264581
 30
0.0
 41
0.9998735413945121
 10
1875.9362986442748
 20
-2701.5582783254013
 30
0.0
 41
1.0
 10
1875.9294129881519
 20
-2701.5743154963347
 30
0.0
 41
1.0
 10
1875.9225273320292
 20
-2701.5903526672682
 30
0.0
 41
1.0
 10
1875.6750959508372
 20
-2702.1666375243294
 30
0.0
 41
0.9999377418864015
 10
1875.4405863464845
 20
-2702.7483004596861
 30
0.0
 41
1.0
 10
1875.206076742131
 20
-2703.3299633950455
 30
0.0
 41
0.9999508299509609
 10
1874.9831488553759
 20
-2703.9161627486906
 30
0.0
 41
1.0
 10
1874.9769873180528
 20
-2703.9323648006139
 30
0.0
 41
1.0
 10
1874.9708257807297
 20
-2703.9485668525367
 30
0.0
 41
1.0
 10
1874.7355748193288
 20
-2704.5671703100243
 30
0.0
 41
0.9999609228431653
 10
1874.5112976135908
 20
-2705.1898363420278
 30
0.0
 41
1.0
 10
1874.5053855928845
 20
-2705.2062500228658
 30
0.0
 41
1.0
 10
1874.4994735721784
 20
-2705.2226637037038
 30
0.0
 41
1.0
 10
1874.2633723250256
 20
-2705.8781570973906
 30
0.0
 41
0.9999674607402643
 10
1874.0378772728898
 20
-2706.5373743373798
 30
0.0
 41
1.0
 10
1873.9350804917694
 20
-2706.8378927287504
 30
0.0
 41
1.0
 10
1873.8322837106489
 20
-2707.138411120121
 30
0.0
 41
1.0
 10
1873.6002624971313
 20
-2707.8167070851323
 30
0.0
 41
0.9999287532307414
 10
1873.3844996891885
 20
-2708.5003485630878
 30
0.0
 41
1.0
 10
1873.2915451769504
 20
-2708.7948736517019
 30
0.0
 41
1.0
 10
1873.1985906647121
 20
-2709.089398740316
 30
0.0
 41
1.0
 10
1873.1687368813323
 20
-2709.1839900407695
 30
0.0
 41
0.9999998223906256
 10
1873.138995863786
 20
-2709.2786168575212
 30
0.0
 41
1.0
 10
1869.8976835901951
 20
-2719.5746738611001
 30
0.0
 41
1.0
 10
1866.6563713166042
 20
-2729.870730864679
 30
0.0
 41
1.0
 10
1864.8457544288224
 20
-2729.870730864679
 30
0.0
 41
1.0
 10
1863.0351375410405
 20
-2729.870730864679
 30
0.0
 41
1.0
 10
1866.7393063638126
 20
-2718.0965870197442
 30
0.0
 41
1.0
 10
1870.4434751865847
 20
-2706.322443174809
 30
0.0
 41
1.0
 10
1870.4637187031901
 20
-2706.2583567479096
 30
0.0
 41
1.0
 10
1870.6089340408896
 20
-2705.7977576642579
 30
0.0
 41
1.0
 10
1870.7541493785932
 20
-2705.3371585805935
 30
0.0
 41
0.9999825681973988
 10
1870.8939154570205
 20
-2704.8748767904485
 30
0.0
 41
1.0
 10
1870.990497581337
 20
-2704.5554276234734
 30
0.0
 41
1.0
 10
1871.0870797056534
 20
-2704.2359784564987
 30
0.0
 41
1.0
 10
1871.2813844122825
 20
-2703.5933080129644
 30
0.0
 41
0.9999672528966247
 10
1871.4652620235338
 20
-2702.9475769217761
 30
0.0
 41
1.0
 10
1871.4708397908585
 20
-2702.9279892310487
 30
0.0
 41
1.0
 10
1871.4764175581829
 20
-2702.9084015403209
 30
0.0
 41
1.0
 10
1871.6491396347728
 20
-2702.3018458306301
 30
0.0
 41
0.9999899749146598
 10
1871.8164228538499
 20
-2701.6937676536991
 30
0.0
 41
1.0
 10
1871.8366346918849
 20
-2701.6202971783423
 30
0.0
 41
1.0
 10
1871.8568465299199
 20
-2701.5468267029855
 30
0.0
 41
1.0
 10
1871.9837060729178
 20
-2701.0856894767985
 30
0.0
 41
0.999921420050221
 10
1872.0989649296748
 20
-2700.6215167923756
 30
0.0
 41
1.0
 10
1872.124496634041
 20
-2700.518695021563
 30
0.0
 41
1.0
 10
1872.1500283384071
 20
-2700.4158732507503
 30
0.0
 41
1.0
 10
1872.21422378643
 20
-2700.1573441079577
 30
0.0
 41
0.9999828681675399
 10
1872.275388290421
 20
-2699.8980811590218
 30
0.0
 41
1.0
 10
1872.3365527944065
 20
-2699.6388182101082
 30
0.0
 41
0.9999389844483548
 10
1872.3919747719813
 20
-2699.3782672983289
 30
0.0
 41
1.0
 10
1872.4062502594261
 20
-2699.3111550906328
 30
0.0
 41
1.0
 10
1872.4205257468711
 20
-2699.2440428829368
 30
0.0
 41
1.0
 10
1872.5044986993337
 20
-2698.8492675557713
 30
0.0
 41
0.9998933699441034
 10
1872.576907228138
 20
-2698.4522083402535
 30
0.0
 41
1.0
 10
1872.579652878569
 20
-2698.4371522988686
 30
0.0
 41
1.0
 10
1872.5823985290003
 20
-2698.4220962574836
 30
0.0
 41
1.0
 10
1872.6602983586702
 20
-2697.9949249591809
 30
0.0
 41
0.9996850305193759
 10
1872.7166657111875
 20
-2697.5643829483083
 30
0.0
 41
1.0
 10
1872.7206557779257
 20
-2697.5339062400672
 30
0.0
 41
1.0
 10
1872.7246458446639
 20
-2697.503429531826
 30
0.0
 41
1.0
 10
1872.7794615695825
 20
-2697.0847390775129
 30
0.0
 41
0.999469793670707
 10
1872.8069106880221
 20
-2696.6633686868481
 30
0.0
 41
1.0
 10
1872.8078648265214
 20
-2696.6487217424265
 30
0.0
 41
1.0
 10
1872.8088189650207
 20
-2696.6340747980048
 30
0.0
 41
1.0
 10
1872.8343598064612
 20
-2696.2419982961878
 30
0.0
 41
0.9991804893137241
 10
1872.8281031739157
 20
-2695.84914059624
 30
0.0
 41
1.0
 10
1872.8279354162714
 20
-2695.8386069934149
 30
0.0
 41
1.0
 10
1872.8277676586272
 20
-2695.8280733905895
 30
0.0
 41
1.0
 10
1872.8218465413702
 20
-2695.456282896293
 30
0.0
 41
0.9988448329321498
 10
1872.7802634501227
 20
-2695.0867777166263
 30
0.0
 41
1.0
 10
1872.7770753027166
 20
-2695.0584480050843
 30
0.0
 41
1.0
 10
1872.7738871553106
 20
-2695.0301182935423
 30
0.0
 41
1.0
 10
1872.7386803588752
 20
-2694.7172725369605
 30
0.0
 41
0.9985503209458699
 10
1872.6700478142761
 20
-2694.4100241687811
 30
0.0
 41
1.0
 10
1872.6548758301342
 20
-2694.3421035139836
 30
0.0
 41
1.0
 10
1872.6397038459925
 20
-2694.2741828591857
 30
0.0
 41
1.0
 10
1872.601415269678
 20
-2694.102775800608
 30
0.0
 41
0.9991036781371003
 10
1872.5487655463744
 20
-2693.9352216259526
 30
0.0
 41
1.0
 10
1872.540801095462
 20
-2693.9098753009303
 30
0.0
 41
1.0
 10
1872.5328366445497
 20
-2693.8845289759079
 30
0.0
 41
1.0
 10
1872.4961158230715
 20
-2693.7676674513009
 30
0.0
 41
0.9998874504368696
 10
1872.4559054077154
 20
-2693.6519602468561
 30
0.0
 41
1.0
 10
1872.4156949923565
 20
-2693.5362530424054
 30
0.0
 41
0.9994041637544384
 10
1872.3675977664882
 20
-2693.4235956346256
 30
0.0
 41
1.0
 10
1872.3592041980407
 20
-2693.4039355056634
 30
0.0
 41
1.0
 10
1872.3508106295933
 20
-2693.3842753767012
 30
0.0
 41
1.0
 10
1872.2950529676043
 20
-2693.2536750447671
 30
0.0
 41
0.9991846840701656
 10
1872.2289402542185
 20
-2693.1279989822074
 30
0.0
 41
1.0
 10
1872.226667041429
 20
-2693.1236777492991
 30
0.0
 41
1.0
 10
1872.2243938286394
 20
-2693.1193565163908
 30
0.0
 41
1.0
 10
1872.1628275408336
 20
-2693.0023229196495
 30
0.0
 41
0.9989253167923567
 10
1872.0906886927223
 20
-2692.8914930628662
 30
0.0
 41
1.0
 10
1872.0885804433742
 20
-2692.8882540733421
 30
0.0
 41
1.0
 10
1872.0864721940263
 20
-2692.8850150838184
 30
0.0
 41
1.0
 10
1872.0185498446137
 20
-2692.7806632060883
 30
0.0
 41
0.9986467172838246
 10
1871.9401555393379
 20
-2692.6839311388267
 30
0.0
 41
1.0
 10
1871.9384072819364
 20
-2692.6817739342705
 30
0.0
 41
1.0
 10
1871.9366590245349
 20
-2692.6796167297139
 30
0.0
 41
1.0
 10
1871.8617612340627
 20
-2692.5871990715673
 30
0.0
 41
0.998400110426685
 10
1871.7769077730286
 20
-2692.5038288568303
 30
0.0
 41
1.0
 10
1871.7757334968101
 20
-2692.5026751070682
 30
0.0
 41
1.0
 10
1871.7745592205918
 20
-2692.501521357306
 30
0.0
 41
1.0
 10
1871.6920543119957
 20
-2692.4204586420938
 30
0.0
 41
0.9982442159082329
 10
1871.6005421093232
 20
-2692.3497215195721
 30
0.0
 41
1.0
 10
1871.6001125183993
 20
-2692.3493894542853
 30
0.0
 41
1.0
 10
1871.5996829274754
 20
-2692.3490573889985
 30
0.0
 41
1.0
 10
1871.5090299066517
 20
-2692.2789843970518
 30
0.0
 41
0.9982450060837329
 10
1871.4107279485083
 20
-2692.2201208309843
 30
0.0
 41
1.0
 10
1871.3124259903657
 20
-2692.1612572649178
 30
0.0
 41
0.9983922639635626
 10
1871.2080933780355
 20
-2692.1138979956095
 30
0.0
 41
1.0
 10
1871.2076396233865
 20
-2692.1136920246463
 30
0.0
 41
1.0
 10
1871.2071858687373
 20
-2692.1134860536836
 30
0.0
 41
1.0
 10
1871.1019457471093
 20
-2692.0657148424498
 30
0.0
 41
0.9986517147149977
 10
1870.9923198013735
 20
-2692.0291126042061
 30
0.0
 41
1.0
 10
1870.990963958518
 20
-2692.0286599113433
 30
0.0
 41
1.0
 10
1870.9896081156626
 20
-2692.0282072184805
 30
0.0
 41
1.0
 10
1870.8772704842172
 20
-2691.9906995945121
 30
0.0
 41
0.9989435598957306
 10
1870.761963709916
 20
-2691.9636641900429
 30
0.0
 41
1.0
 10
1870.7598034707507
 20
-2691.9631576895363
 30
0.0
 41
1.0
 10
1870.7576432315855
 20
-2691.9626511890301
 30
0.0
 41
1.0
 10
1870.6380159789551
 20
-2691.9346027835491
 30
0.0
 41
0.9992249241240742
 10
1870.5165529611606
 20
-2691.9160520981181
 30
0.0
 41
1.0
 10
1870.5137255845789
 20
-2691.9156202813028
 30
0.0
 41
1.0
 10
1870.5108982079971
 20
-2691.9151884644871
 30
0.0
 41
1.0
 10
1870.3837804370371
 20
-2691.8957741454255
 30
0.0
 41
0.9994396597833952
 10
1870.2556485639611
 20
-2691.884908300734
 30
0.0
 41
1.0
 10
1870.2173672290071
 20
-2691.8816619652971
 30
0.0
 41
1.0
 10
1870.1790858940531
 20
-2691.8784156298598
 30
0.0
 41
1.0
 10
1869.9743913510681
 20
-2691.8610571142935
 30
0.0
 41
0.9987693403121726
 10
1869.7689841038948
 20
-2691.8640632411984
 30
0.0
 41
1.0
 10
1869.7484754354368
 20
-2691.8643633847469
 30
0.0
 41
1.0
 10
1869.7279667669789
 20
-2691.8646635282953
 30
0.0
 41
1.0
 10
1869.5088552346244
 20
-2691.8678702168704
 30
0.0
 41
0.9989753644966141
 10
1869.2909312345942
 20
-2691.890876230721
 30
0.0
 41
1.0
 10
1869.0730072345589
 20
-2691.9138822445716
 30
0.0
 41
0.9983190067305373
 10
1868.8592096126272
 20
-2691.9619522281455
 30
0.0
 41
1.0
 10
1868.8414077094158
 20
-2691.9659547852707
 30
0.0
 41
1.0
 10
1868.8236058062043
 20
-2691.9699573423954
 30
0.0
 41
1.0
 10
1868.5742043778466
 20
-2692.0260324402198
 30
0.0
 41
0.9985539388302972
 10
1868.3322648704902
 20
-2692.1085597923116
 30
0.0
 41
1.0
 10
1868.3275740085703
 20
-2692.1101598799432
 30
0.0
 41
1.0
 10
1868.3228831466504
 20
-2692.1117599675745
 30
0.0
 41
1.0
 10
1868.0715619154553
 20
-2692.1974874949283
 30
0.0
 41
0.9988468746493737
 10
1867.8296212308564
 20
-2692.3069236650517
 30
0.0
 41
1.0
 10
1867.8232555868772
 20
-2692.3098030141728
 30
0.0
 41
1.0
 10
1867.8168899428979
 20
-2692.3126823632933
 30
0.0
 41
1.0
 10
1867.5622179703423
 20
-2692.4278772316579
 30
0.0
 41
0.9991322885918755
 10
1867.3180168022302
 20
-2692.5638678960213
 30
0.0
 41
1.0
 10
1867.2828127801399
 20
-2692.5834723000021
 30
0.0
 41
1.0
 10
1867.2476087580496
 20
-2692.6030767039829
 30
0.0
 41
1.0
 10
1867.043255395937
 20
-2692.716876935543
 30
0.0
 41
0.9993860037849144
 10
1866.847373387792
 20
-2692.8447089667193
 30
0.0
 41
1.0
 10
1866.8361367620855
 20
-2692.85204195611
 30
0.0
 41
1.0
 10
1866.824900136379
 20
-2692.8593749455013
 30
0.0
 41
1.0
 10
1866.651491379647
 20
-2692.9725409978951
 30
0.0
 41
0.9998821494955138
 10
1866.4816386280195
 20
-2693.0909774580496
 30
0.0
 41
1.0
 10
1866.3117858763849
 20
-2693.2094139182095
 30
0.0
 41
0.9997976482744052
 10
1866.1468346155684
 20
-2693.3345867343005
 30
0.0
 41
1.0
 10
1866.1175620859676
 20
-2693.3568001138533
 30
0.0
 41
1.0
 10
1866.088289556367
 20
-2693.3790134934061
 30
0.0
 41
1.0
 10
1865.8647932363513
 20
-2693.5486130686004
 30
0.0
 41
0.9998091630800557
 10
1865.6480926803067
 20
-2693.7268137699934
 30
0.0
 41
1.0
 10
1865.622081175341
 20
-2693.7482039708948
 30
0.0
 41
1.0
 10
1865.5960696703755
 20
-2693.7695941717957
 30
0.0
 41
1.0
 10
1865.3273461044123
 20
-2693.9905752749823
 30
0.0
 41
0.9995035112317322
 10
1865.0730743488896
 20
-2694.2280429090074
 30
0.0
 41
1.0
 10
1865.0537797281122
 20
-2694.2460624013256
 30
0.0
 41
1.0
 10
1865.0344851073346
 20
-2694.2640818936443
 30
0.0
 41
1.0
 10
1864.7876389818048
 20
-2694.4946146371558
 30
0.0
 41
0.9994630424299369
 10
1864.5564221702366
 20
-2694.7408201236262
 30
0.0
 41
1.0
 10
1864.5490564926954
 20
-2694.7486632826503
 30
0.0
 41
1.0
 10
1864.5416908151544
 20
-2694.7565064416744
 30
0.0
 41
1.0
 10
1864.3252053586707
 20
-2694.987025610094
 30
0.0
 41
0.9995160693749906
 10
1864.1234732996047
 20
-2695.2305604458415
 30
0.0
 41
1.0
 10
1864.1196058594501
 20
-2695.2352292942496
 30
0.0
 41
1.0
 10
1864.1157384192954
 20
-2695.2398981426577
 30
0.0
 41
1.0
 10
1863.9217412405465
 20
-2695.47409528158
 30
0.0
 41
0.9996561470514556
 10
1863.7402888032091
 20
-2695.7181408064853
 30
0.0
 41
1.0
 10
1863.7279734714007
 20
-2695.7347043845757
 30
0.0
 41
1.0
 10
1863.7156581395923
 20
-2695.7512679626666
 30
0.0
 41
1.0
 10
1863.558836365869
 20
-2695.9621863313951
 30
0.0
 41
0.99983490551725
 10
1863.4097818020127
 20
-2696.1786634987102
 30
0.0
 41
1.0
 10
1863.2607272381415
 20
-2696.3951406660481
 30
0.0
 41
0.9999728109573848
 10
1863.114881446332
 20
-2696.613792517142
 30
0.0
 41
1.0
 10
1863.1122510155064
 20
-2696.6177360561496
 30
0.0
 41
1.0
 10
1863.1096205846811
 20
-2696.6216795951577
 30
0.0
 41
1.0
 10
1862.9585139312326
 20
-2696.8482185242506
 30
0.0
 41
0.9999972147395209
 10
1862.8084783105019
 20
-2697.075468209895
 30
0.0
 41
1.0
 10
1862.798535225239
 20
-2697.0905283868669
 30
0.0
 41
1.0
 10
1862.7885921399763
 20
-2697.1055885638389
 30
0.0
 41
1.0
 10
1862.618670348751
 20
-2697.3629586033812
 30
0.0
 41
0.9999371979007919
 10
1862.454559649947
 20
-2697.6240724309282
 30
0.0
 41
1.0
 10
1862.4475418812146
 20
-2697.6352382870723
 30
0.0
 41
1.0
 10
1862.4405241124823
 20
-2697.6464041432164
 30
0.0
 41
1.0
 10
1862.2623778762236
 20
-2697.9298496830361
 30
0.0
 41
0.9998272025611418
 10
1862.0948910944628
 20
-2698.2197214365151
 30
0.0
 41
1.0
 10
1862.0644607504137
 20
-2698.27238766543
 30
0.0
 41
1.0
 10
1862.0340304063648
 20
-2698.3250538943448
 30
0.0
 41
1.0
 10
1861.8056829365039
 20
-2698.7202581056581
 30
0.0
 41
0.9995217214838064
 10
1861.6022035573924
 20
-2699.1288227613827
 30
0.0
 41
1.0
 10
1861.5869164321221
 20
-2699.1595176607889
 30
0.0
 41
1.0
 10
1861.5716293068517
 20
-2699.1902125601955
 30
0.0
 41
1.0
 10
1861.3978187216733
 20
-2699.5392054763561
 30
0.0
 41
0.9998269762607343
 10
1861.2371097891296
 20
-2699.8944220498024
 30
0.0
 41
1.0
 10
1861.0764008565866
 20
-2700.249638623246
 30
0.0
 41
0.9998944747386324
 10
1860.9260792674534
 20
-2700.6093740745146
 30
0.0
 41
1.0
 10
1860.9161719282697
 20
-2700.6330833843531
 30
0.0
 41
1.0
 10
1860.9062645890858
 20
-2700.6567926941912
 30
0.0
 41
1.0
 10
1860.744970467983
 20
-2701.0427865742213
 30
0.0
 41
0.999950673441408
 10
1860.591375410178
 20
-2701.4319081839285
 30
0.0
 41
1.0
 10
1860.5621754796341
 20
-2701.505884027546
 30
0.0
 41
1.0
 10
1860.5329755490902
 20
-2701.5798598711631
 30
0.0
 41
1.0
 10
1860.4377803523639
 20
-2701.8210297936575
 30
0.0
 41
0.9999912393922585
 10
1860.3446074643257
 20
-2702.0629881990321
 30
0.0
 41
1.0
 10
1860.2514345762697
 20
-2702.3049466044531
 30
0.0
 41
0.9999927113965598
 10
1860.1601119874906
 20
-2702.5476094194328
 30
0.0
 41
1.0
 10
1860.132175124696
 20
-2702.6218433834283
 30
0.0
 41
1.0
 10
1860.1042382619016
 20
-2702.6960773474234
 30
0.0
 41
1.0
 10
1859.957041947521
 20
-2703.087208090426
 30
0.0
 41
0.9999487550947976
 10
1859.8177946975775
 20
-2703.481238820792
 30
0.0
 41
1.0
 10
1859.7706074777097
 20
-2703.6147654413608
 30
0.0
 41
1.0
 10
1859.723420257842
 20
-2703.7482920619291
 30
0.0
 41
1.0
 10
1859.5340489890964
 20
-2704.2841597315919
 30
0.0
 41
0.9999808436942207
 10
1859.3513258118073
 20
-2704.8223305941378
 30
0.0
 41
1.0
 10
1859.1686026345246
 20
-2705.3605014566665
 30
0.0
 41
0.9999873932890966
 10
1858.9912932170892
 20
-2705.9004801666911
 30
0.0
 41
1.0
 10
1858.95110850335
 20
-2706.0228588321979
 30
0.0
 41
1.0
 10
1858.9109237896109
 20
-2706.1452374977052
 30
0.0
 41
1.0
 10
1858.6532449446991
 20
-2706.9299735387372
 30
0.0
 41
0.999979488302439
 10
1858.4056393747833
 20
-2707.7179459512922
 30
0.0
 41
1.0
 10
1858.3833348559069
 20
-2707.7889271717704
 30
0.0
 41
1.0
 10
1858.3610303370308
 20
-2707.8599083922486
 30
0.0
 41
1.0
 10
1858.0759140092248
 20
-2708.7672538964557
 30
0.0
 41
0.9999982761701056
 10
1857.7941691292058
 20
-2709.6756519406658
 30
0.0
 41
1.0
 10
1854.6178884640606
 20
-2719.7731914026726
 30
0.0
 41
1.0
 10
1851.4416077989154
 20
-2729.870730864679
 30
0.0
 41
1.0
 10
1849.5441065759626
 20
-2729.870730864679
 30
0.0
 41
1.0
 10
1847.6466053530098
 20
-2729.870730864679
 30
0.0
 41
1.0
 10
1854.1231743253161
 20
-2709.2160864647867
 30
0.0
 41
1.0
 10
1860.5997432976226
 20
-2688.5614420648944
 30
0.0
 41
1.0
  0
LWPOLYLINE
  5
64
100
AcDbEntity
  8
0
370
              15
390
0
  6
Continuous
 62
               7
100
AcDbPolyline
 90
      232
 70
             128
 10
1809.1926517499685
 20
-2690.7301277279248
 42
0.0004370800691959
 10
1809.0868974018247
 20
-2690.8674610064368
 10
1809.0083289395695
 20
-2690.9696752322307
 42
0.003048199217171
 10
1808.7476515053672
 20
-2691.3131186168712
 10
1808.6706281618303
 20
-2691.4158921844951
 42
0.0042058245764033
 10
1808.262658060464
 20
-2691.9699036746792
 10
1808.1578478154893
 20
-2692.1147693682042
 42
0.0120948898744094
 10
1807.5657599819642
 20
-2692.9762685773053
 10
1807.3733749837231
 20
-2693.2712300477506
 42
0.0141601263947062
 10
1806.7660868898786
 20
-2694.2625687212226
 10
1806.6870123550154
 20
-2694.4002566561053
 42
0.007113108130372
 10
1806.2764677085497
 20
-2695.1392622537624
 42
0.0068458791003417
 10
1805.8867086548612
 20
-2695.8894453807193
 10
1805.8730849299482
 20
-2695.9165688081621
 42
0.0064120880289223
 10
1805.4768004298689
 20
-2696.7314177579797
 10
1805.4617310588255
 20
-2696.7634414714421
 42
0.0058857236448259
 10
1805.0562202750828
 20
-2697.652193693511
 10
1805.0398704224942
 20
-2697.68917400078
 42
0.0053189741896757
 10
1804.6224617971627
 20
-2698.6611009486073
 10
1804.6049661857965
 20
-2698.7030647050078
 42
0.0047503650417849
 10
1804.1730187334961
 20
-2699.7674635714243
 10
1804.1544822367987
 20
-2699.8144163236429
 42
0.0042071762169229
 10
1803.7053874693431
 20
-2700.9806035117831
 10
1803.685888664646
 20
-2701.0325358615219
 42
0.003668008648511
 10
1803.2169793780215
 20
-2702.3098066305861
 10
1803.1965638183262
 20
-2702.3667036992738
 42
0.0032573142627999
 10
1802.7052992463859
 20
-2703.7644090188005
 10
1802.5679982047056
 20
-2704.1633351869036
 42
0.0026133366650121
 10
1801.8711078071956
 20
-2706.22306175423
 10
1801.7445942321942
 20
-2706.6035234250157
 42
0.0020592950739362
 10
1801.3168680942599
 20
-2707.9077307302423
 10
1801.3107645119433
 20
-2707.926603707032
 42
0.0025609928533873
 10
1800.9071235089621
 20
-2709.1968941517935
 10
1800.9019407747026
 20
-2709.2134988336943
 42
0.0031362356242951
 10
1800.5229592033547
 20
-2710.4550245460337
 10
1800.5186971175006
 20
-2710.4693071584538
 42
0.0037229918030943
 10
1800.1650963436473
 20
-2711.6872777624039
 10
1800.1617391652321
 20
-2711.6991715427612
 42
0.0043077623707283
 10
1799.8342575611043
 20
-2712.8988090062912
 42
0.0047654161821928
 10
1799.5286001160716
 20
-2714.1041811840978
 10
1799.4596708983941
 20
-2714.387304738395
 42
0.0112969368443199
 10
1799.0679421821085
 20
-2716.1706890596361
 10
1799.0119294039137
 20
-2716.4563451518393
 42
0.0130056762570148
 10
1798.6102549166203
 20
-2718.8302272951291
 10
1798.5691754163258
 20
-2719.1183835220863
 42
0.0138721532145176
 10
1798.3617694072504
 20
-2720.9320424937346
 10
1798.3231784314351
 20
-2721.3790379375814
 42
0.0071254697010102
 10
1798.2564851395896
 20
-2722.3054119552789
 10
1798.2465631912612
 20
-2722.4774199444328
 42
0.0028881799202717
 10
1798.2162866046833
 20
-2723.0609033640849
 42
0.0060297297132672
 10
1798.1964222051324
 20
-2723.6448012362994
 10
1798.1942976417977
 20
-2723.7415859801899
 42
0.0229523164157624
 10
1798.2097596973695
 20
-2724.3870956727478
 10
1798.2182112444102
 20
-2724.5079027407787
 42
0.0123673300666928
 10
1798.2563685374469
 20
-2724.9101441911298
 42
0.0128577674467638
 10
1798.3147593182587
 20
-2725.3099398909785
 10
1798.3290110650335
 20
-2725.3925975201773
 42
0.0285717853763926
 10
1798.4579990684249
 20
-2725.9488298228034
 10
1798.4853361157577
 20
-2726.042139361758
 42
0.0316283099153373
 10
1798.7169572755861
 20
-2726.6801683654098
 10
1798.7230546590972
 20
-2726.6941411100611
 42
0.0338984824234845
 10
1799.0219180810316
 20
-2727.2692730384392
 10
1799.0265355397723
 20
-2727.2768550969927
 42
0.0350228718351254
 10
1799.3912561211184
 20
-2727.7909590663448
 10
1799.3930266246682
 20
-2727.7931172218728
 42
0.0347476747530243
 10
1799.8218759991487
 20
-2728.2474873163128
 42
0.0331337701909162
 10
1800.3083626506418
 20
-2728.6397446404685
 10
1800.3105628476737
 20
-2728.6412900468131
 42
0.0305233319079248
 10
1800.84765223882
 20
-2728.9715463869952
 10
1800.8541123278228
 20
-2728.9749944107207
 42
0.0273744481157507
 10
1801.439219750974
 20
-2729.2472706985027
 10
1801.4494288212466
 20
-2729.2513578674411
 42
0.0240964406197849
 10
1802.0803829725419
 20
-2729.4693253200048
 10
1802.093549630958
 20
-2729.4731747993537
 42
0.0209636179812975
 10
1802.7683499362658
 20
-2729.6401110952188
 10
1802.7836148571605
 20
-2729.643214921221
 42
0.0181388704693399
 10
1803.5002596411575
 20
-2729.7620471076489
 10
1803.5168213379138
 20
-2729.7641794752831
 42
0.015608654758589
 10
1804.2731960662913
 20
-2729.8376518484365
 10
1804.3595865709583
 20
-2729.8433288533952
 42
0.0137148329026534
 10
1805.0149328615432
 20
-2729.8683693638968
 10
1805.1068052414269
 20
-2729.8693582301271
 42
0.0051057823887141
 10
1805.5790964145797
 20
-2729.869618738946
 42
0.0052256693311805
 10
1806.0512909821489
 20
-2729.8601210900169
 10
1806.1917445496358
 20
-2729.8558271579891
 42
0.0161507179048061
 10
1806.9432187058385
 20
-2729.808526417336
 10
1806.9832446265846
 20
-2729.8047060267609
 42
0.0101216737832719
 10
1807.8112990695633
 20
-2729.7087201660302
 10
1807.8794056484194
 20
-2729.6994247724106
 42
0.0245291776397457
 10
1808.8329849595182
 20
-2729.5212746162588
 10
1809.0026315905659
 20
-2729.4808827755674
 42
0.014350921255892
 10
1809.7158937984489
 20
-2729.2892735080086
 42
0.0156557857041937
 10
1810.4163259279019
 20
-2729.0552510763714
 10
1810.4313283568927
 20
-2729.0497107528627
 42
0.0170137333631318
 10
1811.1445203482572
 20
-2728.7583955231198
 10
1811.1587281930704
 20
-2728.7520198519933
 42
0.0183105364409703
 10
1811.8774275294056
 20
-2728.3973497683432
 10
1811.8913210586804
 20
-2728.3898488986006
 42
0.0194899958149863
 10
1812.6082825406488
 20
-2727.9658909348186
 10
1812.6223102993217
 20
-2727.9568402502291
 42
0.020486985295207
 10
1813.33033890352
 20
-2727.4578002200496
 10
1813.3448701206837
 20
-2727.4466400893607
 42
0.0212516938555694
 10
1814.0368499829003
 20
-2726.8668320955708
 10
1814.1298833710482
 20
-2726.7818974753868
 42
0.0215248918250838
 10
1814.6499357088264
 20
-2726.2643689173947
 10
1814.7399951775783
 20
-2726.1666806747053
 42
0.0114578554953019
 10
1815.0495794849421
 20
-2725.8150348077788
 10
1815.071968556882
 20
-2725.7883972807276
 42
0.0061531305117666
 10
1815.3249178489043
 20
-2725.4798182140767
 42
0.0006325587120629
 10
1815.5736748171666
 20
-2725.1678114627766
 10
1815.6197550873108
 20
-2725.1098644214062
 42
0.0041897761554223
 10
1815.956665895241
 20
-2724.6788256693021
 10
1816.0735901350406
 20
-2724.5266229753124
 42
0.0092993880039111
 10
1816.6268139894953
 20
-2723.7780654475341
 10
1816.7916029758808
 20
-2723.5461914404141
 42
0.0159321727087909
 10
1817.4848159411706
 20
-2722.501842998895
 10
1817.5735282119424
 20
-2722.3584838704051
 42
0.0085547317020393
 10
1818.0425517426002
 20
-2721.5707339719456
 42
0.0084601156889796
 10
1818.4845040974847
 20
-2720.7674802738811
 10
1818.5007350451451
 20
-2720.7367609093353
 42
0.0081429654285291
 10
1818.9472335860228
 20
-2719.8573178842485
 10
1818.9649539143882
 20
-2719.8209602002153
 42
0.0076574581328677
 10
1819.417768935522
 20
-2718.8545944497077
 10
1819.436728216969
 20
-2718.8124654931025
 42
0.0070682724199216
 10
1819.8976180325801
 20
-2717.7483908835466
 10
1819.9175986005459
 20
-2717.7004125055173
 42
0.0064559514449726
 10
1820.3882650169135
 20
-2716.5277879724681
 10
1820.4090837332392
 20
-2716.4739181215946
 42
0.0058311413906422
 10
1820.8911772067597
 20
-2715.1818539328419
 10
1820.9126873615398
 20
-2715.1220852505066
 42
0.0052312425819601
 10
1821.4078499176269
 20
-2713.6996804228211
 10
1821.4299375903811
 20
-2713.6340269986977
 42
0.0046680544797109
 10
1821.9397944458444
 20
-2712.0703743672061
 10
1822.0237787459266
 20
-2711.8044078926378
 42
0.004166685644559
 10
1822.4303507707273
 20
-2710.478470342593
 10
1822.5056756520535
 20
-2710.2253081272902
 42
0.0015170975158235
 10
1822.7480488088809
 20
-2709.4015714242983
 42
-0.0004887993109788
 10
1822.98872835521
 20
-2708.577334599931
 10
1823.1416828701172
 20
-2708.0554198283321
 42
0.0002583378927851
 10
1823.6881120102576
 20
-2706.187306421934
 10
1823.8516577093485
 20
-2705.6271079029812
 42
0.0006636169672048
 10
1824.2393932294217
 20
-2704.2924020556338
 10
1824.2495865381429
 20
-2704.25713888978
 42
0.001058913132359
 10
1824.612483939949
 20
-2702.991676203776
 10
1824.6224480808962
 20
-2702.9566503897845
 42
0.0015655524461306
 10
1824.9589884952757
 20
-2701.7594170313341
 10
1824.9686488961124
 20
-2701.724632713438
 42
0.0021640440476036
 10
1825.2772288400774
 20
-2700.5945786774264
 10
1825.2864972789444
 20
-2700.5600492174126
 42
0.0028763871852557
 10
1825.5655287150435
 20
-2699.4961133157444
 10
1825.5743004433768
 20
-2699.4618653594398
 42
0.0037310511946031
 10
1825.8222138270517
 20
-2698.4629701713875
 10
1825.8303642676258
 20
-2698.4290496289127
 42
0.0047652197767401
 10
1826.0456120686465
 20
-2697.4940940922866
 10
1826.052993267296
 20
-2697.4605749819739
 42
0.0060276699306858
 10
1826.2340534656005
 20
-2696.5884233916981
 10
1826.2404908461738
 20
-2696.5554209631059
 42
0.0075824337756349
 10
1826.3858694650098
 20
-2695.7448866342274
 10
1826.3911602197688
 20
-2695.7125767393363
 42
0.009513062460807
 10
1826.4993906910327
 20
-2694.9623980331826
 10
1826.5133631387978
 20
-2694.8505309169491
 42
0.0121054653234112
 10
1826.5665457999537
 20
-2694.320739260002
 10
1826.5682787794749
 20
-2694.2979323741147
 42
0.006905082739061
 10
1826.5984564155483
 20
-2693.8120499204551
 10
1826.600727014885
 20
-2693.7649974063729
 42
0.0169063976692705
 10
1826.6063815728457
 20
-2693.3726119517642
 10
1826.6040402697836
 20
-2693.2519404290765
 42
0.0052007732893967
 10
1826.5995333725973
 20
-2693.1007536487618
 42
0.0054038123292089
 10
1826.5596063489224
 20
-2692.8607170567575
 10
1826.5494346371788
 20
-2692.8034000835796
 42
0.0112050460458512
 10
1826.4786659130609
 20
-2692.4507472068985
 10
1826.4430159889803
 20
-2692.2916640334597
 42
0.024076446800975
 10
1826.2612212566883
 20
-2691.6311899624584
 10
1826.2241037310619
 20
-2691.5179496324718
 42
0.0256812331834053
 10
1825.937377890682
 20
-2690.7745012199553
 10
1825.9265590390389
 20
-2690.7502385499752
 42
0.0268360501217043
 10
1825.5877045573395
 20
-2690.0882522819338
 10
1825.5766317420707
 20
-2690.0692129413114
 42
0.0274670231731511
 10
1825.1922297892429
 20
-2689.4846381914749
 10
1825.1814671893176
 20
-2689.4700798963922
 42
0.0275035967101781
 10
1824.758321430194
 20
-2688.9590481157838
 10
1824.7481824282613
 20
-2688.9480899405235
 42
0.0269557673526001
 10
1824.2933753413818
 20
-2688.5068053685982
 10
1824.2838892258155
 20
-2688.4985454596758
 42
0.0259124802208897
 10
1823.804779562955
 20
-2688.1231644053723
 10
1823.7957178725901
 20
-2688.1167934007108
 42
0.0245162153003859
 10
1823.2998851664015
 20
-2687.8033273824904
 10
1823.290832073752
 20
-2687.7982069880882
 42
0.0229282588838199
 10
1822.7859929600984
 20
-2687.5424706030908
 10
1822.7764319724236
 20
-2687.5381660035664
 42
0.0212984135693725
 10
1822.2703560675013
 20
-2687.3357681690823
 10
1822.2597474975641
 20
-2687.3320410435631
 42
0.0197555462341033
 10
1821.7601908221163
 20
-2687.1784102076326
 42
0.0183511896788373
 10
1821.2503333711898
 20
-2687.063244393702
 10
1821.0776029777446
 20
-2687.030838812932
 42
0.0338057877150354
 10
1820.5065882792235
 20
-2686.9632220026515
 10
1820.3245774691511
 20
-2686.9540626921289
 42
0.0091990524488401
 10
1820.1128832518716
 20
-2686.9473109802843
 42
0.0028333980777237
 10
1819.9010554198876
 20
-2686.9456547652508
 10
1819.899224513787
 20
-2686.9456508256026
 42
-0.0023619827812149
 10
1819.6837324835826
 20
-2686.9441691434458
 10
1819.6109221432234
 20
-2686.9433245305199
 42
0.0008824598485377
 10
1819.2498101633889
 20
-2686.9397729740422
 10
1819.1620872987119
 20
-2686.9390650509922
 42
0.0038132665768056
 10
1818.625521506983
 20
-2686.9388271788584
 10
1818.5924541973673
 20
-2686.9390647111459
 42
0.0060665569335579
 10
1817.9898932141948
 20
-2686.9507053099874
 10
1817.961392550134
 20
-2686.9516019259227
 42
0.0080356953336903
 10
1817.3024751174478
 20
-2686.9829373700568
 10
1817.278335087281
 20
-2686.9844745359374
 42
0.0098996399105945
 10
1816.5728089179747
 20
-2687.0434449943341
 10
1816.5527174992299
 20
-2687.04552558673
 42
0.0117740981366489
 10
1815.8104037825346
 20
-2687.1401100817893
 10
1815.7939583895673
 20
-2687.1426003149313
 42
0.0137435215135065
 10
1815.0247807505962
 20
-2687.2807942620548
 10
1815.0114666723503
 20
-2687.2835660545215
 42
0.015835986938262
 10
1814.2254724847471
 20
-2687.4733502314825
 10
1814.214646111011
 20
-2687.4763301132243
 42
0.018055412402713
 10
1813.4220160217867
 20
-2687.7256061457015
 10
1813.4129024456195
 20
-2687.7288382182342
 42
0.0203657431282945
 10
1812.6239474099982
 20
-2688.0453589012654
 10
1812.6156603319821
 20
-2688.0490821441499
 42
0.022681968465513
 10
1811.8407882195759
 20
-2688.4403673014908
 10
1811.8323886375385
 20
-2688.4450984853311
 42
0.0248634984606092
 10
1811.0820247551776
 20
-2688.9183517772249
 10
1810.985634897607
 20
-2688.9860658608782
 42
0.0267044190885524
 10
1810.4370495037751
 20
-2689.4169466126132
 42
0.0139303002197481
 10
1809.9247151719012
 20
-2689.8914242944338
 10
1809.9150084004557
 20
-2689.9009296201575
 42
0.0283460963442526
 10
1809.4268632119995
 20
-2690.4363909410499
 10
1809.3475262016882
 20
-2690.5339940959939
 42
0.0070695364826285
 10
1809.1926517499685
 20
-2690.7301277279248
 42
0.0070695364826285
  0
LWPOLYLINE
  5
65
100
AcDbEntity
  8
0
370
              15
390
0
  6
Continuous
 62
               7
100
AcDbPolyline
 90
      226
 70
             128
 10
1802.1350108754757
 20
-2722.1733053402927
 42
-0.0026277636607717
 10
1802.1348551078759
 20
-2722.0397614887124
 10
1802.1352898243397
 20
-2721.9334510539202
 42
-0.0088680296731272
 10
1802.1428430569256
 20
-2721.5874194891207
 10
1802.1475357751506
 20
-2721.4688594382069
 42
-0.0077381705614697
 10
1802.1796279966759
 20
-2720.8863384466254
 10
1802.1813638190231
 20
-2720.8617619792403
 42
-0.0068872530537054
 10
1802.2346279785161
 20
-2720.231318475136
 10
1802.2370364268916
 20
-2720.2068365170653
 42
-0.0062130021486449
 10
1802.3122238605451
 20
-2719.5290971346039
 10
1802.3152316676174
 20
-2719.504749390755
 42
-0.005672692966261
 10
1802.4130753866243
 20
-2718.7803589465116
 10
1802.4166222779108
 20
-2718.7561713460373
 42
-0.0052341884491334
 10
1802.5378434504287
 20
-2717.9857848350139
 10
1802.541879427984
 20
-2717.9617749750169
 42
-0.0049768450170808
 10
1802.6873567908358
 20
-2717.1460858401579
 10
1802.7358548202803
 20
-2716.88898987414
 42
-0.0089029805624026
 10
1803.0100165238714
 20
-2715.565438979288
 10
1803.0755072745069
 20
-2715.275376118248
 42
-0.0080318257100698
 10
1803.5346045031913
 20
-2713.3839568545291
 10
1803.5585743560848
 20
-2713.2916955841602
 42
-0.0074265721319319
 10
1804.1265974337839
 20
-2711.2315664274024
 10
1804.1663565200124
 20
-2711.0952983062407
 42
-0.00697119227034
 10
1804.8209656770314
 20
-2708.9627628255648
 10
1804.9408695712434
 20
-2708.5907201088207
 42
-0.005207042289633
 10
1805.3997200217609
 20
-2707.2161759547607
 10
1805.4342824061125
 20
-2707.1161213935061
 42
-0.0009167004448166
 10
1805.8404661806844
 20
-2705.9472096972186
 42
-0.0025162726947047
 10
1806.2546614411924
 20
-2704.7811271689407
 10
1806.3291106648201
 20
-2704.5748280770827
 42
-0.0028212681457016
 10
1806.8254625027466
 20
-2703.2233668127401
 10
1806.84512402826
 20
-2703.1707519233541
 42
-0.00319649168192
 10
1807.3177085435725
 20
-2701.9303423991328
 10
1807.3369774515731
 20
-2701.880722418839
 42
-0.0036281836450875
 10
1807.7871893737729
 20
-2700.7458410570598
 10
1807.8060661940913
 20
-2700.6992461940458
 42
-0.0041269166833236
 10
1808.2353015874062
 20
-2699.6643644020978
 10
1808.300567500246
 20
-2699.5106075093795
 42
-0.004747221305617
 10
1808.614657111355
 20
-2698.7897645736089
 10
1808.6284452737755
 20
-2698.7589233789358
 42
-0.0025651659996072
 10
1808.9251613414717
 20
-2698.104267267448
 42
-0.0057144634997853
 10
1809.2326607290127
 20
-2697.4546479207261
 10
1809.2887221398098
 20
-2697.3396311559491
 42
-0.0065388068375537
 10
1809.6556561952964
 20
-2696.6111661626046
 10
1809.6725731068498
 20
-2696.5786470038724
 42
-0.0074510843021667
 10
1810.0249375986091
 20
-2695.9252704416203
 10
1810.0412969396757
 20
-2695.8959888870745
 42
-0.0084648979862929
 10
1810.3805646458713
 20
-2695.3121708651602
 10
1810.3962768988347
 20
-2695.2861568818798
 42
-0.0095638542813491
 10
1810.7239477940359
 20
-2694.7663791379014
 10
1810.7388976813829
 20
-2694.7436404149853
 42
-0.0107191626802504
 10
1811.0565008421545
 20
-2694.2824179459021
 10
1811.0705343096151
 20
-2694.2629457611747
 42
-0.0118458573901384
 10
1811.3796305066417
 20
-2693.8548013705517
 42
-0.0129184518193446
 10
1811.7085357538435
 20
-2693.4624803382126
 10
1811.7688252985749
 20
-2693.3942281804075
 42
-0.02177425796298
 10
1812.1220499432416
 20
-2693.0278146399114
 10
1812.143541032151
 20
-2693.0073809735163
 42
-0.0097266568651055
 10
1812.475656269874
 20
-2692.7036858246311
 42
-0.0187720905728109
 10
1812.8243514216431
 20
-2692.4195481178604
 10
1812.885763402996
 20
-2692.3732299530643
 42
-0.017942820752072
 10
1813.3506048429936
 20
-2692.048125598837
 10
1813.3579094968279
 20
-2692.04339772906
 42
-0.0170047877699502
 10
1813.8294367718859
 20
-2691.7604767007588
 10
1813.8370027493843
 20
-2691.756280090683
 42
-0.0160190788367999
 10
1814.3108198446496
 20
-2691.51297748671
 42
-0.0151102861496382
 10
1814.7988834095424
 20
-2691.2996119346008
 10
1814.9036564139665
 20
-2691.2575316688112
 42
-0.0271945441887192
 10
1815.6209815320833
 20
-2691.0138020473992
 10
1815.7591111330623
 20
-2690.975102964866
 42
-0.0237596594021696
 10
1816.5907048271042
 20
-2690.7842015409033
 10
1816.7268305345651
 20
-2690.75969216465
 42
-0.0213715440554983
 10
1817.2985803974557
 20
-2690.6817981016302
 10
1817.4188747298831
 20
-2690.670618672229
 42
-0.0101465655815797
 10
1817.7538597938799
 20
-2690.6463315857
 10
1817.7725405662711
 20
-2690.6453577557058
 42
-0.0100375910879744
 10
1818.0708487674015
 20
-2690.6358061198553
 10
1818.0913673067544
 20
-2690.6355612418265
 42
-0.0103625633384108
 10
1818.3487832960718
 20
-2690.6378241088796
 10
1818.3933145986064
 20
-2690.6391388258094
 42
-0.0115689250225358
 10
1818.5614160736616
 20
-2690.6479978382995
 42
-0.0072438037433455
 10
1818.7290926325418
 20
-2690.6631762377988
 10
1818.7626936514855
 20
-2690.6667093232468
 42
-0.0217917313134732
 10
1818.995833178109
 20
-2690.7015491086881
 10
1819.1270333592495
 20
-2690.7270423255186
 42
-0.0332943556753419
 10
1819.5358176893028
 20
-2690.8351229081318
 10
1819.5961628264076
 20
-2690.8554590623703
 42
-0.0184824084788148
 10
1819.8731729393339
 20
-2690.9603610931417
 42
-0.0198002050689465
 10
1820.1413216203323
 20
-2691.0861292135405
 10
1820.1450948950865
 20
-2691.0880847873004
 42
-0.0212242342982324
 10
1820.4093727798918
 20
-2691.2396102648877
 10
1820.4130033709771
 20
-2691.2419018693035
 42
-0.0226090605805313
 10
1820.6700111734215
 20
-2691.4208611564331
 10
1820.6737000568955
 20
-2691.4236856624075
 42
-0.0238457052245872
 10
1820.920064219481
 20
-2691.6316774541319
 10
1820.9239696765994
 20
-2691.6353072096645
 42
-0.0248160564157572
 10
1821.1563726911997
 20
-2691.8738564120808
 10
1821.1605799580047
 20
-2691.8786270794908
 42
-0.0254109591459934
 10
1821.3757903937369
 20
-2692.1492038514198
 10
1821.3802864375648
 20
-2692.1554869482206
 42
-0.0255528488285827
 10
1821.57517979516
 20
-2692.4595410566903
 10
1821.5798419949915
 20
-2692.467704279904
 42
-0.0252146793219262
 10
1821.7514040470101
 20
-2692.8067087718991
 10
1821.7560085253249
 20
-2692.8170729357239
 42
-0.0244265635947783
 10
1821.9013179128483
 20
-2693.1925660798179
 10
1821.9198107157854
 20
-2693.2482969164948
 42
-0.0231319612902914
 10
1822.0116562737687
 20
-2693.574899010096
 42
-0.0112130424358419
 10
1822.080928318846
 20
-2693.9073062104758
 10
1822.0833333690703
 20
-2693.9202993842482
 42
-0.0210527881241506
 10
1822.1347063198118
 20
-2694.2824106751314
 10
1822.1417275094554
 20
-2694.353221772225
 42
-0.0190029892425786
 10
1822.1726104565446
 20
-2694.8602934647629
 10
1822.1742304094328
 20
-2694.9312446935073
 42
-0.0137974553662444
 10
1822.1711327037617
 20
-2695.5813075069746
 10
1822.1694417938509
 20
-2695.6335449961502
 42
-0.0081336634214859
 10
1822.1397231234055
 20
-2696.2442399313586
 42
-0.0073526923576519
 10
1822.0911060566566
 20
-2696.8537364199265
 10
1822.0885832090908
 20
-2696.880409769261
 42
-0.0066886138694153
 10
1822.0171120369987
 20
-2697.5415818562469
 10
1822.0137978580578
 20
-2697.5688250942385
 42
-0.0061359187353877
 10
1821.9180966539554
 20
-2698.2823530544424
 10
1821.9140216518103
 20
-2698.310142660097
 42
-0.005669861006001
 10
1821.7927209902743
 20
-2699.0766997977848
 10
1821.7879101236304
 20
-2699.1050180362345
 42
-0.0052721077271153
 10
1821.6396457220349
 20
-2699.9252727155704
 10
1821.6341194243475
 20
-2699.9541059863623
 42
-0.0049289272177728
 10
1821.4575311881483
 20
-2700.828723008603
 10
1821.4513061987823
 20
-2700.8580607142385
 42
-0.0047415956711864
 10
1821.2448302157177
 20
-2701.7876542290596
 10
1821.1752937949982
 20
-2702.0872684198262
 42
-0.0084404470905287
 10
1820.7952609078559
 20
-2703.6077164688832
 10
1820.7830075318832
 20
-2703.6534447171953
 42
-0.0039635940257029
 10
1820.3401001633154
 20
-2705.2554224456894
 10
1820.3133465729561
 20
-2705.3492856788735
 42
-0.0072475040837385
 10
1819.7784527972369
 20
-2707.1277251116321
 10
1819.6380281435829
 20
-2707.5712058115746
 42
-0.0051345458829194
 10
1819.0645093994574
 20
-2709.3198561872205
 10
1819.021456865913
 20
-2709.4467087215085
 42
-0.0019150016601091
 10
1818.510390052189
 20
-2710.9338069619325
 10
1818.4974548434034
 20
-2710.9709818917549
 42
-0.0021524362752816
 10
1818.000498741269
 20
-2712.3796335351917
 10
1817.9820778998567
 20
-2712.4311406918491
 42
-0.0024331286818218
 10
1817.5095673818041
 20
-2713.7323393080305
 10
1817.4914714766999
 20
-2713.781425920748
 42
-0.0027449721789461
 10
1817.0422423350321
 20
-2714.9796856785883
 10
1817.0244623202659
 20
-2715.0263308582453
 42
-0.0031083229770231
 10
1816.5973773470278
 20
-2716.1261789334521
 10
1816.5799050836729
 20
-2716.170358365177
 42
-0.0035311343283131
 10
1816.1738227124929
 20
-2717.1763246166279
 10
1816.1566520341983
 20
-2717.2180100636469
 42
-0.0040245640948877
 10
1815.7704284266088
 20
-2718.1346287088336
 10
1815.7535561993959
 20
-2718.1737874449932
 42
-0.0046015135849637
 10
1815.3860436130751
 20
-2719.0055975042619
 10
1815.3694712574254
 20
-2719.0421917831513
 42
-0.0052768638267054
 10
1815.0195162195073
 20
-2719.7937375517067
 10
1815.0032517982597
 20
-2719.82772422878
 42
-0.0060672675646069
 10
1814.6696925727215
 20
-2720.5035554750216
 10
1814.6537536117639
 20
-2720.534885993005
 42
-0.0069904648875863
 10
1814.3354168237556
 20
-2721.1395576063433
 10
1814.3198340245253
 20
-2721.1681787048137
 42
-0.0080637022764263
 10
1814.0155303038423
 20
-2721.7062493111043
 10
1814.0003522385803
 20
-2721.7321050423052
 42
-0.0093006455662364
 10
1813.7088708855167
 20
-2722.2081338393118
 10
1813.6941695520331
 20
-2722.2311697776522
 42
-0.0107060778059551
 10
1813.4142724651524
 20
-2722.6497104124164
 10
1813.4001489285945
 20
-2722.6698814975466
 42
-0.012272311141508
 10
1813.1305614921971
 20
-2723.0354681565259
 10
1813.1299090450752
 20
-2723.0363089321627
 42
-0.0141836319627482
 10
1812.8427458391407
 20
-2723.3854484478043
 10
1812.8288503278359
 20
-2723.4013984483349
 42
-0.0175957477207174
 10
1812.5490379917674
 20
-2723.7006402251436
 42
-0.0080466359680596
 10
1812.2541104617117
 20
-2723.9852852814415
 10
1812.1620413726721
 20
-2724.0713261576284
 42
-0.0269600260395902
 10
1811.655480880707
 20
-2724.4959726746461
 10
1811.522346608105
 20
-2724.5958755039001
 42
-0.0178362839751624
 10
1811.0424576288005
 20
-2724.9299113563993
 10
1811.0279676868022
 20
-2724.9392483808074
 42
-0.0174650732652146
 10
1810.555295291917
 20
-2725.2209703107274
 42
-0.0169240130163348
 10
1810.0643628001981
 20
-2725.4695548302839
 10
1809.9723904890861
 20
-2725.5122787414166
 42
-0.03188830368418
 10
1809.2716887778504
 20
-2725.7849553604356
 10
1809.1349577075157
 20
-2725.8283566013879
 42
-0.0284435909903825
 10
1808.3828574549345
 20
-2726.0207914723369
 10
1808.3125411339333
 20
-2726.0345786639946
 42
-0.0243909341014052
 10
1807.6856542120995
 20
-2726.1260207260543
 10
1807.5850927585661
 20
-2726.1357118198571
 42
-0.0196639292931304
 10
1807.1539016035026
 20
-2726.1602083908847
 10
1807.0502534611765
 20
-2726.1620149123582
 42
-0.0100501510681121
 10
1806.8254068978472
 20
-2726.161414115652
 10
1806.7620871750923
 20
-2726.1599719718797
 42
-0.0019752031102469
 10
1806.6639025017964
 20
-2726.1573476514623
 10
1806.65838189536
 20
-2726.1571782678097
 42
0.0065378751992157
 10
1806.5712287458427
 20
-2726.1556444853795
 42
-0.0167974694687329
 10
1806.484167099987
 20
-2726.1523246883276
 10
1806.4760084214549
 20
-2726.1517386665373
 42
-0.0081283276280967
 10
1806.3728888259748
 20
-2726.1426446792616
 10
1806.3494096782206
 20
-2726.1401888441051
 42
-0.0126703440183889
 10
1806.1999730866348
 20
-2726.1207192619622
 10
1806.1543973512803
 20
-2726.1136027501316
 42
-0.0117852088426585
 10
1805.9153193796053
 20
-2726.0704767598154
 10
1805.8045584760894
 20
-2726.0477896793482
 42
-0.025177459229294
 10
1805.350870398076
 20
-2725.9307936604832
 10
1805.2614320183673
 20
-2725.9028600218103
 42
-0.014652519988295
 10
1804.8886460432946
 20
-2725.7743269674156
 42
-0.0166929435854634
 10
1804.524690731042
 20
-2725.6227127013067
 10
1804.515377468495
 20
-2725.6184629000782
 42
-0.0191684358438663
 10
1804.1450102059985
 20
-2725.4319907324993
 10
1804.1383450344824
 20
-2725.4283082373913
 42
-0.0221181781813434
 10
1803.7717244266769
 20
-2725.2040412406491
 10
1803.7670248186612
 20
-2725.2008726446679
 42
-0.0254984685387022
 10
1803.4144445178904
 20
-2724.9360503447283
 10
1803.3694802224868
 20
-2724.8985457268564
 42
-0.0292492648806343
 10
1803.1199423448006
 20
-2724.66436012757
 42
-0.0159048957495093
 10
1802.8922623499013
 20
-2724.4083201443732
 10
1802.8896247687417
 20
-2724.4051569183321
 42
-0.0343813379558462
 10
1802.6843502454892
 20
-2724.1214142667927
 10
1802.6213671827659
 20
-2724.0204074826024
 42
-0.0369117275698362
 10
1802.4495821789731
 20
-2723.6934530007079
 42
-0.0191751379920098
 10
1802.3151954078594
 20
-2723.3486437886963
 10
1802.3116687603401
 20
-2723.3384570993462
 42
-0.0378178042228349
 10
1802.2120793227714
 20
-2722.9605755471825
 10
1802.2000887313118
 20
-2722.8954543107943
 42
-0.0184846046476622
 10
1802.1586543327221
 20
-2722.6119486696998
 42
-0.0179866351323981
 10
1802.1379883225748
 20
-2722.3261670435336
 10
1802.1378754376833
 20
-2722.3230516703125
 42
-0.0085497186109164
 10
1802.1350108754757
 20
-2722.1733053402927
 42
-0.0085497186109164
  0
ENDBLK
  5
66
100
AcDbEntity
  8
template
390
0
100
AcDbBlockEnd
  0
BLOCK
  5
67
100
AcDbEntity
  8
template
390
0
100
AcDbBlockBegin
  2
グループ-1
 70
               0
 10
0.0
 20
0.0
 30
0.0
  3
グループ-1
  1

  0
INSERT
  5
68
100
AcDbEntity
  8
0
390
0
 62
               7
100
AcDbBlockReference
  2
グループ
 10
0.0
 20
0.0
 30
0.0
  0
ENDBLK
  5
69
100
AcDbEntity
  8
template
390
0
100
AcDbBlockEnd
  0
BLOCK
  5
6A
100
AcDbEntity
  8
notes
390
0
100
AcDbBlockBegin
  2
*D4
 70
               1
 10
0.0
 20
0.0
 30
0.0
  3
*D4
  1

  0
LINE
  5
6B
100
AcDbEntity
  8
0
370
              -2
390
0
  6
Continuous
 62
               0
100
AcDbLine
 10
-1065.1353361451697
 20
-1456.4601441055095
 30
0.0
 11
-1065.1353361451697
 21
-1606.4601441055095
 31
0.0
  0
LINE
  5
6C
100
AcDbEntity
  8
0
370
              -2
390
0
  6
Continuous
 62
               0
100
AcDbLine
 10
-605.13533614516973
 20
-1456.4601441055095
 30
0.0
 11
-605.13533614516973
 21
-1606.4601441055095
 31
0.0
  0
LINE
  5
6D
100
AcDbEntity
  8
0
370
              -2
390
0
  6
Continuous
 62
               0
100
AcDbLine
 10
-1065.1353361451697
 20
-1606.4601441055095
 30
0.0
 11
-605.13533614516973
 21
-1606.4601441055095
 31
0.0
  0
CIRCLE
  5
6E
102
{ACAD_REACTORS
330
6F
102
}
100
AcDbEntity
  8
0
370
              -2
390
0
  6
Continuous
 62
               0
100
AcDbCircle
 10
-1065.1353361451697
 20
-1606.4601441055095
 30
0.0
 40
3.999755859375
  0
HATCH
  5
6F
100
AcDbEntity
  8
0
370
              -2
390
0
  6
Continuous
 62
               0
100
AcDbHatch
 10
0.0
 20
0.0
 30
0.0
210
0.0
220
0.0
230
1.0
  2
SOLID
 70
               1
 71
               1
 91
        1
 92
        1
 93
        1
 72
               2
 10
-1065.1353361451697
 20
-1606.4601441055095
 40
3.999755859375
 50
0.0
 51
360.0
 73
               0
 97
        1
330
6E
 75
               0
 76
               1
 98
        1
 10
0.0
 20
0.0
  0
CIRCLE
  5
70
102
{ACAD_REACTORS
330
71
102
}
100
AcDbEntity
  8
0
370
              -2
390
0
  6
Continuous
 62
               0
100
AcDbCircle
 10
-605.13533614516973
 20
-1606.4601441055095
 30
0.0
 40
3.999755859375
  0
HATCH
  5
71
100
AcDbEntity
  8
0
370
              -2
390
0
  6
Continuous
 62
               0
100
AcDbHatch
 10
0.0
 20
0.0
 30
0.0
210
0.0
220
0.0
230
1.0
  2
SOLID
 70
               1
 71
               1
 91
        1
 92
        1
 93
        1
 72
               2
 10
-605.13533614516973
 20
-1606.4601441055095
 40
3.999755859375
 50
0.0
 51
360.0
 73
               0
 97
        1
330
70
 75
               0
 76
               1
 98
        1
 10
0.0
 20
0.0
  0
MTEXT
  5
72
100
AcDbEntity
  8
0
390
0
 62
               0
100
AcDbMText
 10
-882.7603395095208
 20
-1538.7049097305094
 30
0.0
 40
48.865234375000007
 41
0.0
 71
               1
 72
               1
  1
460
  7
ＭＳ ゴシック
 73
               1
 44
0.7828267384257843
  0
POINT
  5
73
100
AcDbEntity
  8
Defpoints
370
               0
390
0
 62
               0
100
AcDbPoint
 10
-605.13533614516973
 20
-1406.4601441055095
 30
0.0
  0
POINT
  5
74
100
AcDbEntity
  8
Defpoints
370
               0
390
0
 62
               0
100
AcDbPoint
 10
-1065.1353361451697
 20
-1406.4601441055095
 30
0.0
  0
POINT
  5
75
100
AcDbEntity
  8
Defpoints
370
               0
390
0
 62
               0
100
AcDbPoint
 10
-1065.1353361451697
 20
-1606.4601441055095
 30
0.0
  0
ENDBLK
  5
76
100
AcDbEntity
  8
notes
390
0
100
AcDbBlockEnd
  0
BLOCK
  5
77
100
AcDbEntity
  8
notes
390
0
100
AcDbBlockBegin
  2
*D5
 70
               1
 10
0.0
 20
0.0
 30
0.0
  3
*D5
  1

  0
LINE
  5
78
100
AcDbEntity
  8
0
370
              -2
390
0
  6
Continuous
 62
               0
100
AcDbLine
 10
-1065.1353361451697
 20
-656.46014410550947
 30
0.0
 11
-1065.1353361451697
 21
-806.46014410550947
 31
0.0
  0
LINE
  5
79
100
AcDbEntity
  8
0
370
              -2
390
0
  6
Continuous
 62
               0
100
AcDbLine
 10
-605.13533614516973
 20
-656.46014410550947
 30
0.0
 11
-605.13533614516973
 21
-806.46014410550947
 31
0.0
  0
LINE
  5
7A
100
AcDbEntity
  8
0
370
              -2
390
0
  6
Continuous
 62
               0
100
AcDbLine
 10
-1065.1353361451697
 20
-806.46014410550947
 30
0.0
 11
-605.13533614516973
 21
-806.46014410550947
 31
0.0
  0
CIRCLE
  5
7B
102
{ACAD_REACTORS
330
7C
102
}
100
AcDbEntity
  8
0
370
              -2
390
0
  6
Continuous
 62
               0
100
AcDbCircle
 10
-1065.1353361451697
 20
-806.46014410550947
 30
0.0
 40
3.999755859375
  0
HATCH
  5
7C
100
AcDbEntity
  8
0
370
              -2
390
0
  6
Continuous
 62
               0
100
AcDbHatch
 10
0.0
 20
0.0
 30
0.0
210
0.0
220
0.0
230
1.0
  2
SOLID
 70
               1
 71
               1
 91
        1
 92
        1
 93
        1
 72
               2
 10
-1065.1353361451697
 20
-806.46014410550947
 40
3.999755859375
 50
0.0
 51
360.0
 73
               0
 97
        1
330
7B
 75
               0
 76
               1
 98
        1
 10
0.0
 20
0.0
  0
CIRCLE
  5
7D
102
{ACAD_REACTORS
330
7E
102
}
100
AcDbEntity
  8
0
370
              -2
390
0
  6
Continuous
 62
               0
100
AcDbCircle
 10
-605.13533614516973
 20
-806.46014410550947
 30
0.0
 40
3.999755859375
  0
HATCH
  5
7E
100
AcDbEntity
  8
0
370
              -2
390
0
  6
Continuous
 62
               0
100
AcDbHatch
 10
0.0
 20
0.0
 30
0.0
210
0.0
220
0.0
230
1.0
  2
SOLID
 70
               1
 71
               1
 91
        1
 92
        1
 93
        1
 72
               2
 10
-605.13533614516973
 20
-806.46014410550947
 40
3.999755859375
 50
0.0
 51
360.0
 73
               0
 97
        1
330
7D
 75
               0
 76
               1
 98
        1
 10
0.0
 20
0.0
  0
MTEXT
  5
7F
100
AcDbEntity
  8
0
390
0
 62
               0
100
AcDbMText
 10
-882.76033950952069
 20
-738.70490973050948
 30
0.0
 40
48.865234375000007
 41
0.0
 71
               1
 72
               1
  1
460
  7
ＭＳ ゴシック
 73
               1
 44
0.7828267384257843
  0
POINT
  5
80
100
AcDbEntity
  8
Defpoints
370
               0
390
0
 62
               0
100
AcDbPoint
 10
-605.13533614516973
 20
-606.46014410550947
 30
0.0
  0
POINT
  5
81
100
AcDbEntity
  8
Defpoints
370
               0
390
0
 62
               0
100
AcDbPoint
 10
-1065.1353361451697
 20
-606.46014410550947
 30
0.0
  0
POINT
  5
82
100
AcDbEntity
  8
Defpoints
370
               0
390
0
 62
               0
100
AcDbPoint
 10
-1065.1353361451697
 20
-806.46014410550947
 30
0.0
  0
ENDBLK
  5
83
100
AcDbEntity
  8
notes
390
0
100
AcDbBlockEnd
  0
BLOCK
  5
84
100
AcDbEntity
  8
notes
390
0
100
AcDbBlockBegin
  2
*D6
 70
               1
 10
0.0
 20
0.0
 30
0.0
  3
*D6
  1

  0
LINE
  5
85
100
AcDbEntity
  8
0
370
              -2
390
0
  6
Continuous
 62
               0
100
AcDbLine
 10
-555.13533614516973
 20
-1406.4601441055095
 30
0.0
 11
-155.13533614516973
 21
-1406.4601441055095
 31
0.0
  0
LINE
  5
86
100
AcDbEntity
  8
0
370
              -2
390
0
  6
Continuous
 62
               0
100
AcDbLine
 10
-703.19760397016853
 20
-1731.4542015138425
 30
0.0
 11
-155.13533614516973
 21
-1731.4542015138425
 31
0.0
  0
LINE
  5
87
100
AcDbEntity
  8
0
370
              -2
390
0
  6
Continuous
 62
               0
100
AcDbLine
 10
-155.13533614516973
 20
-1406.4601441055095
 30
0.0
 11
-155.13533614516973
 21
-1731.4542015138425
 31
0.0
  0
CIRCLE
  5
88
102
{ACAD_REACTORS
330
89
102
}
100
AcDbEntity
  8
0
370
              -2
390
0
  6
Continuous
 62
               0
100
AcDbCircle
 10
-155.13533614516973
 20
-1406.4601441055095
 30
0.0
 40
3.999755859375
  0
HATCH
  5
89
100
AcDbEntity
  8
0
370
              -2
390
0
  6
Continuous
 62
               0
100
AcDbHatch
 10
0.0
 20
0.0
 30
0.0
210
0.0
220
0.0
230
1.0
  2
SOLID
 70
               1
 71
               1
 91
        1
 92
        1
 93
        1
 72
               2
 10
-155.13533614516973
 20
-1406.4601441055095
 40
3.999755859375
 50
0.0
 51
360.0
 73
               0
 97
        1
330
88
 75
               0
 76
               1
 98
        1
 10
0.0
 20
0.0
  0
CIRCLE
  5
8A
102
{ACAD_REACTORS
330
8B
102
}
100
AcDbEntity
  8
0
370
              -2
390
0
  6
Continuous
 62
               0
100
AcDbCircle
 10
-155.13533614516973
 20
-1731.4542015138425
 30
0.0
 40
3.999755859375
  0
HATCH
  5
8B
100
AcDbEntity
  8
0
370
              -2
390
0
  6
Continuous
 62
               0
100
AcDbHatch
 10
0.0
 20
0.0
 30
0.0
210
0.0
220
0.0
230
1.0
  2
SOLID
 70
               1
 71
               1
 91
        1
 92
        1
 93
        1
 72
               2
 10
-155.13533614516973
 20
-1731.4542015138425
 40
3.999755859375
 50
0.0
 51
360.0
 73
               0
 97
        1
330
8A
 75
               0
 76
               1
 98
        1
 10
0.0
 20
0.0
  0
MTEXT
  5
8C
100
AcDbEntity
  8
0
390
0
 62
               0
100
AcDbMText
 10
-222.89057052016975
 20
-1616.5821761740269
 30
0.0
 40
48.865234375000007
 41
0.0
 71
               1
 72
               1
  1
325
  7
ＭＳ ゴシック
 11
0.0
 21
1.0
 31
0.0
 73
               1
 44
0.7828267384257843
  0
POINT
  5
8D
100
AcDbEntity
  8
Defpoints
370
               0
390
0
 62
               0
100
AcDbPoint
 10
-753.19760397016853
 20
-1731.4542015138425
 30
0.0
  0
POINT
  5
8E
100
AcDbEntity
  8
Defpoints
370
               0
390
0
 62
               0
100
AcDbPoint
 10
-605.13533614516973
 20
-1406.4601441055095
 30
0.0
  0
POINT
  5
8F
100
AcDbEntity
  8
Defpoints
370
               0
390
0
 62
               0
100
AcDbPoint
 10
-155.13533614516973
 20
-1406.4601441055095
 30
0.0
  0
ENDBLK
  5
90
100
AcDbEntity
  8
notes
390
0
100
AcDbBlockEnd
  0
BLOCK
  5
91
100
AcDbEntity
  8
notes
390
0
100
AcDbBlockBegin
  2
*D7
 70
               1
 10
0.0
 20
0.0
 30
0.0
  3
*D7
  1

  0
LINE
  5
92
100
AcDbEntity
  8
0
370
              -2
390
0
  6
Continuous
 62
               0
100
AcDbLine
 10
-1335.1353361451697
 20
-981.4601441055097
 30
0.0
 11
-1335.1353361451697
 21
-31.454201513842463
 31
0.0
  0
LINE
  5
93
100
AcDbEntity
  8
0
370
              -2
390
0
  6
Continuous
 62
               0
100
AcDbLine
 10
-335.13533614516928
 20
-981.46014410550947
 30
0.0
 11
-335.13533614516928
 21
-31.454201513842463
 31
0.0
  0
LINE
  5
94
100
AcDbEntity
  8
0
370
              -2
390
0
  6
Continuous
 62
               0
100
AcDbLine
 10
-1335.1353361451697
 20
-31.454201513842463
 30
0.0
 11
-335.13533614516928
 21
-31.454201513842463
 31
0.0
  0
CIRCLE
  5
95
102
{ACAD_REACTORS
330
96
102
}
100
AcDbEntity
  8
0
370
              -2
390
0
  6
Continuous
 62
               0
100
AcDbCircle
 10
-1335.1353361451697
 20
-31.454201513842463
 30
0.0
 40
3.999755859375
  0
HATCH
  5
96
100
AcDbEntity
  8
0
370
              -2
390
0
  6
Continuous
 62
               0
100
AcDbHatch
 10
0.0
 20
0.0
 30
0.0
210
0.0
220
0.0
230
1.0
  2
SOLID
 70
               1
 71
               1
 91
        1
 92
        1
 93
        1
 72
               2
 10
-1335.1353361451697
 20
-31.454201513842463
 40
3.999755859375
 50
0.0
 51
360.0
 73
               0
 97
        1
330
95
 75
               0
 76
               1
 98
        1
 10
0.0
 20
0.0
  0
CIRCLE
  5
97
102
{ACAD_REACTORS
330
98
102
}
100
AcDbEntity
  8
0
370
              -2
390
0
  6
Continuous
 62
               0
100
AcDbCircle
 10
-335.13533614516928
 20
-31.454201513842463
 30
0.0
 40
3.999755859375
  0
HATCH
  5
98
100
AcDbEntity
  8
0
370
              -2
390
0
  6
Continuous
 62
               0
100
AcDbHatch
 10
0.0
 20
0.0
 30
0.0
210
0.0
220
0.0
230
1.0
  2
SOLID
 70
               1
 71
               1
 91
        1
 92
        1
 93
        1
 72
               2
 10
-335.13533614516928
 20
-31.454201513842463
 40
3.999755859375
 50
0.0
 51
360.0
 73
               0
 97
        1
330
97
 75
               0
 76
               1
 98
        1
 10
0.0
 20
0.0
  0
MTEXT
  5
99
100
AcDbEntity
  8
0
390
0
 62
               0
100
AcDbMText
 10
-898.6353361451695
 20
31.092048486157545
 30
0.0
 40
43.65625
 41
0.0
 71
               1
 72
               1
  1
1000
  7
MS UI Gothic
 73
               1
 44
0.8762322015334064
  0
POINT
  5
9A
100
AcDbEntity
  8
Defpoints
370
               0
390
0
 62
               0
100
AcDbPoint
 10
-335.13533614516928
 20
-1031.4601441055095
 30
0.0
  0
POINT
  5
9B
100
AcDbEntity
  8
Defpoints
370
               0
390
0
 62
               0
100
AcDbPoint
 10
-1335.1353361451697
 20
-1031.4601441055097
 30
0.0
  0
POINT
  5
9C
100
AcDbEntity
  8
Defpoints
370
               0
390
0
 62
               0
100
AcDbPoint
 10
-1335.1353361451697
 20
-31.454201513842463
 30
0.0
  0
ENDBLK
  5
9D
100
AcDbEntity
  8
notes
390
0
100
AcDbBlockEnd
  0
BLOCK
  5
9E
100
AcDbEntity
  8
notes
390
0
100
AcDbBlockBegin
  2
*D8
 70
               1
 10
0.0
 20
0.0
 30
0.0
  3
*D8
  1

  0
LINE
  5
9F
100
AcDbEntity
  8
0
370
              -2
390
0
  6
Continuous
 62
               0
100
AcDbLine
 10
-983.19760397016853
 20
-331.46014410550947
 30
0.0
 11
-1585.1976039701685
 21
-331.46014410550947
 31
0.0
  0
LINE
  5
A0
100
AcDbEntity
  8
0
370
              -2
390
0
  6
Continuous
 62
               0
100
AcDbLine
 10
-983.19760397016853
 20
-1731.4601441055095
 30
0.0
 11
-1585.1976039701685
 21
-1731.4601441055095
 31
0.0
  0
LINE
  5
A1
100
AcDbEntity
  8
0
370
              -2
390
0
  6
Continuous
 62
               0
100
AcDbLine
 10
-1585.1976039701685
 20
-331.46014410550947
 30
0.0
 11
-1585.1976039701685
 21
-1731.4601441055095
 31
0.0
  0
CIRCLE
  5
A2
102
{ACAD_REACTORS
330
A3
102
}
100
AcDbEntity
  8
0
370
              -2
390
0
  6
Continuous
 62
               0
100
AcDbCircle
 10
-1585.1976039701685
 20
-331.46014410550947
 30
0.0
 40
3.999755859375
  0
HATCH
  5
A3
100
AcDbEntity
  8
0
370
              -2
390
0
  6
Continuous
 62
               0
100
AcDbHatch
 10
0.0
 20
0.0
 30
0.0
210
0.0
220
0.0
230
1.0
  2
SOLID
 70
               1
 71
               1
 91
        1
 92
        1
 93
        1
 72
               2
 10
-1585.1976039701685
 20
-331.46014410550947
 40
3.999755859375
 50
0.0
 51
360.0
 73
               0
 97
        1
330
A2
 75
               0
 76
               1
 98
        1
 10
0.0
 20
0.0
  0
CIRCLE
  5
A4
102
{ACAD_REACTORS
330
A5
102
}
100
AcDbEntity
  8
0
370
              -2
390
0
  6
Continuous
 62
               0
100
AcDbCircle
 10
-1585.1976039701685
 20
-1731.4601441055095
 30
0.0
 40
3.999755859375
  0
HATCH
  5
A5
100
AcDbEntity
  8
0
370
              -2
390
0
  6
Continuous
 62
               0
100
AcDbHatch
 10
0.0
 20
0.0
 30
0.0
210
0.0
220
0.0
230
1.0
  2
SOLID
 70
               1
 71
               1
 91
        1
 92
        1
 93
        1
 72
               2
 10
-1585.1976039701685
 20
-1731.4601441055095
 40
3.999755859375
 50
0.0
 51
360.0
 73
               0
 97
        1
330
A4
 75
               0
 76
               1
 98
        1
 10
0.0
 20
0.0
  0
MTEXT
  5
A6
100
AcDbEntity
  8
0
390
0
 62
               0
100
AcDbMText
 10
-1647.7438539701686
 20
-1094.9601441055095
 30
0.0
 40
43.65625
 41
0.0
 71
               1
 72
               1
  1
1400
  7
MS UI Gothic
 11
0.0
 21
1.0
 31
0.0
 73
               1
 44
0.8762322015334064
  0
POINT
  5
A7
100
AcDbEntity
  8
Defpoints
370
               0
390
0
 62
               0
100
AcDbPoint
 10
-933.19760397016853
 20
-1731.4601441055095
 30
0.0
  0
POINT
  5
A8
100
AcDbEntity
  8
Defpoints
370
               0
390
0
 62
               0
100
AcDbPoint
 10
-933.19760397016853
 20
-331.46014410550947
 30
0.0
  0
POINT
  5
A9
100
AcDbEntity
  8
Defpoints
370
               0
390
0
 62
               0
100
AcDbPoint
 10
-1585.1976039701685
 20
-331.46014410550947
 30
0.0
  0
ENDBLK
  5
AA
100
AcDbEntity
  8
notes
390
0
100
AcDbBlockEnd
  0
BLOCK
  5
AB
100
AcDbEntity
  8
notes
390
0
100
AcDbBlockBegin
  2
*D9
 70
               1
 10
0.0
 20
0.0
 30
0.0
  3
*D9
  1

  0
LINE
  5
AC
100
AcDbEntity
  8
0
370
              -2
390
0
  6
Continuous
 62
               0
100
AcDbLine
 10
-809.13533814516904
 20
-646.46014410550958
 30
0.0
 11
-809.13533814516904
 21
-548.20420151384246
 31
0.0
  0
LINE
  5
AD
100
AcDbEntity
  8
0
370
              -2
390
0
  6
Continuous
 62
               0
100
AcDbLine
 10
-861.13533414516951
 20
-646.46014410550958
 30
0.0
 11
-861.13533414516951
 21
-548.20420151384246
 31
0.0
  0
LINE
  5
AE
100
AcDbEntity
  8
0
370
              -2
390
0
  6
Continuous
 62
               0
100
AcDbLine
 10
-809.13533814516904
 20
-548.20420151384246
 30
0.0
 11
-668.19760397016842
 21
-548.20420151384246
 31
0.0
  0
LINE
  5
AF
100
AcDbEntity
  8
0
370
              -2
390
0
  6
Continuous
 62
               0
100
AcDbLine
 10
-809.13533814516904
 20
-548.20420151384246
 30
0.0
 11
-861.13533414516951
 21
-548.20420151384246
 31
0.0
  0
CIRCLE
  5
B0
102
{ACAD_REACTORS
330
B1
102
}
100
AcDbEntity
  8
0
370
              -2
390
0
  6
Continuous
 62
               0
100
AcDbCircle
 10
-809.13533814516904
 20
-548.20420151384246
 30
0.0
 40
3.999755859375
  0
HATCH
  5
B1
100
AcDbEntity
  8
0
370
              -2
390
0
  6
Continuous
 62
               0
100
AcDbHatch
 10
0.0
 20
0.0
 30
0.0
210
0.0
220
0.0
230
1.0
  2
SOLID
 70
               1
 71
               1
 91
        1
 92
        1
 93
        1
 72
               2
 10
-809.13533814516904
 20
-548.20420151384246
 40
3.999755859375
 50
0.0
 51
360.0
 73
               0
 97
        1
330
B0
 75
               0
 76
               1
 98
        1
 10
0.0
 20
0.0
  0
CIRCLE
  5
B2
102
{ACAD_REACTORS
330
B3
102
}
100
AcDbEntity
  8
0
370
              -2
390
0
  6
Continuous
 62
               0
100
AcDbCircle
 10
-861.13533414516951
 20
-548.20420151384246
 30
0.0
 40
3.999755859375
  0
HATCH
  5
B3
100
AcDbEntity
  8
0
370
              -2
390
0
  6
Continuous
 62
               0
100
AcDbHatch
 10
0.0
 20
0.0
 30
0.0
210
0.0
220
0.0
230
1.0
  2
SOLID
 70
               1
 71
               1
 91
        1
 92
        1
 93
        1
 72
               2
 10
-861.13533414516951
 20
-548.20420151384246
 40
3.999755859375
 50
0.0
 51
360.0
 73
               0
 97
        1
330
B2
 75
               0
 76
               1
 98
        1
 10
0.0
 20
0.0
  0
MTEXT
  5
B4
100
AcDbEntity
  8
0
390
0
 62
               0
100
AcDbMText
 10
-795.19760397016842
 20
-485.65795151384248
 30
0.0
 40
43.65625
 41
0.0
 71
               1
 72
               1
  1
φ52
  7
MS UI Gothic
 73
               1
 44
0.8762322015334064
  0
POINT
  5
B5
100
AcDbEntity
  8
Defpoints
370
               0
390
0
 62
               0
100
AcDbPoint
 10
-861.13533414516951
 20
-696.46014410550958
 30
0.0
  0
POINT
  5
B6
100
AcDbEntity
  8
Defpoints
370
               0
390
0
 62
               0
100
AcDbPoint
 10
-809.13533814516904
 20
-696.46014410550958
 30
0.0
  0
POINT
  5
B7
100
AcDbEntity
  8
Defpoints
370
               0
390
0
 62
               0
100
AcDbPoint
 10
-809.13533814516904
 20
-548.20420151384246
 30
0.0
  0
ENDBLK
  5
B8
100
AcDbEntity
  8
notes
390
0
100
AcDbBlockEnd
  0
BLOCK
  5
B9
100
AcDbEntity
  8
notes
390
0
100
AcDbBlockBegin
  2
*D10
 70
               1
 10
0.0
 20
0.0
 30
0.0
  3
*D10
  1

  0
LINE
  5
BA
100
AcDbEntity
  8
0
370
              -2
390
0
  6
Continuous
 62
               0
100
AcDbLine
 10
382.46466385483109
 20
-406.44406660550931
 30
0.0
 11
204.80239602983158
 21
-406.44406660550931
 31
0.0
  0
LINE
  5
BB
100
AcDbEntity
  8
0
370
              -2
390
0
  6
Continuous
 62
               0
100
AcDbLine
 10
382.46466385483109
 20
-331.46014410550947
 30
0.0
 11
204.80239602983158
 21
-331.46014410550947
 31
0.0
  0
LINE
  5
BC
100
AcDbEntity
  8
0
370
              -2
390
0
  6
Continuous
 62
               0
100
AcDbLine
 10
204.80239602983158
 20
-406.44406660550931
 30
0.0
 11
204.80239602983158
 21
-331.46014410550947
 31
0.0
  0
CIRCLE
  5
BD
102
{ACAD_REACTORS
330
BE
102
}
100
AcDbEntity
  8
0
370
              -2
390
0
  6
Continuous
 62
               0
100
AcDbCircle
 10
204.80239602983158
 20
-406.44406660550931
 30
0.0
 40
3.999755859375
  0
HATCH
  5
BE
100
AcDbEntity
  8
0
370
              -2
390
0
  6
Continuous
 62
               0
100
AcDbHatch
 10
0.0
 20
0.0
 30
0.0
210
0.0
220
0.0
230
1.0
  2
SOLID
 70
               1
 71
               1
 91
        1
 92
        1
 93
        1
 72
               2
 10
204.80239602983158
 20
-406.44406660550931
 40
3.999755859375
 50
0.0
 51
360.0
 73
               0
 97
        1
330
BD
 75
               0
 76
               1
 98
        1
 10
0.0
 20
0.0
  0
CIRCLE
  5
BF
102
{ACAD_REACTORS
330
C0
102
}
100
AcDbEntity
  8
0
370
              -2
390
0
  6
Continuous
 62
               0
100
AcDbCircle
 10
204.80239602983158
 20
-331.46014410550947
 30
0.0
 40
3.999755859375
  0
HATCH
  5
C0
100
AcDbEntity
  8
0
370
              -2
390
0
  6
Continuous
 62
               0
100
AcDbHatch
 10
0.0
 20
0.0
 30
0.0
210
0.0
220
0.0
230
1.0
  2
SOLID
 70
               1
 71
               1
 91
        1
 92
        1
 93
        1
 72
               2
 10
204.80239602983158
 20
-331.46014410550947
 40
3.999755859375
 50
0.0
 51
360.0
 73
               0
 97
        1
330
BF
 75
               0
 76
               1
 98
        1
 10
0.0
 20
0.0
  0
MTEXT
  5
C1
100
AcDbEntity
  8
0
390
0
 62
               0
100
AcDbMText
 10
142.25614602983157
 20
-400.70210535550939
 30
0.0
 40
43.65625
 41
0.0
 71
               1
 72
               1
  1
75
  7
MS UI Gothic
 11
0.0
 21
1.0
 31
0.0
 73
               1
 44
0.8762322015334064
  0
POINT
  5
C2
100
AcDbEntity
  8
Defpoints
370
               0
390
0
 62
               0
100
AcDbPoint
 10
432.46466385483109
 20
-331.46014410550947
 30
0.0
  0
POINT
  5
C3
100
AcDbEntity
  8
Defpoints
370
               0
390
0
 62
               0
100
AcDbPoint
 10
432.46466385483109
 20
-406.44406660550931
 30
0.0
  0
POINT
  5
C4
100
AcDbEntity
  8
Defpoints
370
               0
390
0
 62
               0
100
AcDbPoint
 10
204.80239602983158
 20
-406.44406660550931
 30
0.0
  0
ENDBLK
  5
C5
100
AcDbEntity
  8
notes
390
0
100
AcDbBlockEnd
  0
BLOCK
  5
C6
100
AcDbEntity
  8
notes
390
0
100
AcDbBlockBegin
  2
*D11
 70
               1
 10
0.0
 20
0.0
 30
0.0
  3
*D11
  1

  0
LINE
  5
C7
100
AcDbEntity
  8
0
370
              -2
390
0
  6
Continuous
 62
               0
100
AcDbLine
 10
382.46466385483109
 20
-406.44406660550931
 30
0.0
 11
204.80239602983158
 21
-406.44406660550931
 31
0.0
  0
LINE
  5
C8
100
AcDbEntity
  8
0
370
              -2
390
0
  6
Continuous
 62
               0
100
AcDbLine
 10
382.46466385483109
 20
-1656.4440666055093
 30
0.0
 11
204.80239602983158
 21
-1656.4440666055093
 31
0.0
  0
LINE
  5
C9
100
AcDbEntity
  8
0
370
              -2
390
0
  6
Continuous
 62
               0
100
AcDbLine
 10
204.80239602983158
 20
-406.44406660550931
 30
0.0
 11
204.80239602983158
 21
-1656.4440666055093
 31
0.0
  0
CIRCLE
  5
CA
102
{ACAD_REACTORS
330
CB
102
}
100
AcDbEntity
  8
0
370
              -2
390
0
  6
Continuous
 62
               0
100
AcDbCircle
 10
204.80239602983158
 20
-406.44406660550931
 30
0.0
 40
3.999755859375
  0
HATCH
  5
CB
100
AcDbEntity
  8
0
370
              -2
390
0
  6
Continuous
 62
               0
100
AcDbHatch
 10
0.0
 20
0.0
 30
0.0
210
0.0
220
0.0
230
1.0
  2
SOLID
 70
               1
 71
               1
 91
        1
 92
        1
 93
        1
 72
               2
 10
204.80239602983158
 20
-406.44406660550931
 40
3.999755859375
 50
0.0
 51
360.0
 73
               0
 97
        1
330
CA
 75
               0
 76
               1
 98
        1
 10
0.0
 20
0.0
  0
CIRCLE
  5
CC
102
{ACAD_REACTORS
330
CD
102
}
100
AcDbEntity
  8
0
370
              -2
390
0
  6
Continuous
 62
               0
100
AcDbCircle
 10
204.80239602983158
 20
-1656.4440666055093
 30
0.0
 40
3.999755859375
  0
HATCH
  5
CD
100
AcDbEntity
  8
0
370
              -2
390
0
  6
Continuous
 62
               0
100
AcDbHatch
 10
0.0
 20
0.0
 30
0.0
210
0.0
220
0.0
230
1.0
  2
SOLID
 70
               1
 71
               1
 91
        1
 92
        1
 93
        1
 72
               2
 10
204.80239602983158
 20
-1656.4440666055093
 40
3.999755859375
 50
0.0
 51
360.0
 73
               0
 97
        1
330
CC
 75
               0
 76
               1
 98
        1
 10
0.0
 20
0.0
  0
MTEXT
  5
CE
100
AcDbEntity
  8
0
390
0
 62
               0
100
AcDbMText
 10
142.25614602983157
 20
-1069.9542015138422
 30
0.0
 40
43.65625
 41
0.0
 71
               1
 72
               1
  1
1250
  7
MS UI Gothic
 11
0.0
 21
1.0
 31
0.0
 73
               1
 44
0.8762322015334064
  0
POINT
  5
CF
100
AcDbEntity
  8
Defpoints
370
               0
390
0
 62
               0
100
AcDbPoint
 10
432.46466385483109
 20
-1656.4440666055093
 30
0.0
  0
POINT
  5
D0
100
AcDbEntity
  8
Defpoints
370
               0
390
0
 62
               0
100
AcDbPoint
 10
432.46466385483109
 20
-406.44406660550931
 30
0.0
  0
POINT
  5
D1
100
AcDbEntity
  8
Defpoints
370
               0
390
0
 62
               0
100
AcDbPoint
 10
204.80239602983158
 20
-406.44406660550931
 30
0.0
  0
ENDBLK
  5
D2
100
AcDbEntity
  8
notes
390
0
100
AcDbBlockEnd
  0
BLOCK
  5
D3
100
AcDbEntity
  8
notes
390
0
100
AcDbBlockBegin
  2
*D12
 70
               1
 10
0.0
 20
0.0
 30
0.0
  3
*D12
  1

  0
LINE
  5
D4
100
AcDbEntity
  8
0
370
              -2
390
0
  6
Continuous
 62
               0
100
AcDbLine
 10
1003.2599278548305
 20
-456.44406660550931
 30
0.0
 11
814.8023960298309
 21
-456.44406660550931
 31
0.0
  0
LINE
  5
D5
100
AcDbEntity
  8
0
370
              -2
390
0
  6
Continuous
 62
               0
100
AcDbLine
 10
1002.8599278548309
 20
-1081.4440666055093
 30
0.0
 11
814.8023960298309
 21
-1081.4440666055093
 31
0.0
  0
LINE
  5
D6
100
AcDbEntity
  8
0
370
              -2
390
0
  6
Continuous
 62
               0
100
AcDbLine
 10
814.8023960298309
 20
-456.44406660550931
 30
0.0
 11
814.8023960298309
 21
-1081.4440666055093
 31
0.0
  0
CIRCLE
  5
D7
102
{ACAD_REACTORS
330
D8
102
}
100
AcDbEntity
  8
0
370
              -2
390
0
  6
Continuous
 62
               0
100
AcDbCircle
 10
814.8023960298309
 20
-456.44406660550931
 30
0.0
 40
3.999755859375
  0
HATCH
  5
D8
100
AcDbEntity
  8
0
370
              -2
390
0
  6
Continuous
 62
               0
100
AcDbHatch
 10
0.0
 20
0.0
 30
0.0
210
0.0
220
0.0
230
1.0
  2
SOLID
 70
               1
 71
               1
 91
        1
 92
        1
 93
        1
 72
               2
 10
814.8023960298309
 20
-456.44406660550931
 40
3.999755859375
 50
0.0
 51
360.0
 73
               0
 97
        1
330
D7
 75
               0
 76
               1
 98
        1
 10
0.0
 20
0.0
  0
CIRCLE
  5
D9
102
{ACAD_REACTORS
330
DA
102
}
100
AcDbEntity
  8
0
370
              -2
390
0
  6
Continuous
 62
               0
100
AcDbCircle
 10
814.8023960298309
 20
-1081.4440666055093
 30
0.0
 40
3.999755859375
  0
HATCH
  5
DA
100
AcDbEntity
  8
0
370
              -2
390
0
  6
Continuous
 62
               0
100
AcDbHatch
 10
0.0
 20
0.0
 30
0.0
210
0.0
220
0.0
230
1.0
  2
SOLID
 70
               1
 71
               1
 91
        1
 92
        1
 93
        1
 72
               2
 10
814.8023960298309
 20
-1081.4440666055093
 40
3.999755859375
 50
0.0
 51
360.0
 73
               0
 97
        1
330
D9
 75
               0
 76
               1
 98
        1
 10
0.0
 20
0.0
  0
MTEXT
  5
DB
100
AcDbEntity
  8
0
390
0
 62
               0
100
AcDbMText
 10
752.25614602983092
 20
-816.56906996986038
 30
0.0
 40
43.65625
 41
0.0
 71
               1
 72
               1
  1
625
  7
MS UI Gothic
 11
0.0
 21
1.0
 31
0.0
 73
               1
 44
0.8762322015334064
  0
POINT
  5
DC
100
AcDbEntity
  8
Defpoints
370
               0
390
0
 62
               0
100
AcDbPoint
 10
1052.8599278548309
 20
-1081.4440666055093
 30
0.0
  0
POINT
  5
DD
100
AcDbEntity
  8
Defpoints
370
               0
390
0
 62
               0
100
AcDbPoint
 10
1053.2599278548305
 20
-456.44406660550931
 30
0.0
  0
POINT
  5
DE
100
AcDbEntity
  8
Defpoints
370
               0
390
0
 62
               0
100
AcDbPoint
 10
814.8023960298309
 20
-456.44406660550931
 30
0.0
  0
ENDBLK
  5
DF
100
AcDbEntity
  8
notes
390
0
100
AcDbBlockEnd
  0
BLOCK
  5
E0
100
AcDbEntity
  8
notes
390
0
100
AcDbBlockBegin
  2
*D13
 70
               1
 10
0.0
 20
0.0
 30
0.0
  3
*D13
  1

  0
LINE
  5
E1
100
AcDbEntity
  8
0
370
              -2
390
0
  6
Continuous
 62
               0
100
AcDbLine
 10
1003.2599278548305
 20
-456.44406660550931
 30
0.0
 11
714.8023960298309
 21
-456.44406660550931
 31
0.0
  0
LINE
  5
E2
100
AcDbEntity
  8
0
370
              -2
390
0
  6
Continuous
 62
               0
100
AcDbLine
 10
837.85992785483086
 20
-1606.4440666055091
 30
0.0
 11
714.8023960298309
 21
-1606.4440666055091
 31
0.0
  0
LINE
  5
E3
100
AcDbEntity
  8
0
370
              -2
390
0
  6
Continuous
 62
               0
100
AcDbLine
 10
714.8023960298309
 20
-456.44406660550931
 30
0.0
 11
714.8023960298309
 21
-1606.4440666055091
 31
0.0
  0
CIRCLE
  5
E4
102
{ACAD_REACTORS
330
E5
102
}
100
AcDbEntity
  8
0
370
              -2
390
0
  6
Continuous
 62
               0
100
AcDbCircle
 10
714.8023960298309
 20
-456.44406660550931
 30
0.0
 40
3.999755859375
  0
HATCH
  5
E5
100
AcDbEntity
  8
0
370
              -2
390
0
  6
Continuous
 62
               0
100
AcDbHatch
 10
0.0
 20
0.0
 30
0.0
210
0.0
220
0.0
230
1.0
  2
SOLID
 70
               1
 71
               1
 91
        1
 92
        1
 93
        1
 72
               2
 10
714.8023960298309
 20
-456.44406660550931
 40
3.999755859375
 50
0.0
 51
360.0
 73
               0
 97
        1
330
E4
 75
               0
 76
               1
 98
        1
 10
0.0
 20
0.0
  0
CIRCLE
  5
E6
102
{ACAD_REACTORS
330
E7
102
}
100
AcDbEntity
  8
0
370
              -2
390
0
  6
Continuous
 62
               0
100
AcDbCircle
 10
714.8023960298309
 20
-1606.4440666055091
 30
0.0
 40
3.999755859375
  0
HATCH
  5
E7
100
AcDbEntity
  8
0
370
              -2
390
0
  6
Continuous
 62
               0
100
AcDbHatch
 10
0.0
 20
0.0
 30
0.0
210
0.0
220
0.0
230
1.0
  2
SOLID
 70
               1
 71
               1
 91
        1
 92
        1
 93
        1
 72
               2
 10
714.8023960298309
 20
-1606.4440666055091
 40
3.999755859375
 50
0.0
 51
360.0
 73
               0
 97
        1
330
E6
 75
               0
 76
               1
 98
        1
 10
0.0
 20
0.0
  0
MTEXT
  5
E8
100
AcDbEntity
  8
0
390
0
 62
               0
100
AcDbMText
 10
652.25614602983092
 20
-1094.9440666055093
 30
0.0
 40
43.65625
 41
0.0
 71
               1
 72
               1
  1
1150
  7
MS UI Gothic
 11
0.0
 21
1.0
 31
0.0
 73
               1
 44
0.8762322015334064
  0
POINT
  5
E9
100
AcDbEntity
  8
Defpoints
370
               0
390
0
 62
               0
100
AcDbPoint
 10
887.85992785483086
 20
-1606.4440666055091
 30
0.0
  0
POINT
  5
EA
100
AcDbEntity
  8
Defpoints
370
               0
390
0
 62
               0
100
AcDbPoint
 10
1053.2599278548305
 20
-456.44406660550931
 30
0.0
  0
POINT
  5
EB
100
AcDbEntity
  8
Defpoints
370
               0
390
0
 62
               0
100
AcDbPoint
 10
714.8023960298309
 20
-456.44406660550931
 30
0.0
  0
ENDBLK
  5
EC
100
AcDbEntity
  8
notes
390
0
100
AcDbBlockEnd
  0
BLOCK
  5
ED
100
AcDbEntity
  8
notes
390
0
100
AcDbBlockBegin
  2
*D14
 70
               1
 10
0.0
 20
0.0
 30
0.0
  3
*D14
  1

  0
LINE
  5
EE
100
AcDbEntity
  8
0
370
              -2
390
0
  6
Continuous
 62
               0
100
AcDbLine
 10
1232.4646638548302
 20
-450.8440666055094
 30
0.0
 11
1232.4646638548302
 21
-131.45420151384241
 31
0.0
  0
LINE
  5
EF
100
AcDbEntity
  8
0
370
              -2
390
0
  6
Continuous
 62
               0
100
AcDbLine
 10
432.46466385483109
 20
-316.45420151384241
 30
0.0
 11
432.46466385483109
 21
-131.45420151384241
 31
0.0
  0
LINE
  5
F0
100
AcDbEntity
  8
0
370
              -2
390
0
  6
Continuous
 62
               0
100
AcDbLine
 10
1232.4646638548302
 20
-131.45420151384241
 30
0.0
 11
432.46466385483109
 21
-131.45420151384241
 31
0.0
  0
CIRCLE
  5
F1
102
{ACAD_REACTORS
330
F2
102
}
100
AcDbEntity
  8
0
370
              -2
390
0
  6
Continuous
 62
               0
100
AcDbCircle
 10
1232.4646638548302
 20
-131.45420151384241
 30
0.0
 40
3.999755859375
  0
HATCH
  5
F2
100
AcDbEntity
  8
0
370
              -2
390
0
  6
Continuous
 62
               0
100
AcDbHatch
 10
0.0
 20
0.0
 30
0.0
210
0.0
220
0.0
230
1.0
  2
SOLID
 70
               1
 71
               1
 91
        1
 92
        1
 93
        1
 72
               2
 10
1232.4646638548302
 20
-131.45420151384241
 40
3.999755859375
 50
0.0
 51
360.0
 73
               0
 97
        1
330
F1
 75
               0
 76
               1
 98
        1
 10
0.0
 20
0.0
  0
CIRCLE
  5
F3
102
{ACAD_REACTORS
330
F4
102
}
100
AcDbEntity
  8
0
370
              -2
390
0
  6
Continuous
 62
               0
100
AcDbCircle
 10
432.46466385483109
 20
-131.45420151384241
 30
0.0
 40
3.999755859375
  0
HATCH
  5
F4
100
AcDbEntity
  8
0
370
              -2
390
0
  6
Continuous
 62
               0
100
AcDbHatch
 10
0.0
 20
0.0
 30
0.0
210
0.0
220
0.0
230
1.0
  2
SOLID
 70
               1
 71
               1
 91
        1
 92
        1
 93
        1
 72
               2
 10
432.46466385483109
 20
-131.45420151384241
 40
3.999755859375
 50
0.0
 51
360.0
 73
               0
 97
        1
330
F3
 75
               0
 76
               1
 98
        1
 10
0.0
 20
0.0
  0
MTEXT
  5
F5
100
AcDbEntity
  8
0
390
0
 62
               0
100
AcDbMText
 10
784.83966049047956
 20
-68.907951513842391
 30
0.0
 40
43.65625
 41
0.0
 71
               1
 72
               1
  1
800
  7
MS UI Gothic
 73
               1
 44
0.8762322015334064
  0
POINT
  5
F6
100
AcDbEntity
  8
Defpoints
370
               0
390
0
 62
               0
100
AcDbPoint
 10
432.46466385483109
 20
-366.45420151384241
 30
0.0
  0
POINT
  5
F7
100
AcDbEntity
  8
Defpoints
370
               0
390
0
 62
               0
100
AcDbPoint
 10
1232.4646638548302
 20
-500.8440666055094
 30
0.0
  0
POINT
  5
F8
100
AcDbEntity
  8
Defpoints
370
               0
390
0
 62
               0
100
AcDbPoint
 10
1232.4646638548302
 20
-131.45420151384241
 30
0.0
  0
ENDBLK
  5
F9
100
AcDbEntity
  8
notes
390
0
100
AcDbBlockEnd
  0
BLOCK
  5
FA
100
AcDbEntity
  8
notes
390
0
100
AcDbBlockBegin
  2
*D15
 70
               1
 10
0.0
 20
0.0
 30
0.0
  3
*D15
  1

  0
LINE
  5
FB
100
AcDbEntity
  8
0
370
              -2
390
0
  6
Continuous
 62
               0
100
AcDbLine
 10
1414.8335138548309
 20
-261.45420151384241
 30
0.0
 11
1414.8335138548309
 21
-31.454201513842349
 31
0.0
  0
LINE
  5
FC
100
AcDbEntity
  8
0
370
              -2
390
0
  6
Continuous
 62
               0
100
AcDbLine
 10
432.46466385483109
 20
-336.45420151384241
 30
0.0
 11
432.46466385483109
 21
-31.454201513842349
 31
0.0
  0
LINE
  5
FD
100
AcDbEntity
  8
0
370
              -2
390
0
  6
Continuous
 62
               0
100
AcDbLine
 10
1414.8335138548309
 20
-31.454201513842349
 30
0.0
 11
432.46466385483109
 21
-31.454201513842349
 31
0.0
  0
CIRCLE
  5
FE
102
{ACAD_REACTORS
330
FF
102
}
100
AcDbEntity
  8
0
370
              -2
390
0
  6
Continuous
 62
               0
100
AcDbCircle
 10
1414.8335138548309
 20
-31.454201513842349
 30
0.0
 40
3.999755859375
  0
HATCH
  5
FF
100
AcDbEntity
  8
0
370
              -2
390
0
  6
Continuous
 62
               0
100
AcDbHatch
 10
0.0
 20
0.0
 30
0.0
210
0.0
220
0.0
230
1.0
  2
SOLID
 70
               1
 71
               1
 91
        1
 92
        1
 93
        1
 72
               2
 10
1414.8335138548309
 20
-31.454201513842349
 40
3.999755859375
 50
0.0
 51
360.0
 73
               0
 97
        1
330
FE
 75
               0
 76
               1
 98
        1
 10
0.0
 20
0.0
  0
CIRCLE
  5
100
102
{ACAD_REACTORS
330
101
102
}
100
AcDbEntity
  8
0
370
              -2
390
0
  6
Continuous
 62
               0
100
AcDbCircle
 10
432.46466385483109
 20
-31.454201513842349
 30
0.0
 40
3.999755859375
  0
HATCH
  5
101
100
AcDbEntity
  8
0
370
              -2
390
0
  6
Continuous
 62
               0
100
AcDbHatch
 10
0.0
 20
0.0
 30
0.0
210
0.0
220
0.0
230
1.0
  2
SOLID
 70
               1
 71
               1
 91
        1
 92
        1
 93
        1
 72
               2
 10
432.46466385483109
 20
-31.454201513842349
 40
3.999755859375
 50
0.0
 51
360.0
 73
               0
 97
        1
330
100
 75
               0
 76
               1
 98
        1
 10
0.0
 20
0.0
  0
MTEXT
  5
102
100
AcDbEntity
  8
0
390
0
 62
               0
100
AcDbMText
 10
796.64908885483101
 20
31.092048486157658
 30
0.0
 40
43.65625
 41
0.0
 71
               1
 72
               1
  1
980-1040
  7
MS UI Gothic
 73
               1
 44
0.8762322015334064
  0
POINT
  5
103
100
AcDbEntity
  8
Defpoints
370
               0
390
0
 62
               0
100
AcDbPoint
 10
432.46466385483109
 20
-386.45420151384241
 30
0.0
  0
POINT
  5
104
100
AcDbEntity
  8
Defpoints
370
               0
390
0
 62
               0
100
AcDbPoint
 10
1414.8335138548309
 20
-311.45420151384241
 30
0.0
  0
POINT
  5
105
100
AcDbEntity
  8
Defpoints
370
               0
390
0
 62
               0
100
AcDbPoint
 10
1414.8335138548309
 20
-31.454201513842349
 30
0.0
  0
ENDBLK
  5
106
100
AcDbEntity
  8
notes
390
0
100
AcDbBlockEnd
  0
BLOCK
  5
107
100
AcDbEntity
  8
notes
390
0
100
AcDbBlockBegin
  2
*D16
 70
               1
 10
0.0
 20
0.0
 30
0.0
  3
*D16
  1

  0
LINE
  5
108
100
AcDbEntity
  8
0
370
              -2
390
0
  6
Continuous
 62
               0
100
AcDbLine
 10
1151.0964534381646
 20
1854.9215999944915
 30
0.0
 11
713.17023179890225
 21
1854.9215999944915
 31
0.0
  0
LINE
  5
109
100
AcDbEntity
  8
0
370
              -2
390
0
  6
Continuous
 62
               0
100
AcDbLine
 10
1151.0964534381646
 20
1279.9215999944913
 30
0.0
 11
713.17023179890225
 21
1279.9215999944913
 31
0.0
  0
LINE
  5
10A
100
AcDbEntity
  8
0
370
              -2
390
0
  6
Continuous
 62
               0
100
AcDbLine
 10
713.17023179890225
 20
1854.9215999944915
 30
0.0
 11
713.17023179890225
 21
1279.9215999944913
 31
0.0
  0
CIRCLE
  5
10B
102
{ACAD_REACTORS
330
10C
102
}
100
AcDbEntity
  8
0
370
              -2
390
0
  6
Continuous
 62
               0
100
AcDbCircle
 10
713.17023179890225
 20
1854.9215999944915
 30
0.0
 40
3.999755859375
  0
HATCH
  5
10C
100
AcDbEntity
  8
0
370
              -2
390
0
  6
Continuous
 62
               0
100
AcDbHatch
 10
0.0
 20
0.0
 30
0.0
210
0.0
220
0.0
230
1.0
  2
SOLID
 70
               1
 71
               1
 91
        1
 92
        1
 93
        1
 72
               2
 10
713.17023179890225
 20
1854.9215999944915
 40
3.999755859375
 50
0.0
 51
360.0
 73
               0
 97
        1
330
10B
 75
               0
 76
               1
 98
        1
 10
0.0
 20
0.0
  0
CIRCLE
  5
10D
102
{ACAD_REACTORS
330
10E
102
}
100
AcDbEntity
  8
0
370
              -2
390
0
  6
Continuous
 62
               0
100
AcDbCircle
 10
713.17023179890225
 20
1279.9215999944913
 30
0.0
 40
3.999755859375
  0
HATCH
  5
10E
100
AcDbEntity
  8
0
370
              -2
390
0
  6
Continuous
 62
               0
100
AcDbHatch
 10
0.0
 20
0.0
 30
0.0
210
0.0
220
0.0
230
1.0
  2
SOLID
 70
               1
 71
               1
 91
        1
 92
        1
 93
        1
 72
               2
 10
713.17023179890225
 20
1279.9215999944913
 40
3.999755859375
 50
0.0
 51
360.0
 73
               0
 97
        1
330
10D
 75
               0
 76
               1
 98
        1
 10
0.0
 20
0.0
  0
MTEXT
  5
10F
100
AcDbEntity
  8
0
390
0
 62
               0
100
AcDbMText
 10
650.62398179890226
 20
1519.8187585301389
 30
0.0
 40
43.65625
 41
0.0
 71
               1
 72
               1
  1
575
  7
MS UI Gothic
 11
0.0
 21
1.0
 31
0.0
 73
               1
 44
0.8762322015334064
  0
POINT
  5
110
100
AcDbEntity
  8
Defpoints
370
               0
390
0
 62
               0
100
AcDbPoint
 10
1201.0964534381646
 20
1279.9215999944913
 30
0.0
  0
POINT
  5
111
100
AcDbEntity
  8
Defpoints
370
               0
390
0
 62
               0
100
AcDbPoint
 10
1201.0964534381646
 20
1854.9215999944915
 30
0.0
  0
POINT
  5
112
100
AcDbEntity
  8
Defpoints
370
               0
390
0
 62
               0
100
AcDbPoint
 10
713.17023179890225
 20
1854.9215999944915
 30
0.0
  0
ENDBLK
  5
113
100
AcDbEntity
  8
notes
390
0
100
AcDbBlockEnd
  0
BLOCK
  5
114
100
AcDbEntity
  8
notes
390
0
100
AcDbBlockBegin
  2
*D17
 70
               1
 10
0.0
 20
0.0
 30
0.0
  3
*D17
  1

  0
LINE
  5
115
100
AcDbEntity
  8
0
370
              -2
390
0
  6
Continuous
 62
               0
100
AcDbLine
 10
919.80239602983147
 20
1819.9437618944901
 30
0.0
 11
812.80239602983136
 21
1819.9437618944901
 31
0.0
  0
LINE
  5
116
100
AcDbEntity
  8
0
370
              -2
390
0
  6
Continuous
 62
               0
100
AcDbLine
 10
919.80239602983147
 20
1314.9437618944899
 30
0.0
 11
812.80239602983136
 21
1314.9437618944899
 31
0.0
  0
LINE
  5
117
100
AcDbEntity
  8
0
370
              -2
390
0
  6
Continuous
 62
               0
100
AcDbLine
 10
812.80239602983136
 20
1819.9437618944901
 30
0.0
 11
812.80239602983136
 21
1314.9437618944899
 31
0.0
  0
CIRCLE
  5
118
102
{ACAD_REACTORS
330
119
102
}
100
AcDbEntity
  8
0
370
              -2
390
0
  6
Continuous
 62
               0
100
AcDbCircle
 10
812.80239602983136
 20
1819.9437618944901
 30
0.0
 40
3.999755859375
  0
HATCH
  5
119
100
AcDbEntity
  8
0
370
              -2
390
0
  6
Continuous
 62
               0
100
AcDbHatch
 10
0.0
 20
0.0
 30
0.0
210
0.0
220
0.0
230
1.0
  2
SOLID
 70
               1
 71
               1
 91
        1
 92
        1
 93
        1
 72
               2
 10
812.80239602983136
 20
1819.9437618944901
 40
3.999755859375
 50
0.0
 51
360.0
 73
               0
 97
        1
330
118
 75
               0
 76
               1
 98
        1
 10
0.0
 20
0.0
  0
CIRCLE
  5
11A
102
{ACAD_REACTORS
330
11B
102
}
100
AcDbEntity
  8
0
370
              -2
390
0
  6
Continuous
 62
               0
100
AcDbCircle
 10
812.80239602983136
 20
1314.9437618944899
 30
0.0
 40
3.999755859375
  0
HATCH
  5
11B
100
AcDbEntity
  8
0
370
              -2
390
0
  6
Continuous
 62
               0
100
AcDbHatch
 10
0.0
 20
0.0
 30
0.0
210
0.0
220
0.0
230
1.0
  2
SOLID
 70
               1
 71
               1
 91
        1
 92
        1
 93
        1
 72
               2
 10
812.80239602983136
 20
1314.9437618944899
 40
3.999755859375
 50
0.0
 51
360.0
 73
               0
 97
        1
330
11A
 75
               0
 76
               1
 98
        1
 10
0.0
 20
0.0
  0
MTEXT
  5
11C
100
AcDbEntity
  8
0
390
0
 62
               0
100
AcDbMText
 10
750.25614602983137
 20
1519.8187585301389
 30
0.0
 40
43.65625
 41
0.0
 71
               1
 72
               1
  1
505
  7
MS UI Gothic
 11
0.0
 21
1.0
 31
0.0
 73
               1
 44
0.8762322015334064
  0
POINT
  5
11D
100
AcDbEntity
  8
Defpoints
370
               0
390
0
 62
               0
100
AcDbPoint
 10
969.80239602983147
 20
1314.9437618944899
 30
0.0
  0
POINT
  5
11E
100
AcDbEntity
  8
Defpoints
370
               0
390
0
 62
               0
100
AcDbPoint
 10
969.80239602983147
 20
1819.9437618944901
 30
0.0
  0
POINT
  5
11F
100
AcDbEntity
  8
Defpoints
370
               0
390
0
 62
               0
100
AcDbPoint
 10
812.80239602983136
 20
1819.9437618944901
 30
0.0
  0
ENDBLK
  5
120
100
AcDbEntity
  8
notes
390
0
100
AcDbBlockEnd
  0
BLOCK
  5
121
100
AcDbEntity
  8
notes
390
0
100
AcDbBlockBegin
  2
*D18
 70
               1
 10
0.0
 20
0.0
 30
0.0
  3
*D18
  1

  0
LINE
  5
122
100
AcDbEntity
  8
0
370
              -2
390
0
  6
Continuous
 62
               0
100
AcDbLine
 10
482.46466385483109
 20
2086.5457984861573
 30
0.0
 11
482.46466385483109
 21
2268.5457984861578
 31
0.0
  0
LINE
  5
123
100
AcDbEntity
  8
0
370
              -2
390
0
  6
Continuous
 62
               0
100
AcDbLine
 10
432.46466385483109
 20
2086.5457984861573
 30
0.0
 11
432.46466385483109
 21
2268.5457984861578
 31
0.0
  0
LINE
  5
124
100
AcDbEntity
  8
0
370
              -2
390
0
  6
Continuous
 62
               0
100
AcDbLine
 10
432.46466385483109
 20
2268.5457984861578
 30
0.0
 11
311.30239602983158
 21
2268.5457984861578
 31
0.0
  0
LINE
  5
125
100
AcDbEntity
  8
0
370
              -2
390
0
  6
Continuous
 62
               0
100
AcDbLine
 10
482.46466385483109
 20
2268.5457984861578
 30
0.0
 11
432.46466385483109
 21
2268.5457984861578
 31
0.0
  0
CIRCLE
  5
126
102
{ACAD_REACTORS
330
127
102
}
100
AcDbEntity
  8
0
370
              -2
390
0
  6
Continuous
 62
               0
100
AcDbCircle
 10
482.46466385483109
 20
2268.5457984861578
 30
0.0
 40
3.999755859375
  0
HATCH
  5
127
100
AcDbEntity
  8
0
370
              -2
390
0
  6
Continuous
 62
               0
100
AcDbHatch
 10
0.0
 20
0.0
 30
0.0
210
0.0
220
0.0
230
1.0
  2
SOLID
 70
               1
 71
               1
 91
        1
 92
        1
 93
        1
 72
               2
 10
482.46466385483109
 20
2268.5457984861578
 40
3.999755859375
 50
0.0
 51
360.0
 73
               0
 97
        1
330
126
 75
               0
 76
               1
 98
        1
 10
0.0
 20
0.0
  0
CIRCLE
  5
128
102
{ACAD_REACTORS
330
129
102
}
100
AcDbEntity
  8
0
370
              -2
390
0
  6
Continuous
 62
               0
100
AcDbCircle
 10
432.46466385483109
 20
2268.5457984861578
 30
0.0
 40
3.999755859375
  0
HATCH
  5
129
100
AcDbEntity
  8
0
370
              -2
390
0
  6
Continuous
 62
               0
100
AcDbHatch
 10
0.0
 20
0.0
 30
0.0
210
0.0
220
0.0
230
1.0
  2
SOLID
 70
               1
 71
               1
 91
        1
 92
        1
 93
        1
 72
               2
 10
432.46466385483109
 20
2268.5457984861578
 40
3.999755859375
 50
0.0
 51
360.0
 73
               0
 97
        1
330
128
 75
               0
 76
               1
 98
        1
 10
0.0
 20
0.0
  0
MTEXT
  5
12A
100
AcDbEntity
  8
0
390
0
 62
               0
100
AcDbMText
 10
311.30239602983158
 20
2331.0920484861576
 30
0.0
 40
43.65625
 41
0.0
 71
               1
 72
               1
  1
50
  7
MS UI Gothic
 73
               1
 44
0.8762322015334064
  0
POINT
  5
12B
100
AcDbEntity
  8
Defpoints
370
               0
390
0
 62
               0
100
AcDbPoint
 10
432.46466385483109
 20
2036.5457984861575
 30
0.0
  0
POINT
  5
12C
100
AcDbEntity
  8
Defpoints
370
               0
390
0
 62
               0
100
AcDbPoint
 10
482.46466385483109
 20
2036.5457984861575
 30
0.0
  0
POINT
  5
12D
100
AcDbEntity
  8
Defpoints
370
               0
390
0
 62
               0
100
AcDbPoint
 10
482.46466385483109
 20
2268.5457984861578
 30
0.0
  0
ENDBLK
  5
12E
100
AcDbEntity
  8
notes
390
0
100
AcDbBlockEnd
  0
BLOCK
  5
12F
100
AcDbEntity
  8
notes
390
0
100
AcDbBlockBegin
  2
*D19
 70
               1
 10
0.0
 20
0.0
 30
0.0
  3
*D19
  1

  0
LINE
  5
130
100
AcDbEntity
  8
0
370
              -2
390
0
  6
Continuous
 62
               0
100
AcDbLine
 10
525.46465985483155
 20
1487.2957984861578
 30
0.0
 11
525.46465985483155
 21
1427.2957984861578
 31
0.0
  0
LINE
  5
131
100
AcDbEntity
  8
0
370
              -2
390
0
  6
Continuous
 62
               0
100
AcDbLine
 10
432.46466385483109
 20
1487.2957984861578
 30
0.0
 11
432.46466385483109
 21
1427.2957984861578
 31
0.0
  0
LINE
  5
132
100
AcDbEntity
  8
0
370
              -2
390
0
  6
Continuous
 62
               0
100
AcDbLine
 10
432.46466385483109
 20
1427.2957984861578
 30
0.0
 11
209.95238526390818
 21
1427.2957984861578
 31
0.0
  0
LINE
  5
133
100
AcDbEntity
  8
0
370
              -2
390
0
  6
Continuous
 62
               0
100
AcDbLine
 10
525.46465985483155
 20
1427.2957984861578
 30
0.0
 11
432.46466385483109
 21
1427.2957984861578
 31
0.0
  0
CIRCLE
  5
134
102
{ACAD_REACTORS
330
135
102
}
100
AcDbEntity
  8
0
370
              -2
390
0
  6
Continuous
 62
               0
100
AcDbCircle
 10
525.46465985483155
 20
1427.2957984861578
 30
0.0
 40
3.999755859375
  0
HATCH
  5
135
100
AcDbEntity
  8
0
370
              -2
390
0
  6
Continuous
 62
               0
100
AcDbHatch
 10
0.0
 20
0.0
 30
0.0
210
0.0
220
0.0
230
1.0
  2
SOLID
 70
               1
 71
               1
 91
        1
 92
        1
 93
        1
 72
               2
 10
525.46465985483155
 20
1427.2957984861578
 40
3.999755859375
 50
0.0
 51
360.0
 73
               0
 97
        1
330
134
 75
               0
 76
               1
 98
        1
 10
0.0
 20
0.0
  0
CIRCLE
  5
136
102
{ACAD_REACTORS
330
137
102
}
100
AcDbEntity
  8
0
370
              -2
390
0
  6
Continuous
 62
               0
100
AcDbCircle
 10
432.46466385483109
 20
1427.2957984861578
 30
0.0
 40
3.999755859375
  0
HATCH
  5
137
100
AcDbEntity
  8
0
370
              -2
390
0
  6
Continuous
 62
               0
100
AcDbHatch
 10
0.0
 20
0.0
 30
0.0
210
0.0
220
0.0
230
1.0
  2
SOLID
 70
               1
 71
               1
 91
        1
 92
        1
 93
        1
 72
               2
 10
432.46466385483109
 20
1427.2957984861578
 40
3.999755859375
 50
0.0
 51
360.0
 73
               0
 97
        1
330
136
 75
               0
 76
               1
 98
        1
 10
0.0
 20
0.0
  0
MTEXT
  5
138
100
AcDbEntity
  8
0
390
0
 62
               0
100
AcDbMText
 10
209.95238526390821
 20
1489.8420484861579
 30
0.0
 40
43.65625
 41
0.0
 71
               1
 72
               1
  1
93(※1)
  7
MS UI Gothic
 73
               1
 44
0.8762322015334064
  0
POINT
  5
139
100
AcDbEntity
  8
Defpoints
370
               0
390
0
 62
               0
100
AcDbPoint
 10
432.46466385483109
 20
1517.0457984861575
 30
0.0
  0
POINT
  5
13A
100
AcDbEntity
  8
Defpoints
370
               0
390
0
 62
               0
100
AcDbPoint
 10
525.46465985483155
 20
1567.4437618944901
 30
0.0
  0
POINT
  5
13B
100
AcDbEntity
  8
Defpoints
370
               0
390
0
 62
               0
100
AcDbPoint
 10
525.46465985483155
 20
1427.2957984861578
 30
0.0
  0
ENDBLK
  5
13C
100
AcDbEntity
  8
notes
390
0
100
AcDbBlockEnd
  0
BLOCK
  5
13D
100
AcDbEntity
  8
notes
390
0
100
AcDbBlockBegin
  2
*D20
 70
               1
 10
0.0
 20
0.0
 30
0.0
  3
*D20
  1

  0
LINE
  5
13E
100
AcDbEntity
  8
0
370
              -2
390
0
  6
Continuous
 62
               0
100
AcDbLine
 10
382.46466385483109
 20
1992.4215999944915
 30
0.0
 11
114.80239602983158
 21
1992.4215999944915
 31
0.0
  0
LINE
  5
13F
100
AcDbEntity
  8
0
370
              -2
390
0
  6
Continuous
 62
               0
100
AcDbLine
 10
382.46466385483109
 20
1142.4215999944913
 30
0.0
 11
114.80239602983158
 21
1142.4215999944913
 31
0.0
  0
LINE
  5
140
100
AcDbEntity
  8
0
370
              -2
390
0
  6
Continuous
 62
               0
100
AcDbLine
 10
114.80239602983158
 20
1992.4215999944915
 30
0.0
 11
114.80239602983158
 21
1142.4215999944913
 31
0.0
  0
CIRCLE
  5
141
102
{ACAD_REACTORS
330
142
102
}
100
AcDbEntity
  8
0
370
              -2
390
0
  6
Continuous
 62
               0
100
AcDbCircle
 10
114.80239602983158
 20
1992.4215999944915
 30
0.0
 40
3.999755859375
  0
HATCH
  5
142
100
AcDbEntity
  8
0
370
              -2
390
0
  6
Continuous
 62
               0
100
AcDbHatch
 10
0.0
 20
0.0
 30
0.0
210
0.0
220
0.0
230
1.0
  2
SOLID
 70
               1
 71
               1
 91
        1
 92
        1
 93
        1
 72
               2
 10
114.80239602983158
 20
1992.4215999944915
 40
3.999755859375
 50
0.0
 51
360.0
 73
               0
 97
        1
330
141
 75
               0
 76
               1
 98
        1
 10
0.0
 20
0.0
  0
CIRCLE
  5
143
102
{ACAD_REACTORS
330
144
102
}
100
AcDbEntity
  8
0
370
              -2
390
0
  6
Continuous
 62
               0
100
AcDbCircle
 10
114.80239602983158
 20
1142.4215999944913
 30
0.0
 40
3.999755859375
  0
HATCH
  5
144
100
AcDbEntity
  8
0
370
              -2
390
0
  6
Continuous
 62
               0
100
AcDbHatch
 10
0.0
 20
0.0
 30
0.0
210
0.0
220
0.0
230
1.0
  2
SOLID
 70
               1
 71
               1
 91
        1
 92
        1
 93
        1
 72
               2
 10
114.80239602983158
 20
1142.4215999944913
 40
3.999755859375
 50
0.0
 51
360.0
 73
               0
 97
        1
330
143
 75
               0
 76
               1
 98
        1
 10
0.0
 20
0.0
  0
MTEXT
  5
145
100
AcDbEntity
  8
0
390
0
 62
               0
100
AcDbMText
 10
52.256146029831577
 20
1519.7965966301404
 30
0.0
 40
43.65625
 41
0.0
 71
               1
 72
               1
  1
850
  7
MS UI Gothic
 11
0.0
 21
1.0
 31
0.0
 73
               1
 44
0.8762322015334064
  0
POINT
  5
146
100
AcDbEntity
  8
Defpoints
370
               0
390
0
 62
               0
100
AcDbPoint
 10
432.46466385483109
 20
1142.4215999944913
 30
0.0
  0
POINT
  5
147
100
AcDbEntity
  8
Defpoints
370
               0
390
0
 62
               0
100
AcDbPoint
 10
432.46466385483109
 20
1992.4215999944915
 30
0.0
  0
POINT
  5
148
100
AcDbEntity
  8
Defpoints
370
               0
390
0
 62
               0
100
AcDbPoint
 10
114.80239602983158
 20
1992.4215999944915
 30
0.0
  0
ENDBLK
  5
149
100
AcDbEntity
  8
notes
390
0
100
AcDbBlockEnd
  0
BLOCK
  5
14A
100
AcDbEntity
  8
notes
390
0
100
AcDbBlockBegin
  2
*D21
 70
               1
 10
0.0
 20
0.0
 30
0.0
  3
*D21
  1

  0
LINE
  5
14B
100
AcDbEntity
  8
0
370
              -2
390
0
  6
Continuous
 62
               0
100
AcDbLine
 10
992.46466385483109
 20
-1706.4440666055093
 30
0.0
 11
992.46466385483109
 21
-1931.4542015138425
 31
0.0
  0
LINE
  5
14C
100
AcDbEntity
  8
0
370
              -2
390
0
  6
Continuous
 62
               0
100
AcDbLine
 10
432.46466385483109
 20
-1781.4542015138425
 30
0.0
 11
432.46466385483109
 21
-1931.4542015138425
 31
0.0
  0
LINE
  5
14D
100
AcDbEntity
  8
0
370
              -2
390
0
  6
Continuous
 62
               0
100
AcDbLine
 10
992.46466385483109
 20
-1931.4542015138425
 30
0.0
 11
432.46466385483109
 21
-1931.4542015138425
 31
0.0
  0
CIRCLE
  5
14E
102
{ACAD_REACTORS
330
14F
102
}
100
AcDbEntity
  8
0
370
              -2
390
0
  6
Continuous
 62
               0
100
AcDbCircle
 10
992.46466385483109
 20
-1931.4542015138425
 30
0.0
 40
3.999755859375
  0
HATCH
  5
14F
100
AcDbEntity
  8
0
370
              -2
390
0
  6
Continuous
 62
               0
100
AcDbHatch
 10
0.0
 20
0.0
 30
0.0
210
0.0
220
0.0
230
1.0
  2
SOLID
 70
               1
 71
               1
 91
        1
 92
        1
 93
        1
 72
               2
 10
992.46466385483109
 20
-1931.4542015138425
 40
3.999755859375
 50
0.0
 51
360.0
 73
               0
 97
        1
330
14E
 75
               0
 76
               1
 98
        1
 10
0.0
 20
0.0
  0
CIRCLE
  5
150
102
{ACAD_REACTORS
330
151
102
}
100
AcDbEntity
  8
0
370
              -2
390
0
  6
Continuous
 62
               0
100
AcDbCircle
 10
432.46466385483109
 20
-1931.4542015138425
 30
0.0
 40
3.999755859375
  0
HATCH
  5
151
100
AcDbEntity
  8
0
370
              -2
390
0
  6
Continuous
 62
               0
100
AcDbHatch
 10
0.0
 20
0.0
 30
0.0
210
0.0
220
0.0
230
1.0
  2
SOLID
 70
               1
 71
               1
 91
        1
 92
        1
 93
        1
 72
               2
 10
432.46466385483109
 20
-1931.4542015138425
 40
3.999755859375
 50
0.0
 51
360.0
 73
               0
 97
        1
330
150
 75
               0
 76
               1
 98
        1
 10
0.0
 20
0.0
  0
MTEXT
  5
152
100
AcDbEntity
  8
0
390
0
 62
               0
100
AcDbMText
 10
664.83966049048001
 20
-1868.9079515138424
 30
0.0
 40
43.65625
 41
0.0
 71
               1
 72
               1
  1
560
  7
MS UI Gothic
 73
               1
 44
0.8762322015334064
  0
POINT
  5
153
100
AcDbEntity
  8
Defpoints
370
               0
390
0
 62
               0
100
AcDbPoint
 10
432.46466385483109
 20
-1731.4542015138425
 30
0.0
  0
POINT
  5
154
100
AcDbEntity
  8
Defpoints
370
               0
390
0
 62
               0
100
AcDbPoint
 10
992.46466385483109
 20
-1656.4440666055093
 30
0.0
  0
POINT
  5
155
100
AcDbEntity
  8
Defpoints
370
               0
390
0
 62
               0
100
AcDbPoint
 10
992.46466385483109
 20
-1931.4542015138425
 30
0.0
  0
ENDBLK
  5
156
100
AcDbEntity
  8
notes
390
0
100
AcDbBlockEnd
  0
BLOCK
  5
157
100
AcDbEntity
  8
notes
390
0
100
AcDbBlockBegin
  2
*D22
 70
               1
 10
0.0
 20
0.0
 30
0.0
  3
*D22
  1

  0
LINE
  5
158
100
AcDbEntity
  8
0
370
              -2
390
0
  6
Continuous
 62
               0
100
AcDbLine
 10
-959.19760397016853
 20
-331.46014410550947
 30
0.0
 11
-1485.1976039701685
 21
-331.46014410550947
 31
0.0
  0
LINE
  5
159
100
AcDbEntity
  8
0
370
              -2
390
0
  6
Continuous
 62
               0
100
AcDbLine
 10
-911.13533414516951
 20
-691.46014410550958
 30
0.0
 11
-1485.1976039701685
 21
-691.46014410550958
 31
0.0
  0
LINE
  5
15A
100
AcDbEntity
  8
0
370
              -2
390
0
  6
Continuous
 62
               0
100
AcDbLine
 10
-1485.1976039701685
 20
-331.46014410550947
 30
0.0
 11
-1485.1976039701685
 21
-691.46014410550958
 31
0.0
  0
CIRCLE
  5
15B
102
{ACAD_REACTORS
330
15C
102
}
100
AcDbEntity
  8
0
370
              -2
390
0
  6
Continuous
 62
               0
100
AcDbCircle
 10
-1485.1976039701685
 20
-331.46014410550947
 30
0.0
 40
3.999755859375
  0
HATCH
  5
15C
100
AcDbEntity
  8
0
370
              -2
390
0
  6
Continuous
 62
               0
100
AcDbHatch
 10
0.0
 20
0.0
 30
0.0
210
0.0
220
0.0
230
1.0
  2
SOLID
 70
               1
 71
               1
 91
        1
 92
        1
 93
        1
 72
               2
 10
-1485.1976039701685
 20
-331.46014410550947
 40
3.999755859375
 50
0.0
 51
360.0
 73
               0
 97
        1
330
15B
 75
               0
 76
               1
 98
        1
 10
0.0
 20
0.0
  0
CIRCLE
  5
15D
102
{ACAD_REACTORS
330
15E
102
}
100
AcDbEntity
  8
0
370
              -2
390
0
  6
Continuous
 62
               0
100
AcDbCircle
 10
-1485.1976039701685
 20
-691.46014410550958
 30
0.0
 40
3.999755859375
  0
HATCH
  5
15E
100
AcDbEntity
  8
0
370
              -2
390
0
  6
Continuous
 62
               0
100
AcDbHatch
 10
0.0
 20
0.0
 30
0.0
210
0.0
220
0.0
230
1.0
  2
SOLID
 70
               1
 71
               1
 91
        1
 92
        1
 93
        1
 72
               2
 10
-1485.1976039701685
 20
-691.46014410550958
 40
3.999755859375
 50
0.0
 51
360.0
 73
               0
 97
        1
330
15D
 75
               0
 76
               1
 98
        1
 10
0.0
 20
0.0
  0
MTEXT
  5
15F
100
AcDbEntity
  8
0
390
0
 62
               0
100
AcDbMText
 10
-1547.7438539701686
 20
-559.08514746986054
 30
0.0
 40
43.65625
 41
0.0
 71
               1
 72
               1
  1
360
  7
MS UI Gothic
 11
0.0
 21
1.0
 31
0.0
 73
               1
 44
0.8762322015334064
  0
POINT
  5
160
100
AcDbEntity
  8
Defpoints
370
               0
390
0
 62
               0
100
AcDbPoint
 10
-861.13533414516951
 20
-691.46014410550958
 30
0.0
  0
POINT
  5
161
100
AcDbEntity
  8
Defpoints
370
               0
390
0
 62
               0
100
AcDbPoint
 10
-909.19760397016853
 20
-331.46014410550947
 30
0.0
  0
POINT
  5
162
100
AcDbEntity
  8
Defpoints
370
               0
390
0
 62
               0
100
AcDbPoint
 10
-1485.1976039701685
 20
-331.46014410550947
 30
0.0
  0
ENDBLK
  5
163
100
AcDbEntity
  8
notes
390
0
100
AcDbBlockEnd
  0
BLOCK
  5
164
100
AcDbEntity
  8
notes
390
0
100
AcDbBlockBegin
  2
*D23
 70
               1
 10
0.0
 20
0.0
 30
0.0
  3
*D23
  1

  0
LINE
  5
165
100
AcDbEntity
  8
0
370
              -2
390
0
  6
Continuous
 62
               0
100
AcDbLine
 10
452.46466385483109
 20
1593.4437578944905
 30
0.0
 11
359.30239602983158
 21
1593.4437578944905
 31
0.0
  0
LINE
  5
166
100
AcDbEntity
  8
0
370
              -2
390
0
  6
Continuous
 62
               0
100
AcDbLine
 10
452.46466385483109
 20
1541.4437658944896
 30
0.0
 11
359.30239602983158
 21
1541.4437658944896
 31
0.0
  0
LINE
  5
167
100
AcDbEntity
  8
0
370
              -2
390
0
  6
Continuous
 62
               0
100
AcDbLine
 10
359.30239602983158
 20
1593.4437578944905
 30
0.0
 11
359.30239602983158
 21
1771.5457984861578
 31
0.0
  0
LINE
  5
168
100
AcDbEntity
  8
0
370
              -2
390
0
  6
Continuous
 62
               0
100
AcDbLine
 10
359.30239602983158
 20
1593.4437578944905
 30
0.0
 11
359.30239602983158
 21
1541.4437658944896
 31
0.0
  0
CIRCLE
  5
169
102
{ACAD_REACTORS
330
16A
102
}
100
AcDbEntity
  8
0
370
              -2
390
0
  6
Continuous
 62
               0
100
AcDbCircle
 10
359.30239602983158
 20
1593.4437578944905
 30
0.0
 40
3.999755859375
  0
HATCH
  5
16A
100
AcDbEntity
  8
0
370
              -2
390
0
  6
Continuous
 62
               0
100
AcDbHatch
 10
0.0
 20
0.0
 30
0.0
210
0.0
220
0.0
230
1.0
  2
SOLID
 70
               1
 71
               1
 91
        1
 92
        1
 93
        1
 72
               2
 10
359.30239602983158
 20
1593.4437578944905
 40
3.999755859375
 50
0.0
 51
360.0
 73
               0
 97
        1
330
169
 75
               0
 76
               1
 98
        1
 10
0.0
 20
0.0
  0
CIRCLE
  5
16B
102
{ACAD_REACTORS
330
16C
102
}
100
AcDbEntity
  8
0
370
              -2
390
0
  6
Continuous
 62
               0
100
AcDbCircle
 10
359.30239602983158
 20
1541.4437658944896
 30
0.0
 40
3.999755859375
  0
HATCH
  5
16C
100
AcDbEntity
  8
0
370
              -2
390
0
  6
Continuous
 62
               0
100
AcDbHatch
 10
0.0
 20
0.0
 30
0.0
210
0.0
220
0.0
230
1.0
  2
SOLID
 70
               1
 71
               1
 91
        1
 92
        1
 93
        1
 72
               2
 10
359.30239602983158
 20
1541.4437658944896
 40
3.999755859375
 50
0.0
 51
360.0
 73
               0
 97
        1
330
16B
 75
               0
 76
               1
 98
        1
 10
0.0
 20
0.0
  0
MTEXT
  5
16D
100
AcDbEntity
  8
0
390
0
 62
               0
100
AcDbMText
 10
296.7561460298316
 20
1644.5457984861578
 30
0.0
 40
43.65625
 41
0.0
 71
               1
 72
               1
  1
φ52
  7
MS UI Gothic
 11
0.0
 21
1.0
 31
0.0
 73
               1
 44
0.8762322015334064
  0
POINT
  5
16E
100
AcDbEntity
  8
Defpoints
370
               0
390
0
 62
               0
100
AcDbPoint
 10
502.46466385483109
 20
1541.4437658944896
 30
0.0
  0
POINT
  5
16F
100
AcDbEntity
  8
Defpoints
370
               0
390
0
 62
               0
100
AcDbPoint
 10
502.46466385483109
 20
1593.4437578944905
 30
0.0
  0
POINT
  5
170
100
AcDbEntity
  8
Defpoints
370
               0
390
0
 62
               0
100
AcDbPoint
 10
359.30239602983158
 20
1593.4437578944905
 30
0.0
  0
ENDBLK
  5
171
100
AcDbEntity
  8
notes
390
0
100
AcDbBlockEnd
  0
BLOCK
  5
172
100
AcDbEntity
  8
notes
390
0
100
AcDbBlockBegin
  2
*D24
 70
               1
 10
0.0
 20
0.0
 30
0.0
  3
*D24
  1

  0
LINE
  5
173
100
AcDbEntity
  8
0
370
              -2
390
0
  6
Continuous
 62
               0
100
AcDbLine
 10
-555.13533614516973
 20
-606.46014410550947
 30
0.0
 11
-155.13533614516973
 21
-606.46014410550947
 31
0.0
  0
LINE
  5
174
100
AcDbEntity
  8
0
370
              -2
390
0
  6
Continuous
 62
               0
100
AcDbLine
 10
-555.13533614516973
 20
-1406.4601441055095
 30
0.0
 11
-155.13533614516973
 21
-1406.4601441055095
 31
0.0
  0
LINE
  5
175
100
AcDbEntity
  8
0
370
              -2
390
0
  6
Continuous
 62
               0
100
AcDbLine
 10
-155.13533614516973
 20
-606.46014410550947
 30
0.0
 11
-155.13533614516973
 21
-1406.4601441055095
 31
0.0
  0
CIRCLE
  5
176
102
{ACAD_REACTORS
330
177
102
}
100
AcDbEntity
  8
0
370
              -2
390
0
  6
Continuous
 62
               0
100
AcDbCircle
 10
-155.13533614516973
 20
-606.46014410550947
 30
0.0
 40
3.999755859375
  0
HATCH
  5
177
100
AcDbEntity
  8
0
370
              -2
390
0
  6
Continuous
 62
               0
100
AcDbHatch
 10
0.0
 20
0.0
 30
0.0
210
0.0
220
0.0
230
1.0
  2
SOLID
 70
               1
 71
               1
 91
        1
 92
        1
 93
        1
 72
               2
 10
-155.13533614516973
 20
-606.46014410550947
 40
3.999755859375
 50
0.0
 51
360.0
 73
               0
 97
        1
330
176
 75
               0
 76
               1
 98
        1
 10
0.0
 20
0.0
  0
CIRCLE
  5
178
102
{ACAD_REACTORS
330
179
102
}
100
AcDbEntity
  8
0
370
              -2
390
0
  6
Continuous
 62
               0
100
AcDbCircle
 10
-155.13533614516973
 20
-1406.4601441055095
 30
0.0
 40
3.999755859375
  0
HATCH
  5
179
100
AcDbEntity
  8
0
370
              -2
390
0
  6
Continuous
 62
               0
100
AcDbHatch
 10
0.0
 20
0.0
 30
0.0
210
0.0
220
0.0
230
1.0
  2
SOLID
 70
               1
 71
               1
 91
        1
 92
        1
 93
        1
 72
               2
 10
-155.13533614516973
 20
-1406.4601441055095
 40
3.999755859375
 50
0.0
 51
360.0
 73
               0
 97
        1
330
178
 75
               0
 76
               1
 98
        1
 10
0.0
 20
0.0
  0
MTEXT
  5
17A
100
AcDbEntity
  8
0
390
0
 62
               0
100
AcDbMText
 10
-222.89057052016975
 20
-1054.0851474698604
 30
0.0
 40
48.865234375000007
 41
0.0
 71
               1
 72
               1
  1
800
  7
ＭＳ ゴシック
 11
0.0
 21
1.0
 31
0.0
 73
               1
 44
0.7828267384257843
  0
POINT
  5
17B
100
AcDbEntity
  8
Defpoints
370
               0
390
0
 62
               0
100
AcDbPoint
 10
-605.13533614516973
 20
-1406.4601441055095
 30
0.0
  0
POINT
  5
17C
100
AcDbEntity
  8
Defpoints
370
               0
390
0
 62
               0
100
AcDbPoint
 10
-605.13533614516973
 20
-606.46014410550947
 30
0.0
  0
POINT
  5
17D
100
AcDbEntity
  8
Defpoints
370
               0
390
0
 62
               0
100
AcDbPoint
 10
-155.13533614516973
 20
-606.46014410550947
 30
0.0
  0
ENDBLK
  5
17E
100
AcDbEntity
  8
notes
390
0
100
AcDbBlockEnd
  0
BLOCK
  5
17F
100
AcDbEntity
  8
FLN72-1701
390
0
100
AcDbBlockBegin
  2
グループ-2
 70
               0
 10
0.0
 20
0.0
 30
0.0
  3
グループ-2
  1

  0
ARC
  5
180
100
AcDbEntity
  8
0
370
               5
390
0
  6
Continuous
 62
               7
100
AcDbCircle
 10
-943.71541414516923
 20
-1313.3390511055097
 30
0.0
 40
119.99996899999996
100
AcDbArc
 50
90.0
 51
188.685463
  0
ARC
  5
181
100
AcDbEntity
  8
0
370
               5
390
0
  6
Continuous
 62
               7
100
AcDbCircle
 10
-835.13533614516928
 20
-1185.9288941055095
 30
0.0
 40
287.39993300000015
100
AcDbArc
 50
180.0
 51
0.0
  0
ARC
  5
182
100
AcDbEntity
  8
0
370
               5
390
0
  6
Continuous
 62
               7
100
AcDbCircle
 10
-726.55721114516928
 20
-1313.3390511055097
 30
0.0
 40
119.99996899999988
100
AcDbArc
 50
351.31454500000012
 51
90.0
  0
ARC
  5
183
100
AcDbEntity
  8
0
370
               5
390
0
  6
Continuous
 62
               7
100
AcDbCircle
 10
-1097.5357271451694
 20
-1134.0968631055096
 30
0.0
 40
24.99999600000001
100
AcDbArc
 50
90.0
 51
180.0
  0
ARC
  5
184
100
AcDbEntity
  8
0
370
               5
390
0
  6
Continuous
 62
               7
100
AcDbCircle
 10
-572.73689914516945
 20
-1134.0968631055096
 30
0.0
 40
24.999996000000465
100
AcDbArc
 50
0.0
 51
90.0
  0
LINE
  5
185
100
AcDbEntity
  8
0
370
               5
390
0
  6
Continuous
 62
               7
100
AcDbLine
 10
-1122.5357271451699
 20
-1134.0968631055096
 30
0.0
 11
-1122.5357271451699
 21
-1185.9288941055095
 31
0.0
  0
LINE
  5
186
100
AcDbEntity
  8
0
370
               5
390
0
  6
Continuous
 62
               7
100
AcDbLine
 10
-547.73689914516945
 20
-1134.0968631055096
 30
0.0
 11
-547.73689914516945
 21
-1185.9288941055095
 31
0.0
  0
LINE
  5
187
100
AcDbEntity
  8
0
370
               5
390
0
  6
Continuous
 62
               7
100
AcDbLine
 10
-726.55721114516928
 20
-1193.3390511055097
 30
0.0
 11
-943.71541414516923
 21
-1193.3390511055097
 31
0.0
  0
LINE
  5
188
100
AcDbEntity
  8
0
370
               5
390
0
  6
Continuous
 62
               7
100
AcDbLine
 10
-572.73689914516945
 20
-1109.0968631055096
 30
0.0
 11
-1097.5357271451694
 21
-1109.0968631055096
 31
0.0
  0
ENDBLK
  5
189
100
AcDbEntity
  8
FLN72-1701
390
0
100
AcDbBlockEnd
  0
BLOCK
  5
18A
100
AcDbEntity
  8
FLN72-1701
390
0
100
AcDbBlockBegin
  2
グループ-3
 70
               0
 10
0.0
 20
0.0
 30
0.0
  3
グループ-3
  1

  0
ARC
  5
18B
100
AcDbEntity
  8
0
370
              15
390
0
  6
STYLE_11
 62
               7
100
AcDbCircle
 10
867.21466385483109
 20
1283.8578238944906
 30
0.0
 40
119.9999770000001
100
AcDbArc
 50
276.42843600000009
 51
356.66705300000007
  0
ARC
  5
18C
100
AcDbEntity
  8
0
370
              15
390
0
  6
STYLE_11
 62
               7
100
AcDbCircle
 10
867.21466385483109
 20
1851.0296988944908
 30
0.0
 40
119.99997700000043
100
AcDbArc
 50
3.3310549999997745
 51
83.571349999999981
  0
ARC
  5
18D
100
AcDbEntity
  8
0
370
              15
390
0
  6
STYLE_11
 62
               7
100
AcDbCircle
 10
-4004.5392421451688
 20
1567.4437618944901
 30
0.0
 40
4999.9990230000003
100
AcDbArc
 50
356.66851800000001
 51
3.3314209999999775
  0
ENDBLK
  5
18E
100
AcDbEntity
  8
FLN72-1701
390
0
100
AcDbBlockEnd
  0
ENDSEC
  0
SECTION
  2
ENTITIES
  0
MTEXT
  5
18F
100
AcDbEntity
  8
template
390
0
 62
               7
100
AcDbMText
 10
-1935.9999999995184
 20
-2294.8298437500007
 30
0.0
 40
32.576822916666664
 41
0.0
 71
               1
 72
               1
  1
品名
  7
ＭＳ ゴシック
 73
               1
 44
0.7828267384257843
  0
MTEXT
  5
190
100
AcDbEntity
  8
template
390
0
 62
               7
100
AcDbMText
 10
-1935.9999999995184
 20
-2464.8298437500007
 30
0.0
 40
32.576822916666664
 41
0.0
 71
               1
 72
               1
  1
仕様
  7
ＭＳ ゴシック
 73
               1
 44
0.7828267384257843
  0
MTEXT
  5
191
100
AcDbEntity
  8
template
390
0
 62
               7
100
AcDbMText
 10
-1829.9999999995184
 20
-2351.994765625001
 30
0.0
 40
48.865234375000007
 41
0.0
 71
               1
 72
               1
  1
鋼板ホーローバス -KALDEWEI,Kusatsu Pool-
  7
ＭＳ ゴシック
 73
               1
 44
0.7828267384257843
  0
LINE
  5
192
100
AcDbEntity
  8
template
370
               5
390
0
  6
Continuous
 62
               7
100
AcDbLine
 10
1949.9999999995175
 20
-2448.0000000000009
 30
0.0
 11
-1950.0000000004825
 21
-2448.0000000000009
 31
0.0
  0
LWPOLYLINE
  5
193
100
AcDbEntity
  8
template
370
               5
390
0
  6
Continuous
 62
               7
100
AcDbPolyline
 90
        5
 70
             128
 10
1950.0000000004825
 20
2811.9999999999991
 10
-1949.9999999995184
 20
2811.9999999999991
 10
-1949.9999999995184
 20
-2788.0000000000009
 10
1950.0000000004825
 20
-2788.0000000000009
 10
1950.0000000004825
 20
2811.9999999999991
  0
LINE
  5
194
100
AcDbEntity
  8
template
370
               5
390
0
  6
Continuous
 62
               7
100
AcDbLine
 10
1949.9999999995175
 20
-2278.0000000000009
 30
0.0
 11
-1950.0000000004825
 21
-2278.0000000000009
 31
0.0
  0
LINE
  5
195
100
AcDbEntity
  8
template
370
               5
390
0
  6
Continuous
 62
               7
100
AcDbLine
 10
1950.0000000004825
 20
-2618.0000000000009
 30
0.0
 11
444.00000000048249
 21
-2618.0000000000009
 31
0.0
  0
MTEXT
  5
196
100
AcDbEntity
  8
template
390
0
 62
               7
100
AcDbMText
 10
-1829.9999999995184
 20
-2521.994765625001
 30
0.0
 40
48.865234375000007
 41
0.0
 71
               1
 72
               1
  1
埋め込み/アンチスリップ,イージークリーンフィニッシュ付き/\Pバス用ポップアップ排水金具,専用設置用脚付属/ホワイト
  7
ＭＳ ゴシック
 73
               1
 44
1.1307497332816883
  0
MTEXT
  5
197
100
AcDbEntity
  8
template
390
0
 62
               7
100
AcDbMText
 10
-1949.9999999991119
 20
-2811.7076441137147
 30
0.0
 40
43.435763888888893
 41
0.0
 71
               1
 72
               1
  1
100708K
  7
ＭＳ ゴシック
 73
               1
 44
0.7828267384257843
  0
MTEXT
  5
198
100
AcDbEntity
  8
template
390
0
 62
               7
100
AcDbMText
 10
503.74281250500178
 20
-2677.8207889466162
 30
0.0
 40
48.865234375000007
 41
0.0
 71
               1
 72
               1
  1
大洋金物株式会社 ティーフォルム事業部
  7
ＭＳ ゴシック
 73
               1
 44
0.7828267384257843
  0
INSERT
  5
199
100
AcDbEntity
  8
template
390
0
 62
               7
100
AcDbBlockReference
  2
グループ-1
 10
0.0
 20
0.0
 30
0.0
  0
MTEXT
  5
19A
100
AcDbEntity
  8
template
390
0
 62
               7
100
AcDbMText
 10
1568.000000001
 20
-2521.994765625001
 30
0.0
 40
48.865234375000007
 41
0.0
 71
               1
 72
               1
  1
1:20
  7
ＭＳ ゴシック
 73
               1
 44
0.7828267384257843
  0
MTEXT
  5
19B
100
AcDbEntity
  8
template
390
0
 62
               7
100
AcDbMText
 10
1462.000000001
 20
-2464.8298437500007
 30
0.0
 40
32.576822916666664
 41
0.0
 71
               1
 72
               1
  1
縮尺
  7
ＭＳ ゴシック
 73
               1
 44
0.7828267384257843
  0
LINE
  5
19C
100
AcDbEntity
  8
template
370
               5
390
0
  6
Continuous
 62
               7
100
AcDbLine
 10
1448.000000001
 20
-2618.0000000000009
 30
0.0
 11
1448.000000001
 21
-2448.0000000000009
 31
0.0
  0
MTEXT
  5
19D
100
AcDbEntity
  8
template
390
0
 62
               7
100
AcDbMText
 10
960.00000000099999
 20
-2464.8298437500007
 30
0.0
 40
32.576822916666664
 41
0.0
 71
               1
 72
               1
  1
容量
  7
ＭＳ ゴシック
 73
               1
 44
0.7828267384257843
  0
MTEXT
  5
19E
100
AcDbEntity
  8
template
390
0
 62
               7
100
AcDbMText
 10
1066.000000001
 20
-2521.994765625001
 30
0.0
 40
48.865234375000007
 41
0.0
 71
               1
 72
               1
  1
505L
  7
ＭＳ ゴシック
 73
               1
 44
0.7828267384257843
  0
LINE
  5
19F
100
AcDbEntity
  8
template
370
               5
390
0
  6
Continuous
 62
               7
100
AcDbLine
 10
946.00000000099999
 20
-2618.0000000000009
 30
0.0
 11
946.00000000099999
 21
-2448.0000000000009
 31
0.0
  0
MTEXT
  5
1A0
100
AcDbEntity
  8
template
390
0
 62
               7
100
AcDbMText
 10
458.00000000099999
 20
-2294.8298437500007
 30
0.0
 40
32.576822916666664
 41
0.0
 71
               1
 72
               1
  1
品番
  7
ＭＳ ゴシック
 73
               1
 44
0.7828267384257843
  0
MTEXT
  5
1A1
100
AcDbEntity
  8
template
390
0
 62
               7
100
AcDbMText
 10
458.00000000099999
 20
-2464.8298437500007
 30
0.0
 40
32.576822916666664
 41
0.0
 71
               1
 72
               1
  1
重量
  7
ＭＳ ゴシック
 73
               1
 44
0.7828267384257843
  0
MTEXT
  5
1A2
100
AcDbEntity
  8
template
390
0
 62
               7
100
AcDbMText
 10
564.00000000099999
 20
-2351.994765625001
 30
0.0
 40
48.865234375000007
 41
0.0
 71
               1
 72
               1
  1
FLN72-1701
  7
ＭＳ ゴシック
 73
               1
 44
0.7828267384257843
  0
MTEXT
  5
1A3
100
AcDbEntity
  8
template
390
0
 62
               7
100
AcDbMText
 10
564.00000000099999
 20
-2521.994765625001
 30
0.0
 40
48.865234375000007
 41
0.0
 71
               1
 72
               1
  1
79kg
  7
ＭＳ ゴシック
 73
               1
 44
0.7828267384257843
  0
LINE
  5
1A4
100
AcDbEntity
  8
template
370
               5
390
0
  6
Continuous
 62
               7
100
AcDbLine
 10
444.00000000099999
 20
-2788.0000000000009
 30
0.0
 11
444.00000000099999
 21
-2278.0000000000009
 31
0.0
  0
DIMENSION
  5
1A5
100
AcDbEntity
  8
notes
370
               5
390
0
  6
Continuous
 62
               7
100
AcDbDimension
  2
*D4
 10
-1065.1353361451697
 20
-1606.4601441055095
 30
0.0
 11
-835.13533614516973
 21
-1606.4601441055095
 31
0.0
 71
               5
 72
               1
 41
1.0
 42
0.0
  3
T-form線あり
100
AcDbAlignedDimension
 13
-605.13533614516973
 23
-1406.4601441055095
 33
0.0
 14
-1065.1353361451697
 24
-1406.4601441055095
 34
0.0
100
AcDbRotatedDimension
1001
ACAD
1000
DSTYLE
1002
{
1070
             279
1070
               2
1070
             340
1005
3D
1070
             147
1040
10.0
1002
}
  0
DIMENSION
  5
1A6
100
AcDbEntity
  8
notes
370
               5
390
0
  6
Continuous
 62
               7
100
AcDbDimension
  2
*D5
 10
-1065.1353361451697
 20
-806.46014410550947
 30
0.0
 11
-835.13533614516962
 21
-796.46014410550947
 31
0.0
 70
             128
 71
               5
 72
               1
 41
1.0
 42
0.0
  3
T-form線あり
100
AcDbAlignedDimension
 13
-605.13533614516973
 23
-606.46014410550947
 33
0.0
 14
-1065.1353361451697
 24
-606.46014410550947
 34
0.0
100
AcDbRotatedDimension
1001
ACAD
1000
DSTYLE
1002
{
1070
             279
1070
               2
1070
             340
1005
3D
1070
             147
1040
10.0
1002
}
  0
DIMENSION
  5
1A7
100
AcDbEntity
  8
notes
370
               5
390
0
  6
Continuous
 62
               7
100
AcDbDimension
  2
*D6
 10
-155.13533614516973
 20
-1406.4601441055095
 30
0.0
 11
-155.13533614516973
 21
-1568.957172809676
 31
0.0
 71
               5
 72
               1
 41
1.0
 42
0.0
  3
T-form線あり
100
AcDbAlignedDimension
 13
-753.19760397016853
 23
-1731.4542015138425
 33
0.0
 14
-605.13533614516973
 24
-1406.4601441055095
 34
0.0
 50
90.0
100
AcDbRotatedDimension
1001
ACAD
1000
DSTYLE
1002
{
1070
             279
1070
               2
1070
             340
1005
3D
1070
             147
1040
10.0
1002
}
  0
DIMENSION
  5
1A8
100
AcDbEntity
  8
notes
370
               5
390
0
  6
Continuous
 62
               7
100
AcDbDimension
  2
*D7
 10
-1335.1353361451697
 20
-31.454201513842463
 30
0.0
 11
-835.1353361451695
 21
-31.454201513842463
 31
0.0
 71
               5
 72
               1
 41
1.0
 42
0.0
  3
T-form線あり
100
AcDbAlignedDimension
 13
-335.13533614516928
 23
-1031.4601441055095
 33
0.0
 14
-1335.1353361451697
 24
-1031.4601441055097
 34
0.0
100
AcDbRotatedDimension
1001
ACAD
1000
DSTYLE
1002
{
1070
             279
1070
               2
1070
             340
1005
3C
1070
             140
1040
43.65625
1070
             147
1040
10.0
1002
}
  0
DIMENSION
  5
1A9
100
AcDbEntity
  8
notes
370
               5
390
0
  6
Continuous
 62
               7
100
AcDbDimension
  2
*D8
 10
-1585.1976039701685
 20
-331.46014410550947
 30
0.0
 11
-1585.1976039701685
 21
-1031.4601441055095
 31
0.0
 71
               5
 72
               1
 41
1.0
 42
0.0
  3
T-form線あり
100
AcDbAlignedDimension
 13
-933.19760397016853
 23
-1731.4601441055095
 33
0.0
 14
-933.19760397016853
 24
-331.46014410550947
 34
0.0
 50
90.0
100
AcDbRotatedDimension
1001
ACAD
1000
DSTYLE
1002
{
1070
             279
1070
               2
1070
             340
1005
3C
1070
             140
1040
43.65625
1070
             147
1040
10.0
1002
}
  0
DIMENSION
  5
1AA
100
AcDbEntity
  8
notes
370
               5
390
0
  6
Continuous
 62
               7
100
AcDbDimension
  2
*D9
 10
-809.13533814516904
 20
-548.20420151384246
 30
0.0
 11
-795.19760397016842
 21
-538.20420151384246
 31
0.0
 70
             128
 71
               5
 72
               1
 41
1.0
 42
0.0
  3
T-form線あり
100
AcDbAlignedDimension
 13
-861.13533414516951
 23
-696.46014410550958
 33
0.0
 14
-809.13533814516904
 24
-696.46014410550958
 34
0.0
100
AcDbRotatedDimension
1001
ACAD
1000
DSTYLE
1002
{
1070
             279
1070
               2
1070
             340
1005
3C
1070
             140
1040
43.65625
1070
               3
1000
φ<>
1070
             174
1070
               0
1070
             147
1040
10.0
1002
}
  0
DIMENSION
  5
1AB
100
AcDbEntity
  8
notes
370
               5
390
0
  6
Continuous
 62
               7
100
AcDbDimension
  2
*D10
 10
204.80239602983158
 20
-406.44406660550931
 30
0.0
 11
194.80239602983158
 21
-368.95210535550939
 31
0.0
 70
             128
 71
               5
 72
               1
 41
1.0
 42
0.0
  3
T-form線あり
100
AcDbAlignedDimension
 13
432.46466385483109
 23
-331.46014410550947
 33
0.0
 14
432.46466385483109
 24
-406.44406660550931
 34
0.0
 50
90.0
100
AcDbRotatedDimension
1001
ACAD
1000
DSTYLE
1002
{
1070
             279
1070
               2
1070
             340
1005
3C
1070
             140
1040
43.65625
1070
             147
1040
10.0
1002
}
  0
DIMENSION
  5
1AC
100
AcDbEntity
  8
notes
370
               5
390
0
  6
Continuous
 62
               7
100
AcDbDimension
  2
*D11
 10
204.80239602983158
 20
-406.44406660550931
 30
0.0
 11
194.80239602983158
 21
-1006.4542015138423
 31
0.0
 70
             128
 71
               5
 72
               1
 41
1.0
 42
0.0
  3
T-form線あり
100
AcDbAlignedDimension
 13
432.46466385483109
 23
-1656.4440666055093
 33
0.0
 14
432.46466385483109
 24
-406.44406660550931
 34
0.0
 50
90.0
100
AcDbRotatedDimension
1001
ACAD
1000
DSTYLE
1002
{
1070
             279
1070
               2
1070
             340
1005
3C
1070
             140
1040
43.65625
1070
             147
1040
10.0
1002
}
  0
DIMENSION
  5
1AD
100
AcDbEntity
  8
notes
370
               5
390
0
  6
Continuous
 62
               7
100
AcDbDimension
  2
*D12
 10
814.8023960298309
 20
-456.44406660550931
 30
0.0
 11
814.8023960298309
 21
-768.94406660550931
 31
0.0
 71
               5
 72
               1
 41
1.0
 42
0.0
  3
T-form線あり
100
AcDbAlignedDimension
 13
1052.8599278548309
 23
-1081.4440666055093
 33
0.0
 14
1053.2599278548305
 24
-456.44406660550931
 34
0.0
 50
90.0
100
AcDbRotatedDimension
1001
ACAD
1000
DSTYLE
1002
{
1070
             279
1070
               2
1070
             340
1005
3C
1070
             140
1040
43.65625
1070
             147
1040
10.0
1002
}
  0
DIMENSION
  5
1AE
100
AcDbEntity
  8
notes
370
               5
390
0
  6
Continuous
 62
               7
100
AcDbDimension
  2
*D13
 10
714.8023960298309
 20
-456.44406660550931
 30
0.0
 11
714.8023960298309
 21
-1031.4440666055093
 31
0.0
 71
               5
 72
               1
 41
1.0
 42
0.0
  3
T-form線あり
100
AcDbAlignedDimension
 13
887.85992785483086
 23
-1606.4440666055091
 33
0.0
 14
1053.2599278548305
 24
-456.44406660550931
 34
0.0
 50
90.0
100
AcDbRotatedDimension
1001
ACAD
1000
DSTYLE
1002
{
1070
             279
1070
               2
1070
             340
1005
3C
1070
             140
1040
43.65625
1070
             147
1040
10.0
1002
}
  0
DIMENSION
  5
1AF
100
AcDbEntity
  8
notes
370
               5
390
0
  6
Continuous
 62
               7
100
AcDbDimension
  2
*D14
 10
1232.4646638548302
 20
-131.45420151384241
 30
0.0
 11
832.46466385483063
 21
-131.45420151384241
 31
0.0
 71
               5
 72
               1
 41
1.0
 42
0.0
  3
T-form線あり
100
AcDbAlignedDimension
 13
432.46466385483109
 23
-366.45420151384241
 33
0.0
 14
1232.4646638548302
 24
-500.8440666055094
 34
0.0
100
AcDbRotatedDimension
1001
ACAD
1000
DSTYLE
1002
{
1070
             279
1070
               2
1070
             340
1005
3C
1070
             140
1040
43.65625
1070
             147
1040
10.0
1002
}
  0
DIMENSION
  5
1B0
100
AcDbEntity
  8
notes
370
               5
390
0
  6
Continuous
 62
               7
100
AcDbDimension
  2
*D15
 10
1414.8335138548309
 20
-31.454201513842349
 30
0.0
 11
923.64908885483101
 21
-31.454201513842349
 31
0.0
 71
               5
 72
               1
 41
1.0
 42
0.0
  1
980-1040
  3
T-form線あり
100
AcDbAlignedDimension
 13
432.46466385483109
 23
-386.45420151384241
 33
0.0
 14
1414.8335138548309
 24
-311.45420151384241
 34
0.0
100
AcDbRotatedDimension
1001
ACAD
1000
DSTYLE
1002
{
1070
             279
1070
               2
1070
             340
1005
3C
1070
             140
1040
43.65625
1070
             147
1040
10.0
1002
}
  0
DIMENSION
  5
1B1
100
AcDbEntity
  8
notes
370
               5
390
0
  6
Continuous
 62
               7
100
AcDbDimension
  2
*D16
 10
713.17023179890225
 20
1854.9215999944915
 30
0.0
 11
703.17023179890225
 21
1567.4437618944899
 31
0.0
 70
             128
 71
               5
 72
               1
 41
1.0
 42
0.0
  3
T-form線あり
100
AcDbAlignedDimension
 13
1201.0964534381646
 23
1279.9215999944913
 33
0.0
 14
1201.0964534381646
 24
1854.9215999944915
 34
0.0
 50
90.0
100
AcDbRotatedDimension
1001
ACAD
1000
DSTYLE
1002
{
1070
             279
1070
               2
1070
             340
1005
3C
1070
             140
1040
43.65625
1070
             147
1040
10.0
1002
}
  0
DIMENSION
  5
1B2
100
AcDbEntity
  8
notes
370
               5
390
0
  6
Continuous
 62
               7
100
AcDbDimension
  2
*D17
 10
812.80239602983136
 20
1819.9437618944901
 30
0.0
 11
812.80239602983136
 21
1567.4437618944899
 31
0.0
 71
               5
 72
               1
 41
1.0
 42
0.0
  3
T-form線あり
100
AcDbAlignedDimension
 13
969.80239602983147
 23
1314.9437618944899
 33
0.0
 14
969.80239602983147
 24
1819.9437618944901
 34
0.0
 50
90.0
100
AcDbRotatedDimension
1001
ACAD
1000
DSTYLE
1002
{
1070
             279
1070
               2
1070
             340
1005
3C
1070
             140
1040
43.65625
1070
             147
1040
10.0
1002
}
  0
DIMENSION
  5
1B3
100
AcDbEntity
  8
notes
370
               5
390
0
  6
Continuous
 62
               7
100
AcDbDimension
  2
*D18
 10
482.46466385483109
 20
2268.5457984861578
 30
0.0
 11
374.80239602983158
 21
2278.5457984861578
 31
0.0
 70
             128
 71
               5
 72
               1
 41
1.0
 42
0.0
  3
T-form線あり
100
AcDbAlignedDimension
 13
432.46466385483109
 23
2036.5457984861575
 33
0.0
 14
482.46466385483109
 24
2036.5457984861575
 34
0.0
100
AcDbRotatedDimension
1001
ACAD
1000
DSTYLE
1002
{
1070
             279
1070
               2
1070
             340
1005
3C
1070
             140
1040
43.65625
1070
             174
1070
               0
1070
             147
1040
10.0
1002
}
  0
DIMENSION
  5
1B4
100
AcDbEntity
  8
notes
370
               5
390
0
  6
Continuous
 62
               7
100
AcDbDimension
  2
*D19
 10
525.46465985483155
 20
1427.2957984861578
 30
0.0
 11
406.80239602983158
 21
1437.2957984861578
 31
0.0
 70
             128
 71
               5
 72
               1
 41
1.0
 42
0.0
  3
Tform長さ固定
100
AcDbAlignedDimension
 13
432.46466385483109
 23
1517.0457984861575
 33
0.0
 14
525.46465985483155
 24
1567.4437618944901
 34
0.0
100
AcDbRotatedDimension
1001
ACAD
1000
DSTYLE
1002
{
1070
             279
1070
               2
1070
             340
1005
3C
1070
             140
1040
43.65625
1070
               3
1000
<>(※1)
1070
             174
1070
               0
1070
             147
1040
10.0
1002
}
  0
DIMENSION
  5
1B5
100
AcDbEntity
  8
notes
370
               5
390
0
  6
Continuous
 62
               7
100
AcDbDimension
  2
*D20
 10
114.80239602983158
 20
1992.4215999944915
 30
0.0
 11
114.80239602983158
 21
1567.4215999944913
 31
0.0
 71
               5
 72
               1
 41
1.0
 42
0.0
  3
T-form線あり
100
AcDbAlignedDimension
 13
432.46466385483109
 23
1142.4215999944913
 33
0.0
 14
432.46466385483109
 24
1992.4215999944915
 34
0.0
 50
90.0
100
AcDbRotatedDimension
1001
ACAD
1000
DSTYLE
1002
{
1070
             279
1070
               2
1070
             340
1005
3C
1070
             140
1040
43.65625
1070
             147
1040
10.0
1002
}
  0
DIMENSION
  5
1B6
100
AcDbEntity
  8
notes
370
               5
390
0
  6
Continuous
 62
               7
100
AcDbDimension
  2
*D21
 10
992.46466385483109
 20
-1931.4542015138425
 30
0.0
 11
712.46466385483109
 21
-1931.4542015138425
 31
0.0
 71
               5
 72
               1
 41
1.0
 42
0.0
  3
T-form線あり
100
AcDbAlignedDimension
 13
432.46466385483109
 23
-1731.4542015138425
 33
0.0
 14
992.46466385483109
 24
-1656.4440666055093
 34
0.0
100
AcDbRotatedDimension
1001
ACAD
1000
DSTYLE
1002
{
1070
             279
1070
               2
1070
             340
1005
3C
1070
             140
1040
43.65625
1070
             147
1040
10.0
1002
}
  0
DIMENSION
  5
1B7
100
AcDbEntity
  8
notes
370
               5
390
0
  6
Continuous
 62
               7
100
AcDbDimension
  2
*D22
 10
-1485.1976039701685
 20
-331.46014410550947
 30
0.0
 11
-1485.1976039701685
 21
-511.46014410550953
 31
0.0
 71
               5
 72
               1
 41
1.0
 42
0.0
  3
T-form線あり
100
AcDbAlignedDimension
 13
-861.13533414516951
 23
-691.46014410550958
 33
0.0
 14
-909.19760397016853
 24
-331.46014410550947
 34
0.0
 50
90.0
100
AcDbRotatedDimension
1001
ACAD
1000
DSTYLE
1002
{
1070
             279
1070
               2
1070
             340
1005
3C
1070
             140
1040
43.65625
1070
             147
1040
10.0
1002
}
  0
DIMENSION
  5
1B8
100
AcDbEntity
  8
notes
370
               5
390
0
  6
Continuous
 62
               7
100
AcDbDimension
  2
*D23
 10
359.30239602983158
 20
1593.4437578944905
 30
0.0
 11
349.30239602983158
 21
1644.5457984861578
 31
0.0
 70
             128
 71
               5
 72
               1
 41
1.0
 42
0.0
  3
T-form線あり
100
AcDbAlignedDimension
 13
502.46466385483109
 23
1541.4437658944896
 33
0.0
 14
502.46466385483109
 24
1593.4437578944905
 34
0.0
 50
90.0
100
AcDbRotatedDimension
1001
ACAD
1000
DSTYLE
1002
{
1070
             279
1070
               2
1070
             340
1005
3C
1070
             140
1040
43.65625
1070
               3
1000
φ<>
1070
             174
1070
               0
1070
             147
1040
10.0
1002
}
  0
DIMENSION
  5
1B9
100
AcDbEntity
  8
notes
370
               5
390
0
  6
Continuous
 62
               7
100
AcDbDimension
  2
*D24
 10
-155.13533614516973
 20
-606.46014410550947
 30
0.0
 11
-155.13533614516973
 21
-1006.4601441055095
 31
0.0
 71
               5
 72
               1
 41
1.0
 42
0.0
  3
T-form線あり
100
AcDbAlignedDimension
 13
-605.13533614516973
 23
-1406.4601441055095
 33
0.0
 14
-605.13533614516973
 24
-606.46014410550947
 34
0.0
 50
90.0
100
AcDbRotatedDimension
1001
ACAD
1000
DSTYLE
1002
{
1070
             279
1070
               2
1070
             340
1005
3D
1070
             147
1040
10.0
1002
}
  0
MTEXT
  5
1BA
100
AcDbEntity
  8
notes
390
0
 62
               7
100
AcDbMText
 10
1558.9708051928321
 20
1054.1696901568143
 30
0.0
 40
48.865234375000007
 41
0.0
 71
               1
 72
               1
  1
※1：オーバーフロー使用時の満水位置
  7
ＭＳ ゴシック
 11
0.0
 21
1.0
 31
0.0
 73
               1
 44
0.7828267384257843
  0
POINT
  5
1BB
100
AcDbEntity
  8
notes
370
               5
390
0
  6
Continuous
 62
              20
100
AcDbPoint
 10
1514.8079455298312
 20
1567.4458064861581
 30
0.0
  0
LINE
  5
1BC
100
AcDbEntity
  8
FLN72-1701
370
              15
390
0
  6
Continuous
 62
               7
100
AcDbLine
 10
447.46466385483109
 20
-331.46014410550947
 30
0.0
 11
476.46466385483109
 21
-331.46014410550947
 31
0.0
  0
LINE
  5
1BD
100
AcDbEntity
  8
FLN72-1701
370
              15
390
0
  6
Continuous
 62
               7
100
AcDbLine
 10
476.46466385483109
 20
-1731.4601441055095
 30
0.0
 11
447.46466385483109
 21
-1731.4601441055095
 31
0.0
  0
LINE
  5
1BE
100
AcDbEntity
  8
FLN72-1701
370
              15
390
0
  6
Continuous
 62
               7
100
AcDbLine
 10
482.46466385483109
 20
-1725.4601441055095
 30
0.0
 11
482.46466385483109
 21
-337.46014410550947
 31
0.0
  0
LINE
  5
1BF
100
AcDbEntity
  8
FLN72-1701
370
              15
390
0
  6
Continuous
 62
               7
100
AcDbLine
 10
432.46466385483109
 20
-1716.4601441055095
 30
0.0
 11
432.46466385483109
 21
-346.46014410550947
 31
0.0
  0
LINE
  5
1C0
100
AcDbEntity
  8
FLN72-1701
370
              15
390
0
  6
Continuous
 62
               7
100
AcDbLine
 10
998.66583585483113
 20
-1193.3937381055096
 30
0.0
 11
993.77911685483105
 21
-1473.3820191055095
 31
0.0
  0
LINE
  5
1C1
100
AcDbEntity
  8
FLN72-1701
370
              15
390
0
  6
Continuous
 62
               7
100
AcDbLine
 10
1234.2732578548303
 20
-741.56170710550953
 30
0.0
 11
1228.20685085483
 21
-973.47967610550961
 31
0.0
  0
LINE
  5
1C2
100
AcDbEntity
  8
FLN72-1701
370
              15
390
0
  6
Continuous
 62
               7
100
AcDbLine
 10
1234.2732578548303
 20
-651.35858210550953
 30
0.0
 11
1232.4841948548301
 21
-582.76873810550956
 31
0.0
  0
LINE
  5
1C3
100
AcDbEntity
  8
FLN72-1701
370
              15
390
0
  6
Continuous
 62
               7
100
AcDbLine
 10
432.46466385483109
 20
1082.4437618944903
 30
0.0
 11
432.46466385483109
 21
2052.4398558944904
 31
0.0
  0
LINE
  5
1C4
100
AcDbEntity
  8
FLN72-1701
370
              15
390
0
  6
Continuous
 62
               7
100
AcDbLine
 10
447.46466385483109
 20
2067.4437618944903
 30
0.0
 11
476.46466385483109
 21
2067.4437618944903
 31
0.0
  0
LINE
  5
1C5
100
AcDbEntity
  8
FLN72-1701
370
              15
390
0
  6
Continuous
 62
               7
100
AcDbLine
 10
482.46466385483109
 20
1073.4437618944903
 30
0.0
 11
482.46466385483109
 21
2061.4437618944903
 31
0.0
  0
LINE
  5
1C6
100
AcDbEntity
  8
FLN72-1701
370
              15
390
0
  6
Continuous
 62
               7
100
AcDbLine
 10
447.46466385483109
 20
1067.4437618944903
 30
0.0
 11
476.46466385483109
 21
1067.4437618944903
 31
0.0
  0
LINE
  5
1C7
100
AcDbEntity
  8
FLN72-1701
370
              15
390
0
  6
Continuous
 62
               7
100
AcDbLine
 10
-1260.1353361451697
 20
-1231.4601441055095
 30
0.0
 11
-1260.1353361451697
 21
-831.46014410550958
 31
0.0
  0
LINE
  5
1C8
100
AcDbEntity
  8
FLN72-1701
370
              15
390
0
  6
Continuous
 62
               7
100
AcDbLine
 10
-1335.1353361451697
 20
-1231.4601441055095
 30
0.0
 11
-1335.1353361451697
 21
-831.46014410550958
 31
0.0
  0
LINE
  5
1C9
100
AcDbEntity
  8
FLN72-1701
370
              15
390
0
  6
Continuous
 62
               7
100
AcDbLine
 10
-410.13533614516928
 20
-831.46014410550958
 30
0.0
 11
-410.13533614516928
 21
-1231.4601441055095
 31
0.0
  0
LINE
  5
1CA
100
AcDbEntity
  8
FLN72-1701
370
              15
390
0
  6
Continuous
 62
               7
100
AcDbLine
 10
-335.13533614516928
 20
-831.46014410550958
 30
0.0
 11
-335.13533614516928
 21
-1231.4601441055095
 31
0.0
  0
LINE
  5
1CB
100
AcDbEntity
  8
FLN72-1701
370
              15
390
0
  6
Continuous
 62
               7
100
AcDbLine
 10
1244.2713048548312
 20
-723.40936310550956
 30
0.0
 11
1244.2713048548312
 21
-669.51092610550961
 31
0.0
  0
LINE
  5
1CC
100
AcDbEntity
  8
FLN72-1701
370
              15
390
0
  6
Continuous
 62
               7
100
AcDbLine
 10
1234.2732578548303
 20
-741.56170710550953
 30
0.0
 11
1234.2732578548303
 21
-651.35858210550953
 31
0.0
  0
LINE
  5
1CD
100
AcDbEntity
  8
FLN72-1701
370
              15
390
0
  6
Continuous
 62
               7
100
AcDbLine
 10
1245.2556798548312
 20
1540.4867308944902
 30
0.0
 11
1245.2556798548312
 21
1594.3851678944909
 31
0.0
  0
LINE
  5
1CE
100
AcDbEntity
  8
FLN72-1701
370
              15
390
0
  6
Continuous
 62
               7
100
AcDbLine
 10
1235.2556798548312
 20
1522.1468868944901
 30
0.0
 11
1235.2556798548312
 21
1612.7367308944902
 31
0.0
  0
ARC
  5
1CF
100
AcDbEntity
  8
FLN72-1701
370
              15
390
0
  6
Continuous
 62
               7
100
AcDbCircle
 10
476.46466385483109
 20
-337.4601441055097
 30
0.0
 40
5.9999989999996615
100
AcDbArc
 50
0.0
 51
90.0
  0
ARC
  5
1D0
100
AcDbEntity
  8
FLN72-1701
370
              15
390
0
  6
Continuous
 62
               7
100
AcDbCircle
 10
1233.2713048548312
 20
-669.51092610550972
 30
0.0
 40
10.999997999999323
100
AcDbArc
 50
0.0
 51
56.941986000003681
  0
ARC
  5
1D1
100
AcDbEntity
  8
FLN72-1701
370
              15
390
0
  6
Continuous
 62
               7
100
AcDbCircle
 10
1245.26935085483
 20
-651.07342610550972
 30
0.0
 40
10.999997999999973
100
AcDbArc
 50
181.48549699999987
 51
236.9505310000018
  0
ARC
  5
1D2
100
AcDbEntity
  8
FLN72-1701
370
              15
390
0
  6
Continuous
 62
               7
100
AcDbCircle
 10
1245.26935085483
 20
-741.84686310550967
 30
0.0
 40
10.999997999999966
100
AcDbArc
 50
123.05798699999963
 51
178.5145030000001
  0
ARC
  5
1D3
100
AcDbEntity
  8
FLN72-1701
370
              15
390
0
  6
Continuous
 62
               7
100
AcDbCircle
 10
1233.2713048548312
 20
-723.40936310550967
 30
0.0
 40
10.999997999999772
100
AcDbArc
 50
303.04945399999758
 51
0.0
  0
ARC
  5
1D4
100
AcDbEntity
  8
FLN72-1701
370
              15
390
0
  6
Continuous
 62
               7
100
AcDbCircle
 10
476.46466385483018
 20
-1725.4601441055095
 30
0.0
 40
5.9999990000001162
100
AcDbArc
 50
270.0
 51
0.0
  0
ARC
  5
1D5
100
AcDbEntity
  8
FLN72-1701
370
              15
390
0
  6
Continuous
 62
               7
100
AcDbCircle
 10
432.46466385483109
 20
843.53985589449007
 30
0.0
 40
2502.9995119999994
100
AcDbArc
 50
271.14462299999997
 51
280.00650000000002
  0
ARC
  5
1D6
100
AcDbEntity
  8
FLN72-1701
370
              15
390
0
  6
Continuous
 62
               7
100
AcDbCircle
 10
840.80255485483121
 20
-1470.7140511055097
 30
0.0
 40
153.00013700000002
100
AcDbArc
 50
280.00605799999988
 51
359.00085400000017
  0
ARC
  5
1D7
100
AcDbEntity
  8
FLN72-1701
370
              15
390
0
  6
Continuous
 62
               7
100
AcDbCircle
 10
1095.6521638548302
 20
-1195.0851441055095
 30
0.0
 40
96.999953999999661
100
AcDbArc
 50
99.361041999999614
 51
179.00086200000013
  0
ARC
  5
1D8
100
AcDbEntity
  8
FLN72-1701
370
              15
390
0
  6
Continuous
 62
               7
100
AcDbCircle
 10
428.82599185483105
 20
2850.3250118944907
 30
0.0
 40
4002.9995120000008
100
AcDbArc
 50
279.360184
 51
280.04003900000004
  0
ARC
  5
1D9
100
AcDbEntity
  8
FLN72-1701
370
              15
390
0
  6
Continuous
 62
               7
100
AcDbCircle
 10
1105.2498198548301
 20
-970.2570191055097
 30
0.0
 40
122.99968000000021
100
AcDbArc
 50
280.04086300000029
 51
358.498627
  0
ARC
  5
1DA
100
AcDbEntity
  8
FLN72-1701
370
              15
390
0
  6
Continuous
 62
               7
100
AcDbCircle
 10
1109.5271638548302
 20
-585.9913941055097
 30
0.0
 40
122.99995400000066
100
AcDbArc
 50
1.5013429999999806
 51
79.949859999999902
  0
ARC
  5
1DB
100
AcDbEntity
  8
FLN72-1701
370
              15
390
0
  6
Continuous
 62
               7
100
AcDbCircle
 10
432.46466385483018
 20
-4406.4601441055092
 30
0.0
 40
4002.9995119999994
100
AcDbArc
 50
79.950377999999972
 51
89.284301999999997
  0
ARC
  5
1DC
100
AcDbEntity
  8
FLN72-1701
370
              15
390
0
  6
Continuous
 62
               7
100
AcDbCircle
 10
1246.2556798548312
 20
1522.0453238944899
 30
0.0
 40
10.999998000000986
100
AcDbArc
 50
123.03836400000323
 51
179.47100100000128
  0
ARC
  5
1DD
100
AcDbEntity
  8
FLN72-1701
370
              15
390
0
  6
Continuous
 62
               7
100
AcDbCircle
 10
476.46466385483109
 20
2061.4437618944903
 30
0.0
 40
5.9999989999996615
100
AcDbArc
 50
0.0
 51
90.0
  0
ARC
  5
1DE
100
AcDbEntity
  8
FLN72-1701
370
              15
390
0
  6
Continuous
 62
               7
100
AcDbCircle
 10
476.46466385483109
 20
1073.4437618944903
 30
0.0
 40
5.9999989999996615
100
AcDbArc
 50
270.0
 51
0.0
  0
ARC
  5
1DF
100
AcDbEntity
  8
FLN72-1701
370
              15
390
0
  6
Continuous
 62
               7
100
AcDbCircle
 10
432.46466385483109
 20
5142.4398558944904
 30
0.0
 40
4002.999268
100
AcDbArc
 50
270.71568300000001
 51
280.00050399999998
  0
ARC
  5
1E0
100
AcDbEntity
  8
FLN72-1701
370
              15
390
0
  6
Continuous
 62
               7
100
AcDbCircle
 10
432.46466385483109
 20
5142.4398558944904
 30
0.0
 40
4002.999268
100
AcDbArc
 50
270.71568300000001
 51
280.00050399999998
  0
ARC
  5
1E1
100
AcDbEntity
  8
FLN72-1701
370
              15
390
0
  6
Continuous
 62
               7
100
AcDbCircle
 10
1106.2537258548309
 20
1321.3929808944899
 30
0.0
 40
122.99974099999994
100
AcDbArc
 50
280.00050400000003
 51
357.11105299999997
  0
ARC
  5
1E2
100
AcDbEntity
  8
FLN72-1701
370
              15
390
0
  6
Continuous
 62
               7
100
AcDbCircle
 10
1234.2556798548312
 20
1540.4867308944902
 30
0.0
 40
11.000012999999669
100
AcDbArc
 50
303.06651299999879
 51
0.0
  0
ARC
  5
1E3
100
AcDbEntity
  8
FLN72-1701
370
              15
390
0
  6
Continuous
 62
               7
100
AcDbCircle
 10
-3767.5392421451697
 20
1567.4437618944901
 30
0.0
 40
5002.9995120000003
100
AcDbArc
 50
357.10992399999998
 51
359.48123200000003
  0
ARC
  5
1E4
100
AcDbEntity
  8
FLN72-1701
370
              15
390
0
  6
Continuous
 62
               7
100
AcDbCircle
 10
1106.2537258548309
 20
1813.4906368944901
 30
0.0
 40
122.99954999999939
100
AcDbArc
 50
2.8907469999999931
 51
79.999480999999648
  0
ARC
  5
1E5
100
AcDbEntity
  8
FLN72-1701
370
              15
390
0
  6
Continuous
 62
               7
100
AcDbCircle
 10
432.46466385483018
 20
-2007.5562381055092
 30
0.0
 40
4002.9995119999994
100
AcDbArc
 50
79.999480999999932
 51
89.284301999999997
  0
ARC
  5
1E6
100
AcDbEntity
  8
FLN72-1701
370
              15
390
0
  6
Continuous
 62
               7
100
AcDbCircle
 10
-835.13533614516928
 20
-831.46014410550958
 30
0.0
 40
499.99990799999978
100
AcDbArc
 50
0.0
 51
179.99999999999997
  0
ARC
  5
1E7
100
AcDbEntity
  8
FLN72-1701
370
              15
390
0
  6
Continuous
 62
               7
100
AcDbCircle
 10
-835.13533614516928
 20
-831.46014410550958
 30
0.0
 40
424.99993900000027
100
AcDbArc
 50
0.0
 51
179.99999999999997
  0
ARC
  5
1E8
100
AcDbEntity
  8
FLN72-1701
370
              15
390
0
  6
Continuous
 62
               7
100
AcDbCircle
 10
-835.13533614516928
 20
-1231.4601441055095
 30
0.0
 40
424.99993899999981
100
AcDbArc
 50
180.0
 51
359.99999999999994
  0
ARC
  5
1E9
100
AcDbEntity
  8
FLN72-1701
370
              15
390
0
  6
Continuous
 62
               7
100
AcDbCircle
 10
-835.13533614516928
 20
-1231.4601441055095
 30
0.0
 40
499.99990800000023
100
AcDbArc
 50
180.0
 51
359.99999999999994
  0
ARC
  5
1EA
100
AcDbEntity
  8
FLN72-1701
370
              15
390
0
  6
Continuous
 62
               7
100
AcDbCircle
 10
-3767.5392421451697
 20
1567.4437618944901
 30
0.0
 40
5002.9995120000003
100
AcDbArc
 50
0.5187070000000096
 51
2.8900760000000139
  0
ARC
  5
1EB
100
AcDbEntity
  8
FLN72-1701
370
              15
390
0
  6
Continuous
 62
               7
100
AcDbCircle
 10
1246.2556798548312
 20
1612.8343868944901
 30
0.0
 40
10.999998000000312
100
AcDbArc
 50
180.50864400000231
 51
236.95053099999745
  0
ARC
  5
1EC
100
AcDbEntity
  8
FLN72-1701
370
              15
390
0
  6
Continuous
 62
               7
100
AcDbCircle
 10
1234.2556798548312
 20
1594.3968868944901
 30
0.0
 40
11.000012999999452
100
AcDbArc
 50
359.93896499999795
 51
56.933472000001359
  0
ARC
  5
1ED
100
AcDbEntity
  8
FLN72-1701
370
              15
390
0
  6
Continuous
 62
               7
100
AcDbCircle
 10
447.46466385483018
 20
-1716.4601441055095
 30
0.0
 40
14.999997999999323
100
AcDbArc
 50
180.0
 51
270.0
  0
ARC
  5
1EE
100
AcDbEntity
  8
FLN72-1701
370
              15
390
0
  6
Continuous
 62
               7
100
AcDbCircle
 10
447.46466385483109
 20
-346.46014410550947
 30
0.0
 40
14.999997999999778
100
AcDbArc
 50
90.0
 51
180.0
  0
ARC
  5
1EF
100
AcDbEntity
  8
FLN72-1701
370
              15
390
0
  6
Continuous
 62
               7
100
AcDbCircle
 10
447.46466385483109
 20
1082.4437618944903
 30
0.0
 40
14.999998000000232
100
AcDbArc
 50
180.0
 51
270.0
  0
ARC
  5
1F0
100
AcDbEntity
  8
FLN72-1701
370
              15
390
0
  6
Continuous
 62
               7
100
AcDbCircle
 10
447.46466385483109
 20
2052.4398558944904
 30
0.0
 40
14.999998000000232
100
AcDbArc
 50
90.0
 51
180.0
  0
CIRCLE
  5
1F1
100
AcDbEntity
  8
FLN72-1701
370
              15
390
0
  6
Continuous
 62
               7
100
AcDbCircle
 10
-835.13533614516928
 20
-691.46014410550958
 30
0.0
 40
25.999998000000005
  0
LWPOLYLINE
  5
1F2
100
AcDbEntity
  8
FLN72-1701
370
              15
390
0
  6
Continuous
 62
               7
100
AcDbPolyline
 90
       48
 70
             128
 10
-809.13533614516928
 20
-430.32733210550964
 10
-809.81893014516936
 20
-428.73358210550964
 10
-811.5982271451694
 20
-427.35467610550972
 10
-813.92244514516915
 20
-426.28045710550964
 10
-816.32088314516932
 20
-425.49530110550972
 10
-818.54744514516915
 20
-424.93670710550964
 10
-820.51619514516915
 20
-424.53826910550947
 10
-822.22518014516936
 20
-424.25311310550956
 10
-823.70174214516919
 20
-424.04217610550972
 10
-824.98103914516923
 20
-423.88592610550972
 10
-826.10213314516932
 20
-423.76483210550964
 10
-827.09041414516923
 20
-423.67108210550964
 10
-830.1451021451694
 20
-423.45623810550956
 10
-833.34236714516919
 20
-423.34686310550956
 10
-837.89119514516915
 20
-423.36639410550947
 10
-843.18221114516928
 20
-423.67108210550964
 10
-844.17049214516919
 20
-423.76483210550964
 10
-845.28963314516932
 20
-423.88592610550972
 10
-846.57088314516932
 20
-424.04217610550972
 10
-848.04744514516915
 20
-424.25311310550956
 10
-849.75643014516936
 20
-424.53826910550947
 10
-851.72518014516936
 20
-424.93670710550964
 10
-853.95174214516919
 20
-425.49530110550972
 10
-856.35018014516936
 20
-426.28045710550964
 10
-858.67439914516945
 20
-427.35467610550972
 10
-860.45369514516915
 20
-428.73358210550964
 10
-861.13533614516928
 20
-430.32733210550964
 10
-860.45369514516915
 20
-431.92108210550964
 10
-858.67439914516945
 20
-433.29998810550956
 10
-856.35018014516936
 20
-434.37420710550964
 10
-853.95174214516919
 20
-435.15936310550956
 10
-851.72518014516936
 20
-435.71795710550964
 10
-849.75643014516936
 20
-436.11639410550947
 10
-848.04744514516915
 20
-436.40155110550972
 10
-846.57088314516932
 20
-436.61248810550956
 10
-845.28963314516932
 20
-436.76873810550956
 10
-844.17049214516919
 20
-436.89373810550956
 10
-843.18221114516928
 20
-436.98358210550964
 10
-842.3013521451694
 20
-437.05780110550972
 10
-839.51424214516919
 20
-437.22967610550972
 10
-836.46932014516915
 20
-437.31951910550947
 10
-831.86775814516932
 20
-437.27264410550947
 10
-826.10213314516932
 20
-436.89373810550956
 10
-824.98103914516923
 20
-436.76873810550956
 10
-823.70174214516919
 20
-436.61248810550956
 10
-822.22518014516936
 20
-436.40155110550972
 10
-820.51619514516915
 20
-436.11639410550947
 10
-818.54744514516915
 20
-435.71795710550964
  0
LWPOLYLINE
  5
1F3
100
AcDbEntity
  8
FLN72-1701
370
              15
390
0
  6
Continuous
 62
               7
100
AcDbPolyline
 90
        6
 70
             128
 10
-818.54744514516915
 20
-435.71795710550964
 10
-816.32088314516932
 20
-435.15936310550956
 10
-813.92244514516915
 20
-434.37420710550964
 10
-811.5982271451694
 20
-433.29998810550956
 10
-809.81893014516936
 20
-431.92108210550964
 10
-809.13533614516928
 20
-430.32733210550964
  0
ARC
  5
1F4
100
AcDbEntity
  8
FLN72-1701
370
               5
390
0
  6
Continuous
 62
               7
100
AcDbCircle
 10
-967.23689914516945
 20
-968.30389410550947
 30
0.0
 40
119.99996899999996
100
AcDbArc
 50
180.0
 51
270.0
  0
ARC
  5
1F5
100
AcDbEntity
  8
FLN72-1701
370
               5
390
0
  6
Continuous
 62
               7
100
AcDbCircle
 10
-835.13533614516928
 20
-834.94842610550961
 30
0.0
 40
252.09991499999978
100
AcDbArc
 50
0.0
 51
179.99999999999994
  0
ARC
  5
1F6
100
AcDbEntity
  8
FLN72-1701
370
               5
390
0
  6
Continuous
 62
               7
100
AcDbCircle
 10
-703.0357271451694
 20
-968.30389410550958
 30
0.0
 40
119.99996900000008
100
AcDbArc
 50
270.0
 51
0.0
  0
LINE
  5
1F7
100
AcDbEntity
  8
FLN72-1701
370
               5
390
0
  6
Continuous
 62
               7
100
AcDbLine
 10
-583.0357271451694
 20
-834.94842610550961
 30
0.0
 11
-583.0357271451694
 21
-968.30389410550958
 31
0.0
  0
LINE
  5
1F8
100
AcDbEntity
  8
FLN72-1701
370
               5
390
0
  6
Continuous
 62
               7
100
AcDbLine
 10
-1087.2368991451694
 20
-834.94842610550961
 30
0.0
 11
-1087.2368991451694
 21
-968.30389410550958
 31
0.0
  0
LINE
  5
1F9
100
AcDbEntity
  8
FLN72-1701
370
               5
390
0
  6
Continuous
 62
               7
100
AcDbLine
 10
-703.0357271451694
 20
-1088.3038941055097
 30
0.0
 11
-967.23689914516945
 21
-1088.3038941055097
 31
0.0
  0
LWPOLYLINE
  5
1FA
100
AcDbEntity
  8
FLN72-1701
370
              15
390
0
  6
Continuous
 62
               7
100
AcDbPolyline
 90
        6
 70
             129
 10
502.46466385483109
 20
1541.4437658944896
 42
0.4142135623730925
 10
528.46465985483155
 20
1567.4437618944901
 42
0.414213562373095
 10
502.46466385483109
 20
1593.4437578944905
 42
0.2229991087317483
 10
482.46466385483109
 20
1584.0570033602687
 10
482.46466385483109
 20
1550.8305204287251
 42
0.222999108732039
 10
502.46466385483109
 20
1541.4437658944896
  0
LINE
  5
1FB
100
AcDbEntity
  8
FLN72-1701
370
              15
390
0
  6
Continuous
 62
               5
100
AcDbLine
 10
1414.8335138548309
 20
-1407.0819441055098
 30
0.0
 11
1294.8338138548306
 21
-1407.0819441055098
 31
0.0
  0
LINE
  5
1FC
100
AcDbEntity
  8
FLN72-1701
370
              15
390
0
  6
Continuous
 62
               5
100
AcDbLine
 10
1374.3336388548305
 20
-1422.0828691055096
 30
0.0
 11
1021.3162138548314
 21
-1422.0622691055098
 31
0.0
  0
LINE
  5
1FD
100
AcDbEntity
  8
FLN72-1701
370
              15
390
0
  6
Continuous
 62
               5
100
AcDbLine
 10
1414.8335138548309
 20
-607.08194410550959
 30
0.0
 11
1294.8338138548306
 21
-607.08194410550959
 31
0.0
  0
LINE
  5
1FE
100
AcDbEntity
  8
FLN72-1701
370
              15
390
0
  6
Continuous
 62
               7
100
AcDbLine
 10
1414.8335138548309
 20
1042.4457984861574
 30
0.0
 11
1414.8335138548309
 21
2092.4457984861574
 31
0.0
  0
LINE
  5
1FF
100
AcDbEntity
  8
FLN72-1701
370
              15
390
0
  6
Continuous
 62
               7
100
AcDbLine
 10
1414.8335138548309
 20
-1756.4542015138422
 30
0.0
 11
1414.8335138548309
 21
-306.45420151384235
 31
0.0
  0
ARC
  5
200
100
AcDbEntity
  8
FLN72-1701
370
              15
390
0
  6
Continuous
 62
               5
100
AcDbCircle
 10
1216.1991638548307
 20
-501.08219410550964
 30
0.0
 40
8.9999999999999485
100
AcDbArc
 50
136.98724399999918
 51
154.42660500000017
  0
ARC
  5
201
100
AcDbEntity
  8
FLN72-1701
370
              15
390
0
  6
Continuous
 62
               5
100
AcDbCircle
 10
1216.1991638548307
 20
-501.08219410550964
 30
0.0
 40
3.0000000000003211
100
AcDbArc
 50
119.98794700000819
 51
154.43203699999964
  0
LINE
  5
202
100
AcDbEntity
  8
FLN72-1701
370
              15
390
0
  6
Continuous
 62
               5
100
AcDbLine
 10
1366.8339388548311
 20
-1422.0820941055097
 30
0.0
 11
1369.8292388548307
 21
-1422.0820941055097
 31
0.0
  0
LWPOLYLINE
  5
203
100
AcDbEntity
  8
FLN72-1701
370
              15
390
0
  6
Continuous
 62
               7
100
AcDbPolyline
 90
        7
 70
             128
 10
1354.6715388548309
 20
1784.2192868944901
 10
1354.2168388548307
 20
1782.0113368944901
 10
1353.9436888548307
 20
1779.8041618944906
 10
1353.8521388548306
 20
1777.5969618944907
 10
1353.9436888548307
 20
1775.3890118944907
 10
1354.2168388548307
 20
1773.1810868944901
 10
1354.6715388548309
 20
1770.9738868944903
  0
LWPOLYLINE
  5
204
100
AcDbEntity
  8
FLN72-1701
370
              15
390
0
  6
Continuous
 62
               7
100
AcDbPolyline
 90
        7
 70
             128
 10
1354.6715388548309
 20
1810.7115868944909
 10
1354.2168388548307
 20
1806.2957118944903
 10
1353.9436888548307
 20
1801.8805618944905
 10
1353.8521388548306
 20
1797.4654368944909
 10
1353.9436888548307
 20
1793.0503118944905
 10
1354.2168388548307
 20
1788.6351868944901
 10
1354.6715388548309
 20
1784.2192868944901
  0
LWPOLYLINE
  5
205
100
AcDbEntity
  8
FLN72-1701
370
              15
390
0
  6
Continuous
 62
               7
100
AcDbPolyline
 90
        7
 70
             128
 10
1354.6715388548309
 20
1823.9569868944907
 10
1354.2168388548307
 20
1821.7498118944902
 10
1353.9436888548307
 20
1819.5418618944902
 10
1353.8521388548306
 20
1817.3339118944903
 10
1353.9436888548307
 20
1815.1267368944907
 10
1354.2168388548307
 20
1812.9187868944907
 10
1354.6715388548309
 20
1810.7115868944909
  0
LWPOLYLINE
  5
206
100
AcDbEntity
  8
FLN72-1701
370
              15
390
0
  6
Continuous
 62
               7
100
AcDbPolyline
 90
        7
 70
             128
 10
1363.9946638548308
 20
1784.2192868944901
 10
1364.4508888548307
 20
1782.0113368944901
 10
1364.7240388548307
 20
1779.8041618944906
 10
1364.8155888548308
 20
1777.5969618944907
 10
1364.7240388548307
 20
1775.3890118944907
 10
1364.4508888548307
 20
1773.1810868944901
 10
1363.9946638548308
 20
1770.9738868944903
  0
LWPOLYLINE
  5
207
100
AcDbEntity
  8
FLN72-1701
370
              15
390
0
  6
Continuous
 62
               7
100
AcDbPolyline
 90
        7
 70
             128
 10
1363.9946638548308
 20
1810.7115868944909
 10
1364.4508888548307
 20
1806.2957118944903
 10
1364.7240388548307
 20
1801.8805618944905
 10
1364.8155888548308
 20
1797.4654368944909
 10
1364.7240388548307
 20
1793.0503118944905
 10
1364.4508888548307
 20
1788.6351868944901
 10
1363.9946638548308
 20
1784.2192868944901
  0
LWPOLYLINE
  5
208
100
AcDbEntity
  8
FLN72-1701
370
              15
390
0
  6
Continuous
 62
               7
100
AcDbPolyline
 90
        7
 70
             128
 10
1363.9946638548308
 20
1823.9569868944907
 10
1364.4508888548307
 20
1821.7498118944902
 10
1364.7240388548307
 20
1819.5418618944902
 10
1364.8155888548308
 20
1817.3339118944903
 10
1364.7240388548307
 20
1815.1267368944907
 10
1364.4508888548307
 20
1812.9187868944907
 10
1363.9946638548308
 20
1810.7115868944909
  0
LWPOLYLINE
  5
209
100
AcDbEntity
  8
FLN72-1701
370
              15
390
0
  6
Continuous
 62
               7
100
AcDbPolyline
 90
        7
 70
             128
 10
1374.9947138548305
 20
1784.2192868944901
 10
1375.4509638548307
 20
1782.0113368944901
 10
1375.7240888548313
 20
1779.8041618944906
 10
1375.8156388548305
 20
1777.5969618944907
 10
1375.7240888548313
 20
1775.3890118944907
 10
1375.4509638548307
 20
1773.1810868944901
 10
1374.9947138548305
 20
1770.9738868944903
  0
LWPOLYLINE
  5
20A
100
AcDbEntity
  8
FLN72-1701
370
              15
390
0
  6
Continuous
 62
               7
100
AcDbPolyline
 90
        7
 70
             128
 10
1374.9947138548305
 20
1810.7115868944909
 10
1375.4509638548307
 20
1806.2957118944903
 10
1375.7240888548313
 20
1801.8805618944905
 10
1375.8156388548305
 20
1797.4654368944909
 10
1375.7240888548313
 20
1793.0503118944905
 10
1375.4509638548307
 20
1788.6351868944901
 10
1374.9947138548305
 20
1784.2192868944901
  0
LWPOLYLINE
  5
20B
100
AcDbEntity
  8
FLN72-1701
370
              15
390
0
  6
Continuous
 62
               7
100
AcDbPolyline
 90
        7
 70
             128
 10
1374.9947138548305
 20
1823.9569868944907
 10
1375.4509638548307
 20
1821.7498118944902
 10
1375.7240888548313
 20
1819.5418618944902
 10
1375.8156388548305
 20
1817.3339118944903
 10
1375.7240888548313
 20
1815.1267368944907
 10
1375.4509638548307
 20
1812.9187868944907
 10
1374.9947138548305
 20
1810.7115868944909
  0
LWPOLYLINE
  5
20C
100
AcDbEntity
  8
FLN72-1701
370
              15
390
0
  6
Continuous
 62
               7
100
AcDbPolyline
 90
        7
 70
             128
 10
1365.6715888548306
 20
1784.2192868944901
 10
1365.2153638548307
 20
1782.0113368944901
 10
1364.942238854831
 20
1779.8041618944906
 10
1364.8522138548306
 20
1777.5969618944907
 10
1364.942238854831
 20
1775.3890118944907
 10
1365.2153638548307
 20
1773.1810868944901
 10
1365.6715888548306
 20
1770.9738868944903
  0
LWPOLYLINE
  5
20D
100
AcDbEntity
  8
FLN72-1701
370
              15
390
0
  6
Continuous
 62
               7
100
AcDbPolyline
 90
        7
 70
             128
 10
1365.6715888548306
 20
1810.7115868944909
 10
1365.2153638548307
 20
1806.2957118944903
 10
1364.942238854831
 20
1801.8805618944905
 10
1364.8522138548306
 20
1797.4654368944909
 10
1364.942238854831
 20
1793.0503118944905
 10
1365.2153638548307
 20
1788.6351868944901
 10
1365.6715888548306
 20
1784.2192868944901
  0
LWPOLYLINE
  5
20E
100
AcDbEntity
  8
FLN72-1701
370
              15
390
0
  6
Continuous
 62
               7
100
AcDbPolyline
 90
        7
 70
             128
 10
1365.6715888548306
 20
1823.9569868944907
 10
1365.2153638548307
 20
1821.7498118944902
 10
1364.942238854831
 20
1819.5418618944902
 10
1364.8522138548306
 20
1817.3339118944903
 10
1364.942238854831
 20
1815.1267368944907
 10
1365.2153638548307
 20
1812.9187868944907
 10
1365.6715888548306
 20
1810.7115868944909
  0
LWPOLYLINE
  5
20F
100
AcDbEntity
  8
FLN72-1701
370
              15
390
0
  6
Continuous
 62
               7
100
AcDbPolyline
 90
        7
 70
             128
 10
1354.6715388548309
 20
1350.6682618944903
 10
1354.2168388548307
 20
1352.8762118944903
 10
1353.9436888548307
 20
1355.0833868944908
 10
1353.8521388548306
 20
1357.2905618944903
 10
1353.9436888548307
 20
1359.4985118944903
 10
1354.2168388548307
 20
1361.7064618944903
 10
1354.6715388548309
 20
1363.9136618944901
  0
LWPOLYLINE
  5
210
100
AcDbEntity
  8
FLN72-1701
370
              15
390
0
  6
Continuous
 62
               7
100
AcDbPolyline
 90
        7
 70
             128
 10
1354.6715388548309
 20
1324.1759618944902
 10
1354.2168388548307
 20
1328.5918368944899
 10
1353.9436888548307
 20
1333.0069618944906
 10
1353.8521388548306
 20
1337.4221118944904
 10
1353.9436888548307
 20
1341.8372368944908
 10
1354.2168388548307
 20
1346.2523618944904
 10
1354.6715388548309
 20
1350.6682618944903
  0
LWPOLYLINE
  5
211
100
AcDbEntity
  8
FLN72-1701
370
              15
390
0
  6
Continuous
 62
               7
100
AcDbPolyline
 90
        7
 70
             128
 10
1354.6715388548309
 20
1310.9305618944904
 10
1354.2168388548307
 20
1313.13773689449
 10
1353.9436888548307
 20
1315.34568689449
 10
1353.8521388548306
 20
1317.55363689449
 10
1353.9436888548307
 20
1319.7608118944904
 10
1354.2168388548307
 20
1321.9687618944904
 10
1354.6715388548309
 20
1324.1759618944902
  0
LWPOLYLINE
  5
212
100
AcDbEntity
  8
FLN72-1701
370
              15
390
0
  6
Continuous
 62
               7
100
AcDbPolyline
 90
        7
 70
             128
 10
1363.9946638548308
 20
1350.6682618944903
 10
1364.4508888548307
 20
1352.8762118944903
 10
1364.7240388548307
 20
1355.0833868944908
 10
1364.8155888548308
 20
1357.2905618944903
 10
1364.7240388548307
 20
1359.4985118944903
 10
1364.4508888548307
 20
1361.7064618944903
 10
1363.9946638548308
 20
1363.9136618944901
  0
LWPOLYLINE
  5
213
100
AcDbEntity
  8
FLN72-1701
370
              15
390
0
  6
Continuous
 62
               7
100
AcDbPolyline
 90
        7
 70
             128
 10
1363.9946638548308
 20
1324.1759618944902
 10
1364.4508888548307
 20
1328.5918368944899
 10
1364.7240388548307
 20
1333.0069618944906
 10
1364.8155888548308
 20
1337.4221118944904
 10
1364.7240388548307
 20
1341.8372368944908
 10
1364.4508888548307
 20
1346.2523618944904
 10
1363.9946638548308
 20
1350.6682618944903
  0
LWPOLYLINE
  5
214
100
AcDbEntity
  8
FLN72-1701
370
              15
390
0
  6
Continuous
 62
               7
100
AcDbPolyline
 90
        7
 70
             128
 10
1363.9946638548308
 20
1310.9305618944904
 10
1364.4508888548307
 20
1313.13773689449
 10
1364.7240388548307
 20
1315.34568689449
 10
1364.8155888548308
 20
1317.55363689449
 10
1364.7240388548307
 20
1319.7608118944904
 10
1364.4508888548307
 20
1321.9687618944904
 10
1363.9946638548308
 20
1324.1759618944902
  0
LWPOLYLINE
  5
215
100
AcDbEntity
  8
FLN72-1701
370
              15
390
0
  6
Continuous
 62
               7
100
AcDbPolyline
 90
        7
 70
             128
 10
1374.9947138548305
 20
1350.6682618944903
 10
1375.4509638548307
 20
1352.8762118944903
 10
1375.7240888548313
 20
1355.0833868944908
 10
1375.8156388548305
 20
1357.2905618944903
 10
1375.7240888548313
 20
1359.4985118944903
 10
1375.4509638548307
 20
1361.7064618944903
 10
1374.9947138548305
 20
1363.9136618944901
  0
LWPOLYLINE
  5
216
100
AcDbEntity
  8
FLN72-1701
370
              15
390
0
  6
Continuous
 62
               7
100
AcDbPolyline
 90
        7
 70
             128
 10
1374.9947138548305
 20
1324.1759618944902
 10
1375.4509638548307
 20
1328.5918368944899
 10
1375.7240888548313
 20
1333.0069618944906
 10
1375.8156388548305
 20
1337.4221118944904
 10
1375.7240888548313
 20
1341.8372368944908
 10
1375.4509638548307
 20
1346.2523618944904
 10
1374.9947138548305
 20
1350.6682618944903
  0
LWPOLYLINE
  5
217
100
AcDbEntity
  8
FLN72-1701
370
              15
390
0
  6
Continuous
 62
               7
100
AcDbPolyline
 90
        7
 70
             128
 10
1374.9947138548305
 20
1310.9305618944904
 10
1375.4509638548307
 20
1313.13773689449
 10
1375.7240888548313
 20
1315.34568689449
 10
1375.8156388548305
 20
1317.55363689449
 10
1375.7240888548313
 20
1319.7608118944904
 10
1375.4509638548307
 20
1321.9687618944904
 10
1374.9947138548305
 20
1324.1759618944902
  0
LWPOLYLINE
  5
218
100
AcDbEntity
  8
FLN72-1701
370
              15
390
0
  6
Continuous
 62
               7
100
AcDbPolyline
 90
        7
 70
             128
 10
1365.6715888548306
 20
1350.6682618944903
 10
1365.2153638548307
 20
1352.8762118944903
 10
1364.942238854831
 20
1355.0833868944908
 10
1364.8522138548306
 20
1357.2905618944903
 10
1364.942238854831
 20
1359.4985118944903
 10
1365.2153638548307
 20
1361.7064618944903
 10
1365.6715888548306
 20
1363.9136618944901
  0
LWPOLYLINE
  5
219
100
AcDbEntity
  8
FLN72-1701
370
              15
390
0
  6
Continuous
 62
               7
100
AcDbPolyline
 90
        7
 70
             128
 10
1365.6715888548306
 20
1324.1759618944902
 10
1365.2153638548307
 20
1328.5918368944899
 10
1364.942238854831
 20
1333.0069618944906
 10
1364.8522138548306
 20
1337.4221118944904
 10
1364.942238854831
 20
1341.8372368944908
 10
1365.2153638548307
 20
1346.2523618944904
 10
1365.6715888548306
 20
1350.6682618944903
  0
LWPOLYLINE
  5
21A
100
AcDbEntity
  8
FLN72-1701
370
              15
390
0
  6
Continuous
 62
               7
100
AcDbPolyline
 90
        7
 70
             128
 10
1365.6715888548306
 20
1310.9305618944904
 10
1365.2153638548307
 20
1313.13773689449
 10
1364.942238854831
 20
1315.34568689449
 10
1364.8522138548306
 20
1317.55363689449
 10
1364.942238854831
 20
1319.7608118944904
 10
1365.2153638548307
 20
1321.9687618944904
 10
1365.6715888548306
 20
1324.1759618944902
  0
LWPOLYLINE
  5
21B
100
AcDbEntity
  8
FLN72-1701
370
              15
390
0
  6
Continuous
 62
               7
100
AcDbPolyline
 90
        6
 70
             128
 10
1369.9787638548305
 20
-1412.0822441055095
 10
1369.9421638548311
 20
-1411.4970691055098
 10
1369.8521388548306
 20
-1407.0819441055098
 10
1369.9421638548311
 20
-1402.6660441055099
 10
1370.2152888548308
 20
-1398.2516691055096
 10
1370.6715138548307
 20
-1393.8357941055094
  0
LWPOLYLINE
  5
21C
100
AcDbEntity
  8
FLN72-1701
370
              15
390
0
  6
Continuous
 62
               7
100
AcDbPolyline
 90
        6
 70
             128
 10
1369.6873388548311
 20
-1412.0822441055095
 10
1369.7239638548308
 20
-1411.4970691055098
 10
1369.8155138548309
 20
-1407.0819441055098
 10
1369.7239638548308
 20
-1402.6660441055099
 10
1369.4508138548308
 20
-1398.2516691055096
 10
1368.9945888548309
 20
-1393.8357941055094
  0
LWPOLYLINE
  5
21D
100
AcDbEntity
  8
FLN72-1701
370
              15
390
0
  6
Continuous
 62
               7
100
AcDbPolyline
 90
        4
 70
             128
 10
1358.8780138548309
 20
-1405.8413941055098
 10
1358.9436138548308
 20
-1402.6660441055099
 10
1359.2167388548305
 20
-1398.2516691055096
 10
1359.671463854831
 20
-1393.8357941055094
  0
LWPOLYLINE
  5
21E
100
AcDbEntity
  8
FLN72-1701
370
              15
390
0
  6
Continuous
 62
               7
100
AcDbPolyline
 90
        7
 70
             128
 10
1359.671463854831
 20
-1393.8357941055094
 10
1359.2167388548305
 20
-1391.6278441055094
 10
1358.9436138548308
 20
-1389.4206691055094
 10
1358.8520638548307
 20
-1387.2134691055096
 10
1358.9436138548308
 20
-1385.0055191055096
 10
1359.2167388548305
 20
-1382.7975691055096
 10
1359.671463854831
 20
-1380.5903941055096
  0
LWPOLYLINE
  5
21F
100
AcDbEntity
  8
FLN72-1701
370
              15
390
0
  6
Continuous
 62
               7
100
AcDbPolyline
 90
        7
 70
             128
 10
1368.9945888548309
 20
-1393.8357941055094
 10
1369.4508138548308
 20
-1391.6278441055094
 10
1369.7239638548308
 20
-1389.4206691055094
 10
1369.8155138548309
 20
-1387.2134691055096
 10
1369.7239638548308
 20
-1385.0055191055096
 10
1369.4508138548308
 20
-1382.7975691055096
 10
1368.9945888548309
 20
-1380.5903941055096
  0
LWPOLYLINE
  5
220
100
AcDbEntity
  8
FLN72-1701
370
              15
390
0
  6
Continuous
 62
               7
100
AcDbPolyline
 90
        7
 70
             128
 10
1379.9946388548306
 20
-1393.8357941055094
 10
1380.4508888548307
 20
-1391.6278441055094
 10
1380.7240138548314
 20
-1389.4206691055094
 10
1380.8155638548305
 20
-1387.2134691055096
 10
1380.7240138548314
 20
-1385.0055191055096
 10
1380.4508888548307
 20
-1382.7975691055096
 10
1379.9946388548306
 20
-1380.5903941055096
  0
LWPOLYLINE
  5
221
100
AcDbEntity
  8
FLN72-1701
370
              15
390
0
  6
Continuous
 62
               7
100
AcDbPolyline
 90
        7
 70
             128
 10
1379.9946388548306
 20
-1420.3280941055098
 10
1380.4508888548307
 20
-1415.9121941055098
 10
1380.7240138548314
 20
-1411.4970691055098
 10
1380.8155638548305
 20
-1407.0819441055098
 10
1380.7240138548314
 20
-1402.6660441055099
 10
1380.4508888548307
 20
-1398.2516691055096
 10
1379.9946388548306
 20
-1393.8357941055094
  0
LWPOLYLINE
  5
222
100
AcDbEntity
  8
FLN72-1701
370
              15
390
0
  6
Continuous
 62
               7
100
AcDbPolyline
 90
        7
 70
             128
 10
1379.9946388548306
 20
-1433.5734941055096
 10
1380.4508888548307
 20
-1431.3662941055097
 10
1380.7240138548314
 20
-1429.1583691055096
 10
1380.8155638548305
 20
-1426.9504191055096
 10
1380.7240138548314
 20
-1424.7432191055098
 10
1380.4508888548307
 20
-1422.5360441055097
 10
1379.9946388548306
 20
-1420.3280941055098
  0
LWPOLYLINE
  5
223
100
AcDbEntity
  8
FLN72-1701
370
              15
390
0
  6
Continuous
 62
               7
100
AcDbPolyline
 90
        7
 70
             128
 10
1370.6715138548307
 20
-1393.8357941055094
 10
1370.2152888548308
 20
-1391.6278441055094
 10
1369.9421638548311
 20
-1389.4206691055094
 10
1369.8521388548306
 20
-1387.2134691055096
 10
1369.9421638548311
 20
-1385.0055191055096
 10
1370.2152888548308
 20
-1382.7975691055096
 10
1370.6715138548307
 20
-1380.5903941055096
  0
LWPOLYLINE
  5
224
100
AcDbEntity
  8
FLN72-1701
370
              15
390
0
  6
Continuous
 62
               7
100
AcDbPolyline
 90
        7
 70
             128
 10
1359.671463854831
 20
-593.83579410550954
 10
1359.2167388548305
 20
-591.62784410550955
 10
1358.9436138548308
 20
-589.42066910550955
 10
1358.8520638548307
 20
-587.2134691055096
 10
1358.9436138548308
 20
-585.00551910550962
 10
1359.2167388548305
 20
-582.79756910550952
 10
1359.671463854831
 20
-580.59039410550963
  0
LWPOLYLINE
  5
225
100
AcDbEntity
  8
FLN72-1701
370
              15
390
0
  6
Continuous
 62
               7
100
AcDbPolyline
 90
        7
 70
             128
 10
1359.671463854831
 20
-620.32809410550954
 10
1359.2167388548305
 20
-615.91219410550957
 10
1358.9436138548308
 20
-611.49706910550958
 10
1358.8520638548307
 20
-607.08194410550959
 10
1358.9436138548308
 20
-602.6668191055096
 10
1359.2167388548305
 20
-598.25166910550956
 10
1359.671463854831
 20
-593.83579410550954
  0
LWPOLYLINE
  5
226
100
AcDbEntity
  8
FLN72-1701
370
              15
390
0
  6
Continuous
 62
               7
100
AcDbPolyline
 90
        7
 70
             128
 10
1359.671463854831
 20
-633.57349410550955
 10
1359.2167388548305
 20
-631.36629410550961
 10
1358.9436138548308
 20
-629.15836910550956
 10
1358.8520638548307
 20
-626.95041910550958
 10
1358.9436138548308
 20
-624.74321910550964
 10
1359.2167388548305
 20
-622.53526910550954
 10
1359.671463854831
 20
-620.32809410550954
  0
LWPOLYLINE
  5
227
100
AcDbEntity
  8
FLN72-1701
370
              15
390
0
  6
Continuous
 62
               7
100
AcDbPolyline
 90
        7
 70
             128
 10
1368.9945888548309
 20
-593.83579410550954
 10
1369.4508138548308
 20
-591.62784410550955
 10
1369.7239638548308
 20
-589.42066910550955
 10
1369.8155138548309
 20
-587.2134691055096
 10
1369.7239638548308
 20
-585.00551910550962
 10
1369.4508138548308
 20
-582.79756910550952
 10
1368.9945888548309
 20
-580.59039410550963
  0
LWPOLYLINE
  5
228
100
AcDbEntity
  8
FLN72-1701
370
              15
390
0
  6
Continuous
 62
               7
100
AcDbPolyline
 90
        7
 70
             128
 10
1368.9945888548309
 20
-620.32809410550954
 10
1369.4508138548308
 20
-615.91219410550957
 10
1369.7239638548308
 20
-611.49706910550958
 10
1369.8155138548309
 20
-607.08194410550959
 10
1369.7239638548308
 20
-602.6668191055096
 10
1369.4508138548308
 20
-598.25166910550956
 10
1368.9945888548309
 20
-593.83579410550954
  0
LWPOLYLINE
  5
229
100
AcDbEntity
  8
FLN72-1701
370
              15
390
0
  6
Continuous
 62
               7
100
AcDbPolyline
 90
        7
 70
             128
 10
1368.9945888548309
 20
-633.57349410550955
 10
1369.4508138548308
 20
-631.36629410550961
 10
1369.7239638548308
 20
-629.15836910550956
 10
1369.8155138548309
 20
-626.95041910550958
 10
1369.7239638548308
 20
-624.74321910550964
 10
1369.4508138548308
 20
-622.53526910550954
 10
1368.9945888548309
 20
-620.32809410550954
  0
LWPOLYLINE
  5
22A
100
AcDbEntity
  8
FLN72-1701
370
              15
390
0
  6
Continuous
 62
               7
100
AcDbPolyline
 90
        7
 70
             128
 10
1379.9946388548306
 20
-593.83579410550954
 10
1380.4508888548307
 20
-591.62784410550955
 10
1380.7240138548314
 20
-589.42066910550955
 10
1380.8155638548305
 20
-587.2134691055096
 10
1380.7240138548314
 20
-585.00551910550962
 10
1380.4508888548307
 20
-582.79756910550952
 10
1379.9946388548306
 20
-580.59039410550963
  0
LWPOLYLINE
  5
22B
100
AcDbEntity
  8
FLN72-1701
370
              15
390
0
  6
Continuous
 62
               7
100
AcDbPolyline
 90
        7
 70
             128
 10
1379.9946388548306
 20
-620.32809410550954
 10
1380.4508888548307
 20
-615.91219410550957
 10
1380.7240138548314
 20
-611.49706910550958
 10
1380.8155638548305
 20
-607.08194410550959
 10
1380.7240138548314
 20
-602.6668191055096
 10
1380.4508888548307
 20
-598.25166910550956
 10
1379.9946388548306
 20
-593.83579410550954
  0
LWPOLYLINE
  5
22C
100
AcDbEntity
  8
FLN72-1701
370
              15
390
0
  6
Continuous
 62
               7
100
AcDbPolyline
 90
        7
 70
             128
 10
1379.9946388548306
 20
-633.57349410550955
 10
1380.4508888548307
 20
-631.36629410550961
 10
1380.7240138548314
 20
-629.15836910550956
 10
1380.8155638548305
 20
-626.95041910550958
 10
1380.7240138548314
 20
-624.74321910550964
 10
1380.4508888548307
 20
-622.53526910550954
 10
1379.9946388548306
 20
-620.32809410550954
  0
LWPOLYLINE
  5
22D
100
AcDbEntity
  8
FLN72-1701
370
              15
390
0
  6
Continuous
 62
               7
100
AcDbPolyline
 90
        7
 70
             128
 10
1370.6715138548307
 20
-593.83579410550954
 10
1370.2152888548308
 20
-591.62784410550955
 10
1369.9421638548311
 20
-589.42066910550955
 10
1369.8521388548306
 20
-587.2134691055096
 10
1369.9421638548311
 20
-585.00551910550962
 10
1370.2152888548308
 20
-582.79756910550952
 10
1370.6715138548307
 20
-580.59039410550963
  0
LWPOLYLINE
  5
22E
100
AcDbEntity
  8
FLN72-1701
370
              15
390
0
  6
Continuous
 62
               7
100
AcDbPolyline
 90
        7
 70
             128
 10
1370.6715138548307
 20
-620.32809410550954
 10
1370.2152888548308
 20
-615.91219410550957
 10
1369.9421638548311
 20
-611.49706910550958
 10
1369.8521388548306
 20
-607.08194410550959
 10
1369.9421638548311
 20
-602.6668191055096
 10
1370.2152888548308
 20
-598.25166910550956
 10
1370.6715138548307
 20
-593.83579410550954
  0
LWPOLYLINE
  5
22F
100
AcDbEntity
  8
FLN72-1701
370
              15
390
0
  6
Continuous
 62
               7
100
AcDbPolyline
 90
        7
 70
             128
 10
1370.6715138548307
 20
-633.57349410550955
 10
1370.2152888548308
 20
-631.36629410550961
 10
1369.9421638548311
 20
-629.15836910550956
 10
1369.8521388548306
 20
-626.95041910550958
 10
1369.9421638548311
 20
-624.74321910550964
 10
1370.2152888548308
 20
-622.53526910550954
 10
1370.6715138548307
 20
-620.32809410550954
  0
ARC
  5
230
100
AcDbEntity
  8
FLN72-1701
370
              15
390
0
  6
Continuous
 62
               7
100
AcDbCircle
 10
1216.1991638548307
 20
-501.08219410550964
 30
0.0
 40
8.9999999999993197
100
AcDbArc
 50
154.42660499999832
 51
270.0
  0
ARC
  5
231
100
AcDbEntity
  8
FLN72-1701
370
              15
390
0
  6
Continuous
 62
               7
100
AcDbCircle
 10
1216.1991638548307
 20
-501.08219410550964
 30
0.0
 40
8.9999999999998312
100
AcDbArc
 50
119.99911499999875
 51
136.98724399999972
  0
ARC
  5
232
100
AcDbEntity
  8
FLN72-1701
370
              15
390
0
  6
Continuous
 62
               7
100
AcDbCircle
 10
1216.1991638548307
 20
-501.08219410550964
 30
0.0
 40
3.0000000000004046
100
AcDbArc
 50
154.43203700000157
 51
270.0
  0
ARC
  5
233
100
AcDbEntity
  8
FLN72-1701
370
              15
390
0
  6
Continuous
 62
               7
100
AcDbCircle
 10
1171.0270638548309
 20
-479.46964410550959
 30
0.0
 40
3.0000000000002807
100
AcDbArc
 50
38.614287999996101
 51
150.70693200000196
  0
ARC
  5
234
100
AcDbEntity
  8
FLN72-1701
370
              15
390
0
  6
Continuous
 62
               7
100
AcDbCircle
 10
1355.8338888548305
 20
-854.08206910550973
 30
0.0
 40
3.0
100
AcDbArc
 50
270.0
 51
0.0
  0
ARC
  5
235
100
AcDbEntity
  8
FLN72-1701
370
              15
390
0
  6
Continuous
 62
               7
100
AcDbCircle
 10
1355.8338888548305
 20
-800.08196910550964
 30
0.0
 40
3.0
100
AcDbArc
 50
0.0
 51
90.0
  0
ARC
  5
236
100
AcDbEntity
  8
FLN72-1701
370
              15
390
0
  6
Continuous
 62
               7
100
AcDbCircle
 10
1331.8333388548308
 20
-800.08196910550964
 30
0.0
 40
3.0
100
AcDbArc
 50
90.0
 51
180.0
  0
ARC
  5
237
100
AcDbEntity
  8
FLN72-1701
370
              15
390
0
  6
Continuous
 62
               7
100
AcDbCircle
 10
1331.8333388548308
 20
-854.08206910550973
 30
0.0
 40
3.0
100
AcDbArc
 50
180.0
 51
270.0
  0
ARC
  5
238
100
AcDbEntity
  8
FLN72-1701
370
              15
390
0
  6
Continuous
 62
               7
100
AcDbCircle
 10
1355.8338888548305
 20
-1434.0823691055095
 30
0.0
 40
3.0
100
AcDbArc
 50
270.0
 51
0.0
  0
ARC
  5
239
100
AcDbEntity
  8
FLN72-1701
370
              15
390
0
  6
Continuous
 62
               7
100
AcDbCircle
 10
1355.8338888548305
 20
-1380.0815191055096
 30
0.0
 40
3.0
100
AcDbArc
 50
0.0
 51
90.0
  0
ARC
  5
23A
100
AcDbEntity
  8
FLN72-1701
370
              15
390
0
  6
Continuous
 62
               7
100
AcDbCircle
 10
1331.8333388548308
 20
-1380.0815191055096
 30
0.0
 40
3.0
100
AcDbArc
 50
90.0
 51
180.0
  0
ARC
  5
23B
100
AcDbEntity
  8
FLN72-1701
370
              15
390
0
  6
Continuous
 62
               7
100
AcDbCircle
 10
1331.8333388548308
 20
-1434.0823691055095
 30
0.0
 40
3.0
100
AcDbArc
 50
180.0
 51
270.0
  0
ARC
  5
23C
100
AcDbEntity
  8
FLN72-1701
370
              15
390
0
  6
Continuous
 62
               7
100
AcDbCircle
 10
1395.218338854831
 20
-1422.0820941055097
 30
0.0
 40
36.3845000000005
100
AcDbArc
 50
165.2920840000001
 51
194.70659600000002
  0
ARC
  5
23D
100
AcDbEntity
  8
FLN72-1701
370
              15
390
0
  6
Continuous
 62
               7
100
AcDbCircle
 10
1330.4493638548311
 20
-1422.0820941055097
 30
0.0
 40
36.384500000000202
100
AcDbArc
 50
345.29338100000001
 51
14.707733000000756
  0
ARC
  5
23E
100
AcDbEntity
  8
FLN72-1701
370
              15
390
0
  6
Continuous
 62
               7
100
AcDbCircle
 10
1368.3766138548308
 20
-1408.2255941055098
 30
0.0
 40
9.5429250000001939
100
AcDbArc
 50
151.05283700000101
 51
208.94715099999982
  0
ARC
  5
23F
100
AcDbEntity
  8
FLN72-1701
370
              15
390
0
  6
Continuous
 62
               7
100
AcDbCircle
 10
1357.2910888548313
 20
-1408.2255941055098
 30
0.0
 40
9.5429249999996575
100
AcDbArc
 50
331.04771400000106
 51
28.952271000001417
  0
ARC
  5
240
100
AcDbEntity
  8
FLN72-1701
370
              15
390
0
  6
Continuous
 62
               7
100
AcDbCircle
 10
1368.3766138548308
 20
-1435.9378441055098
 30
0.0
 40
9.5429250000001939
100
AcDbArc
 50
151.05283700000101
 51
208.94715099999982
  0
ARC
  5
241
100
AcDbEntity
  8
FLN72-1701
370
              15
390
0
  6
Continuous
 62
               7
100
AcDbCircle
 10
1357.2910888548313
 20
-1435.9378441055098
 30
0.0
 40
9.5429249999996575
100
AcDbArc
 50
331.04771400000106
 51
28.952271000001417
  0
ARC
  5
242
100
AcDbEntity
  8
FLN72-1701
370
              15
390
0
  6
Continuous
 62
               7
100
AcDbCircle
 10
1357.2178388548309
 20
-1422.0820941055097
 30
0.0
 40
36.3845000000005
100
AcDbArc
 50
165.2920840000001
 51
194.70659600000033
  0
ARC
  5
243
100
AcDbEntity
  8
FLN72-1701
370
              15
390
0
  6
Continuous
 62
               7
100
AcDbCircle
 10
1292.448863854831
 20
-1422.0820941055097
 30
0.0
 40
36.384500000000202
100
AcDbArc
 50
345.29338100000001
 51
14.707733000000417
  0
ARC
  5
244
100
AcDbEntity
  8
FLN72-1701
370
              15
390
0
  6
Continuous
 62
               7
100
AcDbCircle
 10
1330.3761138548307
 20
-1408.2255941055098
 30
0.0
 40
9.5429250000001939
100
AcDbArc
 50
151.05283700000101
 51
208.94715099999982
  0
ARC
  5
245
100
AcDbEntity
  8
FLN72-1701
370
              15
390
0
  6
Continuous
 62
               7
100
AcDbCircle
 10
1319.2906138548306
 20
-1408.2255941055098
 30
0.0
 40
9.5429250000003041
100
AcDbArc
 50
331.05282600000282
 51
28.947143999998957
  0
ARC
  5
246
100
AcDbEntity
  8
FLN72-1701
370
              15
390
0
  6
Continuous
 62
               7
100
AcDbCircle
 10
1330.3761138548307
 20
-1435.9378441055098
 30
0.0
 40
9.5429250000001939
100
AcDbArc
 50
151.05283700000101
 51
208.94715099999982
  0
ARC
  5
247
100
AcDbEntity
  8
FLN72-1701
370
              15
390
0
  6
Continuous
 62
               7
100
AcDbCircle
 10
1319.2906138548306
 20
-1435.9378441055098
 30
0.0
 40
9.5429250000003041
100
AcDbArc
 50
331.05282600000282
 51
28.947143999998957
  0
ARC
  5
248
100
AcDbEntity
  8
FLN72-1701
370
              15
390
0
  6
Continuous
 62
               7
100
AcDbCircle
 10
1011.7512388548303
 20
-1408.2217691055096
 30
0.0
 40
9.5429250000005066
100
AcDbArc
 50
331.14714100000225
 51
29.041442999997916
  0
ARC
  5
249
100
AcDbEntity
  8
FLN72-1701
370
              15
390
0
  6
Continuous
 62
               7
100
AcDbCircle
 10
984.93238885483061
 20
-1422.1225191055098
 30
0.0
 40
36.38450000000055
100
AcDbArc
 50
345.38664200000028
 51
14.802155000000653
  0
ARC
  5
24A
100
AcDbEntity
  8
FLN72-1701
370
              15
390
0
  6
Continuous
 62
               7
100
AcDbCircle
 10
1011.7970138548308
 20
-1435.9347941055096
 30
0.0
 40
9.5429249999997108
100
AcDbArc
 50
331.14714099999952
 51
29.041442999999276
  0
ARC
  5
24B
100
AcDbEntity
  8
FLN72-1701
370
              15
390
0
  6
Continuous
 62
               7
100
AcDbCircle
 10
1022.8367388548313
 20
-1408.2034691055098
 30
0.0
 40
9.542925000000082
100
AcDbArc
 50
151.15117299999937
 51
209.04148099999819
  0
ARC
  5
24C
100
AcDbEntity
  8
FLN72-1701
370
              15
390
0
  6
Continuous
 62
               7
100
AcDbCircle
 10
1049.7013638548306
 20
-1422.0157191055098
 30
0.0
 40
36.384500000000074
100
AcDbArc
 50
165.38650500000008
 51
194.80232999999961
  0
ARC
  5
24D
100
AcDbEntity
  8
FLN72-1701
370
              15
390
0
  6
Continuous
 62
               7
100
AcDbCircle
 10
1022.8825138548309
 20
-1435.9164691055096
 30
0.0
 40
9.5429250000001105
100
AcDbArc
 50
151.14716700000045
 51
209.04148099999938
  0
ARC
  5
24E
100
AcDbEntity
  8
FLN72-1701
370
              15
390
0
  6
Continuous
 62
               7
100
AcDbCircle
 10
1034.7019888548302
 20
-1422.0820941055097
 30
0.0
 40
36.384499999999619
100
AcDbArc
 50
165.29208399999973
 51
194.70659600000033
  0
ARC
  5
24F
100
AcDbEntity
  8
FLN72-1701
370
              15
390
0
  6
Continuous
 62
               7
100
AcDbCircle
 10
969.93298885483091
 20
-1422.0820941055097
 30
0.0
 40
36.384499999999321
100
AcDbArc
 50
345.29338099999961
 51
14.707733000000417
  0
ARC
  5
250
100
AcDbEntity
  8
FLN72-1701
370
              15
390
0
  6
Continuous
 62
               7
100
AcDbCircle
 10
1007.8602388548306
 20
-1408.2255941055098
 30
0.0
 40
9.5429250000001939
100
AcDbArc
 50
151.05283700000101
 51
208.94715099999863
  0
ARC
  5
251
100
AcDbEntity
  8
FLN72-1701
370
              15
390
0
  6
Continuous
 62
               7
100
AcDbCircle
 10
996.77473885483141
 20
-1408.2255941055098
 30
0.0
 40
9.5429249999996575
100
AcDbArc
 50
331.04771400000106
 51
28.952271000004032
  0
ARC
  5
252
100
AcDbEntity
  8
FLN72-1701
370
              15
390
0
  6
Continuous
 62
               7
100
AcDbCircle
 10
1007.8602388548306
 20
-1435.9378441055098
 30
0.0
 40
9.5429250000001939
100
AcDbArc
 50
151.05283700000101
 51
208.94715099999863
  0
ARC
  5
253
100
AcDbEntity
  8
FLN72-1701
370
              15
390
0
  6
Continuous
 62
               7
100
AcDbCircle
 10
996.77473885483141
 20
-1435.9378441055098
 30
0.0
 40
9.5429249999996575
100
AcDbArc
 50
331.04771400000106
 51
28.952271000004032
  0
ARC
  5
254
100
AcDbEntity
  8
FLN72-1701
370
              15
390
0
  6
Continuous
 62
               7
100
AcDbCircle
 10
1000.708438854831
 20
-1397.1667941055096
 30
0.0
 40
4.0
100
AcDbArc
 50
180.0
 51
255.00944499998946
  0
ARC
  5
255
100
AcDbEntity
  8
FLN72-1701
370
              15
390
0
  6
Continuous
 62
               7
100
AcDbCircle
 10
1006.3328388548307
 20
-1403.8485941055098
 30
0.0
 40
4.000000000000024
100
AcDbArc
 50
359.98904400000174
 51
75.004149999995605
  0
ARC
  5
256
100
AcDbEntity
  8
FLN72-1701
370
              15
390
0
  6
Continuous
 62
               7
100
AcDbCircle
 10
1006.3328388548307
 20
-1440.3140691055098
 30
0.0
 40
4.0000000000000977
100
AcDbArc
 50
276.68174700000895
 51
0.0
  0
LINE
  5
257
100
AcDbEntity
  8
FLN72-1701
370
              15
390
0
  6
Continuous
 62
               7
100
AcDbLine
 10
1372.8336888548311
 20
-1432.0819441055098
 30
0.0
 11
1372.8336888548311
 21
-1412.0822441055095
 31
0.0
  0
LINE
  5
258
100
AcDbEntity
  8
FLN72-1701
370
              15
390
0
  6
Continuous
 62
               7
100
AcDbLine
 10
1233.8337638548301
 20
-758.61621910550957
 30
0.0
 11
1233.8337638548301
 21
-977.08164410550955
 31
0.0
  0
LINE
  5
259
100
AcDbEntity
  8
FLN72-1701
370
              15
390
0
  6
Continuous
 62
               7
100
AcDbLine
 10
1238.8340638548307
 20
-732.92804410550957
 30
0.0
 11
1238.8340638548307
 21
-977.08164410550955
 31
0.0
  0
LINE
  5
25A
100
AcDbEntity
  8
FLN72-1701
370
              15
390
0
  6
Continuous
 62
               7
100
AcDbLine
 10
1394.8338138548306
 20
1797.4654368944909
 30
0.0
 11
1414.8335138548309
 21
1797.4654368944909
 31
0.0
  0
LINE
  5
25B
100
AcDbEntity
  8
FLN72-1701
370
              15
390
0
  6
Continuous
 62
               7
100
AcDbLine
 10
1375.8339638548305
 20
1780.9653368944907
 30
0.0
 11
1394.8338138548306
 21
1780.9653368944907
 31
0.0
  0
LINE
  5
25C
100
AcDbEntity
  8
FLN72-1701
370
              15
390
0
  6
Continuous
 62
               7
100
AcDbLine
 10
1375.8339638548305
 20
1813.9655368944902
 30
0.0
 11
1394.8338138548306
 21
1813.9655368944902
 31
0.0
  0
LINE
  5
25D
100
AcDbEntity
  8
FLN72-1701
370
              15
390
0
  6
Continuous
 62
               7
100
AcDbLine
 10
1363.9946638548308
 20
1770.9738868944903
 30
0.0
 11
1354.6715388548309
 21
1770.9738868944903
 31
0.0
  0
LINE
  5
25E
100
AcDbEntity
  8
FLN72-1701
370
              15
390
0
  6
Continuous
 62
               7
100
AcDbLine
 10
1354.6715388548309
 20
1784.2192868944901
 30
0.0
 11
1363.9946638548308
 21
1784.2192868944901
 31
0.0
  0
LINE
  5
25F
100
AcDbEntity
  8
FLN72-1701
370
              15
390
0
  6
Continuous
 62
               7
100
AcDbLine
 10
1363.9946638548308
 20
1810.7115868944909
 30
0.0
 11
1354.6715388548309
 21
1810.7115868944909
 31
0.0
  0
LINE
  5
260
100
AcDbEntity
  8
FLN72-1701
370
              15
390
0
  6
Continuous
 62
               7
100
AcDbLine
 10
1354.6715388548309
 20
1823.9569868944907
 30
0.0
 11
1363.9946638548308
 21
1823.9569868944907
 31
0.0
  0
LINE
  5
261
100
AcDbEntity
  8
FLN72-1701
370
              15
390
0
  6
Continuous
 62
               7
100
AcDbLine
 10
1365.6715888548306
 20
1770.9738868944903
 30
0.0
 11
1374.9947138548305
 21
1770.9738868944903
 31
0.0
  0
LINE
  5
262
100
AcDbEntity
  8
FLN72-1701
370
              15
390
0
  6
Continuous
 62
               7
100
AcDbLine
 10
1374.9947138548305
 20
1784.2192868944901
 30
0.0
 11
1365.6715888548306
 21
1784.2192868944901
 31
0.0
  0
LINE
  5
263
100
AcDbEntity
  8
FLN72-1701
370
              15
390
0
  6
Continuous
 62
               7
100
AcDbLine
 10
1365.6715888548306
 20
1810.7115868944909
 30
0.0
 11
1374.9947138548305
 21
1810.7115868944909
 31
0.0
  0
LINE
  5
264
100
AcDbEntity
  8
FLN72-1701
370
              15
390
0
  6
Continuous
 62
               7
100
AcDbLine
 10
1374.9947138548305
 20
1823.9569868944907
 30
0.0
 11
1365.6715888548306
 21
1823.9569868944907
 31
0.0
  0
LINE
  5
265
100
AcDbEntity
  8
FLN72-1701
370
              15
390
0
  6
Continuous
 62
               7
100
AcDbLine
 10
1375.8339638548305
 20
1820.4077868944903
 30
0.0
 11
1375.8339638548305
 21
1774.5230868944907
 31
0.0
  0
LINE
  5
266
100
AcDbEntity
  8
FLN72-1701
370
              15
390
0
  6
Continuous
 62
               7
100
AcDbLine
 10
1364.8338888548305
 20
1820.4077868944903
 30
0.0
 11
1364.8338888548305
 21
1774.5230868944907
 31
0.0
  0
LINE
  5
267
100
AcDbEntity
  8
FLN72-1701
370
              15
390
0
  6
Continuous
 62
               7
100
AcDbLine
 10
1394.8338138548306
 20
1817.4651368944903
 30
0.0
 11
1394.8338138548306
 21
1777.4657368944906
 31
0.0
  0
LINE
  5
268
100
AcDbEntity
  8
FLN72-1701
370
              15
390
0
  6
Continuous
 62
               7
100
AcDbLine
 10
1394.8338138548306
 20
1817.4651368944903
 30
0.0
 11
1414.8335138548309
 21
1817.4651368944903
 31
0.0
  0
LINE
  5
269
100
AcDbEntity
  8
FLN72-1701
370
              15
390
0
  6
Continuous
 62
               7
100
AcDbLine
 10
1394.8338138548306
 20
1777.4657368944906
 30
0.0
 11
1414.8335138548309
 21
1777.4657368944906
 31
0.0
  0
LINE
  5
26A
100
AcDbEntity
  8
FLN72-1701
370
              15
390
0
  6
Continuous
 62
               7
100
AcDbLine
 10
1414.8335138548309
 20
1817.4651368944903
 30
0.0
 11
1414.8335138548309
 21
1777.4657368944906
 31
0.0
  0
LINE
  5
26B
100
AcDbEntity
  8
FLN72-1701
370
              15
390
0
  6
Continuous
 62
               7
100
AcDbLine
 10
1394.8338138548306
 20
1337.4221118944904
 30
0.0
 11
1414.8335138548309
 21
1337.4221118944904
 31
0.0
  0
LINE
  5
26C
100
AcDbEntity
  8
FLN72-1701
370
              15
390
0
  6
Continuous
 62
               7
100
AcDbLine
 10
1375.8339638548305
 20
1353.9221868944903
 30
0.0
 11
1394.8338138548306
 21
1353.9221868944903
 31
0.0
  0
LINE
  5
26D
100
AcDbEntity
  8
FLN72-1701
370
              15
390
0
  6
Continuous
 62
               7
100
AcDbLine
 10
1375.8339638548305
 20
1320.92201189449
 30
0.0
 11
1394.8338138548306
 21
1320.92201189449
 31
0.0
  0
LINE
  5
26E
100
AcDbEntity
  8
FLN72-1701
370
              15
390
0
  6
Continuous
 62
               7
100
AcDbLine
 10
1363.9946638548308
 20
1363.9136618944901
 30
0.0
 11
1354.6715388548309
 21
1363.9136618944901
 31
0.0
  0
LINE
  5
26F
100
AcDbEntity
  8
FLN72-1701
370
              15
390
0
  6
Continuous
 62
               7
100
AcDbLine
 10
1354.6715388548309
 20
1350.6682618944903
 30
0.0
 11
1363.9946638548308
 21
1350.6682618944903
 31
0.0
  0
LINE
  5
270
100
AcDbEntity
  8
FLN72-1701
370
              15
390
0
  6
Continuous
 62
               7
100
AcDbLine
 10
1363.9946638548308
 20
1324.1759618944902
 30
0.0
 11
1354.6715388548309
 21
1324.1759618944902
 31
0.0
  0
LINE
  5
271
100
AcDbEntity
  8
FLN72-1701
370
              15
390
0
  6
Continuous
 62
               7
100
AcDbLine
 10
1354.6715388548309
 20
1310.9305618944904
 30
0.0
 11
1363.9946638548308
 21
1310.9305618944904
 31
0.0
  0
LINE
  5
272
100
AcDbEntity
  8
FLN72-1701
370
              15
390
0
  6
Continuous
 62
               7
100
AcDbLine
 10
1365.6715888548306
 20
1363.9136618944901
 30
0.0
 11
1374.9947138548305
 21
1363.9136618944901
 31
0.0
  0
LINE
  5
273
100
AcDbEntity
  8
FLN72-1701
370
              15
390
0
  6
Continuous
 62
               7
100
AcDbLine
 10
1374.9947138548305
 20
1350.6682618944903
 30
0.0
 11
1365.6715888548306
 21
1350.6682618944903
 31
0.0
  0
LINE
  5
274
100
AcDbEntity
  8
FLN72-1701
370
              15
390
0
  6
Continuous
 62
               7
100
AcDbLine
 10
1365.6715888548306
 20
1324.1759618944902
 30
0.0
 11
1374.9947138548305
 21
1324.1759618944902
 31
0.0
  0
LINE
  5
275
100
AcDbEntity
  8
FLN72-1701
370
              15
390
0
  6
Continuous
 62
               7
100
AcDbLine
 10
1374.9947138548305
 20
1310.9305618944904
 30
0.0
 11
1365.6715888548306
 21
1310.9305618944904
 31
0.0
  0
LINE
  5
276
100
AcDbEntity
  8
FLN72-1701
370
              15
390
0
  6
Continuous
 62
               7
100
AcDbLine
 10
1375.8339638548305
 20
1314.4797618944899
 30
0.0
 11
1375.8339638548305
 21
1360.3644618944907
 31
0.0
  0
LINE
  5
277
100
AcDbEntity
  8
FLN72-1701
370
              15
390
0
  6
Continuous
 62
               7
100
AcDbLine
 10
1364.8338888548305
 20
1314.4797618944899
 30
0.0
 11
1364.8338888548305
 21
1360.3644618944907
 31
0.0
  0
LINE
  5
278
100
AcDbEntity
  8
FLN72-1701
370
              15
390
0
  6
Continuous
 62
               7
100
AcDbLine
 10
1394.8338138548306
 20
1317.4224118944899
 30
0.0
 11
1394.8338138548306
 21
1357.4217868944904
 31
0.0
  0
LINE
  5
279
100
AcDbEntity
  8
FLN72-1701
370
              15
390
0
  6
Continuous
 62
               7
100
AcDbLine
 10
1394.8338138548306
 20
1317.4224118944899
 30
0.0
 11
1414.8335138548309
 21
1317.4224118944899
 31
0.0
  0
LINE
  5
27A
100
AcDbEntity
  8
FLN72-1701
370
              15
390
0
  6
Continuous
 62
               7
100
AcDbLine
 10
1394.8338138548306
 20
1357.4217868944904
 30
0.0
 11
1414.8335138548309
 21
1357.4217868944904
 31
0.0
  0
LINE
  5
27B
100
AcDbEntity
  8
FLN72-1701
370
              15
390
0
  6
Continuous
 62
               7
100
AcDbLine
 10
1414.8335138548309
 20
1317.4224118944899
 30
0.0
 11
1414.8335138548309
 21
1357.4217868944904
 31
0.0
  0
LINE
  5
27C
100
AcDbEntity
  8
FLN72-1701
370
              15
390
0
  6
Continuous
 62
               7
100
AcDbLine
 10
1356.8333388548308
 20
-1423.5820441055096
 30
0.0
 11
1330.8338888548305
 21
-1423.5820441055096
 31
0.0
  0
LINE
  5
27D
100
AcDbEntity
  8
FLN72-1701
370
              15
390
0
  6
Continuous
 62
               7
100
AcDbLine
 10
1356.8333388548308
 20
-1390.5818441055096
 30
0.0
 11
1330.8338888548305
 21
-1390.5818441055096
 31
0.0
  0
LINE
  5
27E
100
AcDbEntity
  8
FLN72-1701
370
              15
390
0
  6
Continuous
 62
               7
100
AcDbLine
 10
1380.8338888548305
 20
-1390.5818441055096
 30
0.0
 11
1394.8338138548306
 21
-1390.5818441055096
 31
0.0
  0
LINE
  5
27F
100
AcDbEntity
  8
FLN72-1701
370
              15
390
0
  6
Continuous
 62
               7
100
AcDbLine
 10
1172.3759388548306
 20
-477.13121910550967
 30
0.0
 11
1218.5322388548311
 21
-499.20459410550961
 31
0.0
  0
LINE
  5
280
100
AcDbEntity
  8
FLN72-1701
370
              15
390
0
  6
Continuous
 62
               7
100
AcDbLine
 10
1171.0270638548309
 20
-479.46964410550959
 30
0.0
 11
1217.3664638548307
 21
-501.64066910550969
 31
0.0
  0
LINE
  5
281
100
AcDbEntity
  8
FLN72-1701
370
              15
390
0
  6
Continuous
 62
               7
100
AcDbLine
 10
1221.2299888548305
 20
-494.71239410550947
 30
0.0
 11
1218.230113854831
 21
-489.51601910550949
 31
0.0
  0
LINE
  5
282
100
AcDbEntity
  8
FLN72-1701
370
              15
390
0
  6
Continuous
 62
               7
100
AcDbLine
 10
1211.6993638548311
 20
-493.2879941055096
 30
0.0
 11
1218.230113854831
 21
-489.51601910550949
 31
0.0
  0
LINE
  5
283
100
AcDbEntity
  8
FLN72-1701
370
              15
390
0
  6
Continuous
 62
               7
100
AcDbLine
 10
1215.7520888548306
 20
-497.87554410550956
 30
0.0
 11
1221.2299888548305
 21
-494.71239410550947
 31
0.0
  0
LINE
  5
284
100
AcDbEntity
  8
FLN72-1701
370
              15
390
0
  6
Continuous
 62
               7
100
AcDbLine
 10
1228.833438854831
 20
-510.08181910550957
 30
0.0
 11
1228.833438854831
 21
-504.08206910550962
 31
0.0
  0
LINE
  5
285
100
AcDbEntity
  8
FLN72-1701
370
              15
390
0
  6
Continuous
 62
               7
100
AcDbLine
 10
1216.1991638548307
 20
-504.08206910550962
 30
0.0
 11
1238.8340638548307
 21
-504.08206910550962
 31
0.0
  0
LINE
  5
286
100
AcDbEntity
  8
FLN72-1701
370
              15
390
0
  6
Continuous
 62
               7
100
AcDbLine
 10
1216.1991638548307
 20
-510.08181910550957
 30
0.0
 11
1238.8340638548307
 21
-510.08181910550957
 31
0.0
  0
LINE
  5
287
100
AcDbEntity
  8
FLN72-1701
370
              15
390
0
  6
Continuous
 62
               7
100
AcDbLine
 10
1233.8337638548301
 20
-517.08179410550952
 30
0.0
 11
1238.8340638548307
 21
-517.08179410550952
 31
0.0
  0
LINE
  5
288
100
AcDbEntity
  8
FLN72-1701
370
              15
390
0
  6
Continuous
 62
               7
100
AcDbLine
 10
1233.8337638548301
 20
-517.08179410550952
 30
0.0
 11
1233.8337638548301
 21
-634.49816910550953
 31
0.0
  0
LINE
  5
289
100
AcDbEntity
  8
FLN72-1701
370
              15
390
0
  6
Continuous
 62
               7
100
AcDbLine
 10
994.8811138548308
 20
-1442.6631441055094
 30
0.0
 11
1006.4488138548304
 21
-1441.3074191055096
 31
0.0
  0
LINE
  5
28A
100
AcDbEntity
  8
FLN72-1701
370
              15
390
0
  6
Continuous
 62
               7
100
AcDbLine
 10
994.82771385483011
 20
-1445.6897191055098
 30
0.0
 11
1006.7982388548307
 21
-1444.2866941055097
 31
0.0
  0
LINE
  5
28B
100
AcDbEntity
  8
FLN72-1701
370
              15
390
0
  6
Continuous
 62
               7
100
AcDbLine
 10
1323.8335138548309
 20
1767.4315618944909
 30
0.0
 11
1323.8335138548309
 21
1367.4315618944909
 31
0.0
  0
LINE
  5
28C
100
AcDbEntity
  8
FLN72-1701
370
              15
390
0
  6
Continuous
 62
               7
100
AcDbLine
 10
1353.833438854831
 20
1767.4315618944909
 30
0.0
 11
1353.833438854831
 21
1367.4315618944909
 31
0.0
  0
LINE
  5
28D
100
AcDbEntity
  8
FLN72-1701
370
              15
390
0
  6
Continuous
 62
               7
100
AcDbLine
 10
1235.8334138548307
 20
1769.4319868944901
 30
0.0
 11
1235.8334138548307
 21
1825.4317368944901
 31
0.0
  0
LINE
  5
28E
100
AcDbEntity
  8
FLN72-1701
370
              15
390
0
  6
Continuous
 62
               7
100
AcDbLine
 10
1261.8336388548305
 20
1769.4319868944901
 30
0.0
 11
1235.8334138548307
 21
1769.4319868944901
 31
0.0
  0
LINE
  5
28F
100
AcDbEntity
  8
FLN72-1701
370
              15
390
0
  6
Continuous
 62
               7
100
AcDbLine
 10
1261.8336388548305
 20
1825.4317368944901
 30
0.0
 11
1261.8336388548305
 21
1769.4319868944901
 31
0.0
  0
LINE
  5
290
100
AcDbEntity
  8
FLN72-1701
370
              15
390
0
  6
Continuous
 62
               7
100
AcDbLine
 10
1235.8334138548307
 20
1825.4317368944901
 30
0.0
 11
1261.8336388548305
 21
1825.4317368944901
 31
0.0
  0
LINE
  5
291
100
AcDbEntity
  8
FLN72-1701
370
              15
390
0
  6
Continuous
 62
               7
100
AcDbLine
 10
1233.8333638548311
 20
1769.4319868944901
 30
0.0
 11
1233.8333638548311
 21
1825.4317368944901
 31
0.0
  0
LINE
  5
292
100
AcDbEntity
  8
FLN72-1701
370
              15
390
0
  6
Continuous
 62
               7
100
AcDbLine
 10
1261.8336388548305
 20
1767.4315618944909
 30
0.0
 11
1235.8334138548307
 21
1767.4315618944909
 31
0.0
  0
LINE
  5
293
100
AcDbEntity
  8
FLN72-1701
370
              15
390
0
  6
Continuous
 62
               7
100
AcDbLine
 10
1263.8332888548312
 20
1825.4317368944901
 30
0.0
 11
1263.8332888548312
 21
1769.4319868944901
 31
0.0
  0
LINE
  5
294
100
AcDbEntity
  8
FLN72-1701
370
              15
390
0
  6
Continuous
 62
               7
100
AcDbLine
 10
1235.8334138548307
 20
1827.4321868944905
 30
0.0
 11
1261.8336388548305
 21
1827.4321868944905
 31
0.0
  0
LINE
  5
295
100
AcDbEntity
  8
FLN72-1701
370
              15
390
0
  6
Continuous
 62
               7
100
AcDbLine
 10
1265.8333388548308
 20
1784.4313868944907
 30
0.0
 11
1321.8334888548306
 21
1784.4313868944907
 31
0.0
  0
LINE
  5
296
100
AcDbEntity
  8
FLN72-1701
370
              15
390
0
  6
Continuous
 62
               7
100
AcDbLine
 10
1265.8333388548308
 20
1810.4323618944907
 30
0.0
 11
1265.8333388548308
 21
1784.4313868944907
 31
0.0
  0
LINE
  5
297
100
AcDbEntity
  8
FLN72-1701
370
              15
390
0
  6
Continuous
 62
               7
100
AcDbLine
 10
1321.8334888548306
 20
1810.4323618944907
 30
0.0
 11
1265.8333388548308
 21
1810.4323618944907
 31
0.0
  0
LINE
  5
298
100
AcDbEntity
  8
FLN72-1701
370
              15
390
0
  6
Continuous
 62
               7
100
AcDbLine
 10
1321.8334888548306
 20
1784.4313868944907
 30
0.0
 11
1321.8334888548306
 21
1810.4323618944907
 31
0.0
  0
LINE
  5
299
100
AcDbEntity
  8
FLN72-1701
370
              15
390
0
  6
Continuous
 62
               7
100
AcDbLine
 10
1265.8333388548308
 20
1782.4324868944902
 30
0.0
 11
1321.8334888548306
 21
1782.4324868944902
 31
0.0
  0
LINE
  5
29A
100
AcDbEntity
  8
FLN72-1701
370
              15
390
0
  6
Continuous
 62
               7
100
AcDbLine
 10
1321.8334888548306
 20
1812.4327868944908
 30
0.0
 11
1265.8333388548308
 21
1812.4327868944908
 31
0.0
  0
LINE
  5
29B
100
AcDbEntity
  8
FLN72-1701
370
              15
390
0
  6
Continuous
 62
               7
100
AcDbLine
 10
1351.8334138548307
 20
1769.4319868944901
 30
0.0
 11
1351.8334138548307
 21
1825.4317368944901
 31
0.0
  0
LINE
  5
29C
100
AcDbEntity
  8
FLN72-1701
370
              15
390
0
  6
Continuous
 62
               7
100
AcDbLine
 10
1325.8335638548306
 20
1769.4319868944901
 30
0.0
 11
1351.8334138548307
 21
1769.4319868944901
 31
0.0
  0
LINE
  5
29D
100
AcDbEntity
  8
FLN72-1701
370
              15
390
0
  6
Continuous
 62
               7
100
AcDbLine
 10
1325.8335638548306
 20
1825.4317368944901
 30
0.0
 11
1325.8335638548306
 21
1769.4319868944901
 31
0.0
  0
LINE
  5
29E
100
AcDbEntity
  8
FLN72-1701
370
              15
390
0
  6
Continuous
 62
               7
100
AcDbLine
 10
1351.8334138548307
 20
1825.4317368944901
 30
0.0
 11
1325.8335638548306
 21
1825.4317368944901
 31
0.0
  0
LINE
  5
29F
100
AcDbEntity
  8
FLN72-1701
370
              15
390
0
  6
Continuous
 62
               7
100
AcDbLine
 10
1353.833438854831
 20
1769.4319868944901
 30
0.0
 11
1353.833438854831
 21
1825.4317368944901
 31
0.0
  0
LINE
  5
2A0
100
AcDbEntity
  8
FLN72-1701
370
              15
390
0
  6
Continuous
 62
               7
100
AcDbLine
 10
1323.8335138548309
 20
1767.4315618944909
 30
0.0
 11
1353.833438854831
 21
1767.4315618944909
 31
0.0
  0
LINE
  5
2A1
100
AcDbEntity
  8
FLN72-1701
370
              15
390
0
  6
Continuous
 62
               7
100
AcDbLine
 10
1323.8335138548309
 20
1825.4317368944901
 30
0.0
 11
1323.8335138548309
 21
1769.4319868944901
 31
0.0
  0
LINE
  5
2A2
100
AcDbEntity
  8
FLN72-1701
370
              15
390
0
  6
Continuous
 62
               7
100
AcDbLine
 10
1351.8334138548307
 20
1827.4321868944905
 30
0.0
 11
1325.8335638548306
 21
1827.4321868944905
 31
0.0
  0
LINE
  5
2A3
100
AcDbEntity
  8
FLN72-1701
370
              15
390
0
  6
Continuous
 62
               7
100
AcDbLine
 10
1235.8334138548307
 20
1365.4326618944904
 30
0.0
 11
1235.8334138548307
 21
1309.4313868944905
 31
0.0
  0
LINE
  5
2A4
100
AcDbEntity
  8
FLN72-1701
370
              15
390
0
  6
Continuous
 62
               7
100
AcDbLine
 10
1261.8336388548305
 20
1365.4326618944904
 30
0.0
 11
1235.8334138548307
 21
1365.4326618944904
 31
0.0
  0
LINE
  5
2A5
100
AcDbEntity
  8
FLN72-1701
370
              15
390
0
  6
Continuous
 62
               7
100
AcDbLine
 10
1261.8336388548305
 20
1309.4313868944905
 30
0.0
 11
1261.8336388548305
 21
1365.4326618944904
 31
0.0
  0
LINE
  5
2A6
100
AcDbEntity
  8
FLN72-1701
370
              15
390
0
  6
Continuous
 62
               7
100
AcDbLine
 10
1235.8334138548307
 20
1309.4313868944905
 30
0.0
 11
1261.8336388548305
 21
1309.4313868944905
 31
0.0
  0
LINE
  5
2A7
100
AcDbEntity
  8
FLN72-1701
370
              15
390
0
  6
Continuous
 62
               7
100
AcDbLine
 10
1233.8333638548311
 20
1365.4326618944904
 30
0.0
 11
1233.8333638548311
 21
1309.4313868944905
 31
0.0
  0
LINE
  5
2A8
100
AcDbEntity
  8
FLN72-1701
370
              15
390
0
  6
Continuous
 62
               7
100
AcDbLine
 10
1261.8336388548305
 20
1367.4315618944909
 30
0.0
 11
1235.8334138548307
 21
1367.4315618944909
 31
0.0
  0
LINE
  5
2A9
100
AcDbEntity
  8
FLN72-1701
370
              15
390
0
  6
Continuous
 62
               7
100
AcDbLine
 10
1263.8332888548312
 20
1309.4313868944905
 30
0.0
 11
1263.8332888548312
 21
1365.4326618944904
 31
0.0
  0
LINE
  5
2AA
100
AcDbEntity
  8
FLN72-1701
370
              15
390
0
  6
Continuous
 62
               7
100
AcDbLine
 10
1235.8334138548307
 20
1307.43248689449
 30
0.0
 11
1261.8336388548305
 21
1307.43248689449
 31
0.0
  0
LINE
  5
2AB
100
AcDbEntity
  8
FLN72-1701
370
              15
390
0
  6
Continuous
 62
               7
100
AcDbLine
 10
1265.8333388548308
 20
1350.4317368944901
 30
0.0
 11
1321.8334888548306
 21
1350.4317368944901
 31
0.0
  0
LINE
  5
2AC
100
AcDbEntity
  8
FLN72-1701
370
              15
390
0
  6
Continuous
 62
               7
100
AcDbLine
 10
1265.8333388548308
 20
1324.4322868944905
 30
0.0
 11
1265.8333388548308
 21
1350.4317368944901
 31
0.0
  0
LINE
  5
2AD
100
AcDbEntity
  8
FLN72-1701
370
              15
390
0
  6
Continuous
 62
               7
100
AcDbLine
 10
1321.8334888548306
 20
1324.4322868944905
 30
0.0
 11
1265.8333388548308
 21
1324.4322868944905
 31
0.0
  0
LINE
  5
2AE
100
AcDbEntity
  8
FLN72-1701
370
              15
390
0
  6
Continuous
 62
               7
100
AcDbLine
 10
1321.8334888548306
 20
1350.4317368944901
 30
0.0
 11
1321.8334888548306
 21
1324.4322868944905
 31
0.0
  0
LINE
  5
2AF
100
AcDbEntity
  8
FLN72-1701
370
              15
390
0
  6
Continuous
 62
               7
100
AcDbLine
 10
1265.8333388548308
 20
1352.4321868944905
 30
0.0
 11
1321.8334888548306
 21
1352.4321868944905
 31
0.0
  0
LINE
  5
2B0
100
AcDbEntity
  8
FLN72-1701
370
              15
390
0
  6
Continuous
 62
               7
100
AcDbLine
 10
1321.8334888548306
 20
1322.4318618944903
 30
0.0
 11
1265.8333388548308
 21
1322.4318618944903
 31
0.0
  0
LINE
  5
2B1
100
AcDbEntity
  8
FLN72-1701
370
              15
390
0
  6
Continuous
 62
               7
100
AcDbLine
 10
1351.8334138548307
 20
1365.4326618944904
 30
0.0
 11
1351.8334138548307
 21
1309.4313868944905
 31
0.0
  0
LINE
  5
2B2
100
AcDbEntity
  8
FLN72-1701
370
              15
390
0
  6
Continuous
 62
               7
100
AcDbLine
 10
1325.8335638548306
 20
1365.4326618944904
 30
0.0
 11
1351.8334138548307
 21
1365.4326618944904
 31
0.0
  0
LINE
  5
2B3
100
AcDbEntity
  8
FLN72-1701
370
              15
390
0
  6
Continuous
 62
               7
100
AcDbLine
 10
1325.8335638548306
 20
1309.4313868944905
 30
0.0
 11
1325.8335638548306
 21
1365.4326618944904
 31
0.0
  0
LINE
  5
2B4
100
AcDbEntity
  8
FLN72-1701
370
              15
390
0
  6
Continuous
 62
               7
100
AcDbLine
 10
1351.8334138548307
 20
1309.4313868944905
 30
0.0
 11
1325.8335638548306
 21
1309.4313868944905
 31
0.0
  0
LINE
  5
2B5
100
AcDbEntity
  8
FLN72-1701
370
              15
390
0
  6
Continuous
 62
               7
100
AcDbLine
 10
1353.833438854831
 20
1365.4326618944904
 30
0.0
 11
1353.833438854831
 21
1309.4313868944905
 31
0.0
  0
LINE
  5
2B6
100
AcDbEntity
  8
FLN72-1701
370
              15
390
0
  6
Continuous
 62
               7
100
AcDbLine
 10
1323.8335138548309
 20
1367.4315618944909
 30
0.0
 11
1353.833438854831
 21
1367.4315618944909
 31
0.0
  0
LINE
  5
2B7
100
AcDbEntity
  8
FLN72-1701
370
              15
390
0
  6
Continuous
 62
               7
100
AcDbLine
 10
1323.8335138548309
 20
1309.4313868944905
 30
0.0
 11
1323.8335138548309
 21
1365.4326618944904
 31
0.0
  0
LINE
  5
2B8
100
AcDbEntity
  8
FLN72-1701
370
              15
390
0
  6
Continuous
 62
               7
100
AcDbLine
 10
1351.8334138548307
 20
1307.43248689449
 30
0.0
 11
1325.8335638548306
 21
1307.43248689449
 31
0.0
  0
LINE
  5
2B9
100
AcDbEntity
  8
FLN72-1701
370
              15
390
0
  6
Continuous
 62
               7
100
AcDbLine
 10
1268.8328388548307
 20
-917.08179410550963
 30
0.0
 11
1328.833438854831
 21
-917.08179410550963
 31
0.0
  0
LINE
  5
2BA
100
AcDbEntity
  8
FLN72-1701
370
              15
390
0
  6
Continuous
 62
               7
100
AcDbLine
 10
1268.8328388548307
 20
-637.08224410550963
 30
0.0
 11
1328.833438854831
 21
-637.08224410550963
 31
0.0
  0
LINE
  5
2BB
100
AcDbEntity
  8
FLN72-1701
370
              15
390
0
  6
Continuous
 62
               7
100
AcDbLine
 10
1328.833438854831
 20
-577.08164410550955
 30
0.0
 11
1328.833438854831
 21
-1438.2365691055095
 31
0.0
  0
LINE
  5
2BC
100
AcDbEntity
  8
FLN72-1701
370
              15
390
0
  6
Continuous
 62
               7
100
AcDbLine
 10
1358.833763854831
 20
-577.08164410550955
 30
0.0
 11
1358.833763854831
 21
-1438.2365691055095
 31
0.0
  0
LINE
  5
2BD
100
AcDbEntity
  8
FLN72-1701
370
              15
390
0
  6
Continuous
 62
               7
100
AcDbLine
 10
1355.8338888548305
 20
-855.08226910550957
 30
0.0
 11
1331.8333388548308
 21
-855.08226910550957
 31
0.0
  0
LINE
  5
2BE
100
AcDbEntity
  8
FLN72-1701
370
              15
390
0
  6
Continuous
 62
               7
100
AcDbLine
 10
1356.834088854831
 20
-800.08196910550953
 30
0.0
 11
1356.8333388548308
 21
-854.08206910550962
 31
0.0
  0
LINE
  5
2BF
100
AcDbEntity
  8
FLN72-1701
370
              15
390
0
  6
Continuous
 62
               7
100
AcDbLine
 10
1331.8333388548308
 20
-799.08176910550958
 30
0.0
 11
1355.8338888548305
 21
-799.08176910550958
 31
0.0
  0
LINE
  5
2C0
100
AcDbEntity
  8
FLN72-1701
370
              15
390
0
  6
Continuous
 62
               7
100
AcDbLine
 10
1330.8334888548306
 20
-854.08206910550962
 30
0.0
 11
1330.8338888548305
 21
-800.08196910550953
 31
0.0
  0
LINE
  5
2C1
100
AcDbEntity
  8
FLN72-1701
370
              15
390
0
  6
Continuous
 62
               7
100
AcDbLine
 10
1355.8338888548305
 20
-857.08194410550959
 30
0.0
 11
1331.8333388548308
 21
-857.08194410550959
 31
0.0
  0
LINE
  5
2C2
100
AcDbEntity
  8
FLN72-1701
370
              15
390
0
  6
Continuous
 62
               7
100
AcDbLine
 10
1331.8333388548308
 20
-797.08209410550955
 30
0.0
 11
1355.8338888548305
 21
-797.08209410550955
 31
0.0
  0
LINE
  5
2C3
100
AcDbEntity
  8
FLN72-1701
370
              15
390
0
  6
Continuous
 62
               7
100
AcDbLine
 10
1356.834088854831
 20
-1380.0815191055096
 30
0.0
 11
1356.8333388548308
 21
-1434.0823691055095
 31
0.0
  0
LINE
  5
2C4
100
AcDbEntity
  8
FLN72-1701
370
              15
390
0
  6
Continuous
 62
               7
100
AcDbLine
 10
1331.8333388548308
 20
-1379.0812941055094
 30
0.0
 11
1355.8338888548305
 21
-1379.0820691055098
 31
0.0
  0
LINE
  5
2C5
100
AcDbEntity
  8
FLN72-1701
370
              15
390
0
  6
Continuous
 62
               7
100
AcDbLine
 10
1330.8334888548306
 20
-1434.0823691055095
 30
0.0
 11
1330.8338888548305
 21
-1380.0815191055096
 31
0.0
  0
LINE
  5
2C6
100
AcDbEntity
  8
FLN72-1701
370
              15
390
0
  6
Continuous
 62
               7
100
AcDbLine
 10
1355.8338888548305
 20
-1435.0818191055098
 30
0.0
 11
1331.8333388548308
 21
-1435.0818191055098
 31
0.0
  0
LINE
  5
2C7
100
AcDbEntity
  8
FLN72-1701
370
              15
390
0
  6
Continuous
 62
               7
100
AcDbLine
 10
1331.8333388548308
 20
-1377.0816441055097
 30
0.0
 11
1355.8338888548305
 21
-1377.0816441055097
 31
0.0
  0
LINE
  5
2C8
100
AcDbEntity
  8
FLN72-1701
370
              15
390
0
  6
Continuous
 62
               7
100
AcDbLine
 10
1374.3336388548305
 20
-1420.3280941055098
 30
0.0
 11
1379.9946388548306
 21
-1420.3280941055098
 31
0.0
  0
LINE
  5
2C9
100
AcDbEntity
  8
FLN72-1701
370
              15
390
0
  6
Continuous
 62
               7
100
AcDbLine
 10
1369.8338138548306
 20
-1412.0822441055095
 30
0.0
 11
1369.8338138548306
 21
-1384.1395941055096
 31
0.0
  0
LINE
  5
2CA
100
AcDbEntity
  8
FLN72-1701
370
              15
390
0
  6
Continuous
 62
               7
100
AcDbLine
 10
1368.9945888548309
 20
-1380.5903941055096
 30
0.0
 11
1359.671463854831
 21
-1380.5903941055096
 31
0.0
  0
LINE
  5
2CB
100
AcDbEntity
  8
FLN72-1701
370
              15
390
0
  6
Continuous
 62
               7
100
AcDbLine
 10
1359.671463854831
 20
-1393.8357941055094
 30
0.0
 11
1368.9945888548309
 21
-1393.8357941055094
 31
0.0
  0
LINE
  5
2CC
100
AcDbEntity
  8
FLN72-1701
370
              15
390
0
  6
Continuous
 62
               7
100
AcDbLine
 10
1370.6715138548307
 20
-1380.5903941055096
 30
0.0
 11
1379.9946388548306
 21
-1380.5903941055096
 31
0.0
  0
LINE
  5
2CD
100
AcDbEntity
  8
FLN72-1701
370
              15
390
0
  6
Continuous
 62
               7
100
AcDbLine
 10
1379.9946388548306
 20
-1393.8357941055094
 30
0.0
 11
1370.6715138548307
 21
-1393.8357941055094
 31
0.0
  0
LINE
  5
2CE
100
AcDbEntity
  8
FLN72-1701
370
              15
390
0
  6
Continuous
 62
               7
100
AcDbLine
 10
1379.9946388548306
 20
-1433.5734941055096
 30
0.0
 11
1370.6715138548307
 21
-1433.5734941055096
 31
0.0
  0
LINE
  5
2CF
100
AcDbEntity
  8
FLN72-1701
370
              15
390
0
  6
Continuous
 62
               7
100
AcDbLine
 10
1380.8338888548305
 20
-1430.0242941055096
 30
0.0
 11
1380.8338888548305
 21
-1384.1395941055096
 31
0.0
  0
LINE
  5
2D0
100
AcDbEntity
  8
FLN72-1701
370
              15
390
0
  6
Continuous
 62
               7
100
AcDbLine
 10
1380.8338888548305
 20
-1423.5820441055096
 30
0.0
 11
1394.8338138548306
 21
-1423.5820441055096
 31
0.0
  0
LINE
  5
2D1
100
AcDbEntity
  8
FLN72-1701
370
              15
390
0
  6
Continuous
 62
               7
100
AcDbLine
 10
1294.8338138548306
 20
-1412.0822441055095
 30
0.0
 11
1294.8338138548306
 21
-1390.5818441055096
 31
0.0
  0
LINE
  5
2D2
100
AcDbEntity
  8
FLN72-1701
370
              15
390
0
  6
Continuous
 62
               7
100
AcDbLine
 10
1380.8338888548305
 20
-590.58184410550962
 30
0.0
 11
1394.8338138548306
 21
-590.58184410550962
 31
0.0
  0
LINE
  5
2D3
100
AcDbEntity
  8
FLN72-1701
370
              15
390
0
  6
Continuous
 62
               7
100
AcDbLine
 10
1380.8338888548305
 20
-623.58204410550957
 30
0.0
 11
1394.8338138548306
 21
-623.58204410550957
 31
0.0
  0
LINE
  5
2D4
100
AcDbEntity
  8
FLN72-1701
370
              15
390
0
  6
Continuous
 62
               7
100
AcDbLine
 10
1394.8338138548306
 20
-1427.0816441055097
 30
0.0
 11
1394.8338138548306
 21
-1387.0822441055095
 31
0.0
  0
LINE
  5
2D5
100
AcDbEntity
  8
FLN72-1701
370
              15
390
0
  6
Continuous
 62
               7
100
AcDbLine
 10
1394.8338138548306
 20
-1427.0816441055097
 30
0.0
 11
1414.8335138548309
 21
-1427.0816441055097
 31
0.0
  0
LINE
  5
2D6
100
AcDbEntity
  8
FLN72-1701
370
              15
390
0
  6
Continuous
 62
               7
100
AcDbLine
 10
1394.8338138548306
 20
-1387.0822441055095
 30
0.0
 11
1414.8335138548309
 21
-1387.0822441055095
 31
0.0
  0
LINE
  5
2D7
100
AcDbEntity
  8
FLN72-1701
370
              15
390
0
  6
Continuous
 62
               7
100
AcDbLine
 10
1414.8335138548309
 20
-1427.0816441055097
 30
0.0
 11
1414.8335138548309
 21
-1387.0822441055095
 31
0.0
  0
LINE
  5
2D8
100
AcDbEntity
  8
FLN72-1701
370
              15
390
0
  6
Continuous
 62
               7
100
AcDbLine
 10
1294.8338138548306
 20
-1390.5818441055096
 30
0.0
 11
1328.833438854831
 21
-1390.5818441055096
 31
0.0
  0
LINE
  5
2D9
100
AcDbEntity
  8
FLN72-1701
370
              15
390
0
  6
Continuous
 62
               7
100
AcDbLine
 10
1368.9945888548309
 20
-580.59039410550963
 30
0.0
 11
1359.671463854831
 21
-580.59039410550963
 31
0.0
  0
LINE
  5
2DA
100
AcDbEntity
  8
FLN72-1701
370
              15
390
0
  6
Continuous
 62
               7
100
AcDbLine
 10
1359.671463854831
 20
-593.83579410550954
 30
0.0
 11
1368.9945888548309
 21
-593.83579410550954
 31
0.0
  0
LINE
  5
2DB
100
AcDbEntity
  8
FLN72-1701
370
              15
390
0
  6
Continuous
 62
               7
100
AcDbLine
 10
1368.9945888548309
 20
-620.32809410550954
 30
0.0
 11
1359.671463854831
 21
-620.32809410550954
 31
0.0
  0
LINE
  5
2DC
100
AcDbEntity
  8
FLN72-1701
370
              15
390
0
  6
Continuous
 62
               7
100
AcDbLine
 10
1359.671463854831
 20
-633.57349410550955
 30
0.0
 11
1368.9945888548309
 21
-633.57349410550955
 31
0.0
  0
LINE
  5
2DD
100
AcDbEntity
  8
FLN72-1701
370
              15
390
0
  6
Continuous
 62
               7
100
AcDbLine
 10
1370.6715138548307
 20
-580.59039410550963
 30
0.0
 11
1379.9946388548306
 21
-580.59039410550963
 31
0.0
  0
LINE
  5
2DE
100
AcDbEntity
  8
FLN72-1701
370
              15
390
0
  6
Continuous
 62
               7
100
AcDbLine
 10
1379.9946388548306
 20
-593.83579410550954
 30
0.0
 11
1370.6715138548307
 21
-593.83579410550954
 31
0.0
  0
LINE
  5
2DF
100
AcDbEntity
  8
FLN72-1701
370
              15
390
0
  6
Continuous
 62
               7
100
AcDbLine
 10
1370.6715138548307
 20
-620.32809410550954
 30
0.0
 11
1379.9946388548306
 21
-620.32809410550954
 31
0.0
  0
LINE
  5
2E0
100
AcDbEntity
  8
FLN72-1701
370
              15
390
0
  6
Continuous
 62
               7
100
AcDbLine
 10
1379.9946388548306
 20
-633.57349410550955
 30
0.0
 11
1370.6715138548307
 21
-633.57349410550955
 31
0.0
  0
LINE
  5
2E1
100
AcDbEntity
  8
FLN72-1701
370
              15
390
0
  6
Continuous
 62
               7
100
AcDbLine
 10
1380.8338888548305
 20
-630.02429410550963
 30
0.0
 11
1380.8338888548305
 21
-584.13959410550956
 31
0.0
  0
LINE
  5
2E2
100
AcDbEntity
  8
FLN72-1701
370
              15
390
0
  6
Continuous
 62
               7
100
AcDbLine
 10
1369.8338138548306
 20
-630.02429410550963
 30
0.0
 11
1369.8338138548306
 21
-584.13959410550956
 31
0.0
  0
LINE
  5
2E3
100
AcDbEntity
  8
FLN72-1701
370
              15
390
0
  6
Continuous
 62
               7
100
AcDbLine
 10
1394.8338138548306
 20
-627.08164410550955
 30
0.0
 11
1394.8338138548306
 21
-587.08224410550963
 31
0.0
  0
LINE
  5
2E4
100
AcDbEntity
  8
FLN72-1701
370
              15
390
0
  6
Continuous
 62
               7
100
AcDbLine
 10
1394.8338138548306
 20
-627.08164410550955
 30
0.0
 11
1414.8335138548309
 21
-627.08164410550955
 31
0.0
  0
LINE
  5
2E5
100
AcDbEntity
  8
FLN72-1701
370
              15
390
0
  6
Continuous
 62
               7
100
AcDbLine
 10
1394.8338138548306
 20
-587.08224410550963
 30
0.0
 11
1414.8335138548309
 21
-587.08224410550963
 31
0.0
  0
LINE
  5
2E6
100
AcDbEntity
  8
FLN72-1701
370
              15
390
0
  6
Continuous
 62
               7
100
AcDbLine
 10
1414.8335138548309
 20
-627.08164410550955
 30
0.0
 11
1414.8335138548309
 21
-587.08224410550963
 31
0.0
  0
LINE
  5
2E7
100
AcDbEntity
  8
FLN72-1701
370
              15
390
0
  6
Continuous
 62
               7
100
AcDbLine
 10
1294.8338138548306
 20
-623.58204410550957
 30
0.0
 11
1294.8338138548306
 21
-590.58184410550962
 31
0.0
  0
LINE
  5
2E8
100
AcDbEntity
  8
FLN72-1701
370
              15
390
0
  6
Continuous
 62
               7
100
AcDbLine
 10
1294.8338138548306
 20
-623.58204410550957
 30
0.0
 11
1328.833438854831
 21
-623.58204410550957
 31
0.0
  0
LINE
  5
2E9
100
AcDbEntity
  8
FLN72-1701
370
              15
390
0
  6
Continuous
 62
               7
100
AcDbLine
 10
1294.8338138548306
 20
-590.58184410550962
 30
0.0
 11
1328.833438854831
 21
-590.58184410550962
 31
0.0
  0
LINE
  5
2EA
100
AcDbEntity
  8
FLN72-1701
370
              15
390
0
  6
Continuous
 62
               7
100
AcDbLine
 10
1238.8340638548307
 20
-497.08209410550967
 30
0.0
 11
1238.8340638548307
 21
-659.9917941055096
 31
0.0
  0
LINE
  5
2EB
100
AcDbEntity
  8
FLN72-1701
370
              15
390
0
  6
Continuous
 62
               7
100
AcDbLine
 10
1374.3336388548305
 20
-1430.5819941055095
 30
0.0
 11
1374.3336388548305
 21
-1413.5821941055094
 31
0.0
  0
LINE
  5
2EC
100
AcDbEntity
  8
FLN72-1701
370
              15
390
0
  6
Continuous
 62
               7
100
AcDbLine
 10
1366.8339388548311
 20
-1412.0822441055095
 30
0.0
 11
1372.8336888548311
 21
-1412.0822441055095
 31
0.0
  0
LINE
  5
2ED
100
AcDbEntity
  8
FLN72-1701
370
              15
390
0
  6
Continuous
 62
               7
100
AcDbLine
 10
1366.8339388548311
 20
-1432.0819441055098
 30
0.0
 11
1372.8336888548311
 21
-1432.0819441055098
 31
0.0
  0
LINE
  5
2EE
100
AcDbEntity
  8
FLN72-1701
370
              15
390
0
  6
Continuous
 62
               7
100
AcDbLine
 10
1365.6406888548308
 20
-1412.8444191055098
 30
0.0
 11
1360.0254638548313
 21
-1412.8444191055098
 31
0.0
  0
LINE
  5
2EF
100
AcDbEntity
  8
FLN72-1701
370
              15
390
0
  6
Continuous
 62
               7
100
AcDbLine
 10
1365.6406888548308
 20
-1403.6067441055095
 30
0.0
 11
1360.0254638548313
 21
-1403.6067441055095
 31
0.0
  0
LINE
  5
2F0
100
AcDbEntity
  8
FLN72-1701
370
              15
390
0
  6
Continuous
 62
               7
100
AcDbLine
 10
1366.8339388548311
 20
-1405.9268441055094
 30
0.0
 11
1366.8339388548311
 21
-1438.2365691055095
 31
0.0
  0
LINE
  5
2F1
100
AcDbEntity
  8
FLN72-1701
370
              15
390
0
  6
Continuous
 62
               7
100
AcDbLine
 10
1365.6406888548308
 20
-1431.3189941055095
 30
0.0
 11
1360.0254638548313
 21
-1431.3189941055095
 31
0.0
  0
LINE
  5
2F2
100
AcDbEntity
  8
FLN72-1701
370
              15
390
0
  6
Continuous
 62
               7
100
AcDbLine
 10
1365.6406888548308
 20
-1440.5566691055099
 30
0.0
 11
1360.0254638548313
 21
-1440.5566691055099
 31
0.0
  0
LINE
  5
2F3
100
AcDbEntity
  8
FLN72-1701
370
              15
390
0
  6
Continuous
 62
               7
100
AcDbLine
 10
1327.6417388548307
 20
-1412.8444191055098
 30
0.0
 11
1322.0249888548306
 21
-1412.8444191055098
 31
0.0
  0
LINE
  5
2F4
100
AcDbEntity
  8
FLN72-1701
370
              15
390
0
  6
Continuous
 62
               7
100
AcDbLine
 10
1327.6417388548307
 20
-1403.6067441055095
 30
0.0
 11
1322.0249888548306
 21
-1403.6067441055095
 31
0.0
  0
LINE
  5
2F5
100
AcDbEntity
  8
FLN72-1701
370
              15
390
0
  6
Continuous
 62
               7
100
AcDbLine
 10
1320.83326385483
 20
-1405.9268441055094
 30
0.0
 11
1320.83326385483
 21
-1438.2365691055095
 31
0.0
  0
LINE
  5
2F6
100
AcDbEntity
  8
FLN72-1701
370
              15
390
0
  6
Continuous
 62
               7
100
AcDbLine
 10
1327.6417388548307
 20
-1431.3189941055095
 30
0.0
 11
1322.0249888548306
 21
-1431.3189941055095
 31
0.0
  0
LINE
  5
2F7
100
AcDbEntity
  8
FLN72-1701
370
              15
390
0
  6
Continuous
 62
               7
100
AcDbLine
 10
1327.6417388548307
 20
-1440.5566691055099
 30
0.0
 11
1322.0249888548306
 21
-1440.5566691055099
 31
0.0
  0
LINE
  5
2F8
100
AcDbEntity
  8
FLN72-1701
370
              15
390
0
  6
Continuous
 62
               7
100
AcDbLine
 10
1021.3169638548306
 20
-1432.0819441055098
 30
0.0
 11
1320.83326385483
 21
-1432.0819441055098
 31
0.0
  0
LINE
  5
2F9
100
AcDbEntity
  8
FLN72-1701
370
              15
390
0
  6
Continuous
 62
               7
100
AcDbLine
 10
1021.3169638548306
 20
-1412.0822441055095
 30
0.0
 11
1320.83326385483
 21
-1412.0822441055095
 31
0.0
  0
LINE
  5
2FA
100
AcDbEntity
  8
FLN72-1701
370
              15
390
0
  6
Continuous
 62
               7
100
AcDbLine
 10
1021.2895138548311
 20
-1405.9085441055097
 30
0.0
 11
1021.3429138548308
 21
-1438.2174941055098
 31
0.0
  0
LINE
  5
2FB
100
AcDbEntity
  8
FLN72-1701
370
              15
390
0
  6
Continuous
 62
               7
100
AcDbLine
 10
1014.539013854831
 20
-1440.5490441055097
 30
0.0
 11
1020.1557888548314
 21
-1440.5398941055098
 31
0.0
  0
LINE
  5
2FC
100
AcDbEntity
  8
FLN72-1701
370
              15
390
0
  6
Continuous
 62
               7
100
AcDbLine
 10
1014.5241388548302
 20
-1431.3113691055098
 30
0.0
 11
1020.1405138548307
 21
-1431.3022191055095
 31
0.0
  0
LINE
  5
2FD
100
AcDbEntity
  8
FLN72-1701
370
              15
390
0
  6
Continuous
 62
               7
100
AcDbLine
 10
1014.4940138548309
 20
-1412.8360441055095
 30
0.0
 11
1020.1099888548306
 21
-1412.8268691055098
 31
0.0
  0
LINE
  5
2FE
100
AcDbEntity
  8
FLN72-1701
370
              15
390
0
  6
Continuous
 62
               7
100
AcDbLine
 10
1014.4783638548306
 20
-1403.5991191055098
 30
0.0
 11
1020.0947388548311
 21
-1403.5891941055095
 31
0.0
  0
LINE
  5
2FF
100
AcDbEntity
  8
FLN72-1701
370
              15
390
0
  6
Continuous
 62
               7
100
AcDbLine
 10
1009.8316888548306
 20
-1440.3117691055097
 30
0.0
 11
1009.8011638548305
 21
-1403.8470691055097
 31
0.0
  0
LINE
  5
300
100
AcDbEntity
  8
FLN72-1701
370
              15
390
0
  6
Continuous
 62
               7
100
AcDbLine
 10
1010.3329388548309
 20
-1440.3140691055098
 30
0.0
 11
1013.3320388548309
 21
-1440.3125441055097
 31
0.0
  0
LINE
  5
301
100
AcDbEntity
  8
FLN72-1701
370
              15
390
0
  6
Continuous
 62
               7
100
AcDbLine
 10
1010.3321638548305
 20
-1403.8493691055098
 30
0.0
 11
1013.3015388548311
 21
-1403.8470691055097
 31
0.0
  0
LINE
  5
302
100
AcDbEntity
  8
FLN72-1701
370
              15
390
0
  6
Continuous
 62
               7
100
AcDbLine
 10
1010.3260638548309
 20
-1434.0823691055095
 30
0.0
 11
1010.3321638548305
 21
-1403.8493691055098
 31
0.0
  0
LINE
  5
303
100
AcDbEntity
  8
FLN72-1701
370
              15
390
0
  6
Continuous
 62
               7
100
AcDbLine
 10
1013.3320388548309
 20
-1440.3125441055097
 30
0.0
 11
1013.3015388548311
 21
-1403.8470691055097
 31
0.0
  0
LINE
  5
304
100
AcDbEntity
  8
FLN72-1701
370
              15
390
0
  6
Continuous
 62
               7
100
AcDbLine
 10
1007.3261888548304
 20
-1434.0823691055095
 30
0.0
 11
1007.3261888548304
 21
-1410.0818191055098
 31
0.0
  0
LINE
  5
305
100
AcDbEntity
  8
FLN72-1701
370
              15
390
0
  6
Continuous
 62
               7
100
AcDbLine
 10
1006.3023138548306
 20
-1403.8501191055095
 30
0.0
 11
1006.3328388548307
 21
-1440.3140691055098
 31
0.0
  0
LINE
  5
306
100
AcDbEntity
  8
FLN72-1701
370
              15
390
0
  6
Continuous
 62
               7
100
AcDbLine
 10
1006.3175888548312
 20
-1422.0820941055097
 30
0.0
 11
1006.3175888548312
 21
-1408.2255941055098
 31
0.0
  0
LINE
  5
307
100
AcDbEntity
  8
FLN72-1701
370
              15
390
0
  6
Continuous
 62
               7
100
AcDbLine
 10
1005.124338854831
 20
-1412.8444191055098
 30
0.0
 11
999.50911385483141
 21
-1412.8444191055098
 31
0.0
  0
LINE
  5
308
100
AcDbEntity
  8
FLN72-1701
370
              15
390
0
  6
Continuous
 62
               7
100
AcDbLine
 10
1005.124338854831
 20
-1403.6067441055095
 30
0.0
 11
999.50911385483141
 21
-1403.6067441055095
 31
0.0
  0
LINE
  5
309
100
AcDbEntity
  8
FLN72-1701
370
              15
390
0
  6
Continuous
 62
               7
100
AcDbLine
 10
998.31738885483082
 20
-1405.9268441055094
 30
0.0
 11
998.31738885483082
 21
-1438.2365691055095
 31
0.0
  0
LINE
  5
30A
100
AcDbEntity
  8
FLN72-1701
370
              15
390
0
  6
Continuous
 62
               7
100
AcDbLine
 10
1005.124338854831
 20
-1431.3189941055095
 30
0.0
 11
999.50911385483141
 21
-1431.3189941055095
 31
0.0
  0
LINE
  5
30B
100
AcDbEntity
  8
FLN72-1701
370
              15
390
0
  6
Continuous
 62
               7
100
AcDbLine
 10
1005.124338854831
 20
-1440.5566691055099
 30
0.0
 11
999.50911385483141
 21
-1440.5566691055099
 31
0.0
  0
LINE
  5
30C
100
AcDbEntity
  8
FLN72-1701
370
              15
390
0
  6
Continuous
 62
               7
100
AcDbLine
 10
1007.3261888548304
 20
-1434.0823691055095
 30
0.0
 11
1010.3260638548309
 21
-1434.0823691055095
 31
0.0
  0
LINE
  5
30D
100
AcDbEntity
  8
FLN72-1701
370
              15
390
0
  6
Continuous
 62
               7
100
AcDbLine
 10
1007.3261888548304
 20
-1410.0818191055098
 30
0.0
 11
1010.3260638548309
 21
-1410.0818191055098
 31
0.0
  0
LINE
  5
30E
100
AcDbEntity
  8
FLN72-1701
370
              15
390
0
  6
Continuous
 62
               7
100
AcDbLine
 10
996.70911385483032
 20
-1389.1665941055096
 30
0.0
 11
996.7087388548307
 21
-1397.1667941055096
 31
0.0
  0
LINE
  5
30F
100
AcDbEntity
  8
FLN72-1701
370
              15
390
0
  6
Continuous
 62
               7
100
AcDbLine
 10
995.81496385483024
 20
-1389.1665941055096
 30
0.0
 11
999.70898885483075
 21
-1389.1665941055096
 31
0.0
  0
LINE
  5
310
100
AcDbEntity
  8
FLN72-1701
370
              15
390
0
  6
Continuous
 62
               7
100
AcDbLine
 10
999.70898885483075
 20
-1389.1665941055096
 30
0.0
 11
999.70861385483022
 21
-1397.1667941055096
 31
0.0
  0
LINE
  5
311
100
AcDbEntity
  8
FLN72-1701
370
              15
390
0
  6
Continuous
 62
               7
100
AcDbLine
 10
1007.3330638548314
 20
-1403.8493691055098
 30
0.0
 11
1007.3261888548304
 21
-1410.0818191055098
 31
0.0
  0
LINE
  5
312
100
AcDbEntity
  8
FLN72-1701
370
              15
390
0
  6
Continuous
 62
               7
100
AcDbLine
 10
999.67391385483097
 20
-1401.0303191055098
 30
0.0
 11
1006.5907138548309
 21
-1402.8827191055095
 31
0.0
  0
LINE
  5
313
100
AcDbEntity
  8
FLN72-1701
370
              15
390
0
  6
Continuous
 62
               7
100
AcDbLine
 10
1000.4505638548308
 20
-1398.1326691055094
 30
0.0
 11
1007.3677638548306
 21
-1399.9850691055096
 31
0.0
  0
LINE
  5
314
100
AcDbEntity
  8
FLN72-1701
370
              15
390
0
  6
Continuous
 62
               7
100
AcDbLine
 10
1010.3329388548309
 20
-1440.3140691055098
 30
0.0
 11
1010.3260638548309
 21
-1434.0823691055095
 31
0.0
  0
LINE
  5
315
100
AcDbEntity
  8
FLN72-1701
370
              15
390
0
  6
Continuous
 62
               7
100
AcDbLine
 10
1007.3330638548314
 20
-1440.3140691055098
 30
0.0
 11
1007.3261888548304
 21
-1434.0823691055095
 31
0.0
  0
LINE
  5
316
100
AcDbEntity
  8
FLN72-1701
370
              15
390
0
  6
Continuous
 62
               7
100
AcDbLine
 10
1328.833438854831
 20
-1437.0822441055095
 30
0.0
 11
1358.833763854831
 21
-1437.0822441055095
 31
0.0
  0
LINE
  5
317
100
AcDbEntity
  8
FLN72-1701
370
              15
390
0
  6
Continuous
 62
               7
100
AcDbLine
 10
1328.833438854831
 20
-577.08164410550955
 30
0.0
 11
1358.833763854831
 21
-577.08164410550955
 31
0.0
  0
LINE
  5
318
100
AcDbEntity
  8
FLN72-1701
370
              15
390
0
  6
Continuous
 62
               7
100
AcDbLine
 10
1268.8328388548307
 20
-497.08209410550967
 30
0.0
 11
1268.8328388548307
 21
-977.08164410550955
 31
0.0
  0
LINE
  5
319
100
AcDbEntity
  8
FLN72-1701
370
              15
390
0
  6
Continuous
 62
               7
100
AcDbLine
 10
1233.8337638548301
 20
-977.08164410550955
 30
0.0
 11
1268.8328388548307
 21
-977.08164410550955
 31
0.0
  0
LINE
  5
31A
100
AcDbEntity
  8
FLN72-1701
370
              15
390
0
  6
Continuous
 62
               7
100
AcDbLine
 10
1238.8340638548307
 20
-497.08209410550967
 30
0.0
 11
1268.8328388548307
 21
-497.08209410550967
 31
0.0
  0
LINE
  5
31B
100
AcDbEntity
  8
FLN72-1701
370
               5
390
0
  6
Continuous
 62
               7
100
AcDbLine
 10
1216.0964534381646
 20
1819.9215999944915
 30
0.0
 11
1216.0964534381646
 21
1314.9215999944913
 31
0.0
  0
INSERT
  5
31C
100
AcDbEntity
  8
FLN72-1701
390
0
 62
               7
100
AcDbBlockReference
  2
グループ-2
 10
0.0
 20
0.0
 30
0.0
  0
INSERT
  5
31D
100
AcDbEntity
  8
FLN72-1701
390
0
 62
               7
100
AcDbBlockReference
  2
グループ-3
 10
0.0
 20
0.0
 30
0.0
  0
CIRCLE
  5
31E
100
AcDbEntity
  8
FLN72-1701
370
              15
390
0
  6
STYLE_11
 62
               7
100
AcDbCircle
 10
-1065.1353361451697
 20
-606.46014410550947
 30
0.0
 40
30.0
  0
CIRCLE
  5
31F
100
AcDbEntity
  8
FLN72-1701
370
              15
390
0
  6
STYLE_11
 62
               7
100
AcDbCircle
 10
-605.13533614516973
 20
-606.46014410550947
 30
0.0
 40
30.0
  0
CIRCLE
  5
320
100
AcDbEntity
  8
FLN72-1701
370
              15
390
0
  6
STYLE_11
 62
               7
100
AcDbCircle
 10
-605.13533614516973
 20
-1406.4601441055095
 30
0.0
 40
30.0
  0
CIRCLE
  5
321
100
AcDbEntity
  8
FLN72-1701
370
              15
390
0
  6
STYLE_11
 62
               7
100
AcDbCircle
 10
-1065.1353361451697
 20
-1406.4601441055095
 30
0.0
 40
30.0
  0
POINT
  5
322
100
AcDbEntity
  8
FLN72-1701
370
               5
390
0
  6
Continuous
 62
               7
100
AcDbPoint
 10
732.46466385483109
 20
1992.4215999944915
 30
0.0
  0
POINT
  5
323
100
AcDbEntity
  8
FLN72-1701
370
               5
390
0
  6
Continuous
 62
               7
100
AcDbPoint
 10
732.46466385483109
 20
1142.4215999944913
 30
0.0
  0
POINT
  5
324
100
AcDbEntity
  8
FLN72-1701
370
               5
390
0
  6
Continuous
 62
               7
100
AcDbPoint
 10
1353.2599278548305
 20
-456.44406660550931
 30
0.0
  0
POINT
  5
325
100
AcDbEntity
  8
FLN72-1701
370
               5
390
0
  6
Continuous
 62
               7
100
AcDbPoint
 10
1352.8599278548309
 20
-1081.4440666055093
 30
0.0
  0
POINT
  5
326
100
AcDbEntity
  8
FLN72-1701
370
               5
390
0
  6
Continuous
 62
               7
100
AcDbPoint
 10
1187.8599278548309
 20
-1606.4440666055091
 30
0.0
  0
POINT
  5
327
100
AcDbEntity
  8
FLN72-1701
370
               5
390
0
  6
Continuous
 62
               7
100
AcDbPoint
 10
732.46466385483109
 20
-1656.4440666055093
 30
0.0
  0
POINT
  5
328
100
AcDbEntity
  8
FLN72-1701
370
               5
390
0
  6
Continuous
 62
               7
100
AcDbPoint
 10
1269.8023960298315
 20
1819.9437618944901
 30
0.0
  0
POINT
  5
329
100
AcDbEntity
  8
FLN72-1701
370
               5
390
0
  6
Continuous
 62
               7
100
AcDbPoint
 10
1269.8023960298315
 20
1314.9437618944899
 30
0.0
  0
POINT
  5
32A
100
AcDbEntity
  8
FLN72-1701
370
               5
390
0
  6
Continuous
 62
               7
100
AcDbPoint
 10
1414.8335138548309
 20
-606.46014410550947
 30
0.0
  0
POINT
  5
32B
100
AcDbEntity
  8
FLN72-1701
370
               5
390
0
  6
Continuous
 62
               7
100
AcDbPoint
 10
1414.8335138548309
 20
-1406.4601441055095
 30
0.0
  0
POINT
  5
32C
100
AcDbEntity
  8
FLN72-1701
370
               5
390
0
  6
Continuous
 62
               7
100
AcDbPoint
 10
825.46465985483155
 20
1567.4437618944901
 30
0.0
  0
POINT
  5
32D
100
AcDbEntity
  8
FLN72-1701
370
               5
390
0
  6
Continuous
 62
               7
100
AcDbPoint
 10
1292.4646638548311
 20
-1656.4440666055093
 30
0.0
  0
POINT
  5
32E
100
AcDbEntity
  8
FLN72-1701
370
               5
390
0
  6
Continuous
 62
              20
100
AcDbPoint
 10
1514.8079455298312
 20
-1031.417361258133
 30
0.0
  0
ENDSEC
  0
SECTION
  2
OBJECTS
  0
DICTIONARY
  5
19
100
AcDbDictionary
280
               0
281
               1
  3
ACAD_GROUP
350
1A
  3
ACAD_MLINESTYLE
350
1B
  3
ACAD_LAYOUT
350
1E
  3
ACAD_PLOTSETTINGS
350
22
  3
ACAD_PLOTSTYLENAME
350
1F
  0
DICTIONARY
  5
1A
102
{ACAD_REACTORS
330
19
102
}
100
AcDbDictionary
280
               0
281
               1
  0
DICTIONARY
  5
1B
102
{ACAD_REACTORS
330
19
102
}
100
AcDbDictionary
280
               0
281
               1
  3
Standard
350
1C
  0
MLINESTYLE
  5
1C
102
{ACAD_REACTORS
330
1B
102
}
100
AcDbMlineStyle
  2
Standard
 70
               0
  3

 62
               0
 51
90.0
 52
90.0
 71
               2
 49
0.5
 62
             256
  6
ByLayer
 49
-0.5
 62
             256
  6
ByLayer
  0
ACDBDICTIONARYWDFLT
  5
1F
102
{ACAD_REACTORS
330
19
102
}
100
AcDbDictionary
281
               1
  3
Normal
350
1D
100
AcDbDictionaryWithDefault
340
1D
  0
ACDBPLACEHOLDER
  5
1D
102
{ACAD_REACTORS
330
1F
102
}
  0
LAYOUT
  5
20
102
{ACAD_REACTORS
330
1E
102
}
100
AcDbPlotSettings
  1

  2

  4

  6

 40
0.0
 41
0.0
 42
0.0
 43
0.0
 44
0.0
 45
0.0
 46
0.0
 47
0.0
 48
0.0
 49
0.0
140
0.0
141
0.0
142
1.0
143
1.0
 70
            1024
 72
               0
 73
               0
 74
               0
  7

 75
               0
147
1.0
148
0.0
149
0.0
100
AcDbLayout
  1
Model
 70
               0
 71
               0
 10
0.0
 20
0.0
 11
0.0
 21
0.0
 12
0.0
 22
0.0
 32
0.0
 14
0.0
 24
0.0
 34
0.0
 15
0.0
 25
0.0
 35
0.0
146
0.0
 13
0.0
 23
0.0
 33
0.0
 16
0.0
 26
0.0
 36
0.0
 17
0.0
 27
0.0
 37
0.0
 76
               0
330
A
331
0
345
0
346
0
  0
LAYOUT
  5
21
102
{ACAD_REACTORS
330
1E
102
}
100
AcDbPlotSettings
  1

  2

  4

  6

 40
0.0
 41
0.0
 42
0.0
 43
0.0
 44
0.0
 45
0.0
 46
0.0
 47
0.0
 48
0.0
 49
0.0
140
0.0
141
0.0
142
1.0
143
1.0
 70
               0
 72
               0
 73
               0
 74
               0
  7

 75
               0
147
1.0
148
0.0
149
0.0
100
AcDbLayout
  1
Layout1
 70
               0
 71
               0
 10
0.0
 20
0.0
 11
0.0
 21
0.0
 12
0.0
 22
0.0
 32
0.0
 14
0.0
 24
0.0
 34
0.0
 15
0.0
 25
0.0
 35
0.0
146
0.0
 13
0.0
 23
0.0
 33
0.0
 16
0.0
 26
0.0
 36
0.0
 17
0.0
 27
0.0
 37
0.0
 76
               0
330
B
331
0
345
0
346
0
  0
DICTIONARY
  5
1E
102
{ACAD_REACTORS
330
19
102
}
100
AcDbDictionary
280
               0
281
               1
  3
Layout1
350
21
  3
Model
350
20
  0
DICTIONARY
  5
22
102
{ACAD_REACTORS
330
19
102
}
100
AcDbDictionary
280
               0
281
               1
  0
ENDSEC
  0
EOF
