  0
SECTION
  2
HEADER
  9
$ACADVER
  1
AC1021
  9
$ACADMAINTVER
 70
    25
  9
$DWGCODEPAGE
  3
ANSI_932
  9
$LASTSAVEDBY
  1
T-HOWE-PC
  9
$INSBASE
 10
0.0
 20
0.0
 30
0.0
  9
$EXTMIN
 10
144.5094110644077
 20
120.9904072046643
 30
-0.0000000000002274
  9
$EXTMAX
 10
4044.509411065372
 20
5804.399587702454
 30
0.0
  9
$LIMMIN
 10
0.0
 20
0.0
  9
$LIMMAX
 10
4200.000000000001
 20
5940.000000000001
  9
$ORTHOMODE
 70
     0
  9
$REGENMODE
 70
     1
  9
$FILLMODE
 70
     1
  9
$QTEXTMODE
 70
     0
  9
$MIRRTEXT
 70
     1
  9
$LTSCALE
 40
50.8
  9
$ATTMODE
 70
     1
  9
$TEXTSIZE
 40
533.0403732820173
  9
$TRACEWID
 40
1.0
  9
$TEXTSTYLE
  7
Standard
  9
$CLAYER
  8
DIM
  9
$CELTYPE
  6
Continuous
  9
$CECOLOR
 62
   256
  9
$CELTSCALE
 40
1.0
  9
$DISPSILH
 70
     0
  9
$DIMSCALE
 40
1.0
  9
$DIMASZ
 40
18.0
  9
$DIMEXO
 40
25.0
  9
$DIMDLI
 40
25.0
  9
$DIMRND
 40
0.0
  9
$DIMDLE
 40
0.0
  9
$DIMEXE
 40
0.0
  9
$DIMTP
 40
0.0
  9
$DIMTM
 40
0.0
  9
$DIMTXT
 40
48.0
  9
$DIMCEN
 40
0.0
  9
$DIMTSZ
 40
0.0
  9
$DIMTOL
 70
     0
  9
$DIMLIM
 70
     0
  9
$DIMTIH
 70
     0
  9
$DIMTOH
 70
     0
  9
$DIMSE1
 70
     0
  9
$DIMSE2
 70
     0
  9
$DIMTAD
 70
     1
  9
$DIMZIN
 70
    11
  9
$DIMBLK
  1
DOT
  9
$DIMASO
 70
     1
  9
$DIMSHO
 70
     1
  9
$DIMPOST
  1
<>
  9
$DIMAPOST
  1
[]
  9
$DIMALT
 70
     0
  9
$DIMALTD
 70
     1
  9
$DIMALTF
 40
1.0
  9
$DIMLFAC
 40
1.0
  9
$DIMTOFL
 70
     0
  9
$DIMTVP
 40
0.0
  9
$DIMTIX
 70
     1
  9
$DIMSOXD
 70
     0
  9
$DIMSAH
 70
     0
  9
$DIMBLK1
  1

  9
$DIMBLK2
  1

  9
$DIMSTYLE
  2
JIS
  9
$DIMCLRD
 70
     0
  9
$DIMCLRE
 70
     0
  9
$DIMCLRT
 70
     0
  9
$DIMTFAC
 40
1.0
  9
$DIMGAP
 40
30.0
  9
$DIMJUST
 70
     0
  9
$DIMSD1
 70
     0
  9
$DIMSD2
 70
     0
  9
$DIMTOLJ
 70
     1
  9
$DIMTZIN
 70
    11
  9
$DIMALTZ
 70
    11
  9
$DIMALTTZ
 70
    11
  9
$DIMUPT
 70
     0
  9
$DIMDEC
 70
     0
  9
$DIMTDEC
 70
     1
  9
$DIMALTU
 70
     2
  9
$DIMALTTD
 70
     2
  9
$DIMTXSTY
  7
ＭＳ ゴシック
  9
$DIMAUNIT
 70
     0
  9
$DIMADEC
 70
     0
  9
$DIMALTRND
 40
0.0
  9
$DIMAZIN
 70
     0
  9
$DIMDSEP
 70
    46
  9
$DIMATFIT
 70
     0
  9
$DIMFRAC
 70
     2
  9
$DIMLDRBLK
  1
DOT
  9
$DIMLUNIT
 70
     2
  9
$DIMLWD
 70
    -2
  9
$DIMLWE
 70
    -2
  9
$DIMTMOVE
 70
     0
  9
$DIMFXL
 40
1.0
  9
$DIMFXLON
 70
     0
  9
$DIMJOGANG
 40
0.7853981633974483
  9
$DIMTFILL
 70
     0
  9
$DIMTFILLCLR
 70
     0
  9
$DIMARCSYM
 70
     0
  9
$DIMLTYPE
  6

  9
$DIMLTEX1
  6

  9
$DIMLTEX2
  6

  9
$LUNITS
 70
     2
  9
$LUPREC
 70
     0
  9
$SKETCHINC
 40
0.1
  9
$FILLETRAD
 40
0.0
  9
$AUNITS
 70
     0
  9
$AUPREC
 70
     0
  9
$MENU
  1
acad
  9
$ELEVATION
 40
0.0
  9
$PELEVATION
 40
0.0
  9
$THICKNESS
 40
0.0
  9
$LIMCHECK
 70
     0
  9
$CHAMFERA
 40
0.0
  9
$CHAMFERB
 40
0.0
  9
$CHAMFERC
 40
0.0
  9
$CHAMFERD
 40
0.0
  9
$SKPOLY
 70
     0
  9
$TDCREATE
 40
2447893.375
  9
$TDUCREATE
 40
0.0
  9
$TDUPDATE
 40
2459131.61210522
  9
$TDUUPDATE
 40
2459131.23710522
  9
$TDINDWG
 40
0.1702760301
  9
$TDUSRTIMER
 40
0.0014517014
  9
$USRTIMER
 70
     1
  9
$ANGBASE
 50
0.0
  9
$ANGDIR
 70
     0
  9
$PDMODE
 70
     1
  9
$PDSIZE
 40
-2.0
  9
$PLINEWID
 40
0.0
  9
$SPLFRAME
 70
     0
  9
$SPLINETYPE
 70
     6
  9
$SPLINESEGS
 70
     8
  9
$HANDSEED
  5
2150
  9
$SURFTAB1
 70
     6
  9
$SURFTAB2
 70
     6
  9
$SURFTYPE
 70
     6
  9
$SURFU
 70
     6
  9
$SURFV
 70
     6
  9
$UCSBASE
  2

  9
$UCSNAME
  2

  9
$UCSORG
 10
0.0
 20
0.0
 30
0.0
  9
$UCSXDIR
 10
1.0
 20
0.0
 30
0.0
  9
$UCSYDIR
 10
0.0
 20
1.0
 30
0.0
  9
$UCSORTHOREF
  2

  9
$UCSORTHOVIEW
 70
     0
  9
$UCSORGTOP
 10
0.0
 20
0.0
 30
0.0
  9
$UCSORGBOTTOM
 10
0.0
 20
0.0
 30
0.0
  9
$UCSORGLEFT
 10
0.0
 20
0.0
 30
0.0
  9
$UCSORGRIGHT
 10
0.0
 20
0.0
 30
0.0
  9
$UCSORGFRONT
 10
0.0
 20
0.0
 30
0.0
  9
$UCSORGBACK
 10
0.0
 20
0.0
 30
0.0
  9
$PUCSBASE
  2

  9
$PUCSNAME
  2

  9
$PUCSORG
 10
0.0
 20
0.0
 30
0.0
  9
$PUCSXDIR
 10
1.0
 20
0.0
 30
0.0
  9
$PUCSYDIR
 10
0.0
 20
1.0
 30
0.0
  9
$PUCSORTHOREF
  2

  9
$PUCSORTHOVIEW
 70
     0
  9
$PUCSORGTOP
 10
0.0
 20
0.0
 30
0.0
  9
$PUCSORGBOTTOM
 10
0.0
 20
0.0
 30
0.0
  9
$PUCSORGLEFT
 10
0.0
 20
0.0
 30
0.0
  9
$PUCSORGRIGHT
 10
0.0
 20
0.0
 30
0.0
  9
$PUCSORGFRONT
 10
0.0
 20
0.0
 30
0.0
  9
$PUCSORGBACK
 10
0.0
 20
0.0
 30
0.0
  9
$USERI1
 70
     0
  9
$USERI2
 70
     0
  9
$USERI3
 70
     0
  9
$USERI4
 70
     0
  9
$USERI5
 70
     0
  9
$USERR1
 40
0.0
  9
$USERR2
 40
0.0
  9
$USERR3
 40
0.0
  9
$USERR4
 40
0.0
  9
$USERR5
 40
0.0
  9
$WORLDVIEW
 70
     1
  9
$SHADEDGE
 70
     3
  9
$SHADEDIF
 70
    70
  9
$TILEMODE
 70
     1
  9
$MAXACTVP
 70
    64
  9
$PINSBASE
 10
0.0
 20
0.0
 30
0.0
  9
$PLIMCHECK
 70
     0
  9
$PEXTMIN
 10
0.0
 20
0.0
 30
0.0
  9
$PEXTMAX
 10
0.0
 20
0.0
 30
0.0
  9
$PLIMMIN
 10
-7.5
 20
-20.0
  9
$PLIMMAX
 10
412.5
 20
277.0
  9
$UNITMODE
 70
     0
  9
$VISRETAIN
 70
     0
  9
$PLINEGEN
 70
     1
  9
$PSLTSCALE
 70
     0
  9
$TREEDEPTH
 70
  3020
  9
$CMLSTYLE
  2
Standard
  9
$CMLJUST
 70
     0
  9
$CMLSCALE
 40
1.0
  9
$PROXYGRAPHICS
 70
     0
  9
$MEASUREMENT
 70
     1
  9
$CELWEIGHT
370
    -1
  9
$ENDCAPS
280
     0
  9
$JOINSTYLE
280
     0
  9
$LWDISPLAY
290
     1
  9
$INSUNITS
 70
     4
  9
$HYPERLINKBASE
  1

  9
$STYLESHEET
  1

  9
$XEDIT
290
     1
  9
$CEPSNTYPE
380
     0
  9
$PSTYLEMODE
290
     1
  9
$FINGERPRINTGUID
  2

  9
$VERSIONGUID
  2

  9
$EXTNAMES
290
     1
  9
$PSVPSCALE
 40
0.0
  9
$OLESTARTUP
290
     0
  9
$SORTENTS
280
   127
  9
$INDEXCTL
280
     0
  9
$HIDETEXT
280
     1
  9
$XCLIPFRAME
290
     0
  9
$HALOGAP
280
     0
  9
$OBSCOLOR
 70
   257
  9
$OBSLTYPE
280
     0
  9
$INTERSECTIONDISPLAY
280
     0
  9
$INTERSECTIONCOLOR
 70
   257
  9
$DIMASSOC
280
     2
  9
$PROJECTNAME
  1

  9
$CAMERADISPLAY
290
     0
  9
$LENSLENGTH
 40
50.0
  9
$CAMERAHEIGHT
 40
0.0
  9
$STEPSPERSEC
 40
2.0
  9
$STEPSIZE
 40
6.0
  9
$3DDWFPREC
 40
2.0
  9
$PSOLWIDTH
 40
0.25
  9
$PSOLHEIGHT
 40
4.0
  9
$LOFTANG1
 40
1.570796326794897
  9
$LOFTANG2
 40
1.570796326794897
  9
$LOFTMAG1
 40
0.0
  9
$LOFTMAG2
 40
0.0
  9
$LOFTPARAM
 70
     7
  9
$LOFTNORMALS
280
     1
  9
$LATITUDE
 40
37.795
  9
$LONGITUDE
 40
-122.394
  9
$NORTHDIRECTION
 40
0.0
  9
$TIMEZONE
 70
 -8000
  9
$LIGHTGLYPHDISPLAY
280
     1
  9
$TILEMODELIGHTSYNCH
280
     1
  9
$SOLIDHIST
280
     1
  9
$SHOWHIST
280
     1
  9
$DWFFRAME
280
     2
  9
$DGNFRAME
280
     2
  9
$REALWORLDSCALE
290
     1
  9
$INTERFERECOLOR
 62
   256
  9
$CSHADOW
280
     0
  9
$SHADOWPLANELOCATION
 40
0.0
  0
ENDSEC
  0
SECTION
  2
CLASSES
  0
CLASS
  1
LWPOLYLINE
  2
AcDbPolyline
  3
ObjectDBX Classes
 90
        0
 91
        1
280
     0
281
     1
  0
CLASS
  1
IMAGE
  2
AcDbRasterImage
  3
ISM
 90
      127
 91
        4
280
     0
281
     1
  0
CLASS
  1
OLE2FRAME
  2
AcDbOle2Frame
  3
ObjectDBX Classes
 90
        0
 91
        1
280
     0
281
     1
  0
CLASS
  1
HATCH
  2
AcDbHatch
  3
ObjectDBX Classes
 90
        0
 91
        1
280
     0
281
     1
  0
CLASS
  1
DICTIONARYVAR
  2
AcDbDictionaryVar
  3
ObjectDBX Classes
 90
        0
 91
        3
280
     0
281
     0
  0
CLASS
  1
RASTERVARIABLES
  2
AcDbRasterVariables
  3
ISM
 90
        0
 91
        3
280
     0
281
     0
  0
CLASS
  1
IMAGEDEF
  2
AcDbRasterImageDef
  3
ISM
 90
        0
 91
        3
280
     0
281
     0
  0
CLASS
  1
IMAGEDEF_REACTOR
  2
AcDbRasterImageDefReactor
  3
ISM
 90
        1
 91
        3
280
     0
281
     0
  0
CLASS
  1
IDBUFFER
  2
AcDbIdBuffer
  3
ObjectDBX Classes
 90
        0
 91
        3
280
     0
281
     0
  0
CLASS
  1
SPATIAL_FILTER
  2
AcDbSpatialFilter
  3
ObjectDBX Classes
 90
        0
 91
        3
280
     0
281
     0
  0
CLASS
  1
XRECORD
  2
AcDbXrecord
  3
ObjectDBX Classes
 90
        0
 91
        1
280
     0
281
     0
  0
CLASS
  1
SORTENTSTABLE
  2
AcDbSortentsTable
  3
ObjectDBX Classes
 90
        0
 91
        3
280
     0
281
     0
  0
CLASS
  1
LAYER_INDEX
  2
AcDbLayerIndex
  3
ObjectDBX Classes
 90
        0
 91
        3
280
     0
281
     0
  0
CLASS
  1
SPATIAL_INDEX
  2
AcDbSpatialIndex
  3
AutoCAD 2000
 90
        0
 91
        3
280
     0
281
     0
  0
CLASS
  1
OBJECT_PTR
  2
CAseDLPNTableRecord
  3
ASE-LPNTableRecord
 90
        1
 91
        3
280
     0
281
     0
  0
CLASS
  1
LAYOUT
  2
AcDbLayout
  3
ObjectDBX Classes
 90
        0
 91
        1
280
     0
281
     0
  0
CLASS
  1
PLOTSETTINGS
  2
AcDbPlotSettings
  3
ObjectDBX Classes
 90
        0
 91
        3
280
     0
281
     0
  0
CLASS
  1
ACDBDICTIONARYWDFLT
  2
AcDbDictionaryWithDefault
  3
ObjectDBX Classes
 90
        0
 91
        3
280
     0
281
     0
  0
CLASS
  1
ACDBPLACEHOLDER
  2
AcDbPlaceHolder
  3
ObjectDBX Classes
 90
        0
 91
        1
280
     0
281
     0
  0
CLASS
  1
SCALE
  2
AcDbScale
  3
ObjectDBX Classes
 90
     1153
 91
        3
280
     0
281
     0
  0
CLASS
  1
MATERIAL
  2
AcDbMaterial
  3
ObjectDBX Classes
 90
     1153
 91
        3
280
     0
281
     0
  0
CLASS
  1
VISUALSTYLE
  2
AcDbVisualStyle
  3
ObjectDBX Classes
 90
     4095
 91
        3
280
     0
281
     0
  0
CLASS
  1
TABLESTYLE
  2
AcDbTableStyle
  3
ObjectDBX Classes
 90
     4095
 91
        3
280
     0
281
     0
  0
CLASS
  1
DIMASSOC
  2
AcDbDimAssoc
  3
"AcDbDimAssoc|Product Desc:     AcDim ARX App For Dimension|Company:          Autodesk, Inc.|WEB Address:      www.autodesk.com"
 90
        0
 91
        3
280
     0
281
     0
  0
CLASS
  1
CELLSTYLEMAP
  2
AcDbCellStyleMap
  3
ObjectDBX Classes
 90
     1152
 91
        3
280
     0
281
     0
  0
CLASS
  1
SUN
  2
AcDbSun
  3
SCENEOE
 90
     1153
 91
        3
280
     0
281
     0
  0
CLASS
  1
MLEADERSTYLE
  2
AcDbMLeaderStyle
  3
ACDB_MLEADERSTYLE_CLASS
 90
     4095
 91
        3
280
     0
281
     0
  0
CLASS
  1
FIELD
  2
AcDbField
  3
ObjectDBX Classes
 90
     1152
 91
        3
280
     0
281
     0
  0
CLASS
  1
FIELDLIST
  2
AcDbFieldList
  3
ObjectDBX Classes
 90
     1152
 91
        3
280
     0
281
     0
  0
ENDSEC
  0
SECTION
  2
TABLES
  0
TABLE
  2
VPORT
  5
7
330
0
100
AcDbSymbolTable
 70
     1
  0
VPORT
  5
15
330
7
100
AcDbSymbolTableRecord
100
AcDbViewportTableRecord
  2
*ACTIVE
 70
     0
 10
0.0
 20
0.0
 11
1.0
 21
1.0
 12
1562.555834238858
 22
3017.603748556236
 13
0.0
 23
0.0
 14
1.0
 24
1.0
 15
0.0
 25
0.0
 16
0.0
 26
0.0
 36
1.0
 17
531.9535768260321
 27
-54.9087511026778
 37
-796.100446371116
 40
5797.077364107745
 41
2.333333333333333
 42
50.0
 43
0.0
 44
0.0
 50
0.0
 51
0.0
 71
    16
 72
  2000
 73
     1
 74
     1
 75
     0
 76
     0
 77
     0
 78
     0
281
     0
 65
     1
110
0.0
120
0.0
130
0.0
111
1.0
121
0.0
131
0.0
112
0.0
122
1.0
132
0.0
 79
     0
146
0.0
348
26C
 60
     3
 61
     5
292
     1
282
     1
141
0.0
142
0.0
 63
   256
361
BE4
  0
ENDTAB
  0
TABLE
  2
LTYPE
  5
4
330
0
100
AcDbSymbolTable
 70
     3
  0
LTYPE
  5
11
330
4
100
AcDbSymbolTableRecord
100
AcDbLinetypeTableRecord
  2
ByBlock
 70
     0
  3

 72
    65
 73
     0
 40
0.0
  0
LTYPE
  5
12
330
4
100
AcDbSymbolTableRecord
100
AcDbLinetypeTableRecord
  2
ByLayer
 70
     0
  3

 72
    65
 73
     0
 40
0.0
  0
LTYPE
  5
13
330
4
100
AcDbSymbolTableRecord
100
AcDbLinetypeTableRecord
  2
Continuous
 70
     0
  3
Solid line
 72
    65
 73
     0
 40
0.0
  0
LTYPE
  5
45
330
4
100
AcDbSymbolTableRecord
100
AcDbLinetypeTableRecord
  2
STYLE_12
 70
     0
  3

 72
    65
 73
     2
 40
0.3937007874015748
 49
0.1968503937007874
 74
     0
 49
-0.1968503937007874
 74
     0
  0
LTYPE
  5
1A38
330
4
100
AcDbSymbolTableRecord
100
AcDbLinetypeTableRecord
  2
HIDDEN
 70
     0
  3
Hidden _ _ _ _ _ _ _ _ _ _ _ _ _ _ _ _ _ _ _ _ 
 72
    65
 73
     2
 40
9.524999999999999
 49
6.35
 74
     0
 49
-3.175
 74
     0
  0
ENDTAB
  0
TABLE
  2
LAYER
  5
2
102
{ACAD_XDICTIONARY
360
2E1
102
}
330
0
100
AcDbSymbolTable
 70
     6
  0
LAYER
  5
14
330
2
100
AcDbSymbolTableRecord
100
AcDbLayerTableRecord
  2
0
 70
     0
 62
     7
  6
Continuous
370
    -3
390
1D
347
266
  0
LAYER
  5
4A
330
2
100
AcDbSymbolTableRecord
100
AcDbLayerTableRecord
  2
Defpoints
 70
     0
 62
     7
  6
Continuous
290
     0
370
     9
390
1D
347
266
  0
LAYER
  5
4B
330
2
100
AcDbSymbolTableRecord
100
AcDbLayerTableRecord
  2
TEMPLATE
 70
     0
 62
     7
  6
Continuous
370
    20
390
1D
347
266
  0
LAYER
  5
4D
330
2
100
AcDbSymbolTableRecord
100
AcDbLayerTableRecord
  2
MODEL
 70
     0
 62
     7
  6
Continuous
370
    20
390
1D
347
266
  0
LAYER
  5
382
330
2
100
AcDbSymbolTableRecord
100
AcDbLayerTableRecord
  2
LOGO
 70
     0
 62
     7
  6
Continuous
370
    -3
390
1D
347
266
  0
LAYER
  5
B7A
330
2
100
AcDbSymbolTableRecord
100
AcDbLayerTableRecord
  2
DIM
 70
     0
 62
     3
  6
Continuous
370
    13
390
1D
347
266
1001
AcAecLayerStandard
1000

1000

  0
ENDTAB
  0
TABLE
  2
STYLE
  5
3
330
0
100
AcDbSymbolTable
 70
     2
  0
STYLE
  5
17
330
3
100
AcDbSymbolTableRecord
100
AcDbTextStyleTableRecord
  2
Standard
 70
     0
 40
0.0
 41
1.0
 50
0.0
 71
     0
 42
533.0403732820173
  3
txt
  4
BIGFONT.SHX
  0
STYLE
  5
39
330
3
100
AcDbSymbolTableRecord
100
AcDbTextStyleTableRecord
  2
ＭＳ ゴシック
 70
     0
 40
0.0
 41
1.0
 50
0.0
 71
     0
 42
533.0403732820173
  3
msgothic.ttc
  4
ＭＳ ゴシック
1001
ACAD
1000
ＭＳ ゴシック
1071
        0
  0
ENDTAB
  0
TABLE
  2
VIEW
  5
5
330
0
100
AcDbSymbolTable
 70
     0
  0
ENDTAB
  0
TABLE
  2
UCS
  5
6
330
0
100
AcDbSymbolTable
 70
     0
  0
ENDTAB
  0
TABLE
  2
APPID
  5
8
330
0
100
AcDbSymbolTable
 70
     7
  0
APPID
  5
16
330
8
100
AcDbSymbolTableRecord
100
AcDbRegAppTableRecord
  2
ACAD
 70
     0
  0
APPID
  5
5C5
330
8
100
AcDbSymbolTableRecord
100
AcDbRegAppTableRecord
  2
AcAecLayerStandard
 70
     0
  0
APPID
  5
694
330
8
100
AcDbSymbolTableRecord
100
AcDbRegAppTableRecord
  2
ACAD_DSTYLE_DIMJAG
 70
     0
  0
APPID
  5
695
330
8
100
AcDbSymbolTableRecord
100
AcDbRegAppTableRecord
  2
ACAD_DSTYLE_DIMTALN
 70
     0
  0
APPID
  5
69A
330
8
100
AcDbSymbolTableRecord
100
AcDbRegAppTableRecord
  2
ACAD_PSEXT
 70
     0
  0
APPID
  5
2120
330
8
100
AcDbSymbolTableRecord
100
AcDbRegAppTableRecord
  2
ACAD_MLEADERVER
 70
     0
  0
APPID
  5
214C
330
8
100
AcDbSymbolTableRecord
100
AcDbRegAppTableRecord
  2
PLOTTRANSPARENCY
 70
     0
  0
ENDTAB
  0
TABLE
  2
DIMSTYLE
  5
9
330
0
100
AcDbSymbolTable
 70
     2
100
AcDbDimStyleTable
  0
DIMSTYLE
105
57
102
{ACAD_REACTORS
330
1852
330
1853
330
1854
102
}
330
9
100
AcDbSymbolTableRecord
100
AcDbDimStyleTableRecord
  2
tfrom線あり
 70
     0
  3
<>
  4
[]
 41
9.999389648437498
 42
25.0
 43
0.9999999999999999
 44
0.0
 73
     0
 74
     0
 77
     1
 78
    11
140
24.4326171875
141
0.0
143
1.0
147
30.0
171
     1
174
     1
178
     0
179
     2
271
     1
272
     1
276
     2
284
    11
285
    11
286
    11
289
     0
340
39
341
4E
342
4E
  0
DIMSTYLE
105
5C
102
{ACAD_REACTORS
330
1886
330
1887
330
1888
330
1889
330
188B
330
188D
330
18E3
330
190A
330
192A
330
1937
330
1975
330
1A05
330
1A29
330
2101
102
}
330
9
100
AcDbSymbolTableRecord
100
AcDbDimStyleTableRecord
  2
JIS
 70
     0
  3
<>
  4
[]
 41
9.0
 42
0.0
 43
6.99999999999994
 44
19.9999999999962
 73
     0
 74
     0
 77
     1
 78
    11
140
24.4326171875
141
0.0
143
1.0
147
10.0
171
     1
174
     1
178
     0
179
     2
271
     1
272
     1
276
     2
284
    11
285
    11
286
    11
289
     0
340
39
341
4E
342
4E
  0
ENDTAB
  0
TABLE
  2
BLOCK_RECORD
  5
1
330
0
100
AcDbSymbolTable
 70
    22
  0
BLOCK_RECORD
  5
A
330
1
100
AcDbSymbolTableRecord
100
AcDbBlockTableRecord
  2
*MODEL_SPACE
340
20
 70
     0
280
     1
281
     0
  0
BLOCK_RECORD
  5
B
330
1
100
AcDbSymbolTableRecord
100
AcDbBlockTableRecord
  2
*PAPER_SPACE
340
21
 70
     0
280
     1
281
     0
  0
BLOCK_RECORD
  5
4E
330
1
100
AcDbSymbolTableRecord
100
AcDbBlockTableRecord
  2
_DOT
340
0
102
{BLKREFS
331
185C
331
185D
331
1868
331
1869
331
1874
331
1875
331
1894
331
1895
331
18A0
331
18A1
331
18AC
331
18AD
331
18B8
331
18B9
331
18D0
331
18D1
331
18DD
331
18DE
331
18EC
331
18ED
331
18F8
331
18F9
331
1911
331
1912
331
1931
331
1932
331
193E
331
193F
331
197C
331
197D
331
1A12
331
1A13
331
1A23
331
1A24
331
1A30
331
1A31
331
1B6C
331
1B6D
331
1B78
331
1B79
331
1B84
331
1B85
331
207B
331
207C
331
2086
331
2087
331
2091
331
2092
331
2108
331
2109
102
}
 70
     0
280
     1
281
     0
  0
BLOCK_RECORD
  5
3A5
330
1
100
AcDbSymbolTableRecord
100
AcDbBlockTableRecord
  2
名称未設定-1
340
0
102
{BLKREFS
331
3D0
102
}
 70
     1
280
     1
281
     0
  0
BLOCK_RECORD
  5
3A8
330
1
100
AcDbSymbolTableRecord
100
AcDbBlockTableRecord
  2
block 2
340
0
102
{BLKREFS
331
3A7
102
}
 70
     0
280
     1
281
     0
  0
BLOCK_RECORD
  5
3AB
330
1
100
AcDbSymbolTableRecord
100
AcDbBlockTableRecord
  2
block 3
340
0
102
{BLKREFS
331
3AA
102
}
 70
     0
280
     1
281
     0
  0
BLOCK_RECORD
  5
3AE
330
1
100
AcDbSymbolTableRecord
100
AcDbBlockTableRecord
  2
block 4
340
0
102
{BLKREFS
331
3AD
102
}
 70
     0
280
     1
281
     0
  0
BLOCK_RECORD
  5
3BD
330
1
100
AcDbSymbolTableRecord
100
AcDbBlockTableRecord
  2
block 5
340
0
102
{BLKREFS
331
3BC
102
}
 70
     0
280
     1
281
     0
  0
BLOCK_RECORD
  5
1856
330
1
100
AcDbSymbolTableRecord
100
AcDbBlockTableRecord
  2
*D6
340
0
 70
     0
280
     1
281
     0
  0
BLOCK_RECORD
  5
1862
330
1
100
AcDbSymbolTableRecord
100
AcDbBlockTableRecord
  2
*D7
340
0
 70
     0
280
     1
281
     0
  0
BLOCK_RECORD
  5
186E
330
1
100
AcDbSymbolTableRecord
100
AcDbBlockTableRecord
  2
*D8
340
0
 70
     0
280
     1
281
     0
  0
BLOCK_RECORD
  5
188E
330
1
100
AcDbSymbolTableRecord
100
AcDbBlockTableRecord
  2
*D9
340
0
 70
     0
280
     1
281
     0
  0
BLOCK_RECORD
  5
189A
330
1
100
AcDbSymbolTableRecord
100
AcDbBlockTableRecord
  2
*D10
340
0
 70
     0
280
     1
281
     0
  0
BLOCK_RECORD
  5
18A6
330
1
100
AcDbSymbolTableRecord
100
AcDbBlockTableRecord
  2
*D11
340
0
 70
     0
280
     1
281
     0
  0
BLOCK_RECORD
  5
18B2
330
1
100
AcDbSymbolTableRecord
100
AcDbBlockTableRecord
  2
*D12
340
0
 70
     0
280
     1
281
     0
  0
BLOCK_RECORD
  5
18CA
330
1
100
AcDbSymbolTableRecord
100
AcDbBlockTableRecord
  2
*D13
340
0
 70
     0
280
     1
281
     0
  0
BLOCK_RECORD
  5
18D6
330
1
100
AcDbSymbolTableRecord
100
AcDbBlockTableRecord
  2
*D14
340
0
 70
     0
280
     1
281
     0
  0
BLOCK_RECORD
  5
18E6
330
1
100
AcDbSymbolTableRecord
100
AcDbBlockTableRecord
  2
*D15
340
0
 70
     0
280
     1
281
     0
  0
BLOCK_RECORD
  5
190B
330
1
100
AcDbSymbolTableRecord
100
AcDbBlockTableRecord
  2
*D17
340
0
 70
     0
280
     1
281
     0
  0
BLOCK_RECORD
  5
192B
330
1
100
AcDbSymbolTableRecord
100
AcDbBlockTableRecord
  2
*D18
340
0
 70
     0
280
     1
281
     0
  0
BLOCK_RECORD
  5
1938
330
1
100
AcDbSymbolTableRecord
100
AcDbBlockTableRecord
  2
*D19
340
0
 70
     0
280
     1
281
     0
  0
BLOCK_RECORD
  5
1976
330
1
100
AcDbSymbolTableRecord
100
AcDbBlockTableRecord
  2
*D20
340
0
 70
     0
280
     1
281
     0
  0
BLOCK_RECORD
  5
1A2A
330
1
100
AcDbSymbolTableRecord
100
AcDbBlockTableRecord
  2
*D23
340
0
 70
     0
280
     1
281
     0
  0
BLOCK_RECORD
  5
2102
330
1
100
AcDbSymbolTableRecord
100
AcDbBlockTableRecord
  2
*D35
340
0
 70
     0
280
     1
281
     0
  0
ENDTAB
  0
ENDSEC
  0
SECTION
  2
BLOCKS
  0
BLOCK
  5
D
330
A
100
AcDbEntity
  8
0
390
1D
100
AcDbBlockBegin
  2
*MODEL_SPACE
 70
     0
 10
0.0
 20
0.0
 30
0.0
  3
*MODEL_SPACE
  1
*MODEL_SPACE
  0
ENDBLK
  5
E
330
A
100
AcDbEntity
  8
0
390
1D
100
AcDbBlockEnd
  0
BLOCK
  5
F
330
B
100
AcDbEntity
 67
     1
  8
0
390
1D
100
AcDbBlockBegin
  2
*PAPER_SPACE
 70
     0
 10
0.0
 20
0.0
 30
0.0
  3
*PAPER_SPACE
  1
*PAPER_SPACE
  0
ENDBLK
  5
10
330
B
100
AcDbEntity
 67
     1
  8
0
390
1D
100
AcDbBlockEnd
  0
BLOCK
  5
E45
330
4E
100
AcDbEntity
  8
0
390
1D
100
AcDbBlockBegin
  2
_DOT
 70
     0
 10
0.0
 20
0.0
 30
0.0
  3
_DOT
  1
_DOT
  0
POLYLINE
  5
E47
330
4E
100
AcDbEntity
  8
0
  6
ByBlock
 62
     0
370
    -2
390
1D
100
AcDb2dPolyline
 66
     1
 10
0.0
 20
0.0
 30
0.0
 70
     1
 40
0.5
 41
0.5
  0
VERTEX
  5
E48
330
E47
100
AcDbEntity
  8
0
  6
ByBlock
 62
     0
370
    -2
390
1D
100
AcDbVertex
100
AcDb2dVertex
 10
-0.25
 20
0.0
 30
0.0
 42
1.0
  0
VERTEX
  5
E49
330
E47
100
AcDbEntity
  8
0
  6
ByBlock
 62
     0
370
    -2
390
1D
100
AcDbVertex
100
AcDb2dVertex
 10
0.25
 20
0.0
 30
0.0
 42
1.0
  0
SEQEND
  5
E4A
330
E47
100
AcDbEntity
  8
0
390
1D
  0
LINE
  5
E4B
330
4E
100
AcDbEntity
  8
0
  6
ByBlock
 62
     0
370
    -2
390
1D
100
AcDbLine
 10
-0.5
 20
0.0
 30
0.0
 11
-1.0
 21
0.0
 31
0.0
  0
ENDBLK
  5
E4C
330
4E
100
AcDbEntity
  8
0
390
1D
100
AcDbBlockEnd
  0
BLOCK
  5
3A6
330
3A5
100
AcDbEntity
  8
0
100
AcDbBlockBegin
  2
名称未設定-1
 70
     0
 10
0.0
 20
0.0
 30
0.0
  3
名称未設定-1
  1
名称未設定-1
  0
INSERT
  5
3A7
330
3A5
100
AcDbEntity
  8
LOGO
100
AcDbBlockReference
  2
block 2
 10
0.0
 20
0.0
 30
0.0
  0
ENDBLK
  5
3CC
330
3A5
100
AcDbEntity
  8
0
100
AcDbBlockEnd
  0
BLOCK
  5
3A9
330
3A8
100
AcDbEntity
  8
0
100
AcDbBlockBegin
  2
block 2
 70
     0
 10
0.0
 20
0.0
 30
0.0
  3
block 2
  1
block 2
  0
INSERT
  5
3AA
330
3A8
100
AcDbEntity
  8
LOGO
100
AcDbBlockReference
  2
block 3
 10
0.0
 20
0.0
 30
0.0
  0
ENDBLK
  5
3CB
330
3A8
100
AcDbEntity
  8
0
100
AcDbBlockEnd
  0
BLOCK
  5
3AC
330
3AB
100
AcDbEntity
  8
0
100
AcDbBlockBegin
  2
block 3
 70
     0
 10
0.0
 20
0.0
 30
0.0
  3
block 3
  1
block 3
  0
INSERT
  5
3AD
330
3AB
100
AcDbEntity
  8
LOGO
100
AcDbBlockReference
  2
block 4
 10
0.0
 20
0.0
 30
0.0
  0
ENDBLK
  5
3CA
330
3AB
100
AcDbEntity
  8
0
100
AcDbBlockEnd
  0
BLOCK
  5
3AF
330
3AE
100
AcDbEntity
  8
0
100
AcDbBlockBegin
  2
block 4
 70
     0
 10
0.0
 20
0.0
 30
0.0
  3
block 4
  1
block 4
  0
POLYLINE
  5
3B0
330
3AE
100
AcDbEntity
  8
LOGO
370
     0
100
AcDb2dPolyline
 66
     1
 10
0.0
 20
0.0
 30
0.0
  0
VERTEX
  5
3B1
330
3B0
100
AcDbEntity
  8
LOGO
370
     0
100
AcDbVertex
100
AcDb2dVertex
 10
83.79545727667795
 20
167.6444858234922
 30
0.0
  0
VERTEX
  5
3B2
330
3B0
100
AcDbEntity
  8
LOGO
370
     0
100
AcDbVertex
100
AcDb2dVertex
 10
83.79545727667795
 20
159.7968976406313
 30
0.0
  0
VERTEX
  5
3B3
330
3B0
100
AcDbEntity
  8
LOGO
370
     0
100
AcDbVertex
100
AcDb2dVertex
 10
71.3631329975216
 20
159.7968976406313
 30
0.0
  0
VERTEX
  5
3B4
330
3B0
100
AcDbEntity
  8
LOGO
370
     0
100
AcDbVertex
100
AcDb2dVertex
 10
71.3631329975216
 20
127.8027915271048
 30
0.0
  0
VERTEX
  5
3B5
330
3B0
100
AcDbEntity
  8
LOGO
370
     0
100
AcDbVertex
100
AcDb2dVertex
 10
60.43011526263018
 20
127.8027915271048
 30
0.0
  0
VERTEX
  5
3B6
330
3B0
100
AcDbEntity
  8
LOGO
370
     0
100
AcDbVertex
100
AcDb2dVertex
 10
60.43011526263018
 20
159.7968976406313
 30
0.0
  0
VERTEX
  5
3B7
330
3B0
100
AcDbEntity
  8
LOGO
370
     0
100
AcDbVertex
100
AcDb2dVertex
 10
48.21793273020759
 20
159.7968976406313
 30
0.0
  0
VERTEX
  5
3B8
330
3B0
100
AcDbEntity
  8
LOGO
370
     0
100
AcDbVertex
100
AcDb2dVertex
 10
48.21793273020759
 20
167.6444858234922
 30
0.0
  0
VERTEX
  5
3B9
330
3B0
100
AcDbEntity
  8
LOGO
370
     0
100
AcDbVertex
100
AcDb2dVertex
 10
83.79545727667795
 20
167.6444858234922
 30
0.0
  0
SEQEND
  5
3BA
330
3B0
100
AcDbEntity
  8
LOGO
370
     0
  0
HATCH
  5
3BB
330
3AE
100
AcDbEntity
  8
LOGO
 62
   250
420
  2234388
100
AcDbHatch
 10
0.0
 20
0.0
 30
0.0
210
0.0
220
0.0
230
1.0
  2
SOLID
 70
     1
 71
     0
 91
        1
 92
        1
 93
        8
 72
     1
 10
83.79545727667795
 20
167.6444858234922
 11
83.79545727667795
 21
159.7968976406313
 72
     1
 10
83.79545727667795
 20
159.7968976406313
 11
71.3631329975216
 21
159.7968976406313
 72
     1
 10
71.3631329975216
 20
159.7968976406313
 11
71.3631329975216
 21
127.8027915271048
 72
     1
 10
71.3631329975216
 20
127.8027915271048
 11
60.43011526263018
 21
127.8027915271048
 72
     1
 10
60.43011526263018
 20
127.8027915271048
 11
60.43011526263018
 21
159.7968976406313
 72
     1
 10
60.43011526263018
 20
159.7968976406313
 11
48.21793273020759
 21
159.7968976406313
 72
     1
 10
48.21793273020759
 20
159.7968976406313
 11
48.21793273020759
 21
167.6444858234922
 72
     1
 10
48.21793273020759
 20
167.6444858234922
 11
83.79545727667795
 21
167.6444858234922
 97
        0
 75
     2
 76
     1
 98
        0
  0
INSERT
  5
3BC
330
3AE
100
AcDbEntity
  8
LOGO
100
AcDbBlockReference
  2
block 5
 10
0.0
 20
0.0
 30
0.0
  0
ENDBLK
  5
3C9
330
3AE
100
AcDbEntity
  8
0
100
AcDbBlockEnd
  0
BLOCK
  5
3BE
330
3BD
100
AcDbEntity
  8
0
100
AcDbBlockBegin
  2
block 5
 70
     0
 10
0.0
 20
0.0
 30
0.0
  3
block 5
  1
block 5
  0
SPLINE
  5
3BF
330
3BD
100
AcDbEntity
  8
LOGO
370
     0
100
AcDbSpline
210
0.0
220
0.0
230
1.0
 70
    11
 71
     3
 72
    56
 73
    52
 74
     0
 42
0.000000001
 43
0.0000000001
 40
0.0
 40
0.0
 40
0.0
 40
0.0
 40
1.0
 40
1.0
 40
1.0
 40
2.0
 40
2.0
 40
2.0
 40
3.0
 40
3.0
 40
3.0
 40
4.0
 40
4.0
 40
4.0
 40
5.0
 40
5.0
 40
5.0
 40
6.0
 40
6.0
 40
6.0
 40
7.0
 40
7.0
 40
7.0
 40
8.0
 40
8.0
 40
8.0
 40
9.0
 40
9.0
 40
9.0
 40
10.0
 40
10.0
 40
10.0
 40
11.0
 40
11.0
 40
11.0
 40
12.0
 40
12.0
 40
12.0
 40
13.0
 40
13.0
 40
13.0
 40
14.0
 40
14.0
 40
14.0
 40
15.0
 40
15.0
 40
15.0
 40
16.0
 40
16.0
 40
16.0
 40
17.0
 40
17.0
 40
17.0
 40
17.0
 10
100.4504378777679
 20
166.69157178364
 30
0.0
 10
101.9848844191641
 20
167.1313385124438
 30
0.0
 10
103.9637485713373
 20
166.7649523658846
 30
0.0
 10
103.9637485713373
 20
166.7649523658846
 30
0.0
 10
103.9637485713373
 20
166.7649523658846
 30
0.0
 10
103.0132460999156
 20
163.911205638077
 30
0.0
 10
103.0132460999156
 20
163.911205638077
 30
0.0
 10
103.0132460999156
 20
163.911205638077
 30
0.0
 10
101.0674548862189
 20
164.3601018759394
 30
0.0
 10
99.57090442016032
 20
163.1805004036133
 30
0.0
 10
98.40508333886608
 20
162.258247733807
 30
0.0
 10
97.65301849830304
 20
159.804132345923
 30
0.0
 10
97.3598406791005
 20
158.8699940888517
 30
0.0
 10
97.3598406791005
 20
158.8699940888517
 30
0.0
 10
96.07137411762282
 20
154.9119212747295
 30
0.0
 10
96.07137411762282
 20
154.9119212747295
 30
0.0
 10
96.07137411762282
 20
154.9119212747295
 30
0.0
 10
100.3012651448482
 20
154.9119212747295
 30
0.0
 10
100.3012651448482
 20
154.9119212747295
 30
0.0
 10
100.3012651448482
 20
154.9119212747295
 30
0.0
 10
99.64152892419852
 20
152.4199098115079
 30
0.0
 10
99.64152892419852
 20
152.4199098115079
 30
0.0
 10
99.64152892419852
 20
152.4199098115079
 30
0.0
 10
95.38097652692731
 20
152.4199098115079
 30
0.0
 10
95.38097652692731
 20
152.4199098115079
 30
0.0
 10
95.38097652692731
 20
152.4199098115079
 30
0.0
 10
87.75353009080013
 20
127.8027915271048
 30
0.0
 10
87.75353009080013
 20
127.8027915271048
 30
0.0
 10
87.75353009080013
 20
127.8027915271048
 30
0.0
 10
85.36538832498108
 20
127.8027915271048
 30
0.0
 10
85.36538832498108
 20
127.8027915271048
 30
0.0
 10
85.36538832498108
 20
127.8027915271048
 30
0.0
 10
93.00006946639998
 20
152.4199098115079
 30
0.0
 10
93.00006946639998
 20
152.4199098115079
 30
0.0
 10
93.00006946639998
 20
152.4199098115079
 30
0.0
 10
89.85297266450198
 20
152.4199098115079
 30
0.0
 10
89.85297266450198
 20
152.4199098115079
 30
0.0
 10
89.85297266450198
 20
152.4199098115079
 30
0.0
 10
90.51270888515164
 20
154.9119212747295
 30
0.0
 10
90.51270888515164
 20
154.9119212747295
 30
0.0
 10
90.51270888515164
 20
154.9119212747295
 30
0.0
 10
93.6904670570955
 20
154.9119212747295
 30
0.0
 10
93.6904670570955
 20
154.9119212747295
 30
0.0
 10
93.6904670570955
 20
154.9119212747295
 30
0.0
 10
94.81598049462158
 20
158.3616699146644
 30
0.0
 10
94.81598049462158
 20
158.3616699146644
 30
0.0
 10
95.7237637538445
 20
161.2605474231013
 30
0.0
 10
96.4968436907311
 20
162.8139420021662
 30
0.0
 10
97.15657991138076
 20
163.9844139654337
 30
0.0
 10
97.81183750494507
 20
165.1523021053827
 30
0.0
 10
99.1047826935081
 20
166.3084769129547
 30
0.0
 10
100.4504378777679
 20
166.69157178364
 30
0.0
  0
HATCH
  5
3C0
330
3BD
100
AcDbEntity
  8
LOGO
 62
   250
420
  2234388
100
AcDbHatch
 10
0.0
 20
0.0
 30
0.0
210
0.0
220
0.0
230
1.0
  2
SOLID
 70
     1
 71
     0
 91
        1
 92
        1
 93
        1
 72
     4
 94
        3
 73
     0
 74
     1
 95
       56
 96
       52
 40
0.0
 40
0.0
 40
0.0
 40
0.0
 40
1.0
 40
1.0
 40
1.0
 40
2.0
 40
2.0
 40
2.0
 40
3.0
 40
3.0
 40
3.0
 40
4.0
 40
4.0
 40
4.0
 40
5.0
 40
5.0
 40
5.0
 40
6.0
 40
6.0
 40
6.0
 40
7.0
 40
7.0
 40
7.0
 40
8.0
 40
8.0
 40
8.0
 40
9.0
 40
9.0
 40
9.0
 40
10.0
 40
10.0
 40
10.0
 40
11.0
 40
11.0
 40
11.0
 40
12.0
 40
12.0
 40
12.0
 40
13.0
 40
13.0
 40
13.0
 40
14.0
 40
14.0
 40
14.0
 40
15.0
 40
15.0
 40
15.0
 40
16.0
 40
16.0
 40
16.0
 40
17.0
 40
17.0
 40
17.0
 40
17.0
 10
100.4504378777679
 20
166.69157178364
 10
101.9848844191641
 20
167.1313385124438
 10
103.9637485713373
 20
166.7649523658846
 10
103.9637485713373
 20
166.7649523658846
 10
103.9637485713373
 20
166.7649523658846
 10
103.0132460999156
 20
163.911205638077
 10
103.0132460999156
 20
163.911205638077
 10
103.0132460999156
 20
163.911205638077
 10
101.0674548862189
 20
164.3601018759394
 10
99.57090442016032
 20
163.1805004036133
 10
98.40508333886608
 20
162.258247733807
 10
97.65301849830304
 20
159.804132345923
 10
97.3598406791005
 20
158.8699940888517
 10
97.3598406791005
 20
158.8699940888517
 10
96.07137411762282
 20
154.9119212747295
 10
96.07137411762282
 20
154.9119212747295
 10
96.07137411762282
 20
154.9119212747295
 10
100.3012651448482
 20
154.9119212747295
 10
100.3012651448482
 20
154.9119212747295
 10
100.3012651448482
 20
154.9119212747295
 10
99.64152892419852
 20
152.4199098115079
 10
99.64152892419852
 20
152.4199098115079
 10
99.64152892419852
 20
152.4199098115079
 10
95.38097652692731
 20
152.4199098115079
 10
95.38097652692731
 20
152.4199098115079
 10
95.38097652692731
 20
152.4199098115079
 10
87.75353009080013
 20
127.8027915271048
 10
87.75353009080013
 20
127.8027915271048
 10
87.75353009080013
 20
127.8027915271048
 10
85.36538832498108
 20
127.8027915271048
 10
85.36538832498108
 20
127.8027915271048
 10
85.36538832498108
 20
127.8027915271048
 10
93.00006946639998
 20
152.4199098115079
 10
93.00006946639998
 20
152.4199098115079
 10
93.00006946639998
 20
152.4199098115079
 10
89.85297266450198
 20
152.4199098115079
 10
89.85297266450198
 20
152.4199098115079
 10
89.85297266450198
 20
152.4199098115079
 10
90.51270888515164
 20
154.9119212747295
 10
90.51270888515164
 20
154.9119212747295
 10
90.51270888515164
 20
154.9119212747295
 10
93.6904670570955
 20
154.9119212747295
 10
93.6904670570955
 20
154.9119212747295
 10
93.6904670570955
 20
154.9119212747295
 10
94.81598049462158
 20
158.3616699146644
 10
94.81598049462158
 20
158.3616699146644
 10
95.7237637538445
 20
161.2605474231013
 10
96.4968436907311
 20
162.8139420021662
 10
97.15657991138076
 20
163.9844139654337
 10
97.81183750494507
 20
165.1523021053827
 10
99.1047826935081
 20
166.3084769129547
 10
100.4504378777679
 20
166.69157178364
 97
        0
 75
     2
 76
     1
 98
        0
  0
SPLINE
  5
3C1
330
3BD
100
AcDbEntity
  8
LOGO
370
     0
100
AcDbSpline
210
0.0
220
0.0
230
1.0
 70
    11
 71
     3
 72
    38
 73
    34
 74
     0
 42
0.000000001
 43
0.0000000001
 40
0.0
 40
0.0
 40
0.0
 40
0.0
 40
1.0
 40
1.0
 40
1.0
 40
2.0
 40
2.0
 40
2.0
 40
3.0
 40
3.0
 40
3.0
 40
4.0
 40
4.0
 40
4.0
 40
5.0
 40
5.0
 40
5.0
 40
6.0
 40
6.0
 40
6.0
 40
7.0
 40
7.0
 40
7.0
 40
8.0
 40
8.0
 40
8.0
 40
9.0
 40
9.0
 40
9.0
 40
10.0
 40
10.0
 40
10.0
 40
11.0
 40
11.0
 40
11.0
 40
11.0
 10
126.377554584636
 20
154.8151140277308
 30
0.0
 10
126.377554584636
 20
154.8151140277308
 30
0.0
 10
128.8311532078563
 20
154.8151140277308
 30
0.0
 10
128.8311532078563
 20
154.8151140277308
 30
0.0
 10
128.8311532078563
 20
154.8151140277308
 30
0.0
 10
127.7345785914971
 20
151.3062819612468
 30
0.0
 10
127.7345785914971
 20
151.3062819612468
 30
0.0
 10
128.571392836906
 20
152.2922689395754
 30
0.0
 10
129.8860421413442
 20
153.604506675583
 30
0.0
 10
131.0163787157314
 20
154.2664822097754
 30
0.0
 10
132.7044766171327
 20
155.2500576196734
 30
0.0
 10
133.6642808525008
 20
155.3847609420097
 30
0.0
 10
134.7284715499351
 20
155.3565111403944
 30
0.0
 10
134.7284715499351
 20
155.3565111403944
 30
0.0
 10
133.6877075172549
 20
152.0345756272799
 30
0.0
 10
133.6877075172549
 20
152.0345756272799
 30
0.0
 10
133.011434827367
 20
152.3184516825359
 30
0.0
 10
130.930940291334
 20
151.7768823149844
 30
0.0
 10
129.739280976855
 20
150.9162968950455
 30
0.0
 10
128.66613302525
 20
150.1454562717016
 30
0.0
 10
127.9192358313239
 20
149.4857200510519
 30
0.0
 10
127.0393578639405
 20
147.8282835196966
 30
0.0
 10
126.164647543194
 20
146.1699857139017
 30
0.0
 10
125.4742499524985
 20
143.5262176944419
 30
0.0
 10
124.2822461282437
 20
139.6959580071401
 30
0.0
 10
124.2822461282437
 20
139.6959580071401
 30
0.0
 10
120.5753209406769
 20
127.8027915271048
 30
0.0
 10
120.5753209406769
 20
127.8027915271048
 30
0.0
 10
120.5753209406769
 20
127.8027915271048
 30
0.0
 10
118.1964809388044
 20
127.8027915271048
 30
0.0
 10
118.1964809388044
 20
127.8027915271048
 30
0.0
 10
118.1964809388044
 20
127.8027915271048
 30
0.0
 10
126.377554584636
 20
154.8151140277308
 30
0.0
 10
126.377554584636
 20
154.8151140277308
 30
0.0
  0
HATCH
  5
3C2
330
3BD
100
AcDbEntity
  8
LOGO
 62
   250
420
  2234388
100
AcDbHatch
 10
0.0
 20
0.0
 30
0.0
210
0.0
220
0.0
230
1.0
  2
SOLID
 70
     1
 71
     0
 91
        1
 92
        1
 93
        1
 72
     4
 94
        3
 73
     0
 74
     1
 95
       38
 96
       34
 40
0.0
 40
0.0
 40
0.0
 40
0.0
 40
1.0
 40
1.0
 40
1.0
 40
2.0
 40
2.0
 40
2.0
 40
3.0
 40
3.0
 40
3.0
 40
4.0
 40
4.0
 40
4.0
 40
5.0
 40
5.0
 40
5.0
 40
6.0
 40
6.0
 40
6.0
 40
7.0
 40
7.0
 40
7.0
 40
8.0
 40
8.0
 40
8.0
 40
9.0
 40
9.0
 40
9.0
 40
10.0
 40
10.0
 40
10.0
 40
11.0
 40
11.0
 40
11.0
 40
11.0
 10
126.377554584636
 20
154.8151140277308
 10
126.377554584636
 20
154.8151140277308
 10
128.8311532078563
 20
154.8151140277308
 10
128.8311532078563
 20
154.8151140277308
 10
128.8311532078563
 20
154.8151140277308
 10
127.7345785914971
 20
151.3062819612468
 10
127.7345785914971
 20
151.3062819612468
 10
128.571392836906
 20
152.2922689395754
 10
129.8860421413442
 20
153.604506675583
 10
131.0163787157314
 20
154.2664822097754
 10
132.7044766171327
 20
155.2500576196734
 10
133.6642808525008
 20
155.3847609420097
 10
134.7284715499351
 20
155.3565111403944
 10
134.7284715499351
 20
155.3565111403944
 10
133.6877075172549
 20
152.0345756272799
 10
133.6877075172549
 20
152.0345756272799
 10
133.011434827367
 20
152.3184516825359
 10
130.930940291334
 20
151.7768823149844
 10
129.739280976855
 20
150.9162968950455
 10
128.66613302525
 20
150.1454562717016
 10
127.9192358313239
 20
149.4857200510519
 10
127.0393578639405
 20
147.8282835196966
 10
126.164647543194
 20
146.1699857139017
 10
125.4742499524985
 20
143.5262176944419
 10
124.2822461282437
 20
139.6959580071401
 10
124.2822461282437
 20
139.6959580071401
 10
120.5753209406769
 20
127.8027915271048
 10
120.5753209406769
 20
127.8027915271048
 10
120.5753209406769
 20
127.8027915271048
 10
118.1964809388044
 20
127.8027915271048
 10
118.1964809388044
 20
127.8027915271048
 10
118.1964809388044
 20
127.8027915271048
 10
126.377554584636
 20
154.8151140277308
 10
126.377554584636
 20
154.8151140277308
 97
        0
 75
     2
 76
     1
 98
        0
  0
SPLINE
  5
3C3
330
3BD
100
AcDbEntity
  8
LOGO
370
     0
100
AcDbSpline
210
0.0
220
0.0
230
1.0
 70
    11
 71
     3
 72
   104
 73
   100
 74
     0
 42
0.000000001
 43
0.0000000001
 40
0.0
 40
0.0
 40
0.0
 40
0.0
 40
1.0
 40
1.0
 40
1.0
 40
2.0
 40
2.0
 40
2.0
 40
3.0
 40
3.0
 40
3.0
 40
4.0
 40
4.0
 40
4.0
 40
5.0
 40
5.0
 40
5.0
 40
6.0
 40
6.0
 40
6.0
 40
7.0
 40
7.0
 40
7.0
 40
8.0
 40
8.0
 40
8.0
 40
9.0
 40
9.0
 40
9.0
 40
10.0
 40
10.0
 40
10.0
 40
11.0
 40
11.0
 40
11.0
 40
12.0
 40
12.0
 40
12.0
 40
13.0
 40
13.0
 40
13.0
 40
14.0
 40
14.0
 40
14.0
 40
15.0
 40
15.0
 40
15.0
 40
16.0
 40
16.0
 40
16.0
 40
17.0
 40
17.0
 40
17.0
 40
18.0
 40
18.0
 40
18.0
 40
19.0
 40
19.0
 40
19.0
 40
20.0
 40
20.0
 40
20.0
 40
21.0
 40
21.0
 40
21.0
 40
22.0
 40
22.0
 40
22.0
 40
23.0
 40
23.0
 40
23.0
 40
24.0
 40
24.0
 40
24.0
 40
25.0
 40
25.0
 40
25.0
 40
26.0
 40
26.0
 40
26.0
 40
27.0
 40
27.0
 40
27.0
 40
28.0
 40
28.0
 40
28.0
 40
29.0
 40
29.0
 40
29.0
 40
30.0
 40
30.0
 40
30.0
 40
31.0
 40
31.0
 40
31.0
 40
32.0
 40
32.0
 40
32.0
 40
33.0
 40
33.0
 40
33.0
 40
33.0
 10
139.8926730891197
 20
154.8294111834263
 30
0.0
 10
139.8926730891197
 20
154.8294111834263
 30
0.0
 10
142.0344903652445
 20
154.8294111834263
 30
0.0
 10
142.0344903652445
 20
154.8294111834263
 30
0.0
 10
142.0344903652445
 20
154.8294111834263
 30
0.0
 10
140.9516961399171
 20
151.3157559800812
 30
0.0
 10
140.9516961399171
 20
151.3157559800812
 30
0.0
 10
141.8928968473923
 20
152.7887075264977
 30
0.0
 10
142.7341897198865
 20
153.4484437471474
 30
0.0
 10
143.8552245303272
 20
154.2926649527359
 30
0.0
 10
144.9803934580775
 20
155.1296514530327
 30
0.0
 10
146.3139908001845
 20
155.3044901642492
 30
0.0
 10
147.241066606852
 20
155.3044901642492
 30
0.0
 10
148.3855280820469
 20
155.3044901642492
 30
0.0
 10
149.4969166187653
 20
155.0752189084569
 30
0.0
 10
150.0784491203092
 20
153.8172414621372
 30
0.0
 10
150.5228667310863
 20
152.833838307127
 30
0.0
 10
150.5414702589793
 20
152.7201500811143
 30
0.0
 10
150.4140016419347
 20
150.7765981809602
 30
0.0
 10
151.5818897818837
 20
152.7699317437168
 30
0.0
 10
152.4424752018226
 20
153.6256940267945
 30
0.0
 10
153.9038856707499
 20
154.4507949398263
 30
0.0
 10
155.4455669174378
 20
155.3044901642492
 30
0.0
 10
156.339225275853
 20
155.3659851592288
 30
0.0
 10
157.3748216618963
 20
155.2147453676543
 30
0.0
 10
158.911679771723
 20
154.9877134254046
 30
0.0
 10
159.8859534176746
 20
154.4390816074493
 30
0.0
 10
160.3965169054045
 20
152.7816450760939
 30
0.0
 10
160.9070803931344
 20
151.1219692311958
 30
0.0
 10
160.6328506116007
 20
150.2303779314354
 30
0.0
 10
159.9992971339115
 20
147.597634224801
 30
0.0
 10
159.7105979417943
 20
146.4014962832367
 30
0.0
 10
159.2947746424084
 20
144.9400858143094
 30
0.0
 10
158.7463150793409
 20
143.2092687007094
 30
0.0
 10
158.7463150793409
 20
143.2092687007094
 30
0.0
 10
153.9038856707499
 20
127.8027915271048
 30
0.0
 10
153.9038856707499
 20
127.8027915271048
 30
0.0
 10
153.9038856707499
 20
127.8027915271048
 30
0.0
 10
151.3882752878863
 20
127.8027915271048
 30
0.0
 10
151.3882752878863
 20
127.8027915271048
 30
0.0
 10
151.3882752878863
 20
127.8027915271048
 30
0.0
 10
155.6250565106276
 20
141.2751908193897
 30
0.0
 10
155.6250565106276
 20
141.2751908193897
 30
0.0
 10
156.5094131050963
 20
144.0936252951782
 30
0.0
 10
157.109893644309
 20
146.1506931664571
 30
0.0
 10
157.4220195011804
 20
147.4415712963654
 30
0.0
 10
157.8095929989511
 20
149.0530157726519
 30
0.0
 10
157.9656559273867
 20
149.5826995529385
 30
0.0
 10
157.7816877071116
 20
150.7529992613181
 30
0.0
 10
157.6111553680925
 20
151.8430281919372
 30
0.0
 10
157.0582171779396
 20
152.5547853887321
 30
0.0
 10
156.1170164704645
 20
152.5547853887321
 30
0.0
 10
155.1096698860365
 20
152.5547853887321
 30
0.0
 10
154.2962823053817
 20
152.4412694176073
 30
0.0
 10
153.156643967048
 20
151.2945686288697
 30
0.0
 10
152.0170056287143
 20
150.1476955852443
 30
0.0
 10
151.076149431015
 20
148.7930831468137
 30
0.0
 10
150.3337308641742
 20
147.2290087646991
 30
0.0
 10
149.5957909244188
 20
145.6683794803425
 30
0.0
 10
148.8530278478023
 20
143.6822806228776
 30
0.0
 10
148.0964843801539
 20
141.2751908193897
 30
0.0
 10
148.0964843801539
 20
141.2751908193897
 30
0.0
 10
143.8552245303272
 20
127.8027915271048
 30
0.0
 10
143.8552245303272
 20
127.8027915271048
 30
0.0
 10
143.8552245303272
 20
127.8027915271048
 30
0.0
 10
141.486030802177
 20
127.8027915271048
 30
0.0
 10
141.486030802177
 20
127.8027915271048
 30
0.0
 10
141.486030802177
 20
127.8027915271048
 30
0.0
 10
146.3329388378533
 20
143.2092687007094
 30
0.0
 10
146.3329388378533
 20
143.2092687007094
 30
0.0
 10
146.8483254624444
 20
144.8408669988801
 30
0.0
 10
147.2314203331297
 20
146.1837661049335
 30
0.0
 10
147.4867020769946
 20
147.224185627838
 30
0.0
 10
147.9169947869641
 20
149.0197705792876
 30
0.0
 10
148.0306830129768
 20
150.2400242051577
 30
0.0
 10
147.709255392159
 20
151.3157559800812
 30
0.0
 10
147.3874832615654
 20
152.3916600098926
 30
0.0
 10
146.8245542879144
 20
152.6683013598569
 30
0.0
 10
145.8840425999909
 20
152.6683013598569
 30
0.0
 10
145.0989048209514
 20
152.6683013598569
 30
0.0
 10
144.3282364524954
 20
152.3275811915945
 30
0.0
 10
143.4531816219731
 20
151.6538923250251
 30
0.0
 10
142.34627171234
 20
150.8074318058939
 30
0.0
 10
141.901854101563
 20
150.1097995099067
 30
0.0
 10
141.3578731655808
 20
149.289521733736
 30
0.0
 10
140.6299240093235
 20
148.192602607601
 30
0.0
 10
140.2850697237515
 20
147.455696197173
 30
0.0
 10
139.6652966370942
 20
145.8385673095858
 30
0.0
 10
139.0506911970739
 20
144.2214384219986
 30
0.0
 10
138.463991048893
 20
142.3252566160164
 30
0.0
 10
138.0571250036777
 20
141.0154304484394
 30
0.0
 10
138.0571250036777
 20
141.0154304484394
 30
0.0
 10
133.9009590684727
 20
127.8027915271048
 30
0.0
 10
133.9009590684727
 20
127.8027915271048
 30
0.0
 10
133.9009590684727
 20
127.8027915271048
 30
0.0
 10
131.4180771143097
 20
127.8027915271048
 30
0.0
 10
131.4180771143097
 20
127.8027915271048
 30
0.0
 10
131.4180771143097
 20
127.8027915271048
 30
0.0
 10
139.8926730891197
 20
154.8294111834263
 30
0.0
 10
139.8926730891197
 20
154.8294111834263
 30
0.0
  0
HATCH
  5
3C4
330
3BD
100
AcDbEntity
  8
LOGO
 62
   250
420
  2234388
100
AcDbHatch
 10
0.0
 20
0.0
 30
0.0
210
0.0
220
0.0
230
1.0
  2
SOLID
 70
     1
 71
     0
 91
        1
 92
        1
 93
        1
 72
     4
 94
        3
 73
     0
 74
     1
 95
      104
 96
      100
 40
0.0
 40
0.0
 40
0.0
 40
0.0
 40
1.0
 40
1.0
 40
1.0
 40
2.0
 40
2.0
 40
2.0
 40
3.0
 40
3.0
 40
3.0
 40
4.0
 40
4.0
 40
4.0
 40
5.0
 40
5.0
 40
5.0
 40
6.0
 40
6.0
 40
6.0
 40
7.0
 40
7.0
 40
7.0
 40
8.0
 40
8.0
 40
8.0
 40
9.0
 40
9.0
 40
9.0
 40
10.0
 40
10.0
 40
10.0
 40
11.0
 40
11.0
 40
11.0
 40
12.0
 40
12.0
 40
12.0
 40
13.0
 40
13.0
 40
13.0
 40
14.0
 40
14.0
 40
14.0
 40
15.0
 40
15.0
 40
15.0
 40
16.0
 40
16.0
 40
16.0
 40
17.0
 40
17.0
 40
17.0
 40
18.0
 40
18.0
 40
18.0
 40
19.0
 40
19.0
 40
19.0
 40
20.0
 40
20.0
 40
20.0
 40
21.0
 40
21.0
 40
21.0
 40
22.0
 40
22.0
 40
22.0
 40
23.0
 40
23.0
 40
23.0
 40
24.0
 40
24.0
 40
24.0
 40
25.0
 40
25.0
 40
25.0
 40
26.0
 40
26.0
 40
26.0
 40
27.0
 40
27.0
 40
27.0
 40
28.0
 40
28.0
 40
28.0
 40
29.0
 40
29.0
 40
29.0
 40
30.0
 40
30.0
 40
30.0
 40
31.0
 40
31.0
 40
31.0
 40
32.0
 40
32.0
 40
32.0
 40
33.0
 40
33.0
 40
33.0
 40
33.0
 10
139.8926730891197
 20
154.8294111834263
 10
139.8926730891197
 20
154.8294111834263
 10
142.0344903652445
 20
154.8294111834263
 10
142.0344903652445
 20
154.8294111834263
 10
142.0344903652445
 20
154.8294111834263
 10
140.9516961399171
 20
151.3157559800812
 10
140.9516961399171
 20
151.3157559800812
 10
141.8928968473923
 20
152.7887075264977
 10
142.7341897198865
 20
153.4484437471474
 10
143.8552245303272
 20
154.2926649527359
 10
144.9803934580775
 20
155.1296514530327
 10
146.3139908001845
 20
155.3044901642492
 10
147.241066606852
 20
155.3044901642492
 10
148.3855280820469
 20
155.3044901642492
 10
149.4969166187653
 20
155.0752189084569
 10
150.0784491203092
 20
153.8172414621372
 10
150.5228667310863
 20
152.833838307127
 10
150.5414702589793
 20
152.7201500811143
 10
150.4140016419347
 20
150.7765981809602
 10
151.5818897818837
 20
152.7699317437168
 10
152.4424752018226
 20
153.6256940267945
 10
153.9038856707499
 20
154.4507949398263
 10
155.4455669174378
 20
155.3044901642492
 10
156.339225275853
 20
155.3659851592288
 10
157.3748216618963
 20
155.2147453676543
 10
158.911679771723
 20
154.9877134254046
 10
159.8859534176746
 20
154.4390816074493
 10
160.3965169054045
 20
152.7816450760939
 10
160.9070803931344
 20
151.1219692311958
 10
160.6328506116007
 20
150.2303779314354
 10
159.9992971339115
 20
147.597634224801
 10
159.7105979417943
 20
146.4014962832367
 10
159.2947746424084
 20
144.9400858143094
 10
158.7463150793409
 20
143.2092687007094
 10
158.7463150793409
 20
143.2092687007094
 10
153.9038856707499
 20
127.8027915271048
 10
153.9038856707499
 20
127.8027915271048
 10
153.9038856707499
 20
127.8027915271048
 10
151.3882752878863
 20
127.8027915271048
 10
151.3882752878863
 20
127.8027915271048
 10
151.3882752878863
 20
127.8027915271048
 10
155.6250565106276
 20
141.2751908193897
 10
155.6250565106276
 20
141.2751908193897
 10
156.5094131050963
 20
144.0936252951782
 10
157.109893644309
 20
146.1506931664571
 10
157.4220195011804
 20
147.4415712963654
 10
157.8095929989511
 20
149.0530157726519
 10
157.9656559273867
 20
149.5826995529385
 10
157.7816877071116
 20
150.7529992613181
 10
157.6111553680925
 20
151.8430281919372
 10
157.0582171779396
 20
152.5547853887321
 10
156.1170164704645
 20
152.5547853887321
 10
155.1096698860365
 20
152.5547853887321
 10
154.2962823053817
 20
152.4412694176073
 10
153.156643967048
 20
151.2945686288697
 10
152.0170056287143
 20
150.1476955852443
 10
151.076149431015
 20
148.7930831468137
 10
150.3337308641742
 20
147.2290087646991
 10
149.5957909244188
 20
145.6683794803425
 10
148.8530278478023
 20
143.6822806228776
 10
148.0964843801539
 20
141.2751908193897
 10
148.0964843801539
 20
141.2751908193897
 10
143.8552245303272
 20
127.8027915271048
 10
143.8552245303272
 20
127.8027915271048
 10
143.8552245303272
 20
127.8027915271048
 10
141.486030802177
 20
127.8027915271048
 10
141.486030802177
 20
127.8027915271048
 10
141.486030802177
 20
127.8027915271048
 10
146.3329388378533
 20
143.2092687007094
 10
146.3329388378533
 20
143.2092687007094
 10
146.8483254624444
 20
144.8408669988801
 10
147.2314203331297
 20
146.1837661049335
 10
147.4867020769946
 20
147.224185627838
 10
147.9169947869641
 20
149.0197705792876
 10
148.0306830129768
 20
150.2400242051577
 10
147.709255392159
 20
151.3157559800812
 10
147.3874832615654
 20
152.3916600098926
 10
146.8245542879144
 20
152.6683013598569
 10
145.8840425999909
 20
152.6683013598569
 10
145.0989048209514
 20
152.6683013598569
 10
144.3282364524954
 20
152.3275811915945
 10
143.4531816219731
 20
151.6538923250251
 10
142.34627171234
 20
150.8074318058939
 10
141.901854101563
 20
150.1097995099067
 10
141.3578731655808
 20
149.289521733736
 10
140.6299240093235
 20
148.192602607601
 10
140.2850697237515
 20
147.455696197173
 10
139.6652966370942
 20
145.8385673095858
 10
139.0506911970739
 20
144.2214384219986
 10
138.463991048893
 20
142.3252566160164
 10
138.0571250036777
 20
141.0154304484394
 10
138.0571250036777
 20
141.0154304484394
 10
133.9009590684727
 20
127.8027915271048
 10
133.9009590684727
 20
127.8027915271048
 10
133.9009590684727
 20
127.8027915271048
 10
131.4180771143097
 20
127.8027915271048
 10
131.4180771143097
 20
127.8027915271048
 10
131.4180771143097
 20
127.8027915271048
 10
139.8926730891197
 20
154.8294111834263
 10
139.8926730891197
 20
154.8294111834263
 97
        0
 75
     2
 76
     1
 98
        0
  0
SPLINE
  5
3C5
330
3BD
100
AcDbEntity
  8
LOGO
370
     0
100
AcDbSpline
210
0.0
220
0.0
230
1.0
 70
    11
 71
     3
 72
    29
 73
    25
 74
     0
 42
0.000000001
 43
0.0000000001
 40
0.0
 40
0.0
 40
0.0
 40
0.0
 40
1.0
 40
1.0
 40
1.0
 40
2.0
 40
2.0
 40
2.0
 40
3.0
 40
3.0
 40
3.0
 40
4.0
 40
4.0
 40
4.0
 40
5.0
 40
5.0
 40
5.0
 40
6.0
 40
6.0
 40
6.0
 40
7.0
 40
7.0
 40
7.0
 40
8.0
 40
8.0
 40
8.0
 40
8.0
 10
101.6420971922469
 20
132.8388354296931
 30
0.0
 10
101.630039350094
 20
134.7164137077823
 30
0.0
 10
102.2236296937908
 20
138.0598810818841
 30
0.0
 10
103.7487744712405
 20
142.5378191476827
 30
0.0
 10
105.819967243327
 20
148.5896501242061
 30
0.0
 10
107.0602024361932
 20
150.8074318058939
 30
0.0
 10
108.1522984254671
 20
151.8833358357054
 30
0.0
 10
109.741177511439
 20
153.4532668840085
 30
0.0
 10
111.8740375333931
 20
153.5290590346837
 30
0.0
 10
112.5075910110823
 20
153.4532668840085
 30
0.0
 10
113.4012493694975
 20
153.3490526768302
 30
0.0
 10
114.6683563248758
 20
152.7580461564518
 30
0.0
 10
114.7493161221879
 20
150.7838328862519
 30
0.0
 10
114.8106388622796
 20
149.0909118479895
 30
0.0
 10
114.3186789024427
 20
145.9191825971221
 30
0.0
 10
112.6164561002338
 20
140.9489400617108
 30
0.0
 10
110.6444821435766
 20
135.1746117095912
 30
0.0
 10
109.4669477299053
 20
132.8960240524753
 30
0.0
 10
108.5212683953448
 20
131.9072809959403
 30
0.0
 10
106.7346406980658
 20
130.0538184021569
 30
0.0
 10
104.8222669326213
 20
130.2336525051225
 30
0.0
 10
104.5408024457958
 20
130.2336525051225
 30
0.0
 10
104.1721769856939
 20
130.2336525051225
 30
0.0
 10
101.6465758193322
 20
130.6305277668397
 30
0.0
 10
101.6420971922469
 20
132.8388354296931
 30
0.0
  0
SPLINE
  5
3C6
330
3BD
100
AcDbEntity
  8
LOGO
370
     0
100
AcDbSpline
210
0.0
220
0.0
230
1.0
 70
    11
 71
     3
 72
    32
 73
    28
 74
     0
 42
0.000000001
 43
0.0000000001
 40
0.0
 40
0.0
 40
0.0
 40
0.0
 40
1.0
 40
1.0
 40
1.0
 40
2.0
 40
2.0
 40
2.0
 40
3.0
 40
3.0
 40
3.0
 40
4.0
 40
4.0
 40
4.0
 40
5.0
 40
5.0
 40
5.0
 40
6.0
 40
6.0
 40
6.0
 40
7.0
 40
7.0
 40
7.0
 40
8.0
 40
8.0
 40
8.0
 40
9.0
 40
9.0
 40
9.0
 40
9.0
 10
106.2595617172429
 20
153.4105476718098
 30
0.0
 10
104.8222669326213
 20
151.5474388043041
 30
0.0
 10
103.7177685914188
 20
149.8758773721411
 30
0.0
 10
101.9232171692965
 20
144.6141795664062
 30
0.0
 10
100.2754269116635
 20
139.7999999594306
 30
0.0
 10
99.22777268346732
 20
136.3052927937542
 30
0.0
 10
99.06964269637689
 20
132.039572749846
 30
0.0
 10
98.94665270641765
 20
128.8673267343149
 30
0.0
 10
100.8807305877373
 20
127.8027915271048
 30
0.0
 10
103.7129454545577
 20
127.8027915271048
 30
0.0
 10
104.9352661390825
 20
127.8027915271048
 30
0.0
 10
108.0151835347002
 20
127.8827177950895
 30
0.0
 10
110.2045431598849
 20
130.5926316915021
 30
0.0
 10
111.7417457794874
 20
132.4984597712065
 30
0.0
 10
113.155269389579
 20
134.475256864725
 30
0.0
 10
115.0562743324223
 20
140.9489400617108
 30
0.0
 10
116.6361961642235
 20
146.3680788349845
 30
0.0
 10
117.7282921534974
 20
149.8639917848761
 30
0.0
 10
117.6480213757369
 20
151.8595646611754
 30
0.0
 10
117.6480213757369
 20
151.8595646611754
 30
0.0
 10
117.6480213757369
 20
151.8595646611754
 30
0.0
 10
117.6480213757369
 20
151.8595646611754
 30
0.0
 10
117.13229024137
 20
155.18150017429
 30
0.0
 10
114.7162431837115
 20
155.886194920681
 30
0.0
 10
113.3351034925446
 20
155.886194920681
 30
0.0
 10
111.9829026225447
 20
155.886194920681
 30
0.0
 10
108.3414342923792
 20
156.1251124501957
 30
0.0
 10
106.2595617172429
 20
153.4105476718098
 30
0.0
  0
HATCH
  5
3C7
330
3BD
100
AcDbEntity
  8
LOGO
 62
   250
420
  2234388
100
AcDbHatch
 10
0.0
 20
0.0
 30
0.0
210
0.0
220
0.0
230
1.0
  2
SOLID
 70
     1
 71
     0
 91
        2
 92
        1
 93
        1
 72
     4
 94
        3
 73
     0
 74
     1
 95
       29
 96
       25
 40
0.0
 40
0.0
 40
0.0
 40
0.0
 40
1.0
 40
1.0
 40
1.0
 40
2.0
 40
2.0
 40
2.0
 40
3.0
 40
3.0
 40
3.0
 40
4.0
 40
4.0
 40
4.0
 40
5.0
 40
5.0
 40
5.0
 40
6.0
 40
6.0
 40
6.0
 40
7.0
 40
7.0
 40
7.0
 40
8.0
 40
8.0
 40
8.0
 40
8.0
 10
101.6420971922469
 20
132.8388354296931
 10
101.630039350094
 20
134.7164137077823
 10
102.2236296937908
 20
138.0598810818841
 10
103.7487744712405
 20
142.5378191476827
 10
105.819967243327
 20
148.5896501242061
 10
107.0602024361932
 20
150.8074318058939
 10
108.1522984254671
 20
151.8833358357054
 10
109.741177511439
 20
153.4532668840085
 10
111.8740375333931
 20
153.5290590346837
 10
112.5075910110823
 20
153.4532668840085
 10
113.4012493694975
 20
153.3490526768302
 10
114.6683563248758
 20
152.7580461564518
 10
114.7493161221879
 20
150.7838328862519
 10
114.8106388622796
 20
149.0909118479895
 10
114.3186789024427
 20
145.9191825971221
 10
112.6164561002338
 20
140.9489400617108
 10
110.6444821435766
 20
135.1746117095912
 10
109.4669477299053
 20
132.8960240524753
 10
108.5212683953448
 20
131.9072809959403
 10
106.7346406980658
 20
130.0538184021569
 10
104.8222669326213
 20
130.2336525051225
 10
104.5408024457958
 20
130.2336525051225
 10
104.1721769856939
 20
130.2336525051225
 10
101.6465758193322
 20
130.6305277668397
 10
101.6420971922469
 20
132.8388354296931
 97
        0
 92
        1
 93
        1
 72
     4
 94
        3
 73
     0
 74
     1
 95
       32
 96
       28
 40
0.0
 40
0.0
 40
0.0
 40
0.0
 40
1.0
 40
1.0
 40
1.0
 40
2.0
 40
2.0
 40
2.0
 40
3.0
 40
3.0
 40
3.0
 40
4.0
 40
4.0
 40
4.0
 40
5.0
 40
5.0
 40
5.0
 40
6.0
 40
6.0
 40
6.0
 40
7.0
 40
7.0
 40
7.0
 40
8.0
 40
8.0
 40
8.0
 40
9.0
 40
9.0
 40
9.0
 40
9.0
 10
106.2595617172429
 20
153.4105476718098
 10
104.8222669326213
 20
151.5474388043041
 10
103.7177685914188
 20
149.8758773721411
 10
101.9232171692965
 20
144.6141795664062
 10
100.2754269116635
 20
139.7999999594306
 10
99.22777268346732
 20
136.3052927937542
 10
99.06964269637689
 20
132.039572749846
 10
98.94665270641765
 20
128.8673267343149
 10
100.8807305877373
 20
127.8027915271048
 10
103.7129454545577
 20
127.8027915271048
 10
104.9352661390825
 20
127.8027915271048
 10
108.0151835347002
 20
127.8827177950895
 10
110.2045431598849
 20
130.5926316915021
 10
111.7417457794874
 20
132.4984597712065
 10
113.155269389579
 20
134.475256864725
 10
115.0562743324223
 20
140.9489400617108
 10
116.6361961642235
 20
146.3680788349845
 10
117.7282921534974
 20
149.8639917848761
 10
117.6480213757369
 20
151.8595646611754
 10
117.6480213757369
 20
151.8595646611754
 10
117.6480213757369
 20
151.8595646611754
 10
117.6480213757369
 20
151.8595646611754
 10
117.13229024137
 20
155.18150017429
 10
114.7162431837115
 20
155.886194920681
 10
113.3351034925446
 20
155.886194920681
 10
111.9829026225447
 20
155.886194920681
 10
108.3414342923792
 20
156.1251124501957
 10
106.2595617172429
 20
153.4105476718098
 97
        0
 75
     2
 76
     1
 98
        0
  0
ENDBLK
  5
3C8
330
3BD
100
AcDbEntity
  8
0
100
AcDbBlockEnd
  0
BLOCK
  5
1857
330
1856
100
AcDbEntity
  8
0
100
AcDbBlockBegin
  2
*D6
 70
     1
 10
0.0
 20
0.0
 30
0.0
  3
*D6
  1
*D132
  0
LINE
  5
1859
330
1856
100
AcDbEntity
  8
DIM
 62
     0
370
    -2
100
AcDbLine
 10
767.4501783669375
 20
2922.943375555779
 30
0.0
 11
767.4501783669375
 21
3247.450126950232
 31
0.0
  0
LINE
  5
185A
330
1856
100
AcDbEntity
  8
DIM
 62
     0
370
    -2
100
AcDbLine
 10
1517.450117331778
 20
2922.943375555779
 30
0.0
 11
1517.450117331778
 21
3247.450126950232
 31
0.0
  0
LINE
  5
185B
330
1856
100
AcDbEntity
  8
DIM
 62
     0
370
    -2
100
AcDbLine
 10
785.4501783669375
 20
3247.450126950232
 30
0.0
 11
1499.450117331778
 21
3247.450126950232
 31
0.0
  0
INSERT
  5
185C
330
1856
100
AcDbEntity
  8
DIM
 62
     0
370
    -2
100
AcDbBlockReference
  2
_DOT
 10
767.4501783669375
 20
3247.450126950232
 30
0.0
 41
18.0
 42
18.0
 43
18.0
 50
180.0
  0
INSERT
  5
185D
330
1856
100
AcDbEntity
  8
DIM
 62
     0
370
    -2
100
AcDbBlockReference
  2
_DOT
 10
1517.450117331778
 20
3247.450126950232
 30
0.0
 41
18.0
 42
18.0
 43
18.0
  0
MTEXT
  5
185E
330
1856
100
AcDbEntity
  8
DIM
  6
Continuous
 62
     0
100
AcDbMText
 10
1142.450147849358
 20
3301.450126950232
 30
0.0
 40
48.0
 41
0.0
 46
0.0
 71
     5
 72
     1
  1
\A1;750
  7
ＭＳ ゴシック
 73
     1
 44
1.0
  0
POINT
  5
185F
330
1856
100
AcDbEntity
  8
Defpoints
 62
     0
100
AcDbPoint
 10
767.4501783669375
 20
2862.943375555779
 30
0.0
  0
POINT
  5
1860
330
1856
100
AcDbEntity
  8
Defpoints
 62
     0
100
AcDbPoint
 10
1517.450117331778
 20
2862.943375555779
 30
0.0
  0
POINT
  5
1861
330
1856
100
AcDbEntity
  8
Defpoints
 62
     0
100
AcDbPoint
 10
1517.450117331778
 20
3247.450126950232
 30
0.0
  0
ENDBLK
  5
1858
330
1856
100
AcDbEntity
  8
0
100
AcDbBlockEnd
  0
BLOCK
  5
1863
330
1862
100
AcDbEntity
  8
0
100
AcDbBlockBegin
  2
*D7
 70
     1
 10
0.0
 20
0.0
 30
0.0
  3
*D7
  1
*D133
  0
LINE
  5
1865
330
1862
100
AcDbEntity
  8
DIM
 62
     0
370
    -2
100
AcDbLine
 10
711.8865164798726
 20
1178.376474157626
 30
0.0
 11
416.6564785055928
 21
1178.376474157626
 31
0.0
  0
LINE
  5
1866
330
1862
100
AcDbEntity
  8
DIM
 62
     0
370
    -2
100
AcDbLine
 10
732.9756775255873
 20
2878.376271978718
 30
0.0
 11
416.656478505594
 21
2878.376271978718
 31
0.0
  0
LINE
  5
1867
330
1862
100
AcDbEntity
  8
DIM
 62
     0
370
    -2
100
AcDbLine
 10
416.6564785055928
 20
1196.376474157626
 30
0.0
 11
416.656478505594
 21
2860.376271978718
 31
0.0
  0
INSERT
  5
1868
330
1862
100
AcDbEntity
  8
DIM
 62
     0
370
    -2
100
AcDbBlockReference
  2
_DOT
 10
416.6564785055928
 20
1178.376474157626
 30
0.0
 41
18.0
 42
18.0
 43
18.0
 50
269.9999999999999
  0
INSERT
  5
1869
330
1862
100
AcDbEntity
  8
DIM
 62
     0
370
    -2
100
AcDbBlockReference
  2
_DOT
 10
416.656478505594
 20
2878.376271978718
 30
0.0
 41
18.0
 42
18.0
 43
18.0
 50
89.99999999999996
  0
MTEXT
  5
186A
330
1862
100
AcDbEntity
  8
DIM
  6
Continuous
 62
     0
100
AcDbMText
 10
362.6564785055934
 20
2028.376373068172
 30
0.0
 40
48.0
 41
0.0
 46
0.0
 71
     5
 72
     1
  1
\A1;1700
  7
ＭＳ ゴシック
 11
7.356208021557568E-16
 21
1.0
 31
0.0
 73
     1
 44
1.0
  0
POINT
  5
186B
330
1862
100
AcDbEntity
  8
Defpoints
 62
     0
100
AcDbPoint
 10
771.8865164798726
 20
1178.376474157626
 30
0.0
  0
POINT
  5
186C
330
1862
100
AcDbEntity
  8
Defpoints
 62
     0
100
AcDbPoint
 10
792.9756775255873
 20
2878.376271978718
 30
0.0
  0
POINT
  5
186D
330
1862
100
AcDbEntity
  8
Defpoints
 62
     0
100
AcDbPoint
 10
416.6564785055939
 20
2878.376271978718
 30
0.0
  0
ENDBLK
  5
1864
330
1862
100
AcDbEntity
  8
0
100
AcDbBlockEnd
  0
BLOCK
  5
186F
330
186E
100
AcDbEntity
  8
0
100
AcDbBlockBegin
  2
*D8
 70
     1
 10
0.0
 20
0.0
 30
0.0
  3
*D8
  1
*D134
  0
LINE
  5
1871
330
186E
100
AcDbEntity
  8
DIM
 62
     0
370
    -2
100
AcDbLine
 10
1304.486959460041
 20
2028.37639404898
 30
0.0
 11
1798.506748638029
 21
2028.376394048979
 31
0.0
  0
LINE
  5
1872
330
186E
100
AcDbEntity
  8
DIM
 62
     0
370
    -2
100
AcDbLine
 10
1573.520430178628
 20
2878.376271978718
 30
0.0
 11
1798.506748638029
 21
2878.376271978717
 31
0.0
  0
LINE
  5
1873
330
186E
100
AcDbEntity
  8
DIM
 62
     0
370
    -2
100
AcDbLine
 10
1798.506748638029
 20
2046.376394048979
 30
0.0
 11
1798.506748638029
 21
2860.376271978717
 31
0.0
  0
INSERT
  5
1874
330
186E
100
AcDbEntity
  8
DIM
 62
     0
370
    -2
100
AcDbBlockReference
  2
_DOT
 10
1798.506748638029
 20
2028.376394048979
 30
0.0
 41
18.0
 42
18.0
 43
18.0
 50
269.9999999999999
  0
INSERT
  5
1875
330
186E
100
AcDbEntity
  8
DIM
 62
     0
370
    -2
100
AcDbBlockReference
  2
_DOT
 10
1798.506748638029
 20
2878.376271978717
 30
0.0
 41
18.0
 42
18.0
 43
18.0
 50
89.99999999999996
  0
MTEXT
  5
1876
330
186E
100
AcDbEntity
  8
DIM
  6
Continuous
 62
     0
100
AcDbMText
 10
1744.506748638029
 20
2453.376333013849
 30
0.0
 40
48.0
 41
0.0
 46
0.0
 71
     5
 72
     1
  1
\A1;850
  7
ＭＳ ゴシック
 11
8.024954403417935E-16
 21
1.0
 31
0.0
 73
     1
 44
1.0
  0
POINT
  5
1877
330
186E
100
AcDbEntity
  8
Defpoints
 62
     0
100
AcDbPoint
 10
1244.486959460041
 20
2028.37639404898
 30
0.0
  0
POINT
  5
1878
330
186E
100
AcDbEntity
  8
Defpoints
 62
     0
100
AcDbPoint
 10
1513.520430178628
 20
2878.376271978718
 30
0.0
  0
POINT
  5
1879
330
186E
100
AcDbEntity
  8
Defpoints
 62
     0
100
AcDbPoint
 10
1798.50674863803
 20
2878.376271978718
 30
0.0
  0
ENDBLK
  5
1870
330
186E
100
AcDbEntity
  8
0
100
AcDbBlockEnd
  0
BLOCK
  5
188F
330
188E
100
AcDbEntity
  8
0
100
AcDbBlockBegin
  2
*D9
 70
     1
 10
0.0
 20
0.0
 30
0.0
  3
*D9
  1
*D136
  0
LINE
  5
1891
330
188E
100
AcDbEntity
  8
DIM
 62
     0
370
    -2
100
AcDbLine
 10
2663.977432883125
 20
1258.37639404898
 30
0.0
 11
2407.657228230391
 21
1258.37639404898
 31
0.0
  0
LINE
  5
1892
330
188E
100
AcDbEntity
  8
DIM
 62
     0
370
    -2
100
AcDbLine
 10
2663.977380204123
 20
2798.37639404898
 30
0.0
 11
2407.657228230391
 21
2798.37639404898
 31
0.0
  0
LINE
  5
1893
330
188E
100
AcDbEntity
  8
DIM
 62
     0
370
    -2
100
AcDbLine
 10
2407.657228230391
 20
1276.37639404898
 30
0.0
 11
2407.657228230391
 21
2780.37639404898
 31
0.0
  0
INSERT
  5
1894
330
188E
100
AcDbEntity
  8
DIM
 62
     0
370
    -2
100
AcDbBlockReference
  2
_DOT
 10
2407.657228230391
 20
1258.37639404898
 30
0.0
 41
18.0
 42
18.0
 43
18.0
 50
269.9999999999999
  0
INSERT
  5
1895
330
188E
100
AcDbEntity
  8
DIM
 62
     0
370
    -2
100
AcDbBlockReference
  2
_DOT
 10
2407.657228230391
 20
2798.37639404898
 30
0.0
 41
18.0
 42
18.0
 43
18.0
 50
89.99999999999996
  0
MTEXT
  5
1896
330
188E
100
AcDbEntity
  8
DIM
  6
Continuous
 62
     0
100
AcDbMText
 10
2353.657228230391
 20
2028.37639404898
 30
0.0
 40
48.0
 41
0.0
 46
0.0
 71
     5
 72
     1
  1
\A1;1540
  7
ＭＳ ゴシック
 11
5.905809751772260E-16
 21
1.0
 31
0.0
 73
     1
 44
1.0
  0
POINT
  5
1897
330
188E
100
AcDbEntity
  8
Defpoints
 62
     0
100
AcDbPoint
 10
2723.977432883125
 20
1258.37639404898
 30
0.0
  0
POINT
  5
1898
330
188E
100
AcDbEntity
  8
Defpoints
 62
     0
100
AcDbPoint
 10
2723.977380204123
 20
2798.37639404898
 30
0.0
  0
POINT
  5
1899
330
188E
100
AcDbEntity
  8
Defpoints
 62
     0
100
AcDbPoint
 10
2407.657228230391
 20
2798.37639404898
 30
0.0
  0
ENDBLK
  5
1890
330
188E
100
AcDbEntity
  8
0
100
AcDbBlockEnd
  0
BLOCK
  5
189B
330
189A
100
AcDbEntity
  8
0
100
AcDbBlockBegin
  2
*D10
 70
     1
 10
0.0
 20
0.0
 30
0.0
  3
*D10
  1
*D137
  0
LINE
  5
189D
330
189A
100
AcDbEntity
  8
DIM
 62
     0
370
    -2
100
AcDbLine
 10
2877.511851274175
 20
1488.376373068168
 30
0.0
 11
2559.578552733948
 21
1488.376373068168
 31
0.0
  0
LINE
  5
189E
330
189A
100
AcDbEntity
  8
DIM
 62
     0
370
    -2
100
AcDbLine
 10
2877.511851274176
 20
2568.376373068168
 30
0.0
 11
2559.578552733949
 21
2568.376373068168
 31
0.0
  0
LINE
  5
189F
330
189A
100
AcDbEntity
  8
DIM
 62
     0
370
    -2
100
AcDbLine
 10
2559.578552733948
 20
1506.376373068168
 30
0.0
 11
2559.578552733949
 21
2550.376373068168
 31
0.0
  0
INSERT
  5
18A0
330
189A
100
AcDbEntity
  8
DIM
 62
     0
370
    -2
100
AcDbBlockReference
  2
_DOT
 10
2559.578552733948
 20
1488.376373068168
 30
0.0
 41
18.0
 42
18.0
 43
18.0
 50
269.9999999999999
  0
INSERT
  5
18A1
330
189A
100
AcDbEntity
  8
DIM
 62
     0
370
    -2
100
AcDbBlockReference
  2
_DOT
 10
2559.578552733949
 20
2568.376373068168
 30
0.0
 41
18.0
 42
18.0
 43
18.0
 50
89.99999999999994
  0
MTEXT
  5
18A2
330
189A
100
AcDbEntity
  8
DIM
  6
Continuous
 62
     0
100
AcDbMText
 10
2505.578552733949
 20
2028.376373068168
 30
0.0
 40
48.0
 41
0.0
 46
0.0
 71
     5
 72
     1
  1
\A1;1080
  7
ＭＳ ゴシック
 11
8.421247238638225E-16
 21
1.0
 31
0.0
 73
     1
 44
1.0
  0
POINT
  5
18A3
330
189A
100
AcDbEntity
  8
Defpoints
 62
     0
100
AcDbPoint
 10
2937.511851274175
 20
1488.376373068168
 30
0.0
  0
POINT
  5
18A4
330
189A
100
AcDbEntity
  8
Defpoints
 62
     0
100
AcDbPoint
 10
2937.511851274176
 20
2568.376373068168
 30
0.0
  0
POINT
  5
18A5
330
189A
100
AcDbEntity
  8
Defpoints
 62
     0
100
AcDbPoint
 10
2559.578552733949
 20
2568.376373068168
 30
0.0
  0
ENDBLK
  5
189C
330
189A
100
AcDbEntity
  8
0
100
AcDbBlockEnd
  0
BLOCK
  5
18A7
330
18A6
100
AcDbEntity
  8
0
100
AcDbBlockBegin
  2
*D11
 70
     1
 10
0.0
 20
0.0
 30
0.0
  3
*D11
  1
*D138
  0
LINE
  5
18A9
330
18A6
100
AcDbEntity
  8
DIM
 62
     0
370
    -2
100
AcDbLine
 10
2726.074351218967
 20
2002.376376882864
 30
0.0
 11
2672.901272995677
 21
2002.376376882864
 31
0.0
  0
LINE
  5
18AA
330
18A6
100
AcDbEntity
  8
DIM
 62
     0
370
    -2
100
AcDbLine
 10
2726.074351218967
 20
2054.376369253471
 30
0.0
 11
2672.901272995677
 21
2054.376369253471
 31
0.0
  0
LINE
  5
18AB
330
18A6
100
AcDbEntity
  8
DIM
 62
     0
370
    -2
100
AcDbLine
 10
2672.901272995677
 20
2020.376376882864
 30
0.0
 11
2672.901272995677
 21
2036.376369253471
 31
0.0
  0
INSERT
  5
18AC
330
18A6
100
AcDbEntity
  8
DIM
 62
     0
370
    -2
100
AcDbBlockReference
  2
_DOT
 10
2672.901272995677
 20
2002.376376882864
 30
0.0
 41
18.0
 42
18.0
 43
18.0
 50
270.0
  0
INSERT
  5
18AD
330
18A6
100
AcDbEntity
  8
DIM
 62
     0
370
    -2
100
AcDbBlockReference
  2
_DOT
 10
2672.901272995677
 20
2054.376369253471
 30
0.0
 41
18.0
 42
18.0
 43
18.0
 50
90.0
  0
MTEXT
  5
18AE
330
18A6
100
AcDbEntity
  8
DIM
  6
Continuous
 62
     0
100
AcDbMText
 10
2618.661272995677
 20
2028.376373068166
 30
0.0
 40
48.0
 41
0.0
 46
0.0
 71
     5
 72
     1
  1
\A1;%%c52
  7
ＭＳ ゴシック
 11
0.0
 21
1.0
 31
0.0
 73
     1
 44
1.0
  0
POINT
  5
18AF
330
18A6
100
AcDbEntity
  8
Defpoints
 62
     0
100
AcDbPoint
 10
2786.074351218967
 20
2002.376376882864
 30
0.0
  0
POINT
  5
18B0
330
18A6
100
AcDbEntity
  8
Defpoints
 62
     0
100
AcDbPoint
 10
2786.074351218967
 20
2054.376369253471
 30
0.0
  0
POINT
  5
18B1
330
18A6
100
AcDbEntity
  8
Defpoints
 62
     0
100
AcDbPoint
 10
2672.901272995677
 20
2054.376369253471
 30
0.0
  0
ENDBLK
  5
18A8
330
18A6
100
AcDbEntity
  8
0
100
AcDbBlockEnd
  0
BLOCK
  5
18B3
330
18B2
100
AcDbEntity
  8
0
100
AcDbBlockBegin
  2
*D12
 70
     1
 10
0.0
 20
0.0
 30
0.0
  3
*D12
  1
*D139
  0
LINE
  5
18B5
330
18B2
100
AcDbEntity
  8
DIM
 62
     0
370
    -2
100
AcDbLine
 10
2716.088735495407
 20
2923.521451721357
 30
0.0
 11
2716.088735495407
 21
3324.533907357787
 31
0.0
  0
LINE
  5
18B6
330
18B2
100
AcDbEntity
  8
DIM
 62
     0
370
    -2
100
AcDbLine
 10
3326.088733588061
 20
2938.521451721357
 30
0.0
 11
3326.088733588061
 21
3324.533907357787
 31
0.0
  0
LINE
  5
18B7
330
18B2
100
AcDbEntity
  8
DIM
 62
     0
370
    -2
100
AcDbLine
 10
2734.088735495407
 20
3324.533907357787
 30
0.0
 11
3308.088733588061
 21
3324.533907357787
 31
0.0
  0
INSERT
  5
18B8
330
18B2
100
AcDbEntity
  8
DIM
 62
     0
370
    -2
100
AcDbBlockReference
  2
_DOT
 10
2716.088735495407
 20
3324.533907357787
 30
0.0
 41
18.0
 42
18.0
 43
18.0
 50
180.0
  0
INSERT
  5
18B9
330
18B2
100
AcDbEntity
  8
DIM
 62
     0
370
    -2
100
AcDbBlockReference
  2
_DOT
 10
3326.088733588061
 20
3324.533907357787
 30
0.0
 41
18.0
 42
18.0
 43
18.0
  0
MTEXT
  5
18BA
330
18B2
100
AcDbEntity
  8
DIM
  6
Continuous
 62
     0
100
AcDbMText
 10
3021.074352172643
 20
3378.533907357787
 30
0.0
 40
48.0
 41
0.0
 46
0.0
 71
     5
 72
     1
  1
\A1;610
  7
ＭＳ ゴシック
 73
     1
 44
1.0
  0
POINT
  5
18BB
330
18B2
100
AcDbEntity
  8
Defpoints
 62
     0
100
AcDbPoint
 10
2716.088735495407
 20
2863.521451721357
 30
0.0
  0
POINT
  5
18BC
330
18B2
100
AcDbEntity
  8
Defpoints
 62
     0
100
AcDbPoint
 10
3326.088733588061
 20
2878.521451721357
 30
0.0
  0
POINT
  5
18BD
330
18B2
100
AcDbEntity
  8
Defpoints
 62
     0
100
AcDbPoint
 10
3326.088733588061
 20
3324.533907357787
 30
0.0
  0
ENDBLK
  5
18B4
330
18B2
100
AcDbEntity
  8
0
100
AcDbBlockEnd
  0
BLOCK
  5
18CB
330
18CA
100
AcDbEntity
  8
0
100
AcDbBlockBegin
  2
*D13
 70
     1
 10
0.0
 20
0.0
 30
0.0
  3
*D13
  1
*D141
  0
LINE
  5
18CD
330
18CA
100
AcDbEntity
  8
DIM
 62
     0
370
    -2
100
AcDbLine
 10
3386.074351218967
 20
1178.376394048978
 30
0.0
 11
3544.685500398225
 21
1178.376394048978
 31
0.0
  0
LINE
  5
18CE
330
18CA
100
AcDbEntity
  8
DIM
 62
     0
370
    -2
100
AcDbLine
 10
3386.074351218967
 20
2878.37639404899
 30
0.0
 11
3544.685500398226
 21
2878.37639404899
 31
0.0
  0
LINE
  5
18CF
330
18CA
100
AcDbEntity
  8
DIM
 62
     0
370
    -2
100
AcDbLine
 10
3544.685500398225
 20
1196.376394048978
 30
0.0
 11
3544.685500398226
 21
2860.37639404899
 31
0.0
  0
INSERT
  5
18D0
330
18CA
100
AcDbEntity
  8
DIM
 62
     0
370
    -2
100
AcDbBlockReference
  2
_DOT
 10
3544.685500398225
 20
1178.376394048978
 30
0.0
 41
18.0
 42
18.0
 43
18.0
 50
269.9999999999999
  0
INSERT
  5
18D1
330
18CA
100
AcDbEntity
  8
DIM
 62
     0
370
    -2
100
AcDbBlockReference
  2
_DOT
 10
3544.685500398226
 20
2878.37639404899
 30
0.0
 41
18.0
 42
18.0
 43
18.0
 50
89.99999999999996
  0
MTEXT
  5
18D2
330
18CA
100
AcDbEntity
  8
DIM
  6
Continuous
 62
     0
100
AcDbMText
 10
3490.685500398225
 20
2028.376394048984
 30
0.0
 40
48.0
 41
0.0
 46
0.0
 71
     5
 72
     1
  1
\A1;1700
  7
ＭＳ ゴシック
 11
8.024953250937544E-16
 21
1.0
 31
0.0
 73
     1
 44
1.0
  0
POINT
  5
18D3
330
18CA
100
AcDbEntity
  8
Defpoints
 62
     0
100
AcDbPoint
 10
3326.074351218967
 20
1178.376394048978
 30
0.0
  0
POINT
  5
18D4
330
18CA
100
AcDbEntity
  8
Defpoints
 62
     0
100
AcDbPoint
 10
3326.074351218967
 20
2878.37639404899
 30
0.0
  0
POINT
  5
18D5
330
18CA
100
AcDbEntity
  8
Defpoints
 62
     0
100
AcDbPoint
 10
3544.685500398226
 20
2878.37639404899
 30
0.0
  0
ENDBLK
  5
18CC
330
18CA
100
AcDbEntity
  8
0
100
AcDbBlockEnd
  0
BLOCK
  5
18D7
330
18D6
100
AcDbEntity
  8
0
100
AcDbBlockBegin
  2
*D14
 70
     1
 10
0.0
 20
0.0
 30
0.0
  3
*D14
  1
*D142
  0
LINE
  5
18D9
330
18D6
100
AcDbEntity
  8
DIM
 62
     0
370
    -2
100
AcDbLine
 10
2812.07446756722
 20
2088.376373068168
 30
0.0
 11
2812.07446756722
 21
2198.450923406276
 31
0.0
  0
LINE
  5
18DA
330
18D6
100
AcDbEntity
  8
DIM
 62
     0
370
    -2
100
AcDbLine
 10
2716.074471381919
 20
2088.37635018001
 30
0.0
 11
2716.074471381919
 21
2198.450923406276
 31
0.0
  0
LINE
  5
18DB
330
18D6
100
AcDbEntity
  8
DIM
 62
     0
370
    -2
100
AcDbLine
 10
2812.07446756722
 20
2198.450923406276
 30
0.0
 11
3108.66646756722
 21
2198.450923406276
 31
0.0
  0
LINE
  5
18DC
330
18D6
100
AcDbEntity
  8
DIM
 62
     0
370
    -2
100
AcDbLine
 10
2794.07446756722
 20
2198.450923406276
 30
0.0
 11
2734.074471381919
 21
2198.450923406276
 31
0.0
  0
INSERT
  5
18DD
330
18D6
100
AcDbEntity
  8
DIM
 62
     0
370
    -2
100
AcDbBlockReference
  2
_DOT
 10
2812.07446756722
 20
2198.450923406276
 30
0.0
 41
18.0
 42
18.0
 43
18.0
  0
INSERT
  5
18DE
330
18D6
100
AcDbEntity
  8
DIM
 62
     0
370
    -2
100
AcDbBlockReference
  2
_DOT
 10
2716.074471381919
 20
2198.450923406276
 30
0.0
 41
18.0
 42
18.0
 43
18.0
 50
180.0
  0
MTEXT
  5
18DF
330
18D6
100
AcDbEntity
  8
DIM
  6
Continuous
 62
     0
100
AcDbMText
 10
2978.37046756722
 20
2256.458923406276
 30
0.0
 40
48.0
 41
0.0
 46
0.0
 71
     5
 72
     1
  1
\A1;93(※1)
  7
ＭＳ ゴシック
 73
     1
 44
1.0
  0
POINT
  5
18E0
330
18D6
100
AcDbEntity
  8
Defpoints
 62
     0
100
AcDbPoint
 10
2812.07446756722
 20
2028.376373068168
 30
0.0
  0
POINT
  5
18E1
330
18D6
100
AcDbEntity
  8
Defpoints
 62
     0
100
AcDbPoint
 10
2716.074471381919
 20
2028.37635018001
 30
0.0
  0
POINT
  5
18E2
330
18D6
100
AcDbEntity
  8
Defpoints
 62
     0
100
AcDbPoint
 10
2716.074471381919
 20
2198.450923406276
 30
0.0
  0
ENDBLK
  5
18D8
330
18D6
100
AcDbEntity
  8
0
100
AcDbBlockEnd
  0
BLOCK
  5
18E7
330
18E6
100
AcDbEntity
  8
0
100
AcDbBlockBegin
  2
*D15
 70
     1
 10
0.0
 20
0.0
 30
0.0
  3
*D15
  1
*D143
  0
LINE
  5
18E9
330
18E6
100
AcDbEntity
  8
DIM
 62
     0
370
    -2
100
AcDbLine
 10
3386.074351218967
 20
4279.096733603117
 30
0.0
 11
3544.685500398228
 21
4279.096733603117
 31
0.0
  0
LINE
  5
18EA
330
18E6
100
AcDbEntity
  8
DIM
 62
     0
370
    -2
100
AcDbLine
 10
3386.074351218967
 20
5029.096733603117
 30
0.0
 11
3544.685500398228
 21
5029.096733603117
 31
0.0
  0
LINE
  5
18EB
330
18E6
100
AcDbEntity
  8
DIM
 62
     0
370
    -2
100
AcDbLine
 10
3544.685500398228
 20
4297.096733603117
 30
0.0
 11
3544.685500398228
 21
5011.096733603117
 31
0.0
  0
INSERT
  5
18EC
330
18E6
100
AcDbEntity
  8
DIM
 62
     0
370
    -2
100
AcDbBlockReference
  2
_DOT
 10
3544.685500398228
 20
4279.096733603117
 30
0.0
 41
18.0
 42
18.0
 43
18.0
 50
269.9999999999999
  0
INSERT
  5
18ED
330
18E6
100
AcDbEntity
  8
DIM
 62
     0
370
    -2
100
AcDbBlockReference
  2
_DOT
 10
3544.685500398228
 20
5029.096733603117
 30
0.0
 41
18.0
 42
18.0
 43
18.0
 50
89.99999999999996
  0
MTEXT
  5
18EE
330
18E6
100
AcDbEntity
  8
DIM
  6
Continuous
 62
     0
100
AcDbMText
 10
3490.685500398228
 20
4654.096733603117
 30
0.0
 40
48.0
 41
0.0
 46
0.0
 71
     5
 72
     1
  1
\A1;750
  7
ＭＳ ゴシック
 11
6.063298011819521E-16
 21
1.0
 31
0.0
 73
     1
 44
1.0
  0
POINT
  5
18EF
330
18E6
100
AcDbEntity
  8
Defpoints
 62
     0
100
AcDbPoint
 10
3326.074351218967
 20
4279.096733603117
 30
0.0
  0
POINT
  5
18F0
330
18E6
100
AcDbEntity
  8
Defpoints
 62
     0
100
AcDbPoint
 10
3326.074351218967
 20
5029.096733603117
 30
0.0
  0
POINT
  5
18F1
330
18E6
100
AcDbEntity
  8
Defpoints
 62
     0
100
AcDbPoint
 10
3544.685500398228
 20
5029.096733603117
 30
0.0
  0
ENDBLK
  5
18E8
330
18E6
100
AcDbEntity
  8
0
100
AcDbBlockEnd
  0
BLOCK
  5
190C
330
190B
100
AcDbEntity
  8
0
100
AcDbBlockBegin
  2
*D17
 70
     1
 10
0.0
 20
0.0
 30
0.0
  3
*D17
  1
*D146
  0
LINE
  5
190E
330
190B
100
AcDbEntity
  8
DIM
  6
Continuous
 62
     0
370
    -2
100
AcDbLine
 10
1097.662288837985
 20
1968.163026324178
 30
0.0
 11
1097.662288837985
 21
1898.798744457777
 31
0.0
  0
LINE
  5
190F
330
190B
100
AcDbEntity
  8
DIM
  6
Continuous
 62
     0
370
    -2
100
AcDbLine
 10
1187.662288837985
 20
1968.163026324178
 30
0.0
 11
1187.662288837985
 21
1898.798744457777
 31
0.0
  0
LINE
  5
1910
330
190B
100
AcDbEntity
  8
DIM
  6
Continuous
 62
     0
370
    -2
100
AcDbLine
 10
1115.662288837985
 20
1898.798744457777
 30
0.0
 11
1169.662288837985
 21
1898.798744457777
 31
0.0
  0
INSERT
  5
1911
330
190B
100
AcDbEntity
  8
DIM
 62
     0
370
    -2
100
AcDbBlockReference
  2
_DOT
 10
1097.662288837985
 20
1898.798744457777
 30
0.0
 41
18.0
 42
18.0
 43
18.0
 50
180.0
  0
INSERT
  5
1912
330
190B
100
AcDbEntity
  8
DIM
 62
     0
370
    -2
100
AcDbBlockReference
  2
_DOT
 10
1187.662288837985
 20
1898.798744457777
 30
0.0
 41
18.0
 42
18.0
 43
18.0
  0
MTEXT
  5
1913
330
190B
100
AcDbEntity
  8
DIM
  6
Continuous
 62
     0
370
     0
100
AcDbMText
 10
1142.450178366934
 20
1844.558744457777
 30
0.0
 40
48.0
 41
0.0
 46
0.0
 71
     5
 72
     1
  1
\A1;%%c90
  7
ＭＳ ゴシック
 73
     1
 44
1.0
  0
POINT
  5
1914
330
190B
100
AcDbEntity
  8
Defpoints
 62
     0
100
AcDbPoint
 10
1097.662288837985
 20
2028.163026324178
 30
0.0
  0
POINT
  5
1915
330
190B
100
AcDbEntity
  8
Defpoints
 62
     0
100
AcDbPoint
 10
1187.662288837985
 20
2028.163026324178
 30
0.0
  0
POINT
  5
1916
330
190B
100
AcDbEntity
  8
Defpoints
 62
     0
100
AcDbPoint
 10
1187.662288837985
 20
1898.798744457777
 30
0.0
  0
ENDBLK
  5
190D
330
190B
100
AcDbEntity
  8
0
100
AcDbBlockEnd
  0
BLOCK
  5
192C
330
192B
100
AcDbEntity
  8
0
100
AcDbBlockBegin
  2
*D18
 70
     1
 10
0.0
 20
0.0
 30
0.0
  3
*D18
  1
*D148
  0
LINE
  5
192E
330
192B
100
AcDbEntity
  8
DIM
  6
Continuous
 62
     0
370
    -2
100
AcDbLine
 10
2716.074351218967
 20
2932.37639404899
 30
0.0
 11
2716.074351218967
 21
3126.600071792872
 31
0.0
  0
LINE
  5
192F
330
192B
100
AcDbEntity
  8
DIM
  6
Continuous
 62
     0
370
    -2
100
AcDbLine
 10
3131.074351218967
 20
2618.776601741537
 30
0.0
 11
3131.074351218967
 21
3126.600071792872
 31
0.0
  0
LINE
  5
1930
330
192B
100
AcDbEntity
  8
DIM
  6
Continuous
 62
     0
370
    -2
100
AcDbLine
 10
2734.074351218967
 20
3126.600071792872
 30
0.0
 11
3113.074351218967
 21
3126.600071792872
 31
0.0
  0
INSERT
  5
1931
330
192B
100
AcDbEntity
  8
DIM
 62
     0
370
    -2
100
AcDbBlockReference
  2
_DOT
 10
2716.074351218967
 20
3126.600071792872
 30
0.0
 41
18.0
 42
18.0
 43
18.0
 50
180.0
  0
INSERT
  5
1932
330
192B
100
AcDbEntity
  8
DIM
 62
     0
370
    -2
100
AcDbBlockReference
  2
_DOT
 10
3131.074351218967
 20
3126.600071792872
 30
0.0
 41
18.0
 42
18.0
 43
18.0
  0
MTEXT
  5
1933
330
192B
100
AcDbEntity
  8
DIM
  6
Continuous
 62
     0
370
     0
100
AcDbMText
 10
2923.574351218967
 20
3180.600071792872
 30
0.0
 40
48.0
 41
0.0
 46
0.0
 71
     5
 72
     1
  1
\A1;415
  7
ＭＳ ゴシック
 73
     1
 44
1.0
  0
POINT
  5
1934
330
192B
100
AcDbEntity
  8
Defpoints
 62
     0
100
AcDbPoint
 10
2716.074351218967
 20
2872.37639404899
 30
0.0
  0
POINT
  5
1935
330
192B
100
AcDbEntity
  8
Defpoints
 62
     0
100
AcDbPoint
 10
3131.074351218967
 20
2558.776601741537
 30
0.0
  0
POINT
  5
1936
330
192B
100
AcDbEntity
  8
Defpoints
 62
     0
100
AcDbPoint
 10
3131.074351218967
 20
3126.600071792872
 30
0.0
  0
ENDBLK
  5
192D
330
192B
100
AcDbEntity
  8
0
100
AcDbBlockEnd
  0
BLOCK
  5
1939
330
1938
100
AcDbEntity
  8
0
100
AcDbBlockBegin
  2
*D19
 70
     1
 10
0.0
 20
0.0
 30
0.0
  3
*D19
  1
*D149
  0
LINE
  5
193B
330
1938
100
AcDbEntity
  8
DIM
  6
Continuous
 62
     0
370
    -2
100
AcDbLine
 10
2865.050043203628
 20
4419.096733603117
 30
0.0
 11
2580.000207301839
 21
4419.096733603117
 31
0.0
  0
LINE
  5
193C
330
1938
100
AcDbEntity
  8
DIM
  6
Continuous
 62
     0
370
    -2
100
AcDbLine
 10
2865.050043203628
 20
4889.096733603117
 30
0.0
 11
2580.000207301839
 21
4889.096733603117
 31
0.0
  0
LINE
  5
193D
330
1938
100
AcDbEntity
  8
DIM
  6
Continuous
 62
     0
370
    -2
100
AcDbLine
 10
2580.000207301839
 20
4437.096733603117
 30
0.0
 11
2580.000207301839
 21
4871.096733603117
 31
0.0
  0
INSERT
  5
193E
330
1938
100
AcDbEntity
  8
DIM
 62
     0
370
    -2
100
AcDbBlockReference
  2
_DOT
 10
2580.000207301839
 20
4419.096733603117
 30
0.0
 41
18.0
 42
18.0
 43
18.0
 50
270.0
  0
INSERT
  5
193F
330
1938
100
AcDbEntity
  8
DIM
 62
     0
370
    -2
100
AcDbBlockReference
  2
_DOT
 10
2580.000207301839
 20
4889.096733603117
 30
0.0
 41
18.0
 42
18.0
 43
18.0
 50
90.0
  0
MTEXT
  5
1940
330
1938
100
AcDbEntity
  8
DIM
  6
Continuous
 62
     0
370
     0
100
AcDbMText
 10
2526.000207301839
 20
4654.096733603117
 30
0.0
 40
48.0
 41
0.0
 46
0.0
 71
     5
 72
     1
  1
\A1;470
  7
ＭＳ ゴシック
 11
0.0
 21
1.0
 31
0.0
 73
     1
 44
1.0
  0
POINT
  5
1941
330
1938
100
AcDbEntity
  8
Defpoints
 62
     0
100
AcDbPoint
 10
2890.050043203628
 20
4419.096733603117
 30
0.0
  0
POINT
  5
1942
330
1938
100
AcDbEntity
  8
Defpoints
 62
     0
100
AcDbPoint
 10
2890.050043203628
 20
4889.096733603117
 30
0.0
  0
POINT
  5
1943
330
1938
100
AcDbEntity
  8
Defpoints
 62
     0
100
AcDbPoint
 10
2580.000207301839
 20
4889.096733603117
 30
0.0
  0
ENDBLK
  5
193A
330
1938
100
AcDbEntity
  8
0
100
AcDbBlockEnd
  0
BLOCK
  5
1977
330
1976
100
AcDbEntity
  8
0
100
AcDbBlockBegin
  2
*D20
 70
     1
 10
0.0
 20
0.0
 30
0.0
  3
*D20
  1
*D20
  0
LINE
  5
1979
330
1976
100
AcDbEntity
  8
DIM
  6
Continuous
 62
     0
370
    -2
100
AcDbLine
 10
2716.074351218967
 20
5048.096733603117
 30
0.0
 11
2716.074351218967
 21
5197.28412158372
 31
0.0
  0
LINE
  5
197A
330
1976
100
AcDbEntity
  8
DIM
  6
Continuous
 62
     0
370
    -2
100
AcDbLine
 10
3156.074351218967
 20
4789.513894719612
 30
0.0
 11
3156.074351218967
 21
5197.28412158372
 31
0.0
  0
LINE
  5
197B
330
1976
100
AcDbEntity
  8
DIM
  6
Continuous
 62
     0
370
    -2
100
AcDbLine
 10
2734.074351218967
 20
5197.28412158372
 30
0.0
 11
3138.074351218967
 21
5197.28412158372
 31
0.0
  0
INSERT
  5
197C
330
1976
100
AcDbEntity
  8
DIM
 62
     0
370
    -2
100
AcDbBlockReference
  2
_DOT
 10
2716.074351218967
 20
5197.28412158372
 30
0.0
 41
18.0
 42
18.0
 43
18.0
 50
180.0
  0
INSERT
  5
197D
330
1976
100
AcDbEntity
  8
DIM
 62
     0
370
    -2
100
AcDbBlockReference
  2
_DOT
 10
3156.074351218967
 20
5197.28412158372
 30
0.0
 41
18.0
 42
18.0
 43
18.0
  0
MTEXT
  5
197E
330
1976
100
AcDbEntity
  8
DIM
  6
Continuous
 62
     0
100
AcDbMText
 10
2936.074351218967
 20
5251.28412158372
 30
0.0
 40
48.0
 41
0.0
 46
0.0
 71
     5
 72
     1
  1
\A1;440
  7
ＭＳ ゴシック
 73
     1
 44
1.0
  0
POINT
  5
197F
330
1976
100
AcDbEntity
  8
Defpoints
 62
     0
100
AcDbPoint
 10
2716.074351218967
 20
5023.096733603117
 30
0.0
  0
POINT
  5
1980
330
1976
100
AcDbEntity
  8
Defpoints
 62
     0
100
AcDbPoint
 10
3156.074351218967
 20
4764.513894719612
 30
0.0
  0
POINT
  5
1981
330
1976
100
AcDbEntity
  8
Defpoints
 62
     0
100
AcDbPoint
 10
3156.074351218967
 20
5197.28412158372
 30
0.0
  0
ENDBLK
  5
1978
330
1976
100
AcDbEntity
  8
0
100
AcDbBlockEnd
  0
BLOCK
  5
1A2B
330
1A2A
100
AcDbEntity
  8
0
100
AcDbBlockBegin
  2
*D23
 70
     1
 10
0.0
 20
0.0
 30
0.0
  3
*D23
  1
*D25
  0
LINE
  5
1A2D
330
1A2A
100
AcDbEntity
  8
DIM
  6
Continuous
 62
     0
370
    -2
100
AcDbLine
 10
1081.818098503376
 20
2128.472425484688
 30
0.0
 11
1081.818098503376
 21
2203.613240853815
 31
0.0
  0
LINE
  5
1A2E
330
1A2A
100
AcDbEntity
  8
DIM
  6
Continuous
 62
     0
370
    -2
100
AcDbLine
 10
1206.818098503376
 20
2128.472425484688
 30
0.0
 11
1206.818098503376
 21
2203.613240853815
 31
0.0
  0
LINE
  5
1A2F
330
1A2A
100
AcDbEntity
  8
DIM
  6
Continuous
 62
     0
370
    -2
100
AcDbLine
 10
1099.818098503376
 20
2203.613240853815
 30
0.0
 11
1188.818098503376
 21
2203.613240853815
 31
0.0
  0
INSERT
  5
1A30
330
1A2A
100
AcDbEntity
  8
DIM
 62
     0
370
    -2
100
AcDbBlockReference
  2
_DOT
 10
1081.818098503376
 20
2203.613240853815
 30
0.0
 41
18.0
 42
18.0
 43
18.0
 50
180.0
  0
INSERT
  5
1A31
330
1A2A
100
AcDbEntity
  8
DIM
 62
     0
370
    -2
100
AcDbBlockReference
  2
_DOT
 10
1206.818098503376
 20
2203.613240853815
 30
0.0
 41
18.0
 42
18.0
 43
18.0
  0
MTEXT
  5
1A32
330
1A2A
100
AcDbEntity
  8
DIM
  6
Continuous
 62
     0
100
AcDbMText
 10
1144.318098503376
 20
2257.613240853815
 30
0.0
 40
48.0
 41
0.0
 46
0.0
 71
     5
 72
     1
  1
\A1;125
  7
ＭＳ ゴシック
 73
     1
 44
1.0
  0
POINT
  5
1A33
330
1A2A
100
AcDbEntity
  8
Defpoints
 62
     0
100
AcDbPoint
 10
1081.818098503376
 20
2103.472425484688
 30
0.0
  0
POINT
  5
1A34
330
1A2A
100
AcDbEntity
  8
Defpoints
 62
     0
100
AcDbPoint
 10
1206.818098503376
 20
2103.472425484688
 30
0.0
  0
POINT
  5
1A35
330
1A2A
100
AcDbEntity
  8
Defpoints
 62
     0
100
AcDbPoint
 10
1206.818098503376
 20
2203.613240853815
 30
0.0
  0
ENDBLK
  5
1A2C
330
1A2A
100
AcDbEntity
  8
0
100
AcDbBlockEnd
  0
BLOCK
  5
2103
330
2102
100
AcDbEntity
  8
0
100
AcDbBlockBegin
  2
*D35
 70
     1
 10
0.0
 20
0.0
 30
0.0
  3
*D35
  1
*D35
  0
LINE
  5
2105
330
2102
100
AcDbEntity
  8
DIM
  6
Continuous
 62
     0
370
    -2
100
AcDbLine
 10
2690.58423569674
 20
4359.096733603117
 30
0.0
 11
2407.657228230391
 21
4359.096733603117
 31
0.0
  0
LINE
  5
2106
330
2102
100
AcDbEntity
  8
DIM
  6
Continuous
 62
     0
370
    -2
100
AcDbLine
 10
2690.58423569674
 20
4949.096733603117
 30
0.0
 11
2407.657228230391
 21
4949.096733603117
 31
0.0
  0
LINE
  5
2107
330
2102
100
AcDbEntity
  8
DIM
  6
Continuous
 62
     0
370
    -2
100
AcDbLine
 10
2407.657228230391
 20
4377.096733603117
 30
0.0
 11
2407.657228230391
 21
4931.096733603117
 31
0.0
  0
INSERT
  5
2108
330
2102
100
AcDbEntity
  8
DIM
 62
     0
370
    -2
100
AcDbBlockReference
  2
_DOT
 10
2407.657228230391
 20
4359.096733603117
 30
0.0
 41
18.0
 42
18.0
 43
18.0
 50
270.0
  0
INSERT
  5
2109
330
2102
100
AcDbEntity
  8
DIM
 62
     0
370
    -2
100
AcDbBlockReference
  2
_DOT
 10
2407.657228230391
 20
4949.096733603117
 30
0.0
 41
18.0
 42
18.0
 43
18.0
 50
90.0
  0
MTEXT
  5
210A
330
2102
100
AcDbEntity
  8
DIM
  6
Continuous
 62
     0
100
AcDbMText
 10
2353.657228230391
 20
4654.096733603117
 30
0.0
 40
48.0
 41
0.0
 46
0.0
 71
     5
 72
     1
  1
\A1;590
  7
ＭＳ ゴシック
 11
0.0
 21
1.0
 31
0.0
 73
     1
 44
1.0
  0
POINT
  5
210B
330
2102
100
AcDbEntity
  8
Defpoints
 62
     0
100
AcDbPoint
 10
2715.58423569674
 20
4359.096733603117
 30
0.0
  0
POINT
  5
210C
330
2102
100
AcDbEntity
  8
Defpoints
 62
     0
100
AcDbPoint
 10
2715.58423569674
 20
4949.096733603117
 30
0.0
  0
POINT
  5
210D
330
2102
100
AcDbEntity
  8
Defpoints
 62
     0
100
AcDbPoint
 10
2407.657228230391
 20
4949.096733603117
 30
0.0
  0
ENDBLK
  5
2104
330
2102
100
AcDbEntity
  8
0
100
AcDbBlockEnd
  0
ENDSEC
  0
SECTION
  2
ENTITIES
  0
MTEXT
  5
177
330
A
100
AcDbEntity
  8
TEMPLATE
390
1D
100
AcDbMText
 10
158.5094110653718
 20
697.5697439524535
 30
0.0
 40
32.57682291666666
 41
0.0
 46
0.0
 71
     1
 72
     1
  1
品名
  7
ＭＳ ゴシック
 73
     1
 44
0.7828267384257843
  0
MTEXT
  5
178
330
A
100
AcDbEntity
  8
TEMPLATE
390
1D
100
AcDbMText
 10
158.5094110653718
 20
527.5697439524531
 30
0.0
 40
32.57682291666666
 41
0.0
 46
0.0
 71
     1
 72
     1
  1
仕様
  7
ＭＳ ゴシック
 73
     1
 44
0.7828267384257843
  0
LINE
  5
179
330
A
100
AcDbEntity
  8
TEMPLATE
390
1D
100
AcDbLine
 10
4044.509411064408
 20
544.3995877024532
 30
0.0
 11
144.5094110644077
 21
544.3995877024532
 31
0.0
  0
LWPOLYLINE
  5
17A
330
A
100
AcDbEntity
  8
TEMPLATE
390
1D
100
AcDbPolyline
 90
        5
 70
   128
 43
0.0
 10
4044.509411064408
 20
5804.399587702454
 10
144.5094110644077
 20
5804.399587702454
 10
144.5094110644077
 20
204.3995877024531
 10
4044.509411064408
 20
204.3995877024531
 10
4044.509411064408
 20
5804.399587702454
  0
LINE
  5
17B
330
A
100
AcDbEntity
  8
TEMPLATE
390
1D
100
AcDbLine
 10
4044.509411064408
 20
714.399587702453
 30
0.0
 11
144.5094110644077
 21
714.399587702453
 31
0.0
  0
LINE
  5
17C
330
A
100
AcDbEntity
  8
TEMPLATE
390
1D
100
AcDbLine
 10
4044.509411065372
 20
374.3995877024532
 30
0.0
 11
2538.509411065372
 21
374.3995877024532
 31
0.0
  0
MTEXT
  5
17E
330
A
100
AcDbEntity
  8
TEMPLATE
390
1D
100
AcDbMText
 10
2598.252223569894
 20
314.5787987558371
 30
0.0
 40
48.865234375
 41
0.0
 46
0.0
 71
     1
 72
     1
  1
大洋金物株式会社 ティーフォルム事業部
  7
ＭＳ ゴシック
 73
     1
 44
0.7828267384257843
  0
MTEXT
  5
180
330
A
100
AcDbEntity
  8
TEMPLATE
390
1D
100
AcDbMText
 10
3662.509411065892
 20
470.404822077453
 30
0.0
 40
48.865234375
 41
0.0
 46
24.4326171875
 71
     1
 72
     1
  1
{1:20}
  7
ＭＳ ゴシック
 73
     1
 44
0.7828267384257843
1001
ACAD
1000
ACAD_MTEXT_DEFINED_HEIGHT_BEGIN
1070
    46
1040
24.4326171875
1000
ACAD_MTEXT_DEFINED_HEIGHT_END
  0
MTEXT
  5
181
330
A
100
AcDbEntity
  8
TEMPLATE
390
1D
100
AcDbMText
 10
3556.509411065892
 20
527.5697439524531
 30
0.0
 40
32.57682291666666
 41
0.0
 46
0.0
 71
     1
 72
     1
  1
縮尺
  7
ＭＳ ゴシック
 73
     1
 44
0.7828267384257843
  0
LINE
  5
182
330
A
100
AcDbEntity
  8
TEMPLATE
390
1D
100
AcDbLine
 10
3542.509411065892
 20
374.3995877024532
 30
0.0
 11
3542.509411065892
 21
544.3995877024532
 31
0.0
  0
MTEXT
  5
183
330
A
100
AcDbEntity
  8
TEMPLATE
390
1D
100
AcDbMText
 10
3054.509411065892
 20
527.5697439524531
 30
0.0
 40
32.57682291666666
 41
0.0
 46
0.0
 71
     1
 72
     1
  1
容量
  7
ＭＳ ゴシック
 73
     1
 44
0.7828267384257843
  0
LINE
  5
184
330
A
100
AcDbEntity
  8
TEMPLATE
390
1D
100
AcDbLine
 10
3040.509411065892
 20
374.3995877024532
 30
0.0
 11
3040.509411065892
 21
544.3995877024532
 31
0.0
  0
MTEXT
  5
185
330
A
100
AcDbEntity
  8
TEMPLATE
390
1D
100
AcDbMText
 10
2552.509411065892
 20
697.5697439524535
 30
0.0
 40
32.57682291666666
 41
0.0
 46
0.0
 71
     1
 72
     1
  1
品番
  7
ＭＳ ゴシック
 73
     1
 44
0.7828267384257843
  0
MTEXT
  5
186
330
A
100
AcDbEntity
  8
TEMPLATE
390
1D
100
AcDbMText
 10
2552.509411065892
 20
527.5697439524531
 30
0.0
 40
32.57682291666666
 41
0.0
 46
0.0
 71
     1
 72
     1
  1
重量
  7
ＭＳ ゴシック
 73
     1
 44
0.7828267384257843
  0
MTEXT
  5
187
330
A
100
AcDbEntity
  8
TEMPLATE
390
1D
100
AcDbMText
 10
2658.509411065892
 20
640.404822077453
 30
0.0
 40
48.865234375
 41
0.0
 46
48.865234375
 71
     1
 72
     1
  1
{FLN72-5819-N01}
  7
ＭＳ ゴシック
 73
     1
 44
0.7828267384257843
1001
ACAD
1000
ACAD_MTEXT_DEFINED_HEIGHT_BEGIN
1070
    46
1040
48.865234375
1000
ACAD_MTEXT_DEFINED_HEIGHT_END
  0
LINE
  5
188
330
A
100
AcDbEntity
  8
TEMPLATE
390
1D
100
AcDbLine
 10
2538.509411065892
 20
204.3995877024531
 30
0.0
 11
2538.509411065892
 21
714.399587702453
 31
0.0
  0
MTEXT
  5
189
330
A
100
AcDbEntity
  8
TEMPLATE
390
1D
100
AcDbMText
 10
264.5094110653717
 20
640.404822077453
 30
0.0
 40
48.865234375
 41
0.0
 46
55.071119140625
 71
     1
 72
     1
  1
{鋼板ホーローバス -KALDEWEI,\H1.00276x;Meisterstück \H0.99725x;Conoduo-}
  7
ＭＳ ゴシック
 73
     1
 44
0.7828267384257843
1001
ACAD
1000
ACAD_MTEXT_DEFINED_HEIGHT_BEGIN
1070
    46
1040
55.071119140625
1000
ACAD_MTEXT_DEFINED_HEIGHT_END
  0
MTEXT
  5
18A
330
A
100
AcDbEntity
  8
TEMPLATE
390
1D
100
AcDbMText
 10
264.5094110653717
 20
509.5733518788759
 30
0.0
 40
48.865234375
 41
0.0
 46
281.036349324356
 71
     1
 72
     1
  1
{フリースタンディング/アンチスリップ、イージークリーンフィニッシュ付き/\P排水金具付属/\P本体、エプロン: ホーロー/\Pホワイト}
  7
ＭＳ ゴシック
 73
     1
 44
0.8595067748511132
1001
ACAD
1000
ACAD_MTEXT_DEFINED_HEIGHT_BEGIN
1070
    46
1040
281.036349324356
1000
ACAD_MTEXT_DEFINED_HEIGHT_END
  0
INSERT
  5
3D0
330
A
100
AcDbEntity
  8
TEMPLATE
100
AcDbBlockReference
  2
名称未設定-1
 10
3741.627912174218
 20
61.99977220290424
 30
0.0
 41
1.524
 42
1.524
 43
1.524
  0
MTEXT
  5
C6B
330
A
100
AcDbEntity
  8
TEMPLATE
390
1D
100
AcDbMText
 10
3160.509411065892
 20
470.404822077453
 30
0.0
 40
48.865234375
 41
0.0
 46
48.865234375
 71
     1
 72
     1
  1
{192L}
  7
ＭＳ ゴシック
 73
     1
 44
0.7828267384257843
1001
ACAD
1000
ACAD_MTEXT_DEFINED_HEIGHT_BEGIN
1070
    46
1040
48.865234375
1000
ACAD_MTEXT_DEFINED_HEIGHT_END
  0
LINE
  5
1783
330
A
100
AcDbEntity
  8
MODEL
  6
STYLE_12
 48
1.5
100
AcDbLine
 10
3134.162241843967
 20
2101.22990967398
 30
0.0
 11
3123.644663718967
 21
2502.98723389269
 31
0.0
  0
LINE
  5
1784
330
A
100
AcDbEntity
  8
MODEL
  6
STYLE_12
 48
1.5
100
AcDbLine
 10
3134.162241843967
 20
1955.52287842398
 30
0.0
 11
3123.644663718967
 21
1553.765310064599
 31
0.0
  0
LINE
  5
1785
330
A
100
AcDbEntity
  8
MODEL
  6
STYLE_12
 48
1.5
100
AcDbLine
 10
3158.070444968967
 20
1980.20647217398
 30
0.0
 11
3158.070444968967
 21
2076.54631592398
 31
0.0
  0
LINE
  5
1786
330
A
100
AcDbEntity
  8
MODEL
  6
STYLE_12
 48
1.5
100
AcDbLine
 10
3160.769663718967
 20
2073.37639404898
 30
0.0
 11
3158.070444968967
 21
2073.37639404898
 31
0.0
  0
LINE
  5
1787
330
A
100
AcDbEntity
  8
MODEL
  6
STYLE_12
 48
1.5
100
AcDbLine
 10
3136.861460593967
 20
2101.30022217398
 30
0.0
 11
3136.152476218967
 21
2128.37639404898
 31
0.0
  0
LINE
  5
1788
330
A
100
AcDbEntity
  8
MODEL
  6
STYLE_12
 48
1.5
100
AcDbLine
 10
3139.873179343967
 20
2098.09905029898
 30
0.0
 11
3143.000132468967
 21
2097.82561279898
 31
0.0
  0
LINE
  5
1789
330
A
100
AcDbEntity
  8
MODEL
  6
STYLE_12
 48
1.5
100
AcDbLine
 10
3142.765757468967
 20
2095.13567139273
 30
0.0
 11
3139.636851218967
 21
2095.40959717398
 31
0.0
  0
LINE
  5
178A
330
A
100
AcDbEntity
  8
MODEL
  6
STYLE_12
 48
1.5
100
AcDbLine
 10
3160.769663718967
 20
1983.37639404898
 30
0.0
 11
3158.070444968967
 21
1983.37639404898
 31
0.0
  0
LINE
  5
178B
330
A
100
AcDbEntity
  8
MODEL
  6
STYLE_12
 48
1.5
100
AcDbLine
 10
3160.769663718967
 20
1980.20647217398
 30
0.0
 11
3160.769663718967
 21
2076.54631592398
 31
0.0
  0
LINE
  5
178C
330
A
100
AcDbEntity
  8
MODEL
  6
STYLE_12
 48
1.5
100
AcDbLine
 10
3139.873179343967
 20
1958.653493658349
 30
0.0
 11
3143.000132468967
 21
1958.926931158349
 31
0.0
  0
LINE
  5
178D
330
A
100
AcDbEntity
  8
MODEL
  6
STYLE_12
 48
1.5
100
AcDbLine
 10
3142.765757468967
 20
1961.616872564599
 30
0.0
 11
3139.636851218967
 21
1961.342946783349
 31
0.0
  0
LINE
  5
178E
330
A
100
AcDbEntity
  8
MODEL
  6
STYLE_12
 48
1.5
100
AcDbLine
 10
3134.162241843967
 20
1955.52287842398
 30
0.0
 11
3134.162241843967
 21
2101.22990967398
 31
0.0
  0
LINE
  5
178F
330
A
100
AcDbEntity
  8
MODEL
  6
STYLE_12
 48
1.5
100
AcDbLine
 10
3134.285288718967
 20
4585.753471884316
 30
0.0
 11
3131.400523093967
 21
4475.624565634316
 31
0.0
  0
LINE
  5
1790
330
A
100
AcDbEntity
  8
MODEL
  6
STYLE_12
 48
1.5
100
AcDbLine
 10
3134.162241843967
 20
4726.949760946816
 30
0.0
 11
3131.400523093967
 21
4832.566460165617
 31
0.0
  0
LINE
  5
1791
330
A
100
AcDbEntity
  8
MODEL
  6
STYLE_12
 48
1.5
100
AcDbLine
 10
3158.070444968967
 20
4605.926811728117
 30
0.0
 11
3158.070444968967
 21
4702.266655478117
 31
0.0
  0
LINE
  5
1792
330
A
100
AcDbEntity
  8
MODEL
  6
STYLE_12
 48
1.5
100
AcDbLine
 10
3160.769663718967
 20
4699.096733603117
 30
0.0
 11
3158.070444968967
 21
4699.096733603117
 31
0.0
  0
LINE
  5
1793
330
A
100
AcDbEntity
  8
MODEL
  6
STYLE_12
 48
1.5
100
AcDbLine
 10
3136.861460593967
 20
4727.020561728117
 30
0.0
 11
3136.152476218967
 21
4754.096733603117
 31
0.0
  0
LINE
  5
1794
330
A
100
AcDbEntity
  8
MODEL
  6
STYLE_12
 48
1.5
100
AcDbLine
 10
3139.873179343967
 20
4723.819389853117
 30
0.0
 11
3143.000132468967
 21
4723.545952353117
 31
0.0
  0
LINE
  5
1795
330
A
100
AcDbEntity
  8
MODEL
  6
STYLE_12
 48
1.5
100
AcDbLine
 10
3142.765757468967
 20
4720.856010946816
 30
0.0
 11
3139.636851218967
 21
4721.129936728117
 31
0.0
  0
LINE
  5
1796
330
A
100
AcDbEntity
  8
MODEL
  6
STYLE_12
 48
1.5
100
AcDbLine
 10
3160.769663718967
 20
4609.096733603117
 30
0.0
 11
3158.070444968967
 21
4609.096733603117
 31
0.0
  0
LINE
  5
1797
330
A
100
AcDbEntity
  8
MODEL
  6
STYLE_12
 48
1.5
100
AcDbLine
 10
3160.769663718967
 20
4605.926811728117
 30
0.0
 11
3160.769663718967
 21
4702.266655478117
 31
0.0
  0
LINE
  5
1798
330
A
100
AcDbEntity
  8
MODEL
  6
STYLE_12
 48
1.5
100
AcDbLine
 10
3139.873179343967
 20
4584.373589071816
 30
0.0
 11
3143.000132468967
 21
4584.647026571816
 31
0.0
  0
LINE
  5
1799
330
A
100
AcDbEntity
  8
MODEL
  6
STYLE_12
 48
1.5
100
AcDbLine
 10
3142.765757468967
 20
4587.336967978117
 30
0.0
 11
3139.636851218967
 21
4587.063042196816
 31
0.0
  0
LINE
  5
179A
330
A
100
AcDbEntity
  8
MODEL
  6
STYLE_12
 48
1.5
100
AcDbLine
 10
3134.162241843967
 20
4581.243217978117
 30
0.0
 11
3134.162241843967
 21
4726.949760946816
 31
0.0
  0
LINE
  5
179C
330
A
100
AcDbEntity
  8
MODEL
  6
STYLE_12
 48
1.5
100
AcDbLine
 10
3147.996226218967
 20
1974.61174561148
 30
0.0
 11
3147.996226218967
 21
2082.14104248648
 31
0.0
  0
LINE
  5
179D
330
A
100
AcDbEntity
  8
MODEL
  6
STYLE_12
 48
1.5
100
AcDbLine
 10
3142.765757468967
 20
1970.93205811148
 30
0.0
 11
3142.765757468967
 21
2085.82072998648
 31
0.0
  0
LINE
  5
179E
330
A
100
AcDbEntity
  8
MODEL
  6
STYLE_12
 48
1.5
100
AcDbLine
 10
3147.996226218967
 20
4600.332085165617
 30
0.0
 11
3147.996226218967
 21
4707.861382040617
 31
0.0
  0
LINE
  5
179F
330
A
100
AcDbEntity
  8
MODEL
  6
STYLE_12
 48
1.5
100
AcDbLine
 10
3142.765757468967
 20
4596.652397665617
 30
0.0
 11
3142.765757468967
 21
4711.541069540617
 31
0.0
  0
ARC
  5
17A0
330
A
100
AcDbEntity
  8
MODEL
  6
STYLE_12
 48
1.5
100
AcDbCircle
 10
-260.3709612810353
 20
-2411.30439208381
 30
0.0
 40
6000.0
100
AcDbArc
 50
56.07442431430999
 51
60.15988756068995
  0
ARC
  5
17A1
330
A
100
AcDbEntity
  8
MODEL
  6
STYLE_12
 48
1.5
100
AcDbCircle
 10
-260.3709612810344
 20
6468.056936041188
 30
0.0
 40
6000.0
100
AcDbArc
 50
299.84011417548
 51
303.9255760109899
  0
ARC
  5
17A2
330
A
100
AcDbEntity
  8
MODEL
  6
STYLE_12
 48
1.5
100
AcDbCircle
 10
3153.070444968967
 20
2076.54631592398
 30
0.0
 40
5.0
100
AcDbArc
 50
0.0
 51
58.38370016251731
  0
ARC
  5
17A3
330
A
100
AcDbEntity
  8
MODEL
  6
STYLE_12
 48
1.5
100
AcDbCircle
 10
3153.070444968967
 20
2076.54631592398
 30
0.0
 40
7.6999998092651
100
AcDbArc
 50
0.0
 51
58.39535411051047
  0
ARC
  5
17A4
330
A
100
AcDbEntity
  8
MODEL
  6
STYLE_12
 48
1.5
100
AcDbCircle
 10
3164.968882468967
 20
2095.877126470849
 30
0.0
 40
15.0
100
AcDbArc
 50
196.4696896957084
 51
238.3837001625337
  0
ARC
  5
17A5
330
A
100
AcDbEntity
  8
MODEL
  6
STYLE_12
 48
1.5
100
AcDbCircle
 10
3164.968882468967
 20
2095.877126470849
 30
0.0
 40
17.700000762939
100
AcDbArc
 50
196.466560155012
 51
238.3891842010123
  0
ARC
  5
17A6
330
A
100
AcDbEntity
  8
MODEL
  6
STYLE_12
 48
1.5
100
AcDbCircle
 10
3142.242319968967
 20
2089.15862061148
 30
0.0
 40
8.6999998092651
100
AcDbArc
 50
16.467023169998
 51
85.00295925308811
  0
ARC
  5
17A7
330
A
100
AcDbEntity
  8
MODEL
  6
STYLE_12
 48
1.5
100
AcDbCircle
 10
3142.242319968967
 20
2089.15862061148
 30
0.0
 40
6.0
100
AcDbArc
 50
16.47281959835611
 51
84.9951167930711
  0
ARC
  5
17A8
330
A
100
AcDbEntity
  8
MODEL
  6
STYLE_12
 48
1.5
100
AcDbCircle
 10
3140.160288718967
 20
2101.38664795523
 30
0.0
 40
6.0
100
AcDbArc
 50
181.4968870543203
 51
264.9951167930884
  0
ARC
  5
17A9
330
A
100
AcDbEntity
  8
MODEL
  6
STYLE_12
 48
1.5
100
AcDbCircle
 10
3140.160288718967
 20
2101.38664795523
 30
0.0
 40
3.2999999523163
100
AcDbArc
 50
181.5007450623041
 51
265.0089617741738
  0
ARC
  5
17AA
330
A
100
AcDbEntity
  8
MODEL
  6
STYLE_12
 48
1.5
100
AcDbCircle
 10
3153.070444968967
 20
1980.20647217398
 30
0.0
 40
5.0
100
AcDbArc
 50
301.6148332674184
 51
0.0
  0
ARC
  5
17AB
330
A
100
AcDbEntity
  8
MODEL
  6
STYLE_12
 48
1.5
100
AcDbCircle
 10
3153.070444968967
 20
1980.20647217398
 30
0.0
 40
7.6999998092651
100
AcDbArc
 50
301.604645889482
 51
0.0
  0
ARC
  5
17AC
330
A
100
AcDbEntity
  8
MODEL
  6
STYLE_12
 48
1.5
100
AcDbCircle
 10
3164.968882468967
 20
1960.87541748648
 30
0.0
 40
15.0
100
AcDbArc
 50
121.6158109672296
 51
163.5294160360767
  0
ARC
  5
17AD
330
A
100
AcDbEntity
  8
MODEL
  6
STYLE_12
 48
1.5
100
AcDbCircle
 10
3164.968882468967
 20
1960.87541748648
 30
0.0
 40
17.700000762939
100
AcDbArc
 50
121.6108157989877
 51
163.5326819917256
  0
ARC
  5
17AE
330
A
100
AcDbEntity
  8
MODEL
  6
STYLE_12
 48
1.5
100
AcDbCircle
 10
3142.242319968967
 20
1967.593923345849
 30
0.0
 40
8.6999998092651
100
AcDbArc
 50
274.9970407469119
 51
343.5345186252828
  0
ARC
  5
17AF
330
A
100
AcDbEntity
  8
MODEL
  6
STYLE_12
 48
1.5
100
AcDbCircle
 10
3142.242319968967
 20
1967.593923345849
 30
0.0
 40
6.0
100
AcDbArc
 50
275.0048832069289
 51
343.5294160360897
  0
ARC
  5
17B0
330
A
100
AcDbEntity
  8
MODEL
  6
STYLE_12
 48
1.5
100
AcDbCircle
 10
3140.160288718967
 20
1955.365896002099
 30
0.0
 40
6.0
100
AcDbArc
 50
95.0048832069116
 51
178.5007824091913
  0
ARC
  5
17B1
330
A
100
AcDbEntity
  8
MODEL
  6
STYLE_12
 48
1.5
100
AcDbCircle
 10
3140.160288718967
 20
1955.365896002099
 30
0.0
 40
3.2999999523163
100
AcDbArc
 50
94.99103822584188
 51
178.4992549376959
  0
ARC
  5
17B2
330
A
100
AcDbEntity
  8
MODEL
  6
STYLE_12
 48
1.5
100
AcDbCircle
 10
3043.673960593967
 20
2500.89397217399
 30
0.0
 40
80.0
100
AcDbArc
 50
1.499358517929914
 51
56.07501922237929
  0
ARC
  5
17B3
330
A
100
AcDbEntity
  8
MODEL
  6
STYLE_12
 48
1.5
100
AcDbCircle
 10
3043.673960593967
 20
1555.85881592398
 30
0.0
 40
80.0
100
AcDbArc
 50
303.92493198426
 51
358.5004666892097
  0
ARC
  5
17B5
330
A
100
AcDbEntity
  8
MODEL
  6
STYLE_12
 48
1.5
100
AcDbCircle
 10
1943.904429343967
 20
-1001.008735146884
 30
0.0
 40
6000.0
100
AcDbArc
 50
79.05787297536999
 51
82.45521520378006
  0
ARC
  5
17B6
330
A
100
AcDbEntity
  8
MODEL
  6
STYLE_12
 48
1.5
100
AcDbCircle
 10
3153.070444968967
 20
4702.266655478117
 30
0.0
 40
5.0
100
AcDbArc
 50
0.0
 51
58.38370016253166
  0
ARC
  5
17B7
330
A
100
AcDbEntity
  8
MODEL
  6
STYLE_12
 48
1.5
100
AcDbCircle
 10
3153.070444968967
 20
4702.266655478117
 30
0.0
 40
7.6999998092651
100
AcDbArc
 50
0.0
 51
58.39630612659101
  0
ARC
  5
17B8
330
A
100
AcDbEntity
  8
MODEL
  6
STYLE_12
 48
1.5
100
AcDbCircle
 10
3164.968882468967
 20
4721.597221884316
 30
0.0
 40
15.0
100
AcDbArc
 50
196.4687954192342
 51
238.3837001625317
  0
ARC
  5
17B9
330
A
100
AcDbEntity
  8
MODEL
  6
STYLE_12
 48
1.5
100
AcDbCircle
 10
3164.968882468967
 20
4721.597221884316
 30
0.0
 40
17.700000762939
100
AcDbArc
 50
196.4673180082776
 51
238.3883557155118
  0
ARC
  5
17BA
330
A
100
AcDbEntity
  8
MODEL
  6
STYLE_12
 48
1.5
100
AcDbCircle
 10
3142.242319968967
 20
4714.878960165617
 30
0.0
 40
8.6999998092651
100
AcDbArc
 50
16.46702316999141
 51
85.0029592530876
  0
ARC
  5
17BB
330
A
100
AcDbEntity
  8
MODEL
  6
STYLE_12
 48
1.5
100
AcDbCircle
 10
3142.242319968967
 20
4714.878960165617
 30
0.0
 40
6.0
100
AcDbArc
 50
16.47058396392404
 51
84.99511679306998
  0
ARC
  5
17BC
330
A
100
AcDbEntity
  8
MODEL
  6
STYLE_12
 48
1.5
100
AcDbCircle
 10
3140.160288718967
 20
4727.106987509316
 30
0.0
 40
6.0
100
AcDbArc
 50
181.5015481223325
 51
264.9951167930888
  0
ARC
  5
17BD
330
A
100
AcDbEntity
  8
MODEL
  6
STYLE_12
 48
1.5
100
AcDbCircle
 10
3140.160288718967
 20
4727.106987509316
 30
0.0
 40
3.2999999523163
100
AcDbArc
 50
181.5007450623041
 51
265.0089617741752
  0
ARC
  5
17BE
330
A
100
AcDbEntity
  8
MODEL
  6
STYLE_12
 48
1.5
100
AcDbCircle
 10
3153.070444968967
 20
4605.926811728117
 30
0.0
 40
5.0
100
AcDbArc
 50
301.6162998374683
 51
0.0
  0
ARC
  5
17BF
330
A
100
AcDbEntity
  8
MODEL
  6
STYLE_12
 48
1.5
100
AcDbCircle
 10
3153.070444968967
 20
4605.926811728117
 30
0.0
 40
7.6999998092651
100
AcDbArc
 50
301.6055979569699
 51
0.0
  0
ARC
  5
17C0
330
A
100
AcDbEntity
  8
MODEL
  6
STYLE_12
 48
1.5
100
AcDbCircle
 10
3164.968882468967
 20
4586.595757040617
 30
0.0
 40
15.0
100
AcDbArc
 50
121.615322110543
 51
163.5312045807658
  0
ARC
  5
17C1
330
A
100
AcDbEntity
  8
MODEL
  6
STYLE_12
 48
1.5
100
AcDbCircle
 10
3164.968882468967
 20
4586.595757040617
 30
0.0
 40
17.700000762939
100
AcDbArc
 50
121.6108157989892
 51
163.5326819917289
  0
ARC
  5
17C2
330
A
100
AcDbEntity
  8
MODEL
  6
STYLE_12
 48
1.5
100
AcDbCircle
 10
3142.242319968967
 20
4593.314018759316
 30
0.0
 40
8.6999998092651
100
AcDbArc
 50
274.9970407469115
 51
343.5329768300086
  0
ARC
  5
17C3
330
A
100
AcDbEntity
  8
MODEL
  6
STYLE_12
 48
1.5
100
AcDbCircle
 10
3142.242319968967
 20
4593.314018759316
 30
0.0
 40
6.0
100
AcDbArc
 50
275.0048832069286
 51
343.5338874596919
  0
ARC
  5
17C4
330
A
100
AcDbEntity
  8
MODEL
  6
STYLE_12
 48
1.5
100
AcDbCircle
 10
3140.160288718967
 20
4581.085991415617
 30
0.0
 40
6.0
100
AcDbArc
 50
95.00488320691122
 51
178.4984518776676
  0
ARC
  5
17C5
330
A
100
AcDbEntity
  8
MODEL
  6
STYLE_12
 48
1.5
100
AcDbCircle
 10
3140.160288718967
 20
4581.085991415617
 30
0.0
 40
3.2999999523163
100
AcDbArc
 50
94.99103822584324
 51
178.4992549376959
  0
ARC
  5
17C6
330
A
100
AcDbEntity
  8
MODEL
  6
STYLE_12
 48
1.5
100
AcDbCircle
 10
2734.074351218967
 20
4964.890190634316
 30
0.0
 40
18.0
100
AcDbArc
 50
180.0
 51
262.4556831942977
  0
ARC
  5
17C7
330
A
100
AcDbEntity
  8
MODEL
  6
STYLE_12
 48
1.5
100
AcDbCircle
 10
1943.904429343968
 20
10309.20171407182
 30
0.0
 40
6000.0
100
AcDbArc
 50
277.5447847962199
 51
280.9421462215799
  0
ARC
  5
17C8
330
A
100
AcDbEntity
  8
MODEL
  6
STYLE_12
 48
1.5
100
AcDbCircle
 10
2734.074351218967
 20
4343.302788290617
 30
0.0
 40
18.0
100
AcDbArc
 50
97.54431680570303
 51
180.0
  0
ARC
  5
17C9
330
A
100
AcDbEntity
  8
MODEL
  6
STYLE_12
 48
1.5
100
AcDbCircle
 10
3071.422007468967
 20
4477.195366415617
 30
0.0
 40
60.0
100
AcDbArc
 50
280.9417764432903
 51
358.4998013678099
  0
ARC
  5
17CA
330
A
100
AcDbEntity
  8
MODEL
  6
STYLE_12
 48
1.5
100
AcDbCircle
 10
3071.420054343967
 20
4830.998100790617
 30
0.0
 40
60.0
100
AcDbArc
 50
1.497819269509547
 51
79.05822355670928
  0
ARC
  5
17CB
330
A
100
AcDbEntity
  8
MODEL
  6
STYLE_12
 48
1.5
100
AcDbCircle
 10
2734.074351218967
 20
2808.812673345889
 30
0.0
 40
18.0
100
AcDbArc
 50
180.0
 51
240.1579576401166
  0
ARC
  5
17CC
330
A
100
AcDbEntity
  8
MODEL
  6
STYLE_12
 48
1.5
100
AcDbCircle
 10
2734.074351218967
 20
1247.940114752099
 30
0.0
 40
18.0
100
AcDbArc
 50
119.8420423598834
 51
180.0
  0
LINE
  5
17CD
330
A
100
AcDbEntity
  8
MODEL
100
AcDbLine
 10
1113.950178366934
 20
2502.976308599742
 30
0.0
 11
1170.950178366934
 21
2502.976308599742
 31
0.0
  0
LINE
  5
17CE
330
A
100
AcDbEntity
  8
MODEL
100
AcDbLine
 10
963.9501783669339
 20
1703.776357427882
 30
0.0
 11
963.9501783669339
 21
2352.976308599742
 31
0.0
  0
LINE
  5
17CF
330
A
100
AcDbEntity
  8
MODEL
100
AcDbLine
 10
1113.950178366934
 20
1553.776357427882
 30
0.0
 11
1170.950178366934
 21
1553.776357427882
 31
0.0
  0
LINE
  5
17D4
330
A
100
AcDbEntity
  8
MODEL
100
AcDbLine
 10
1209.334943991934
 20
2070.356923834132
 30
0.0
 11
1209.290022116934
 21
2053.842763677882
 31
0.0
  0
LINE
  5
17D5
330
A
100
AcDbEntity
  8
MODEL
100
AcDbLine
 10
1167.916975241934
 20
2095.216787115382
 30
0.0
 11
1184.430647116934
 21
2095.261708990382
 31
0.0
  0
LINE
  5
17D6
330
A
100
AcDbEntity
  8
MODEL
100
AcDbLine
 10
1100.469709616934
 20
2095.261708990382
 30
0.0
 11
1116.983381491934
 21
2095.216787115382
 31
0.0
  0
LINE
  5
17D7
330
A
100
AcDbEntity
  8
MODEL
100
AcDbLine
 10
1075.610334616934
 20
2053.842763677882
 30
0.0
 11
1075.565412741945
 21
2070.356923834132
 31
0.0
  0
LINE
  5
17D8
330
A
100
AcDbEntity
  8
MODEL
100
AcDbLine
 10
1338.541975241934
 20
1325.108388677882
 30
0.0
 11
1219.858381491934
 21
1487.044423834132
 31
0.0
  0
LINE
  5
17D9
330
A
100
AcDbEntity
  8
MODEL
100
AcDbLine
 10
1347.268537741934
 20
1614.454091802882
 30
0.0
 11
1411.131818991934
 21
1397.698720709132
 31
0.0
  0
LINE
  5
17DA
330
A
100
AcDbEntity
  8
MODEL
100
AcDbLine
 10
946.3583814919339
 20
1325.108388677882
 30
0.0
 11
1065.041975241934
 21
1487.044423834132
 31
0.0
  0
LINE
  5
17DB
330
A
100
AcDbEntity
  8
MODEL
100
AcDbLine
 10
937.6318189919339
 20
1614.454091802882
 30
0.0
 11
873.7685377419339
 21
1397.698720709132
 31
0.0
  0
LINE
  5
17DC
330
A
100
AcDbEntity
  8
MODEL
100
AcDbLine
 10
937.6318189919339
 20
2442.298818365342
 30
0.0
 11
873.7685377419339
 21
2659.054189459142
 31
0.0
  0
LINE
  5
17DD
330
A
100
AcDbEntity
  8
MODEL
100
AcDbLine
 10
1065.041975241934
 20
2569.708486334142
 30
0.0
 11
946.3583814919339
 21
2731.644521490342
 31
0.0
  0
LINE
  5
17DE
330
A
100
AcDbEntity
  8
MODEL
100
AcDbLine
 10
1219.858381491934
 20
2569.708486334142
 30
0.0
 11
1338.541975241934
 21
2731.644521490342
 31
0.0
  0
LINE
  5
17DF
330
A
100
AcDbEntity
  8
MODEL
100
AcDbLine
 10
1411.131818991934
 20
2659.054189459142
 30
0.0
 11
1347.268537741934
 21
2442.298818365342
 31
0.0
  0
LINE
  5
17E0
330
A
100
AcDbEntity
  8
MODEL
100
AcDbLine
 10
1320.950178366934
 20
1703.776357427882
 30
0.0
 11
1320.950178366934
 21
2352.976308599742
 31
0.0
  0
LINE
  5
17E2
330
A
100
AcDbEntity
  8
MODEL
100
AcDbLine
 10
897.4501783669339
 20
2814.166494146642
 30
0.0
 11
1387.450178366934
 21
2814.166494146642
 31
0.0
  0
LINE
  5
17E3
330
A
100
AcDbEntity
  8
MODEL
100
AcDbLine
 10
1453.239240866934
 20
2748.376455084142
 30
0.0
 11
1453.239240866934
 21
1308.376333013822
 31
0.0
  0
LINE
  5
17E4
330
A
100
AcDbEntity
  8
MODEL
100
AcDbLine
 10
831.6611158669339
 20
1308.376333013822
 30
0.0
 11
831.6611158669339
 21
2748.376455084142
 31
0.0
  0
LINE
  5
17E5
330
A
100
AcDbEntity
  8
MODEL
100
AcDbLine
 10
1387.450178366934
 20
1242.586293951317
 30
0.0
 11
897.4501783669339
 21
1242.586293951317
 31
0.0
  0
ARC
  5
17E6
330
A
100
AcDbEntity
  8
MODEL
100
AcDbCircle
 10
1170.950178366934
 20
2352.976308599742
 30
0.0
 40
150.0
100
AcDbArc
 50
0.0
 51
90.0
  0
ARC
  5
17E7
330
A
100
AcDbEntity
  8
MODEL
100
AcDbCircle
 10
1113.950178366934
 20
2352.976308599742
 30
0.0
 40
150.0
100
AcDbArc
 50
90.0
 51
180.0
  0
ARC
  5
17E8
330
A
100
AcDbEntity
  8
MODEL
100
AcDbCircle
 10
1113.950178366934
 20
1703.776357427882
 30
0.0
 40
150.0
100
AcDbArc
 50
180.0
 51
270.0
  0
ARC
  5
17E9
330
A
100
AcDbEntity
  8
MODEL
100
AcDbCircle
 10
1170.950178366934
 20
1703.776357427882
 30
0.0
 40
150.0
100
AcDbArc
 50
270.0
 51
0.0
  0
ARC
  5
17EE
330
A
100
AcDbEntity
  8
MODEL
100
AcDbCircle
 10
1142.450178366934
 20
2028.376455084132
 30
0.0
 40
66.362281799316
100
AcDbArc
 50
202.7060605481307
 51
247.2946855294907
  0
ARC
  5
17EF
330
A
100
AcDbEntity
  8
MODEL
100
AcDbCircle
 10
1142.450178366934
 20
2028.376455084132
 30
0.0
 40
66.362281799316
100
AcDbArc
 50
22.70567164661975
 51
67.29468552948909
  0
ARC
  5
17F0
330
A
100
AcDbEntity
  8
MODEL
100
AcDbCircle
 10
1142.450178366934
 20
2028.376455084132
 30
0.0
 40
66.362281799316
100
AcDbArc
 50
292.7053144705093
 51
337.2939394518698
  0
ARC
  5
17F1
330
A
100
AcDbEntity
  8
MODEL
100
AcDbCircle
 10
1142.450178366934
 20
2028.376455084132
 30
0.0
 40
66.362281799316
100
AcDbArc
 50
112.7053144705076
 51
157.2943283533781
  0
ARC
  5
17F2
330
A
100
AcDbEntity
  8
MODEL
100
AcDbCircle
 10
897.4501783669339
 20
2748.376455084142
 30
0.0
 40
65.7900390625
100
AcDbArc
 50
90.0
 51
180.0
  0
ARC
  5
17F3
330
A
100
AcDbEntity
  8
MODEL
100
AcDbCircle
 10
897.4501783669339
 20
1308.376333013822
 30
0.0
 40
65.7890625
100
AcDbArc
 50
180.0
 51
270.0
  0
ARC
  5
17F4
330
A
100
AcDbEntity
  8
MODEL
100
AcDbCircle
 10
1387.450178366934
 20
1308.376333013822
 30
0.0
 40
65.7900390625
100
AcDbArc
 50
270.0
 51
0.0
  0
ARC
  5
17F5
330
A
100
AcDbEntity
  8
MODEL
100
AcDbCircle
 10
1387.450178366934
 20
2748.376455084142
 30
0.0
 40
65.7890625
100
AcDbArc
 50
0.0
 51
90.0
  0
LWPOLYLINE
  5
17F7
330
A
100
AcDbEntity
  8
MODEL
100
AcDbPolyline
 90
       11
 70
     0
 43
0.0
 10
1184.604475241934
 20
2095.435537115382
 10
1187.399397116934
 20
2095.288076177882
 10
1190.161115866945
 20
2094.831044927882
 10
1194.141584616934
 20
2093.578115240382
 10
1197.860334616934
 20
2091.679677740382
 10
1201.207990866934
 20
2089.173818365382
 10
1204.086897116945
 20
2086.142080084132
 10
1206.420881491934
 20
2082.644033209132
 10
1208.131818991934
 20
2078.803212896632
 10
1209.166975241945
 20
2074.724599615382
 10
1209.508772116934
 20
2070.530751959132
  0
LWPOLYLINE
  5
17F9
330
A
100
AcDbEntity
  8
MODEL
100
AcDbPolyline
 90
       11
 70
     0
 43
0.0
 10
1100.295881491934
 20
1961.317128912252
 10
1097.500959616934
 20
1961.464345709132
 10
1094.739240866934
 20
1961.921865240382
 10
1090.758772116945
 20
1963.174794927882
 10
1087.040022116945
 20
1965.072988287252
 10
1083.692365866945
 20
1967.578603521632
 10
1080.813459616934
 20
1970.610341802882
 10
1078.479475241934
 20
1974.108632818502
 10
1076.768537741934
 20
1977.949208990382
 10
1075.733381491934
 20
1982.028310552882
 10
1075.391584616945
 20
1986.222158209132
  0
LWPOLYLINE
  5
17FA
330
A
100
AcDbEntity
  8
MODEL
100
AcDbPolyline
 90
       11
 70
     0
 43
0.0
 10
1075.391584616945
 20
2070.530751959132
 10
1075.538068991934
 20
2073.325673834132
 10
1075.995100241934
 20
2076.087392584132
 10
1077.249006491934
 20
2080.068837896632
 10
1079.147443991945
 20
2083.786123052882
 10
1081.653303366934
 20
2087.133291021632
 10
1084.684553366934
 20
2090.013173834132
 10
1088.182600241934
 20
2092.346669927882
 10
1092.022443991934
 20
2094.058583990382
 10
1096.102522116934
 20
2095.093740240382
 10
1100.295881491934
 20
2095.435537115382
  0
LWPOLYLINE
  5
17FD
330
A
100
AcDbEntity
  8
MODEL
100
AcDbPolyline
 90
       11
 70
     0
 43
0.0
 10
1209.508772116934
 20
1986.222158209132
 10
1209.362287741934
 20
1983.426748052882
 10
1208.905256491934
 20
1980.665029302882
 10
1207.651350241934
 20
1976.684072271632
 10
1205.752912741934
 20
1972.966298834132
 10
1203.247053366934
 20
1969.619130865382
 10
1200.215803366934
 20
1966.739736334132
 10
1196.717756491934
 20
1964.406240240382
 10
1192.877912741934
 20
1962.694082037252
 10
1188.797834616934
 20
1961.658681646632
 10
1184.604475241934
 20
1961.317128912252
  0
LWPOLYLINE
  5
1802
330
A
100
AcDbEntity
  8
MODEL
100
AcDbPolyline
 90
        5
 70
     0
 43
0.0
 10
1075.391584616945
 20
1986.222158209132
 10
1075.411115866934
 20
2007.296376959132
 10
1075.416975241934
 20
2028.372548834132
 10
1075.411115866934
 20
2049.451650396632
 10
1075.391584616945
 20
2070.530751959132
  0
LWPOLYLINE
  5
1803
330
A
100
AcDbEntity
  8
MODEL
100
AcDbPolyline
 90
        5
 70
     0
 43
0.0
 10
1184.604475241934
 20
1961.317128912252
 10
1163.530256491934
 20
1961.336171881002
 10
1142.454084616934
 20
1961.343251959132
 10
1121.375959616934
 20
1961.336171881002
 10
1100.295881491934
 20
1961.317128912252
  0
LWPOLYLINE
  5
1804
330
A
100
AcDbEntity
  8
MODEL
100
AcDbPolyline
 90
        5
 70
     0
 43
0.0
 10
1209.508772116934
 20
2070.530751959132
 10
1209.491193991934
 20
2049.456533209132
 10
1209.483381491934
 20
2028.380361334132
 10
1209.491193991934
 20
2007.301259771632
 10
1209.508772116934
 20
1986.222158209132
  0
LWPOLYLINE
  5
1805
330
A
100
AcDbEntity
  8
MODEL
100
AcDbPolyline
 90
        5
 70
     0
 43
0.0
 10
1100.295881491934
 20
2095.435537115382
 10
1121.370100241945
 20
2095.416494146632
 10
1142.446272116934
 20
2095.409658209132
 10
1163.524397116934
 20
2095.416494146632
 10
1184.604475241934
 20
2095.435537115382
  0
LWPOLYLINE
  5
1806
330
A
100
AcDbEntity
  8
MODEL
100
AcDbPolyline
 90
       11
 70
     0
 43
0.0
 10
1184.430647116934
 20
2095.261708990382
 10
1188.604475241934
 20
2094.912099615382
 10
1192.661115866934
 20
2093.875478521632
 10
1196.493147116934
 20
2092.164541021632
 10
1199.985334616934
 20
2089.836904302882
 10
1203.010725241934
 20
2086.973623052882
 10
1205.518537741945
 20
2083.647451177882
 10
1207.422834616934
 20
2079.963369146632
 10
1208.692365866945
 20
2076.015615240382
 10
1209.174787741934
 20
2073.204580084132
 10
1209.334943991934
 20
2070.356923834132
  0
LWPOLYLINE
  5
1807
330
A
100
AcDbEntity
  8
MODEL
100
AcDbPolyline
 90
       11
 70
     0
 43
0.0
 10
1100.469709616934
 20
1961.490712896632
 10
1096.295881491934
 20
1961.840322271632
 10
1092.239240866934
 20
1962.877431646632
 10
1088.407209616934
 20
1964.588369146632
 10
1084.915022116934
 20
1966.915517584132
 10
1081.889631491945
 20
1969.778798834132
 10
1079.381818991934
 20
1973.104970709132
 10
1077.477522116934
 20
1976.789052740382
 10
1076.207990866934
 20
1980.737294927882
 10
1075.725568991934
 20
1983.548085943502
 10
1075.565412741945
 20
1986.395498052882
  0
LWPOLYLINE
  5
1808
330
A
100
AcDbEntity
  8
MODEL
100
AcDbPolyline
 90
       11
 70
     0
 43
0.0
 10
1209.334943991934
 20
1986.395498052882
 10
1208.985334616934
 20
1982.222158209132
 10
1207.950178366934
 20
1978.165029302882
 10
1206.239240866934
 20
1974.332753912252
 10
1203.911115866934
 20
1970.840810552882
 10
1201.047834616934
 20
1967.815419927882
 10
1197.721662741934
 20
1965.308583990382
 10
1194.038068991934
 20
1963.404775396632
 10
1190.088850241934
 20
1962.134511724752
 10
1187.278303366945
 20
1961.651845709132
 10
1184.430647116934
 20
1961.490712896632
  0
LWPOLYLINE
  5
1809
330
A
100
AcDbEntity
  8
MODEL
100
AcDbPolyline
 90
       11
 70
     0
 43
0.0
 10
1075.565412741945
 20
2070.356923834132
 10
1075.915022116934
 20
2074.530263677882
 10
1076.950178366945
 20
2078.587880865382
 10
1078.661115866934
 20
2082.419912115382
 10
1080.989240866934
 20
2085.912099615382
 10
1083.852522116934
 20
2088.937001959132
 10
1087.178693991934
 20
2091.443837896632
 10
1090.862287741934
 20
2093.348134771632
 10
1094.811506491934
 20
2094.618154302882
 10
1097.622053366934
 20
2095.101064459132
 10
1100.469709616934
 20
2095.261708990382
  0
LWPOLYLINE
  5
180A
330
A
100
AcDbEntity
  8
MODEL
100
AcDbPolyline
 90
        3
 70
     0
 43
0.0
 10
1116.983381491934
 20
1961.536123052882
 10
1108.725568991934
 20
1961.515615240382
 10
1100.469709616934
 20
1961.490712896632
  0
LWPOLYLINE
  5
180B
330
A
100
AcDbEntity
  8
MODEL
100
AcDbPolyline
 90
        5
 70
     0
 43
0.0
 10
1167.916975241934
 20
1961.536123052882
 10
1155.198225241934
 20
1961.585439459132
 10
1142.473615866934
 20
1961.616689459132
 10
1129.727522116934
 20
1961.585439459132
 10
1116.983381491934
 20
1961.536123052882
  0
LWPOLYLINE
  5
180C
330
A
100
AcDbEntity
  8
MODEL
100
AcDbPolyline
 90
        3
 70
     0
 43
0.0
 10
1184.430647116934
 20
1961.490712896632
 10
1176.174787741945
 20
1961.515615240382
 10
1167.916975241934
 20
1961.536123052882
  0
LWPOLYLINE
  5
180D
330
A
100
AcDbEntity
  8
MODEL
100
AcDbPolyline
 90
        3
 70
     0
 43
0.0
 10
1209.290022116934
 20
2002.909658209132
 10
1209.311506491934
 20
1994.652089849752
 10
1209.334943991934
 20
1986.395498052882
  0
LWPOLYLINE
  5
180E
330
A
100
AcDbEntity
  8
MODEL
100
AcDbPolyline
 90
        5
 70
     0
 43
0.0
 10
1209.290022116934
 20
2053.842763677882
 10
1209.241193991934
 20
2041.124013677882
 10
1209.209943991934
 20
2028.399404302882
 10
1209.241193991934
 20
2015.654775396632
 10
1209.290022116934
 20
2002.909658209132
  0
LWPOLYLINE
  5
180F
330
A
100
AcDbEntity
  8
MODEL
100
AcDbPolyline
 90
        5
 70
     0
 43
0.0
 10
1116.983381491934
 20
2095.216787115382
 10
1129.702131491934
 20
2095.166982427882
 10
1142.426740866945
 20
2095.135732427882
 10
1155.172834616934
 20
2095.166982427882
 10
1167.916975241934
 20
2095.216787115382
  0
LWPOLYLINE
  5
1810
330
A
100
AcDbEntity
  8
MODEL
100
AcDbPolyline
 90
        5
 70
     0
 43
0.0
 10
1075.610334616934
 20
2002.909658209132
 10
1075.659162741945
 20
2015.628896490382
 10
1075.690412741934
 20
2028.353017584132
 10
1075.659162741945
 20
2041.098134771632
 10
1075.610334616934
 20
2053.842763677882
  0
LWPOLYLINE
  5
1811
330
A
100
AcDbEntity
  8
MODEL
100
AcDbPolyline
 90
        3
 70
     0
 43
0.0
 10
1075.565412741945
 20
1986.395498052882
 10
1075.588850241945
 20
1994.651845709132
 10
1075.610334616934
 20
2002.909658209132
  0
LWPOLYLINE
  5
1812
330
A
100
AcDbEntity
  8
MODEL
100
AcDbPolyline
 90
        6
 70
     0
 43
0.0
 10
1203.668928366945
 20
2002.760732427882
 10
1204.559553366934
 20
2014.724111334132
 10
1204.903303366945
 20
2024.497548834132
 10
1204.862287741934
 20
2034.302236334132
 10
1204.438459616945
 20
2044.151357427882
 10
1203.668928366945
 20
2053.991689459132
  0
LWPOLYLINE
  5
1813
330
A
100
AcDbEntity
  8
MODEL
100
AcDbPolyline
 90
       10
 70
     0
 43
0.0
 10
1081.223615866934
 20
1986.176748052882
 10
1081.715803366945
 20
1981.850576177882
 10
1082.684553366934
 20
1978.833974615382
 10
1084.137678366934
 20
1976.018544927882
 10
1086.051740866934
 20
1973.477529302882
 10
1088.362287741934
 20
1971.291005865382
 10
1091.030256491934
 20
1969.513662115382
 10
1093.957990866934
 20
1968.207998052882
 10
1097.061506491934
 20
1967.416494146632
 10
1100.250959616934
 20
1967.150380865382
  0
LWPOLYLINE
  5
1814
330
A
100
AcDbEntity
  8
MODEL
100
AcDbPolyline
 90
       10
 70
     0
 43
0.0
 10
1203.676740866934
 20
2070.575917974752
 10
1203.184553366934
 20
2074.901845709132
 10
1202.215803366934
 20
2077.918447271632
 10
1200.762678366945
 20
2080.734121099752
 10
1198.848615866934
 20
2083.274892584132
 10
1196.538068991934
 20
2085.461416021632
 10
1193.870100241945
 20
2087.239003912252
 10
1190.942365866934
 20
2088.544912115382
 10
1187.838850241934
 20
2089.335927740382
 10
1184.649397116945
 20
2089.602529302882
  0
LWPOLYLINE
  5
1815
330
A
100
AcDbEntity
  8
MODEL
100
AcDbPolyline
 90
       10
 70
     0
 43
0.0
 10
1100.250959616934
 20
2089.602529302882
 10
1095.924787741934
 20
2089.111562506002
 10
1092.907209616934
 20
2088.142568365382
 10
1090.092756491934
 20
2086.688466802882
 10
1087.551740866945
 20
2084.774404302882
 10
1085.364240866945
 20
2082.463857427882
 10
1083.586897116934
 20
2079.795644537252
 10
1082.282209616934
 20
2076.867666021632
 10
1081.491193991934
 20
2073.765615240382
 10
1081.223615866934
 20
2070.575917974752
  0
LWPOLYLINE
  5
1816
330
A
100
AcDbEntity
  8
MODEL
100
AcDbPolyline
 90
       10
 70
     0
 43
0.0
 10
1184.649397116945
 20
1967.150380865382
 10
1188.975568991934
 20
1967.641103521632
 10
1191.993147116934
 20
1968.610341802882
 10
1194.807600241934
 20
1970.063955084132
 10
1197.348615866934
 20
1971.978017584132
 10
1199.536115866934
 20
1974.288564459132
 10
1201.313459616934
 20
1976.957021490382
 10
1202.618147116934
 20
1979.884755865382
 10
1203.409162741934
 20
1982.986806646632
 10
1203.676740866934
 20
1986.176748052882
  0
LWPOLYLINE
  5
1817
330
A
100
AcDbEntity
  8
MODEL
100
AcDbPolyline
 90
        4
 70
     0
 43
0.0
 10
1081.231428366934
 20
2002.760732427882
 10
1081.229475241934
 20
1996.762929693502
 10
1081.227522116945
 20
1990.765859381002
 10
1081.223615866934
 20
1986.176748052882
  0
LWPOLYLINE
  5
1818
330
A
100
AcDbEntity
  8
MODEL
100
AcDbPolyline
 90
        6
 70
     0
 43
0.0
 10
1081.231428366934
 20
2053.991689459132
 10
1080.340803366934
 20
2042.028310552882
 10
1079.997053366934
 20
2032.255361334132
 10
1080.038068991934
 20
2022.450673834132
 10
1080.461897116934
 20
2012.601552740382
 10
1081.231428366934
 20
2002.760732427882
  0
LWPOLYLINE
  5
1819
330
A
100
AcDbEntity
  8
MODEL
100
AcDbPolyline
 90
        6
 70
     0
 43
0.0
 10
1116.834943991934
 20
1967.157216802882
 10
1128.797834616934
 20
1966.266103521632
 10
1138.571272116934
 20
1965.923574224752
 10
1148.375959616945
 20
1965.964345709132
 10
1158.225568991945
 20
1966.388662115382
 10
1168.065412741934
 20
1967.157216802882
  0
LWPOLYLINE
  5
181A
330
A
100
AcDbEntity
  8
MODEL
100
AcDbPolyline
 90
        6
 70
     0
 43
0.0
 10
1168.065412741934
 20
2089.595693365382
 10
1156.102522116934
 20
2090.486318365382
 10
1146.329084616934
 20
2090.829091802882
 10
1136.524397116934
 20
2090.788564459132
 10
1126.674787741934
 20
2090.364003912252
 10
1116.834943991934
 20
2089.595693365382
  0
LWPOLYLINE
  5
181B
330
A
100
AcDbEntity
  8
MODEL
100
AcDbPolyline
 90
        3
 70
     0
 43
0.0
 10
1184.649397116945
 20
2089.602529302882
 10
1172.655256491934
 20
2089.596181646632
 10
1168.065412741934
 20
2089.595693365382
  0
LWPOLYLINE
  5
181C
330
A
100
AcDbEntity
  8
MODEL
100
AcDbPolyline
 90
        4
 70
     0
 43
0.0
 10
1081.223615866934
 20
2070.575917974752
 10
1081.227522116945
 20
2064.579580084132
 10
1081.229475241934
 20
2058.582265631002
 10
1081.231428366934
 20
2053.991689459132
  0
LWPOLYLINE
  5
181D
330
A
100
AcDbEntity
  8
MODEL
100
AcDbPolyline
 90
        3
 70
     0
 43
0.0
 10
1203.668928366945
 20
2053.991689459132
 10
1203.672834616934
 20
2065.986806646632
 10
1203.676740866934
 20
2070.575917974752
  0
LWPOLYLINE
  5
181E
330
A
100
AcDbEntity
  8
MODEL
100
AcDbPolyline
 90
        3
 70
     0
 43
0.0
 10
1116.834943991934
 20
2089.595693365382
 10
1104.838850241945
 20
2089.599111334132
 10
1100.250959616934
 20
2089.602529302882
  0
LWPOLYLINE
  5
181F
330
A
100
AcDbEntity
  8
MODEL
100
AcDbPolyline
 90
        4
 70
     0
 43
0.0
 10
1168.065412741934
 20
1967.157216802882
 10
1174.063459616934
 20
1967.155751959132
 10
1180.061506491934
 20
1967.153310552882
 10
1184.649397116945
 20
1967.150380865382
  0
LWPOLYLINE
  5
1820
330
A
100
AcDbEntity
  8
MODEL
100
AcDbPolyline
 90
        4
 70
     0
 43
0.0
 10
1203.676740866934
 20
1986.176748052882
 10
1203.672834616934
 20
1992.173085943502
 10
1203.670881491934
 20
1998.170400396632
 10
1203.668928366945
 20
2002.760732427882
  0
LWPOLYLINE
  5
1821
330
A
100
AcDbEntity
  8
MODEL
100
AcDbPolyline
 90
        4
 70
     0
 43
0.0
 10
1100.250959616934
 20
1967.150380865382
 10
1106.247053366945
 20
1967.154042974752
 10
1112.245100241934
 20
1967.156240240382
 10
1116.834943991934
 20
1967.157216802882
  0
ARC
  5
1828
330
A
100
AcDbEntity
  8
MODEL
100
AcDbCircle
 10
1100.391584616934
 20
1986.317128912252
 30
0.0
 40
25.0
100
AcDbArc
 50
180.0
 51
270.0
  0
ARC
  5
182A
330
A
100
AcDbEntity
  8
MODEL
100
AcDbCircle
 10
790.4501783669339
 20
1201.376333013817
 30
0.0
 40
23.0
100
AcDbArc
 50
180.0
 51
270.0
  0
ARC
  5
182B
330
A
100
AcDbEntity
  8
MODEL
100
AcDbCircle
 10
1494.450178366934
 20
1201.376333013817
 30
0.0
 40
23.0
100
AcDbArc
 50
270.0
 51
0.0
  0
ARC
  5
182C
330
A
100
AcDbEntity
  8
MODEL
100
AcDbCircle
 10
1494.450178366934
 20
2855.376455084142
 30
0.0
 40
23.0
100
AcDbArc
 50
0.0
 51
90.0
  0
ARC
  5
182D
330
A
100
AcDbEntity
  8
MODEL
100
AcDbCircle
 10
790.4501783669339
 20
2855.376455084142
 30
0.0
 40
23.0
100
AcDbArc
 50
90.0
 51
180.0
  0
ARC
  5
1831
330
A
100
AcDbEntity
  8
MODEL
100
AcDbCircle
 10
2722.074351218967
 20
1184.376394048978
 30
0.0
 40
6.0
100
AcDbArc
 50
180.0
 51
270.0
  0
ARC
  5
1832
330
A
100
AcDbEntity
  8
MODEL
100
AcDbCircle
 10
2722.074351218967
 20
2872.37639404899
 30
0.0
 40
6.0
100
AcDbArc
 50
90.0
 51
180.0
  0
ARC
  5
1833
330
A
100
AcDbEntity
  8
MODEL
100
AcDbCircle
 10
2722.074351218967
 20
4285.096733603117
 30
0.0
 40
6.0
100
AcDbArc
 50
180.0
 51
270.0
  0
ARC
  5
1834
330
A
100
AcDbEntity
  8
MODEL
100
AcDbCircle
 10
2722.074351218967
 20
5023.096733603117
 30
0.0
 40
6.0
100
AcDbArc
 50
90.0
 51
180.0
  0
LINE
  5
1839
330
A
100
AcDbEntity
  8
MODEL
100
AcDbLine
 10
1494.450178366934
 20
1178.376333013817
 30
0.0
 11
790.4501783669339
 21
1178.376333013817
 31
0.0
  0
LINE
  5
183A
330
A
100
AcDbEntity
  8
MODEL
100
AcDbLine
 10
790.4501783669339
 20
2878.376455084142
 30
0.0
 11
1494.450178366934
 21
2878.376455084142
 31
0.0
  0
LINE
  5
183B
330
A
100
AcDbEntity
  8
MODEL
100
AcDbLine
 10
1517.450178366934
 20
2855.376455084142
 30
0.0
 11
1517.450178366934
 21
1201.376333013817
 31
0.0
  0
LINE
  5
183C
330
A
100
AcDbEntity
  8
MODEL
100
AcDbLine
 10
767.4501783669648
 20
1201.376333013817
 30
0.0
 11
767.4501783669648
 21
2855.376455084142
 31
0.0
  0
LINE
  5
183D
330
A
100
AcDbEntity
  8
MODEL
100
AcDbLine
 10
3326.074351218967
 20
1178.376394048978
 30
0.0
 11
2722.074351218967
 21
1178.376394048978
 31
0.0
  0
LINE
  5
183E
330
A
100
AcDbEntity
  8
MODEL
100
AcDbLine
 10
3326.074351218967
 20
2878.37639404899
 30
0.0
 11
2722.074351218967
 21
2878.37639404899
 31
0.0
  0
LINE
  5
183F
330
A
100
AcDbEntity
  8
MODEL
100
AcDbLine
 10
2716.074351218967
 20
2872.37639404899
 30
0.0
 11
2716.074351218967
 21
1184.376394048978
 31
0.0
  0
LINE
  5
1840
330
A
100
AcDbEntity
  8
MODEL
100
AcDbLine
 10
2716.074351218967
 20
4285.096733603117
 30
0.0
 11
2716.074351218967
 21
5023.096733603117
 31
0.0
  0
LINE
  5
1841
330
A
100
AcDbEntity
  8
MODEL
100
AcDbLine
 10
3326.074351218967
 20
4279.096733603117
 30
0.0
 11
2722.074351218967
 21
4279.096733603117
 31
0.0
  0
LINE
  5
1842
330
A
100
AcDbEntity
  8
MODEL
100
AcDbLine
 10
3326.074351218967
 20
5029.096733603117
 30
0.0
 11
2722.074351218967
 21
5029.096733603117
 31
0.0
  0
LINE
  5
1843
330
A
100
AcDbEntity
  8
MODEL
100
AcDbLine
 10
3326.074351218967
 20
2878.37639404899
 30
0.0
 11
3326.074351218967
 21
1178.376394048978
 31
0.0
  0
LINE
  5
1844
330
A
100
AcDbEntity
  8
MODEL
100
AcDbLine
 10
3326.074351218967
 20
4279.096733603117
 30
0.0
 11
3326.074351218967
 21
5029.096733603117
 31
0.0
  0
CIRCLE
  5
1845
330
A
100
AcDbEntity
  8
MODEL
  6
HIDDEN
 48
0.05
100
AcDbCircle
 10
1142.450178366934
 20
2028.376455084132
 30
0.0
 40
45.0
  0
DIMENSION
  5
1852
330
A
100
AcDbEntity
  8
DIM
100
AcDbDimension
  2
*D6
 10
1517.450117331778
 20
3247.450126950232
 30
0.0
 11
1142.450147849358
 21
3247.450126950232
 31
0.0
 70
   160
 71
     5
 42
749.9999389648406
 73
     0
 74
     0
 75
     0
 52
-270.0
  3
tfrom線あり
100
AcDbAlignedDimension
 13
767.4501783669375
 23
2862.943375555779
 33
0.0
 14
1517.450117331778
 24
2862.943375555779
 34
0.0
 50
180.0
100
AcDbRotatedDimension
1001
ACAD
1000
DSTYLE
1002
{
1070
   179
1070
     0
1070
    41
1040
18.0
1070
   271
1070
     0
1070
    43
1040
25.0
1070
    44
1040
0.0
1070
    42
1040
60.0
1070
   140
1040
48.0
1002
}
  0
DIMENSION
  5
1853
330
A
100
AcDbEntity
  8
DIM
100
AcDbDimension
  2
*D7
 10
416.656478505594
 20
2878.376271978718
 30
0.0
 11
416.6564785055934
 21
2028.376373068172
 31
0.0
 70
   160
 71
     5
 42
1699.999797821092
 73
     0
 74
     0
 75
     0
  3
tfrom線あり
100
AcDbAlignedDimension
 13
771.8865164798726
 23
1178.376474157626
 33
0.0
 14
792.9756775255873
 24
2878.376271978718
 34
0.0
 50
89.99999999999996
100
AcDbRotatedDimension
1001
ACAD
1000
DSTYLE
1002
{
1070
   179
1070
     0
1070
    41
1040
18.0
1070
   271
1070
     0
1070
    43
1040
25.0
1070
    44
1040
0.0
1070
    42
1040
60.0
1070
   140
1040
48.0
1002
}
  0
DIMENSION
  5
1854
330
A
100
AcDbEntity
  8
DIM
100
AcDbDimension
  2
*D8
 10
1798.506748638029
 20
2878.376271978717
 30
0.0
 11
1798.506748638029
 21
2453.376333013849
 31
0.0
 70
   160
 71
     5
 42
849.9998779297382
 73
     0
 74
     0
 75
     0
  3
tfrom線あり
100
AcDbAlignedDimension
 13
1244.486959460041
 23
2028.37639404898
 33
0.0
 14
1513.520430178628
 24
2878.376271978718
 34
0.0
 50
89.99999999999996
100
AcDbRotatedDimension
1001
ACAD
1000
DSTYLE
1002
{
1070
   147
1040
30.0
1070
   179
1070
     0
1070
    41
1040
18.0
1070
   271
1070
     0
1070
    43
1040
25.0
1070
    44
1040
0.0
1070
    42
1040
60.0
1070
   140
1040
48.0
1002
}
  0
DIMENSION
  5
1886
330
A
100
AcDbEntity
  8
DIM
100
AcDbDimension
  2
*D9
 10
2407.657228230391
 20
2798.37639404898
 30
0.0
 11
2407.657228230391
 21
2028.37639404898
 31
0.0
 70
   160
 71
     5
 42
1540.0
 73
     0
 74
     0
 75
     0
  3
JIS
100
AcDbAlignedDimension
 13
2723.977432883125
 23
1258.37639404898
 33
0.0
 14
2723.977380204123
 24
2798.37639404898
 34
0.0
 50
89.99999999999996
100
AcDbRotatedDimension
1001
ACAD
1000
DSTYLE
1002
{
1070
   179
1070
     0
1070
    41
1040
18.0
1070
   271
1070
     0
1070
    43
1040
25.0
1070
    44
1040
0.0
1070
    42
1040
60.0
1070
   147
1040
30.0
1070
   140
1040
48.0
1002
}
  0
DIMENSION
  5
1887
330
A
100
AcDbEntity
  8
DIM
100
AcDbDimension
  2
*D10
 10
2559.578552733949
 20
2568.376373068168
 30
0.0
 11
2505.578552733949
 21
2028.376373068168
 31
0.0
 70
    32
 71
     5
 42
1080.0
 73
     0
 74
     0
 75
     0
  3
JIS
100
AcDbAlignedDimension
 13
2937.511851274175
 23
1488.376373068168
 33
0.0
 14
2937.511851274176
 24
2568.376373068168
 34
0.0
 50
89.99999999999996
100
AcDbRotatedDimension
1001
ACAD
1000
DSTYLE
1002
{
1070
   179
1070
     0
1070
    41
1040
18.0
1070
   271
1070
     0
1070
    43
1040
25.0
1070
    44
1040
0.0
1070
    42
1040
60.0
1070
   147
1040
30.0
1070
   140
1040
48.0
1002
}
  0
DIMENSION
  5
1888
330
A
100
AcDbEntity
  8
DIM
100
AcDbDimension
  2
*D11
 10
2672.901272995677
 20
2054.376369253471
 30
0.0
 11
2672.901272995677
 21
2028.376373068166
 31
0.0
 70
   160
 71
     5
 42
51.99999237060683
 73
     0
 74
     0
 75
     0
  3
JIS
100
AcDbAlignedDimension
 13
2786.074351218967
 23
2002.376376882864
 33
0.0
 14
2786.074351218967
 24
2054.376369253471
 34
0.0
 50
89.99999999999996
100
AcDbRotatedDimension
1001
ACAD
1000
DSTYLE
1002
{
1070
     3
1000
%%c<>
1070
   179
1070
     0
1070
    41
1040
18.0
1070
   271
1070
     0
1070
    43
1040
25.0
1070
    44
1040
0.0
1070
    42
1040
60.0
1070
   147
1040
30.0
1070
   140
1040
48.0
1002
}
  0
DIMENSION
  5
1889
330
A
100
AcDbEntity
  8
DIM
100
AcDbDimension
  2
*D12
 10
3326.088733588061
 20
3324.533907357787
 30
0.0
 11
3021.074352172643
 21
3324.533907357787
 31
0.0
 70
   160
 71
     5
 42
609.9999980926541
 73
     0
 74
     0
 75
     0
 52
-270.0
  3
JIS
100
AcDbAlignedDimension
 13
2716.088735495407
 23
2863.521451721357
 33
0.0
 14
3326.088733588061
 24
2878.521451721357
 34
0.0
 50
180.0
100
AcDbRotatedDimension
1001
ACAD
1000
DSTYLE
1002
{
1070
   179
1070
     0
1070
    41
1040
18.0
1070
   271
1070
     0
1070
    43
1040
25.0
1070
    44
1040
0.0
1070
    42
1040
60.0
1070
   147
1040
30.0
1070
   140
1040
48.0
1002
}
  0
DIMENSION
  5
188B
330
A
100
AcDbEntity
  8
DIM
100
AcDbDimension
  2
*D13
 10
3544.685500398226
 20
2878.37639404899
 30
0.0
 11
3490.685500398225
 21
2028.376394048984
 31
0.0
 70
    32
 71
     5
 42
1700.000000000012
 73
     0
 74
     0
 75
     0
  3
JIS
100
AcDbAlignedDimension
 13
3326.074351218967
 23
1178.376394048978
 33
0.0
 14
3326.074351218967
 24
2878.37639404899
 34
0.0
 50
89.99999999999996
100
AcDbRotatedDimension
1001
ACAD
1000
DSTYLE
1002
{
1070
   179
1070
     0
1070
    41
1040
18.0
1070
   271
1070
     0
1070
    43
1040
25.0
1070
    44
1040
0.0
1070
    42
1040
60.0
1070
   147
1040
30.0
1070
   140
1040
48.0
1002
}
  0
MTEXT
  5
188C
330
A
100
AcDbEntity
  8
TEMPLATE
390
1D
100
AcDbMText
 10
3720.791702098455
 20
1167.86303883556
 30
0.0
 40
48.865234375
 41
0.0
 46
48.865234375
 71
     1
 72
     1
  1
{\fメイリオ|b0|i0|c0|p0;\H0.8795x;※\fＭＳ ゴシック|b0|i0|c0|p0;1:オーバーフロー使用時の満水位置}
  7
ＭＳ ゴシック
 11
5.510910596163090E-16
 21
1.0
 31
0.0
 73
     1
 44
0.7828267384257843
1001
ACAD
1000
ACAD_MTEXT_DEFINED_HEIGHT_BEGIN
1070
    46
1040
48.865234375
1000
ACAD_MTEXT_DEFINED_HEIGHT_END
  0
DIMENSION
  5
188D
330
A
100
AcDbEntity
  8
DIM
100
AcDbDimension
  2
*D14
 10
2716.074471381919
 20
2198.450923406276
 30
0.0
 11
2978.37046756722
 21
2198.450923406276
 31
0.0
 70
   160
  1
93(※1)
 71
     5
 42
95.99999618530092
 73
     0
 74
     1
 75
     1
 52
-270.0
  3
JIS
100
AcDbAlignedDimension
 13
2812.07446756722
 23
2028.376373068168
 33
0.0
 14
2716.074471381919
 24
2028.37635018001
 34
0.0
 50
180.0
100
AcDbRotatedDimension
1001
ACAD
1000
DSTYLE
1002
{
1070
   172
1070
     1
1070
   174
1070
     1
1070
     3
1000
<>
1070
   179
1070
     0
1070
    41
1040
18.0
1070
   271
1070
     0
1070
    43
1040
25.0
1070
    44
1040
0.0
1070
    42
1040
60.0
1070
   147
1040
30.0
1070
   140
1040
48.0
1002
}
  0
DIMENSION
  5
18E3
330
A
100
AcDbEntity
  8
DIM
100
AcDbDimension
  2
*D15
 10
3544.685500398228
 20
5029.096733603117
 30
0.0
 11
3490.685500398228
 21
4654.096733603117
 31
0.0
 70
    32
 71
     5
 42
750.0
 73
     0
 74
     0
 75
     0
  3
JIS
100
AcDbAlignedDimension
 13
3326.074351218967
 23
4279.096733603117
 33
0.0
 14
3326.074351218967
 24
5029.096733603117
 34
0.0
 50
89.99999999999996
100
AcDbRotatedDimension
1001
ACAD
1000
DSTYLE
1002
{
1070
   179
1070
     0
1070
    41
1040
18.0
1070
   271
1070
     0
1070
    43
1040
25.0
1070
    44
1040
0.0
1070
    42
1040
60.0
1070
   147
1040
30.0
1070
   140
1040
48.0
1002
}
  0
DIMENSION
  5
190A
330
A
100
AcDbEntity
  8
DIM
  6
Continuous
370
     0
100
AcDbDimension
  2
*D17
 10
1187.662288837985
 20
1898.798744457777
 30
0.0
 11
1142.450178366934
 21
1898.798744457777
 31
0.0
 70
   160
 71
     5
 42
90.0
 73
     0
 74
     0
 75
     0
 52
-270.0
  3
JIS
100
AcDbAlignedDimension
 13
1097.662288837985
 23
2028.163026324178
 33
0.0
 14
1187.662288837985
 24
2028.163026324178
 34
0.0
 50
180.0
100
AcDbRotatedDimension
1001
ACAD
1000
DSTYLE
1002
{
1070
    77
1070
     2
1070
     3
1000
%%c<>
1070
   179
1070
     0
1070
    41
1040
18.0
1070
   271
1070
     0
1070
    43
1040
25.0
1070
    44
1040
0.0
1070
    42
1040
60.0
1070
   147
1040
30.0
1070
   140
1040
48.0
1002
}
  0
CIRCLE
  5
191C
330
A
100
AcDbEntity
  8
MODEL
  6
STYLE_12
100
AcDbCircle
 10
2786.074351218967
 20
2028.37639404898
 30
0.0
 40
25.99997520449142
  0
DIMENSION
  5
192A
330
A
100
AcDbEntity
  8
DIM
  6
Continuous
370
     0
100
AcDbDimension
  2
*D18
 10
3131.074351218967
 20
3126.600071792872
 30
0.0
 11
2923.574351218967
 21
3180.600071792872
 31
0.0
 70
    32
 71
     5
 42
415.0000000000001
 73
     0
 74
     0
 75
     0
 52
-270.0
  3
JIS
100
AcDbAlignedDimension
 13
2716.074351218967
 23
2872.37639404899
 33
0.0
 14
3131.074351218967
 24
2558.776601741537
 34
0.0
 50
180.0
100
AcDbRotatedDimension
1001
ACAD
1000
DSTYLE
1002
{
1070
   179
1070
     0
1070
    41
1040
18.0
1070
   271
1070
     0
1070
    43
1040
25.0
1070
    44
1040
0.0
1070
    42
1040
60.0
1070
   147
1040
30.0
1070
   140
1040
48.0
1002
}
  0
DIMENSION
  5
1937
330
A
100
AcDbEntity
  8
DIM
  6
Continuous
370
     0
100
AcDbDimension
  2
*D19
 10
2580.000207301839
 20
4889.096733603117
 30
0.0
 11
2526.000207301839
 21
4654.096733603117
 31
0.0
 70
    32
 71
     5
 42
470.0
 73
     0
 74
     0
 75
     0
  3
JIS
100
AcDbAlignedDimension
 13
2890.050043203628
 23
4419.096733603117
 33
0.0
 14
2890.050043203628
 24
4889.096733603117
 34
0.0
 50
90.0
100
AcDbRotatedDimension
1001
ACAD
1000
DSTYLE
1002
{
1070
   179
1070
     0
1070
    41
1040
18.0
1070
   271
1070
     0
1070
    43
1040
25.0
1070
    44
1040
0.0
1070
    42
1040
25.0
1070
   147
1040
30.0
1070
   140
1040
48.0
1002
}
  0
DIMENSION
  5
1975
330
A
100
AcDbEntity
  8
DIM
  6
Continuous
100
AcDbDimension
  2
*D20
 10
3156.074351218967
 20
5197.28412158372
 30
0.0
 11
2936.074351218967
 21
5251.28412158372
 31
0.0
 70
    32
 71
     5
 42
440.0
 73
     0
 74
     0
 75
     0
  3
JIS
100
AcDbAlignedDimension
 13
2716.074351218967
 23
5023.096733603117
 33
0.0
 14
3156.074351218967
 24
4764.513894719612
 34
0.0
100
AcDbRotatedDimension
1001
ACAD
1000
DSTYLE
1002
{
1070
   179
1070
     0
1070
    41
1040
18.0
1070
   271
1070
     0
1070
    43
1040
25.0
1070
    44
1040
0.0
1070
    42
1040
25.0
1070
   147
1040
30.0
1070
   140
1040
48.0
1002
}
  0
LINE
  5
19C4
330
A
100
AcDbEntity
  8
DIM
  6
Continuous
100
AcDbLine
 10
1204.899989379176
 20
1805.560094712444
 30
0.0
 11
872.6309052465435
 21
1805.560094712444
 31
0.0
  0
MTEXT
  5
19C5
330
A
100
AcDbEntity
  8
TEMPLATE
390
1D
100
AcDbMText
 10
885.1156084262689
 20
1870.982379591521
 30
0.0
 40
48.865234375
 41
429.0367578125001
 46
48.865234375
 71
     1
 72
     1
  1
{排水口}
  7
ＭＳ ゴシック
 73
     1
 44
0.7828267384257843
1001
ACAD
1000
ACAD_MTEXT_DEFINED_HEIGHT_BEGIN
1070
    46
1040
48.865234375
1000
ACAD_MTEXT_DEFINED_HEIGHT_END
  0
LWPOLYLINE
  5
1A02
330
A
100
AcDbEntity
  8
MODEL
100
AcDbPolyline
 90
       48
 70
     0
 43
0.0
 10
1433.473502779579
 20
2002.80608154898
 10
1432.680534029579
 20
2003.52580811148
 10
1432.000846529579
 20
2005.37639404898
 10
1431.483268404579
 20
2007.73479248648
 10
1431.112174654579
 20
2010.10686279898
 10
1430.852409029579
 20
2012.25237061148
 10
1430.670768404579
 20
2014.10490967398
 10
1430.539909029579
 20
2015.67717529898
 10
1430.446159029579
 20
2017.00627686148
 10
1430.373893404579
 20
2018.13420654898
 10
1430.321159029579
 20
2019.09905029898
 10
1430.278190279579
 20
2019.92912842398
 10
1430.246940279579
 20
2020.65178467398
 10
1430.219596529579
 20
2021.28459717398
 10
1430.200065279579
 20
2021.84514404898
 10
1430.180534029579
 20
2022.34319092398
 10
1430.166862154579
 20
2022.78947998648
 10
1430.155143404579
 20
2023.19280029898
 10
1430.145377779579
 20
2023.55901123648
 10
1430.135612154579
 20
2023.89397217398
 10
1430.129752779579
 20
2024.20061279898
 10
1430.121940279579
 20
2024.48381592398
 10
1430.116080904579
 20
2024.74651123648
 10
1430.110221529579
 20
2024.99162842398
 10
1430.096549654579
 20
2025.82854248648
 10
1430.086784029579
 20
2026.50432373648
 10
1430.078971529579
 20
2027.33733154898
 10
1430.075065279579
 20
2028.37639404898
 10
1430.075065279579
 20
2029.45451904898
 10
1430.082877779579
 20
2030.67033936148
 10
1430.094596529579
 20
2031.60295654898
 10
1430.106315279579
 20
2032.39201904898
 10
1430.129752779579
 20
2033.41155029898
 10
1430.135612154579
 20
2033.71819092398
 10
1430.145377779579
 20
2034.05315186148
 10
1430.155143404579
 20
2034.41936279898
 10
1430.166862154579
 20
2034.82268311148
 10
1430.180534029579
 20
2035.26897217398
 10
1430.200065279579
 20
2035.76701904898
 10
1430.219596529579
 20
2036.32756592398
 10
1430.246940279579
 20
2036.96037842398
 10
1430.278190279579
 20
2037.68303467398
 10
1430.321159029579
 20
2038.51311279898
 10
1430.373893404579
 20
2039.47795654898
 10
1430.446159029579
 20
2040.60588623648
 10
1430.539909029579
 20
2041.93498779898
 10
1430.670768404579
 20
2043.50725342398
 10
1430.852409029579
 20
2045.35979248648
  0
LWPOLYLINE
  5
1A03
102
{ACAD_REACTORS
330
1A07
102
}
330
A
100
AcDbEntity
  8
MODEL
100
AcDbPolyline
 90
       48
 70
     0
 43
0.0
 10
1430.852409029579
 20
2045.35979248648
 10
1431.112174654579
 20
2047.50530029898
 10
1431.483268404579
 20
2049.87737061148
 10
1432.000846529579
 20
2052.23576904898
 10
1432.680534029579
 20
2054.08635498648
 10
1433.473502779579
 20
2054.80608154898
 10
1434.270377779579
 20
2054.08635498648
 10
1434.948112154579
 20
2052.23576904898
 10
1435.465690279579
 20
2049.87737061148
 10
1435.836784029579
 20
2047.50530029898
 10
1436.096549654579
 20
2045.35881592398
 10
1436.278190279579
 20
2043.50725342398
 10
1436.409049654579
 20
2041.93498779898
 10
1436.504752779579
 20
2040.60588623648
 10
1436.575065279579
 20
2039.47795654898
 10
1436.629752779579
 20
2038.51311279898
 10
1436.670768404579
 20
2037.68303467398
 10
1436.703971529579
 20
2036.96037842398
 10
1436.729362154579
 20
2036.32756592398
 10
1436.750846529579
 20
2035.76701904898
 10
1436.768424654579
 20
2035.26897217398
 10
1436.782096529579
 20
2034.82268311148
 10
1436.793815279579
 20
2034.41936279898
 10
1436.805534029579
 20
2034.05315186148
 10
1436.813346529579
 20
2033.71819092398
 10
1436.821159029579
 20
2033.41155029898
 10
1436.827018404579
 20
2033.12834717398
 10
1436.832877779579
 20
2032.86565186148
 10
1436.836784029579
 20
2032.62053467398
 10
1436.852409029579
 20
2031.78362061148
 10
1436.860221529579
 20
2031.10783936148
 10
1436.868034029579
 20
2030.27483154898
 10
1436.873893404579
 20
2029.34514404898
 10
1436.873893404579
 20
2028.26701904898
 10
1436.868034029579
 20
2027.07756592398
 10
1436.852409029579
 20
2025.82854248648
 10
1436.836784029579
 20
2024.99162842398
 10
1436.832877779579
 20
2024.74651123648
 10
1436.827018404579
 20
2024.48381592398
 10
1436.821159029579
 20
2024.20061279898
 10
1436.813346529579
 20
2023.89397217398
 10
1436.805534029579
 20
2023.55901123648
 10
1436.793815279579
 20
2023.19280029898
 10
1436.782096529579
 20
2022.78947998648
 10
1436.768424654579
 20
2022.34319092398
 10
1436.750846529579
 20
2021.84514404898
 10
1436.729362154579
 20
2021.28459717398
 10
1436.703971529579
 20
2020.65178467398
  0
LWPOLYLINE
  5
1A04
330
A
100
AcDbEntity
  8
MODEL
100
AcDbPolyline
 90
       13
 70
     0
 43
0.0
 10
1436.703971529579
 20
2020.65178467398
 10
1436.670768404579
 20
2019.92912842398
 10
1436.629752779579
 20
2019.09905029898
 10
1436.575065279579
 20
2018.13420654898
 10
1436.504752779579
 20
2017.00627686148
 10
1436.409049654579
 20
2015.67717529898
 10
1436.278190279579
 20
2014.10490967398
 10
1436.096549654579
 20
2012.25237061148
 10
1435.836784029579
 20
2010.10686279898
 10
1435.465690279579
 20
2007.73479248648
 10
1434.948112154579
 20
2005.37639404898
 10
1434.268424654579
 20
2003.52580811148
 10
1433.473502779579
 20
2002.80608154898
  0
LEADER
  5
1A05
102
{ACAD_REACTORS
330
1A07
102
}
102
{ACAD_XDICTIONARY
360
1A06
102
}
330
A
100
AcDbEntity
  8
DIM
  6
Continuous
100
AcDbLeader
  3
JIS
 76
     3
 10
1436.873893404579
 20
2029.34514404898
 30
0.0
 10
1661.921099650846
 20
1819.541076981593
 30
0.0
 10
1661.921099650846
 20
1305.3711257671
 30
0.0
1001
ACAD
1000
DSTYLE
1002
{
1070
   179
1070
     0
1070
    41
1040
10.0
1070
   271
1070
     0
1070
    43
1040
25.0
1070
    44
1040
0.0
1070
    42
1040
25.0
1070
   147
1040
30.0
1070
   140
1040
48.0
1002
}
  0
MTEXT
  5
1A08
330
A
100
AcDbEntity
  8
TEMPLATE
390
1D
100
AcDbMText
 10
1586.37059883345
 20
1362.005844969279
 30
0.0
 40
48.865234375
 41
0.0
 46
48.865234375
 71
     1
 72
     1
  1
{オーバーフロー}
  7
ＭＳ ゴシック
 11
6.123233995736766E-17
 21
1.0
 31
0.0
 73
     1
 44
0.7828267384257843
1001
ACAD
1000
ACAD_MTEXT_DEFINED_HEIGHT_BEGIN
1070
    46
1040
48.865234375
1000
ACAD_MTEXT_DEFINED_HEIGHT_END
  0
DIMENSION
  5
1A29
330
A
100
AcDbEntity
  8
DIM
  6
Continuous
100
AcDbDimension
  2
*D23
 10
1206.818098503376
 20
2203.613240853815
 30
0.0
 11
1144.318098503376
 21
2203.613240853815
 31
0.0
 70
   160
 71
     5
 42
125.0
 73
     0
 74
     0
 75
     0
  3
JIS
100
AcDbAlignedDimension
 13
1081.818098503376
 23
2103.472425484688
 33
0.0
 14
1206.818098503376
 24
2103.472425484688
 34
0.0
100
AcDbRotatedDimension
1001
ACAD
1000
DSTYLE
1002
{
1070
   179
1070
     0
1070
    41
1040
18.0
1070
   271
1070
     0
1070
    43
1040
25.0
1070
    44
1040
0.0
1070
    42
1040
25.0
1070
   147
1040
30.0
1070
   140
1040
48.0
1002
}
  0
MTEXT
  5
20ED
330
A
100
AcDbEntity
  8
TEMPLATE
390
1D
100
AcDbMText
 10
2658.509411065372
 20
470.404822077453
 30
0.0
 40
48.865234375
 41
0.0
 46
48.865234375
 71
     1
 72
     1
  1
{137kg}
  7
ＭＳ ゴシック
 73
     1
 44
0.7828267384257843
1001
ACAD
1000
ACAD_MTEXT_DEFINED_HEIGHT_BEGIN
1070
    46
1040
48.865234375
1000
ACAD_MTEXT_DEFINED_HEIGHT_END
  0
DIMENSION
  5
2101
330
A
100
AcDbEntity
  8
DIM
  6
Continuous
100
AcDbDimension
  2
*D35
 10
2407.657228230391
 20
4949.096733603117
 30
0.0
 11
2407.657228230391
 21
4654.096733603117
 31
0.0
 70
   160
 71
     5
 42
590.0
 73
     0
 74
     0
 75
     0
  3
JIS
100
AcDbAlignedDimension
 13
2715.58423569674
 23
4359.096733603117
 33
0.0
 14
2715.58423569674
 24
4949.096733603117
 34
0.0
 50
90.0
100
AcDbRotatedDimension
1001
ACAD
1000
DSTYLE
1002
{
1070
   179
1070
     0
1070
    41
1040
18.0
1070
   271
1070
     0
1070
    43
1040
25.0
1070
    44
1040
0.0
1070
    42
1040
25.0
1070
   147
1040
30.0
1070
   140
1040
48.0
1002
}
  0
MTEXT
  5
2115
102
{ACAD_XDICTIONARY
360
2117
102
}
330
A
100
AcDbEntity
  8
DIM
  6
Continuous
100
AcDbMText
 10
152.5260175840131
 20
171.8643755678003
 30
0.0
 40
43.0
 41
0.0
 46
43.0
 71
     1
 72
     1
  1
{20201008N}
  7
ＭＳ ゴシック
 73
     1
 44
1.0
1001
ACAD
1000
ACAD_MTEXT_DEFINED_HEIGHT_BEGIN
1070
    46
1040
43.0
1000
ACAD_MTEXT_DEFINED_HEIGHT_END
  0
VIEWPORT
  5
349
330
B
100
AcDbEntity
 67
     1
  8
0
100
AcDbViewport
 10
202.5
 20
128.5
 30
0.0
 40
486.0
 41
308.4
 68
     1
 69
     1
 12
202.5
 22
128.5
 13
0.0
 23
0.0
 14
0.5
 24
0.5
 15
0.0
 25
0.0
 16
0.0
 26
0.0
 36
1.0
 17
0.0
 27
0.0
 37
0.0
 42
50.0
 43
0.0
 44
0.0
 45
308.4
 50
0.0
 51
0.0
 72
   100
 90
   557152
  1

281
     0
 71
     1
 74
     0
110
0.0
120
0.0
130
0.0
111
1.0
121
0.0
131
0.0
112
0.0
122
1.0
132
0.0
 79
     0
146
0.0
170
     0
 61
     5
348
26C
292
     1
282
     1
141
0.0
142
0.0
 63
   256
  0
VIEWPORT
  5
34A
330
B
100
AcDbEntity
 67
     1
  8
0
100
AcDbViewport
 10
202.5
 20
128.5
 30
0.0
 40
324.0
 41
205.6
 68
     2
 69
     2
 12
986.6781359294573
 22
1427.077061889956
 13
0.0
 23
0.0
 14
0.5
 24
0.5
 15
0.0
 25
0.0
 16
0.0
 26
0.0
 36
1.0
 17
0.0
 27
0.0
 37
0.0
 42
50.0
 43
0.0
 44
0.0
 45
2890.021615685494
 50
0.0
 51
0.0
 72
   100
 90
   557152
  1

281
     0
 71
     1
 74
     0
110
0.0
120
0.0
130
0.0
111
1.0
121
0.0
131
0.0
112
0.0
122
1.0
132
0.0
 79
     0
146
0.0
170
     0
 61
     5
348
26C
292
     1
282
     1
141
0.0
142
0.0
 63
   256
  0
ENDSEC
  0
SECTION
  2
OBJECTS
  0
DICTIONARY
  5
19
330
0
100
AcDbDictionary
281
     1
  3
ACAD_COLOR
350
38F
  3
ACAD_DETAILVIEWSTYLE
350
BE8
  3
ACAD_FIELDLIST
350
2119
  3
ACAD_GROUP
350
1A
  3
ACAD_IMAGE_VARS
350
27B
  3
ACAD_LAYOUT
350
1E
  3
ACAD_MATERIAL
350
263
  3
ACAD_MLEADERSTYLE
350
336
  3
ACAD_MLINESTYLE
350
1B
  3
ACAD_PLOTSETTINGS
350
22
  3
ACAD_PLOTSTYLENAME
350
1F
  3
ACAD_SCALELIST
350
241
  3
ACAD_SECTIONVIEWSTYLE
350
BE9
  3
ACAD_TABLESTYLE
350
278
  3
ACAD_VISUALSTYLE
350
267
  3
ACDB_RECOMPOSE_DATA
350
214F
  3
AcDbVariableDictionary
350
330
  3
APPDATA
350
27A
  0
SUN
  5
BE4
330
15
100
AcDbSun
 90
        1
290
     0
 63
     7
421
 16777215
 40
1.0
291
     1
 91
  2455826
 92
 54000000
292
     0
 70
     2
 71
   256
280
     1
  0
DICTIONARY
  5
2E1
330
2
100
AcDbDictionary
280
     1
281
     1
  3
ACAD_LAYERSTATES
360
2E2
  3
ACLYDICTIONARY
360
213B
  0
DICTIONARY
  5
1A06
330
1A05
100
AcDbDictionary
280
     1
281
     1
  3
ACAD_DIMASSOC
360
1A07
  0
DICTIONARY
  5
2117
330
2115
100
AcDbDictionary
280
     1
281
     1
  3
ACAD_FIELD
360
213C
  0
DICTIONARY
  5
38F
102
{ACAD_REACTORS
330
19
102
}
330
19
100
AcDbDictionary
281
     1
  0
DICTIONARY
  5
BE8
102
{ACAD_REACTORS
330
19
102
}
330
19
100
AcDbDictionary
281
     1
  0
FIELDLIST
  5
2119
102
{ACAD_REACTORS
330
19
102
}
330
19
100
AcDbIdSet
 90
        2
330
211A
330
2116
100
AcDbFieldList
  0
DICTIONARY
  5
1A
102
{ACAD_REACTORS
330
19
102
}
330
19
100
AcDbDictionary
281
     1
  0
RASTERVARIABLES
  5
27B
102
{ACAD_REACTORS
330
19
102
}
330
19
100
AcDbRasterVariables
 90
        0
 70
     1
 71
     1
 72
     1
  0
DICTIONARY
  5
1E
102
{ACAD_REACTORS
330
19
102
}
330
19
100
AcDbDictionary
281
     1
  3
Layout1
350
21
  3
Model
350
20
  0
DICTIONARY
  5
263
102
{ACAD_REACTORS
330
19
102
}
330
19
100
AcDbDictionary
281
     1
  3
ByBlock
350
1962
  3
ByLayer
350
264
  3
Global
350
266
  0
DICTIONARY
  5
336
102
{ACAD_REACTORS
330
19
102
}
330
19
100
AcDbDictionary
281
     1
  3
Standard
350
2100
  0
DICTIONARY
  5
1B
102
{ACAD_REACTORS
330
19
102
}
330
19
100
AcDbDictionary
281
     1
  3
Standard
350
1C
  0
DICTIONARY
  5
22
102
{ACAD_REACTORS
330
19
102
}
330
19
100
AcDbDictionary
281
     1
  0
ACDBDICTIONARYWDFLT
  5
1F
102
{ACAD_REACTORS
330
19
102
}
330
19
100
AcDbDictionary
281
     1
  3
Normal
350
1D
100
AcDbDictionaryWithDefault
340
1D
  0
DICTIONARY
  5
241
102
{ACAD_REACTORS
330
19
102
}
330
19
100
AcDbDictionary
281
     1
  3
A0
350
242
  3
A1
350
243
  3
A2
350
244
  3
A3
350
245
  3
A4
350
246
  3
A5
350
247
  3
A6
350
248
  3
A7
350
249
  3
A8
350
24A
  3
A9
350
24B
  3
B0
350
24C
  3
B1
350
24D
  3
B2
350
24E
  3
B3
350
24F
  3
B4
350
250
  3
B5
350
251
  3
B6
350
252
  3
B7
350
253
  3
B8
350
254
  3
B9
350
255
  3
C0
350
256
  3
C1
350
257
  3
C2
350
258
  3
C3
350
259
  3
C4
350
25A
  3
C5
350
25B
  3
C6
350
25C
  3
C7
350
25D
  3
C8
350
25E
  3
C9
350
25F
  3
D0
350
260
  3
D1
350
261
  3
D2
350
262
  0
DICTIONARY
  5
BE9
102
{ACAD_REACTORS
330
19
102
}
330
19
100
AcDbDictionary
281
     1
  0
DICTIONARY
  5
278
102
{ACAD_REACTORS
330
19
102
}
330
19
100
AcDbDictionary
281
     1
  3
Standard
350
279
  0
DICTIONARY
  5
267
102
{ACAD_REACTORS
330
19
102
}
330
19
100
AcDbDictionary
281
     1
  3
2dWireframe
350
26C
  3
3D Hidden
350
26E
  3
3dWireframe
350
26D
  3
Basic
350
26F
  3
Brighten
350
273
  3
ColorChange
350
277
  3
Conceptual
350
271
  3
Dim
350
272
  3
EdgeColorOff
350
BDE
  3
Facepattern
350
276
  3
Flat
350
268
  3
FlatWithEdges
350
269
  3
Gouraud
350
26A
  3
GouraudWithEdges
350
26B
  3
Hidden
350
BDB
  3
JitterOff
350
BDC
  3
Linepattern
350
275
  3
OverhangOff
350
BDD
  3
Realistic
350
270
  3
Shaded
350
BE3
  3
Shaded with edges
350
BE2
  3
Shades of Gray
350
BDF
  3
Sketchy
350
BE0
  3
Thicken
350
274
  3
Wireframe
350
BDA
  3
X-Ray
350
BE1
  0
XRECORD
  5
214F
102
{ACAD_REACTORS
330
19
102
}
330
19
100
AcDbXrecord
280
     1
 90
        1
330
279
  0
DICTIONARY
  5
330
102
{ACAD_REACTORS
330
19
102
}
330
19
100
AcDbDictionary
281
     1
  3
CANNOSCALE
350
331
  3
CMLEADERSTYLE
350
2114
  3
CTABLESTYLE
350
335
  3
HPTRANSPARENCY
350
C00
  3
XCLIPFRAME
350
64A
  0
DICTIONARY
  5
27A
102
{ACAD_REACTORS
330
19
102
}
330
19
100
AcDbDictionary
281
     1
  0
DICTIONARY
  5
2E2
102
{ACAD_REACTORS
330
2E1
102
}
330
2E1
100
AcDbDictionary
281
     1
  0
DICTIONARY
  5
213B
102
{ACAD_REACTORS
330
2E1
102
}
330
2E1
100
AcDbDictionary
281
     1
1001
ACAD
1000
<All
  0
DIMASSOC
  5
1A07
102
{ACAD_REACTORS
330
1A06
102
}
330
1A06
100
AcDbDimAssoc
330
1A05
 90
        1
 70
     0
 71
     1
  1
AcDbOsnapPointRef
 72
    10
331
1A03
 73
     2
 91
       33
 40
0.0
 10
0.0
 20
0.0
 30
0.0
 75
     0
  0
DICTIONARY
  5
213C
102
{ACAD_REACTORS
330
2117
102
}
330
2117
100
AcDbDictionary
280
     1
281
     1
  3
TEXT
360
2116
  0
LAYOUT
  5
21
102
{ACAD_REACTORS
330
1E
102
}
330
1E
100
AcDbPlotSettings
  1

  2
none_device
  4
ISO_A3_(420.00_x_297.00_MM)
  6

 40
7.5
 41
20.0
 42
7.5
 43
20.0
 44
420.0
 45
297.0
 46
0.0
 47
0.0
 48
0.0
 49
0.0
140
0.0
141
0.0
142
1.0
143
1.0
 70
     0
 72
     1
 73
     0
 74
     0
  7

 75
     0
 76
     0
 77
     2
 78
   300
147
1.0
148
0.0
149
0.0
100
AcDbLayout
  1
Layout1
 70
     0
 71
     0
 10
0.0
 20
0.0
 11
0.0
 21
0.0
 12
0.0
 22
0.0
 32
0.0
 14
0.0
 24
0.0
 34
0.0
 15
0.0
 25
0.0
 35
0.0
146
0.0
 13
0.0
 23
0.0
 33
0.0
 16
0.0
 26
0.0
 36
0.0
 17
0.0
 27
0.0
 37
0.0
 76
     0
330
B
331
349
  0
LAYOUT
  5
20
102
{ACAD_REACTORS
330
1E
102
}
330
1E
100
AcDbPlotSettings
  1

  2
none_device
  4
ISO_A3_(420.00_x_297.00_MM)
  6

 40
7.5
 41
20.0
 42
7.5
 43
20.0
 44
420.0
 45
297.0
 46
0.0
 47
0.0
 48
0.0
 49
0.0
140
0.0
141
0.0
142
1.0
143
1.0
 70
  1024
 72
     1
 73
     0
 74
     0
  7

 75
     0
 76
     0
 77
     2
 78
   300
147
1.0
148
0.0
149
0.0
100
AcDbLayout
  1
Model
 70
     0
 71
     1
 10
0.0
 20
0.0
 11
4200.000000000001
 21
5940.000000000001
 12
0.0
 22
0.0
 32
0.0
 14
144.5094110644077
 24
120.9904072046643
 34
-0.0000000000002274
 15
4044.509411065372
 25
5804.399587702454
 35
0.0
146
0.0
 13
0.0
 23
0.0
 33
0.0
 16
0.0
 26
0.0
 36
0.0
 17
0.0
 27
0.0
 37
0.0
 76
     0
330
A
331
15
  0
MATERIAL
  5
1962
102
{ACAD_REACTORS
330
263
102
}
330
263
100
AcDbMaterial
  1
ByBlock
 72
     1
 94
      127
  0
MATERIAL
  5
264
102
{ACAD_REACTORS
330
263
102
}
330
263
100
AcDbMaterial
  1
ByLayer
 72
     1
 94
      127
  0
MATERIAL
  5
266
102
{ACAD_REACTORS
330
263
102
}
330
263
100
AcDbMaterial
  1
Global
 72
     1
 94
      127
  0
MLEADERSTYLE
  5
2100
102
{ACAD_REACTORS
330
336
102
}
330
336
100
AcDbMLeaderStyle
170
     2
171
     1
172
     0
 90
        2
 40
0.0
 41
0.0
173
     1
 91
-1056964608
340
11
 92
       -2
290
     1
 42
2.0
291
     1
 43
8.0
  3
Standard
341
0
 44
4.0
300

342
17
174
     1
178
     6
175
     1
176
     0
 93
-1056964608
 45
4.0
292
     0
297
     0
 46
4.0
343
0
 94
-1056964608
 47
1.0
 49
1.0
140
1.0
293
     1
141
0.0
294
     1
177
     0
142
1.0
295
     0
296
     0
143
3.75
1001
ACAD_MLEADERVER
1070
     2
  0
MLINESTYLE
  5
1C
102
{ACAD_REACTORS
330
1B
102
}
330
1B
100
AcDbMlineStyle
  2
Standard
 70
     0
  3

 62
     0
 51
90.0
 52
90.0
 71
     2
 49
0.5
 62
   256
  6
BYLAYER
 49
-0.5
 62
   256
  6
BYLAYER
  0
ACDBPLACEHOLDER
  5
1D
102
{ACAD_REACTORS
330
1F
102
}
330
1F
  0
SCALE
  5
242
102
{ACAD_REACTORS
330
241
102
}
330
241
100
AcDbScale
 70
     0
300
1:1
140
1.0
141
1.0
290
     1
  0
SCALE
  5
243
102
{ACAD_REACTORS
330
241
102
}
330
241
100
AcDbScale
 70
     0
300
1:2
140
1.0
141
2.0
290
     0
  0
SCALE
  5
244
102
{ACAD_REACTORS
330
241
102
}
330
241
100
AcDbScale
 70
     0
300
1:4
140
1.0
141
4.0
290
     0
  0
SCALE
  5
245
102
{ACAD_REACTORS
330
241
102
}
330
241
100
AcDbScale
 70
     0
300
1:5
140
1.0
141
5.0
290
     0
  0
SCALE
  5
246
102
{ACAD_REACTORS
330
241
102
}
330
241
100
AcDbScale
 70
     0
300
1:8
140
1.0
141
8.0
290
     0
  0
SCALE
  5
247
102
{ACAD_REACTORS
330
241
102
}
330
241
100
AcDbScale
 70
     0
300
1:10
140
1.0
141
10.0
290
     0
  0
SCALE
  5
248
102
{ACAD_REACTORS
330
241
102
}
330
241
100
AcDbScale
 70
     0
300
1:16
140
1.0
141
16.0
290
     0
  0
SCALE
  5
249
102
{ACAD_REACTORS
330
241
102
}
330
241
100
AcDbScale
 70
     0
300
1:20
140
1.0
141
20.0
290
     0
  0
SCALE
  5
24A
102
{ACAD_REACTORS
330
241
102
}
330
241
100
AcDbScale
 70
     0
300
1:30
140
1.0
141
30.0
290
     0
  0
SCALE
  5
24B
102
{ACAD_REACTORS
330
241
102
}
330
241
100
AcDbScale
 70
     0
300
1:40
140
1.0
141
40.0
290
     0
  0
SCALE
  5
24C
102
{ACAD_REACTORS
330
241
102
}
330
241
100
AcDbScale
 70
     0
300
1:50
140
1.0
141
50.0
290
     0
  0
SCALE
  5
24D
102
{ACAD_REACTORS
330
241
102
}
330
241
100
AcDbScale
 70
     0
300
1:100
140
1.0
141
100.0
290
     0
  0
SCALE
  5
24E
102
{ACAD_REACTORS
330
241
102
}
330
241
100
AcDbScale
 70
     0
300
2:1
140
2.0
141
1.0
290
     0
  0
SCALE
  5
24F
102
{ACAD_REACTORS
330
241
102
}
330
241
100
AcDbScale
 70
     0
300
4:1
140
4.0
141
1.0
290
     0
  0
SCALE
  5
250
102
{ACAD_REACTORS
330
241
102
}
330
241
100
AcDbScale
 70
     0
300
8:1
140
8.0
141
1.0
290
     0
  0
SCALE
  5
251
102
{ACAD_REACTORS
330
241
102
}
330
241
100
AcDbScale
 70
     0
300
10:1
140
10.0
141
1.0
290
     0
  0
SCALE
  5
252
102
{ACAD_REACTORS
330
241
102
}
330
241
100
AcDbScale
 70
     0
300
100:1
140
100.0
141
1.0
290
     0
  0
SCALE
  5
253
102
{ACAD_REACTORS
330
241
102
}
330
241
100
AcDbScale
 70
     0
300
1/128" = 1'-0"
140
0.0078125
141
12.0
290
     0
  0
SCALE
  5
254
102
{ACAD_REACTORS
330
241
102
}
330
241
100
AcDbScale
 70
     0
300
1/64" = 1'-0"
140
0.015625
141
12.0
290
     0
  0
SCALE
  5
255
102
{ACAD_REACTORS
330
241
102
}
330
241
100
AcDbScale
 70
     0
300
1/32" = 1'-0"
140
0.03125
141
12.0
290
     0
  0
SCALE
  5
256
102
{ACAD_REACTORS
330
241
102
}
330
241
100
AcDbScale
 70
     0
300
1/16" = 1'-0"
140
0.0625
141
12.0
290
     0
  0
SCALE
  5
257
102
{ACAD_REACTORS
330
241
102
}
330
241
100
AcDbScale
 70
     0
300
3/32" = 1'-0"
140
0.09375
141
12.0
290
     0
  0
SCALE
  5
258
102
{ACAD_REACTORS
330
241
102
}
330
241
100
AcDbScale
 70
     0
300
1/8" = 1'-0"
140
0.125
141
12.0
290
     0
  0
SCALE
  5
259
102
{ACAD_REACTORS
330
241
102
}
330
241
100
AcDbScale
 70
     0
300
3/16" = 1'-0"
140
0.1875
141
12.0
290
     0
  0
SCALE
  5
25A
102
{ACAD_REACTORS
330
241
102
}
330
241
100
AcDbScale
 70
     0
300
1/4" = 1'-0"
140
0.25
141
12.0
290
     0
  0
SCALE
  5
25B
102
{ACAD_REACTORS
330
241
102
}
330
241
100
AcDbScale
 70
     0
300
3/8" = 1'-0"
140
0.375
141
12.0
290
     0
  0
SCALE
  5
25C
102
{ACAD_REACTORS
330
241
102
}
330
241
100
AcDbScale
 70
     0
300
1/2" = 1'-0"
140
0.5
141
12.0
290
     0
  0
SCALE
  5
25D
102
{ACAD_REACTORS
330
241
102
}
330
241
100
AcDbScale
 70
     0
300
3/4" = 1'-0"
140
0.75
141
12.0
290
     0
  0
SCALE
  5
25E
102
{ACAD_REACTORS
330
241
102
}
330
241
100
AcDbScale
 70
     0
300
1" = 1'-0"
140
1.0
141
12.0
290
     0
  0
SCALE
  5
25F
102
{ACAD_REACTORS
330
241
102
}
330
241
100
AcDbScale
 70
     0
300
1-1/2" = 1'-0"
140
1.5
141
12.0
290
     0
  0
SCALE
  5
260
102
{ACAD_REACTORS
330
241
102
}
330
241
100
AcDbScale
 70
     0
300
3" = 1'-0"
140
3.0
141
12.0
290
     0
  0
SCALE
  5
261
102
{ACAD_REACTORS
330
241
102
}
330
241
100
AcDbScale
 70
     0
300
6" = 1'-0"
140
6.0
141
12.0
290
     0
  0
SCALE
  5
262
102
{ACAD_REACTORS
330
241
102
}
330
241
100
AcDbScale
 70
     0
300
1'-0" = 1'-0"
140
12.0
141
12.0
290
     0
  0
TABLESTYLE
  5
279
102
{ACAD_REACTORS
330
278
102
}
102
{ACAD_XDICTIONARY
360
214D
102
}
330
278
100
AcDbTableStyle
  3
Standard
 70
     0
 71
     0
 40
0.06
 41
0.06
280
     0
281
     0
  7
Standard
140
4.5
170
     2
 62
     0
 63
   257
283
     0
 90
        4
 91
        0
  1

274
    -2
284
     1
 64
     0
275
    -2
285
     1
 65
     0
276
    -2
286
     1
 66
     0
277
    -2
287
     1
 67
     0
278
    -2
288
     1
 68
     0
279
    -2
289
     1
 69
     0
  7
Standard
140
6.0
170
     5
 62
     0
 63
   257
283
     0
 90
        4
 91
        0
  1

274
    -2
284
     1
 64
     0
275
    -2
285
     1
 65
     0
276
    -2
286
     1
 66
     0
277
    -2
287
     1
 67
     0
278
    -2
288
     1
 68
     0
279
    -2
289
     1
 69
     0
  7
Standard
140
4.5
170
     5
 62
     0
 63
   257
283
     0
 90
        4
 91
        0
  1

274
    -2
284
     1
 64
     0
275
    -2
285
     1
 65
     0
276
    -2
286
     1
 66
     0
277
    -2
287
     1
 67
     0
278
    -2
288
     1
 68
     0
279
    -2
289
     1
 69
     0
  0
VISUALSTYLE
  5
26C
102
{ACAD_REACTORS
330
267
102
}
330
267
100
AcDbVisualStyle
  2
2dWireframe
 70
     4
 71
     0
 72
     2
 73
     0
 90
        0
 40
-0.6
 41
-30.0
 62
     5
 63
     7
421
 16777215
 74
     1
 91
        4
 64
     7
 65
   257
 75
     1
175
     1
 42
1.0
 92
        0
 66
   257
 43
1.0
 76
     1
 77
     6
 78
     2
 67
     7
 79
     5
170
     0
171
     0
290
     0
174
     0
 93
        1
 44
0.0
173
     0
291
     0
 45
0.0
  0
VISUALSTYLE
  5
26E
102
{ACAD_REACTORS
330
267
102
}
330
267
100
AcDbVisualStyle
  2
3D Hidden
 70
     6
 71
     1
 72
     2
 73
     2
 90
        0
 40
-0.6
 41
-30.0
 62
     5
 63
     7
421
 16777215
 74
     2
 91
        2
 64
     7
 65
   257
 75
     2
175
     1
 42
40.0
 92
        0
 66
   257
 43
1.0
 76
     1
 77
     6
 78
     2
 67
     7
 79
     3
170
     0
171
     0
290
     0
174
     0
 93
        1
 44
0.0
173
     0
291
     0
 45
0.0
  0
VISUALSTYLE
  5
26D
102
{ACAD_REACTORS
330
267
102
}
330
267
100
AcDbVisualStyle
  2
3dWireframe
 70
     5
 71
     0
 72
     2
 73
     0
 90
        0
 40
-0.6
 41
-30.0
 62
     5
 63
     7
421
 16777215
 74
     1
 91
        4
 64
     7
 65
   257
 75
     1
175
     1
 42
1.0
 92
        0
 66
   257
 43
1.0
 76
     1
 77
     6
 78
     2
 67
     7
 79
     5
170
     0
171
     0
290
     0
174
     0
 93
        1
 44
0.0
173
     0
291
     0
 45
0.0
  0
VISUALSTYLE
  5
26F
102
{ACAD_REACTORS
330
267
102
}
330
267
100
AcDbVisualStyle
  2
Basic
 70
     7
 71
     1
 72
     0
 73
     1
 90
        0
 40
-0.6
 41
-30.0
 62
     5
 63
     7
421
 16777215
 74
     0
 91
        4
 64
     7
 65
   257
 75
     1
175
     1
 42
1.0
 92
        8
 66
     7
 43
1.0
 76
     1
 77
     6
 78
     2
 67
     7
 79
     5
170
     0
171
     0
290
     0
174
     0
 93
        1
 44
0.0
173
     0
291
     1
 45
0.0
  0
VISUALSTYLE
  5
273
102
{ACAD_REACTORS
330
267
102
}
330
267
100
AcDbVisualStyle
  2
Brighten
 70
    12
 71
     2
 72
     2
 73
     0
 90
        0
 40
-0.6
 41
-30.0
 62
     5
 63
     7
421
 16777215
 74
     1
 91
        4
 64
     7
 65
   257
 75
     1
175
     1
 42
1.0
 92
        8
 66
     7
 43
1.0
 76
     1
 77
     6
 78
     2
 67
     7
 79
     5
170
     0
171
     0
290
     0
174
     0
 93
        1
 44
50.0
173
     0
291
     1
 45
0.0
  0
VISUALSTYLE
  5
277
102
{ACAD_REACTORS
330
267
102
}
330
267
100
AcDbVisualStyle
  2
ColorChange
 70
    16
 71
     2
 72
     2
 73
     3
 90
        0
 40
-0.6
 41
-30.0
 62
     5
 63
     8
421
  8421504
 74
     1
 91
        4
 64
     7
 65
   257
 75
     1
175
     1
 42
1.0
 92
        8
 66
     8
424
  8421504
 43
1.0
 76
     1
 77
     6
 78
     2
 67
     7
 79
     5
170
     0
171
     0
290
     0
174
     0
 93
        1
 44
0.0
173
     0
291
     1
 45
0.0
  0
VISUALSTYLE
  5
271
102
{ACAD_REACTORS
330
267
102
}
330
267
100
AcDbVisualStyle
  2
Conceptual
 70
     9
 71
     3
 72
     2
 73
     0
 90
        0
 40
-0.6
 41
-30.0
 62
     5
 63
     7
421
 16777215
 74
     2
 91
        2
 64
     7
 65
   257
 75
     1
175
     1
 42
40.0
 92
        8
 66
     7
 43
1.0
 76
     1
 77
     6
 78
     2
 67
     7
 79
     3
170
     0
171
     0
290
     0
174
     0
 93
        1
 44
0.0
173
     0
291
     0
 45
0.0
  0
VISUALSTYLE
  5
272
102
{ACAD_REACTORS
330
267
102
}
330
267
100
AcDbVisualStyle
  2
Dim
 70
    11
 71
     2
 72
     2
 73
     0
 90
        0
 40
-0.6
 41
-30.0
 62
     5
 63
     7
421
 16777215
 74
     1
 91
        4
 64
     7
 65
   257
 75
     1
175
     1
 42
1.0
 92
        8
 66
     7
 43
1.0
 76
     1
 77
     6
 78
     2
 67
     7
 79
     5
170
     0
171
     0
290
     0
174
     0
 93
        1
 44
-50.0
173
     0
291
     1
 45
0.0
  0
VISUALSTYLE
  5
BDE
102
{ACAD_REACTORS
330
267
102
}
330
267
100
AcDbVisualStyle
  2
EdgeColorOff
 70
    22
 71
     2
 72
     2
 73
     0
 90
        0
 40
0.6
 41
30.0
 62
     5
 63
     7
421
 16777215
 74
     1
 91
        4
 64
     7
 65
   257
 75
     1
175
     1
 42
1.0
 92
        8
 66
     7
 43
1.0
 76
     1
 77
     6
 78
     2
 67
     7
 79
     5
170
     0
171
     0
290
     0
174
     0
 93
        1
 44
0.0
173
     0
291
     1
 45
0.0
  0
VISUALSTYLE
  5
276
102
{ACAD_REACTORS
330
267
102
}
330
267
100
AcDbVisualStyle
  2
Facepattern
 70
    15
 71
     2
 72
     2
 73
     0
 90
        0
 40
-0.6
 41
-30.0
 62
     5
 63
     7
421
 16777215
 74
     1
 91
        4
 64
     7
 65
   257
 75
     1
175
     1
 42
1.0
 92
        8
 66
     7
 43
1.0
 76
     1
 77
     6
 78
     2
 67
     7
 79
     5
170
     0
171
     0
290
     0
174
     0
 93
        1
 44
0.0
173
     0
291
     1
 45
0.0
  0
VISUALSTYLE
  5
268
102
{ACAD_REACTORS
330
267
102
}
330
267
100
AcDbVisualStyle
  2
Flat
 70
     0
 71
     2
 72
     1
 73
     1
 90
        2
 40
-0.6
 41
30.0
 62
     5
 63
     7
421
 16777215
 74
     0
 91
        4
 64
     7
 65
   257
 75
     1
175
     1
 42
1.0
 92
        8
 66
     7
 43
1.0
 76
     1
 77
     6
 78
     2
 67
     7
 79
     5
170
     0
171
     0
290
     0
174
     0
 93
       13
 44
0.0
173
     0
291
     1
 45
0.0
  0
VISUALSTYLE
  5
269
102
{ACAD_REACTORS
330
267
102
}
330
267
100
AcDbVisualStyle
  2
FlatWithEdges
 70
     1
 71
     2
 72
     1
 73
     1
 90
        2
 40
-0.6
 41
30.0
 62
     5
 63
     7
421
 16777215
 74
     1
 91
        4
 64
     7
 65
   257
 75
     1
175
     1
 42
1.0
 92
        0
 66
   257
 43
1.0
 76
     1
 77
     6
 78
     2
 67
     7
 79
     5
170
     0
171
     0
290
     0
174
     0
 93
       13
 44
0.0
173
     0
291
     1
 45
0.0
  0
VISUALSTYLE
  5
26A
102
{ACAD_REACTORS
330
267
102
}
330
267
100
AcDbVisualStyle
  2
Gouraud
 70
     2
 71
     2
 72
     2
 73
     1
 90
        2
 40
-0.6
 41
30.0
 62
     5
 63
     7
421
 16777215
 74
     0
 91
        4
 64
     7
 65
   257
 75
     1
175
     1
 42
1.0
 92
        0
 66
     7
 43
1.0
 76
     1
 77
     6
 78
     2
 67
     7
 79
     5
170
     0
171
     0
290
     0
174
     0
 93
       13
 44
0.0
173
     0
291
     1
 45
0.0
  0
VISUALSTYLE
  5
26B
102
{ACAD_REACTORS
330
267
102
}
330
267
100
AcDbVisualStyle
  2
GouraudWithEdges
 70
     3
 71
     2
 72
     2
 73
     1
 90
        2
 40
-0.6
 41
30.0
 62
     5
 63
     7
421
 16777215
 74
     1
 91
        4
 64
     7
 65
   257
 75
     1
175
     1
 42
1.0
 92
        0
 66
   257
 43
1.0
 76
     1
 77
     6
 78
     2
 67
     7
 79
     5
170
     0
171
     0
290
     0
174
     0
 93
       13
 44
0.0
173
     0
291
     1
 45
0.0
  0
VISUALSTYLE
  5
BDB
102
{ACAD_REACTORS
330
267
102
}
330
267
100
AcDbVisualStyle
  2
Hidden
 70
     6
 71
     1
 72
     2
 73
     2
 90
        0
 40
0.6
 41
30.0
 62
     5
 63
     7
421
 16777215
 74
     2
 91
        2
 64
     7
 65
   257
 75
     2
175
     1
 42
40.0
 92
        0
 66
   257
 43
1.0
 76
     1
 77
     6
 78
     2
 67
     7
 79
     3
170
     0
171
     0
290
     0
174
     0
 93
        1
 44
0.0
173
     0
291
     0
 45
0.0
  0
VISUALSTYLE
  5
BDC
102
{ACAD_REACTORS
330
267
102
}
330
267
100
AcDbVisualStyle
  2
JitterOff
 70
    20
 71
     2
 72
     2
 73
     0
 90
        0
 40
0.6
 41
30.0
 62
     5
 63
     7
421
 16777215
 74
     1
 91
        4
 64
     7
 65
   257
 75
     1
175
     1
 42
1.0
 92
       10
 66
     7
 43
1.0
 76
     1
 77
     6
 78
     2
 67
     7
 79
     5
170
     0
171
     0
290
     0
174
     0
 93
        1
 44
0.0
173
     0
291
     1
 45
0.0
  0
VISUALSTYLE
  5
275
102
{ACAD_REACTORS
330
267
102
}
330
267
100
AcDbVisualStyle
  2
Linepattern
 70
    14
 71
     2
 72
     2
 73
     0
 90
        0
 40
-0.6
 41
-30.0
 62
     5
 63
     7
421
 16777215
 74
     1
 91
        4
 64
     7
 65
   257
 75
     7
175
     7
 42
1.0
 92
        8
 66
     7
 43
1.0
 76
     1
 77
     6
 78
     2
 67
     7
 79
     5
170
     0
171
     0
290
     0
174
     0
 93
        1
 44
0.0
173
     0
291
     1
 45
0.0
  0
VISUALSTYLE
  5
BDD
102
{ACAD_REACTORS
330
267
102
}
330
267
100
AcDbVisualStyle
  2
OverhangOff
 70
    21
 71
     2
 72
     2
 73
     0
 90
        0
 40
0.6
 41
30.0
 62
     5
 63
     7
421
 16777215
 74
     1
 91
        4
 64
     7
 65
   257
 75
     1
175
     1
 42
1.0
 92
        9
 66
     7
 43
1.0
 76
     1
 77
     6
 78
     2
 67
     7
 79
     5
170
     0
171
     0
290
     0
174
     0
 93
        1
 44
0.0
173
     0
291
     1
 45
0.0
  0
VISUALSTYLE
  5
270
102
{ACAD_REACTORS
330
267
102
}
330
267
100
AcDbVisualStyle
  2
Realistic
 70
     8
 71
     2
 72
     2
 73
     0
 90
        0
 40
-0.6
 41
-30.0
 62
     5
 63
     7
421
 16777215
 74
     1
 91
        0
 64
     7
 65
   257
 75
     1
175
     1
 42
1.0
 92
        8
 66
     8
424
  7895160
 43
1.0
 76
     1
 77
     6
 78
     2
 67
     7
 79
     5
170
     0
171
     0
290
     0
174
     0
 93
       13
 44
0.0
173
     0
291
     0
 45
0.0
  0
VISUALSTYLE
  5
BE3
102
{ACAD_REACTORS
330
267
102
}
330
267
100
AcDbVisualStyle
  2
Shaded
 70
    27
 71
     2
 72
     2
 73
     1
 90
        2
 40
0.6
 41
30.0
 62
     5
 63
     7
421
 16777215
 74
     0
 91
        4
 64
     7
 65
   257
 75
     1
175
     1
 42
1.0
 92
        8
 66
   257
 43
1.0
 76
     1
 77
     6
 78
     2
 67
     8
425
  7895160
 79
     3
170
     0
171
     0
290
     0
174
     0
 93
        5
 44
0.0
173
     0
291
     0
 45
0.0
  0
VISUALSTYLE
  5
BE2
102
{ACAD_REACTORS
330
267
102
}
330
267
100
AcDbVisualStyle
  2
Shaded with edges
 70
    26
 71
     2
 72
     2
 73
     1
 90
        2
 40
0.6
 41
30.0
 62
     5
 63
     7
421
 16777215
 74
     1
 91
       10
 64
     7
 65
   257
 75
     2
175
     1
 42
1.0
 92
        8
 66
   257
 43
1.0
 76
     1
 77
     6
 78
     2
 67
     7
 79
     3
170
     0
171
     0
290
     0
174
     0
 93
        5
 44
0.0
173
     0
291
     0
 45
0.0
  0
VISUALSTYLE
  5
BDF
102
{ACAD_REACTORS
330
267
102
}
330
267
100
AcDbVisualStyle
  2
Shades of Gray
 70
    23
 71
     2
 72
     2
 73
     3
 90
        0
 40
0.6
 41
30.0
 62
     5
 63
     7
421
 16777215
 74
     2
 91
        2
 64
     7
 65
     7
 75
     1
175
     1
 42
40.0
 92
        8
 66
     7
 43
1.0
 76
     1
 77
     6
 78
     2
 67
     7
 79
     3
170
     0
171
     0
290
     0
174
     0
 93
        1
 44
0.0
173
     0
291
     0
 45
0.0
  0
VISUALSTYLE
  5
BE0
102
{ACAD_REACTORS
330
267
102
}
330
267
100
AcDbVisualStyle
  2
Sketchy
 70
    24
 71
     1
 72
     2
 73
     2
 90
        0
 40
0.6
 41
30.0
 62
     5
 63
     7
421
 16777215
 74
     2
 91
        2
 64
     7
 65
     7
 75
     1
175
     1
 42
40.0
 92
       11
 66
     7
 43
1.0
 76
     1
 77
     6
 78
     2
 67
     7
 79
     6
170
     0
171
     0
290
     0
174
     0
 93
        1
 44
0.0
173
     0
291
     0
 45
0.0
  0
VISUALSTYLE
  5
274
102
{ACAD_REACTORS
330
267
102
}
330
267
100
AcDbVisualStyle
  2
Thicken
 70
    13
 71
     2
 72
     2
 73
     0
 90
        0
 40
-0.6
 41
-30.0
 62
     5
 63
     7
421
 16777215
 74
     1
 91
        4
 64
     7
 65
   257
 75
     1
175
     1
 42
1.0
 92
       12
 66
     7
 43
1.0
 76
     1
 77
     6
 78
     2
 67
     7
 79
     5
170
     0
171
     0
290
     0
174
     0
 93
        1
 44
0.0
173
     0
291
     1
 45
0.0
  0
VISUALSTYLE
  5
BDA
102
{ACAD_REACTORS
330
267
102
}
330
267
100
AcDbVisualStyle
  2
Wireframe
 70
     5
 71
     0
 72
     2
 73
     0
 90
        0
 40
0.6
 41
30.0
 62
     5
 63
     7
421
 16777215
 74
     1
 91
        4
 64
     7
 65
   257
 75
     1
175
     1
 42
1.0
 92
        0
 66
   257
 43
1.0
 76
     1
 77
     6
 78
     2
 67
     7
 79
     3
170
     0
171
     0
290
     0
174
     0
 93
        1
 44
0.0
173
     0
291
     0
 45
0.0
  0
VISUALSTYLE
  5
BE1
102
{ACAD_REACTORS
330
267
102
}
330
267
100
AcDbVisualStyle
  2
X-Ray
 70
    25
 71
     2
 72
     2
 73
     1
 90
        1
 40
0.5
 41
30.0
 62
     5
 63
     7
421
 16777215
 74
     1
 91
        0
 64
     7
 65
   257
 75
     1
175
     1
 42
1.0
 92
        8
 66
     7
 43
1.0
 76
     1
 77
     6
 78
     2
 67
     7
 79
     3
170
     0
171
     0
290
     0
174
     0
 93
       13
 44
0.0
173
     0
291
     0
 45
0.0
  0
DICTIONARYVAR
  5
331
102
{ACAD_REACTORS
330
330
102
}
330
330
100
DictionaryVariables
280
     0
  1
1:1
  0
DICTIONARYVAR
  5
2114
102
{ACAD_REACTORS
330
330
102
}
330
330
100
DictionaryVariables
280
     0
  1
Standard
  0
DICTIONARYVAR
  5
335
102
{ACAD_REACTORS
330
330
102
}
330
330
100
DictionaryVariables
280
     0
  1
Standard
  0
DICTIONARYVAR
  5
C00
102
{ACAD_REACTORS
330
330
102
}
330
330
100
DictionaryVariables
280
     0
  1
ByLayer
  0
DICTIONARYVAR
  5
64A
102
{ACAD_REACTORS
330
330
102
}
330
330
100
DictionaryVariables
280
     0
  1
0
  0
FIELD
  5
2116
102
{ACAD_REACTORS
330
211B
330
213C
102
}
330
213C
100
AcDbField
  1
_text
  2
{%<\_FldIdx 0>%N}
 90
        1
360
211A
 97
        0
 91
       63
 92
        0
 94
       11
 95
        2
 96
        0
300

 93
        1
  6
ACFD_FIELDTEXT_CHECKSUM
 93
        2
 90
        2
140
4480.0
 94
        0
300

302

304
ACVALUE_END
  7
ACFD_FIELD_VALUE
 93
        6
 90
        4
  1
{20201008N}
 94
        0
300

302

304
ACVALUE_END
301
{20201008N}
 98
       11
  0
DICTIONARY
  5
214D
330
279
100
AcDbDictionary
280
     1
281
     1
  3
ACAD_ROUNDTRIP_2008_TABLESTYLE_CELLSTYLEMAP
360
214E
  0
FIELD
  5
211A
330
2116
100
AcDbField
  1
AcVar
  2
\AcVar Date \f "yyyyMMdd"
 90
        0
 97
        0
 91
       63
 92
        0
 94
        8
 95
       64
 96
        0
300
Variable not supported
 93
        1
  6
Variable
 93
        2
 90
        4
  1
Date
 94
        0
300

302

304
ACVALUE_END
  7
ACFD_FIELD_VALUE
 93
        6
 90
        8
 92
       16
310
E4070A00000008000400240032000000
 94
        0
300
yyyyMMdd
302

304
ACVALUE_END
301
20201008
 98
        8
  0
CELLSTYLEMAP
  5
214E
102
{ACAD_REACTORS
330
214D
102
}
330
214D
100
AcDbCellStyleMap
 90
        3
300
CELLSTYLE
  1
TABLEFORMAT_BEGIN
 90
        5
170
     1
 91
        0
 92
    32768
 62
   257
 93
        1
300
CONTENTFORMAT
  1
CONTENTFORMAT_BEGIN
 90
        0
 91
        0
 92
        4
 93
        0
300

 40
0.0
140
1.0
 94
        5
 62
     0
340
17
144
6.0
309
CONTENTFORMAT_END
171
     1
301
MARGIN
  1
CELLMARGIN_BEGIN
 40
0.06
 40
0.06
 40
0.06
 40
0.06
 40
0.18
 40
0.18
309
CELLMARGIN_END
 94
        6
 95
        1
302
GRIDFORMAT
  1
GRIDFORMAT_BEGIN
 90
        0
 91
        1
 62
     0
 92
       -2
340
0
 93
        0
 40
0.045
309
GRIDFORMAT_END
 95
        2
302
GRIDFORMAT
  1
GRIDFORMAT_BEGIN
 90
        0
 91
        1
 62
     0
 92
       -2
340
0
 93
        0
 40
0.045
309
GRIDFORMAT_END
 95
        4
302
GRIDFORMAT
  1
GRIDFORMAT_BEGIN
 90
        0
 91
        1
 62
     0
 92
       -2
340
0
 93
        0
 40
0.045
309
GRIDFORMAT_END
 95
        8
302
GRIDFORMAT
  1
GRIDFORMAT_BEGIN
 90
        0
 91
        1
 62
     0
 92
       -2
340
0
 93
        0
 40
0.045
309
GRIDFORMAT_END
 95
       16
302
GRIDFORMAT
  1
GRIDFORMAT_BEGIN
 90
        0
 91
        1
 62
     0
 92
       -2
340
0
 93
        0
 40
0.045
309
GRIDFORMAT_END
 95
       32
302
GRIDFORMAT
  1
GRIDFORMAT_BEGIN
 90
        0
 91
        1
 62
     0
 92
       -2
340
0
 93
        0
 40
0.045
309
GRIDFORMAT_END
309
TABLEFORMAT_END
  1
CELLSTYLE_BEGIN
 90
        1
 91
        1
300
_TITLE
309
CELLSTYLE_END
300
CELLSTYLE
  1
TABLEFORMAT_BEGIN
 90
        5
170
     1
 91
        0
 92
        0
 62
   257
 93
        1
300
CONTENTFORMAT
  1
CONTENTFORMAT_BEGIN
 90
        0
 91
        0
 92
        4
 93
        0
300

 40
0.0
140
1.0
 94
        5
 62
     0
340
17
144
4.5
309
CONTENTFORMAT_END
171
     1
301
MARGIN
  1
CELLMARGIN_BEGIN
 40
0.06
 40
0.06
 40
0.06
 40
0.06
 40
0.18
 40
0.18
309
CELLMARGIN_END
 94
        6
 95
        1
302
GRIDFORMAT
  1
GRIDFORMAT_BEGIN
 90
        0
 91
        1
 62
     0
 92
       -2
340
0
 93
        0
 40
0.045
309
GRIDFORMAT_END
 95
        2
302
GRIDFORMAT
  1
GRIDFORMAT_BEGIN
 90
        0
 91
        1
 62
     0
 92
       -2
340
0
 93
        0
 40
0.045
309
GRIDFORMAT_END
 95
        4
302
GRIDFORMAT
  1
GRIDFORMAT_BEGIN
 90
        0
 91
        1
 62
     0
 92
       -2
340
0
 93
        0
 40
0.045
309
GRIDFORMAT_END
 95
        8
302
GRIDFORMAT
  1
GRIDFORMAT_BEGIN
 90
        0
 91
        1
 62
     0
 92
       -2
340
0
 93
        0
 40
0.045
309
GRIDFORMAT_END
 95
       16
302
GRIDFORMAT
  1
GRIDFORMAT_BEGIN
 90
        0
 91
        1
 62
     0
 92
       -2
340
0
 93
        0
 40
0.045
309
GRIDFORMAT_END
 95
       32
302
GRIDFORMAT
  1
GRIDFORMAT_BEGIN
 90
        0
 91
        1
 62
     0
 92
       -2
340
0
 93
        0
 40
0.045
309
GRIDFORMAT_END
309
TABLEFORMAT_END
  1
CELLSTYLE_BEGIN
 90
        2
 91
        1
300
_HEADER
309
CELLSTYLE_END
300
CELLSTYLE
  1
TABLEFORMAT_BEGIN
 90
        5
170
     1
 91
        0
 92
        0
 62
   257
 93
        1
300
CONTENTFORMAT
  1
CONTENTFORMAT_BEGIN
 90
        0
 91
        0
 92
        4
 93
        0
300

 40
0.0
140
1.0
 94
        2
 62
     0
340
17
144
4.5
309
CONTENTFORMAT_END
171
     1
301
MARGIN
  1
CELLMARGIN_BEGIN
 40
0.06
 40
0.06
 40
0.06
 40
0.06
 40
0.18
 40
0.18
309
CELLMARGIN_END
 94
        6
 95
        1
302
GRIDFORMAT
  1
GRIDFORMAT_BEGIN
 90
        0
 91
        1
 62
     0
 92
       -2
340
0
 93
        0
 40
0.045
309
GRIDFORMAT_END
 95
        2
302
GRIDFORMAT
  1
GRIDFORMAT_BEGIN
 90
        0
 91
        1
 62
     0
 92
       -2
340
0
 93
        0
 40
0.045
309
GRIDFORMAT_END
 95
        4
302
GRIDFORMAT
  1
GRIDFORMAT_BEGIN
 90
        0
 91
        1
 62
     0
 92
       -2
340
0
 93
        0
 40
0.045
309
GRIDFORMAT_END
 95
        8
302
GRIDFORMAT
  1
GRIDFORMAT_BEGIN
 90
        0
 91
        1
 62
     0
 92
       -2
340
0
 93
        0
 40
0.045
309
GRIDFORMAT_END
 95
       16
302
GRIDFORMAT
  1
GRIDFORMAT_BEGIN
 90
        0
 91
        1
 62
     0
 92
       -2
340
0
 93
        0
 40
0.045
309
GRIDFORMAT_END
 95
       32
302
GRIDFORMAT
  1
GRIDFORMAT_BEGIN
 90
        0
 91
        1
 62
     0
 92
       -2
340
0
 93
        0
 40
0.045
309
GRIDFORMAT_END
309
TABLEFORMAT_END
  1
CELLSTYLE_BEGIN
 90
        3
 91
        2
300
_DATA
309
CELLSTYLE_END
  0
ENDSEC
  0
EOF
