  0
SECTION
  2
HEADER
  9
$ACADVER
  1
AC1021
  9
$ACADMAINTVER
 70
    25
  9
$DWGCODEPAGE
  3
ANSI_932
  9
$LASTSAVEDBY
  1
Shimosaki
  9
$INSBASE
 10
0.0
 20
0.0
 30
0.0
  9
$EXTMIN
 10
144.5094110644077
 20
121.0094849428006
 30
-0.0000000000002274
  9
$EXTMAX
 10
4044.509411065372
 20
5804.399587702454
 30
0.0
  9
$LIMMIN
 10
0.0
 20
0.0
  9
$LIMMAX
 10
4200.000000000001
 20
5940.000000000001
  9
$ORTHOMODE
 70
     0
  9
$REGENMODE
 70
     1
  9
$FILLMODE
 70
     1
  9
$QTEXTMODE
 70
     0
  9
$MIRRTEXT
 70
     1
  9
$LTSCALE
 40
50.8
  9
$ATTMODE
 70
     1
  9
$TEXTSIZE
 40
533.0403732820173
  9
$TRACEWID
 40
1.0
  9
$TEXTSTYLE
  7
Standard
  9
$CLAYER
  8
DIM
  9
$CELTYPE
  6
Continuous
  9
$CECOLOR
 62
   256
  9
$CELTSCALE
 40
1.0
  9
$DISPSILH
 70
     0
  9
$DIMSCALE
 40
1.0
  9
$DIMASZ
 40
18.0
  9
$DIMEXO
 40
25.0
  9
$DIMDLI
 40
25.0
  9
$DIMRND
 40
0.0
  9
$DIMDLE
 40
0.0
  9
$DIMEXE
 40
0.0
  9
$DIMTP
 40
0.0
  9
$DIMTM
 40
0.0
  9
$DIMTXT
 40
48.0
  9
$DIMCEN
 40
0.0
  9
$DIMTSZ
 40
0.0
  9
$DIMTOL
 70
     0
  9
$DIMLIM
 70
     0
  9
$DIMTIH
 70
     0
  9
$DIMTOH
 70
     0
  9
$DIMSE1
 70
     0
  9
$DIMSE2
 70
     0
  9
$DIMTAD
 70
     1
  9
$DIMZIN
 70
    11
  9
$DIMBLK
  1
DOT
  9
$DIMASO
 70
     1
  9
$DIMSHO
 70
     1
  9
$DIMPOST
  1
<>
  9
$DIMAPOST
  1
[]
  9
$DIMALT
 70
     0
  9
$DIMALTD
 70
     1
  9
$DIMALTF
 40
1.0
  9
$DIMLFAC
 40
1.0
  9
$DIMTOFL
 70
     0
  9
$DIMTVP
 40
0.0
  9
$DIMTIX
 70
     1
  9
$DIMSOXD
 70
     0
  9
$DIMSAH
 70
     0
  9
$DIMBLK1
  1

  9
$DIMBLK2
  1

  9
$DIMSTYLE
  2
JIS
  9
$DIMCLRD
 70
     0
  9
$DIMCLRE
 70
     0
  9
$DIMCLRT
 70
     0
  9
$DIMTFAC
 40
1.0
  9
$DIMGAP
 40
30.0
  9
$DIMJUST
 70
     0
  9
$DIMSD1
 70
     0
  9
$DIMSD2
 70
     0
  9
$DIMTOLJ
 70
     1
  9
$DIMTZIN
 70
    11
  9
$DIMALTZ
 70
    11
  9
$DIMALTTZ
 70
    11
  9
$DIMUPT
 70
     0
  9
$DIMDEC
 70
     0
  9
$DIMTDEC
 70
     1
  9
$DIMALTU
 70
     2
  9
$DIMALTTD
 70
     2
  9
$DIMTXSTY
  7
ＭＳ ゴシック
  9
$DIMAUNIT
 70
     0
  9
$DIMADEC
 70
     0
  9
$DIMALTRND
 40
0.0
  9
$DIMAZIN
 70
     0
  9
$DIMDSEP
 70
    46
  9
$DIMATFIT
 70
     0
  9
$DIMFRAC
 70
     2
  9
$DIMLDRBLK
  1
DOT
  9
$DIMLUNIT
 70
     2
  9
$DIMLWD
 70
    -2
  9
$DIMLWE
 70
    -2
  9
$DIMTMOVE
 70
     0
  9
$DIMFXL
 40
1.0
  9
$DIMFXLON
 70
     0
  9
$DIMJOGANG
 40
0.7853981633974483
  9
$DIMTFILL
 70
     0
  9
$DIMTFILLCLR
 70
     0
  9
$DIMARCSYM
 70
     0
  9
$DIMLTYPE
  6

  9
$DIMLTEX1
  6

  9
$DIMLTEX2
  6

  9
$LUNITS
 70
     2
  9
$LUPREC
 70
     0
  9
$SKETCHINC
 40
0.1
  9
$FILLETRAD
 40
0.0
  9
$AUNITS
 70
     0
  9
$AUPREC
 70
     0
  9
$MENU
  1
acad
  9
$ELEVATION
 40
0.0
  9
$PELEVATION
 40
0.0
  9
$THICKNESS
 40
0.0
  9
$LIMCHECK
 70
     0
  9
$CHAMFERA
 40
0.0
  9
$CHAMFERB
 40
0.0
  9
$CHAMFERC
 40
0.0
  9
$CHAMFERD
 40
0.0
  9
$SKPOLY
 70
     0
  9
$TDCREATE
 40
2447893.375
  9
$TDUCREATE
 40
0.0
  9
$TDUPDATE
 40
2457884.470298056
  9
$TDUUPDATE
 40
2457884.095298056
  9
$TDINDWG
 40
0.1684434722
  9
$TDUSRTIMER
 40
2457884.094636296
  9
$USRTIMER
 70
     1
  9
$ANGBASE
 50
0.0
  9
$ANGDIR
 70
     0
  9
$PDMODE
 70
     1
  9
$PDSIZE
 40
-2.0
  9
$PLINEWID
 40
0.0
  9
$SPLFRAME
 70
     0
  9
$SPLINETYPE
 70
     6
  9
$SPLINESEGS
 70
     8
  9
$HANDSEED
  5
2139
  9
$SURFTAB1
 70
     6
  9
$SURFTAB2
 70
     6
  9
$SURFTYPE
 70
     6
  9
$SURFU
 70
     6
  9
$SURFV
 70
     6
  9
$UCSBASE
  2

  9
$UCSNAME
  2

  9
$UCSORG
 10
0.0
 20
0.0
 30
0.0
  9
$UCSXDIR
 10
1.0
 20
0.0
 30
0.0
  9
$UCSYDIR
 10
0.0
 20
1.0
 30
0.0
  9
$UCSORTHOREF
  2

  9
$UCSORTHOVIEW
 70
     0
  9
$UCSORGTOP
 10
0.0
 20
0.0
 30
0.0
  9
$UCSORGBOTTOM
 10
0.0
 20
0.0
 30
0.0
  9
$UCSORGLEFT
 10
0.0
 20
0.0
 30
0.0
  9
$UCSORGRIGHT
 10
0.0
 20
0.0
 30
0.0
  9
$UCSORGFRONT
 10
0.0
 20
0.0
 30
0.0
  9
$UCSORGBACK
 10
0.0
 20
0.0
 30
0.0
  9
$PUCSBASE
  2

  9
$PUCSNAME
  2

  9
$PUCSORG
 10
0.0
 20
0.0
 30
0.0
  9
$PUCSXDIR
 10
1.0
 20
0.0
 30
0.0
  9
$PUCSYDIR
 10
0.0
 20
1.0
 30
0.0
  9
$PUCSORTHOREF
  2

  9
$PUCSORTHOVIEW
 70
     0
  9
$PUCSORGTOP
 10
0.0
 20
0.0
 30
0.0
  9
$PUCSORGBOTTOM
 10
0.0
 20
0.0
 30
0.0
  9
$PUCSORGLEFT
 10
0.0
 20
0.0
 30
0.0
  9
$PUCSORGRIGHT
 10
0.0
 20
0.0
 30
0.0
  9
$PUCSORGFRONT
 10
0.0
 20
0.0
 30
0.0
  9
$PUCSORGBACK
 10
0.0
 20
0.0
 30
0.0
  9
$USERI1
 70
     0
  9
$USERI2
 70
     0
  9
$USERI3
 70
     0
  9
$USERI4
 70
     0
  9
$USERI5
 70
     0
  9
$USERR1
 40
0.0
  9
$USERR2
 40
0.0
  9
$USERR3
 40
0.0
  9
$USERR4
 40
0.0
  9
$USERR5
 40
0.0
  9
$WORLDVIEW
 70
     1
  9
$SHADEDGE
 70
     3
  9
$SHADEDIF
 70
    70
  9
$TILEMODE
 70
     1
  9
$MAXACTVP
 70
    64
  9
$PINSBASE
 10
0.0
 20
0.0
 30
0.0
  9
$PLIMCHECK
 70
     0
  9
$PEXTMIN
 10
0.0
 20
0.0
 30
0.0
  9
$PEXTMAX
 10
0.0
 20
0.0
 30
0.0
  9
$PLIMMIN
 10
-7.5
 20
-20.0
  9
$PLIMMAX
 10
412.5
 20
277.0
  9
$UNITMODE
 70
     0
  9
$VISRETAIN
 70
     0
  9
$PLINEGEN
 70
     1
  9
$PSLTSCALE
 70
     0
  9
$TREEDEPTH
 70
  3020
  9
$CMLSTYLE
  2
Standard
  9
$CMLJUST
 70
     0
  9
$CMLSCALE
 40
1.0
  9
$PROXYGRAPHICS
 70
     0
  9
$MEASUREMENT
 70
     1
  9
$CELWEIGHT
370
    -1
  9
$ENDCAPS
280
     0
  9
$JOINSTYLE
280
     0
  9
$LWDISPLAY
290
     1
  9
$INSUNITS
 70
     4
  9
$HYPERLINKBASE
  1

  9
$STYLESHEET
  1

  9
$XEDIT
290
     1
  9
$CEPSNTYPE
380
     0
  9
$PSTYLEMODE
290
     1
  9
$FINGERPRINTGUID
  2

  9
$VERSIONGUID
  2

  9
$EXTNAMES
290
     1
  9
$PSVPSCALE
 40
0.0
  9
$OLESTARTUP
290
     0
  9
$SORTENTS
280
   127
  9
$INDEXCTL
280
     0
  9
$HIDETEXT
280
     1
  9
$XCLIPFRAME
290
     0
  9
$HALOGAP
280
     0
  9
$OBSCOLOR
 70
   257
  9
$OBSLTYPE
280
     0
  9
$INTERSECTIONDISPLAY
280
     0
  9
$INTERSECTIONCOLOR
 70
   257
  9
$DIMASSOC
280
     2
  9
$PROJECTNAME
  1

  9
$CAMERADISPLAY
290
     0
  9
$LENSLENGTH
 40
50.0
  9
$CAMERAHEIGHT
 40
0.0
  9
$STEPSPERSEC
 40
2.0
  9
$STEPSIZE
 40
6.0
  9
$3DDWFPREC
 40
2.0
  9
$PSOLWIDTH
 40
0.25
  9
$PSOLHEIGHT
 40
4.0
  9
$LOFTANG1
 40
1.570796326794897
  9
$LOFTANG2
 40
1.570796326794897
  9
$LOFTMAG1
 40
0.0
  9
$LOFTMAG2
 40
0.0
  9
$LOFTPARAM
 70
     7
  9
$LOFTNORMALS
280
     1
  9
$LATITUDE
 40
37.795
  9
$LONGITUDE
 40
-122.394
  9
$NORTHDIRECTION
 40
0.0
  9
$TIMEZONE
 70
 -8000
  9
$LIGHTGLYPHDISPLAY
280
     1
  9
$TILEMODELIGHTSYNCH
280
     1
  9
$SOLIDHIST
280
     1
  9
$SHOWHIST
280
     1
  9
$DWFFRAME
280
     2
  9
$DGNFRAME
280
     2
  9
$REALWORLDSCALE
290
     1
  9
$INTERFERECOLOR
 62
   256
  9
$CSHADOW
280
     0
  9
$SHADOWPLANELOCATION
 40
0.0
  0
ENDSEC
  0
SECTION
  2
CLASSES
  0
CLASS
  1
LWPOLYLINE
  2
AcDbPolyline
  3
ObjectDBX Classes
 90
        0
 91
        1
280
     0
281
     1
  0
CLASS
  1
IMAGE
  2
AcDbRasterImage
  3
ISM
 90
      127
 91
        5
280
     0
281
     1
  0
CLASS
  1
OLE2FRAME
  2
AcDbOle2Frame
  3
ObjectDBX Classes
 90
        0
 91
        1
280
     0
281
     1
  0
CLASS
  1
HATCH
  2
AcDbHatch
  3
ObjectDBX Classes
 90
        0
 91
        1
280
     0
281
     1
  0
CLASS
  1
DICTIONARYVAR
  2
AcDbDictionaryVar
  3
ObjectDBX Classes
 90
        0
 91
        4
280
     0
281
     0
  0
CLASS
  1
RASTERVARIABLES
  2
AcDbRasterVariables
  3
ISM
 90
        0
 91
        4
280
     0
281
     0
  0
CLASS
  1
IMAGEDEF
  2
AcDbRasterImageDef
  3
ISM
 90
        0
 91
        4
280
     0
281
     0
  0
CLASS
  1
IMAGEDEF_REACTOR
  2
AcDbRasterImageDefReactor
  3
ISM
 90
        1
 91
        4
280
     0
281
     0
  0
CLASS
  1
IDBUFFER
  2
AcDbIdBuffer
  3
ObjectDBX Classes
 90
        0
 91
        4
280
     0
281
     0
  0
CLASS
  1
SPATIAL_FILTER
  2
AcDbSpatialFilter
  3
ObjectDBX Classes
 90
        0
 91
        4
280
     0
281
     0
  0
CLASS
  1
XRECORD
  2
AcDbXrecord
  3
ObjectDBX Classes
 90
        0
 91
        1
280
     0
281
     0
  0
CLASS
  1
SORTENTSTABLE
  2
AcDbSortentsTable
  3
ObjectDBX Classes
 90
        0
 91
        4
280
     0
281
     0
  0
CLASS
  1
LAYER_INDEX
  2
AcDbLayerIndex
  3
ObjectDBX Classes
 90
        0
 91
        4
280
     0
281
     0
  0
CLASS
  1
SPATIAL_INDEX
  2
AcDbSpatialIndex
  3
AutoCAD 2000
 90
        0
 91
        4
280
     0
281
     0
  0
CLASS
  1
OBJECT_PTR
  2
CAseDLPNTableRecord
  3
ASE-LPNTableRecord
 90
        1
 91
        4
280
     0
281
     0
  0
CLASS
  1
LAYOUT
  2
AcDbLayout
  3
ObjectDBX Classes
 90
        0
 91
        1
280
     0
281
     0
  0
CLASS
  1
PLOTSETTINGS
  2
AcDbPlotSettings
  3
ObjectDBX Classes
 90
        0
 91
        4
280
     0
281
     0
  0
CLASS
  1
ACDBDICTIONARYWDFLT
  2
AcDbDictionaryWithDefault
  3
ObjectDBX Classes
 90
        0
 91
        4
280
     0
281
     0
  0
CLASS
  1
ACDBPLACEHOLDER
  2
AcDbPlaceHolder
  3
ObjectDBX Classes
 90
        0
 91
        1
280
     0
281
     0
  0
CLASS
  1
SCALE
  2
AcDbScale
  3
ObjectDBX Classes
 90
     1153
 91
        4
280
     0
281
     0
  0
CLASS
  1
MATERIAL
  2
AcDbMaterial
  3
ObjectDBX Classes
 90
     1153
 91
        4
280
     0
281
     0
  0
CLASS
  1
VISUALSTYLE
  2
AcDbVisualStyle
  3
ObjectDBX Classes
 90
     4095
 91
        4
280
     0
281
     0
  0
CLASS
  1
TABLESTYLE
  2
AcDbTableStyle
  3
ObjectDBX Classes
 90
     4095
 91
        4
280
     0
281
     0
  0
CLASS
  1
DIMASSOC
  2
AcDbDimAssoc
  3
"AcDbDimAssoc|Product Desc:     AcDim ARX App For Dimension|Company:          Autodesk, Inc.|WEB Address:      www.autodesk.com"
 90
        0
 91
        4
280
     0
281
     0
  0
CLASS
  1
CELLSTYLEMAP
  2
AcDbCellStyleMap
  3
ObjectDBX Classes
 90
     1152
 91
        4
280
     0
281
     0
  0
CLASS
  1
SUN
  2
AcDbSun
  3
SCENEOE
 90
     1153
 91
        4
280
     0
281
     0
  0
CLASS
  1
MLEADERSTYLE
  2
AcDbMLeaderStyle
  3
ACDB_MLEADERSTYLE_CLASS
 90
     4095
 91
        4
280
     0
281
     0
  0
CLASS
  1
FIELD
  2
AcDbField
  3
ObjectDBX Classes
 90
     1152
 91
        4
280
     0
281
     0
  0
CLASS
  1
FIELDLIST
  2
AcDbFieldList
  3
ObjectDBX Classes
 90
     1152
 91
        4
280
     0
281
     0
  0
ENDSEC
  0
SECTION
  2
TABLES
  0
TABLE
  2
VPORT
  5
7
330
0
100
AcDbSymbolTable
 70
     1
  0
VPORT
  5
15
330
7
100
AcDbSymbolTableRecord
100
AcDbViewportTableRecord
  2
*ACTIVE
 70
     0
 10
0.0
 20
0.0
 11
1.0
 21
1.0
 12
2055.066101119366
 22
3123.148878268404
 13
0.0
 23
0.0
 14
1.0
 24
1.0
 15
0.0
 25
0.0
 16
0.0
 26
0.0
 36
1.0
 17
531.9535768260321
 27
-54.9087511026778
 37
-796.100446371116
 40
7821.971023548286
 41
2.126582278481012
 42
50.0
 43
0.0
 44
0.0
 50
0.0
 51
0.0
 71
    16
 72
  2000
 73
     1
 74
     1
 75
     0
 76
     0
 77
     0
 78
     0
281
     0
 65
     1
110
0.0
120
0.0
130
0.0
111
1.0
121
0.0
131
0.0
112
0.0
122
1.0
132
0.0
 79
     0
146
0.0
348
26C
 60
     3
 61
     5
292
     1
282
     1
141
0.0
142
0.0
 63
   256
361
BE4
  0
ENDTAB
  0
TABLE
  2
LTYPE
  5
4
330
0
100
AcDbSymbolTable
 70
     4
  0
LTYPE
  5
11
330
4
100
AcDbSymbolTableRecord
100
AcDbLinetypeTableRecord
  2
ByBlock
 70
     0
  3

 72
    65
 73
     0
 40
0.0
  0
LTYPE
  5
12
330
4
100
AcDbSymbolTableRecord
100
AcDbLinetypeTableRecord
  2
ByLayer
 70
     0
  3

 72
    65
 73
     0
 40
0.0
  0
LTYPE
  5
13
330
4
100
AcDbSymbolTableRecord
100
AcDbLinetypeTableRecord
  2
Continuous
 70
     0
  3
Solid line
 72
    65
 73
     0
 40
0.0
  0
LTYPE
  5
45
330
4
100
AcDbSymbolTableRecord
100
AcDbLinetypeTableRecord
  2
STYLE_12
 70
     0
  3

 72
    65
 73
     2
 40
0.3937007874015748
 49
0.1968503937007874
 74
     0
 49
-0.1968503937007874
 74
     0
  0
LTYPE
  5
1A38
330
4
100
AcDbSymbolTableRecord
100
AcDbLinetypeTableRecord
  2
HIDDEN
 70
     0
  3
Hidden _ _ _ _ _ _ _ _ _ _ _ _ _ _ _ _ _ _ _ _ 
 72
    65
 73
     2
 40
9.524999999999999
 49
6.35
 74
     0
 49
-3.175
 74
     0
  0
LTYPE
  5
1A53
330
4
100
AcDbSymbolTableRecord
100
AcDbLinetypeTableRecord
  2
STYLE_15
 70
     0
  3

 72
    65
 73
    10
 40
0.6889763779527559
 49
0.2460629921259843
 74
     0
 49
-0.0492125984251968
 74
     0
 49
0.0492125984251968
 74
     0
 49
-0.0492125984251968
 74
     0
 49
0.0492125984251968
 74
     0
 49
-0.0492125984251968
 74
     0
 49
0.0492125984251968
 74
     0
 49
-0.0492125984251968
 74
     0
 49
0.0492125984251968
 74
     0
 49
-0.0492125984251968
 74
     0
  0
ENDTAB
  0
TABLE
  2
LAYER
  5
2
102
{ACAD_XDICTIONARY
360
2E1
102
}
330
0
100
AcDbSymbolTable
 70
     9
  0
LAYER
  5
14
330
2
100
AcDbSymbolTableRecord
100
AcDbLayerTableRecord
  2
0
 70
     0
 62
     7
  6
Continuous
370
    -3
390
1D
347
266
  0
LAYER
  5
4A
330
2
100
AcDbSymbolTableRecord
100
AcDbLayerTableRecord
  2
Defpoints
 70
     0
 62
     7
  6
Continuous
290
     0
370
     9
390
1D
347
266
  0
LAYER
  5
4B
330
2
100
AcDbSymbolTableRecord
100
AcDbLayerTableRecord
  2
TEMPLATE
 70
     0
 62
     7
  6
Continuous
370
    20
390
1D
347
266
  0
LAYER
  5
4D
330
2
100
AcDbSymbolTableRecord
100
AcDbLayerTableRecord
  2
MODEL
 70
     0
 62
     7
  6
Continuous
370
    20
390
1D
347
266
  0
LAYER
  5
382
330
2
100
AcDbSymbolTableRecord
100
AcDbLayerTableRecord
  2
LOGO
 70
     0
 62
     7
  6
Continuous
370
    -3
390
1D
347
266
  0
LAYER
  5
B7A
330
2
100
AcDbSymbolTableRecord
100
AcDbLayerTableRecord
  2
DIM
 70
     0
 62
     7
  6
Continuous
370
    13
390
1D
347
266
1001
AcAecLayerStandard
1000

1000

  0
LAYER
  5
1A4F
330
2
100
AcDbSymbolTableRecord
100
AcDbLayerTableRecord
  2
notes
 70
     0
 62
     7
  6
Continuous
370
    -3
390
1D
347
266
  0
LAYER
  5
1A51
330
2
100
AcDbSymbolTableRecord
100
AcDbLayerTableRecord
  2
FLN72-5805
 70
     0
 62
     7
  6
Continuous
370
    -3
390
1D
347
266
  0
LAYER
  5
1A52
330
2
100
AcDbSymbolTableRecord
100
AcDbLayerTableRecord
  2
レイヤー 1
 70
     0
 62
     7
  6
Continuous
370
    -3
390
1D
347
266
  0
ENDTAB
  0
TABLE
  2
STYLE
  5
3
330
0
100
AcDbSymbolTable
 70
     2
  0
STYLE
  5
17
330
3
100
AcDbSymbolTableRecord
100
AcDbTextStyleTableRecord
  2
Standard
 70
     0
 40
0.0
 41
1.0
 50
0.0
 71
     0
 42
533.0403732820173
  3
txt
  4
BIGFONT.SHX
  0
STYLE
  5
39
330
3
100
AcDbSymbolTableRecord
100
AcDbTextStyleTableRecord
  2
ＭＳ ゴシック
 70
     0
 40
0.0
 41
1.0
 50
0.0
 71
     0
 42
533.0403732820173
  3
msgothic.ttc
  4
ＭＳ ゴシック
1001
ACAD
1000
ＭＳ ゴシック
1071
        0
  0
ENDTAB
  0
TABLE
  2
VIEW
  5
5
330
0
100
AcDbSymbolTable
 70
     0
  0
ENDTAB
  0
TABLE
  2
UCS
  5
6
330
0
100
AcDbSymbolTable
 70
     0
  0
ENDTAB
  0
TABLE
  2
APPID
  5
8
330
0
100
AcDbSymbolTable
 70
     6
  0
APPID
  5
16
330
8
100
AcDbSymbolTableRecord
100
AcDbRegAppTableRecord
  2
ACAD
 70
     0
  0
APPID
  5
5C5
330
8
100
AcDbSymbolTableRecord
100
AcDbRegAppTableRecord
  2
AcAecLayerStandard
 70
     0
  0
APPID
  5
694
330
8
100
AcDbSymbolTableRecord
100
AcDbRegAppTableRecord
  2
ACAD_DSTYLE_DIMJAG
 70
     0
  0
APPID
  5
695
330
8
100
AcDbSymbolTableRecord
100
AcDbRegAppTableRecord
  2
ACAD_DSTYLE_DIMTALN
 70
     0
  0
APPID
  5
69A
330
8
100
AcDbSymbolTableRecord
100
AcDbRegAppTableRecord
  2
ACAD_PSEXT
 70
     0
  0
APPID
  5
2120
330
8
100
AcDbSymbolTableRecord
100
AcDbRegAppTableRecord
  2
ACAD_MLEADERVER
 70
     0
  0
ENDTAB
  0
TABLE
  2
DIMSTYLE
  5
9
330
0
100
AcDbSymbolTable
 70
     4
100
AcDbDimStyleTable
  0
DIMSTYLE
105
18
330
9
100
AcDbSymbolTableRecord
100
AcDbDimStyleTableRecord
  2
Standard
 70
     0
178
     0
340
17
  0
DIMSTYLE
105
57
102
{ACAD_REACTORS
330
1852
330
1853
330
1854
102
}
330
9
100
AcDbSymbolTableRecord
100
AcDbDimStyleTableRecord
  2
tfrom線あり
 70
     0
  3
<>
  4
[]
 41
9.999389648437498
 42
25.0
 43
0.9999999999999999
 44
0.0
 73
     0
 74
     0
 77
     1
 78
    11
140
24.4326171875
141
0.0
143
1.0
147
30.0
171
     1
174
     1
178
     0
179
     2
271
     1
272
     1
276
     2
284
    11
285
    11
286
    11
289
     0
340
39
341
4E
342
4E
  0
DIMSTYLE
105
5C
102
{ACAD_REACTORS
330
1886
330
1887
330
1888
330
1889
330
188B
330
188D
330
18E3
330
190A
330
192A
330
1937
330
1975
330
1A05
330
1A29
330
2101
102
}
330
9
100
AcDbSymbolTableRecord
100
AcDbDimStyleTableRecord
  2
JIS
 70
     0
  3
<>
  4
[]
 41
9.0
 42
0.0
 43
6.99999999999994
 44
19.9999999999962
 73
     0
 74
     0
 77
     1
 78
    11
140
24.4326171875
141
0.0
143
1.0
147
10.0
171
     1
174
     1
178
     0
179
     2
271
     1
272
     1
276
     2
284
    11
285
    11
286
    11
289
     0
340
39
341
4E
342
4E
  0
DIMSTYLE
105
1A54
330
9
100
AcDbSymbolTableRecord
100
AcDbDimStyleTableRecord
  2
T-form線あり
 70
     0
  3
<>
  4
[]
 41
7.99951171875
 42
49.99999999999999
 43
0.9999999999999999
 44
0.0
 73
     0
 74
     0
 77
     1
 78
    11
140
48.86523437500001
141
0.0
143
0.0393700787401575
147
0.4999999999999999
171
     3
172
     1
174
     1
178
     0
179
     2
271
     1
272
     1
273
     4
276
     2
284
    11
285
    15
286
    15
289
     0
340
39
341
4E
342
4E
  0
ENDTAB
  0
TABLE
  2
BLOCK_RECORD
  5
1
330
0
100
AcDbSymbolTable
 70
    36
  0
BLOCK_RECORD
  5
A
330
1
100
AcDbSymbolTableRecord
100
AcDbBlockTableRecord
  2
*MODEL_SPACE
340
20
 70
     0
280
     1
281
     0
  0
BLOCK_RECORD
  5
B
330
1
100
AcDbSymbolTableRecord
100
AcDbBlockTableRecord
  2
*PAPER_SPACE
340
21
 70
     0
280
     1
281
     0
  0
BLOCK_RECORD
  5
4E
330
1
100
AcDbSymbolTableRecord
100
AcDbBlockTableRecord
  2
_DOT
340
0
102
{BLKREFS
331
185C
331
185D
331
1868
331
1869
331
1874
331
1875
331
1894
331
1895
331
18A0
331
18A1
331
18AC
331
18AD
331
18B8
331
18B9
331
18D0
331
18D1
331
18DD
331
18DE
331
18EC
331
18ED
331
18F8
331
18F9
331
1911
331
1912
331
1931
331
1932
331
193E
331
193F
331
197C
331
197D
331
1A12
331
1A13
331
1A23
331
1A24
331
1A30
331
1A31
331
1B6C
331
1B6D
331
1B78
331
1B79
331
1B84
331
1B85
331
207B
331
207C
331
2086
331
2087
331
2091
331
2092
331
2108
331
2109
102
}
 70
     0
280
     1
281
     0
  0
BLOCK_RECORD
  5
3A5
330
1
100
AcDbSymbolTableRecord
100
AcDbBlockTableRecord
  2
名称未設定-1
340
0
102
{BLKREFS
331
3D0
102
}
 70
     1
280
     1
281
     0
  0
BLOCK_RECORD
  5
3A8
330
1
100
AcDbSymbolTableRecord
100
AcDbBlockTableRecord
  2
block 2
340
0
102
{BLKREFS
331
3A7
102
}
 70
     0
280
     1
281
     0
  0
BLOCK_RECORD
  5
3AB
330
1
100
AcDbSymbolTableRecord
100
AcDbBlockTableRecord
  2
block 3
340
0
102
{BLKREFS
331
3AA
102
}
 70
     0
280
     1
281
     0
  0
BLOCK_RECORD
  5
3AE
330
1
100
AcDbSymbolTableRecord
100
AcDbBlockTableRecord
  2
block 4
340
0
102
{BLKREFS
331
3AD
102
}
 70
     0
280
     1
281
     0
  0
BLOCK_RECORD
  5
3BD
330
1
100
AcDbSymbolTableRecord
100
AcDbBlockTableRecord
  2
block 5
340
0
102
{BLKREFS
331
3BC
102
}
 70
     0
280
     1
281
     0
  0
BLOCK_RECORD
  5
1856
330
1
100
AcDbSymbolTableRecord
100
AcDbBlockTableRecord
  2
*D6
340
0
 70
     0
280
     1
281
     0
  0
BLOCK_RECORD
  5
1862
330
1
100
AcDbSymbolTableRecord
100
AcDbBlockTableRecord
  2
*D7
340
0
 70
     0
280
     1
281
     0
  0
BLOCK_RECORD
  5
186E
330
1
100
AcDbSymbolTableRecord
100
AcDbBlockTableRecord
  2
*D8
340
0
 70
     0
280
     1
281
     0
  0
BLOCK_RECORD
  5
188E
330
1
100
AcDbSymbolTableRecord
100
AcDbBlockTableRecord
  2
*D9
340
0
 70
     0
280
     1
281
     0
  0
BLOCK_RECORD
  5
189A
330
1
100
AcDbSymbolTableRecord
100
AcDbBlockTableRecord
  2
*D10
340
0
 70
     0
280
     1
281
     0
  0
BLOCK_RECORD
  5
18A6
330
1
100
AcDbSymbolTableRecord
100
AcDbBlockTableRecord
  2
*D11
340
0
 70
     0
280
     1
281
     0
  0
BLOCK_RECORD
  5
18B2
330
1
100
AcDbSymbolTableRecord
100
AcDbBlockTableRecord
  2
*D12
340
0
 70
     0
280
     1
281
     0
  0
BLOCK_RECORD
  5
18CA
330
1
100
AcDbSymbolTableRecord
100
AcDbBlockTableRecord
  2
*D13
340
0
 70
     0
280
     1
281
     0
  0
BLOCK_RECORD
  5
18D6
330
1
100
AcDbSymbolTableRecord
100
AcDbBlockTableRecord
  2
*D14
340
0
 70
     0
280
     1
281
     0
  0
BLOCK_RECORD
  5
18E6
330
1
100
AcDbSymbolTableRecord
100
AcDbBlockTableRecord
  2
*D15
340
0
 70
     0
280
     1
281
     0
  0
BLOCK_RECORD
  5
18F2
330
1
100
AcDbSymbolTableRecord
100
AcDbBlockTableRecord
  2
*D16
340
0
 70
     0
280
     1
281
     0
  0
BLOCK_RECORD
  5
190B
330
1
100
AcDbSymbolTableRecord
100
AcDbBlockTableRecord
  2
*D17
340
0
 70
     0
280
     1
281
     0
  0
BLOCK_RECORD
  5
192B
330
1
100
AcDbSymbolTableRecord
100
AcDbBlockTableRecord
  2
*D18
340
0
 70
     0
280
     1
281
     0
  0
BLOCK_RECORD
  5
1938
330
1
100
AcDbSymbolTableRecord
100
AcDbBlockTableRecord
  2
*D19
340
0
 70
     0
280
     1
281
     0
  0
BLOCK_RECORD
  5
1976
330
1
100
AcDbSymbolTableRecord
100
AcDbBlockTableRecord
  2
*D20
340
0
 70
     0
280
     1
281
     0
  0
BLOCK_RECORD
  5
1A0C
330
1
100
AcDbSymbolTableRecord
100
AcDbBlockTableRecord
  2
*D21
340
0
 70
     0
280
     1
281
     0
  0
BLOCK_RECORD
  5
1A1C
330
1
100
AcDbSymbolTableRecord
100
AcDbBlockTableRecord
  2
*D22
340
0
 70
     0
280
     1
281
     0
  0
BLOCK_RECORD
  5
1A2A
330
1
100
AcDbSymbolTableRecord
100
AcDbBlockTableRecord
  2
*D23
340
0
 70
     0
280
     1
281
     0
  0
BLOCK_RECORD
  5
1A5F
330
1
100
AcDbSymbolTableRecord
100
AcDbBlockTableRecord
  2
VW_FILLEDARROW
340
0
 70
     0
280
     1
281
     0
  0
BLOCK_RECORD
  5
1A82
330
1
100
AcDbSymbolTableRecord
100
AcDbBlockTableRecord
  2
グループ-13
340
0
 70
     0
280
     1
281
     0
  0
BLOCK_RECORD
  5
1A98
330
1
100
AcDbSymbolTableRecord
100
AcDbBlockTableRecord
  2
グループ-12
340
0
102
{BLKREFS
331
1A97
102
}
 70
     0
280
     1
281
     0
  0
BLOCK_RECORD
  5
1A9F
330
1
100
AcDbSymbolTableRecord
100
AcDbBlockTableRecord
  2
グループ-11
340
0
102
{BLKREFS
331
1A9E
102
}
 70
     0
280
     1
281
     0
  0
BLOCK_RECORD
  5
1ABF
330
1
100
AcDbSymbolTableRecord
100
AcDbBlockTableRecord
  2
グループ-10
340
0
102
{BLKREFS
331
1ABE
102
}
 70
     0
280
     1
281
     0
  0
BLOCK_RECORD
  5
1B67
330
1
100
AcDbSymbolTableRecord
100
AcDbBlockTableRecord
  2
*D29
340
0
 70
     0
280
     1
281
     0
  0
BLOCK_RECORD
  5
1B73
330
1
100
AcDbSymbolTableRecord
100
AcDbBlockTableRecord
  2
*D30
340
0
 70
     0
280
     1
281
     0
  0
BLOCK_RECORD
  5
1B7F
330
1
100
AcDbSymbolTableRecord
100
AcDbBlockTableRecord
  2
*D31
340
0
 70
     0
280
     1
281
     0
  0
BLOCK_RECORD
  5
2075
330
1
100
AcDbSymbolTableRecord
100
AcDbBlockTableRecord
  2
*D32
340
0
 70
     0
280
     1
281
     0
  0
BLOCK_RECORD
  5
2080
330
1
100
AcDbSymbolTableRecord
100
AcDbBlockTableRecord
  2
*D33
340
0
 70
     0
280
     1
281
     0
  0
BLOCK_RECORD
  5
208B
330
1
100
AcDbSymbolTableRecord
100
AcDbBlockTableRecord
  2
*D34
340
0
 70
     0
280
     1
281
     0
  0
BLOCK_RECORD
  5
2102
330
1
100
AcDbSymbolTableRecord
100
AcDbBlockTableRecord
  2
*D35
340
0
 70
     0
280
     1
281
     0
  0
ENDTAB
  0
ENDSEC
  0
SECTION
  2
BLOCKS
  0
BLOCK
  5
D
330
A
100
AcDbEntity
  8
0
390
1D
100
AcDbBlockBegin
  2
*MODEL_SPACE
 70
     0
 10
0.0
 20
0.0
 30
0.0
  3
*MODEL_SPACE
  1
*MODEL_SPACE
  0
ENDBLK
  5
E
330
A
100
AcDbEntity
  8
0
390
1D
100
AcDbBlockEnd
  0
BLOCK
  5
F
330
B
100
AcDbEntity
 67
     1
  8
0
390
1D
100
AcDbBlockBegin
  2
*PAPER_SPACE
 70
     0
 10
0.0
 20
0.0
 30
0.0
  3
*PAPER_SPACE
  1
*PAPER_SPACE
  0
ENDBLK
  5
10
330
B
100
AcDbEntity
 67
     1
  8
0
390
1D
100
AcDbBlockEnd
  0
BLOCK
  5
E45
330
4E
100
AcDbEntity
  8
0
390
1D
100
AcDbBlockBegin
  2
_DOT
 70
     0
 10
0.0
 20
0.0
 30
0.0
  3
_DOT
  1
_DOT
  0
POLYLINE
  5
E47
330
4E
100
AcDbEntity
  8
0
  6
ByBlock
 62
     0
370
    -2
390
1D
100
AcDb2dPolyline
 66
     1
 10
0.0
 20
0.0
 30
0.0
 70
     1
 40
0.5
 41
0.5
  0
VERTEX
  5
E48
330
E47
100
AcDbEntity
  8
0
  6
ByBlock
 62
     0
370
    -2
390
1D
100
AcDbVertex
100
AcDb2dVertex
 10
-0.25
 20
0.0
 30
0.0
 42
1.0
  0
VERTEX
  5
E49
330
E47
100
AcDbEntity
  8
0
  6
ByBlock
 62
     0
370
    -2
390
1D
100
AcDbVertex
100
AcDb2dVertex
 10
0.25
 20
0.0
 30
0.0
 42
1.0
  0
SEQEND
  5
E4A
330
E47
100
AcDbEntity
  8
0
390
1D
  0
LINE
  5
E4B
330
4E
100
AcDbEntity
  8
0
  6
ByBlock
 62
     0
370
    -2
390
1D
100
AcDbLine
 10
-0.5
 20
0.0
 30
0.0
 11
-1.0
 21
0.0
 31
0.0
  0
ENDBLK
  5
E4C
330
4E
100
AcDbEntity
  8
0
390
1D
100
AcDbBlockEnd
  0
BLOCK
  5
3A6
330
3A5
100
AcDbEntity
  8
0
100
AcDbBlockBegin
  2
名称未設定-1
 70
     0
 10
0.0
 20
0.0
 30
0.0
  3
名称未設定-1
  1
名称未設定-1
  0
INSERT
  5
3A7
330
3A5
100
AcDbEntity
  8
LOGO
100
AcDbBlockReference
  2
block 2
 10
0.0
 20
0.0
 30
0.0
  0
ENDBLK
  5
3CC
330
3A5
100
AcDbEntity
  8
0
100
AcDbBlockEnd
  0
BLOCK
  5
3A9
330
3A8
100
AcDbEntity
  8
0
100
AcDbBlockBegin
  2
block 2
 70
     0
 10
0.0
 20
0.0
 30
0.0
  3
block 2
  1
block 2
  0
INSERT
  5
3AA
330
3A8
100
AcDbEntity
  8
LOGO
100
AcDbBlockReference
  2
block 3
 10
0.0
 20
0.0
 30
0.0
  0
ENDBLK
  5
3CB
330
3A8
100
AcDbEntity
  8
0
100
AcDbBlockEnd
  0
BLOCK
  5
3AC
330
3AB
100
AcDbEntity
  8
0
100
AcDbBlockBegin
  2
block 3
 70
     0
 10
0.0
 20
0.0
 30
0.0
  3
block 3
  1
block 3
  0
INSERT
  5
3AD
330
3AB
100
AcDbEntity
  8
LOGO
100
AcDbBlockReference
  2
block 4
 10
0.0
 20
0.0
 30
0.0
  0
ENDBLK
  5
3CA
330
3AB
100
AcDbEntity
  8
0
100
AcDbBlockEnd
  0
BLOCK
  5
3AF
330
3AE
100
AcDbEntity
  8
0
100
AcDbBlockBegin
  2
block 4
 70
     0
 10
0.0
 20
0.0
 30
0.0
  3
block 4
  1
block 4
  0
POLYLINE
  5
3B0
330
3AE
100
AcDbEntity
  8
LOGO
370
     0
100
AcDb2dPolyline
 66
     1
 10
0.0
 20
0.0
 30
0.0
  0
VERTEX
  5
3B1
330
3B0
100
AcDbEntity
  8
LOGO
370
     0
100
AcDbVertex
100
AcDb2dVertex
 10
83.79545727667795
 20
167.6444858234922
 30
0.0
  0
VERTEX
  5
3B2
330
3B0
100
AcDbEntity
  8
LOGO
370
     0
100
AcDbVertex
100
AcDb2dVertex
 10
83.79545727667795
 20
159.7968976406313
 30
0.0
  0
VERTEX
  5
3B3
330
3B0
100
AcDbEntity
  8
LOGO
370
     0
100
AcDbVertex
100
AcDb2dVertex
 10
71.3631329975216
 20
159.7968976406313
 30
0.0
  0
VERTEX
  5
3B4
330
3B0
100
AcDbEntity
  8
LOGO
370
     0
100
AcDbVertex
100
AcDb2dVertex
 10
71.3631329975216
 20
127.8027915271048
 30
0.0
  0
VERTEX
  5
3B5
330
3B0
100
AcDbEntity
  8
LOGO
370
     0
100
AcDbVertex
100
AcDb2dVertex
 10
60.43011526263018
 20
127.8027915271048
 30
0.0
  0
VERTEX
  5
3B6
330
3B0
100
AcDbEntity
  8
LOGO
370
     0
100
AcDbVertex
100
AcDb2dVertex
 10
60.43011526263018
 20
159.7968976406313
 30
0.0
  0
VERTEX
  5
3B7
330
3B0
100
AcDbEntity
  8
LOGO
370
     0
100
AcDbVertex
100
AcDb2dVertex
 10
48.21793273020759
 20
159.7968976406313
 30
0.0
  0
VERTEX
  5
3B8
330
3B0
100
AcDbEntity
  8
LOGO
370
     0
100
AcDbVertex
100
AcDb2dVertex
 10
48.21793273020759
 20
167.6444858234922
 30
0.0
  0
VERTEX
  5
3B9
330
3B0
100
AcDbEntity
  8
LOGO
370
     0
100
AcDbVertex
100
AcDb2dVertex
 10
83.79545727667795
 20
167.6444858234922
 30
0.0
  0
SEQEND
  5
3BA
330
3B0
100
AcDbEntity
  8
LOGO
370
     0
  0
HATCH
  5
3BB
330
3AE
100
AcDbEntity
  8
LOGO
 62
   250
420
  2234388
100
AcDbHatch
 10
0.0
 20
0.0
 30
0.0
210
0.0
220
0.0
230
1.0
  2
SOLID
 70
     1
 71
     0
 91
        1
 92
        1
 93
        8
 72
     1
 10
83.79545727667795
 20
167.6444858234922
 11
83.79545727667795
 21
159.7968976406313
 72
     1
 10
83.79545727667795
 20
159.7968976406313
 11
71.3631329975216
 21
159.7968976406313
 72
     1
 10
71.3631329975216
 20
159.7968976406313
 11
71.3631329975216
 21
127.8027915271048
 72
     1
 10
71.3631329975216
 20
127.8027915271048
 11
60.43011526263018
 21
127.8027915271048
 72
     1
 10
60.43011526263018
 20
127.8027915271048
 11
60.43011526263018
 21
159.7968976406313
 72
     1
 10
60.43011526263018
 20
159.7968976406313
 11
48.21793273020759
 21
159.7968976406313
 72
     1
 10
48.21793273020759
 20
159.7968976406313
 11
48.21793273020759
 21
167.6444858234922
 72
     1
 10
48.21793273020759
 20
167.6444858234922
 11
83.79545727667795
 21
167.6444858234922
 97
        0
 75
     2
 76
     1
 98
        0
  0
INSERT
  5
3BC
330
3AE
100
AcDbEntity
  8
LOGO
100
AcDbBlockReference
  2
block 5
 10
0.0
 20
0.0
 30
0.0
  0
ENDBLK
  5
3C9
330
3AE
100
AcDbEntity
  8
0
100
AcDbBlockEnd
  0
BLOCK
  5
3BE
330
3BD
100
AcDbEntity
  8
0
100
AcDbBlockBegin
  2
block 5
 70
     0
 10
0.0
 20
0.0
 30
0.0
  3
block 5
  1
block 5
  0
SPLINE
  5
3BF
330
3BD
100
AcDbEntity
  8
LOGO
370
     0
100
AcDbSpline
210
0.0
220
0.0
230
1.0
 70
    11
 71
     3
 72
    56
 73
    52
 74
     0
 42
0.000000001
 43
0.0000000001
 40
0.0
 40
0.0
 40
0.0
 40
0.0
 40
1.0
 40
1.0
 40
1.0
 40
2.0
 40
2.0
 40
2.0
 40
3.0
 40
3.0
 40
3.0
 40
4.0
 40
4.0
 40
4.0
 40
5.0
 40
5.0
 40
5.0
 40
6.0
 40
6.0
 40
6.0
 40
7.0
 40
7.0
 40
7.0
 40
8.0
 40
8.0
 40
8.0
 40
9.0
 40
9.0
 40
9.0
 40
10.0
 40
10.0
 40
10.0
 40
11.0
 40
11.0
 40
11.0
 40
12.0
 40
12.0
 40
12.0
 40
13.0
 40
13.0
 40
13.0
 40
14.0
 40
14.0
 40
14.0
 40
15.0
 40
15.0
 40
15.0
 40
16.0
 40
16.0
 40
16.0
 40
17.0
 40
17.0
 40
17.0
 40
17.0
 10
100.4504378777679
 20
166.69157178364
 30
0.0
 10
101.9848844191641
 20
167.1313385124438
 30
0.0
 10
103.9637485713373
 20
166.7649523658846
 30
0.0
 10
103.9637485713373
 20
166.7649523658846
 30
0.0
 10
103.9637485713373
 20
166.7649523658846
 30
0.0
 10
103.0132460999156
 20
163.911205638077
 30
0.0
 10
103.0132460999156
 20
163.911205638077
 30
0.0
 10
103.0132460999156
 20
163.911205638077
 30
0.0
 10
101.0674548862189
 20
164.3601018759394
 30
0.0
 10
99.57090442016032
 20
163.1805004036133
 30
0.0
 10
98.40508333886608
 20
162.258247733807
 30
0.0
 10
97.65301849830304
 20
159.804132345923
 30
0.0
 10
97.3598406791005
 20
158.8699940888517
 30
0.0
 10
97.3598406791005
 20
158.8699940888517
 30
0.0
 10
96.07137411762282
 20
154.9119212747295
 30
0.0
 10
96.07137411762282
 20
154.9119212747295
 30
0.0
 10
96.07137411762282
 20
154.9119212747295
 30
0.0
 10
100.3012651448482
 20
154.9119212747295
 30
0.0
 10
100.3012651448482
 20
154.9119212747295
 30
0.0
 10
100.3012651448482
 20
154.9119212747295
 30
0.0
 10
99.64152892419852
 20
152.4199098115079
 30
0.0
 10
99.64152892419852
 20
152.4199098115079
 30
0.0
 10
99.64152892419852
 20
152.4199098115079
 30
0.0
 10
95.38097652692731
 20
152.4199098115079
 30
0.0
 10
95.38097652692731
 20
152.4199098115079
 30
0.0
 10
95.38097652692731
 20
152.4199098115079
 30
0.0
 10
87.75353009080013
 20
127.8027915271048
 30
0.0
 10
87.75353009080013
 20
127.8027915271048
 30
0.0
 10
87.75353009080013
 20
127.8027915271048
 30
0.0
 10
85.36538832498108
 20
127.8027915271048
 30
0.0
 10
85.36538832498108
 20
127.8027915271048
 30
0.0
 10
85.36538832498108
 20
127.8027915271048
 30
0.0
 10
93.00006946639998
 20
152.4199098115079
 30
0.0
 10
93.00006946639998
 20
152.4199098115079
 30
0.0
 10
93.00006946639998
 20
152.4199098115079
 30
0.0
 10
89.85297266450198
 20
152.4199098115079
 30
0.0
 10
89.85297266450198
 20
152.4199098115079
 30
0.0
 10
89.85297266450198
 20
152.4199098115079
 30
0.0
 10
90.51270888515164
 20
154.9119212747295
 30
0.0
 10
90.51270888515164
 20
154.9119212747295
 30
0.0
 10
90.51270888515164
 20
154.9119212747295
 30
0.0
 10
93.6904670570955
 20
154.9119212747295
 30
0.0
 10
93.6904670570955
 20
154.9119212747295
 30
0.0
 10
93.6904670570955
 20
154.9119212747295
 30
0.0
 10
94.81598049462158
 20
158.3616699146644
 30
0.0
 10
94.81598049462158
 20
158.3616699146644
 30
0.0
 10
95.7237637538445
 20
161.2605474231013
 30
0.0
 10
96.4968436907311
 20
162.8139420021662
 30
0.0
 10
97.15657991138076
 20
163.9844139654337
 30
0.0
 10
97.81183750494507
 20
165.1523021053827
 30
0.0
 10
99.1047826935081
 20
166.3084769129547
 30
0.0
 10
100.4504378777679
 20
166.69157178364
 30
0.0
  0
HATCH
  5
3C0
330
3BD
100
AcDbEntity
  8
LOGO
 62
   250
420
  2234388
100
AcDbHatch
 10
0.0
 20
0.0
 30
0.0
210
0.0
220
0.0
230
1.0
  2
SOLID
 70
     1
 71
     0
 91
        1
 92
        1
 93
        1
 72
     4
 94
        3
 73
     0
 74
     1
 95
       56
 96
       52
 40
0.0
 40
0.0
 40
0.0
 40
0.0
 40
1.0
 40
1.0
 40
1.0
 40
2.0
 40
2.0
 40
2.0
 40
3.0
 40
3.0
 40
3.0
 40
4.0
 40
4.0
 40
4.0
 40
5.0
 40
5.0
 40
5.0
 40
6.0
 40
6.0
 40
6.0
 40
7.0
 40
7.0
 40
7.0
 40
8.0
 40
8.0
 40
8.0
 40
9.0
 40
9.0
 40
9.0
 40
10.0
 40
10.0
 40
10.0
 40
11.0
 40
11.0
 40
11.0
 40
12.0
 40
12.0
 40
12.0
 40
13.0
 40
13.0
 40
13.0
 40
14.0
 40
14.0
 40
14.0
 40
15.0
 40
15.0
 40
15.0
 40
16.0
 40
16.0
 40
16.0
 40
17.0
 40
17.0
 40
17.0
 40
17.0
 10
100.4504378777679
 20
166.69157178364
 10
101.9848844191641
 20
167.1313385124438
 10
103.9637485713373
 20
166.7649523658846
 10
103.9637485713373
 20
166.7649523658846
 10
103.9637485713373
 20
166.7649523658846
 10
103.0132460999156
 20
163.911205638077
 10
103.0132460999156
 20
163.911205638077
 10
103.0132460999156
 20
163.911205638077
 10
101.0674548862189
 20
164.3601018759394
 10
99.57090442016032
 20
163.1805004036133
 10
98.40508333886608
 20
162.258247733807
 10
97.65301849830304
 20
159.804132345923
 10
97.3598406791005
 20
158.8699940888517
 10
97.3598406791005
 20
158.8699940888517
 10
96.07137411762282
 20
154.9119212747295
 10
96.07137411762282
 20
154.9119212747295
 10
96.07137411762282
 20
154.9119212747295
 10
100.3012651448482
 20
154.9119212747295
 10
100.3012651448482
 20
154.9119212747295
 10
100.3012651448482
 20
154.9119212747295
 10
99.64152892419852
 20
152.4199098115079
 10
99.64152892419852
 20
152.4199098115079
 10
99.64152892419852
 20
152.4199098115079
 10
95.38097652692731
 20
152.4199098115079
 10
95.38097652692731
 20
152.4199098115079
 10
95.38097652692731
 20
152.4199098115079
 10
87.75353009080013
 20
127.8027915271048
 10
87.75353009080013
 20
127.8027915271048
 10
87.75353009080013
 20
127.8027915271048
 10
85.36538832498108
 20
127.8027915271048
 10
85.36538832498108
 20
127.8027915271048
 10
85.36538832498108
 20
127.8027915271048
 10
93.00006946639998
 20
152.4199098115079
 10
93.00006946639998
 20
152.4199098115079
 10
93.00006946639998
 20
152.4199098115079
 10
89.85297266450198
 20
152.4199098115079
 10
89.85297266450198
 20
152.4199098115079
 10
89.85297266450198
 20
152.4199098115079
 10
90.51270888515164
 20
154.9119212747295
 10
90.51270888515164
 20
154.9119212747295
 10
90.51270888515164
 20
154.9119212747295
 10
93.6904670570955
 20
154.9119212747295
 10
93.6904670570955
 20
154.9119212747295
 10
93.6904670570955
 20
154.9119212747295
 10
94.81598049462158
 20
158.3616699146644
 10
94.81598049462158
 20
158.3616699146644
 10
95.7237637538445
 20
161.2605474231013
 10
96.4968436907311
 20
162.8139420021662
 10
97.15657991138076
 20
163.9844139654337
 10
97.81183750494507
 20
165.1523021053827
 10
99.1047826935081
 20
166.3084769129547
 10
100.4504378777679
 20
166.69157178364
 97
        0
 75
     2
 76
     1
 98
        0
  0
SPLINE
  5
3C1
330
3BD
100
AcDbEntity
  8
LOGO
370
     0
100
AcDbSpline
210
0.0
220
0.0
230
1.0
 70
    11
 71
     3
 72
    38
 73
    34
 74
     0
 42
0.000000001
 43
0.0000000001
 40
0.0
 40
0.0
 40
0.0
 40
0.0
 40
1.0
 40
1.0
 40
1.0
 40
2.0
 40
2.0
 40
2.0
 40
3.0
 40
3.0
 40
3.0
 40
4.0
 40
4.0
 40
4.0
 40
5.0
 40
5.0
 40
5.0
 40
6.0
 40
6.0
 40
6.0
 40
7.0
 40
7.0
 40
7.0
 40
8.0
 40
8.0
 40
8.0
 40
9.0
 40
9.0
 40
9.0
 40
10.0
 40
10.0
 40
10.0
 40
11.0
 40
11.0
 40
11.0
 40
11.0
 10
126.377554584636
 20
154.8151140277308
 30
0.0
 10
126.377554584636
 20
154.8151140277308
 30
0.0
 10
128.8311532078563
 20
154.8151140277308
 30
0.0
 10
128.8311532078563
 20
154.8151140277308
 30
0.0
 10
128.8311532078563
 20
154.8151140277308
 30
0.0
 10
127.7345785914971
 20
151.3062819612468
 30
0.0
 10
127.7345785914971
 20
151.3062819612468
 30
0.0
 10
128.571392836906
 20
152.2922689395754
 30
0.0
 10
129.8860421413442
 20
153.604506675583
 30
0.0
 10
131.0163787157314
 20
154.2664822097754
 30
0.0
 10
132.7044766171327
 20
155.2500576196734
 30
0.0
 10
133.6642808525008
 20
155.3847609420097
 30
0.0
 10
134.7284715499351
 20
155.3565111403944
 30
0.0
 10
134.7284715499351
 20
155.3565111403944
 30
0.0
 10
133.6877075172549
 20
152.0345756272799
 30
0.0
 10
133.6877075172549
 20
152.0345756272799
 30
0.0
 10
133.011434827367
 20
152.3184516825359
 30
0.0
 10
130.930940291334
 20
151.7768823149844
 30
0.0
 10
129.739280976855
 20
150.9162968950455
 30
0.0
 10
128.66613302525
 20
150.1454562717016
 30
0.0
 10
127.9192358313239
 20
149.4857200510519
 30
0.0
 10
127.0393578639405
 20
147.8282835196966
 30
0.0
 10
126.164647543194
 20
146.1699857139017
 30
0.0
 10
125.4742499524985
 20
143.5262176944419
 30
0.0
 10
124.2822461282437
 20
139.6959580071401
 30
0.0
 10
124.2822461282437
 20
139.6959580071401
 30
0.0
 10
120.5753209406769
 20
127.8027915271048
 30
0.0
 10
120.5753209406769
 20
127.8027915271048
 30
0.0
 10
120.5753209406769
 20
127.8027915271048
 30
0.0
 10
118.1964809388044
 20
127.8027915271048
 30
0.0
 10
118.1964809388044
 20
127.8027915271048
 30
0.0
 10
118.1964809388044
 20
127.8027915271048
 30
0.0
 10
126.377554584636
 20
154.8151140277308
 30
0.0
 10
126.377554584636
 20
154.8151140277308
 30
0.0
  0
HATCH
  5
3C2
330
3BD
100
AcDbEntity
  8
LOGO
 62
   250
420
  2234388
100
AcDbHatch
 10
0.0
 20
0.0
 30
0.0
210
0.0
220
0.0
230
1.0
  2
SOLID
 70
     1
 71
     0
 91
        1
 92
        1
 93
        1
 72
     4
 94
        3
 73
     0
 74
     1
 95
       38
 96
       34
 40
0.0
 40
0.0
 40
0.0
 40
0.0
 40
1.0
 40
1.0
 40
1.0
 40
2.0
 40
2.0
 40
2.0
 40
3.0
 40
3.0
 40
3.0
 40
4.0
 40
4.0
 40
4.0
 40
5.0
 40
5.0
 40
5.0
 40
6.0
 40
6.0
 40
6.0
 40
7.0
 40
7.0
 40
7.0
 40
8.0
 40
8.0
 40
8.0
 40
9.0
 40
9.0
 40
9.0
 40
10.0
 40
10.0
 40
10.0
 40
11.0
 40
11.0
 40
11.0
 40
11.0
 10
126.377554584636
 20
154.8151140277308
 10
126.377554584636
 20
154.8151140277308
 10
128.8311532078563
 20
154.8151140277308
 10
128.8311532078563
 20
154.8151140277308
 10
128.8311532078563
 20
154.8151140277308
 10
127.7345785914971
 20
151.3062819612468
 10
127.7345785914971
 20
151.3062819612468
 10
128.571392836906
 20
152.2922689395754
 10
129.8860421413442
 20
153.604506675583
 10
131.0163787157314
 20
154.2664822097754
 10
132.7044766171327
 20
155.2500576196734
 10
133.6642808525008
 20
155.3847609420097
 10
134.7284715499351
 20
155.3565111403944
 10
134.7284715499351
 20
155.3565111403944
 10
133.6877075172549
 20
152.0345756272799
 10
133.6877075172549
 20
152.0345756272799
 10
133.011434827367
 20
152.3184516825359
 10
130.930940291334
 20
151.7768823149844
 10
129.739280976855
 20
150.9162968950455
 10
128.66613302525
 20
150.1454562717016
 10
127.9192358313239
 20
149.4857200510519
 10
127.0393578639405
 20
147.8282835196966
 10
126.164647543194
 20
146.1699857139017
 10
125.4742499524985
 20
143.5262176944419
 10
124.2822461282437
 20
139.6959580071401
 10
124.2822461282437
 20
139.6959580071401
 10
120.5753209406769
 20
127.8027915271048
 10
120.5753209406769
 20
127.8027915271048
 10
120.5753209406769
 20
127.8027915271048
 10
118.1964809388044
 20
127.8027915271048
 10
118.1964809388044
 20
127.8027915271048
 10
118.1964809388044
 20
127.8027915271048
 10
126.377554584636
 20
154.8151140277308
 10
126.377554584636
 20
154.8151140277308
 97
        0
 75
     2
 76
     1
 98
        0
  0
SPLINE
  5
3C3
330
3BD
100
AcDbEntity
  8
LOGO
370
     0
100
AcDbSpline
210
0.0
220
0.0
230
1.0
 70
    11
 71
     3
 72
   104
 73
   100
 74
     0
 42
0.000000001
 43
0.0000000001
 40
0.0
 40
0.0
 40
0.0
 40
0.0
 40
1.0
 40
1.0
 40
1.0
 40
2.0
 40
2.0
 40
2.0
 40
3.0
 40
3.0
 40
3.0
 40
4.0
 40
4.0
 40
4.0
 40
5.0
 40
5.0
 40
5.0
 40
6.0
 40
6.0
 40
6.0
 40
7.0
 40
7.0
 40
7.0
 40
8.0
 40
8.0
 40
8.0
 40
9.0
 40
9.0
 40
9.0
 40
10.0
 40
10.0
 40
10.0
 40
11.0
 40
11.0
 40
11.0
 40
12.0
 40
12.0
 40
12.0
 40
13.0
 40
13.0
 40
13.0
 40
14.0
 40
14.0
 40
14.0
 40
15.0
 40
15.0
 40
15.0
 40
16.0
 40
16.0
 40
16.0
 40
17.0
 40
17.0
 40
17.0
 40
18.0
 40
18.0
 40
18.0
 40
19.0
 40
19.0
 40
19.0
 40
20.0
 40
20.0
 40
20.0
 40
21.0
 40
21.0
 40
21.0
 40
22.0
 40
22.0
 40
22.0
 40
23.0
 40
23.0
 40
23.0
 40
24.0
 40
24.0
 40
24.0
 40
25.0
 40
25.0
 40
25.0
 40
26.0
 40
26.0
 40
26.0
 40
27.0
 40
27.0
 40
27.0
 40
28.0
 40
28.0
 40
28.0
 40
29.0
 40
29.0
 40
29.0
 40
30.0
 40
30.0
 40
30.0
 40
31.0
 40
31.0
 40
31.0
 40
32.0
 40
32.0
 40
32.0
 40
33.0
 40
33.0
 40
33.0
 40
33.0
 10
139.8926730891197
 20
154.8294111834263
 30
0.0
 10
139.8926730891197
 20
154.8294111834263
 30
0.0
 10
142.0344903652445
 20
154.8294111834263
 30
0.0
 10
142.0344903652445
 20
154.8294111834263
 30
0.0
 10
142.0344903652445
 20
154.8294111834263
 30
0.0
 10
140.9516961399171
 20
151.3157559800812
 30
0.0
 10
140.9516961399171
 20
151.3157559800812
 30
0.0
 10
141.8928968473923
 20
152.7887075264977
 30
0.0
 10
142.7341897198865
 20
153.4484437471474
 30
0.0
 10
143.8552245303272
 20
154.2926649527359
 30
0.0
 10
144.9803934580775
 20
155.1296514530327
 30
0.0
 10
146.3139908001845
 20
155.3044901642492
 30
0.0
 10
147.241066606852
 20
155.3044901642492
 30
0.0
 10
148.3855280820469
 20
155.3044901642492
 30
0.0
 10
149.4969166187653
 20
155.0752189084569
 30
0.0
 10
150.0784491203092
 20
153.8172414621372
 30
0.0
 10
150.5228667310863
 20
152.833838307127
 30
0.0
 10
150.5414702589793
 20
152.7201500811143
 30
0.0
 10
150.4140016419347
 20
150.7765981809602
 30
0.0
 10
151.5818897818837
 20
152.7699317437168
 30
0.0
 10
152.4424752018226
 20
153.6256940267945
 30
0.0
 10
153.9038856707499
 20
154.4507949398263
 30
0.0
 10
155.4455669174378
 20
155.3044901642492
 30
0.0
 10
156.339225275853
 20
155.3659851592288
 30
0.0
 10
157.3748216618963
 20
155.2147453676543
 30
0.0
 10
158.911679771723
 20
154.9877134254046
 30
0.0
 10
159.8859534176746
 20
154.4390816074493
 30
0.0
 10
160.3965169054045
 20
152.7816450760939
 30
0.0
 10
160.9070803931344
 20
151.1219692311958
 30
0.0
 10
160.6328506116007
 20
150.2303779314354
 30
0.0
 10
159.9992971339115
 20
147.597634224801
 30
0.0
 10
159.7105979417943
 20
146.4014962832367
 30
0.0
 10
159.2947746424084
 20
144.9400858143094
 30
0.0
 10
158.7463150793409
 20
143.2092687007094
 30
0.0
 10
158.7463150793409
 20
143.2092687007094
 30
0.0
 10
153.9038856707499
 20
127.8027915271048
 30
0.0
 10
153.9038856707499
 20
127.8027915271048
 30
0.0
 10
153.9038856707499
 20
127.8027915271048
 30
0.0
 10
151.3882752878863
 20
127.8027915271048
 30
0.0
 10
151.3882752878863
 20
127.8027915271048
 30
0.0
 10
151.3882752878863
 20
127.8027915271048
 30
0.0
 10
155.6250565106276
 20
141.2751908193897
 30
0.0
 10
155.6250565106276
 20
141.2751908193897
 30
0.0
 10
156.5094131050963
 20
144.0936252951782
 30
0.0
 10
157.109893644309
 20
146.1506931664571
 30
0.0
 10
157.4220195011804
 20
147.4415712963654
 30
0.0
 10
157.8095929989511
 20
149.0530157726519
 30
0.0
 10
157.9656559273867
 20
149.5826995529385
 30
0.0
 10
157.7816877071116
 20
150.7529992613181
 30
0.0
 10
157.6111553680925
 20
151.8430281919372
 30
0.0
 10
157.0582171779396
 20
152.5547853887321
 30
0.0
 10
156.1170164704645
 20
152.5547853887321
 30
0.0
 10
155.1096698860365
 20
152.5547853887321
 30
0.0
 10
154.2962823053817
 20
152.4412694176073
 30
0.0
 10
153.156643967048
 20
151.2945686288697
 30
0.0
 10
152.0170056287143
 20
150.1476955852443
 30
0.0
 10
151.076149431015
 20
148.7930831468137
 30
0.0
 10
150.3337308641742
 20
147.2290087646991
 30
0.0
 10
149.5957909244188
 20
145.6683794803425
 30
0.0
 10
148.8530278478023
 20
143.6822806228776
 30
0.0
 10
148.0964843801539
 20
141.2751908193897
 30
0.0
 10
148.0964843801539
 20
141.2751908193897
 30
0.0
 10
143.8552245303272
 20
127.8027915271048
 30
0.0
 10
143.8552245303272
 20
127.8027915271048
 30
0.0
 10
143.8552245303272
 20
127.8027915271048
 30
0.0
 10
141.486030802177
 20
127.8027915271048
 30
0.0
 10
141.486030802177
 20
127.8027915271048
 30
0.0
 10
141.486030802177
 20
127.8027915271048
 30
0.0
 10
146.3329388378533
 20
143.2092687007094
 30
0.0
 10
146.3329388378533
 20
143.2092687007094
 30
0.0
 10
146.8483254624444
 20
144.8408669988801
 30
0.0
 10
147.2314203331297
 20
146.1837661049335
 30
0.0
 10
147.4867020769946
 20
147.224185627838
 30
0.0
 10
147.9169947869641
 20
149.0197705792876
 30
0.0
 10
148.0306830129768
 20
150.2400242051577
 30
0.0
 10
147.709255392159
 20
151.3157559800812
 30
0.0
 10
147.3874832615654
 20
152.3916600098926
 30
0.0
 10
146.8245542879144
 20
152.6683013598569
 30
0.0
 10
145.8840425999909
 20
152.6683013598569
 30
0.0
 10
145.0989048209514
 20
152.6683013598569
 30
0.0
 10
144.3282364524954
 20
152.3275811915945
 30
0.0
 10
143.4531816219731
 20
151.6538923250251
 30
0.0
 10
142.34627171234
 20
150.8074318058939
 30
0.0
 10
141.901854101563
 20
150.1097995099067
 30
0.0
 10
141.3578731655808
 20
149.289521733736
 30
0.0
 10
140.6299240093235
 20
148.192602607601
 30
0.0
 10
140.2850697237515
 20
147.455696197173
 30
0.0
 10
139.6652966370942
 20
145.8385673095858
 30
0.0
 10
139.0506911970739
 20
144.2214384219986
 30
0.0
 10
138.463991048893
 20
142.3252566160164
 30
0.0
 10
138.0571250036777
 20
141.0154304484394
 30
0.0
 10
138.0571250036777
 20
141.0154304484394
 30
0.0
 10
133.9009590684727
 20
127.8027915271048
 30
0.0
 10
133.9009590684727
 20
127.8027915271048
 30
0.0
 10
133.9009590684727
 20
127.8027915271048
 30
0.0
 10
131.4180771143097
 20
127.8027915271048
 30
0.0
 10
131.4180771143097
 20
127.8027915271048
 30
0.0
 10
131.4180771143097
 20
127.8027915271048
 30
0.0
 10
139.8926730891197
 20
154.8294111834263
 30
0.0
 10
139.8926730891197
 20
154.8294111834263
 30
0.0
  0
HATCH
  5
3C4
330
3BD
100
AcDbEntity
  8
LOGO
 62
   250
420
  2234388
100
AcDbHatch
 10
0.0
 20
0.0
 30
0.0
210
0.0
220
0.0
230
1.0
  2
SOLID
 70
     1
 71
     0
 91
        1
 92
        1
 93
        1
 72
     4
 94
        3
 73
     0
 74
     1
 95
      104
 96
      100
 40
0.0
 40
0.0
 40
0.0
 40
0.0
 40
1.0
 40
1.0
 40
1.0
 40
2.0
 40
2.0
 40
2.0
 40
3.0
 40
3.0
 40
3.0
 40
4.0
 40
4.0
 40
4.0
 40
5.0
 40
5.0
 40
5.0
 40
6.0
 40
6.0
 40
6.0
 40
7.0
 40
7.0
 40
7.0
 40
8.0
 40
8.0
 40
8.0
 40
9.0
 40
9.0
 40
9.0
 40
10.0
 40
10.0
 40
10.0
 40
11.0
 40
11.0
 40
11.0
 40
12.0
 40
12.0
 40
12.0
 40
13.0
 40
13.0
 40
13.0
 40
14.0
 40
14.0
 40
14.0
 40
15.0
 40
15.0
 40
15.0
 40
16.0
 40
16.0
 40
16.0
 40
17.0
 40
17.0
 40
17.0
 40
18.0
 40
18.0
 40
18.0
 40
19.0
 40
19.0
 40
19.0
 40
20.0
 40
20.0
 40
20.0
 40
21.0
 40
21.0
 40
21.0
 40
22.0
 40
22.0
 40
22.0
 40
23.0
 40
23.0
 40
23.0
 40
24.0
 40
24.0
 40
24.0
 40
25.0
 40
25.0
 40
25.0
 40
26.0
 40
26.0
 40
26.0
 40
27.0
 40
27.0
 40
27.0
 40
28.0
 40
28.0
 40
28.0
 40
29.0
 40
29.0
 40
29.0
 40
30.0
 40
30.0
 40
30.0
 40
31.0
 40
31.0
 40
31.0
 40
32.0
 40
32.0
 40
32.0
 40
33.0
 40
33.0
 40
33.0
 40
33.0
 10
139.8926730891197
 20
154.8294111834263
 10
139.8926730891197
 20
154.8294111834263
 10
142.0344903652445
 20
154.8294111834263
 10
142.0344903652445
 20
154.8294111834263
 10
142.0344903652445
 20
154.8294111834263
 10
140.9516961399171
 20
151.3157559800812
 10
140.9516961399171
 20
151.3157559800812
 10
141.8928968473923
 20
152.7887075264977
 10
142.7341897198865
 20
153.4484437471474
 10
143.8552245303272
 20
154.2926649527359
 10
144.9803934580775
 20
155.1296514530327
 10
146.3139908001845
 20
155.3044901642492
 10
147.241066606852
 20
155.3044901642492
 10
148.3855280820469
 20
155.3044901642492
 10
149.4969166187653
 20
155.0752189084569
 10
150.0784491203092
 20
153.8172414621372
 10
150.5228667310863
 20
152.833838307127
 10
150.5414702589793
 20
152.7201500811143
 10
150.4140016419347
 20
150.7765981809602
 10
151.5818897818837
 20
152.7699317437168
 10
152.4424752018226
 20
153.6256940267945
 10
153.9038856707499
 20
154.4507949398263
 10
155.4455669174378
 20
155.3044901642492
 10
156.339225275853
 20
155.3659851592288
 10
157.3748216618963
 20
155.2147453676543
 10
158.911679771723
 20
154.9877134254046
 10
159.8859534176746
 20
154.4390816074493
 10
160.3965169054045
 20
152.7816450760939
 10
160.9070803931344
 20
151.1219692311958
 10
160.6328506116007
 20
150.2303779314354
 10
159.9992971339115
 20
147.597634224801
 10
159.7105979417943
 20
146.4014962832367
 10
159.2947746424084
 20
144.9400858143094
 10
158.7463150793409
 20
143.2092687007094
 10
158.7463150793409
 20
143.2092687007094
 10
153.9038856707499
 20
127.8027915271048
 10
153.9038856707499
 20
127.8027915271048
 10
153.9038856707499
 20
127.8027915271048
 10
151.3882752878863
 20
127.8027915271048
 10
151.3882752878863
 20
127.8027915271048
 10
151.3882752878863
 20
127.8027915271048
 10
155.6250565106276
 20
141.2751908193897
 10
155.6250565106276
 20
141.2751908193897
 10
156.5094131050963
 20
144.0936252951782
 10
157.109893644309
 20
146.1506931664571
 10
157.4220195011804
 20
147.4415712963654
 10
157.8095929989511
 20
149.0530157726519
 10
157.9656559273867
 20
149.5826995529385
 10
157.7816877071116
 20
150.7529992613181
 10
157.6111553680925
 20
151.8430281919372
 10
157.0582171779396
 20
152.5547853887321
 10
156.1170164704645
 20
152.5547853887321
 10
155.1096698860365
 20
152.5547853887321
 10
154.2962823053817
 20
152.4412694176073
 10
153.156643967048
 20
151.2945686288697
 10
152.0170056287143
 20
150.1476955852443
 10
151.076149431015
 20
148.7930831468137
 10
150.3337308641742
 20
147.2290087646991
 10
149.5957909244188
 20
145.6683794803425
 10
148.8530278478023
 20
143.6822806228776
 10
148.0964843801539
 20
141.2751908193897
 10
148.0964843801539
 20
141.2751908193897
 10
143.8552245303272
 20
127.8027915271048
 10
143.8552245303272
 20
127.8027915271048
 10
143.8552245303272
 20
127.8027915271048
 10
141.486030802177
 20
127.8027915271048
 10
141.486030802177
 20
127.8027915271048
 10
141.486030802177
 20
127.8027915271048
 10
146.3329388378533
 20
143.2092687007094
 10
146.3329388378533
 20
143.2092687007094
 10
146.8483254624444
 20
144.8408669988801
 10
147.2314203331297
 20
146.1837661049335
 10
147.4867020769946
 20
147.224185627838
 10
147.9169947869641
 20
149.0197705792876
 10
148.0306830129768
 20
150.2400242051577
 10
147.709255392159
 20
151.3157559800812
 10
147.3874832615654
 20
152.3916600098926
 10
146.8245542879144
 20
152.6683013598569
 10
145.8840425999909
 20
152.6683013598569
 10
145.0989048209514
 20
152.6683013598569
 10
144.3282364524954
 20
152.3275811915945
 10
143.4531816219731
 20
151.6538923250251
 10
142.34627171234
 20
150.8074318058939
 10
141.901854101563
 20
150.1097995099067
 10
141.3578731655808
 20
149.289521733736
 10
140.6299240093235
 20
148.192602607601
 10
140.2850697237515
 20
147.455696197173
 10
139.6652966370942
 20
145.8385673095858
 10
139.0506911970739
 20
144.2214384219986
 10
138.463991048893
 20
142.3252566160164
 10
138.0571250036777
 20
141.0154304484394
 10
138.0571250036777
 20
141.0154304484394
 10
133.9009590684727
 20
127.8027915271048
 10
133.9009590684727
 20
127.8027915271048
 10
133.9009590684727
 20
127.8027915271048
 10
131.4180771143097
 20
127.8027915271048
 10
131.4180771143097
 20
127.8027915271048
 10
131.4180771143097
 20
127.8027915271048
 10
139.8926730891197
 20
154.8294111834263
 10
139.8926730891197
 20
154.8294111834263
 97
        0
 75
     2
 76
     1
 98
        0
  0
SPLINE
  5
3C5
330
3BD
100
AcDbEntity
  8
LOGO
370
     0
100
AcDbSpline
210
0.0
220
0.0
230
1.0
 70
    11
 71
     3
 72
    29
 73
    25
 74
     0
 42
0.000000001
 43
0.0000000001
 40
0.0
 40
0.0
 40
0.0
 40
0.0
 40
1.0
 40
1.0
 40
1.0
 40
2.0
 40
2.0
 40
2.0
 40
3.0
 40
3.0
 40
3.0
 40
4.0
 40
4.0
 40
4.0
 40
5.0
 40
5.0
 40
5.0
 40
6.0
 40
6.0
 40
6.0
 40
7.0
 40
7.0
 40
7.0
 40
8.0
 40
8.0
 40
8.0
 40
8.0
 10
101.6420971922469
 20
132.8388354296931
 30
0.0
 10
101.630039350094
 20
134.7164137077823
 30
0.0
 10
102.2236296937908
 20
138.0598810818841
 30
0.0
 10
103.7487744712405
 20
142.5378191476827
 30
0.0
 10
105.819967243327
 20
148.5896501242061
 30
0.0
 10
107.0602024361932
 20
150.8074318058939
 30
0.0
 10
108.1522984254671
 20
151.8833358357054
 30
0.0
 10
109.741177511439
 20
153.4532668840085
 30
0.0
 10
111.8740375333931
 20
153.5290590346837
 30
0.0
 10
112.5075910110823
 20
153.4532668840085
 30
0.0
 10
113.4012493694975
 20
153.3490526768302
 30
0.0
 10
114.6683563248758
 20
152.7580461564518
 30
0.0
 10
114.7493161221879
 20
150.7838328862519
 30
0.0
 10
114.8106388622796
 20
149.0909118479895
 30
0.0
 10
114.3186789024427
 20
145.9191825971221
 30
0.0
 10
112.6164561002338
 20
140.9489400617108
 30
0.0
 10
110.6444821435766
 20
135.1746117095912
 30
0.0
 10
109.4669477299053
 20
132.8960240524753
 30
0.0
 10
108.5212683953448
 20
131.9072809959403
 30
0.0
 10
106.7346406980658
 20
130.0538184021569
 30
0.0
 10
104.8222669326213
 20
130.2336525051225
 30
0.0
 10
104.5408024457958
 20
130.2336525051225
 30
0.0
 10
104.1721769856939
 20
130.2336525051225
 30
0.0
 10
101.6465758193322
 20
130.6305277668397
 30
0.0
 10
101.6420971922469
 20
132.8388354296931
 30
0.0
  0
SPLINE
  5
3C6
330
3BD
100
AcDbEntity
  8
LOGO
370
     0
100
AcDbSpline
210
0.0
220
0.0
230
1.0
 70
    11
 71
     3
 72
    32
 73
    28
 74
     0
 42
0.000000001
 43
0.0000000001
 40
0.0
 40
0.0
 40
0.0
 40
0.0
 40
1.0
 40
1.0
 40
1.0
 40
2.0
 40
2.0
 40
2.0
 40
3.0
 40
3.0
 40
3.0
 40
4.0
 40
4.0
 40
4.0
 40
5.0
 40
5.0
 40
5.0
 40
6.0
 40
6.0
 40
6.0
 40
7.0
 40
7.0
 40
7.0
 40
8.0
 40
8.0
 40
8.0
 40
9.0
 40
9.0
 40
9.0
 40
9.0
 10
106.2595617172429
 20
153.4105476718098
 30
0.0
 10
104.8222669326213
 20
151.5474388043041
 30
0.0
 10
103.7177685914188
 20
149.8758773721411
 30
0.0
 10
101.9232171692965
 20
144.6141795664062
 30
0.0
 10
100.2754269116635
 20
139.7999999594306
 30
0.0
 10
99.22777268346732
 20
136.3052927937542
 30
0.0
 10
99.06964269637689
 20
132.039572749846
 30
0.0
 10
98.94665270641765
 20
128.8673267343149
 30
0.0
 10
100.8807305877373
 20
127.8027915271048
 30
0.0
 10
103.7129454545577
 20
127.8027915271048
 30
0.0
 10
104.9352661390825
 20
127.8027915271048
 30
0.0
 10
108.0151835347002
 20
127.8827177950895
 30
0.0
 10
110.2045431598849
 20
130.5926316915021
 30
0.0
 10
111.7417457794874
 20
132.4984597712065
 30
0.0
 10
113.155269389579
 20
134.475256864725
 30
0.0
 10
115.0562743324223
 20
140.9489400617108
 30
0.0
 10
116.6361961642235
 20
146.3680788349845
 30
0.0
 10
117.7282921534974
 20
149.8639917848761
 30
0.0
 10
117.6480213757369
 20
151.8595646611754
 30
0.0
 10
117.6480213757369
 20
151.8595646611754
 30
0.0
 10
117.6480213757369
 20
151.8595646611754
 30
0.0
 10
117.6480213757369
 20
151.8595646611754
 30
0.0
 10
117.13229024137
 20
155.18150017429
 30
0.0
 10
114.7162431837115
 20
155.886194920681
 30
0.0
 10
113.3351034925446
 20
155.886194920681
 30
0.0
 10
111.9829026225447
 20
155.886194920681
 30
0.0
 10
108.3414342923792
 20
156.1251124501957
 30
0.0
 10
106.2595617172429
 20
153.4105476718098
 30
0.0
  0
HATCH
  5
3C7
330
3BD
100
AcDbEntity
  8
LOGO
 62
   250
420
  2234388
100
AcDbHatch
 10
0.0
 20
0.0
 30
0.0
210
0.0
220
0.0
230
1.0
  2
SOLID
 70
     1
 71
     0
 91
        2
 92
        1
 93
        1
 72
     4
 94
        3
 73
     0
 74
     1
 95
       29
 96
       25
 40
0.0
 40
0.0
 40
0.0
 40
0.0
 40
1.0
 40
1.0
 40
1.0
 40
2.0
 40
2.0
 40
2.0
 40
3.0
 40
3.0
 40
3.0
 40
4.0
 40
4.0
 40
4.0
 40
5.0
 40
5.0
 40
5.0
 40
6.0
 40
6.0
 40
6.0
 40
7.0
 40
7.0
 40
7.0
 40
8.0
 40
8.0
 40
8.0
 40
8.0
 10
101.6420971922469
 20
132.8388354296931
 10
101.630039350094
 20
134.7164137077823
 10
102.2236296937908
 20
138.0598810818841
 10
103.7487744712405
 20
142.5378191476827
 10
105.819967243327
 20
148.5896501242061
 10
107.0602024361932
 20
150.8074318058939
 10
108.1522984254671
 20
151.8833358357054
 10
109.741177511439
 20
153.4532668840085
 10
111.8740375333931
 20
153.5290590346837
 10
112.5075910110823
 20
153.4532668840085
 10
113.4012493694975
 20
153.3490526768302
 10
114.6683563248758
 20
152.7580461564518
 10
114.7493161221879
 20
150.7838328862519
 10
114.8106388622796
 20
149.0909118479895
 10
114.3186789024427
 20
145.9191825971221
 10
112.6164561002338
 20
140.9489400617108
 10
110.6444821435766
 20
135.1746117095912
 10
109.4669477299053
 20
132.8960240524753
 10
108.5212683953448
 20
131.9072809959403
 10
106.7346406980658
 20
130.0538184021569
 10
104.8222669326213
 20
130.2336525051225
 10
104.5408024457958
 20
130.2336525051225
 10
104.1721769856939
 20
130.2336525051225
 10
101.6465758193322
 20
130.6305277668397
 10
101.6420971922469
 20
132.8388354296931
 97
        0
 92
        1
 93
        1
 72
     4
 94
        3
 73
     0
 74
     1
 95
       32
 96
       28
 40
0.0
 40
0.0
 40
0.0
 40
0.0
 40
1.0
 40
1.0
 40
1.0
 40
2.0
 40
2.0
 40
2.0
 40
3.0
 40
3.0
 40
3.0
 40
4.0
 40
4.0
 40
4.0
 40
5.0
 40
5.0
 40
5.0
 40
6.0
 40
6.0
 40
6.0
 40
7.0
 40
7.0
 40
7.0
 40
8.0
 40
8.0
 40
8.0
 40
9.0
 40
9.0
 40
9.0
 40
9.0
 10
106.2595617172429
 20
153.4105476718098
 10
104.8222669326213
 20
151.5474388043041
 10
103.7177685914188
 20
149.8758773721411
 10
101.9232171692965
 20
144.6141795664062
 10
100.2754269116635
 20
139.7999999594306
 10
99.22777268346732
 20
136.3052927937542
 10
99.06964269637689
 20
132.039572749846
 10
98.94665270641765
 20
128.8673267343149
 10
100.8807305877373
 20
127.8027915271048
 10
103.7129454545577
 20
127.8027915271048
 10
104.9352661390825
 20
127.8027915271048
 10
108.0151835347002
 20
127.8827177950895
 10
110.2045431598849
 20
130.5926316915021
 10
111.7417457794874
 20
132.4984597712065
 10
113.155269389579
 20
134.475256864725
 10
115.0562743324223
 20
140.9489400617108
 10
116.6361961642235
 20
146.3680788349845
 10
117.7282921534974
 20
149.8639917848761
 10
117.6480213757369
 20
151.8595646611754
 10
117.6480213757369
 20
151.8595646611754
 10
117.6480213757369
 20
151.8595646611754
 10
117.6480213757369
 20
151.8595646611754
 10
117.13229024137
 20
155.18150017429
 10
114.7162431837115
 20
155.886194920681
 10
113.3351034925446
 20
155.886194920681
 10
111.9829026225447
 20
155.886194920681
 10
108.3414342923792
 20
156.1251124501957
 10
106.2595617172429
 20
153.4105476718098
 97
        0
 75
     2
 76
     1
 98
        0
  0
ENDBLK
  5
3C8
330
3BD
100
AcDbEntity
  8
0
100
AcDbBlockEnd
  0
BLOCK
  5
1857
330
1856
100
AcDbEntity
  8
0
100
AcDbBlockBegin
  2
*D6
 70
     1
 10
0.0
 20
0.0
 30
0.0
  3
*D6
  1
*D132
  0
LINE
  5
1859
330
1856
100
AcDbEntity
  8
DIM
 62
     0
370
    -2
100
AcDbLine
 10
767.4501783669375
 20
2922.943375555779
 30
0.0
 11
767.4501783669375
 21
3247.450126950232
 31
0.0
  0
LINE
  5
185A
330
1856
100
AcDbEntity
  8
DIM
 62
     0
370
    -2
100
AcDbLine
 10
1517.450117331778
 20
2922.943375555779
 30
0.0
 11
1517.450117331778
 21
3247.450126950232
 31
0.0
  0
LINE
  5
185B
330
1856
100
AcDbEntity
  8
DIM
 62
     0
370
    -2
100
AcDbLine
 10
785.4501783669375
 20
3247.450126950232
 30
0.0
 11
1499.450117331778
 21
3247.450126950232
 31
0.0
  0
INSERT
  5
185C
330
1856
100
AcDbEntity
  8
DIM
 62
     0
370
    -2
100
AcDbBlockReference
  2
_DOT
 10
767.4501783669375
 20
3247.450126950232
 30
0.0
 41
18.0
 42
18.0
 43
18.0
 50
180.0
  0
INSERT
  5
185D
330
1856
100
AcDbEntity
  8
DIM
 62
     0
370
    -2
100
AcDbBlockReference
  2
_DOT
 10
1517.450117331778
 20
3247.450126950232
 30
0.0
 41
18.0
 42
18.0
 43
18.0
  0
MTEXT
  5
185E
330
1856
100
AcDbEntity
  8
DIM
  6
Continuous
 62
     0
100
AcDbMText
 10
1142.450147849358
 20
3301.450126950232
 30
0.0
 40
48.0
 41
0.0
 46
0.0
 71
     5
 72
     1
  1
\A1;750
  7
ＭＳ ゴシック
 73
     1
 44
1.0
  0
POINT
  5
185F
330
1856
100
AcDbEntity
  8
Defpoints
 62
     0
100
AcDbPoint
 10
767.4501783669375
 20
2862.943375555779
 30
0.0
  0
POINT
  5
1860
330
1856
100
AcDbEntity
  8
Defpoints
 62
     0
100
AcDbPoint
 10
1517.450117331778
 20
2862.943375555779
 30
0.0
  0
POINT
  5
1861
330
1856
100
AcDbEntity
  8
Defpoints
 62
     0
100
AcDbPoint
 10
1517.450117331778
 20
3247.450126950232
 30
0.0
  0
ENDBLK
  5
1858
330
1856
100
AcDbEntity
  8
0
100
AcDbBlockEnd
  0
BLOCK
  5
1863
330
1862
100
AcDbEntity
  8
0
100
AcDbBlockBegin
  2
*D7
 70
     1
 10
0.0
 20
0.0
 30
0.0
  3
*D7
  1
*D133
  0
LINE
  5
1865
330
1862
100
AcDbEntity
  8
DIM
 62
     0
370
    -2
100
AcDbLine
 10
711.8865164798726
 20
1178.376474157626
 30
0.0
 11
416.6564785055928
 21
1178.376474157626
 31
0.0
  0
LINE
  5
1866
330
1862
100
AcDbEntity
  8
DIM
 62
     0
370
    -2
100
AcDbLine
 10
732.9756775255873
 20
2878.376271978718
 30
0.0
 11
416.656478505594
 21
2878.376271978718
 31
0.0
  0
LINE
  5
1867
330
1862
100
AcDbEntity
  8
DIM
 62
     0
370
    -2
100
AcDbLine
 10
416.6564785055928
 20
1196.376474157626
 30
0.0
 11
416.656478505594
 21
2860.376271978718
 31
0.0
  0
INSERT
  5
1868
330
1862
100
AcDbEntity
  8
DIM
 62
     0
370
    -2
100
AcDbBlockReference
  2
_DOT
 10
416.6564785055928
 20
1178.376474157626
 30
0.0
 41
18.0
 42
18.0
 43
18.0
 50
269.9999999999999
  0
INSERT
  5
1869
330
1862
100
AcDbEntity
  8
DIM
 62
     0
370
    -2
100
AcDbBlockReference
  2
_DOT
 10
416.656478505594
 20
2878.376271978718
 30
0.0
 41
18.0
 42
18.0
 43
18.0
 50
89.99999999999996
  0
MTEXT
  5
186A
330
1862
100
AcDbEntity
  8
DIM
  6
Continuous
 62
     0
100
AcDbMText
 10
362.6564785055934
 20
2028.376373068172
 30
0.0
 40
48.0
 41
0.0
 46
0.0
 71
     5
 72
     1
  1
\A1;1700
  7
ＭＳ ゴシック
 11
7.356208021557568E-16
 21
1.0
 31
0.0
 73
     1
 44
1.0
  0
POINT
  5
186B
330
1862
100
AcDbEntity
  8
Defpoints
 62
     0
100
AcDbPoint
 10
771.8865164798726
 20
1178.376474157626
 30
0.0
  0
POINT
  5
186C
330
1862
100
AcDbEntity
  8
Defpoints
 62
     0
100
AcDbPoint
 10
792.9756775255873
 20
2878.376271978718
 30
0.0
  0
POINT
  5
186D
330
1862
100
AcDbEntity
  8
Defpoints
 62
     0
100
AcDbPoint
 10
416.6564785055939
 20
2878.376271978718
 30
0.0
  0
ENDBLK
  5
1864
330
1862
100
AcDbEntity
  8
0
100
AcDbBlockEnd
  0
BLOCK
  5
186F
330
186E
100
AcDbEntity
  8
0
100
AcDbBlockBegin
  2
*D8
 70
     1
 10
0.0
 20
0.0
 30
0.0
  3
*D8
  1
*D134
  0
LINE
  5
1871
330
186E
100
AcDbEntity
  8
DIM
 62
     0
370
    -2
100
AcDbLine
 10
1304.486959460041
 20
2028.37639404898
 30
0.0
 11
1798.506748638029
 21
2028.376394048979
 31
0.0
  0
LINE
  5
1872
330
186E
100
AcDbEntity
  8
DIM
 62
     0
370
    -2
100
AcDbLine
 10
1573.520430178628
 20
2878.376271978718
 30
0.0
 11
1798.506748638029
 21
2878.376271978717
 31
0.0
  0
LINE
  5
1873
330
186E
100
AcDbEntity
  8
DIM
 62
     0
370
    -2
100
AcDbLine
 10
1798.506748638029
 20
2046.376394048979
 30
0.0
 11
1798.506748638029
 21
2860.376271978717
 31
0.0
  0
INSERT
  5
1874
330
186E
100
AcDbEntity
  8
DIM
 62
     0
370
    -2
100
AcDbBlockReference
  2
_DOT
 10
1798.506748638029
 20
2028.376394048979
 30
0.0
 41
18.0
 42
18.0
 43
18.0
 50
269.9999999999999
  0
INSERT
  5
1875
330
186E
100
AcDbEntity
  8
DIM
 62
     0
370
    -2
100
AcDbBlockReference
  2
_DOT
 10
1798.506748638029
 20
2878.376271978717
 30
0.0
 41
18.0
 42
18.0
 43
18.0
 50
89.99999999999996
  0
MTEXT
  5
1876
330
186E
100
AcDbEntity
  8
DIM
  6
Continuous
 62
     0
100
AcDbMText
 10
1744.506748638029
 20
2453.376333013849
 30
0.0
 40
48.0
 41
0.0
 46
0.0
 71
     5
 72
     1
  1
\A1;850
  7
ＭＳ ゴシック
 11
8.024954403417935E-16
 21
1.0
 31
0.0
 73
     1
 44
1.0
  0
POINT
  5
1877
330
186E
100
AcDbEntity
  8
Defpoints
 62
     0
100
AcDbPoint
 10
1244.486959460041
 20
2028.37639404898
 30
0.0
  0
POINT
  5
1878
330
186E
100
AcDbEntity
  8
Defpoints
 62
     0
100
AcDbPoint
 10
1513.520430178628
 20
2878.376271978718
 30
0.0
  0
POINT
  5
1879
330
186E
100
AcDbEntity
  8
Defpoints
 62
     0
100
AcDbPoint
 10
1798.50674863803
 20
2878.376271978718
 30
0.0
  0
ENDBLK
  5
1870
330
186E
100
AcDbEntity
  8
0
100
AcDbBlockEnd
  0
BLOCK
  5
188F
330
188E
100
AcDbEntity
  8
0
100
AcDbBlockBegin
  2
*D9
 70
     1
 10
0.0
 20
0.0
 30
0.0
  3
*D9
  1
*D136
  0
LINE
  5
1891
330
188E
100
AcDbEntity
  8
DIM
 62
     0
370
    -2
100
AcDbLine
 10
2663.977432883125
 20
1258.37639404898
 30
0.0
 11
2407.657228230391
 21
1258.37639404898
 31
0.0
  0
LINE
  5
1892
330
188E
100
AcDbEntity
  8
DIM
 62
     0
370
    -2
100
AcDbLine
 10
2663.977380204123
 20
2798.37639404898
 30
0.0
 11
2407.657228230391
 21
2798.37639404898
 31
0.0
  0
LINE
  5
1893
330
188E
100
AcDbEntity
  8
DIM
 62
     0
370
    -2
100
AcDbLine
 10
2407.657228230391
 20
1276.37639404898
 30
0.0
 11
2407.657228230391
 21
2780.37639404898
 31
0.0
  0
INSERT
  5
1894
330
188E
100
AcDbEntity
  8
DIM
 62
     0
370
    -2
100
AcDbBlockReference
  2
_DOT
 10
2407.657228230391
 20
1258.37639404898
 30
0.0
 41
18.0
 42
18.0
 43
18.0
 50
269.9999999999999
  0
INSERT
  5
1895
330
188E
100
AcDbEntity
  8
DIM
 62
     0
370
    -2
100
AcDbBlockReference
  2
_DOT
 10
2407.657228230391
 20
2798.37639404898
 30
0.0
 41
18.0
 42
18.0
 43
18.0
 50
89.99999999999996
  0
MTEXT
  5
1896
330
188E
100
AcDbEntity
  8
DIM
  6
Continuous
 62
     0
100
AcDbMText
 10
2353.657228230391
 20
2028.37639404898
 30
0.0
 40
48.0
 41
0.0
 46
0.0
 71
     5
 72
     1
  1
\A1;1540
  7
ＭＳ ゴシック
 11
5.905809751772260E-16
 21
1.0
 31
0.0
 73
     1
 44
1.0
  0
POINT
  5
1897
330
188E
100
AcDbEntity
  8
Defpoints
 62
     0
100
AcDbPoint
 10
2723.977432883125
 20
1258.37639404898
 30
0.0
  0
POINT
  5
1898
330
188E
100
AcDbEntity
  8
Defpoints
 62
     0
100
AcDbPoint
 10
2723.977380204123
 20
2798.37639404898
 30
0.0
  0
POINT
  5
1899
330
188E
100
AcDbEntity
  8
Defpoints
 62
     0
100
AcDbPoint
 10
2407.657228230391
 20
2798.37639404898
 30
0.0
  0
ENDBLK
  5
1890
330
188E
100
AcDbEntity
  8
0
100
AcDbBlockEnd
  0
BLOCK
  5
189B
330
189A
100
AcDbEntity
  8
0
100
AcDbBlockBegin
  2
*D10
 70
     1
 10
0.0
 20
0.0
 30
0.0
  3
*D10
  1
*D137
  0
LINE
  5
189D
330
189A
100
AcDbEntity
  8
DIM
 62
     0
370
    -2
100
AcDbLine
 10
2877.511851274175
 20
1488.376373068168
 30
0.0
 11
2559.578552733948
 21
1488.376373068168
 31
0.0
  0
LINE
  5
189E
330
189A
100
AcDbEntity
  8
DIM
 62
     0
370
    -2
100
AcDbLine
 10
2877.511851274176
 20
2568.376373068168
 30
0.0
 11
2559.578552733949
 21
2568.376373068168
 31
0.0
  0
LINE
  5
189F
330
189A
100
AcDbEntity
  8
DIM
 62
     0
370
    -2
100
AcDbLine
 10
2559.578552733948
 20
1506.376373068168
 30
0.0
 11
2559.578552733949
 21
2550.376373068168
 31
0.0
  0
INSERT
  5
18A0
330
189A
100
AcDbEntity
  8
DIM
 62
     0
370
    -2
100
AcDbBlockReference
  2
_DOT
 10
2559.578552733948
 20
1488.376373068168
 30
0.0
 41
18.0
 42
18.0
 43
18.0
 50
269.9999999999999
  0
INSERT
  5
18A1
330
189A
100
AcDbEntity
  8
DIM
 62
     0
370
    -2
100
AcDbBlockReference
  2
_DOT
 10
2559.578552733949
 20
2568.376373068168
 30
0.0
 41
18.0
 42
18.0
 43
18.0
 50
89.99999999999994
  0
MTEXT
  5
18A2
330
189A
100
AcDbEntity
  8
DIM
  6
Continuous
 62
     0
100
AcDbMText
 10
2505.578552733949
 20
2028.376373068168
 30
0.0
 40
48.0
 41
0.0
 46
0.0
 71
     5
 72
     1
  1
\A1;1080
  7
ＭＳ ゴシック
 11
8.421247238638225E-16
 21
1.0
 31
0.0
 73
     1
 44
1.0
  0
POINT
  5
18A3
330
189A
100
AcDbEntity
  8
Defpoints
 62
     0
100
AcDbPoint
 10
2937.511851274175
 20
1488.376373068168
 30
0.0
  0
POINT
  5
18A4
330
189A
100
AcDbEntity
  8
Defpoints
 62
     0
100
AcDbPoint
 10
2937.511851274176
 20
2568.376373068168
 30
0.0
  0
POINT
  5
18A5
330
189A
100
AcDbEntity
  8
Defpoints
 62
     0
100
AcDbPoint
 10
2559.578552733949
 20
2568.376373068168
 30
0.0
  0
ENDBLK
  5
189C
330
189A
100
AcDbEntity
  8
0
100
AcDbBlockEnd
  0
BLOCK
  5
18A7
330
18A6
100
AcDbEntity
  8
0
100
AcDbBlockBegin
  2
*D11
 70
     1
 10
0.0
 20
0.0
 30
0.0
  3
*D11
  1
*D138
  0
LINE
  5
18A9
330
18A6
100
AcDbEntity
  8
DIM
 62
     0
370
    -2
100
AcDbLine
 10
2726.074351218967
 20
2002.376376882864
 30
0.0
 11
2672.901272995677
 21
2002.376376882864
 31
0.0
  0
LINE
  5
18AA
330
18A6
100
AcDbEntity
  8
DIM
 62
     0
370
    -2
100
AcDbLine
 10
2726.074351218967
 20
2054.376369253471
 30
0.0
 11
2672.901272995677
 21
2054.376369253471
 31
0.0
  0
LINE
  5
18AB
330
18A6
100
AcDbEntity
  8
DIM
 62
     0
370
    -2
100
AcDbLine
 10
2672.901272995677
 20
2020.376376882864
 30
0.0
 11
2672.901272995677
 21
2036.376369253471
 31
0.0
  0
INSERT
  5
18AC
330
18A6
100
AcDbEntity
  8
DIM
 62
     0
370
    -2
100
AcDbBlockReference
  2
_DOT
 10
2672.901272995677
 20
2002.376376882864
 30
0.0
 41
18.0
 42
18.0
 43
18.0
 50
270.0
  0
INSERT
  5
18AD
330
18A6
100
AcDbEntity
  8
DIM
 62
     0
370
    -2
100
AcDbBlockReference
  2
_DOT
 10
2672.901272995677
 20
2054.376369253471
 30
0.0
 41
18.0
 42
18.0
 43
18.0
 50
90.0
  0
MTEXT
  5
18AE
330
18A6
100
AcDbEntity
  8
DIM
  6
Continuous
 62
     0
100
AcDbMText
 10
2618.661272995677
 20
2028.376373068166
 30
0.0
 40
48.0
 41
0.0
 46
0.0
 71
     5
 72
     1
  1
\A1;%%c52
  7
ＭＳ ゴシック
 11
0.0
 21
1.0
 31
0.0
 73
     1
 44
1.0
  0
POINT
  5
18AF
330
18A6
100
AcDbEntity
  8
Defpoints
 62
     0
100
AcDbPoint
 10
2786.074351218967
 20
2002.376376882864
 30
0.0
  0
POINT
  5
18B0
330
18A6
100
AcDbEntity
  8
Defpoints
 62
     0
100
AcDbPoint
 10
2786.074351218967
 20
2054.376369253471
 30
0.0
  0
POINT
  5
18B1
330
18A6
100
AcDbEntity
  8
Defpoints
 62
     0
100
AcDbPoint
 10
2672.901272995677
 20
2054.376369253471
 30
0.0
  0
ENDBLK
  5
18A8
330
18A6
100
AcDbEntity
  8
0
100
AcDbBlockEnd
  0
BLOCK
  5
18B3
330
18B2
100
AcDbEntity
  8
0
100
AcDbBlockBegin
  2
*D12
 70
     1
 10
0.0
 20
0.0
 30
0.0
  3
*D12
  1
*D139
  0
LINE
  5
18B5
330
18B2
100
AcDbEntity
  8
DIM
 62
     0
370
    -2
100
AcDbLine
 10
2716.088735495407
 20
2923.521451721357
 30
0.0
 11
2716.088735495407
 21
3324.533907357787
 31
0.0
  0
LINE
  5
18B6
330
18B2
100
AcDbEntity
  8
DIM
 62
     0
370
    -2
100
AcDbLine
 10
3326.088733588061
 20
2938.521451721357
 30
0.0
 11
3326.088733588061
 21
3324.533907357787
 31
0.0
  0
LINE
  5
18B7
330
18B2
100
AcDbEntity
  8
DIM
 62
     0
370
    -2
100
AcDbLine
 10
2734.088735495407
 20
3324.533907357787
 30
0.0
 11
3308.088733588061
 21
3324.533907357787
 31
0.0
  0
INSERT
  5
18B8
330
18B2
100
AcDbEntity
  8
DIM
 62
     0
370
    -2
100
AcDbBlockReference
  2
_DOT
 10
2716.088735495407
 20
3324.533907357787
 30
0.0
 41
18.0
 42
18.0
 43
18.0
 50
180.0
  0
INSERT
  5
18B9
330
18B2
100
AcDbEntity
  8
DIM
 62
     0
370
    -2
100
AcDbBlockReference
  2
_DOT
 10
3326.088733588061
 20
3324.533907357787
 30
0.0
 41
18.0
 42
18.0
 43
18.0
  0
MTEXT
  5
18BA
330
18B2
100
AcDbEntity
  8
DIM
  6
Continuous
 62
     0
100
AcDbMText
 10
3021.074352172643
 20
3378.533907357787
 30
0.0
 40
48.0
 41
0.0
 46
0.0
 71
     5
 72
     1
  1
\A1;610
  7
ＭＳ ゴシック
 73
     1
 44
1.0
  0
POINT
  5
18BB
330
18B2
100
AcDbEntity
  8
Defpoints
 62
     0
100
AcDbPoint
 10
2716.088735495407
 20
2863.521451721357
 30
0.0
  0
POINT
  5
18BC
330
18B2
100
AcDbEntity
  8
Defpoints
 62
     0
100
AcDbPoint
 10
3326.088733588061
 20
2878.521451721357
 30
0.0
  0
POINT
  5
18BD
330
18B2
100
AcDbEntity
  8
Defpoints
 62
     0
100
AcDbPoint
 10
3326.088733588061
 20
3324.533907357787
 30
0.0
  0
ENDBLK
  5
18B4
330
18B2
100
AcDbEntity
  8
0
100
AcDbBlockEnd
  0
BLOCK
  5
18CB
330
18CA
100
AcDbEntity
  8
0
100
AcDbBlockBegin
  2
*D13
 70
     1
 10
0.0
 20
0.0
 30
0.0
  3
*D13
  1
*D141
  0
LINE
  5
18CD
330
18CA
100
AcDbEntity
  8
DIM
 62
     0
370
    -2
100
AcDbLine
 10
3386.074351218967
 20
1178.376394048978
 30
0.0
 11
3544.685500398225
 21
1178.376394048978
 31
0.0
  0
LINE
  5
18CE
330
18CA
100
AcDbEntity
  8
DIM
 62
     0
370
    -2
100
AcDbLine
 10
3386.074351218967
 20
2878.37639404899
 30
0.0
 11
3544.685500398226
 21
2878.37639404899
 31
0.0
  0
LINE
  5
18CF
330
18CA
100
AcDbEntity
  8
DIM
 62
     0
370
    -2
100
AcDbLine
 10
3544.685500398225
 20
1196.376394048978
 30
0.0
 11
3544.685500398226
 21
2860.37639404899
 31
0.0
  0
INSERT
  5
18D0
330
18CA
100
AcDbEntity
  8
DIM
 62
     0
370
    -2
100
AcDbBlockReference
  2
_DOT
 10
3544.685500398225
 20
1178.376394048978
 30
0.0
 41
18.0
 42
18.0
 43
18.0
 50
269.9999999999999
  0
INSERT
  5
18D1
330
18CA
100
AcDbEntity
  8
DIM
 62
     0
370
    -2
100
AcDbBlockReference
  2
_DOT
 10
3544.685500398226
 20
2878.37639404899
 30
0.0
 41
18.0
 42
18.0
 43
18.0
 50
89.99999999999996
  0
MTEXT
  5
18D2
330
18CA
100
AcDbEntity
  8
DIM
  6
Continuous
 62
     0
100
AcDbMText
 10
3490.685500398225
 20
2028.376394048984
 30
0.0
 40
48.0
 41
0.0
 46
0.0
 71
     5
 72
     1
  1
\A1;1700
  7
ＭＳ ゴシック
 11
8.024953250937544E-16
 21
1.0
 31
0.0
 73
     1
 44
1.0
  0
POINT
  5
18D3
330
18CA
100
AcDbEntity
  8
Defpoints
 62
     0
100
AcDbPoint
 10
3326.074351218967
 20
1178.376394048978
 30
0.0
  0
POINT
  5
18D4
330
18CA
100
AcDbEntity
  8
Defpoints
 62
     0
100
AcDbPoint
 10
3326.074351218967
 20
2878.37639404899
 30
0.0
  0
POINT
  5
18D5
330
18CA
100
AcDbEntity
  8
Defpoints
 62
     0
100
AcDbPoint
 10
3544.685500398226
 20
2878.37639404899
 30
0.0
  0
ENDBLK
  5
18CC
330
18CA
100
AcDbEntity
  8
0
100
AcDbBlockEnd
  0
BLOCK
  5
18D7
330
18D6
100
AcDbEntity
  8
0
100
AcDbBlockBegin
  2
*D14
 70
     1
 10
0.0
 20
0.0
 30
0.0
  3
*D14
  1
*D142
  0
LINE
  5
18D9
330
18D6
100
AcDbEntity
  8
DIM
 62
     0
370
    -2
100
AcDbLine
 10
2812.07446756722
 20
2088.376373068168
 30
0.0
 11
2812.07446756722
 21
2198.450923406276
 31
0.0
  0
LINE
  5
18DA
330
18D6
100
AcDbEntity
  8
DIM
 62
     0
370
    -2
100
AcDbLine
 10
2716.074471381919
 20
2088.37635018001
 30
0.0
 11
2716.074471381919
 21
2198.450923406276
 31
0.0
  0
LINE
  5
18DB
330
18D6
100
AcDbEntity
  8
DIM
 62
     0
370
    -2
100
AcDbLine
 10
2812.07446756722
 20
2198.450923406276
 30
0.0
 11
3108.66646756722
 21
2198.450923406276
 31
0.0
  0
LINE
  5
18DC
330
18D6
100
AcDbEntity
  8
DIM
 62
     0
370
    -2
100
AcDbLine
 10
2794.07446756722
 20
2198.450923406276
 30
0.0
 11
2734.074471381919
 21
2198.450923406276
 31
0.0
  0
INSERT
  5
18DD
330
18D6
100
AcDbEntity
  8
DIM
 62
     0
370
    -2
100
AcDbBlockReference
  2
_DOT
 10
2812.07446756722
 20
2198.450923406276
 30
0.0
 41
18.0
 42
18.0
 43
18.0
  0
INSERT
  5
18DE
330
18D6
100
AcDbEntity
  8
DIM
 62
     0
370
    -2
100
AcDbBlockReference
  2
_DOT
 10
2716.074471381919
 20
2198.450923406276
 30
0.0
 41
18.0
 42
18.0
 43
18.0
 50
180.0
  0
MTEXT
  5
18DF
330
18D6
100
AcDbEntity
  8
DIM
  6
Continuous
 62
     0
100
AcDbMText
 10
2978.37046756722
 20
2256.458923406276
 30
0.0
 40
48.0
 41
0.0
 46
0.0
 71
     5
 72
     1
  1
\A1;93(※1)
  7
ＭＳ ゴシック
 73
     1
 44
1.0
  0
POINT
  5
18E0
330
18D6
100
AcDbEntity
  8
Defpoints
 62
     0
100
AcDbPoint
 10
2812.07446756722
 20
2028.376373068168
 30
0.0
  0
POINT
  5
18E1
330
18D6
100
AcDbEntity
  8
Defpoints
 62
     0
100
AcDbPoint
 10
2716.074471381919
 20
2028.37635018001
 30
0.0
  0
POINT
  5
18E2
330
18D6
100
AcDbEntity
  8
Defpoints
 62
     0
100
AcDbPoint
 10
2716.074471381919
 20
2198.450923406276
 30
0.0
  0
ENDBLK
  5
18D8
330
18D6
100
AcDbEntity
  8
0
100
AcDbBlockEnd
  0
BLOCK
  5
18E7
330
18E6
100
AcDbEntity
  8
0
100
AcDbBlockBegin
  2
*D15
 70
     1
 10
0.0
 20
0.0
 30
0.0
  3
*D15
  1
*D143
  0
LINE
  5
18E9
330
18E6
100
AcDbEntity
  8
DIM
 62
     0
370
    -2
100
AcDbLine
 10
3386.074351218967
 20
4279.096733603117
 30
0.0
 11
3544.685500398228
 21
4279.096733603117
 31
0.0
  0
LINE
  5
18EA
330
18E6
100
AcDbEntity
  8
DIM
 62
     0
370
    -2
100
AcDbLine
 10
3386.074351218967
 20
5029.096733603117
 30
0.0
 11
3544.685500398228
 21
5029.096733603117
 31
0.0
  0
LINE
  5
18EB
330
18E6
100
AcDbEntity
  8
DIM
 62
     0
370
    -2
100
AcDbLine
 10
3544.685500398228
 20
4297.096733603117
 30
0.0
 11
3544.685500398228
 21
5011.096733603117
 31
0.0
  0
INSERT
  5
18EC
330
18E6
100
AcDbEntity
  8
DIM
 62
     0
370
    -2
100
AcDbBlockReference
  2
_DOT
 10
3544.685500398228
 20
4279.096733603117
 30
0.0
 41
18.0
 42
18.0
 43
18.0
 50
269.9999999999999
  0
INSERT
  5
18ED
330
18E6
100
AcDbEntity
  8
DIM
 62
     0
370
    -2
100
AcDbBlockReference
  2
_DOT
 10
3544.685500398228
 20
5029.096733603117
 30
0.0
 41
18.0
 42
18.0
 43
18.0
 50
89.99999999999996
  0
MTEXT
  5
18EE
330
18E6
100
AcDbEntity
  8
DIM
  6
Continuous
 62
     0
100
AcDbMText
 10
3490.685500398228
 20
4654.096733603117
 30
0.0
 40
48.0
 41
0.0
 46
0.0
 71
     5
 72
     1
  1
\A1;750
  7
ＭＳ ゴシック
 11
6.063298011819521E-16
 21
1.0
 31
0.0
 73
     1
 44
1.0
  0
POINT
  5
18EF
330
18E6
100
AcDbEntity
  8
Defpoints
 62
     0
100
AcDbPoint
 10
3326.074351218967
 20
4279.096733603117
 30
0.0
  0
POINT
  5
18F0
330
18E6
100
AcDbEntity
  8
Defpoints
 62
     0
100
AcDbPoint
 10
3326.074351218967
 20
5029.096733603117
 30
0.0
  0
POINT
  5
18F1
330
18E6
100
AcDbEntity
  8
Defpoints
 62
     0
100
AcDbPoint
 10
3544.685500398228
 20
5029.096733603117
 30
0.0
  0
ENDBLK
  5
18E8
330
18E6
100
AcDbEntity
  8
0
100
AcDbBlockEnd
  0
BLOCK
  5
18F3
330
18F2
100
AcDbEntity
  8
0
100
AcDbBlockBegin
  2
*D16
 70
     1
 10
0.0
 20
0.0
 30
0.0
  3
*D16
  1
*D144
  0
LINE
  5
18F5
330
18F2
100
AcDbEntity
  8
DIM
 62
     0
370
    -2
100
AcDbLine
 10
2691.66133734505
 20
4349.096733603117
 30
0.0
 11
2424.149240778359
 21
4349.096733603117
 31
0.0
  0
LINE
  5
18F6
330
18F2
100
AcDbEntity
  8
DIM
 62
     0
370
    -2
100
AcDbLine
 10
2691.661337345052
 20
4959.096733603117
 30
0.0
 11
2424.14924077836
 21
4959.096733603117
 31
0.0
  0
LINE
  5
18F7
330
18F2
100
AcDbEntity
  8
DIM
 62
     0
370
    -2
100
AcDbLine
 10
2424.149240778359
 20
4367.096733603117
 30
0.0
 11
2424.14924077836
 21
4941.096733603117
 31
0.0
  0
INSERT
  5
18F8
330
18F2
100
AcDbEntity
  8
DIM
 62
     0
370
    -2
100
AcDbBlockReference
  2
_DOT
 10
2424.149240778359
 20
4349.096733603117
 30
0.0
 41
18.0
 42
18.0
 43
18.0
 50
269.9999999999999
  0
INSERT
  5
18F9
330
18F2
100
AcDbEntity
  8
DIM
 62
     0
370
    -2
100
AcDbBlockReference
  2
_DOT
 10
2424.14924077836
 20
4959.096733603117
 30
0.0
 41
18.0
 42
18.0
 43
18.0
 50
89.99999999999996
  0
MTEXT
  5
18FA
330
18F2
100
AcDbEntity
  8
DIM
  6
Continuous
 62
     0
100
AcDbMText
 10
2370.14924077836
 20
4654.096733603117
 30
0.0
 40
48.0
 41
0.0
 46
0.0
 71
     5
 72
     1
  1
\A1;610
  7
ＭＳ ゴシック
 11
7.454874604696133E-16
 21
1.0
 31
0.0
 73
     1
 44
1.0
  0
POINT
  5
18FB
330
18F2
100
AcDbEntity
  8
Defpoints
 62
     0
100
AcDbPoint
 10
2716.66133734505
 20
4349.096733603117
 30
0.0
  0
POINT
  5
18FC
330
18F2
100
AcDbEntity
  8
Defpoints
 62
     0
100
AcDbPoint
 10
2716.661337345052
 20
4959.096733603117
 30
0.0
  0
POINT
  5
18FD
330
18F2
100
AcDbEntity
  8
Defpoints
 62
     0
100
AcDbPoint
 10
2424.14924077836
 20
4959.096733603117
 30
0.0
  0
ENDBLK
  5
18F4
330
18F2
100
AcDbEntity
  8
0
100
AcDbBlockEnd
  0
BLOCK
  5
190C
330
190B
100
AcDbEntity
  8
0
100
AcDbBlockBegin
  2
*D17
 70
     1
 10
0.0
 20
0.0
 30
0.0
  3
*D17
  1
*D146
  0
LINE
  5
190E
330
190B
100
AcDbEntity
  8
DIM
  6
Continuous
 62
     0
370
    -2
100
AcDbLine
 10
1097.662288837985
 20
1968.163026324178
 30
0.0
 11
1097.662288837985
 21
1898.798744457777
 31
0.0
  0
LINE
  5
190F
330
190B
100
AcDbEntity
  8
DIM
  6
Continuous
 62
     0
370
    -2
100
AcDbLine
 10
1187.662288837985
 20
1968.163026324178
 30
0.0
 11
1187.662288837985
 21
1898.798744457777
 31
0.0
  0
LINE
  5
1910
330
190B
100
AcDbEntity
  8
DIM
  6
Continuous
 62
     0
370
    -2
100
AcDbLine
 10
1115.662288837985
 20
1898.798744457777
 30
0.0
 11
1169.662288837985
 21
1898.798744457777
 31
0.0
  0
INSERT
  5
1911
330
190B
100
AcDbEntity
  8
DIM
 62
     0
370
    -2
100
AcDbBlockReference
  2
_DOT
 10
1097.662288837985
 20
1898.798744457777
 30
0.0
 41
18.0
 42
18.0
 43
18.0
 50
180.0
  0
INSERT
  5
1912
330
190B
100
AcDbEntity
  8
DIM
 62
     0
370
    -2
100
AcDbBlockReference
  2
_DOT
 10
1187.662288837985
 20
1898.798744457777
 30
0.0
 41
18.0
 42
18.0
 43
18.0
  0
MTEXT
  5
1913
330
190B
100
AcDbEntity
  8
DIM
  6
Continuous
 62
     0
370
     0
100
AcDbMText
 10
1142.450178366934
 20
1844.558744457777
 30
0.0
 40
48.0
 41
0.0
 46
0.0
 71
     5
 72
     1
  1
\A1;%%c90
  7
ＭＳ ゴシック
 73
     1
 44
1.0
  0
POINT
  5
1914
330
190B
100
AcDbEntity
  8
Defpoints
 62
     0
100
AcDbPoint
 10
1097.662288837985
 20
2028.163026324178
 30
0.0
  0
POINT
  5
1915
330
190B
100
AcDbEntity
  8
Defpoints
 62
     0
100
AcDbPoint
 10
1187.662288837985
 20
2028.163026324178
 30
0.0
  0
POINT
  5
1916
330
190B
100
AcDbEntity
  8
Defpoints
 62
     0
100
AcDbPoint
 10
1187.662288837985
 20
1898.798744457777
 30
0.0
  0
ENDBLK
  5
190D
330
190B
100
AcDbEntity
  8
0
100
AcDbBlockEnd
  0
BLOCK
  5
192C
330
192B
100
AcDbEntity
  8
0
100
AcDbBlockBegin
  2
*D18
 70
     1
 10
0.0
 20
0.0
 30
0.0
  3
*D18
  1
*D148
  0
LINE
  5
192E
330
192B
100
AcDbEntity
  8
DIM
  6
Continuous
 62
     0
370
    -2
100
AcDbLine
 10
2716.074351218967
 20
2932.37639404899
 30
0.0
 11
2716.074351218967
 21
3126.600071792872
 31
0.0
  0
LINE
  5
192F
330
192B
100
AcDbEntity
  8
DIM
  6
Continuous
 62
     0
370
    -2
100
AcDbLine
 10
3131.074351218967
 20
2618.776601741537
 30
0.0
 11
3131.074351218967
 21
3126.600071792872
 31
0.0
  0
LINE
  5
1930
330
192B
100
AcDbEntity
  8
DIM
  6
Continuous
 62
     0
370
    -2
100
AcDbLine
 10
2734.074351218967
 20
3126.600071792872
 30
0.0
 11
3113.074351218967
 21
3126.600071792872
 31
0.0
  0
INSERT
  5
1931
330
192B
100
AcDbEntity
  8
DIM
 62
     0
370
    -2
100
AcDbBlockReference
  2
_DOT
 10
2716.074351218967
 20
3126.600071792872
 30
0.0
 41
18.0
 42
18.0
 43
18.0
 50
180.0
  0
INSERT
  5
1932
330
192B
100
AcDbEntity
  8
DIM
 62
     0
370
    -2
100
AcDbBlockReference
  2
_DOT
 10
3131.074351218967
 20
3126.600071792872
 30
0.0
 41
18.0
 42
18.0
 43
18.0
  0
MTEXT
  5
1933
330
192B
100
AcDbEntity
  8
DIM
  6
Continuous
 62
     0
370
     0
100
AcDbMText
 10
2923.574351218967
 20
3180.600071792872
 30
0.0
 40
48.0
 41
0.0
 46
0.0
 71
     5
 72
     1
  1
\A1;415
  7
ＭＳ ゴシック
 73
     1
 44
1.0
  0
POINT
  5
1934
330
192B
100
AcDbEntity
  8
Defpoints
 62
     0
100
AcDbPoint
 10
2716.074351218967
 20
2872.37639404899
 30
0.0
  0
POINT
  5
1935
330
192B
100
AcDbEntity
  8
Defpoints
 62
     0
100
AcDbPoint
 10
3131.074351218967
 20
2558.776601741537
 30
0.0
  0
POINT
  5
1936
330
192B
100
AcDbEntity
  8
Defpoints
 62
     0
100
AcDbPoint
 10
3131.074351218967
 20
3126.600071792872
 30
0.0
  0
ENDBLK
  5
192D
330
192B
100
AcDbEntity
  8
0
100
AcDbBlockEnd
  0
BLOCK
  5
1939
330
1938
100
AcDbEntity
  8
0
100
AcDbBlockBegin
  2
*D19
 70
     1
 10
0.0
 20
0.0
 30
0.0
  3
*D19
  1
*D149
  0
LINE
  5
193B
330
1938
100
AcDbEntity
  8
DIM
  6
Continuous
 62
     0
370
    -2
100
AcDbLine
 10
2865.050043203628
 20
4419.096733603117
 30
0.0
 11
2580.000207301839
 21
4419.096733603117
 31
0.0
  0
LINE
  5
193C
330
1938
100
AcDbEntity
  8
DIM
  6
Continuous
 62
     0
370
    -2
100
AcDbLine
 10
2865.050043203628
 20
4889.096733603117
 30
0.0
 11
2580.000207301839
 21
4889.096733603117
 31
0.0
  0
LINE
  5
193D
330
1938
100
AcDbEntity
  8
DIM
  6
Continuous
 62
     0
370
    -2
100
AcDbLine
 10
2580.000207301839
 20
4437.096733603117
 30
0.0
 11
2580.000207301839
 21
4871.096733603117
 31
0.0
  0
INSERT
  5
193E
330
1938
100
AcDbEntity
  8
DIM
 62
     0
370
    -2
100
AcDbBlockReference
  2
_DOT
 10
2580.000207301839
 20
4419.096733603117
 30
0.0
 41
18.0
 42
18.0
 43
18.0
 50
270.0
  0
INSERT
  5
193F
330
1938
100
AcDbEntity
  8
DIM
 62
     0
370
    -2
100
AcDbBlockReference
  2
_DOT
 10
2580.000207301839
 20
4889.096733603117
 30
0.0
 41
18.0
 42
18.0
 43
18.0
 50
90.0
  0
MTEXT
  5
1940
330
1938
100
AcDbEntity
  8
DIM
  6
Continuous
 62
     0
370
     0
100
AcDbMText
 10
2526.000207301839
 20
4654.096733603117
 30
0.0
 40
48.0
 41
0.0
 46
0.0
 71
     5
 72
     1
  1
\A1;470
  7
ＭＳ ゴシック
 11
0.0
 21
1.0
 31
0.0
 73
     1
 44
1.0
  0
POINT
  5
1941
330
1938
100
AcDbEntity
  8
Defpoints
 62
     0
100
AcDbPoint
 10
2890.050043203628
 20
4419.096733603117
 30
0.0
  0
POINT
  5
1942
330
1938
100
AcDbEntity
  8
Defpoints
 62
     0
100
AcDbPoint
 10
2890.050043203628
 20
4889.096733603117
 30
0.0
  0
POINT
  5
1943
330
1938
100
AcDbEntity
  8
Defpoints
 62
     0
100
AcDbPoint
 10
2580.000207301839
 20
4889.096733603117
 30
0.0
  0
ENDBLK
  5
193A
330
1938
100
AcDbEntity
  8
0
100
AcDbBlockEnd
  0
BLOCK
  5
1977
330
1976
100
AcDbEntity
  8
0
100
AcDbBlockBegin
  2
*D20
 70
     1
 10
0.0
 20
0.0
 30
0.0
  3
*D20
  1
*D20
  0
LINE
  5
1979
330
1976
100
AcDbEntity
  8
DIM
  6
Continuous
 62
     0
370
    -2
100
AcDbLine
 10
2716.074351218967
 20
5048.096733603117
 30
0.0
 11
2716.074351218967
 21
5197.28412158372
 31
0.0
  0
LINE
  5
197A
330
1976
100
AcDbEntity
  8
DIM
  6
Continuous
 62
     0
370
    -2
100
AcDbLine
 10
3156.074351218967
 20
4789.513894719612
 30
0.0
 11
3156.074351218967
 21
5197.28412158372
 31
0.0
  0
LINE
  5
197B
330
1976
100
AcDbEntity
  8
DIM
  6
Continuous
 62
     0
370
    -2
100
AcDbLine
 10
2734.074351218967
 20
5197.28412158372
 30
0.0
 11
3138.074351218967
 21
5197.28412158372
 31
0.0
  0
INSERT
  5
197C
330
1976
100
AcDbEntity
  8
DIM
 62
     0
370
    -2
100
AcDbBlockReference
  2
_DOT
 10
2716.074351218967
 20
5197.28412158372
 30
0.0
 41
18.0
 42
18.0
 43
18.0
 50
180.0
  0
INSERT
  5
197D
330
1976
100
AcDbEntity
  8
DIM
 62
     0
370
    -2
100
AcDbBlockReference
  2
_DOT
 10
3156.074351218967
 20
5197.28412158372
 30
0.0
 41
18.0
 42
18.0
 43
18.0
  0
MTEXT
  5
197E
330
1976
100
AcDbEntity
  8
DIM
  6
Continuous
 62
     0
100
AcDbMText
 10
2936.074351218967
 20
5251.28412158372
 30
0.0
 40
48.0
 41
0.0
 46
0.0
 71
     5
 72
     1
  1
\A1;440
  7
ＭＳ ゴシック
 73
     1
 44
1.0
  0
POINT
  5
197F
330
1976
100
AcDbEntity
  8
Defpoints
 62
     0
100
AcDbPoint
 10
2716.074351218967
 20
5023.096733603117
 30
0.0
  0
POINT
  5
1980
330
1976
100
AcDbEntity
  8
Defpoints
 62
     0
100
AcDbPoint
 10
3156.074351218967
 20
4764.513894719612
 30
0.0
  0
POINT
  5
1981
330
1976
100
AcDbEntity
  8
Defpoints
 62
     0
100
AcDbPoint
 10
3156.074351218967
 20
5197.28412158372
 30
0.0
  0
ENDBLK
  5
1978
330
1976
100
AcDbEntity
  8
0
100
AcDbBlockEnd
  0
BLOCK
  5
1A0D
330
1A0C
100
AcDbEntity
  8
0
100
AcDbBlockBegin
  2
*D21
 70
     1
 10
0.0
 20
0.0
 30
0.0
  3
*D21
  1
*D23
  0
LINE
  5
1A0F
330
1A0C
100
AcDbEntity
  8
DIM
  6
Continuous
 62
     0
370
    -2
100
AcDbLine
 10
1069.582990866934
 20
2326.767908282536
 30
0.0
 11
1069.582990866934
 21
2401.800488254297
 31
0.0
  0
LINE
  5
1A10
330
1A0C
100
AcDbEntity
  8
DIM
  6
Continuous
 62
     0
370
    -2
100
AcDbLine
 10
1215.313459616934
 20
2326.616052813786
 30
0.0
 11
1215.313459616934
 21
2401.800488254297
 31
0.0
  0
LINE
  5
1A11
330
1A0C
100
AcDbEntity
  8
DIM
  6
Continuous
 62
     0
370
    -2
100
AcDbLine
 10
1087.582990866934
 20
2401.800488254297
 30
0.0
 11
1197.313459616934
 21
2401.800488254297
 31
0.0
  0
INSERT
  5
1A12
330
1A0C
100
AcDbEntity
  8
DIM
 62
     0
370
    -2
100
AcDbBlockReference
  2
_DOT
 10
1069.582990866934
 20
2401.800488254297
 30
0.0
 41
18.0
 42
18.0
 43
18.0
 50
180.0
  0
INSERT
  5
1A13
330
1A0C
100
AcDbEntity
  8
DIM
 62
     0
370
    -2
100
AcDbBlockReference
  2
_DOT
 10
1215.313459616934
 20
2401.800488254297
 30
0.0
 41
18.0
 42
18.0
 43
18.0
  0
MTEXT
  5
1A14
330
1A0C
100
AcDbEntity
  8
DIM
  6
Continuous
 62
     0
100
AcDbMText
 10
1142.448225241934
 20
2455.800488254297
 30
0.0
 40
48.0
 41
0.0
 46
0.0
 71
     5
 72
     1
  1
\A1;146
  7
ＭＳ ゴシック
 73
     1
 44
1.0
  0
POINT
  5
1A15
330
1A0C
100
AcDbEntity
  8
Defpoints
 62
     0
100
AcDbPoint
 10
1069.582990866934
 20
2301.767908282536
 30
0.0
  0
POINT
  5
1A16
330
1A0C
100
AcDbEntity
  8
Defpoints
 62
     0
100
AcDbPoint
 10
1215.313459616934
 20
2301.616052813786
 30
0.0
  0
POINT
  5
1A17
330
1A0C
100
AcDbEntity
  8
Defpoints
 62
     0
100
AcDbPoint
 10
1215.313459616934
 20
2401.800488254297
 30
0.0
  0
ENDBLK
  5
1A0E
330
1A0C
100
AcDbEntity
  8
0
100
AcDbBlockEnd
  0
BLOCK
  5
1A1D
330
1A1C
100
AcDbEntity
  8
0
100
AcDbBlockBegin
  2
*D22
 70
     1
 10
0.0
 20
0.0
 30
0.0
  3
*D22
  1
*D24
  0
LINE
  5
1A1F
330
1A1C
100
AcDbEntity
  8
DIM
  6
Continuous
 62
     0
370
    -2
100
AcDbLine
 10
1081.223615866934
 20
2350.890711016906
 30
0.0
 11
1081.223615866934
 21
2415.242208438073
 31
0.0
  0
LINE
  5
1A20
330
1A1C
100
AcDbEntity
  8
DIM
  6
Continuous
 62
     0
370
    -2
100
AcDbLine
 10
1203.184553366934
 20
2355.216638751286
 30
0.0
 11
1203.184553366934
 21
2415.242208438073
 31
0.0
  0
LINE
  5
1A21
330
1A1C
100
AcDbEntity
  8
DIM
  6
Continuous
 62
     0
370
    -2
100
AcDbLine
 10
1063.223615866934
 20
2415.242208438073
 30
0.0
 11
1045.223615866934
 21
2415.242208438073
 31
0.0
  0
LINE
  5
1A22
330
1A1C
100
AcDbEntity
  8
DIM
  6
Continuous
 62
     0
370
    -2
100
AcDbLine
 10
1221.184553366934
 20
2415.242208438073
 30
0.0
 11
1239.184553366934
 21
2415.242208438073
 31
0.0
  0
INSERT
  5
1A23
330
1A1C
100
AcDbEntity
  8
DIM
 62
     0
370
    -2
100
AcDbBlockReference
  2
_DOT
 10
1081.223615866934
 20
2415.242208438073
 30
0.0
 41
18.0
 42
18.0
 43
18.0
  0
INSERT
  5
1A24
330
1A1C
100
AcDbEntity
  8
DIM
 62
     0
370
    -2
100
AcDbBlockReference
  2
_DOT
 10
1203.184553366934
 20
2415.242208438073
 30
0.0
 41
18.0
 42
18.0
 43
18.0
 50
180.0
  0
MTEXT
  5
1A25
330
1A1C
100
AcDbEntity
  8
DIM
  6
Continuous
 62
     0
100
AcDbMText
 10
1142.204084616934
 20
2469.242208438073
 30
0.0
 40
48.0
 41
0.0
 46
0.0
 71
     5
 72
     1
  1
\A1;122
  7
ＭＳ ゴシック
 73
     1
 44
1.0
  0
POINT
  5
1A26
330
1A1C
100
AcDbEntity
  8
Defpoints
 62
     0
100
AcDbPoint
 10
1081.223615866934
 20
2325.890711016906
 30
0.0
  0
POINT
  5
1A27
330
1A1C
100
AcDbEntity
  8
Defpoints
 62
     0
100
AcDbPoint
 10
1203.184553366934
 20
2330.216638751286
 30
0.0
  0
POINT
  5
1A28
330
1A1C
100
AcDbEntity
  8
Defpoints
 62
     0
100
AcDbPoint
 10
1203.184553366934
 20
2415.242208438073
 30
0.0
  0
ENDBLK
  5
1A1E
330
1A1C
100
AcDbEntity
  8
0
100
AcDbBlockEnd
  0
BLOCK
  5
1A2B
330
1A2A
100
AcDbEntity
  8
0
100
AcDbBlockBegin
  2
*D23
 70
     1
 10
0.0
 20
0.0
 30
0.0
  3
*D23
  1
*D25
  0
LINE
  5
1A2D
330
1A2A
100
AcDbEntity
  8
DIM
  6
Continuous
 62
     0
370
    -2
100
AcDbLine
 10
1081.818098503376
 20
2128.472425484688
 30
0.0
 11
1081.818098503376
 21
2203.613240853815
 31
0.0
  0
LINE
  5
1A2E
330
1A2A
100
AcDbEntity
  8
DIM
  6
Continuous
 62
     0
370
    -2
100
AcDbLine
 10
1206.818098503376
 20
2128.472425484688
 30
0.0
 11
1206.818098503376
 21
2203.613240853815
 31
0.0
  0
LINE
  5
1A2F
330
1A2A
100
AcDbEntity
  8
DIM
  6
Continuous
 62
     0
370
    -2
100
AcDbLine
 10
1099.818098503376
 20
2203.613240853815
 30
0.0
 11
1188.818098503376
 21
2203.613240853815
 31
0.0
  0
INSERT
  5
1A30
330
1A2A
100
AcDbEntity
  8
DIM
 62
     0
370
    -2
100
AcDbBlockReference
  2
_DOT
 10
1081.818098503376
 20
2203.613240853815
 30
0.0
 41
18.0
 42
18.0
 43
18.0
 50
180.0
  0
INSERT
  5
1A31
330
1A2A
100
AcDbEntity
  8
DIM
 62
     0
370
    -2
100
AcDbBlockReference
  2
_DOT
 10
1206.818098503376
 20
2203.613240853815
 30
0.0
 41
18.0
 42
18.0
 43
18.0
  0
MTEXT
  5
1A32
330
1A2A
100
AcDbEntity
  8
DIM
  6
Continuous
 62
     0
100
AcDbMText
 10
1144.318098503376
 20
2257.613240853815
 30
0.0
 40
48.0
 41
0.0
 46
0.0
 71
     5
 72
     1
  1
\A1;125
  7
ＭＳ ゴシック
 73
     1
 44
1.0
  0
POINT
  5
1A33
330
1A2A
100
AcDbEntity
  8
Defpoints
 62
     0
100
AcDbPoint
 10
1081.818098503376
 20
2103.472425484688
 30
0.0
  0
POINT
  5
1A34
330
1A2A
100
AcDbEntity
  8
Defpoints
 62
     0
100
AcDbPoint
 10
1206.818098503376
 20
2103.472425484688
 30
0.0
  0
POINT
  5
1A35
330
1A2A
100
AcDbEntity
  8
Defpoints
 62
     0
100
AcDbPoint
 10
1206.818098503376
 20
2203.613240853815
 30
0.0
  0
ENDBLK
  5
1A2C
330
1A2A
100
AcDbEntity
  8
0
100
AcDbBlockEnd
  0
BLOCK
  5
1A60
330
1A5F
100
AcDbEntity
  8
0
  6
ByBlock
 62
     0
370
    -2
390
1D
100
AcDbBlockBegin
  2
VW_FILLEDARROW
 70
     0
 10
0.0
 20
0.0
 30
0.0
  3
VW_FILLEDARROW
  1
VW_FILLEDARROW
  0
SOLID
  5
1A61
330
1A5F
100
AcDbEntity
  8
0
 62
     0
370
    -2
390
1D
100
AcDbTrace
 10
0.0
 20
0.0
 30
0.0
 11
-0.9921874999999999
 21
-0.2658558393652545
 31
0.0
 12
-0.9921874999999999
 22
0.2658558393652548
 32
0.0
 13
-0.9921874999999999
 23
0.2658558393652548
 33
0.0
  0
ENDBLK
  5
1A62
330
1A5F
100
AcDbEntity
  8
0
390
1D
100
AcDbBlockEnd
  0
BLOCK
  5
1A83
330
1A82
100
AcDbEntity
  8
notes
390
1D
100
AcDbBlockBegin
  2
グループ-13
 70
     0
 10
0.0
 20
0.0
 30
0.0
  3
グループ-13
  1
グループ-13
  0
LINE
  5
1A84
330
1A82
100
AcDbEntity
  8
0
  6
Continuous
 62
     7
370
     5
390
1D
100
AcDbLine
 10
791.8820986588491
 20
2071.028913942274
 30
0.0
 11
797.5665327402502
 21
2071.028913942274
 31
0.0
  0
LINE
  5
1A85
330
1A82
100
AcDbEntity
  8
0
  6
Continuous
 62
     7
370
     5
390
1D
100
AcDbLine
 10
787.9390880202506
 20
2061.749229058392
 30
0.0
 11
787.9390880202506
 21
2055.628913942274
 31
0.0
  0
LINE
  5
1A86
330
1A82
100
AcDbEntity
  8
0
  6
Continuous
 62
     7
370
     5
390
1D
100
AcDbLine
 10
792.9554655402504
 20
2070.829125756296
 30
0.0
 11
792.9554655402504
 21
2062.228913942275
 31
0.0
  0
LINE
  5
1A87
330
1A82
100
AcDbEntity
  8
0
  6
Continuous
 62
     7
370
     5
390
1D
100
AcDbLine
 10
750.3004598202505
 20
2066.730130842188
 30
0.0
 11
750.3004598202505
 21
2070.938162561488
 31
0.0
  0
LINE
  5
1A88
330
1A82
100
AcDbEntity
  8
0
  6
Continuous
 62
     7
370
     5
390
1D
100
AcDbLine
 10
797.5665327402502
 20
2066.730130842188
 30
0.0
 11
797.5665327402502
 21
2070.938162561488
 31
0.0
  0
LINE
  5
1A89
330
1A82
100
AcDbEntity
  8
0
  6
Continuous
 62
     7
370
     5
390
1D
100
AcDbLine
 10
796.5782675988366
 20
2066.730130764845
 30
0.0
 11
796.5782675988366
 21
2070.938162561488
 31
0.0
  0
LINE
  5
1A8A
330
1A82
100
AcDbEntity
  8
0
  6
Continuous
 62
     7
370
     5
390
1D
100
AcDbLine
 10
751.2970488271254
 20
2066.730130764845
 30
0.0
 11
751.2970488271254
 21
2070.938162561488
 31
0.0
  0
LINE
  5
1A8B
330
1A82
100
AcDbEntity
  8
0
  6
Continuous
 62
     7
370
     5
390
1D
100
AcDbLine
 10
786.9606397914283
 20
2070.938162561488
 30
0.0
 11
750.5230206786297
 21
2070.938162561488
 31
0.0
  0
LINE
  5
1A8C
330
1A82
100
AcDbEntity
  8
0
  6
Continuous
 62
     7
370
     5
390
1D
100
AcDbLine
 10
790.2853160675513
 20
2104.103282593394
 30
0.0
 11
789.2948522169967
 21
2105.178386534186
 31
0.0
  0
LINE
  5
1A8D
330
1A82
100
AcDbEntity
  8
0
  6
Continuous
 62
     7
370
     5
390
1D
100
AcDbLine
 10
781.339370116188
 20
2108.921167874219
 30
0.0
 11
784.2235014975826
 21
2108.205578944844
 31
0.0
  0
LINE
  5
1A8E
330
1A82
100
AcDbEntity
  8
0
  6
Continuous
 62
     7
370
     5
390
1D
100
AcDbLine
 10
782.5230206786297
 20
2044.84265135016
 30
0.0
 11
789.1463363316675
 21
2045.078268060757
 31
0.0
  0
LINE
  5
1A8F
330
1A82
100
AcDbEntity
  8
0
  6
Continuous
 62
     7
370
     5
390
1D
100
AcDbLine
 10
757.923297649332
 20
1978.628913942274
 30
0.0
 11
757.9230708083908
 21
2044.842567073346
 31
0.0
  0
SPLINE
  5
1A90
330
1A82
100
AcDbEntity
  8
0
  6
Continuous
 62
     7
370
     5
390
1D
100
AcDbSpline
210
0.0
220
0.0
230
1.0
 70
     8
 71
     2
 72
    10
 73
     7
 74
     0
 42
0.000000001
 43
0.000001
 40
0.0
 40
0.0
 40
0.0
 40
1.0
 40
1.0
 40
2.0
 40
2.0
 40
3.0
 40
3.0
 40
3.0
 10
752.9944043123919
 20
1962.780041921785
 30
0.0
 10
753.1989305227851
 20
1962.898125184412
 30
0.0
 10
753.4034567331784
 20
1963.016208447039
 30
0.0
 10
759.0610720999623
 20
1967.044538935946
 30
0.0
 10
758.0242942365596
 20
1977.874525966247
 30
0.0
 10
757.9737959429458
 20
1978.251719954261
 30
0.0
 10
757.923297649332
 20
1978.628913942274
 30
0.0
  0
LINE
  5
1A91
330
1A82
100
AcDbEntity
  8
0
  6
Continuous
 62
     7
370
     5
390
1D
100
AcDbLine
 10
577.3630454091616
 20
1945.876486721874
 30
0.0
 11
752.816527425348
 21
1962.721523924598
 31
0.0
  0
LINE
  5
1A92
330
1A82
100
AcDbEntity
  8
0
  6
Continuous
 62
     7
370
     5
390
1D
100
AcDbLine
 10
792.359844725563
 20
2079.052789456252
 30
0.0
 11
792.359844725563
 21
2071.028913942274
 31
0.0
  0
LINE
  5
1A93
330
1A82
100
AcDbEntity
  8
0
  6
Continuous
 62
     7
370
     5
390
1D
100
AcDbLine
 10
755.524883788063
 20
2079.052789456252
 30
0.0
 11
755.524883788063
 21
2070.938162561488
 31
0.0
  0
LINE
  5
1A94
330
1A82
100
AcDbEntity
  8
0
  6
STYLE_15
 62
     7
370
     5
390
1D
100
AcDbLine
 10
839.6726080080608
 20
2141.174756000649
 30
0.0
 11
728.4726080080608
 21
2141.174756000649
 31
0.0
  0
LWPOLYLINE
  5
1A95
330
1A82
100
AcDbEntity
  8
0
  6
Continuous
 62
     7
370
     5
390
1D
100
AcDbPolyline
 90
        5
 70
   129
 43
0.0
 10
743.4884856778193
 20
2112.574756000649
 10
760.4726080080608
 20
2112.574756000649
 10
768.0726080080609
 20
2114.974756000649
 10
768.0726080080609
 20
2117.774756000649
 10
743.4884856778193
 20
2117.774756000649
  0
LWPOLYLINE
  5
1A96
330
1A82
100
AcDbEntity
  8
0
  6
Continuous
 62
     7
370
     5
390
1D
100
AcDbPolyline
 90
        6
 70
   128
 43
0.0
 10
768.0726080080609
 20
2116.37475600065
 10
771.8726080080609
 20
2116.37475600065
 10
771.8726080080609
 20
2121.37475600065
 10
747.272608008061
 20
2121.37475600065
 10
743.4884856778193
 20
2119.189991954638
 10
743.4884856778193
 20
2117.774756000649
  0
INSERT
  5
1A97
330
1A82
100
AcDbEntity
  8
0
 62
     7
390
1D
100
AcDbBlockReference
  2
グループ-12
 10
0.0
 20
0.0
 30
0.0
  0
INSERT
  5
1A9E
330
1A82
100
AcDbEntity
  8
0
 62
     7
390
1D
100
AcDbBlockReference
  2
グループ-11
 10
0.0
 20
0.0
 30
0.0
  0
SPLINE
  5
1AA5
330
1A82
100
AcDbEntity
  8
0
  6
Continuous
 62
     7
370
     5
390
1D
100
AcDbSpline
210
0.0
220
0.0
230
1.0
 70
     8
 71
     2
 72
    16
 73
    13
 74
     0
 42
0.000000001
 43
0.000001
 40
0.0
 40
0.0
 40
0.0
 40
1.0
 40
1.0
 40
2.0
 40
2.0
 40
3.0
 40
3.0
 40
4.0
 40
4.0
 40
5.0
 40
5.0
 40
6.0
 40
6.0
 40
6.0
 10
741.212588866188
 20
2191.37475600065
 30
0.0
 10
741.4260266652798
 20
2191.37475600065
 30
0.0
 10
741.6394644643715
 20
2191.37475600065
 30
0.0
 10
748.0425984371246
 20
2191.374756000651
 30
0.0
 10
754.4457324098773
 20
2191.37475600065
 30
0.0
 10
754.659170208969
 20
2191.37475600065
 30
0.0
 10
754.8726080080609
 20
2191.37475600065
 30
0.0
 10
754.9413580080609
 20
2191.335063169643
 30
0.0
 10
755.0101080080609
 20
2191.295370338636
 30
0.0
 10
757.0766444182053
 20
2189.948746024709
 30
0.0
 10
759.1996905703604
 20
2186.420370338636
 30
0.0
 10
759.270593322437
 20
2186.297563169643
 30
0.0
 10
759.3414960745137
 20
2186.174756000649
 30
0.0
  0
LINE
  5
1AA6
330
1A82
100
AcDbEntity
  8
0
  6
Continuous
 62
     7
370
     5
390
1D
100
AcDbLine
 10
763.8726080080609
 20
2186.174756000649
 30
0.0
 11
763.8570883779067
 21
2175.331721585158
 31
0.0
  0
LINE
  5
1AA7
330
1A82
100
AcDbEntity
  8
0
  6
Continuous
 62
     7
370
     5
390
1D
100
AcDbLine
 10
741.212588866188
 20
2186.174756000649
 30
0.0
 11
763.8726080080609
 21
2186.174756000649
 31
0.0
  0
LINE
  5
1AA8
330
1A82
100
AcDbEntity
  8
0
  6
Continuous
 62
     7
370
     5
390
1D
100
AcDbLine
 10
741.212588866188
 20
2184.574756000649
 30
0.0
 11
743.4884856778193
 21
2182.298859189018
 31
0.0
  0
LINE
  5
1AA9
330
1A82
100
AcDbEntity
  8
0
  6
Continuous
 62
     7
370
     5
390
1D
100
AcDbLine
 10
741.212588866188
 20
2088.174756000649
 30
0.0
 11
743.4884856778193
 21
2089.488745637493
 31
0.0
  0
LINE
  5
1AAA
330
1A82
100
AcDbEntity
  8
0
  6
Continuous
 62
     7
370
     5
390
1D
100
AcDbLine
 10
442.28145442214
 20
1946.586684423116
 30
0.0
 11
446.672608008061
 21
1940.896194388499
 31
0.0
  0
LINE
  5
1AAB
330
1A82
100
AcDbEntity
  8
0
  6
Continuous
 62
     7
370
     5
390
1D
100
AcDbLine
 10
383.1413703073107
 20
1941.257338955254
 30
0.0
 11
381.672608008061
 21
1934.986745955506
 31
0.0
  0
LINE
  5
1AAC
330
1A82
100
AcDbEntity
  8
0
  6
STYLE_15
 62
     7
370
     5
390
1D
100
AcDbLine
 10
780.422608008061
 20
2345.274756000649
 30
0.0
 11
816.1543550599557
 21
2381.006503052544
 31
0.0
  0
LINE
  5
1AAD
330
1A82
100
AcDbEntity
  8
0
  6
STYLE_15
 62
     7
370
     5
390
1D
100
AcDbLine
 10
780.422608008061
 20
2345.274756000649
 30
0.0
 11
780.422608008061
 21
2274.274756000649
 31
0.0
  0
SPLINE
  5
1AAE
330
1A82
100
AcDbEntity
  8
0
  6
Continuous
 62
     7
370
     5
390
1D
100
AcDbSpline
210
0.0
220
0.0
230
1.0
 70
     8
 71
     2
 72
    34
 73
    31
 74
     0
 42
0.000000001
 43
0.000001
 40
0.0
 40
0.0
 40
0.0
 40
1.0
 40
1.0
 40
2.0
 40
2.0
 40
3.0
 40
3.0
 40
4.0
 40
4.0
 40
5.0
 40
5.0
 40
6.0
 40
6.0
 40
7.0
 40
7.0
 40
8.0
 40
8.0
 40
9.0
 40
9.0
 40
10.0
 40
10.0
 40
11.0
 40
11.0
 40
12.0
 40
12.0
 40
13.0
 40
13.0
 40
14.0
 40
14.0
 40
15.0
 40
15.0
 40
15.0
 10
765.172608008061
 20
2317.174756000649
 30
0.0
 10
765.172608008061
 20
2317.902256000649
 30
0.0
 10
765.172608008061
 20
2318.629756000649
 30
0.0
 10
765.1726080080612
 20
2331.724756000649
 30
0.0
 10
765.172608008061
 20
2344.819756000649
 30
0.0
 10
765.172608008061
 20
2345.547256000649
 30
0.0
 10
765.172608008061
 20
2346.274756000649
 30
0.0
 10
765.3118937223468
 20
2346.516005934561
 30
0.0
 10
765.4511794366325
 20
2346.757255868472
 30
0.0
 10
770.9098529060201
 20
2354.677636925964
 30
0.0
 10
798.4154651509182
 20
2382.372611293025
 30
0.0
 10
799.5440365794896
 20
2383.501182721597
 30
0.0
 10
800.672608008061
 20
2384.629754150168
 30
0.0
 10
801.19579548493
 20
2384.106566673299
 30
0.0
 10
801.718982961799
 20
2383.58337919643
 30
0.0
 10
811.1363575454404
 20
2374.166004612788
 30
0.0
 10
820.5537321290823
 20
2364.748630029147
 30
0.0
 10
821.0769196059513
 20
2364.225442552278
 30
0.0
 10
821.6001070828203
 20
2363.702255075409
 30
0.0
 10
820.9769196059513
 20
2363.07906759854
 30
0.0
 10
820.3537321290822
 20
2362.455880121671
 30
0.0
 10
809.1363575454402
 20
2351.238505538029
 30
0.0
 10
797.9189829617986
 20
2340.021130954387
 30
0.0
 10
797.2957954849296
 20
2339.397943477518
 30
0.0
 10
796.6726080080606
 20
2338.774756000649
 30
0.0
 10
796.6226080080606
 20
2338.599756000649
 30
0.0
 10
796.5726080080607
 20
2338.424756000649
 30
0.0
 10
795.7626080080611
 20
2333.96075600065
 30
0.0
 10
795.672608008061
 20
2318.984756000649
 30
0.0
 10
795.672608008061
 20
2318.079756000649
 30
0.0
 10
795.672608008061
 20
2317.174756000649
 30
0.0
  0
LWPOLYLINE
  5
1AAF
330
1A82
100
AcDbEntity
  8
0
  6
Continuous
 62
     7
370
     5
390
1D
100
AcDbPolyline
 90
        4
 70
   128
 43
0.0
 10
757.6046588156297
 20
2311.174756000649
 10
761.1987387117405
 20
2317.174756000649
 10
802.0105789195185
 20
2317.174756000649
 10
805.6046588156297
 20
2311.174756000649
  0
LWPOLYLINE
  5
1AB0
330
1A82
100
AcDbEntity
  8
0
  6
Continuous
 62
     7
370
     5
390
1D
100
AcDbPolyline
 90
       20
 70
   129
 43
0.0
 10
756.272608008061
 20
2292.37475600065
 10
756.272608008061
 20
2311.174756000649
 10
760.6726080080608
 20
2311.174756000649
 10
760.6726080080608
 20
2297.174756000649
 10
765.272608008061
 20
2297.174756000649
 10
765.272608008061
 20
2311.174756000649
 10
769.0726080080609
 20
2311.174756000649
 10
769.0726080080609
 20
2297.174756000649
 10
778.6726080080608
 20
2297.174756000649
 10
778.6726080080608
 20
2311.174756000649
 10
784.0726080080609
 20
2311.174756000649
 10
784.0726080080609
 20
2297.174756000649
 10
794.272608008061
 20
2297.174756000649
 10
794.272608008061
 20
2311.174756000649
 10
798.4726080080608
 20
2311.174756000649
 10
798.4726080080608
 20
2297.174756000649
 10
801.6726080080608
 20
2297.174756000649
 10
801.6726080080608
 20
2311.174756000649
 10
806.0726080080609
 20
2311.174756000649
 10
806.0726080080609
 20
2292.37475600065
  0
LINE
  5
1AB1
330
1A82
100
AcDbEntity
  8
0
  6
Continuous
 62
     7
370
     5
390
1D
100
AcDbLine
 10
814.172608008061
 20
2091.631587551954
 30
0.0
 11
831.172608008061
 21
2142.274756000649
 31
0.0
  0
LINE
  5
1AB2
330
1A82
100
AcDbEntity
  8
0
  6
Continuous
 62
     7
370
     5
390
1D
100
AcDbLine
 10
799.5574355653624
 20
2285.67475600065
 30
0.0
 11
799.5574355653624
 21
2292.67475600065
 31
0.0
  0
LINE
  5
1AB3
330
1A82
100
AcDbEntity
  8
0
  6
Continuous
 62
     7
370
     5
390
1D
100
AcDbLine
 10
796.6574355653626
 20
2282.774756000649
 30
0.0
 11
799.5574355653624
 21
2285.67475600065
 31
0.0
  0
LINE
  5
1AB4
330
1A82
100
AcDbEntity
  8
0
  6
Continuous
 62
     7
370
     5
390
1D
100
AcDbLine
 10
762.172608008061
 20
2282.774756000649
 30
0.0
 11
796.6574355653626
 21
2282.774756000649
 31
0.0
  0
LINE
  5
1AB5
330
1A82
100
AcDbEntity
  8
0
  6
Continuous
 62
     7
370
     5
390
1D
100
AcDbLine
 10
762.172608008061
 20
2270.774756000649
 30
0.0
 11
762.172608008061
 21
2291.974756000649
 31
0.0
  0
LINE
  5
1AB6
330
1A82
100
AcDbEntity
  8
0
  6
Continuous
 62
     7
370
     5
390
1D
100
AcDbLine
 10
796.6574355653626
 20
2266.774756000649
 30
0.0
 11
796.6574355653626
 21
2282.77475600065
 31
0.0
  0
SPLINE
  5
1AB7
330
1A82
100
AcDbEntity
  8
0
  6
Continuous
 62
     7
370
     5
390
1D
100
AcDbSpline
210
0.0
220
0.0
230
1.0
 70
     8
 71
     2
 72
    26
 73
    23
 74
     0
 42
0.000000001
 43
0.000001
 40
0.0
 40
0.0
 40
0.0
 40
1.0
 40
1.0
 40
2.0
 40
3.0
 40
4.0
 40
5.0
 40
6.0
 40
6.0
 40
7.0
 40
7.0
 40
8.0
 40
8.0
 40
9.0
 40
9.0
 40
10.0
 40
10.0
 40
11.0
 40
11.0
 40
12.0
 40
12.0
 40
13.0
 40
13.0
 40
13.0
 10
831.172608008061
 20
2215.774756000649
 30
0.0
 10
830.985108008061
 20
2216.566422667316
 30
0.0
 10
830.797608008061
 20
2217.358089333983
 30
0.0
 10
826.3067850146422
 20
2230.670022071055
 30
0.0
 10
812.0375154713539
 20
2237.129480190613
 30
0.0
 10
804.6325952404842
 20
2238.962982833117
 30
0.0
 10
798.4189073985344
 20
2239.949822884722
 30
0.0
 10
784.7517816712405
 20
2242.385971385238
 30
0.0
 10
772.8726080080611
 20
2244.474756000649
 30
0.0
 10
772.0226080080611
 20
2244.624756000649
 30
0.0
 10
771.172608008061
 20
2244.774756000649
 30
0.0
 10
770.8476080080611
 20
2244.962394838136
 30
0.0
 10
770.5226080080611
 20
2245.150033675623
 30
0.0
 10
765.572608008061
 20
2248.504782842906
 30
0.0
 10
767.822608008061
 20
2251.677532750382
 30
0.0
 10
767.997608008061
 20
2251.852532750382
 30
0.0
 10
768.172608008061
 20
2252.027532750382
 30
0.0
 10
769.322608008061
 20
2252.289893912895
 30
0.0
 10
770.472608008061
 20
2252.552255075409
 30
0.0
 10
789.5962424882182
 20
2257.657505908125
 30
0.0
 10
796.1089528096325
 20
2265.824756000649
 30
0.0
 10
796.3831941874976
 20
2266.299756000649
 30
0.0
 10
796.6574355653626
 20
2266.774756000649
 30
0.0
  0
SPLINE
  5
1AB8
330
1A82
100
AcDbEntity
  8
0
  6
Continuous
 62
     7
370
     5
390
1D
100
AcDbSpline
210
0.0
220
0.0
230
1.0
 70
     8
 71
     2
 72
    28
 73
    25
 74
     0
 42
0.000000001
 43
0.000001
 40
0.0
 40
0.0
 40
0.0
 40
1.0
 40
1.0
 40
2.0
 40
2.0
 40
3.0
 40
3.0
 40
4.0
 40
4.0
 40
5.0
 40
5.0
 40
6.0
 40
6.0
 40
7.0
 40
7.0
 40
8.0
 40
8.0
 40
9.0
 40
9.0
 40
10.0
 40
10.0
 40
11.0
 40
11.0
 40
12.0
 40
12.0
 40
12.0
 10
809.172608008061
 20
2211.274756000649
 30
0.0
 10
809.172608008061
 20
2211.733089333982
 30
0.0
 10
809.172608008061
 20
2212.191422667316
 30
0.0
 10
807.8739968969501
 20
2221.434478222872
 30
0.0
 10
793.5892746747277
 20
2222.274756000649
 30
0.0
 10
792.8809413413944
 20
2222.274756000649
 30
0.0
 10
792.172608008061
 20
2222.274756000649
 30
0.0
 10
791.3976080080611
 20
2222.424756000649
 30
0.0
 10
790.6226080080611
 20
2222.574756000649
 30
0.0
 10
776.6726080080614
 20
2225.27475600065
 30
0.0
 10
762.722608008061
 20
2227.974756000649
 30
0.0
 10
761.947608008061
 20
2228.124756000649
 30
0.0
 10
761.172608008061
 20
2228.274756000649
 30
0.0
 10
760.485108008061
 20
2228.671684310717
 30
0.0
 10
759.797608008061
 20
2229.068612620785
 30
0.0
 10
741.5749517580612
 20
2241.597355760069
 30
0.0
 10
756.985108008061
 20
2262.818612620785
 30
0.0
 10
757.578858008061
 20
2263.546684310717
 30
0.0
 10
758.172608008061
 20
2264.274756000649
 30
0.0
 10
758.372608008061
 20
2264.424756000649
 30
0.0
 10
758.572608008061
 20
2264.574756000649
 30
0.0
 10
761.8126080080611
 20
2267.319756000648
 30
0.0
 10
762.172608008061
 20
2270.424756000649
 30
0.0
 10
762.172608008061
 20
2270.599756000649
 30
0.0
 10
762.172608008061
 20
2270.774756000649
 30
0.0
  0
LINE
  5
1AB9
330
1A82
100
AcDbEntity
  8
0
  6
Continuous
 62
     7
370
     5
390
1D
100
AcDbLine
 10
809.172608008061
 20
2091.631587551954
 30
0.0
 11
809.172608008061
 21
2211.274756000649
 31
0.0
  0
LINE
  5
1ABA
330
1A82
100
AcDbEntity
  8
0
  6
Continuous
 62
     7
370
     5
390
1D
100
AcDbLine
 10
795.5010483388443
 20
2181.625042874221
 30
0.0
 11
809.172608008061
 21
2181.625042874221
 31
0.0
  0
LINE
  5
1ABB
330
1A82
100
AcDbEntity
  8
0
  6
Continuous
 62
     7
370
     5
390
1D
100
AcDbLine
 10
831.172608008061
 20
2277.274756000649
 30
0.0
 11
796.6574355653626
 21
2277.274756000649
 31
0.0
  0
LINE
  5
1ABC
330
1A82
100
AcDbEntity
  8
0
  6
Continuous
 62
     7
370
     5
390
1D
100
AcDbLine
 10
831.172608008061
 20
2091.631587551954
 30
0.0
 11
831.172608008061
 21
2277.274756000649
 31
0.0
  0
LINE
  5
1ABD
330
1A82
100
AcDbEntity
  8
0
  6
Continuous
 62
     7
370
     5
390
1D
100
AcDbLine
 10
792.359844725563
 20
2091.631587551954
 30
0.0
 11
831.172608008061
 21
2091.631587551954
 31
0.0
  0
INSERT
  5
1ABE
330
1A82
100
AcDbEntity
  8
0
 62
     7
390
1D
100
AcDbBlockReference
  2
グループ-10
 10
0.0
 20
0.0
 30
0.0
  0
LWPOLYLINE
  5
1AC4
330
1A82
100
AcDbEntity
  8
0
  6
Continuous
 62
     7
370
     5
390
1D
100
AcDbPolyline
 90
       39
 70
   128
 43
0.0
 10
781.3659731435317
 20
2132.382157132033
 10
781.3659731435305
 20
2114.600420803908
 42
0.0090173432585968
 10
781.4014453764885
 20
2114.576741979937
 10
781.4231076705344
 20
2114.562839804156
 42
0.0124355378838232
 10
781.5035465193611
 20
2114.513997321437
 10
781.5469932068885
 20
2114.489073666656
 42
0.0137299589172452
 10
781.7180669068582
 20
2114.397083339967
 10
781.7601599426114
 20
2114.37591760883
 42
0.0148017756466441
 10
782.0215552066654
 20
2114.254034299222
 10
782.0621681774155
 20
2114.23654136364
 42
0.0158003600446816
 10
782.4127618415044
 20
2114.098493885579
 10
782.4850330655315
 20
2114.072642972555
 42
0.0166681264260348
 10
782.8572711251184
 20
2113.953331566054
 42
0.0087511007991826
 10
783.2352429945395
 20
2113.853048476647
 10
783.2639739495634
 20
2113.845961416531
 42
0.0179130269226137
 10
783.7044620767014
 20
2113.753906070123
 10
783.7188536815173
 20
2113.751432726733
 42
0.009284842014135
 10
784.1927688925098
 20
2113.679017924745
 10
784.2219072958335
 20
2113.675117747606
 42
0.0188005696668145
 10
784.7573727434899
 20
2113.623845035851
 10
784.7721784838835
 20
2113.622987332563
 42
0.0096351943054068
 10
785.3396062851945
 20
2113.601076013753
 10
785.3701721764363
 20
2113.600485217744
 42
0.0192407554335991
 10
785.9986906287937
 20
2113.612523173298
 10
786.1080854484278
 20
2113.618834292313
 42
0.0096239512237746
 10
786.5795498440144
 20
2113.655149512314
 42
0.0096442811118278
 10
787.0492647897584
 20
2113.709601242327
 10
787.0605437003445
 20
2113.711129742928
 42
0.0095908441624918
 10
787.5503088012612
 20
2113.78709482862
 10
787.5619410152099
 20
2113.78912824117
 42
0.0095098795166976
 10
788.0716278186925
 20
2113.888250534681
 10
788.0836345645862
 20
2113.890823473003
 42
0.0094027712079063
 10
788.613118794162
 20
2114.014744758696
 10
788.6255170150633
 20
2114.01789349253
 42
0.0093464859796151
 10
789.1746546048996
 20
2114.168336274788
 10
789.3014503823208
 20
2114.205634914041
 42
0.0158315483219552
 10
790.0931205867687
 20
2114.466013899621
 10
790.2111386708756
 20
2114.509015530471
 10
790.2111386708756
 20
2132.382157132033
  0
POLYLINE
  5
1AC5
330
1A82
100
AcDbEntity
  8
0
  6
Continuous
 62
     7
370
     5
390
1D
100
AcDb2dPolyline
 66
     1
 10
0.0
 20
0.0
 30
0.0
 75
     5
  0
VERTEX
  5
1AC6
330
1AC5
100
AcDbEntity
  8
0
  6
Continuous
 62
     7
370
     5
390
1D
100
AcDbVertex
100
AcDb2dVertex
 10
777.5358191802505
 20
2146.24301684219
 30
0.0
  0
VERTEX
  5
1AC7
330
1AC5
100
AcDbEntity
  8
0
  6
Continuous
 62
     7
370
     5
390
1D
100
AcDbVertex
100
AcDb2dVertex
 10
777.5358191802505
 20
2132.382157522189
 30
0.0
  0
VERTEX
  5
1AC8
330
1AC5
100
AcDbEntity
  8
0
  6
Continuous
 62
     7
370
     5
390
1D
100
AcDbVertex
100
AcDb2dVertex
 10
794.0412932202504
 20
2132.382157522189
 30
0.0
  0
VERTEX
  5
1AC9
330
1AC5
100
AcDbEntity
  8
0
  6
Continuous
 62
     7
370
     5
390
1D
100
AcDbVertex
100
AcDb2dVertex
 10
794.0412932202504
 20
2146.24301684219
 30
0.0
  0
SEQEND
  5
1ACA
330
1AC5
100
AcDbEntity
  8
0
  6
Continuous
 62
     7
370
     5
390
1D
  0
LINE
  5
1ACB
330
1A82
100
AcDbEntity
  8
0
  6
Continuous
 62
     7
370
     5
390
1D
100
AcDbLine
 10
416.9106377802553
 20
1962.348537162186
 30
0.0
 11
437.7101140602562
 21
1948.375807842186
 31
0.0
  0
LINE
  5
1ACC
330
1A82
100
AcDbEntity
  8
0
  6
Continuous
 62
     7
370
     5
390
1D
100
AcDbLine
 10
387.1063789002554
 20
1943.922871002186
 30
0.0
 11
405.262602700256
 21
1961.322612042187
 31
0.0
  0
LWPOLYLINE
  5
1ACD
330
1A82
100
AcDbEntity
  8
0
  6
Continuous
 62
     7
370
     5
390
1D
100
AcDbPolyline
 90
       44
 70
   128
 43
0.0
 10
439.270141112287
 20
1948.514279202342
 10
385.8157915029113
 20
1943.809636135936
 10
385.7520052189351
 20
1943.804088659656
 42
0.0518418133947915
 10
385.3411455630029
 20
1943.724926329893
 10
385.2777656161238
 20
1943.705741135529
 42
0.0292412451748405
 10
385.0077088675338
 20
1943.606427870598
 10
385.0036817484917
 20
1943.604673416441
 42
0.0276901502437754
 10
384.754443695945
 20
1943.479248483113
 10
384.751500809286
 20
1943.477557251529
 42
0.0258085661121681
 10
384.5227274386924
 20
1943.329884815648
 42
0.024007793477438
 10
384.3097355659508
 20
1943.160163055966
 10
384.2630465561582
 20
1943.119145733549
 42
0.0404739718040386
 10
383.9878818983492
 20
1942.83484594023
 10
383.9415441158214
 20
1942.77849176313
 42
0.0320098080926611
 10
383.6619256695766
 20
1942.39025289616
 42
0.0253017171238889
 10
383.4283526688858
 20
1941.972267435379
 10
383.3801671183706
 20
1941.874762808265
 42
0.0358905309165726
 10
383.1934937479635
 20
1941.417037092762
 10
383.1413703073105
 20
1941.257338955254
 42
0.015683232594044
 10
383.096647173454
 20
1941.104189467568
 10
383.0841213354128
 20
1941.055692751178
 42
0.0083728752131101
 10
383.0702226552556
 20
1940.997900784374
 10
442.464550780256
 20
1946.227783108592
 42
0.0104263073059809
 10
442.4240756889623
 20
1946.315340941544
 10
442.3933447042409
 20
1946.378336899847
 42
0.019490085403634
 10
442.2814573190092
 20
1946.586679499412
 10
442.2467778590459
 20
1946.645622924495
 42
0.0173248723364175
 10
442.0464919091847
 20
1946.960547386811
 10
442.0379967209332
 20
1946.972935424992
 42
0.021847432010485
 10
441.7957212852069
 20
1947.29510277548
 10
441.7485597889248
 20
1947.352422326593
 42
0.0279868173661027
 10
441.4996353197541
 20
1947.622622162632
 42
0.0163571454089204
 10
441.227480883321
 20
1947.869972147288
 10
441.2195951864472
 20
1947.876681547339
 42
0.0399225112605525
 10
440.9054423917884
 20
1948.103421030832
 10
440.8489028581067
 20
1948.137726656173
 42
0.0235649288753142
 10
440.6107447577696
 20
1948.267292443122
 42
0.0256360212801405
 10
440.3610628034647
 20
1948.372817513595
 10
440.3582439135236
 20
1948.373842042539
 42
0.0276663753538968
 10
440.0930756789625
 20
1948.453922321061
 10
440.0892570270761
 20
1948.454848597662
 42
0.0294365281298042
 10
439.8090274100548
 20
1948.505585420176
 10
439.8065374522818
 20
1948.505886309553
 42
0.0523540164895324
 10
439.270141112287
 20
1948.514279202342
  0
POLYLINE
  5
1ACE
330
1A82
100
AcDbEntity
  8
0
  6
Continuous
 62
     7
370
     5
390
1D
100
AcDb2dPolyline
 66
     1
 10
0.0
 20
0.0
 30
0.0
 75
     5
  0
VERTEX
  5
1ACF
330
1ACE
100
AcDbEntity
  8
0
  6
Continuous
 62
     7
370
     5
390
1D
100
AcDbVertex
100
AcDb2dVertex
 10
405.949508260256
 20
1953.519740922186
 30
0.0
  0
VERTEX
  5
1AD0
330
1ACE
100
AcDbEntity
  8
0
  6
Continuous
 62
     7
370
     5
390
1D
100
AcDbVertex
100
AcDb2dVertex
 10
405.262602700256
 20
1961.322612042187
 30
0.0
  0
VERTEX
  5
1AD1
330
1ACE
100
AcDbEntity
  8
0
  6
Continuous
 62
     7
370
     5
390
1D
100
AcDbVertex
100
AcDb2dVertex
 10
416.9106377802553
 20
1962.348537162186
 30
0.0
  0
VERTEX
  5
1AD2
330
1ACE
100
AcDbEntity
  8
0
  6
Continuous
 62
     7
370
     5
390
1D
100
AcDbVertex
100
AcDb2dVertex
 10
417.5968582602553
 20
1954.543614762186
 30
0.0
  0
SEQEND
  5
1AD3
330
1ACE
100
AcDbEntity
  8
0
  6
Continuous
 62
     7
370
     5
390
1D
  0
POLYLINE
  5
1AD4
330
1A82
100
AcDbEntity
  8
0
  6
Continuous
 62
     7
370
     5
390
1D
100
AcDb2dPolyline
 66
     1
 10
0.0
 20
0.0
 30
0.0
 75
     5
  0
VERTEX
  5
1AD5
330
1AD4
100
AcDbEntity
  8
0
  6
Continuous
 62
     7
370
     5
390
1D
100
AcDbVertex
100
AcDb2dVertex
 10
403.2469151802551
 20
1945.342380522186
 30
0.0
  0
VERTEX
  5
1AD6
330
1AD4
100
AcDbEntity
  8
0
  6
Continuous
 62
     7
370
     5
390
1D
100
AcDbVertex
100
AcDb2dVertex
 10
402.5579623002549
 20
1953.148661202186
 30
0.0
  0
VERTEX
  5
1AD7
330
1AD4
100
AcDbEntity
  8
0
  6
Continuous
 62
     7
370
     5
390
1D
100
AcDbVertex
100
AcDb2dVertex
 10
421.1541619002554
 20
1954.786453842187
 30
0.0
  0
VERTEX
  5
1AD8
330
1AD4
100
AcDbEntity
  8
0
  6
Continuous
 62
     7
370
     5
390
1D
100
AcDbVertex
100
AcDb2dVertex
 10
421.8417485802555
 20
1946.978806962186
 30
0.0
  0
SEQEND
  5
1AD9
330
1AD4
100
AcDbEntity
  8
0
  6
Continuous
 62
     7
370
     5
390
1D
  0
SPLINE
  5
1ADA
330
1A82
100
AcDbEntity
  8
0
  6
Continuous
 62
     7
370
     5
390
1D
100
AcDbSpline
210
0.0
220
0.0
230
1.0
 70
    11
 71
     2
 72
    60
 73
    57
 74
     0
 42
0.000000001
 43
0.000001
 40
0.0
 40
0.0
 40
0.0
 40
1.0
 40
1.0
 40
2.0
 40
3.0
 40
4.0
 40
5.0
 40
6.0
 40
7.0
 40
8.0
 40
9.0
 40
10.0
 40
11.0
 40
12.0
 40
13.0
 40
14.0
 40
15.0
 40
16.0
 40
17.0
 40
17.0
 40
18.0
 40
18.0
 40
19.0
 40
19.0
 40
20.0
 40
21.0
 40
22.0
 40
22.0
 40
23.0
 40
23.0
 40
24.0
 40
24.0
 40
25.0
 40
26.0
 40
27.0
 40
28.0
 40
29.0
 40
30.0
 40
31.0
 40
32.0
 40
32.0
 40
33.0
 40
33.0
 40
34.0
 40
34.0
 40
35.0
 40
36.0
 40
37.0
 40
37.0
 40
38.0
 40
38.0
 40
39.0
 40
39.0
 40
40.0
 40
40.0
 40
41.0
 40
41.0
 40
41.0
 10
430.266721678693
 20
1950.053162014843
 30
0.0
 10
430.2468655111646
 20
1950.051413551539
 30
0.0
 10
430.2270093436363
 20
1950.049665088234
 30
0.0
 10
429.7232412174347
 20
1950.005305063499
 30
0.0
 10
427.4419901764992
 20
1949.804426231873
 30
0.0
 10
424.6125040957
 20
1949.555271777664
 30
0.0
 10
422.133679584023
 20
1949.336995330758
 30
0.0
 10
420.1885514342592
 20
1949.165714282299
 30
0.0
 10
418.1905008959397
 20
1948.989773077027
 30
0.0
 10
412.5626092244399
 20
1948.494201005738
 30
0.0
 10
408.9092781038753
 20
1948.172501695192
 30
0.0
 10
405.8857591910102
 20
1947.906261401722
 30
0.0
 10
403.8899917728098
 20
1947.730521239867
 30
0.0
 10
401.9436013838794
 20
1947.559129043128
 30
0.0
 10
399.4493411018682
 20
1947.339493377332
 30
0.0
 10
397.0093760427808
 20
1947.124638755354
 30
0.0
 10
394.4751745837762
 20
1946.901493169761
 30
0.0
 10
393.7850860769531
 20
1946.840714919686
 30
0.0
 10
393.7587405066922
 20
1946.838476857835
 30
0.0
 10
393.6692311299879
 20
1946.8306592942
 30
0.0
 10
393.666133838423
 20
1946.830389640117
 30
0.0
 10
393.6630365468581
 20
1946.830119986034
 30
0.0
 10
393.634411583632
 20
1946.823728783864
 30
0.0
 10
393.6057866204059
 20
1946.817337581694
 30
0.0
 10
392.9853790159148
 20
1946.651671729375
 30
0.0
 10
391.8924753205359
 20
1945.787834211082
 30
0.0
 10
391.3619307087653
 20
1944.507122213452
 30
0.0
 10
391.3184636078123
 20
1944.304909607742
 30
0.0
 10
391.3174713053622
 20
1944.299087569105
 30
0.0
 10
391.3164790029122
 20
1944.293265530468
 30
0.0
 10
391.3515103354944
 20
1944.296349342889
 30
0.0
 10
391.3865416680765
 20
1944.29943315531
 30
0.0
 10
392.2961612112597
 20
1944.37950707311
 30
0.0
 10
396.9861076782926
 20
1944.792363624736
 30
0.0
 10
404.7741224887447
 20
1945.477943505286
 30
0.0
 10
413.7835807478703
 20
1946.271047199544
 30
0.0
 10
422.5437446020641
 20
1947.042205477349
 30
0.0
 10
426.649588297828
 20
1947.403643391762
 30
0.0
 10
429.9136753054496
 20
1947.690981363664
 30
0.0
 10
432.5557199432055
 20
1947.923560870927
 30
0.0
 10
433.1284536086127
 20
1947.973978684384
 30
0.0
 10
433.1481347627929
 20
1947.975711218754
 30
0.0
 10
433.1678159169732
 20
1947.977443753123
 30
0.0
 10
433.1657304533592
 20
1947.9836033652
 30
0.0
 10
433.1636449897452
 20
1947.989762977276
 30
0.0
 10
433.1029131091336
 20
1948.142756904615
 30
0.0
 10
432.4442252825153
 20
1949.264314064368
 30
0.0
 10
431.1952297206138
 20
1950.012063189469
 30
0.0
 10
430.4701930135682
 20
1950.063454964669
 30
0.0
 10
430.4413598729858
 20
1950.064677868418
 30
0.0
 10
430.4125267324033
 20
1950.065900772167
 30
0.0
 10
430.4094891271177
 20
1950.06563538139
 30
0.0
 10
430.406451521832
 20
1950.065369990612
 30
0.0
 10
430.3396242055481
 20
1950.059531393505
 30
0.0
 10
430.2727968892643
 20
1950.053692796399
 30
0.0
 10
430.2697592839786
 20
1950.053427405621
 30
0.0
 10
430.266721678693
 20
1950.053162014843
 30
0.0
  0
SPLINE
  5
1ADB
330
1A82
100
AcDbEntity
  8
0
  6
Continuous
 62
     7
370
     5
390
1D
100
AcDbSpline
210
0.0
220
0.0
230
1.0
 70
     8
 71
     2
 72
    60
 73
    57
 74
     0
 42
0.000000001
 43
0.000001
 40
0.0
 40
0.0
 40
0.0
 40
1.0
 40
1.0
 40
2.0
 40
3.0
 40
4.0
 40
5.0
 40
6.0
 40
7.0
 40
8.0
 40
9.0
 40
10.0
 40
11.0
 40
12.0
 40
13.0
 40
14.0
 40
15.0
 40
16.0
 40
17.0
 40
18.0
 40
19.0
 40
20.0
 40
21.0
 40
22.0
 40
23.0
 40
24.0
 40
25.0
 40
26.0
 40
27.0
 40
28.0
 40
29.0
 40
30.0
 40
31.0
 40
32.0
 40
33.0
 40
34.0
 40
35.0
 40
36.0
 40
37.0
 40
38.0
 40
39.0
 40
40.0
 40
41.0
 40
42.0
 40
43.0
 40
44.0
 40
45.0
 40
46.0
 40
47.0
 40
48.0
 40
49.0
 40
50.0
 40
51.0
 40
52.0
 40
52.0
 40
53.0
 40
53.0
 40
53.0
 10
792.359844725563
 20
2099.986643460159
 30
0.0
 10
792.3623347556387
 20
2099.985127948014
 30
0.0
 10
792.3648247857144
 20
2099.983612435869
 30
0.0
 10
792.4727240413968
 20
2099.917002521597
 30
0.0
 10
792.6671280708999
 20
2099.793253930598
 30
0.0
 10
792.9240823695724
 20
2099.629580894892
 30
0.0
 10
793.1877861101566
 20
2099.437989033332
 30
0.0
 10
793.2774918050584
 20
2099.372115610757
 30
0.0
 10
793.3474784815169
 20
2099.321040875178
 30
0.0
 10
793.6035627810707
 20
2099.133482026691
 30
0.0
 10
793.8829309807105
 20
2098.912129563429
 30
0.0
 10
793.8960090345332
 20
2098.9015602286
 30
0.0
 10
793.9140618375401
 20
2098.887360750089
 30
0.0
 10
794.1128143690165
 20
2098.729053579138
 30
0.0
 10
794.3199565220068
 20
2098.545810185764
 30
0.0
 10
794.3394211600712
 20
2098.528356316673
 30
0.0
 10
794.4522947512905
 20
2098.429218489473
 30
0.0
 10
794.6300316886026
 20
2098.261633422544
 30
0.0
 10
794.630002489964
 20
2098.261577866082
 30
0.0
 10
794.6168561385493
 20
2098.274199457187
 30
0.0
 10
794.7395753147906
 20
2098.15723500578
 30
0.0
 10
794.8703096132467
 20
2098.02253245368
 30
0.0
 10
794.8708589739592
 20
2098.021862824497
 30
0.0
 10
794.8593345154724
 20
2098.033888404435
 30
0.0
 10
794.9746396582357
 20
2097.914681668592
 30
0.0
 10
795.0959363966242
 20
2097.776946027716
 30
0.0
 10
795.0969459165573
 20
2097.775668722757
 30
0.0
 10
795.0871163120473
 20
2097.787013873894
 30
0.0
 10
795.192870140515
 20
2097.666428011947
 30
0.0
 10
795.3020741718738
 20
2097.526625276646
 30
0.0
 10
795.3033846872629
 20
2097.524778823301
 30
0.0
 10
795.2952572343535
 20
2097.53541086714
 30
0.0
 10
795.3894238901794
 20
2097.414224758793
 30
0.0
 10
795.4838974341803
 20
2097.27328777864
 30
0.0
 10
795.4817156432753
 20
2097.27636047529
 30
0.0
 10
795.4788019279363
 20
2097.28095766973
 30
0.0
 10
795.5631431222876
 20
2097.153616567379
 30
0.0
 10
795.6361216970272
 20
2097.019439061521
 30
0.0
 10
795.6449644165161
 20
2097.016740125824
 30
0.0
 10
795.7422202986554
 20
2096.796243717007
 30
0.0
 10
795.7356088890881
 20
2096.822145806814
 30
0.0
 10
795.8102918136601
 20
2096.60669447642
 30
0.0
 10
795.8101427855391
 20
2096.606810745566
 30
0.0
 10
795.806998871484
 20
2096.616987338058
 30
0.0
 10
795.8485895905919
 20
2096.446862778812
 30
0.0
 10
795.8656652679465
 20
2096.369119689261
 30
0.0
 10
795.8715364395418
 20
2096.189560505162
 30
0.0
 10
795.8714640360522
 20
2096.293115660337
 30
0.0
 10
795.8714451802117
 20
2096.943752702119
 30
0.0
 10
795.8714407942473
 20
2097.695329242913
 30
0.0
 10
795.8714449545894
 20
2096.61737812746
 30
0.0
 10
795.8714442388083
 20
2106.933116920384
 30
0.0
 10
795.8714443596377
 20
2115.294007534038
 30
0.0
 10
795.8714443302457
 20
2132.649134100748
 30
0.0
 10
795.8714443353604
 20
2147.762825674822
 30
0.0
 10
795.8714443351491
 20
2148.843722116318
 30
0.0
 10
795.871444334938
 20
2149.924618557814
 30
0.0
  0
SPLINE
  5
1ADC
330
1A82
100
AcDbEntity
  8
0
  6
Continuous
 62
     7
370
     5
390
1D
100
AcDbSpline
210
0.0
220
0.0
230
1.0
 70
     8
 71
     2
 72
    71
 73
    68
 74
     0
 42
0.000000001
 43
0.000001
 40
0.0
 40
0.0
 40
0.0
 40
1.0
 40
1.0
 40
2.0
 40
3.0
 40
4.0
 40
5.0
 40
6.0
 40
7.0
 40
8.0
 40
9.0
 40
10.0
 40
11.0
 40
12.0
 40
13.0
 40
14.0
 40
15.0
 40
16.0
 40
17.0
 40
18.0
 40
19.0
 40
20.0
 40
21.0
 40
22.0
 40
23.0
 40
24.0
 40
25.0
 40
26.0
 40
27.0
 40
28.0
 40
29.0
 40
30.0
 40
31.0
 40
32.0
 40
33.0
 40
34.0
 40
35.0
 40
36.0
 40
37.0
 40
38.0
 40
39.0
 40
40.0
 40
41.0
 40
42.0
 40
43.0
 40
44.0
 40
45.0
 40
46.0
 40
47.0
 40
48.0
 40
49.0
 40
50.0
 40
51.0
 40
52.0
 40
53.0
 40
54.0
 40
55.0
 40
56.0
 40
57.0
 40
58.0
 40
59.0
 40
60.0
 40
61.0
 40
62.0
 40
63.0
 40
63.0
 40
64.0
 40
64.0
 40
64.0
 10
796.5782675988366
 20
2066.730130764845
 30
0.0
 10
796.5783186088665
 20
2066.423430686742
 30
0.0
 10
796.5783696188963
 20
2066.116730608639
 30
0.0
 10
796.57949314707
 20
2059.385680205395
 30
0.0
 10
796.5807150665827
 20
2051.995850255329
 30
0.0
 10
796.5811300686988
 20
2049.628811966041
 30
0.0
 10
796.5814978052774
 20
2046.670689076822
 30
0.0
 10
796.5821410255984
 20
2047.157659702801
 30
0.0
 10
796.5827038260685
 20
2047.053544463093
 30
0.0
 10
796.5832472570937
 20
2047.050842813601
 30
0.0
 10
796.5851803791302
 20
2046.976930977687
 30
0.0
 10
796.5859286512849
 20
2046.942718008207
 30
0.0
 10
796.5862126268371
 20
2046.930850714271
 30
0.0
 10
796.588830973878
 20
2046.804593065676
 30
0.0
 10
796.589338727668
 20
2046.678069272141
 30
0.0
 10
796.5893505643969
 20
2046.651246290235
 30
0.0
 10
796.5894104909097
 20
2046.619793804564
 30
0.0
 10
796.5892265502857
 20
2046.408231059933
 30
0.0
 10
796.583287946976
 20
2046.187638274944
 30
0.0
 10
796.582600422722
 20
2046.165940907405
 30
0.0
 10
796.5822872672088
 20
2046.155110200097
 30
0.0
 10
796.5795363955853
 20
2046.068996338135
 30
0.0
 10
796.574446034436
 20
2045.968490263961
 30
0.0
 10
796.5748360684665
 20
2045.975949974077
 30
0.0
 10
796.5753480476799
 20
2045.985224693789
 30
0.0
 10
796.5700461629167
 20
2045.887853780042
 30
0.0
 10
796.5635462698082
 20
2045.788859131866
 30
0.0
 10
796.5639412834043
 20
2045.794794423804
 30
0.0
 10
796.5643350192285
 20
2045.800337750322
 30
0.0
 10
796.5578355354594
 20
2045.704646012606
 30
0.0
 10
796.548445708069
 20
2045.612836832179
 30
0.0
 10
796.5465732449735
 20
2045.594866571441
 30
0.0
 10
796.5417504077501
 20
2045.547726054752
 30
0.0
 10
796.5326751320446
 20
2045.473731242007
 30
0.0
 10
796.5322073381304
 20
2045.470175366305
 30
0.0
 10
796.5326800715333
 20
2045.473791250029
 30
0.0
 10
796.5200449219269
 20
2045.382709996378
 30
0.0
 10
796.5168870384955
 20
2045.363127727952
 30
0.0
 10
796.5173702222908
 20
2045.366130723207
 30
0.0
 10
796.5028942314516
 20
2045.281270761232
 30
0.0
 10
796.4991692451982
 20
2045.262541203346
 30
0.0
 10
796.4996367619792
 20
2045.264883562057
 30
0.0
 10
796.4832459058567
 20
2045.18726554824
 30
0.0
 10
796.4788784769664
 20
2045.169641488328
 30
0.0
 10
796.4792962958138
 20
2045.171304150663
 30
0.0
 10
796.4609338524172
 20
2045.101921836416
 30
0.0
 10
796.4558373103177
 20
2045.085694058459
 30
0.0
 10
796.4561615891388
 20
2045.086688314048
 30
0.0
 10
796.425101479635
 20
2044.996567833959
 30
0.0
 10
796.4300585425875
 20
2045.012411678254
 30
0.0
 10
796.405395971921
 20
2044.959371088224
 30
0.0
 10
796.4039082763741
 20
2044.950917838766
 30
0.0
 10
796.3701145164425
 20
2044.902758796707
 30
0.0
 10
796.366900994009
 20
2044.895581531431
 30
0.0
 10
796.3379001012868
 20
2044.869358336996
 30
0.0
 10
796.341911252077
 20
2044.872716925707
 30
0.0
 10
796.3044911766804
 20
2044.847933030397
 30
0.0
 10
796.3113160209605
 20
2044.852795278704
 30
0.0
 10
796.2740226916903
 20
2044.839591490269
 30
0.0
 10
796.2516053826791
 20
2044.842826420725
 30
0.0
 10
795.7459594543727
 20
2044.842591517143
 30
0.0
 10
795.4745187832585
 20
2044.842702260193
 30
0.0
 10
795.3426265080977
 20
2044.842750382415
 30
0.0
 10
795.246996797233
 20
2044.842815141058
 30
0.0
 10
794.8704058281896
 20
2044.842809777126
 30
0.0
 10
794.5500067930891
 20
2044.84281265285
 30
0.0
 10
794.5389308152805
 20
2044.84281265285
 30
0.0
 10
794.5278548374721
 20
2044.84281265285
 30
0.0
  0
LWPOLYLINE
  5
1ADD
330
1A82
100
AcDbEntity
  8
0
  6
Continuous
 62
     7
370
     5
390
1D
100
AcDbPolyline
 90
       36
 70
   128
 43
0.0
 10
785.208405272438
 20
2044.842660550003
 10
752.7752416961499
 20
2044.84254943743
 42
-0.0002450842042117
 10
752.5238636536292
 20
2044.842671793817
 10
752.4478001544111
 20
2044.842746101102
 42
0.0016558442696692
 10
752.3485499376557
 20
2044.842514373795
 42
-0.0096000754106189
 10
752.2493263123853
 20
2044.843859243944
 10
752.2366548320687
 20
2044.844274417122
 42
-0.0436338809482807
 10
752.1252328175417
 20
2044.85770566503
 10
752.1215956734567
 20
2044.858470169193
 42
-0.0222270971139309
 10
752.0197863471193
 20
2044.884642595382
 42
-0.0453750252805153
 10
751.9227354622602
 20
2044.924168653768
 10
751.9078286122636
 20
2044.931881013362
 42
-0.0438872818780003
 10
751.7955306239904
 20
2045.003096863225
 42
-0.0399018192375498
 10
751.6966093807031
 20
2045.092095506072
 10
751.6964752863844
 20
2045.092237046553
 42
-0.0347268075199091
 10
751.6115684088774
 20
2045.195329844229
 10
751.610876309743
 20
2045.196300240581
 42
-0.0294302325538889
 10
751.538540603546
 20
2045.311499445004
 10
751.537726111074
 20
2045.312983823786
 42
-0.0246294195443111
 10
751.4767305471322
 20
2045.438419584424
 10
751.4760324331613
 20
2045.440055460462
 42
-0.0205495451694044
 10
751.4253245451858
 20
2045.57385429604
 10
751.4248381050251
 20
2045.57531645835
 42
-0.0176727984666348
 10
751.3836179868136
 20
2045.715581951925
 10
751.3740884504185
 20
2045.752827502387
 42
-0.0266632754170967
 10
751.3304310517703
 20
2045.971371256545
 10
751.32424706911
 20
2046.014061715806
 42
-0.0193606751099178
 10
751.2947511365228
 20
2046.293569004928
 42
-0.0145607682944873
 10
751.2842657456903
 20
2046.57452426011
 10
751.2839762072582
 20
2046.609903321972
 42
-0.0160438094418572
 10
751.2898869627392
 20
2046.857156206603
 10
751.2939557741271
 20
2046.929755744172
 42
-0.0096712552291344
 10
751.3016323249805
 20
2047.031471345116
 10
751.3046526250095
 20
2047.063279486832
 42
-0.0051281285284778
 10
751.308645018532
 20
2047.101189358595
 10
751.2970488271254
 20
2066.730130764845
  0
LWPOLYLINE
  5
1ADE
330
1A82
100
AcDbEntity
  8
0
  6
Continuous
 62
     7
370
     5
390
1D
100
AcDbPolyline
 90
       40
 70
   128
 43
0.0
 10
643.7717050771306
 20
1920.113160061718
 10
761.8700468740004
 20
1931.419446682811
 42
0.0089659119128766
 10
762.6707925126965
 20
1931.709304086867
 10
762.7420212673586
 20
1931.736541963136
 42
0.0068242102758271
 10
763.674956699965
 20
1932.107968791959
 10
763.8437496625663
 20
1932.1778534577
 42
0.0080286275002794
 10
765.1004639099788
 20
1932.721963988103
 10
765.8013536179174
 20
1933.038881670269
 42
0.0189988825043613
 10
768.401809896263
 20
1934.335855453186
 10
768.9330908314477
 20
1934.626536607352
 42
0.0114005349702768
 10
771.2386586407478
 20
1935.957166358144
 42
0.0129796928559668
 10
773.4764609556116
 20
1937.398474117243
 10
773.561765501441
 20
1937.456603356944
 42
0.0147789488143337
 10
775.8829601143831
 20
1939.14089597898
 10
775.9493342620619
 20
1939.192119193342
 42
0.0168520249692173
 10
778.2882726544121
 20
1941.126336955862
 10
778.3387525166311
 20
1941.171029878444
 42
0.0192058698406328
 10
780.6292702186273
 20
1943.361502811822
 10
780.9342998710999
 20
1943.676506083833
 42
0.0218946527024748
 10
782.6006327968388
 20
1945.555329193615
 42
0.0118786500609416
 10
784.1374096373405
 20
1947.543669681398
 10
784.1571835264932
 20
1947.570550103595
 42
0.026016274970752
 10
785.5741933326732
 20
1949.722946828351
 10
785.5824988922358
 20
1949.737115800561
 42
0.0139972717282806
 10
786.8399369465484
 20
1952.02683934376
 10
786.8575351042662
 20
1952.061125470627
 42
0.02982670573982
 10
787.9392930015617
 20
1954.519217578508
 10
787.9469355834374
 20
1954.539837811864
 42
0.0157395043377926
 10
788.8156235868591
 20
1957.131110608205
 10
788.8319752616455
 20
1957.185511653494
 42
0.0322980727984876
 10
789.4727312020503
 20
1959.954372339732
 10
789.5504843288502
 20
1960.427631497483
 42
0.0162369576817458
 10
789.8137347749691
 20
1962.435479482729
 10
789.8245726902363
 20
1962.545833970279
 42
0.0172431904540382
 10
789.9388461696389
 20
1964.345466058321
 42
0.0076919167943003
 10
789.963285082316
 20
1966.149416183601
 10
789.9632289108818
 20
1966.179995368387
 42
-0.0004548575008014
 10
789.9614992311199
 20
1968.045481423056
 10
789.9614964824481
 20
1968.202679703248
 42
-0.0000085622059584
 10
789.961479491188
 20
2015.273553128125
  0
LWPOLYLINE
  5
1ADF
330
1A82
100
AcDbEntity
  8
0
  6
Continuous
 62
     7
370
     5
390
1D
100
AcDbPolyline
 90
      154
 70
   128
 43
0.0
 10
477.3656762685448
 20
1908.499915432812
 42
0.0104371112259673
 10
482.2654082021298
 20
1909.119288479687
 42
-0.0003135087545836
 10
483.1983891150717
 20
1909.274865379463
 10
489.3721854219652
 20
1910.300383045173
 42
-0.0056428561575937
 10
502.6760592930057
 20
1912.356261806718
 10
510.6839575765434
 20
1913.501366219287
 42
-0.003831774413224
 10
522.3530662465793
 20
1915.078855432594
 10
524.1455795306441
 20
1915.307202671921
 42
-0.0024186159277059
 10
532.2465504090634
 20
1916.299382805868
 42
-0.0028433992865754
 10
540.357477938475
 20
1917.206250852165
 10
540.4227168493169
 20
1917.21316969327
 42
-0.0034181561792356
 10
548.4619500272823
 20
1918.010224509928
 10
548.5800957905019
 20
1918.021123067935
 42
-0.0041841718269105
 10
556.3939670129383
 20
1918.676031112857
 10
556.5765863205122
 20
1918.689799174984
 42
-0.0052358262882717
 10
564.0357665719038
 20
1919.173668705738
 10
565.0994682136907
 20
1919.231491664056
 42
-0.0068669340640938
 10
570.4392894879653
 20
1919.448263333187
 10
571.8346436619531
 20
1919.485722760703
 42
-0.0042649272730673
 10
574.3871325365202
 20
1919.532462960397
 10
574.8243119204535
 20
1919.536738609776
 42
-0.0024449469376156
 10
576.5028808583801
 20
1919.54494668281
 10
578.9021566355218
 20
1919.485716691492
 42
-0.004221099775406
 10
594.3997626587649
 20
1918.972190057945
 10
596.6947136417568
 20
1918.876743384148
 42
-0.0024445215975512
 10
607.5956047179028
 20
1918.369978638578
 10
608.9174589607586
 20
1918.30204969845
 42
-0.0038045309949654
 10
617.1684583860145
 20
1917.815064312465
 10
618.6565719586403
 20
1917.715865930675
 42
-0.0026677766948811
 10
623.9256139042917
 20
1917.336380578708
 10
624.084468320458
 20
1917.324087307505
 42
-0.0034249371243133
 10
629.0309209415681
 20
1916.907192067356
 10
629.2489716514735
 20
1916.88730927516
 42
-0.0046428883302282
 10
633.7522621696506
 20
1916.434479192095
 10
634.4628449240165
 20
1916.356354870229
 42
-0.0068981361563579
 10
637.5355112002488
 20
1915.975562621544
 10
637.7739960821328
 20
1915.942660829238
 42
-0.0042190440193874
 10
640.3612389347057
 20
1915.563447035655
 42
-0.0139433612016871
 10
642.9320958157779
 20
1915.090694757286
 10
643.2737163716287
 20
1915.017972973501
 42
-0.0176530962349181
 10
645.219864745099
 20
1914.531299221874
 10
646.9602960048235
 20
1914.216882462219
 42
0.0037694493679797
 10
659.9034757390997
 20
1911.979264888578
 10
661.5476718323154
 20
1911.707765644801
 42
0.0023400262286492
 10
671.2265910671939
 20
1910.156023364312
 10
672.3987641963304
 20
1909.973721041183
 42
0.0037351689910281
 10
679.7487193115359
 20
1908.886788919649
 10
680.2935488145174
 20
1908.810372532265
 42
0.0024705674260425
 10
686.5661558732786
 20
1907.962174586945
 10
686.5661558733648
 20
1907.962174586933
 42
0.0070403050812197
 10
692.8532147006221
 20
1907.233500640611
 10
693.5875791005682
 20
1907.158850003123
 42
0.0028668071719703
 10
695.2265688702705
 20
1907.034792557894
 10
696.132400592964
 20
1906.97145010073
 42
0.0044414911117069
 10
699.5856365200157
 20
1906.76078079215
 10
702.4051908528376
 20
1906.613896228783
 42
0.0094846930053407
 10
711.5051195662794
 20
1906.312769022586
 10
714.6823755750835
 20
1906.26793409679
 42
0.0091582633846559
 10
722.8571197715293
 20
1906.302315160693
 10
724.1041041014239
 20
1906.330404187156
 42
0.0058645689915912
 10
729.7819678937896
 20
1906.524951417173
 42
0.0069914960430303
 10
735.4527890654347
 20
1906.865396309379
 10
735.5030462019997
 20
1906.869119376276
 42
0.0085406027857997
 10
741.0783946970348
 20
1907.378027845344
 10
741.1718744301237
 20
1907.388173200992
 42
0.0106390570865436
 10
746.5367157175477
 20
1908.086198207473
 10
747.2778914801415
 20
1908.198717501367
 42
0.0138060795427634
 10
751.1263759270753
 20
1908.892155771544
 10
751.8245344184818
 20
1909.037960192208
 42
0.0084448310719929
 10
754.2482769105201
 20
1909.587013956038
 42
0.0095436791056103
 10
756.6506075834994
 20
1910.222865154222
 10
756.8804919938058
 20
1910.288430738776
 42
0.0171665736106653
 10
759.6992134873261
 20
1911.198075536364
 10
759.9457612294692
 20
1911.287094143749
 42
0.0095982938856031
 10
761.0696994903326
 20
1911.584499690084
 10
761.1742053458323
 20
1911.614310790594
 42
0.0074256092102819
 10
762.495531094734
 20
1912.012540684704
 10
763.4044802160673
 20
1912.301277976824
 42
0.0169055485933467
 10
766.5005854394494
 20
1913.401319475781
 10
767.7539806886035
 20
1913.894971648684
 42
0.0203931936429804
 10
773.221126495973
 20
1916.310108035085
 10
774.5251541605647
 20
1916.950927676703
 42
0.0246767987858019
 10
780.3734383155107
 20
1920.192338200981
 10
781.3964547874551
 20
1920.82724313187
 42
0.0141923741560417
 10
784.9715775307901
 20
1923.189152929726
 10
785.179247223039
 20
1923.334981224227
 42
0.0114399006714421
 10
788.2206865224379
 20
1925.576330471873
 42
0.0161296562352292
 10
789.2906050983128
 20
1926.753166552977
 10
789.3806657860047
 20
1926.858885297328
 42
0.0124665007904714
 10
790.556520608477
 20
1928.31100483392
 10
790.7594339035593
 20
1928.574775227537
 42
0.0146543443327408
 10
792.244734280614
 20
1930.627299255435
 10
792.4493198682127
 20
1930.928201354422
 42
0.0165931925946507
 10
794.1921440147058
 20
1933.683925099767
 10
794.3530791773399
 20
1933.958127757874
 42
0.0187188716385927
 10
796.1977994326203
 20
1937.389197152971
 10
796.3207495884639
 20
1937.639948082486
 42
0.0210205762928402
 10
798.1113972728524
 20
1941.716919878742
 10
798.2020692407932
 20
1941.949443722935
 42
0.0234033749638
 10
799.7828765344298
 20
1946.640810379642
 10
799.8462261572264
 20
1946.862606294305
 42
0.0257305770347321
 10
801.0625609998741
 20
1952.13423324456
 10
801.1017195559552
 20
1952.35530256467
 42
0.0277962540154971
 10
801.8013692218778
 20
1958.170628973113
 10
801.8581542512574
 20
1959.054500387135
 42
0.0292517193009315
 10
801.8866074111445
 20
1964.071871414223
 10
801.8722406977679
 20
1964.343633411147
 42
0.0149977141090504
 10
801.5017008463777
 20
1968.808029475561
 42
0.0226605925909258
 10
800.7967373084989
 20
1973.229342340124
 10
800.6954599599379
 20
1973.720306546092
 42
-0.0002782041863493
 10
800.4630196369179
 20
1975.07243421914
 10
800.1698749097725
 20
1976.783386152646
 42
-0.0022963841107512
 10
799.3738409889861
 20
1981.561203042982
 10
798.8703758342303
 20
1984.671053003193
 42
-0.0043737729182743
 10
797.6094962012481
 20
1992.915899735488
 10
797.5911141536258
 20
1993.043562523982
 42
-0.0026667032193914
 10
796.4818242182503
 20
2001.050029828849
 10
796.4664331105771
 20
2001.165650361193
 42
-0.007423656573717
 10
795.5463657107089
 20
2008.96045421921
 10
795.3964832826416
 20
2010.415519906107
 42
-0.004948337709281
 10
794.9404420863144
 20
2015.318367074219
 10
794.9293676465122
 20
2015.451726221714
 42
-0.0059731680561138
 10
794.5994861378103
 20
2020.09630951302
 10
794.5601929957797
 20
2020.761977403115
 42
-0.0075933774598931
 10
794.4147992751624
 20
2024.081374116339
 10
794.3900287685044
 20
2024.947639436255
 42
-0.0045785853749651
 10
794.3591441516782
 20
2026.536996517424
 10
794.3563506752197
 20
2026.808921853393
 42
-0.0025681537978873
 10
794.3509790029067
 20
2027.854738674999
 42
0.0028242681353473
 10
794.3646464325896
 20
2029.501600127664
 10
794.3670707032452
 20
2030.41629110531
 42
0.0043690874205098
 10
794.3459085821415
 20
2033.89242679301
 10
794.3034561696295
 20
2036.75561742808
 42
0.0091498122318574
 10
793.9987023143177
 20
2045.952372116056
 10
793.8327717247124
 20
2049.17623594519
 42
0.0086686727794044
 10
793.2573499902234
 20
2057.531473153284
 10
793.1175353483237
 20
2059.151361182841
 42
0.0055196867058911
 10
792.620571881386
 20
2064.251358964208
 10
792.583181235611
 20
2064.595654630297
 42
0.0047235765468096
 10
792.0631186513443
 20
2068.996661526562
 42
-0.0007814843040925
 10
791.7266659471953
 20
2072.805319740783
 10
791.3159493242562
 20
2077.539043658672
 42
-0.0038618869263116
 10
790.2666260239597
 20
2090.823780430642
 10
789.8358920118126
 20
2096.871733908131
 42
-0.0027739880847196
 10
789.3365461976947
 20
2104.478397572627
 10
789.2542300861502
 20
2105.848598554701
 42
-0.0019359764617932
 10
788.980575244935
 20
2110.718690217654
 10
788.9726529342022
 20
2110.870146559752
 42
-0.0025068722292095
 10
788.7566091063884
 20
2115.439468316528
 42
-0.0033853957078611
 10
788.594427882609
 20
2120.010971376447
 10
788.5939868442415
 20
2120.026339208461
 42
-0.0067182574028657
 10
788.523744870125
 20
2124.630619890172
 10
788.5235517568129
 20
2124.736825100782
 10
788.5235517568129
 20
2145.995372464064
  0
LWPOLYLINE
  5
1AE0
330
1A82
100
AcDbEntity
  8
0
  6
Continuous
 62
     7
370
     5
390
1D
100
AcDbPolyline
 90
      152
 70
   128
 43
0.0
 10
476.894325194324
 20
1913.235254299999
 42
0.0076594204739588
 10
477.9564599816692
 20
1913.354566348546
 10
478.3993946429954
 20
1913.411205333719
 42
0.0097522910344549
 10
480.3399781252166
 20
1913.697920851055
 10
486.370975758395
 20
1914.709541848939
 42
-0.0055073041683076
 10
500.3921215448926
 20
1916.90291111844
 10
505.7436202882265
 20
1917.679776813347
 42
-0.0035141277957885
 10
521.0198053618404
 20
1919.787870996797
 10
522.7170684790352
 20
1920.009946818174
 42
-0.0048667957708064
 10
534.6275666751118
 20
1921.45058842934
 10
536.6167522633158
 20
1921.671569039202
 42
-0.0031377864670565
 10
544.5681288680427
 20
1922.504414825041
 10
544.655003977616
 20
1922.512963511524
 42
-0.0037560292857268
 10
552.4431706722734
 20
1923.220305999524
 10
552.5913356458034
 20
1923.232641289799
 42
-0.0046336992014199
 10
560.0936262255918
 20
1923.787278998901
 42
-0.005804812886058
 10
567.605676525865
 20
1924.185173467858
 10
567.8081524163625
 20
1924.193542213181
 42
-0.0099200355818948
 10
575.7331505551047
 20
1924.363711139866
 10
576.0253906240054
 20
1924.364187405467
 42
-0.0009726928255974
 10
578.6199611147581
 20
1924.298314578692
 10
582.1536992042567
 20
1924.20171822675
 42
-0.0033048460582327
 10
591.8134499766634
 20
1923.873756575229
 10
595.219819009783
 20
1923.735559413173
 42
-0.0023389323270835
 10
605.761656615664
 20
1923.258470574684
 10
605.761656615742
 20
1923.25847057468
 10
607.0068662589888
 20
1923.196278368244
 42
-0.0034839929746306
 10
615.0528608543572
 20
1922.738195325501
 10
616.474107695197
 20
1922.647340010965
 42
-0.0023942447357645
 10
621.6727055681916
 20
1922.290008965593
 10
621.8029204173009
 20
1922.280431823901
 42
-0.003021749849856
 10
626.7370030556355
 20
1921.887542088811
 10
626.9217188106377
 20
1921.871709636054
 42
-0.0040011924292873
 10
631.4805742016825
 20
1921.444183107838
 10
631.7190299236009
 20
1921.419894410552
 42
-0.0055382554079542
 10
635.7924511172952
 20
1920.959342299627
 10
636.4581353810748
 20
1920.876600912341
 42
-0.0085092953758226
 10
639.1885056881034
 20
1920.489940478435
 10
639.7618108784617
 20
1920.398774779236
 42
-0.006080040573131
 10
641.3357073126543
 20
1920.128835908155
 42
-0.0075947726306697
 10
642.9015686051108
 20
1919.815971528227
 10
642.9649465617018
 20
1919.802304178627
 42
-0.0170656516307358
 10
644.6384336601835
 20
1919.381184071091
 10
644.7423745107238
 20
1919.351222073436
 10
646.4827576331214
 20
1919.036805919721
 42
0.0037682193947032
 10
659.4257899531957
 20
1916.799121034303
 10
661.0699133559639
 20
1916.527617881153
 42
0.0023392143740936
 10
670.7488235466901
 20
1914.975767397448
 10
670.7488235467744
 20
1914.975767397435
 10
671.9209657684235
 20
1914.793454672263
 42
0.0037338034176887
 10
679.2709695900156
 20
1913.706399682343
 10
679.8157542953919
 20
1913.62997950628
 42
0.0024696389079484
 10
686.0884967505721
 20
1912.781635579092
 42
0.0070373893412832
 10
692.375688569205
 20
1912.052769874623
 10
693.110088866193
 20
1911.97809072578
 42
0.0028667029533411
 10
694.7490776017328
 20
1911.854057831413
 10
695.6549076388213
 20
1911.790728816517
 42
0.0044413304134805
 10
699.1081384826817
 20
1911.580109440693
 10
701.9276824327117
 20
1911.433264985524
 42
0.0094843909631837
 10
711.0275822718132
 20
1911.132260727033
 10
714.2048237599565
 20
1911.08746664224
 42
0.0091580120044429
 10
722.3795121643586
 20
1911.121947895072
 10
723.6264932151694
 20
1911.150051546764
 42
0.0058644276643773
 10
729.3043052648437
 20
1911.344662370365
 42
0.0069913474215145
 10
734.9750732797078
 20
1911.685166215039
 10
735.0253309678701
 20
1911.688889859566
 42
0.0085404530431332
 10
740.6006040963272
 20
1912.197849479898
 10
740.6940898681559
 20
1912.207996438985
 42
0.0106389202508863
 10
746.0588422954547
 20
1912.906063072664
 10
746.8000104961418
 20
1913.018588403609
 42
0.0138059954507103
 10
750.6484199803795
 20
1913.712050149324
 10
751.3465684602102
 20
1913.857859138193
 42
0.0084448285467931
 10
753.7702553036223
 20
1914.406923571063
 42
0.0095437119942268
 10
756.1725299406089
 20
1915.042783574469
 10
756.4024046522911
 20
1915.108348694904
 42
0.0171667468413547
 10
759.221050004218
 20
1916.017998820318
 10
759.4675888661881
 20
1916.10701699531
 42
0.0143236992237757
 10
761.5805837714103
 20
1916.777466499648
 10
762.0169108705142
 20
1916.929799464644
 42
0.0149571266690904
 10
764.9497358305354
 20
1918.053212028246
 10
765.7782949440804
 20
1918.399348286562
 42
0.017623796028384
 10
770.2619382050013
 20
1920.460872997382
 10
770.9825299638894
 20
1920.823477699154
 42
0.0204355019962858
 10
776.7046957989842
 20
1924.002266913725
 10
777.0467374224812
 20
1924.211005329982
 42
0.0204479054225585
 10
783.1560796305108
 20
1928.291190759286
 10
783.180436034157
 20
1928.308938870312
 10
783.1831645497833
 20
1928.312349514845
 42
0.0177618754414243
 10
784.2148021115974
 20
1929.35001876878
 10
784.3027759072984
 20
1929.445028991983
 42
0.0136314379224581
 10
785.4381671204867
 20
1930.740337675977
 10
785.636830082793
 20
1930.979849914564
 42
0.0159077773175331
 10
787.0753190647581
 20
1932.830920767462
 10
787.2774357051675
 20
1933.10882009741
 42
0.0178234323818355
 10
788.971639050334
 20
1935.621879748409
 10
789.1336329051024
 20
1935.881688212551
 42
0.0198470624578701
 10
790.9365440112622
 20
1939.046370200436
 10
791.0636805608183
 20
1939.291682909716
 42
0.021934722109327
 10
792.8282210454341
 20
1943.09603016823
 10
792.9254775316703
 20
1943.332345753867
 42
0.0239590311199196
 10
794.5051492780157
 20
1947.762509141586
 10
794.5763891103628
 20
1947.997284175134
 42
0.0257727427566629
 10
795.8261761864284
 20
1953.037199616071
 10
795.9043306651768
 20
1953.440228708556
 42
0.0271027283766355
 10
796.6380878626551
 20
1958.748905608231
 10
796.6619070742242
 20
1959.034685005219
 42
0.0209101287162744
 10
796.8598491200943
 20
1963.81988760078
 42
0.0005389259602446
 10
796.6800276633295
 20
1964.956886440531
 10
796.4257300272083
 20
1966.55363684964
 42
0.0003316078788608
 10
795.7332161586853
 20
1970.883483400485
 10
795.2595368961099
 20
1973.832554085156
 42
-0.0026144857149739
 10
793.8520323746482
 20
1982.897996561522
 10
793.6550466241004
 20
1984.212025767746
 42
-0.0023296366546708
 10
792.7189651752027
 20
1990.66113116585
 42
-0.0029988138167028
 10
791.8516690719408
 20
1997.119799812807
 10
791.8441467456817
 20
1997.178484032406
 42
-0.0038542287178915
 10
791.0553826867365
 20
2003.732096127262
 10
791.0478860582116
 20
2003.798707580285
 42
-0.0049231782843986
 10
790.3879770716801
 20
2010.231674870269
 10
790.3764805639173
 20
2010.355770680295
 42
-0.0063321522132739
 10
789.8813981446154
 20
2016.553314332779
 10
789.8229704121899
 20
2017.423410347383
 42
-0.0084484267643067
 10
789.5987247630625
 20
2021.890821412886
 10
789.560051836934
 20
2023.053231551248
 42
-0.0052837572208812
 10
789.5113305958303
 20
2025.200126533174
 10
789.5068855788471
 20
2025.566783334333
 42
-0.0030306357577817
 10
789.4983139638445
 20
2026.980931546112
 42
0.0028256485668522
 10
789.5120295434095
 20
2028.627745030126
 10
789.5144782031501
 20
2029.5424177222
 42
0.0043712161399259
 10
789.4933946652063
 20
2033.018469776881
 10
789.4509946930534
 20
2035.881639336547
 42
0.0091539543462387
 10
789.1463363316675
 20
2045.078268060757
 10
788.9804118558271
 20
2048.302115804907
 42
0.0086722896959653
 10
788.4049367859986
 20
2056.657445075627
 10
788.2651027833226
 20
2058.27731480966
 42
0.0055218283930951
 10
787.7680394755059
 20
2063.377432924569
 10
787.7306418985559
 20
2063.721723776774
 42
0.004725323531302
 10
787.2104536122788
 20
2068.122854397691
 42
-0.0007813659819848
 10
786.8740657554102
 20
2071.931447963925
 10
786.4634274864014
 20
2076.66510269626
 42
-0.0038612677059527
 10
785.41430669445
 20
2089.94963340492
 10
784.9836562586183
 20
2095.997496750899
 42
-0.0027735266906158
 10
784.484406344147
 20
2103.604069321489
 10
784.4021064808019
 20
2104.974248146445
 42
-0.0019356475893992
 10
784.1285041282873
 20
2109.844291653757
 10
784.1205836011944
 20
2109.995741571945
 42
-0.0025064379149784
 10
783.9045811550507
 20
2114.565027242542
 42
-0.0033847950406945
 10
783.7424314211069
 20
2119.136493413189
 10
783.7419902508803
 20
2119.151868731158
 42
-0.0067170054640638
 10
783.6717619261857
 20
2123.756126728193
 10
783.6715688466569
 20
2123.862335842971
 10
783.6715688466569
 20
2145.760720120314
  0
LWPOLYLINE
  5
1AE1
330
1A82
100
AcDbEntity
  8
0
  6
Continuous
 62
     7
370
     5
390
1D
100
AcDbPolyline
 90
       55
 70
   128
 43
0.0
 10
755.524883788063
 20
2079.052789456252
 10
755.5248837880774
 20
2097.850897854712
 42
-0.0053343119856632
 10
755.6573318827407
 20
2098.051010426901
 10
755.6702352127667
 20
2098.070061002294
 42
-0.0040787203922414
 10
755.8325458722842
 20
2098.305537584572
 10
755.9480014843953
 20
2098.470147965658
 42
-0.0090983701314419
 10
756.3532624795716
 20
2099.026146208908
 10
756.526631620709
 20
2099.255128151887
 42
-0.0107042481849972
 10
757.3099419848343
 20
2100.244943822707
 10
757.5084848679209
 20
2100.485080838117
 42
-0.0127754711874704
 10
758.4480745358667
 20
2101.564147677902
 10
758.5746189135484
 20
2101.702191648403
 42
-0.0072983709750775
 10
759.2999119449617
 20
2102.470571747605
 42
-0.0079974163062741
 10
760.0483514599707
 20
2103.216392437154
 10
760.0684501132986
 20
2103.235790073086
 42
-0.0087840488170046
 10
760.882340671925
 20
2103.994134491882
 10
760.8999755360408
 20
2104.009996318458
 42
-0.0096672774237215
 10
761.7771320951135
 20
2104.768803761548
 10
761.7923518958557
 20
2104.781463983506
 42
-0.0106569933729003
 10
762.7305475675367
 20
2105.528631892378
 10
762.7434518904356
 20
2105.538466711118
 42
-0.0117617493569272
 10
763.740402010868
 20
2106.261850296431
 10
763.7511595167147
 20
2106.269276051997
 42
-0.0129870707565282
 10
764.804501563998
 20
2106.956691878063
 10
764.8133722553677
 20
2106.96215781637
 42
-0.0143329163365472
 10
765.9206417338328
 20
2107.60139392476
 10
766.0670561808558
 20
2107.680414299425
 42
-0.0158440647628706
 10
766.943137296399
 20
2108.117984621889
 42
-0.0084265276081926
 10
767.8397398902914
 20
2108.512675035617
 10
767.8442795687963
 20
2108.514582765225
 42
-0.0181636578110986
 10
768.769324450472
 20
2108.864361584387
 10
768.7715392213809
 20
2108.86510829211
 42
-0.0096325123520043
 10
769.719492707007
 20
2109.164500997011
 10
769.7246822434196
 20
2109.166030717091
 42
-0.020522749837163
 10
770.6988101738175
 20
2109.410218405043
 10
770.7017398354709
 20
2109.410826235769
 42
-0.0107973925300742
 10
771.6957266287842
 20
2109.594761736112
 10
771.7033736429006
 20
2109.596006672245
 42
-0.0226392191351373
 10
772.7220093580387
 20
2109.714818725254
 10
772.8952468132977
 20
2109.727111966881
 42
-0.0176834087089552
 10
773.942364256813
 20
2109.764279202344
 42
-0.0038908015731305
 10
774.0383639636838
 20
2109.767391922202
 10
774.1150055453338
 20
2109.769280089276
 42
-0.0061109291359148
 10
774.3643504590945
 20
2109.77237452835
 10
774.4471438560158
 20
2109.772390087904
 42
-0.0047897310278716
 10
774.8620760534075
 20
2109.76849315565
 10
775.0581330911597
 20
2109.76477334166
 42
-0.010632785267223
 10
775.8644516691019
 20
2109.732313099628
 10
776.1473265891381
 20
2109.714894216842
 42
-0.0126767463240328
 10
777.5156834168687
 20
2109.595749245103
 10
777.8175001274905
 20
2109.56174116662
 42
-0.0153515966081446
 10
779.2362339153001
 20
2109.357604881192
 10
779.4432478762195
 20
2109.32130050852
 42
-0.008884327197531
 10
780.4382589374328
 20
2109.128521639353
 42
-0.0085149487762108
 10
781.339370116188
 20
2108.921167874219
  0
LWPOLYLINE
  5
1AE2
330
1A82
100
AcDbEntity
  8
0
  6
Continuous
 62
     7
370
     5
390
1D
100
AcDbPolyline
 90
       10
 70
   128
 43
0.0
 10
790.1818071279066
 20
2104.210385647657
 10
790.2853160675526
 20
2104.103282593393
 42
-0.0189204869631917
 10
790.8017888925474
 20
2103.526743141854
 42
-0.0104377453290264
 10
791.2837819655977
 20
2102.920589918519
 10
791.2989228421548
 20
2102.900710740058
 42
-0.0214588196540975
 10
791.7695091131609
 20
2102.224530465371
 10
791.8295555500412
 20
2102.129829455638
 42
-0.0192240228609548
 10
792.3563525393434
 20
2101.223779602546
 10
792.359844725563
 20
2101.217204007033
 10
792.359844725563
 20
2079.052789456252
  0
LWPOLYLINE
  5
1AE3
330
1A82
100
AcDbEntity
  8
0
  6
Continuous
 62
     7
370
     5
390
1D
100
AcDbPolyline
 90
      138
 70
   128
 43
0.0
 10
774.1620097646252
 20
2146.243016507032
 10
795.5010483388443
 20
2146.243016507032
 10
795.5010483388443
 20
2181.625042874221
 10
774.1620097646252
 20
2181.625042874221
 42
0.0228003193559446
 10
774.0470971832387
 20
2181.620293361261
 10
774.0468371900463
 20
2181.620270710609
 42
0.0132970492418985
 10
773.9319695729868
 20
2181.607177742798
 10
773.8778060394102
 20
2181.599540174228
 42
0.0320667868522635
 10
773.6578834150141
 20
2181.553997786285
 10
773.5603080874736
 20
2181.527170572354
 42
0.0382313090740634
 10
773.2246853902797
 20
2181.406657623996
 10
773.188068481222
 20
2181.390254552494
 42
0.0214578827290182
 10
772.9402338876163
 20
2181.266206682004
 42
0.0228072494486944
 10
772.7043635965605
 20
2181.120753196103
 10
772.6936187267032
 20
2181.113430729087
 42
0.0238197395597798
 10
772.4515912980173
 20
2180.931030998274
 10
772.4411192844532
 20
2180.922327114276
 42
0.0244421789994231
 10
772.1977620281592
 20
2180.699079534583
 10
772.1874026009403
 20
2180.688599164193
 42
0.0246076597006487
 10
771.9474405176757
 20
2180.420670402925
 10
771.9371485276441
 20
2180.407973983754
 42
0.0242978742228917
 10
771.7051822966172
 20
2180.091556186245
 10
771.695037521728
 20
2180.076206645336
 42
0.0235481472934638
 10
771.4755432698598
 20
2179.707467432935
 10
771.4657379616691
 20
2179.689077125376
 42
0.0224379122714605
 10
771.263089084993
 20
2179.264115580287
 10
771.2538974039045
 20
2179.242381259372
 42
0.0210711828483328
 10
771.0724010234884
 20
2178.757200371909
 10
771.0641400990743
 20
2178.731919447555
 42
0.0195552669511749
 10
770.9080771161485
 20
2178.182418585476
 10
770.9010701245405
 20
2178.153487016198
 42
0.0179845267617831
 10
770.774729290377
 20
2177.535471143433
 10
770.7692774982881
 20
2177.502868452056
 42
0.016435095293346
 10
770.6769826353529
 20
2176.812066796584
 10
770.6714859923724
 20
2176.757257032786
 42
0.0148336153905753
 10
770.6200445363816
 20
2176.026581184277
 10
770.6185157632815
 20
2175.988967343903
 42
0.010326766037901
 10
770.6053896474378
 20
2175.331721585158
 10
763.8570883779067
 20
2175.331721585158
 42
0.0085726522627679
 10
763.6901500596081
 20
2175.268473774562
 10
763.5956985994424
 20
2175.230824915481
 42
0.0129535497712039
 10
763.2448414946356
 20
2175.08032575267
 10
763.0748063582233
 20
2175.00211451541
 42
0.0158740473177436
 10
762.398495991403
 20
2174.66462468527
 10
762.2092872065864
 20
2174.56258083457
 42
0.0193119376079497
 10
761.3975633113055
 20
2174.083455083929
 10
761.2986738941169
 20
2174.019812525586
 42
0.0111605386857984
 10
760.7120883556607
 20
2173.623513419844
 42
0.0123021985346785
 10
760.144767704843
 20
2173.200158766419
 10
760.1274881578703
 20
2173.186589769046
 42
0.0135525662484406
 10
759.549042890994
 20
2172.706454709571
 10
759.5345508518513
 20
2172.693746837722
 42
0.0149107590702614
 10
758.9561999930178
 20
2172.155263182563
 10
758.9440525946361
 20
2172.143257375492
 42
0.0163609559732751
 10
758.3770518266139
 20
2171.544952653195
 10
758.3667811473277
 20
2171.533379040057
 42
0.0178723246703037
 10
757.8224021760076
 20
2170.873903921679
 10
757.8135438218454
 20
2170.862355716306
 42
0.0193950220173134
 10
757.3030393685532
 20
2170.140509392205
 10
757.295176426796
 20
2170.128423010859
 42
0.0208579874779671
 10
756.8297289743902
 20
2169.343168936767
 10
756.8225508935795
 20
2169.329819322555
 42
0.022170849853971
 10
756.4132076719932
 20
2168.48028107415
 10
756.406577851578
 20
2168.464802506275
 42
0.0232322091994856
 10
756.0641815413996
 20
2167.550229384637
 10
756.0582000231358
 20
2167.531669357033
 42
0.0239448073021582
 10
755.793331984807
 20
2166.551366638239
 10
755.7630652399574
 20
2166.413434431007
 42
0.0241579724345607
 10
755.6252323854534
 20
2165.599262062517
 10
755.6101736446823
 20
2165.473736978858
 42
0.0120344528706924
 10
755.5555664965465
 20
2164.902636839584
 42
0.0119902589395415
 10
755.5284514661051
 20
2164.329571849662
 10
755.5248139111928
 20
2164.173489720115
 42
0.0228189693549623
 10
755.5442238211399
 20
2163.304359157258
 10
755.5456322305225
 20
2163.28366663309
 42
0.0114638436015485
 10
755.6208322337731
 20
2162.458531797107
 42
0.0230231596726326
 10
755.7526085885112
 20
2161.641192384049
 10
755.7815802372272
 20
2161.502471173515
 42
0.0227575570767955
 10
756.0348522206342
 20
2160.516322174622
 10
756.0407035781321
 20
2160.497196733301
 42
0.0221040034213225
 10
756.3679556395222
 20
2159.575306526945
 10
756.3745799133712
 20
2159.558973558609
 42
0.021150408220367
 10
756.765677038839
 20
2158.700774653908
 10
756.7729796657588
 20
2158.686394655699
 42
0.0199760409246959
 10
757.2175696149127
 20
2157.891276263877
 10
757.2256570153785
 20
2157.878079080144
 42
0.0186641917707225
 10
757.7132133326057
 20
2157.145330471875
 10
757.7223435480455
 20
2157.132660638006
 42
0.0172904205791893
 10
758.2422195730309
 20
2156.461440855252
 10
758.252747905276
 20
2156.448777322578
 42
0.0159158181383784
 10
758.7942290703079
 20
2155.8381083304
 10
758.8065592413961
 20
2155.825063667126
 42
0.014584892656675
 10
759.3589060837626
 20
2155.273839867098
 42
0.0133993343403106
 10
759.9412598201012
 20
2154.754340441231
 10
760.0544822799599
 20
2154.658660759961
 42
0.0231749310437155
 10
760.9076126138625
 20
2154.002974800982
 10
761.0926513516224
 20
2153.873940701472
 42
0.0192297053978304
 10
761.9673737908803
 20
2153.312677508356
 10
762.149593789413
 20
2153.205415157141
 42
0.016161461484712
 10
762.6910265569953
 20
2152.909835682502
 10
762.839559570122
 20
2152.834873784021
 42
0.0071367828158974
 10
763.0952599563251
 20
2152.710373310385
 10
763.1308388197898
 20
2152.693673894509
 42
0.0060035785733296
 10
763.3181817078859
 20
2152.60847173136
 10
763.3331055253127
 20
2152.601899578678
 42
0.0090218433451737
 10
763.4928315419689
 20
2152.534973538283
 10
770.6053896474378
 20
2152.534973538283
 42
0.0082996702566602
 10
770.6216711511888
 20
2152.237563583533
 10
770.6385363872355
 20
2152.001387858808
 42
0.0207741767095635
 10
770.7253204632731
 20
2151.235504027693
 10
770.7768580433418
 20
2150.904310212155
 42
0.0155264717771223
 10
770.8970104743667
 20
2150.263765789429
 10
770.9175344797358
 20
2150.170441070266
 42
0.009676788357527
 10
771.0252072285355
 20
2149.722362120146
 42
0.0112379928046276
 10
771.151514338257
 20
2149.279206453329
 10
771.1527358668169
 20
2149.275259406171
 42
0.013249538116003
 10
771.3032211943477
 20
2148.831037302756
 10
771.3041363656218
 20
2148.828554300011
 42
0.0157572384484018
 10
771.4797965464564
 20
2148.394610957746
 10
771.4812787813493
 20
2148.391257194063
 42
0.0188871835306875
 10
771.6832999979702
 20
2147.977192539529
 10
771.6857124274832
 20
2147.972688036308
 42
0.0227681506105616
 10
771.9161835071294
 20
2147.585766578743
 10
771.949003474939
 20
2147.53597144589
 42
0.0277210436747168
 10
772.1462154902558
 20
2147.270082752163
 10
772.14867307521
 20
2147.267126824559
 42
0.0155635862141042
 10
772.3632682799804
 20
2147.02477360079
 10
772.3643801363513
 20
2147.023594018925
 42
0.0359428123608638
 10
772.5998706932915
 20
2146.807231602842
 10
772.6007164734553
 20
2146.80655982668
 42
0.0200120258826748
 10
772.8576077695278
 20
2146.618777196407
 42
0.0436868305196781
 10
773.1354270536291
 20
2146.465601020591
 10
773.1358708637973
 20
2146.46540465427
 42
0.0234080748285348
 10
773.4333883536547
 20
2146.350092509942
 10
773.4379717404057
 20
2146.348558618011
 42
0.0468639272523068
 10
773.757052809934
 20
2146.274087560096
 10
773.8133725707959
 20
2146.266401810515
 42
0.0343397395313559
 10
774.1620097646252
 20
2146.243016507032
  0
LINE
  5
1AE4
330
1A82
100
AcDbEntity
  8
0
  6
Continuous
 62
     7
370
     5
390
1D
100
AcDbLine
 10
579.959911420255
 20
1914.004694802187
 30
0.0
 11
616.4810906202555
 21
1917.501287682187
 31
0.0
  0
POLYLINE
  5
1AE5
330
1A82
100
AcDbEntity
  8
0
  6
Continuous
 62
     7
370
     5
390
1D
100
AcDb2dPolyline
 66
     1
 10
0.0
 20
0.0
 30
0.0
 75
     5
  0
VERTEX
  5
1AE6
330
1AE5
100
AcDbEntity
  8
0
  6
Continuous
 62
     7
370
     5
390
1D
100
AcDbVertex
100
AcDb2dVertex
 10
554.0158209402551
 20
1918.127482482186
 30
0.0
  0
VERTEX
  5
1AE7
330
1AE5
100
AcDbEntity
  8
0
  6
Continuous
 62
     7
370
     5
390
1D
100
AcDbVertex
100
AcDb2dVertex
 10
554.8214116602552
 20
1908.250937562187
 30
0.0
  0
VERTEX
  5
1AE8
330
1AE5
100
AcDbEntity
  8
0
  6
Continuous
 62
     7
370
     5
390
1D
100
AcDbVertex
100
AcDb2dVertex
 10
580.2313971402554
 20
1910.683411122186
 30
0.0
  0
VERTEX
  5
1AE9
330
1AE5
100
AcDbEntity
  8
0
  6
Continuous
 62
     7
370
     5
390
1D
100
AcDbVertex
100
AcDb2dVertex
 10
579.5444955402548
 20
1919.108382402187
 30
0.0
  0
SEQEND
  5
1AEA
330
1AE5
100
AcDbEntity
  8
0
  6
Continuous
 62
     7
370
     5
390
1D
  0
POLYLINE
  5
1AEB
330
1A82
100
AcDbEntity
  8
0
  6
Continuous
 62
     7
370
     5
390
1D
100
AcDb2dPolyline
 66
     1
 10
0.0
 20
0.0
 30
0.0
 75
     5
  0
VERTEX
  5
1AEC
330
1AEB
100
AcDbEntity
  8
0
  6
Continuous
 62
     7
370
     5
390
1D
100
AcDbVertex
100
AcDb2dVertex
 10
579.0806449002547
 20
1924.800066642186
 30
0.0
  0
VERTEX
  5
1AED
330
1AEB
100
AcDbEntity
  8
0
  6
Continuous
 62
     7
370
     5
390
1D
100
AcDbVertex
100
AcDb2dVertex
 10
577.1945602602553
 20
1947.940607802185
 30
0.0
  0
VERTEX
  5
1AEE
330
1AEB
100
AcDbEntity
  8
0
  6
Continuous
 62
     7
370
     5
390
1D
100
AcDbVertex
100
AcDb2dVertex
 10
551.7838936602556
 20
1945.508138202186
 30
0.0
  0
VERTEX
  5
1AEF
330
1AEB
100
AcDbEntity
  8
0
  6
Continuous
 62
     7
370
     5
390
1D
100
AcDbVertex
100
AcDb2dVertex
 10
553.5512891802554
 20
1923.828714282187
 30
0.0
  0
SEQEND
  5
1AF0
330
1AEB
100
AcDbEntity
  8
0
  6
Continuous
 62
     7
370
     5
390
1D
  0
POLYLINE
  5
1AF1
330
1A82
100
AcDbEntity
  8
0
  6
Continuous
 62
     7
370
     5
390
1D
100
AcDb2dPolyline
 66
     1
 10
0.0
 20
0.0
 30
0.0
 75
     5
  0
VERTEX
  5
1AF2
330
1AF1
100
AcDbEntity
  8
0
  6
Continuous
 62
     7
370
     5
390
1D
100
AcDbVertex
100
AcDb2dVertex
 10
554.7054509802555
 20
1909.669084842187
 30
0.0
  0
VERTEX
  5
1AF3
330
1AF1
100
AcDbEntity
  8
0
  6
Continuous
 62
     7
370
     5
390
1D
100
AcDbVertex
100
AcDb2dVertex
 10
535.8425414202555
 20
1907.862806082186
 30
0.0
  0
VERTEX
  5
1AF4
330
1AF1
100
AcDbEntity
  8
0
  6
Continuous
 62
     7
370
     5
390
1D
100
AcDbVertex
100
AcDb2dVertex
 10
535.1563209402551
 20
1916.272091802187
 30
0.0
  0
SEQEND
  5
1AF5
330
1AF1
100
AcDbEntity
  8
0
  6
Continuous
 62
     7
370
     5
390
1D
  0
POLYLINE
  5
1AF6
330
1A82
100
AcDbEntity
  8
0
  6
Continuous
 62
     7
370
     5
390
1D
100
AcDb2dPolyline
 66
     1
 10
0.0
 20
0.0
 30
0.0
 75
     5
  0
VERTEX
  5
1AF7
330
1AF6
100
AcDbEntity
  8
0
  6
Continuous
 62
     7
370
     5
390
1D
100
AcDbVertex
100
AcDb2dVertex
 10
534.6924703002554
 20
1921.976056002186
 30
0.0
  0
VERTEX
  5
1AF8
330
1AF6
100
AcDbEntity
  8
0
  6
Continuous
 62
     7
370
     5
390
1D
100
AcDbVertex
100
AcDb2dVertex
 10
533.1454052202547
 20
1940.961749322186
 30
0.0
  0
VERTEX
  5
1AF9
330
1AF6
100
AcDbEntity
  8
0
  6
Continuous
 62
     7
370
     5
390
1D
100
AcDbVertex
100
AcDb2dVertex
 10
552.0076336602559
 20
1942.767343002186
 30
0.0
  0
SEQEND
  5
1AFA
330
1AF6
100
AcDbEntity
  8
0
  6
Continuous
 62
     7
370
     5
390
1D
  0
LINE
  5
1AFB
330
1A82
100
AcDbEntity
  8
0
  6
Continuous
 62
     7
370
     5
390
1D
100
AcDbLine
 10
486.7374445002559
 20
1905.843705042186
 30
0.0
 11
486.0553147002555
 21
1909.381224522187
 31
0.0
  0
LINE
  5
1AFC
330
1A82
100
AcDbEntity
  8
0
  6
Continuous
 62
     7
370
     5
390
1D
100
AcDbLine
 10
484.9714151802553
 20
1914.991055562186
 30
0.0
 11
481.7237993802554
 21
1931.797347042186
 31
0.0
  0
LINE
  5
1AFD
330
1A82
100
AcDbEntity
  8
0
  6
Continuous
 62
     7
370
     5
390
1D
100
AcDbLine
 10
483.270183340256
 20
1905.571534242187
 30
0.0
 11
482.6439885402559
 21
1908.817787802186
 31
0.0
  0
LINE
  5
1AFE
330
1A82
100
AcDbEntity
  8
0
  6
Continuous
 62
     7
370
     5
390
1D
100
AcDbLine
 10
481.5594039402566
 20
1914.424205322186
 30
0.0
 11
478.2565382202555
 21
1931.525176242187
 31
0.0
  0
LINE
  5
1AFF
330
1A82
100
AcDbEntity
  8
0
  6
Continuous
 62
     7
370
     5
390
1D
100
AcDbLine
 10
480.1937821002556
 20
1905.331427562186
 30
0.0
 11
479.6180654202552
 21
1908.308238762187
 31
0.0
  0
LINE
  5
1B00
330
1A82
100
AcDbEntity
  8
0
  6
Continuous
 62
     7
370
     5
390
1D
100
AcDbLine
 10
478.5355281402552
 20
1913.913290082186
 30
0.0
 11
475.1794519002559
 21
1931.285065602187
 31
0.0
  0
LINE
  5
1B01
330
1A82
100
AcDbEntity
  8
0
  6
Continuous
 62
     7
370
     5
390
1D
100
AcDbLine
 10
476.7203829402559
 20
1905.057209442187
 30
0.0
 11
476.4209277402559
 21
1906.604959602186
 31
0.0
  0
LINE
  5
1B02
330
1A82
100
AcDbEntity
  8
0
  6
Continuous
 62
     7
370
     5
390
1D
100
AcDbLine
 10
474.8342943402557
 20
1914.817793682187
 30
0.0
 11
471.7060527402554
 21
1931.011532562187
 31
0.0
  0
LINE
  5
1B03
330
1A82
100
AcDbEntity
  8
0
  6
Continuous
 62
     7
370
     5
390
1D
100
AcDbLine
 10
466.7333342202554
 20
1904.058572682186
 30
0.0
 11
466.4147799402562
 21
1905.712735962186
 31
0.0
  0
LINE
  5
1B04
330
1A82
100
AcDbEntity
  8
0
  6
Continuous
 62
     7
370
     5
390
1D
100
AcDbLine
 10
464.8220085402553
 20
1913.954216682186
 30
0.0
 11
461.7196851402558
 21
1930.012214682186
 31
0.0
  0
LINE
  5
1B05
330
1A82
100
AcDbEntity
  8
0
  6
Continuous
 62
     7
370
     5
390
1D
100
AcDbLine
 10
473.2578975402556
 20
1904.774809962187
 30
0.0
 11
472.9632181002561
 21
1906.296637962186
 31
0.0
  0
LINE
  5
1B06
330
1A82
100
AcDbEntity
  8
0
  6
Continuous
 62
     7
370
     5
390
1D
100
AcDbLine
 10
471.3711278202553
 20
1914.539484882187
 30
0.0
 11
468.2435673402559
 21
1930.729133082187
 31
0.0
  0
LINE
  5
1B07
330
1A82
100
AcDbEntity
  8
0
  6
Continuous
 62
     7
370
     5
390
1D
100
AcDbLine
 10
469.985721820255
 20
1904.463074802186
 30
0.0
 11
469.6685337402558
 21
1906.106324322187
 31
0.0
  0
LINE
  5
1B08
330
1A82
100
AcDbEntity
  8
0
  6
Continuous
 62
     7
370
     5
390
1D
100
AcDbLine
 10
468.0955425402552
 20
1914.246167682187
 30
0.0
 11
464.9720767002553
 21
1930.416716802186
 31
0.0
  0
POLYLINE
  5
1B09
330
1A82
100
AcDbEntity
  8
0
  6
Continuous
 62
     7
370
     5
390
1D
100
AcDb2dPolyline
 66
     1
 10
0.0
 20
0.0
 30
0.0
 75
     5
  0
VERTEX
  5
1B0A
330
1B09
100
AcDbEntity
  8
0
  6
Continuous
 62
     7
370
     5
390
1D
100
AcDbVertex
100
AcDb2dVertex
 10
487.309751620255
 20
1915.370316642186
 30
0.0
  0
VERTEX
  5
1B0B
330
1B09
100
AcDbEntity
  8
0
  6
Continuous
 62
     7
370
     5
390
1D
100
AcDbVertex
100
AcDb2dVertex
 10
485.6951527002556
 20
1935.190936362187
 30
0.0
  0
VERTEX
  5
1B0C
330
1B09
100
AcDbEntity
  8
0
  6
Continuous
 62
     7
370
     5
390
1D
100
AcDbVertex
100
AcDb2dVertex
 10
496.7326785402555
 20
1936.057241802186
 30
0.0
  0
VERTEX
  5
1B0D
330
1B09
100
AcDbEntity
  8
0
  6
Continuous
 62
     7
370
     5
390
1D
100
AcDbVertex
100
AcDb2dVertex
 10
498.2899802202554
 20
1916.941260522186
 30
0.0
  0
SEQEND
  5
1B0E
330
1B09
100
AcDbEntity
  8
0
  6
Continuous
 62
     7
370
     5
390
1D
  0
POLYLINE
  5
1B0F
330
1A82
100
AcDbEntity
  8
0
  6
Continuous
 62
     7
370
     5
390
1D
100
AcDb2dPolyline
 66
     1
 10
0.0
 20
0.0
 30
0.0
 75
     5
  0
VERTEX
  5
1B10
330
1B0F
100
AcDbEntity
  8
0
  6
Continuous
 62
     7
370
     5
390
1D
100
AcDbVertex
100
AcDb2dVertex
 10
498.743594260255
 20
1911.383273802187
 30
0.0
  0
VERTEX
  5
1B11
330
1B0F
100
AcDbEntity
  8
0
  6
Continuous
 62
     7
370
     5
390
1D
100
AcDbVertex
100
AcDb2dVertex
 10
499.3663795002557
 20
1903.747522602186
 30
0.0
  0
VERTEX
  5
1B12
330
1B0F
100
AcDbEntity
  8
0
  6
Continuous
 62
     7
370
     5
390
1D
100
AcDbVertex
100
AcDb2dVertex
 10
488.3281685802557
 20
1902.881221122186
 30
0.0
  0
VERTEX
  5
1B13
330
1B0F
100
AcDbEntity
  8
0
  6
Continuous
 62
     7
370
     5
390
1D
100
AcDbVertex
100
AcDb2dVertex
 10
487.7756456202559
 20
1909.660899522186
 30
0.0
  0
SEQEND
  5
1B14
330
1B0F
100
AcDbEntity
  8
0
  6
Continuous
 62
     7
370
     5
390
1D
  0
LINE
  5
1B15
330
1A82
100
AcDbEntity
  8
0
  6
Continuous
 62
     7
370
     5
390
1D
100
AcDbLine
 10
477.4720899402554
 20
1907.423515362186
 30
0.0
 11
487.8909251802551
 21
1908.240704922186
 31
0.0
  0
POLYLINE
  5
1B16
330
1A82
100
AcDbEntity
  8
0
  6
Continuous
 62
     7
370
     5
390
1D
100
AcDb2dPolyline
 66
     1
 10
0.0
 20
0.0
 30
0.0
 75
     5
  0
VERTEX
  5
1B17
330
1B16
100
AcDbEntity
  8
0
  6
Continuous
 62
     7
370
     5
390
1D
100
AcDbVertex
100
AcDb2dVertex
 10
458.2312775802556
 20
1913.366224002186
 30
0.0
  0
VERTEX
  5
1B18
330
1B16
100
AcDbEntity
  8
0
  6
Continuous
 62
     7
370
     5
390
1D
100
AcDbVertex
100
AcDb2dVertex
 10
456.6371439402554
 20
1932.911944482187
 30
0.0
  0
VERTEX
  5
1B19
330
1B16
100
AcDbEntity
  8
0
  6
Continuous
 62
     7
370
     5
390
1D
100
AcDbVertex
100
AcDb2dVertex
 10
459.7926699402559
 20
1933.158193122187
 30
0.0
  0
VERTEX
  5
1B1A
330
1B16
100
AcDbEntity
  8
0
  6
Continuous
 62
     7
370
     5
390
1D
100
AcDbVertex
100
AcDb2dVertex
 10
461.3833940202557
 20
1913.646576162186
 30
0.0
  0
SEQEND
  5
1B1B
330
1B16
100
AcDbEntity
  8
0
  6
Continuous
 62
     7
370
     5
390
1D
  0
POLYLINE
  5
1B1C
330
1A82
100
AcDbEntity
  8
0
  6
Continuous
 62
     7
370
     5
390
1D
100
AcDb2dPolyline
 66
     1
 10
0.0
 20
0.0
 30
0.0
 75
     5
  0
VERTEX
  5
1B1D
330
1B1C
100
AcDbEntity
  8
0
  6
Continuous
 62
     7
370
     5
390
1D
100
AcDbVertex
100
AcDb2dVertex
 10
462.0621142602557
 20
1905.322557162187
 30
0.0
  0
VERTEX
  5
1B1E
330
1B1C
100
AcDbEntity
  8
0
  6
Continuous
 62
     7
370
     5
390
1D
100
AcDbVertex
100
AcDb2dVertex
 10
462.4263709002561
 20
1900.850521242186
 30
0.0
  0
VERTEX
  5
1B1F
330
1B1C
100
AcDbEntity
  8
0
  6
Continuous
 62
     7
370
     5
390
1D
100
AcDbVertex
100
AcDb2dVertex
 10
459.2708409402557
 20
1900.603591482186
 30
0.0
  0
VERTEX
  5
1B20
330
1B1C
100
AcDbEntity
  8
0
  6
Continuous
 62
     7
370
     5
390
1D
100
AcDbVertex
100
AcDb2dVertex
 10
458.9099978202556
 20
1905.042205002187
 30
0.0
  0
SEQEND
  5
1B21
330
1B1C
100
AcDbEntity
  8
0
  6
Continuous
 62
     7
370
     5
390
1D
  0
POLYLINE
  5
1B22
330
1A82
100
AcDbEntity
  8
0
  6
Continuous
 62
     7
370
     5
390
1D
100
AcDb2dPolyline
 66
     1
 10
0.0
 20
0.0
 30
0.0
 75
     5
  0
VERTEX
  5
1B23
330
1B22
100
AcDbEntity
  8
0
  6
Continuous
 62
     7
370
     5
390
1D
100
AcDbVertex
100
AcDb2dVertex
 10
393.2428107402555
 20
1914.132254322187
 30
0.0
  0
VERTEX
  5
1B24
330
1B22
100
AcDbEntity
  8
0
  6
Continuous
 62
     7
370
     5
390
1D
100
AcDbVertex
100
AcDb2dVertex
 10
382.5292960602554
 20
1913.175910362187
 30
0.0
  0
VERTEX
  5
1B25
330
1B22
100
AcDbEntity
  8
0
  6
Continuous
 62
     7
370
     5
390
1D
100
AcDbVertex
100
AcDb2dVertex
 10
384.4399366602555
 20
1893.923503122187
 30
0.0
  0
VERTEX
  5
1B26
330
1B22
100
AcDbEntity
  8
0
  6
Continuous
 62
     7
370
     5
390
1D
100
AcDbVertex
100
AcDb2dVertex
 10
455.0852991402552
 20
1900.231149522186
 30
0.0
  0
VERTEX
  5
1B27
330
1B22
100
AcDbEntity
  8
0
  6
Continuous
 62
     7
370
     5
390
1D
100
AcDbVertex
100
AcDb2dVertex
 10
453.1739734602551
 20
1919.482871682187
 30
0.0
  0
VERTEX
  5
1B28
330
1B22
100
AcDbEntity
  8
0
  6
Continuous
 62
     7
370
     5
390
1D
100
AcDbVertex
100
AcDb2dVertex
 10
450.7135343802555
 20
1919.263226322186
 30
0.0
  0
SEQEND
  5
1B29
330
1B22
100
AcDbEntity
  8
0
  6
Continuous
 62
     7
370
     5
390
1D
  0
LINE
  5
1B2A
330
1A82
100
AcDbEntity
  8
0
  6
Continuous
 62
     7
370
     5
390
1D
100
AcDbLine
 10
448.9788801402545
 20
1919.107701282187
 30
0.0
 11
441.1419015402552
 21
1918.408519722186
 31
0.0
  0
POLYLINE
  5
1B2B
330
1A82
100
AcDbEntity
  8
0
  6
Continuous
 62
     7
370
     5
390
1D
100
AcDb2dPolyline
 66
     1
 10
0.0
 20
0.0
 30
0.0
 70
     1
 75
     5
  0
VERTEX
  5
1B2C
330
1B2B
100
AcDbEntity
  8
0
  6
Continuous
 62
     7
370
     5
390
1D
100
AcDbVertex
100
AcDb2dVertex
 10
454.6460084202553
 20
1904.660892642186
 30
0.0
  0
VERTEX
  5
1B2D
330
1B2B
100
AcDbEntity
  8
0
  6
Continuous
 62
     7
370
     5
390
1D
100
AcDbVertex
100
AcDb2dVertex
 10
477.5437105002546
 20
1906.705234722186
 30
0.0
  0
VERTEX
  5
1B2E
330
1B2B
100
AcDbEntity
  8
0
  6
Continuous
 62
     7
370
     5
390
1D
100
AcDbVertex
100
AcDb2dVertex
 10
476.7183356202557
 20
1915.016292642187
 30
0.0
  0
VERTEX
  5
1B2F
330
1B2B
100
AcDbEntity
  8
0
  6
Continuous
 62
     7
370
     5
390
1D
100
AcDbVertex
100
AcDb2dVertex
 10
453.8206335402546
 20
1912.971950562186
 30
0.0
  0
SEQEND
  5
1B30
330
1B2B
100
AcDbEntity
  8
0
  6
Continuous
 62
     7
370
     5
390
1D
  0
SPLINE
  5
1B31
330
1A82
100
AcDbEntity
  8
0
  6
Continuous
 62
     7
370
     5
390
1D
100
AcDbSpline
210
0.0
220
0.0
230
1.0
 70
    11
 71
     2
 72
    39
 73
    36
 74
     0
 42
0.000000001
 43
0.000001
 40
0.0
 40
0.0
 40
0.0
 40
1.0
 40
1.0
 40
2.0
 40
3.0
 40
4.0
 40
5.0
 40
6.0
 40
7.0
 40
8.0
 40
9.0
 40
10.0
 40
11.0
 40
12.0
 40
13.0
 40
14.0
 40
15.0
 40
16.0
 40
17.0
 40
18.0
 40
19.0
 40
20.0
 40
21.0
 40
22.0
 40
23.0
 40
24.0
 40
25.0
 40
26.0
 40
27.0
 40
28.0
 40
29.0
 40
30.0
 40
31.0
 40
31.0
 40
32.0
 40
32.0
 40
32.0
 10
449.6350906849428
 20
1921.843039601327
 30
0.0
 10
449.632784124916
 20
1921.842742923601
 30
0.0
 10
449.6304775648892
 20
1921.842446245875
 30
0.0
 10
449.5259058566933
 20
1921.825690863274
 30
0.0
 10
449.3807905859526
 20
1921.684003084758
 30
0.0
 10
449.2609862551329
 20
1921.476127145181
 30
0.0
 10
449.0950916590542
 20
1920.991737956024
 30
0.0
 10
449.0072355435535
 20
1920.30277680291
 30
0.0
 10
448.9363138528887
 20
1919.593145380216
 30
0.0
 10
448.9905173255762
 20
1918.754330891159
 30
0.0
 10
449.0060764460824
 20
1918.560336723794
 30
0.0
 10
449.0148668072371
 20
1918.452725337383
 30
0.0
 10
449.0558233483788
 20
1918.031685621814
 30
0.0
 10
449.1836856215729
 20
1917.201890253142
 30
0.0
 10
449.4445251179774
 20
1916.256315226751
 30
0.0
 10
449.7011611602449
 20
1915.771741873919
 30
0.0
 10
449.8556321782185
 20
1915.570338113517
 30
0.0
 10
450.0300467850283
 20
1915.448472490621
 30
0.0
 10
450.2419560306039
 20
1915.458856680494
 30
0.0
 10
450.3941661745582
 20
1915.608481879613
 30
0.0
 10
450.5139705053787
 20
1915.816357819194
 30
0.0
 10
450.6798651014573
 20
1916.30074700835
 30
0.0
 10
450.7677212169575
 20
1916.989708161465
 30
0.0
 10
450.8386429076216
 20
1917.699339584151
 30
0.0
 10
450.784439434935
 20
1918.538154073214
 30
0.0
 10
450.7688803144289
 20
1918.732148240578
 30
0.0
 10
450.7600899532741
 20
1918.839759626991
 30
0.0
 10
450.7191334121325
 20
1919.260799342559
 30
0.0
 10
450.5912711389391
 20
1920.090594711232
 30
0.0
 10
450.3304316425344
 20
1921.036169737625
 30
0.0
 10
450.0737956002653
 20
1921.52074309045
 30
0.0
 10
449.9193351614929
 20
1921.722119898137
 30
0.0
 10
449.7448245867595
 20
1921.844782690993
 30
0.0
 10
449.6396909659764
 20
1921.843241305176
 30
0.0
 10
449.6373908254596
 20
1921.843140453251
 30
0.0
 10
449.6350906849428
 20
1921.843039601327
 30
0.0
  0
CIRCLE
  5
1B32
330
1A82
100
AcDbEntity
  8
0
  6
Continuous
 62
     7
370
     5
390
1D
100
AcDbCircle
 10
451.6882963002553
 20
1903.062323802186
 30
0.0
 40
1.106071560001055
  0
LWPOLYLINE
  5
1B33
330
1A82
100
AcDbEntity
  8
0
  6
Continuous
 62
     7
370
     5
390
1D
100
AcDbPolyline
 90
       80
 70
   128
 43
0.0
 10
441.0075234365057
 20
1928.322581448436
 10
441.8090249013493
 20
1920.403064846873
 42
-0.0215092086528713
 10
441.7375643690209
 20
1919.939213164012
 10
441.7315693200584
 20
1919.908998148996
 42
-0.0296246269902989
 10
441.5977177942976
 20
1919.395729547194
 10
441.5862693175032
 20
1919.360515565155
 42
-0.0299293142552772
 10
441.3861969039352
 20
1918.851000888216
 10
441.3816670234577
 20
1918.84122744747
 42
-0.0293339921283109
 10
441.1329194920849
 20
1918.377852534185
 10
441.1287008141031
 20
1918.370991985061
 42
-0.0279822878315831
 10
440.837728377613
 20
1917.952241164124
 10
440.833930112333
 20
1917.947379522097
 42
-0.0260783030889999
 10
440.5074924148465
 20
1917.571686364003
 10
440.5039437668502
 20
1917.568008404678
 42
-0.0238578558775117
 10
440.1490320647503
 20
1917.233653143714
 10
440.1453716725201
 20
1917.230520421057
 42
-0.0215326023715715
 10
439.7691103837304
 20
1916.935586400501
 10
439.7648832411844
 20
1916.932557362148
 42
-0.0192591321902455
 10
439.3744421957894
 20
1916.674937395847
 10
439.3691766328998
 20
1916.671747090934
 42
-0.0171347465433524
 10
438.9717103665914
 20
1916.449177393907
 42
-0.0153980406953584
 10
438.560568416068
 20
1916.252897228368
 10
438.4732188642869
 20
1916.214452357408
 42
-0.0254418125173786
 10
437.8696324716101
 20
1915.984679570112
 10
437.7416693861299
 20
1915.94328448381
 42
-0.0200375177695798
 10
437.0964425055766
 20
1915.762767520886
 10
437.0320344754699
 20
1915.747501325536
 42
-0.0159579472859703
 10
436.504961384312
 20
1915.640210923615
 10
436.3842609071421
 20
1915.619628270728
 42
-0.015697398772843
 10
436.093901850203
 20
1915.579447479267
 10
436.0024166986612
 20
1915.569702691274
 42
-0.0083629143398819
 10
435.8936030263493
 20
1915.559949612499
 10
404.0579648427555
 20
1912.578364163281
 10
403.7204808218514
 20
1912.551848018108
 42
-0.0006833263443568
 10
402.5450825241285
 20
1912.461112989465
 10
402.5450825238448
 20
1912.461112989443
 10
402.5023644708669
 20
1912.457874086106
 42
-0.001845252667533
 10
401.4119881017845
 20
1912.379247279614
 10
401.3707937499104
 20
1912.376429542077
 42
-0.0032558884248761
 10
400.3621095790171
 20
1912.314030660028
 10
400.3225421739467
 20
1912.311841493193
 42
-0.005019410482602
 10
399.3921637156817
 20
1912.26972947877
 10
399.2543101588677
 20
1912.264875897146
 42
-0.0073631222925989
 10
398.59901849703
 20
1912.251461692557
 10
398.5718727490562
 20
1912.251305826765
 42
-0.0044605506621998
 10
397.9706920831517
 20
1912.253217162601
 10
397.9577501337109
 20
1912.253373772168
 42
-0.0117198150885218
 10
397.3829495052859
 20
1912.273810154212
 10
397.3587652591102
 20
1912.275238135414
 42
-0.0070147082991703
 10
396.8333513449743
 20
1912.313665133467
 42
-0.0173616786356653
 10
396.3106978761771
 20
1912.377617500111
 10
396.2200512474722
 20
1912.391918390284
 42
-0.0222617138930453
 10
395.6251786279807
 20
1912.513119300065
 10
395.6052796096335
 20
1912.518105241618
 42
-0.0275849904328908
 10
395.064855624977
 20
1912.685671054321
 10
395.0515774999739
 20
1912.690605706924
 42
-0.0327414387166407
 10
394.5613614422272
 20
1912.910275306932
 10
394.5554730796244
 20
1912.913391465144
 42
-0.0367735270660449
 10
394.1119250998553
 20
1913.191629776771
 10
394.0587290867551
 20
1913.230723500671
 42
-0.038056562825885
 10
393.7615296726052
 20
1913.486093771097
 42
-0.0190279714080003
 10
393.4947663927174
 20
1913.774273232208
 10
393.490866059784
 20
1913.778822258042
 42
-0.0349444319416468
 10
393.2499649966814
 20
1914.103112261699
 10
393.2135547278729
 20
1914.160035874442
 42
-0.0158359972424142
 10
393.064923587714
 20
1914.409467512244
 42
-0.0151223752100921
 10
392.9320042366064
 20
1914.667628807673
 10
392.8947087088068
 20
1914.745786142406
 42
-0.025671777788052
 10
392.7169785495121
 20
1915.173414455673
 10
392.6836370401967
 20
1915.266906053401
 42
-0.0206144810517979
 10
392.4872556004148
 20
1915.898748923438
 10
392.4786819232432
 20
1915.930962753178
 42
-0.0162702202570948
 10
392.3143151646024
 20
1916.640683310791
 10
392.306973997719
 20
1916.677843358407
 42
-0.0126732674606383
 10
392.1711244756667
 20
1917.47067786201
 10
392.1435293687832
 20
1917.660511610989
 42
-0.0096683882793422
 10
392.0702426924971
 20
1918.243666570712
 10
392.0521212294884
 20
1918.414500726841
 42
-0.0018569207434961
 10
392.027257323224
 20
1918.657496975781
 10
391.6486757802558
 20
1923.718893460155
  0
POLYLINE
  5
1B34
330
1A82
100
AcDbEntity
  8
0
  6
Continuous
 62
     7
370
     5
390
1D
100
AcDb2dPolyline
 66
     1
 10
0.0
 20
0.0
 30
0.0
 75
     5
  0
VERTEX
  5
1B35
330
1B34
100
AcDbEntity
  8
0
  6
Continuous
 62
     7
370
     5
390
1D
100
AcDbVertex
100
AcDb2dVertex
 10
382.8710401002553
 20
1930.273471722186
 30
0.0
  0
VERTEX
  5
1B36
330
1B34
100
AcDbEntity
  8
0
  6
Continuous
 62
     7
370
     5
390
1D
100
AcDbVertex
100
AcDb2dVertex
 10
380.8464821802553
 20
1930.082473002186
 30
0.0
  0
VERTEX
  5
1B37
330
1B34
100
AcDbEntity
  8
0
  6
Continuous
 62
     7
370
     5
390
1D
100
AcDbVertex
100
AcDb2dVertex
 10
380.377178620255
 20
1934.868972522186
 30
0.0
  0
VERTEX
  5
1B38
330
1B34
100
AcDbEntity
  8
0
  6
Continuous
 62
     7
370
     5
390
1D
100
AcDbVertex
100
AcDb2dVertex
 10
448.2490046202546
 20
1941.039511842187
 30
0.0
  0
VERTEX
  5
1B39
330
1B34
100
AcDbEntity
  8
0
  6
Continuous
 62
     7
370
     5
390
1D
100
AcDbVertex
100
AcDb2dVertex
 10
448.7660578602553
 20
1936.417403802187
 30
0.0
  0
VERTEX
  5
1B3A
330
1B34
100
AcDbEntity
  8
0
  6
Continuous
 62
     7
370
     5
390
1D
100
AcDbVertex
100
AcDb2dVertex
 10
447.1030281402562
 20
1936.263244962186
 30
0.0
  0
SEQEND
  5
1B3B
330
1B34
100
AcDbEntity
  8
0
  6
Continuous
 62
     7
370
     5
390
1D
  0
LWPOLYLINE
  5
1B3C
330
1A82
100
AcDbEntity
  8
0
  6
STYLE_15
 62
     7
370
     5
390
1D
100
AcDbPolyline
 90
       30
 70
   128
 43
0.0
 10
407.8956220693179
 20
1912.718882717968
 10
754.8768613271226
 20
1945.937878323435
 42
0.0065504448768947
 10
755.7233310409963
 20
1946.340119556085
 10
757.2094254571531
 20
1947.070325664804
 42
0.0292269975050404
 10
760.900558933248
 20
1949.160015059731
 10
762.2616704426173
 20
1950.039346466856
 42
0.0162373490628545
 10
765.1553457377377
 20
1952.044856746776
 10
765.490224367716
 20
1952.293423969453
 42
0.0224940537942859
 10
767.5726537562485
 20
1953.989527802005
 10
767.9138108493904
 20
1954.293909122506
 42
0.0144838630822441
 10
769.2022810918104
 20
1955.512314182895
 10
769.2149592844702
 20
1955.525018361168
 42
0.0171538215507373
 10
770.3991545780935
 20
1956.795985857373
 10
770.4148660425019
 20
1956.814053229542
 42
0.0207265497059304
 10
771.4693132199901
 20
1958.133253778211
 10
771.4851984909259
 20
1958.154909939837
 42
0.0251515621846987
 10
772.3844653992544
 20
1959.519791623963
 10
772.3975262786124
 20
1959.541966572367
 42
0.0305861568381835
 10
773.1156507032618
 20
1960.951733396741
 10
773.1230482633551
 20
1960.968754644485
 42
0.0361948001911206
 10
773.6344651738657
 20
1962.42551927049
 10
773.6662092931979
 20
1962.542369094479
 42
0.0450653052228245
 10
773.892888237887
 20
1963.822976190575
 42
0.0223852587991414
 10
773.945525584757
 20
1965.126413357881
 10
773.9452034147173
 20
1965.199608742192
 42
-0.0011095327894281
 10
773.9420341231687
 20
1966.651801493835
 10
773.9420410305439
 20
1966.840269250096
 10
773.942041031085
 20
1966.840281988902
 42
0.0000175695081697
 10
773.9423642577603
 20
2180.734838878891
 10
773.942364256813
 20
2180.734833401564
  0
SPLINE
  5
1B3D
330
1A82
100
AcDbEntity
  8
0
  6
Continuous
 62
     7
370
     5
390
1D
100
AcDbSpline
210
0.0
220
0.0
230
1.0
 70
    11
 71
     2
 72
   115
 73
   112
 74
     0
 42
0.000000001
 43
0.000001
 40
0.0
 40
0.0
 40
0.0
 40
1.0
 40
1.0
 40
2.0
 40
3.0
 40
4.0
 40
5.0
 40
6.0
 40
7.0
 40
8.0
 40
9.0
 40
10.0
 40
11.0
 40
12.0
 40
13.0
 40
14.0
 40
15.0
 40
16.0
 40
17.0
 40
18.0
 40
19.0
 40
20.0
 40
21.0
 40
22.0
 40
23.0
 40
24.0
 40
25.0
 40
26.0
 40
27.0
 40
28.0
 40
29.0
 40
30.0
 40
31.0
 40
32.0
 40
33.0
 40
34.0
 40
34.0
 40
35.0
 40
35.0
 40
36.0
 40
36.0
 40
37.0
 40
38.0
 40
39.0
 40
40.0
 40
41.0
 40
42.0
 40
43.0
 40
44.0
 40
45.0
 40
46.0
 40
47.0
 40
48.0
 40
49.0
 40
50.0
 40
51.0
 40
52.0
 40
53.0
 40
54.0
 40
55.0
 40
56.0
 40
57.0
 40
58.0
 40
59.0
 40
60.0
 40
61.0
 40
62.0
 40
63.0
 40
64.0
 40
65.0
 40
66.0
 40
67.0
 40
68.0
 40
69.0
 40
70.0
 40
71.0
 40
72.0
 40
73.0
 40
74.0
 40
75.0
 40
76.0
 40
77.0
 40
78.0
 40
79.0
 40
80.0
 40
81.0
 40
82.0
 40
83.0
 40
84.0
 40
85.0
 40
86.0
 40
87.0
 40
88.0
 40
89.0
 40
90.0
 40
91.0
 40
92.0
 40
93.0
 40
94.0
 40
95.0
 40
96.0
 40
97.0
 40
98.0
 40
98.0
 40
99.0
 40
99.0
 40
100.0
 40
100.0
 40
101.0
 40
101.0
 40
102.0
 40
102.0
 40
102.0
 10
748.8884505402503
 20
2179.793280970833
 30
0.0
 10
748.8920657973304
 20
2179.793288078934
 30
0.0
 10
748.8956810544103
 20
2179.793295187035
 30
0.0
 10
748.9894116985411
 20
2179.793132115542
 30
0.0
 10
749.0048968167662
 20
2179.793851315578
 30
0.0
 10
749.4851259324837
 20
2179.792905807112
 30
0.0
 10
749.9990640048998
 20
2179.723670042709
 30
0.0
 10
750.0448621193295
 20
2179.716415977052
 30
0.0
 10
750.1868007865423
 20
2179.696497892558
 30
0.0
 10
750.7768749078309
 20
2179.601785098856
 30
0.0
 10
751.3743658227579
 20
2179.416134546919
 30
0.0
 10
751.4350780948928
 20
2179.396236205038
 30
0.0
 10
751.4466937785895
 20
2179.393317564291
 30
0.0
 10
751.871424932533
 20
2179.255886311405
 30
0.0
 10
752.3016068180461
 20
2179.044699233063
 30
0.0
 10
752.3700340117256
 20
2179.009342045787
 30
0.0
 10
752.3963377641765
 20
2178.997040554733
 30
0.0
 10
752.8397213567642
 20
2178.77237159181
 30
0.0
 10
753.29274760847
 20
2178.46168972832
 30
0.0
 10
753.2904014935231
 20
2178.462366704618
 30
0.0
 10
753.2866148694985
 20
2178.465881825508
 30
0.0
 10
753.6521314533808
 20
2178.209022867862
 30
0.0
 10
754.0153054986617
 20
2177.884879429372
 30
0.0
 10
754.0181000093148
 20
2177.881528000546
 30
0.0
 10
754.0217950237295
 20
2177.878900517857
 30
0.0
 10
754.3054233485664
 20
2177.620646669151
 30
0.0
 10
754.5842086391388
 20
2177.310877475313
 30
0.0
 10
754.59282489515
 20
2177.300516658605
 30
0.0
 10
754.6048696048783
 20
2177.287517751379
 30
0.0
 10
754.8089853787388
 20
2177.056630532695
 30
0.0
 10
755.0079369048578
 20
2176.78950128418
 30
0.0
 10
755.0241072168278
 20
2176.781321920826
 30
0.0
 10
755.294904604197
 20
2176.370277307375
 30
0.0
 10
755.3287875974455
 20
2176.322831158745
 30
0.0
 10
755.4550130908294
 20
2176.099565127899
 30
0.0
 10
755.4746331390635
 20
2176.065204138375
 30
0.0
 10
755.5227133234521
 20
2175.969286232138
 30
0.0
 10
755.5237985556398
 20
2175.967030178502
 30
0.0
 10
755.5248837878274
 20
2175.964774124865
 30
0.0
 10
755.5248837844155
 20
2174.080618478562
 30
0.0
 10
755.5248837810035
 20
2172.196462832258
 30
0.0
 10
755.5248732442378
 20
2146.955225516874
 30
0.0
 10
755.5247971531361
 20
2126.800087809378
 30
0.0
 10
755.5247401076608
 20
2117.224223585493
 30
0.0
 10
755.5247196760457
 20
2114.476018390176
 30
0.0
 10
755.5246796328172
 20
2108.629292698656
 30
0.0
 10
755.5246423476093
 20
2103.182330778415
 30
0.0
 10
755.5246109267885
 20
2098.780863048133
 30
0.0
 10
755.5246179850159
 20
2098.849030278213
 30
0.0
 10
755.5246500315124
 20
2097.579314050097
 30
0.0
 10
755.5247945828553
 20
2096.349678190782
 30
0.0
 10
755.5248602768716
 20
2095.826972947226
 30
0.0
 10
755.5249535757823
 20
2095.090920177177
 30
0.0
 10
755.5249596688155
 20
2094.970988723169
 30
0.0
 10
755.5247405531586
 20
2094.748853730409
 30
0.0
 10
755.5241998856528
 20
2094.767724952123
 30
0.0
 10
755.5254634889452
 20
2094.42220924578
 30
0.0
 10
755.5246741639095
 20
2094.51897241697
 30
0.0
 10
755.5277487577005
 20
2094.164067531373
 30
0.0
 10
755.4890878569466
 20
2093.809289721175
 30
0.0
 10
755.4875364611727
 20
2093.803499964415
 30
0.0
 10
755.4598244308481
 20
2093.609167879131
 30
0.0
 10
755.3778489726861
 20
2093.360824769562
 30
0.0
 10
755.398874113086
 20
2093.423141320532
 30
0.0
 10
755.2782501482905
 20
2093.065704985831
 30
0.0
 10
755.0637265700794
 20
2092.721717577718
 30
0.0
 10
755.0383734263362
 20
2092.686747835785
 30
0.0
 10
754.9562328883369
 20
2092.557792474595
 30
0.0
 10
754.6989616703985
 20
2092.275937120217
 30
0.0
 10
754.7019227220862
 20
2092.279620124493
 30
0.0
 10
754.7231799432143
 20
2092.300851014257
 30
0.0
 10
754.5440885432226
 20
2092.117723939358
 30
0.0
 10
754.3239602983781
 20
2091.943652764827
 30
0.0
 10
754.3258354081569
 20
2091.9455942747
 30
0.0
 10
754.348679564315
 20
2091.962913230288
 30
0.0
 10
754.1430400688988
 20
2091.803553445555
 30
0.0
 10
753.9003052958155
 20
2091.653680800372
 30
0.0
 10
753.9019424975377
 20
2091.655053913313
 30
0.0
 10
753.9266273710871
 20
2091.669717547642
 30
0.0
 10
753.6997087330062
 20
2091.532147847798
 30
0.0
 10
753.438396562308
 20
2091.403556669969
 30
0.0
 10
753.4406634580544
 20
2091.404958518232
 30
0.0
 10
753.4674530488419
 20
2091.417678322907
 30
0.0
 10
753.2245316203398
 20
2091.300147767646
 30
0.0
 10
752.9490400617332
 20
2091.190715730978
 30
0.0
 10
752.9526343175805
 20
2091.19237205059
 30
0.0
 10
752.9816293600384
 20
2091.203504937015
 30
0.0
 10
752.7153063252711
 20
2091.099984681567
 30
0.0
 10
752.3493201024256
 20
2090.983355415171
 30
0.0
 10
752.3592803528239
 20
2090.986219972888
 30
0.0
 10
751.9747197984253
 20
2090.865411319549
 30
0.0
 10
751.5456515719233
 20
2090.772610386291
 30
0.0
 10
751.4931775779382
 20
2090.762064887107
 30
0.0
 10
751.4974126027068
 20
2090.762510311563
 30
0.0
 10
750.9781834779434
 20
2090.655119721975
 30
0.0
 10
750.4471876728876
 20
2090.581160806337
 30
0.0
 10
750.3916145064483
 20
2090.574015312724
 30
0.0
 10
750.3223820570228
 20
2090.564243605217
 30
0.0
 10
749.9428789898454
 20
2090.514098929906
 30
0.0
 10
749.5477350946512
 20
2090.489644688124
 30
0.0
 10
749.3307445417471
 20
2090.475959069782
 30
0.0
 10
749.0894294533967
 20
2090.466179665578
 30
0.0
 10
749.0647328206594
 20
2090.464570192102
 30
0.0
 10
748.896122792118
 20
2090.462116830356
 30
0.0
 10
748.8922866661842
 20
2090.462097186272
 30
0.0
 10
748.8884505402503
 20
2090.462077542189
 30
0.0
 10
748.8884505402503
 20
2092.695357627905
 30
0.0
 10
748.8884505402503
 20
2094.928637713621
 30
0.0
 10
748.8884505402506
 20
2135.127679256511
 30
0.0
 10
748.8884505402503
 20
2175.3267207994
 30
0.0
 10
748.8884505402503
 20
2177.560000885117
 30
0.0
 10
748.8884505402503
 20
2179.793280970833
 30
0.0
  0
POLYLINE
  5
1B3E
330
1A82
100
AcDbEntity
  8
0
  6
Continuous
 62
     7
370
     5
390
1D
100
AcDb2dPolyline
 66
     1
 10
0.0
 20
0.0
 30
0.0
 75
     5
  0
VERTEX
  5
1B3F
330
1B3E
100
AcDbEntity
  8
0
  6
Continuous
 62
     7
370
     5
390
1D
100
AcDbVertex
100
AcDb2dVertex
 10
748.8884505402503
 20
2091.356067237899
 30
0.0
  0
VERTEX
  5
1B40
330
1B3E
100
AcDbEntity
  8
0
  6
Continuous
 62
     7
370
     5
390
1D
100
AcDbVertex
100
AcDb2dVertex
 10
748.8884505402503
 20
2087.952527202188
 30
0.0
  0
VERTEX
  5
1B41
330
1B3E
100
AcDbEntity
  8
0
  6
Continuous
 62
     7
370
     5
390
1D
100
AcDbVertex
100
AcDb2dVertex
 10
743.4884856778193
 20
2087.952527202188
 30
0.0
  0
VERTEX
  5
1B42
330
1B3E
100
AcDbEntity
  8
0
  6
Continuous
 62
     7
370
     5
390
1D
100
AcDbVertex
100
AcDb2dVertex
 10
743.4884856778193
 20
2183.194337577222
 30
0.0
  0
VERTEX
  5
1B43
330
1B3E
100
AcDbEntity
  8
0
  6
Continuous
 62
     7
370
     5
390
1D
100
AcDbVertex
100
AcDb2dVertex
 10
748.8884505402503
 20
2183.194337577222
 30
0.0
  0
VERTEX
  5
1B44
330
1B3E
100
AcDbEntity
  8
0
  6
Continuous
 62
     7
370
     5
390
1D
100
AcDbVertex
100
AcDb2dVertex
 10
748.8884505402503
 20
2179.794492575706
 30
0.0
  0
SEQEND
  5
1B45
330
1B3E
100
AcDbEntity
  8
0
  6
Continuous
 62
     7
370
     5
390
1D
  0
POLYLINE
  5
1B46
330
1A82
100
AcDbEntity
  8
0
  6
Continuous
 62
     7
370
     5
390
1D
100
AcDb2dPolyline
 66
     1
 10
0.0
 20
0.0
 30
0.0
 75
     5
  0
VERTEX
  5
1B47
330
1B46
100
AcDbEntity
  8
0
  6
Continuous
 62
     7
370
     5
390
1D
100
AcDbVertex
100
AcDb2dVertex
 10
796.5617579802505
 20
2052.530937042189
 30
0.0
  0
VERTEX
  5
1B48
330
1B46
100
AcDbEntity
  8
0
  6
Continuous
 62
     7
370
     5
390
1D
100
AcDbVertex
100
AcDb2dVertex
 10
797.5665327402502
 20
2052.530937042189
 30
0.0
  0
VERTEX
  5
1B49
330
1B46
100
AcDbEntity
  8
0
  6
Continuous
 62
     7
370
     5
390
1D
100
AcDbVertex
100
AcDb2dVertex
 10
797.5665327402502
 20
2066.730130842188
 30
0.0
  0
SEQEND
  5
1B4A
330
1B46
100
AcDbEntity
  8
0
  6
Continuous
 62
     7
370
     5
390
1D
  0
POLYLINE
  5
1B4B
330
1A82
100
AcDbEntity
  8
0
  6
Continuous
 62
     7
370
     5
390
1D
100
AcDb2dPolyline
 66
     1
 10
0.0
 20
0.0
 30
0.0
 75
     5
  0
VERTEX
  5
1B4C
330
1B4B
100
AcDbEntity
  8
0
  6
Continuous
 62
     7
370
     5
390
1D
100
AcDbVertex
100
AcDb2dVertex
 10
751.3052345802504
 20
2052.530937042189
 30
0.0
  0
VERTEX
  5
1B4D
330
1B4B
100
AcDbEntity
  8
0
  6
Continuous
 62
     7
370
     5
390
1D
100
AcDbVertex
100
AcDb2dVertex
 10
750.3004598202505
 20
2052.530937042189
 30
0.0
  0
VERTEX
  5
1B4E
330
1B4B
100
AcDbEntity
  8
0
  6
Continuous
 62
     7
370
     5
390
1D
100
AcDbVertex
100
AcDb2dVertex
 10
750.3004598202505
 20
2066.730130842188
 30
0.0
  0
SEQEND
  5
1B4F
330
1B4B
100
AcDbEntity
  8
0
  6
Continuous
 62
     7
370
     5
390
1D
  0
POLYLINE
  5
1B50
330
1A82
100
AcDbEntity
  8
0
  6
Continuous
 62
     7
370
     5
390
1D
100
AcDb2dPolyline
 66
     1
 10
0.0
 20
0.0
 30
0.0
 70
     1
 75
     5
  0
VERTEX
  5
1B51
330
1B50
100
AcDbEntity
  8
0
  6
Continuous
 62
     7
370
     5
390
1D
100
AcDbVertex
100
AcDb2dVertex
 10
760.5412613802506
 20
2070.829125756296
 30
0.0
  0
VERTEX
  5
1B52
330
1B50
100
AcDbEntity
  8
0
  6
Continuous
 62
     7
370
     5
390
1D
100
AcDbVertex
100
AcDb2dVertex
 10
760.5412613802506
 20
2055.781363356296
 30
0.0
  0
VERTEX
  5
1B53
330
1B50
100
AcDbEntity
  8
0
  6
Continuous
 62
     7
370
     5
390
1D
100
AcDbVertex
100
AcDb2dVertex
 10
755.5248838602505
 20
2055.781363356296
 30
0.0
  0
VERTEX
  5
1B54
330
1B50
100
AcDbEntity
  8
0
  6
Continuous
 62
     7
370
     5
390
1D
100
AcDbVertex
100
AcDb2dVertex
 10
755.5248838602505
 20
2070.829125756296
 30
0.0
  0
SEQEND
  5
1B55
330
1B50
100
AcDbEntity
  8
0
  6
Continuous
 62
     7
370
     5
390
1D
  0
POLYLINE
  5
1B56
330
1A82
100
AcDbEntity
  8
0
  6
Continuous
 62
     7
370
     5
390
1D
100
AcDb2dPolyline
 66
     1
 10
0.0
 20
0.0
 30
0.0
 70
     1
 75
     5
  0
VERTEX
  5
1B57
330
1B56
100
AcDbEntity
  8
0
  6
Continuous
 62
     7
370
     5
390
1D
100
AcDbVertex
100
AcDb2dVertex
 10
776.7554655402504
 20
2070.829125756296
 30
0.0
  0
VERTEX
  5
1B58
330
1B56
100
AcDbEntity
  8
0
  6
Continuous
 62
     7
370
     5
390
1D
100
AcDbVertex
100
AcDb2dVertex
 10
776.7554655402504
 20
2055.781363356296
 30
0.0
  0
VERTEX
  5
1B59
330
1B56
100
AcDbEntity
  8
0
  6
Continuous
 62
     7
370
     5
390
1D
100
AcDbVertex
100
AcDb2dVertex
 10
771.7390880202505
 20
2055.781363356296
 30
0.0
  0
VERTEX
  5
1B5A
330
1B56
100
AcDbEntity
  8
0
  6
Continuous
 62
     7
370
     5
390
1D
100
AcDbVertex
100
AcDb2dVertex
 10
771.7390880202505
 20
2070.829125756296
 30
0.0
  0
SEQEND
  5
1B5B
330
1B56
100
AcDbEntity
  8
0
  6
Continuous
 62
     7
370
     5
390
1D
  0
LINE
  5
1B5C
330
1A82
100
AcDbEntity
  8
0
  6
Continuous
 62
     7
370
     5
390
1D
100
AcDbLine
 10
496.8813844602554
 20
1934.238687042187
 30
0.0
 11
533.408024500255
 21
1937.735279922187
 31
0.0
  0
LINE
  5
1B5D
330
1A82
100
AcDbEntity
  8
0
  6
Continuous
 62
     7
370
     5
390
1D
100
AcDbLine
 10
485.9291213802552
 20
1932.315762522186
 30
0.0
 11
496.9680134202553
 21
1933.182067962187
 31
0.0
  0
LINE
  5
1B5E
330
1A82
100
AcDbEntity
  8
0
  6
Continuous
 62
     7
370
     5
390
1D
100
AcDbLine
 10
486.8943357402549
 20
1920.474689322186
 30
0.0
 11
497.9332277802549
 21
1921.340309682187
 31
0.0
  0
LINE
  5
1B5F
330
1A82
100
AcDbEntity
  8
0
  6
Continuous
 62
     7
370
     5
390
1D
100
AcDbLine
 10
487.1283044202554
 20
1917.598834362187
 30
0.0
 11
498.1671964602564
 21
1918.464454722186
 31
0.0
  0
LINE
  5
1B60
330
1A82
100
AcDbEntity
  8
0
  6
Continuous
 62
     7
370
     5
390
1D
100
AcDbLine
 10
488.0935187802551
 20
1905.758438322186
 30
0.0
 11
499.1324108202551
 21
1906.624062642186
 31
0.0
  0
LINE
  5
1B61
330
1A82
100
AcDbEntity
  8
0
  6
Continuous
 62
     7
370
     5
390
1D
100
AcDbLine
 10
499.1324108202551
 20
1906.624062642186
 30
0.0
 11
535.6583657802552
 21
1910.119970442187
 31
0.0
  0
LINE
  5
1B62
330
1A82
100
AcDbEntity
  8
0
  6
Continuous
 62
     7
370
     5
390
1D
100
AcDbLine
 10
460.1999005002561
 20
1928.162962002186
 30
0.0
 11
486.1017021402548
 21
1930.193661882187
 31
0.0
  0
LINE
  5
1B63
330
1A82
100
AcDbEntity
  8
0
  6
Continuous
 62
     7
370
     5
390
1D
100
AcDbLine
 10
443.121442180255
 20
1929.360097722186
 30
0.0
 11
456.8274575802551
 21
1930.587250242186
 31
0.0
  0
LWPOLYLINE
  5
1B64
330
1A82
100
AcDbEntity
  8
0
  6
Continuous
 62
     7
370
     5
390
1D
100
AcDbPolyline
 90
       67
 70
   128
 43
0.0
 10
391.5565883779117
 20
1923.711390042187
 10
441.0075234365181
 20
1928.32258144844
 42
0.0117969169556623
 10
441.2377903892391
 20
1928.404538557911
 10
441.3132941425091
 20
1928.433436392577
 42
0.0148694173269824
 10
441.6879844984799
 20
1928.589768126576
 10
441.8215012394847
 20
1928.650196669266
 42
0.0186717585235063
 10
442.4469309655785
 20
1928.961894698511
 10
442.6051367354426
 20
1929.048258267042
 42
0.0233369106659624
 10
443.2908739949152
 20
1929.465251839259
 10
443.3791624451915
 20
1929.524752301568
 42
0.0137716970211332
 10
443.8593935683403
 20
1929.86799807202
 42
0.0153356501558806
 10
444.3188002258806
 20
1930.238567460862
 10
444.3299593244064
 20
1930.24814810886
 42
0.0170917708881234
 10
444.7859742999059
 20
1930.667565469948
 10
444.7950765262961
 20
1930.676530371829
 42
0.0189792747522685
 10
445.2371180808449
 20
1931.146255601243
 10
445.2446742571304
 20
1931.154921597605
 42
0.0209418575065518
 10
445.6621466034863
 20
1931.676257086777
 10
445.6686514632023
 20
1931.685116443834
 42
0.0228859317745532
 10
446.0509990487627
 20
1932.259173544258
 10
446.0568631253881
 20
1932.268916319093
 42
0.0246782118815057
 10
446.3936502498233
 20
1932.896601639413
 10
446.3991110748834
 20
1932.908108006096
 42
0.0261555544232472
 10
446.6801179412299
 20
1933.590148641351
 10
446.6851474932399
 20
1933.604434347157
 42
0.0271521602031936
 10
446.9004576865095
 20
1934.341457138085
 10
446.9248885426434
 20
1934.445829265173
 42
0.02742756038903
 10
447.0342909305508
 20
1935.064254104245
 10
447.0389198552924
 20
1935.102561916819
 42
0.0136618212000152
 10
447.0901057608738
 20
1935.651775776402
 42
0.0202469169086413
 10
447.1039540522549
 20
1936.202949482837
 10
447.1030273427558
 20
1936.263244046092
 10
382.8710410146304
 20
1930.27347012031
 42
0.0062866059932948
 10
382.872010581924
 20
1930.241507886837
 10
382.8740012088728
 20
1930.195133200335
 42
0.0137971761547479
 10
382.8827888747453
 20
1930.070676321031
 10
382.8960318032531
 20
1929.936093002545
 42
0.0229120581661593
 10
382.9526570614523
 20
1929.545308187693
 10
382.9853939915928
 20
1929.374825786692
 42
0.0291555539782333
 10
383.1472486125693
 20
1928.735649620102
 10
383.1694668173417
 20
1928.665396268594
 42
0.0172903506292803
 10
383.3409054263969
 20
1928.182102997003
 42
0.0193027787111839
 10
383.5471897154753
 20
1927.712706653953
 10
383.5562364744463
 20
1927.694104991213
 42
0.0213787789234778
 10
383.8195905142922
 20
1927.206737535537
 10
383.8294085402607
 20
1927.190290157764
 42
0.0234431845126338
 10
384.1564052943418
 20
1926.696633592214
 10
384.1674180815224
 20
1926.681589987199
 42
0.025349691330389
 10
384.5643695795054
 20
1926.193324469567
 10
384.5772769968884
 20
1926.178996753751
 42
0.0269165464204261
 10
385.0502042205823
 20
1925.707691534956
 10
385.0659808004292
 20
1925.693576766718
 42
0.0279575841183567
 10
385.6206422508792
 20
1925.250557853747
 10
385.6404669533661
 20
1925.236462829817
 42
0.0283296233009127
 10
386.2824641392542
 20
1924.832696411405
 10
386.3809576037631
 20
1924.7782774496
 42
0.0278169216067072
 10
386.9650005718452
 20
1924.496763582753
 42
0.0137891447710702
 10
387.571124390111
 20
1924.264486469534
 10
387.598653840036
 20
1924.254798475306
 42
0.0260776289131432
 10
388.2766581682313
 20
1924.05524996499
 10
388.2925493110861
 20
1924.05146050347
 42
0.0126270455805978
 10
389.0166264467252
 20
1923.898007450354
 10
389.0529905612278
 20
1923.891255466433
 42
0.0233621905995555
 10
389.858860812016
 20
1923.780261622627
 10
390.0069932124485
 20
1923.766870500962
 42
0.0109029579943295
 10
390.604148121255
 20
1923.725991538052
 42
0.0156088224051296
 10
391.5565883779117
 20
1923.711390042187
  0
ENDBLK
  5
1B65
330
1A82
100
AcDbEntity
  8
notes
390
1D
100
AcDbBlockEnd
  0
BLOCK
  5
1A99
330
1A98
100
AcDbEntity
  8
notes
390
1D
100
AcDbBlockBegin
  2
グループ-12
 70
     0
 10
0.0
 20
0.0
 30
0.0
  3
グループ-12
  1
グループ-12
  0
LINE
  5
1A9A
330
1A98
100
AcDbEntity
  8
0
  6
Continuous
 62
     7
370
     5
390
1D
100
AcDbLine
 10
726.672608008061
 20
2175.774756000649
 30
0.0
 11
726.672608008061
 21
2184.774756000649
 31
0.0
  0
LWPOLYLINE
  5
1A9B
330
1A98
100
AcDbEntity
  8
0
  6
Continuous
 62
     7
370
     5
390
1D
100
AcDbPolyline
 90
        4
 70
   129
 43
0.0
 10
721.4726080080608
 20
2184.774756000649
 10
731.8726080080611
 20
2184.774756000649
 10
731.8726080080611
 20
2175.774756000649
 10
721.4726080080608
 20
2175.774756000649
  0
LWPOLYLINE
  5
1A9C
330
1A98
100
AcDbEntity
  8
0
  6
Continuous
 62
     7
370
     5
390
1D
100
AcDbPolyline
 90
        4
 70
   129
 43
0.0
 10
731.8726080080611
 20
2182.974756000649
 10
736.1621601081418
 20
2182.974756000649
 10
736.1621601081418
 20
2177.574756000649
 10
731.8726080080611
 20
2177.574756000649
  0
ENDBLK
  5
1A9D
330
1A98
100
AcDbEntity
  8
notes
390
1D
100
AcDbBlockEnd
  0
BLOCK
  5
1AA0
330
1A9F
100
AcDbEntity
  8
notes
390
1D
100
AcDbBlockBegin
  2
グループ-11
 70
     0
 10
0.0
 20
0.0
 30
0.0
  3
グループ-11
  1
グループ-11
  0
LINE
  5
1AA1
330
1A9F
100
AcDbEntity
  8
0
  6
Continuous
 62
     7
370
     5
390
1D
100
AcDbLine
 10
726.6726080080608
 20
2113.174756000649
 30
0.0
 11
726.6726080080608
 21
2122.174756000649
 31
0.0
  0
LWPOLYLINE
  5
1AA2
330
1A9F
100
AcDbEntity
  8
0
  6
Continuous
 62
     7
370
     5
390
1D
100
AcDbPolyline
 90
        4
 70
   129
 43
0.0
 10
721.4726080080608
 20
2122.174756000649
 10
731.8726080080609
 20
2122.174756000649
 10
731.8726080080609
 20
2113.174756000649
 10
721.4726080080608
 20
2113.174756000649
  0
LWPOLYLINE
  5
1AA3
330
1A9F
100
AcDbEntity
  8
0
  6
Continuous
 62
     7
370
     5
390
1D
100
AcDbPolyline
 90
        4
 70
   129
 43
0.0
 10
731.8726080080609
 20
2120.37475600065
 10
736.1621601081416
 20
2120.37475600065
 10
736.1621601081416
 20
2114.974756000649
 10
731.8726080080609
 20
2114.974756000649
  0
ENDBLK
  5
1AA4
330
1A9F
100
AcDbEntity
  8
notes
390
1D
100
AcDbBlockEnd
  0
BLOCK
  5
1AC0
330
1ABF
100
AcDbEntity
  8
notes
390
1D
100
AcDbBlockBegin
  2
グループ-10
 70
     0
 10
0.0
 20
0.0
 30
0.0
  3
グループ-10
  1
グループ-10
  0
LWPOLYLINE
  5
1AC1
330
1ABF
100
AcDbEntity
  8
0
  6
Continuous
 62
     7
370
     5
390
1D
100
AcDbPolyline
 90
       45
 70
   128
 43
0.0
 10
738.2385373437354
 20
2084.704524323541
 42
-0.0288111621704602
 10
738.3670324761271
 20
2084.663490061455
 10
738.3946597458678
 20
2084.652878739045
 42
-0.0292067509528993
 10
738.5713660056136
 20
2084.572880648745
 10
738.6234040210836
 20
2084.545556591514
 42
-0.0326044404083756
 10
738.8889140962888
 20
2084.383247503073
 10
738.9367322030654
 20
2084.349549585017
 42
-0.034694342357125
 10
739.2685196668342
 20
2084.079462579806
 10
739.3115855890622
 20
2084.039132696392
 42
-0.0355338363249036
 10
739.6822659750583
 20
2083.638959186409
 10
739.7468860537945
 20
2083.558411837825
 42
-0.034813234731964
 10
740.08499578164
 20
2083.071047854036
 42
-0.0169395819712331
 10
740.371486894265
 20
2082.550405052414
 10
740.3936113125409
 20
2082.50676046107
 42
-0.0314567301111222
 10
740.6667276784992
 20
2081.871919896245
 10
740.7146799137115
 20
2081.737806404012
 42
-0.0146101798290792
 10
740.8956276271649
 20
2081.18092014058
 42
-0.0138752074224687
 10
741.0445811118661
 20
2080.61461107406
 10
741.0604198442109
 20
2080.546797886114
 42
-0.0161476509875289
 10
741.2023756373517
 20
2079.836142425871
 10
741.212588866188
 20
2079.774756000649
 10
741.2125888661866
 20
2194.774756000642
 42
-0.0070887237910859
 10
741.1545811795829
 20
2194.49170692588
 10
741.1059070594686
 20
2194.270214577559
 42
-0.018322635863172
 10
740.9202030713637
 20
2193.551810706908
 10
740.8623162835803
 20
2193.357544353727
 42
-0.01412369915709
 10
740.6074214740042
 20
2192.582786181278
 10
740.5745010541265
 20
2192.491493768976
 42
-0.0203052960204801
 10
740.3401787333848
 20
2191.916041866168
 10
740.2971872700215
 20
2191.821629321198
 42
-0.0135532265079699
 10
740.1153785200478
 20
2191.44945149736
 10
740.1127263315327
 20
2191.444375844354
 42
-0.0166403983631155
 10
739.9144636256365
 20
2191.093878590704
 10
739.9102034095395
 20
2191.086899737936
 42
-0.0209368123404325
 10
739.6953483180241
 20
2190.765961065163
 10
739.689549530833
 20
2190.758037880472
 42
-0.0267102369261949
 10
739.4576812471246
 20
2190.474341640896
 10
739.4508042034574
 20
2190.466789053731
 42
-0.0343275624871267
 10
739.2010938949304
 20
2190.227757463693
 10
739.1944012537163
 20
2190.222178155508
 42
-0.0437689952330796
 10
738.9252362000881
 20
2190.035076693329
 10
738.9188614829203
 20
2190.031427114289
 42
-0.0538511466496191
 10
738.6325054814375
 20
2189.906163099346
 10
738.6269720743653
 20
2189.904422495431
 42
-0.0766141566567928
 10
738.2385373437354
 20
2189.844987677758
  0
LWPOLYLINE
  5
1AC2
330
1ABF
100
AcDbEntity
  8
0
  6
Continuous
 62
     7
370
     5
390
1D
100
AcDbPolyline
 90
       48
 70
   128
 43
0.0
 10
736.1621601081416
 20
2079.774756000649
 10
736.1621601081454
 20
2194.774756000632
 42
0.0022334719817514
 10
736.1896113881144
 20
2194.654732921946
 10
736.2597611577211
 20
2194.35420541445
 42
0.0101377382875578
 10
736.4425921577953
 20
2193.636957311426
 10
736.5201939079604
 20
2193.356415205329
 42
0.0067406441896762
 10
736.7435336731918
 20
2192.589402615052
 10
736.7718739129159
 20
2192.496746265705
 42
0.0101311446725244
 10
736.9605232831021
 20
2191.921880279221
 10
736.9957482105202
 20
2191.821455483668
 42
0.007004529692106
 10
737.1307568416285
 20
2191.453153385529
 10
737.1342909909973
 20
2191.443914858559
 42
0.0088885676945698
 10
737.2735328829659
 20
2191.098456768637
 10
737.2788713201907
 20
2191.085862565968
 42
0.0118096918323674
 10
737.4210059120597
 20
2190.771425998664
 10
737.4284304720013
 20
2190.755983453989
 42
0.0163674833931067
 10
737.5721642684463
 20
2190.480495957634
 10
737.5819778610443
 20
2190.46309981385
 42
0.0239512361973328
 10
737.7260848454408
 20
2190.234018030073
 10
737.753682085374
 20
2190.194482705486
 42
0.038399783119067
 10
737.8639288577843
 20
2190.059858021584
 10
737.8720893920954
 20
2190.051322341867
 42
0.0265383218366893
 10
737.9818531838835
 20
2189.948078424587
 10
737.9823358029969
 20
2189.947670486707
 42
0.0835004505454585
 10
738.1092732030015
 20
2189.872419946731
 10
738.123592078546
 20
2189.866890776815
 42
0.0903501751006272
 10
738.2385373437354
 20
2189.844987677758
 10
738.2385373437354
 20
2084.704524323541
 42
0.0049817827223246
 10
738.1576784661627
 20
2084.590103950143
 10
738.023274560989
 20
2084.39583576706
 42
0.0171036750522646
 10
737.6923727846458
 20
2083.880750779622
 10
737.5715542603965
 20
2083.677736192837
 42
0.0098996075331733
 10
737.235124843868
 20
2083.086077267161
 42
0.0127195062980609
 10
736.9258343264873
 20
2082.479887331737
 10
736.8800046649601
 20
2082.384122534989
 42
0.0170524623995982
 10
736.653496593536
 20
2081.866165287275
 10
736.6180401626142
 20
2081.776914797293
 42
0.0106389416839011
 10
736.4875622387038
 20
2081.42695463348
 10
736.486756225394
 20
2081.424643741939
 42
0.0122968357415883
 10
736.3739685431681
 20
2081.073754470173
 10
736.3728785719338
 20
2081.070053479062
 42
0.014540896358862
 10
736.2810515252771
 20
2080.721120846914
 10
736.2799326362534
 20
2080.71630426454
 42
0.0173389237481148
 10
736.2124366845279
 20
2080.37199241903
 10
736.2121619310695
 20
2080.37027792584
 42
0.0210601554219644
 10
736.1716940531218
 20
2080.025348472559
 42
0.0182739673584118
 10
736.162161230476
 20
2079.775463438547
 10
736.1621601081416
 20
2079.774756000649
  0
ENDBLK
  5
1AC3
330
1ABF
100
AcDbEntity
  8
notes
390
1D
100
AcDbBlockEnd
  0
BLOCK
  5
1B68
330
1B67
100
AcDbEntity
  8
0
100
AcDbBlockBegin
  2
*D29
 70
     1
 10
0.0
 20
0.0
 30
0.0
  3
*D29
  1
*D57
  0
LINE
  5
1B69
330
1B67
100
AcDbEntity
  8
notes
  6
Continuous
 62
     0
370
    -2
100
AcDbLine
 10
911.4903014608315
 20
977.2665040132194
 30
0.0
 11
1061.557167155595
 21
977.2665040132194
 31
0.0
  0
LINE
  5
1B6A
330
1B67
100
AcDbEntity
  8
notes
  6
Continuous
 62
     0
370
    -2
100
AcDbLine
 10
911.4903014608315
 20
1322.734909253222
 30
0.0
 11
1061.557167155595
 21
1322.734909253222
 31
0.0
  0
LINE
  5
1B6B
330
1B67
100
AcDbEntity
  8
notes
  6
Continuous
 62
     0
370
    -2
100
AcDbLine
 10
1061.557167155595
 20
985.2660157319694
 30
0.0
 11
1061.557167155595
 21
1314.735397534472
 31
0.0
  0
INSERT
  5
1B6C
330
1B67
100
AcDbEntity
  8
notes
 62
     0
370
    -2
100
AcDbBlockReference
  2
_DOT
 10
1061.557167155595
 20
977.2665040132194
 30
0.0
 41
7.99951171875
 42
7.99951171875
 43
7.99951171875
 50
270.0
  0
INSERT
  5
1B6D
330
1B67
100
AcDbEntity
  8
notes
 62
     0
370
    -2
100
AcDbBlockReference
  2
_DOT
 10
1061.557167155595
 20
1322.734909253222
 30
0.0
 41
7.99951171875
 42
7.99951171875
 43
7.99951171875
 50
90.0
  0
POINT
  5
1B6E
330
1B67
100
AcDbEntity
  8
Defpoints
 62
     0
100
AcDbPoint
 10
861.4903014608315
 20
977.2665040132194
 30
0.0
  0
POINT
  5
1B6F
330
1B67
100
AcDbEntity
  8
Defpoints
 62
     0
100
AcDbPoint
 10
861.4903014608315
 20
1322.734909253222
 30
0.0
  0
POINT
  5
1B70
330
1B67
100
AcDbEntity
  8
Defpoints
 62
     0
100
AcDbPoint
 10
1061.557167155595
 20
1322.734909253222
 30
0.0
  0
ENDBLK
  5
1B71
330
1B67
100
AcDbEntity
  8
0
100
AcDbBlockEnd
  0
BLOCK
  5
1B74
330
1B73
100
AcDbEntity
  8
0
100
AcDbBlockBegin
  2
*D30
 70
     1
 10
0.0
 20
0.0
 30
0.0
  3
*D30
  1
*D58
  0
LINE
  5
1B75
330
1B73
100
AcDbEntity
  8
notes
  6
Continuous
 62
     0
370
    -2
100
AcDbLine
 10
909.0503623183583
 20
580.3656823928384
 30
0.0
 11
1070.550362318358
 21
580.3656823928384
 31
0.0
  0
LINE
  5
1B76
330
1B73
100
AcDbEntity
  8
notes
  6
Continuous
 62
     0
370
    -2
100
AcDbLine
 10
853.5503623183583
 20
844.3656823928384
 30
0.0
 11
1070.550362318358
 21
844.3656823928384
 31
0.0
  0
LINE
  5
1B77
330
1B73
100
AcDbEntity
  8
notes
  6
Continuous
 62
     0
370
    -2
100
AcDbLine
 10
1070.550362318358
 20
588.3651941115884
 30
0.0
 11
1070.550362318358
 21
836.3661706740884
 31
0.0
  0
INSERT
  5
1B78
330
1B73
100
AcDbEntity
  8
notes
 62
     0
370
    -2
100
AcDbBlockReference
  2
_DOT
 10
1070.550362318358
 20
580.3656823928384
 30
0.0
 41
7.99951171875
 42
7.99951171875
 43
7.99951171875
 50
270.0
  0
INSERT
  5
1B79
330
1B73
100
AcDbEntity
  8
notes
 62
     0
370
    -2
100
AcDbBlockReference
  2
_DOT
 10
1070.550362318358
 20
844.3656823928384
 30
0.0
 41
7.99951171875
 42
7.99951171875
 43
7.99951171875
 50
90.0
  0
POINT
  5
1B7A
330
1B73
100
AcDbEntity
  8
Defpoints
 62
     0
100
AcDbPoint
 10
859.0503623183583
 20
580.3656823928384
 30
0.0
  0
POINT
  5
1B7B
330
1B73
100
AcDbEntity
  8
Defpoints
 62
     0
100
AcDbPoint
 10
803.5503623183583
 20
844.3656823928384
 30
0.0
  0
POINT
  5
1B7C
330
1B73
100
AcDbEntity
  8
Defpoints
 62
     0
100
AcDbPoint
 10
1070.550362318358
 20
844.3656823928384
 30
0.0
  0
ENDBLK
  5
1B7D
330
1B73
100
AcDbEntity
  8
0
100
AcDbBlockEnd
  0
BLOCK
  5
1B80
330
1B7F
100
AcDbEntity
  8
0
100
AcDbBlockBegin
  2
*D31
 70
     1
 10
0.0
 20
0.0
 30
0.0
  3
*D31
  1
*D59
  0
LINE
  5
1B81
330
1B7F
100
AcDbEntity
  8
notes
  6
Continuous
 62
     0
370
    -2
100
AcDbLine
 10
867.2737251312594
 20
456.0509297197966
 30
0.0
 11
867.2737251312594
 21
1.9998779296875
 31
0.0
  0
LINE
  5
1B82
330
1B7F
100
AcDbEntity
  8
notes
  6
Continuous
 62
     0
370
    -2
100
AcDbLine
 10
724.7580532813804
 20
452.9998779296864
 30
0.0
 11
724.7580532813804
 21
1.9998779296875
 31
0.0
  0
LINE
  5
1B83
330
1B7F
100
AcDbEntity
  8
notes
  6
Continuous
 62
     0
370
    -2
100
AcDbLine
 10
859.2742134125094
 20
1.9998779296875
 30
0.0
 11
732.7575650001304
 21
1.9998779296875
 31
0.0
  0
INSERT
  5
1B84
330
1B7F
100
AcDbEntity
  8
notes
 62
     0
370
    -2
100
AcDbBlockReference
  2
_DOT
 10
867.2737251312594
 20
1.9998779296875
 30
0.0
 41
7.99951171875
 42
7.99951171875
 43
7.99951171875
  0
INSERT
  5
1B85
330
1B7F
100
AcDbEntity
  8
notes
 62
     0
370
    -2
100
AcDbBlockReference
  2
_DOT
 10
724.7580532813804
 20
1.9998779296875
 30
0.0
 41
7.99951171875
 42
7.99951171875
 43
7.99951171875
 50
180.0
  0
POINT
  5
1B86
330
1B7F
100
AcDbEntity
  8
Defpoints
 62
     0
100
AcDbPoint
 10
867.2737251312594
 20
506.0509297197966
 30
0.0
  0
POINT
  5
1B87
330
1B7F
100
AcDbEntity
  8
Defpoints
 62
     0
100
AcDbPoint
 10
724.7580532813804
 20
502.9998779296864
 30
0.0
  0
POINT
  5
1B88
330
1B7F
100
AcDbEntity
  8
Defpoints
 62
     0
100
AcDbPoint
 10
724.7580532813804
 20
1.9998779296875
 30
0.0
  0
ENDBLK
  5
1B89
330
1B7F
100
AcDbEntity
  8
0
100
AcDbBlockEnd
  0
BLOCK
  5
2076
330
2075
100
AcDbEntity
  8
0
100
AcDbBlockBegin
  2
*D32
 70
     1
 10
0.0
 20
0.0
 30
0.0
  3
*D32
  1
*D35
  0
LINE
  5
2078
330
2075
100
AcDbEntity
  8
MODEL
  6
Continuous
 62
     0
370
    -2
100
AcDbLine
 10
1445.033436176329
 20
4665.320610327199
 30
0.0
 11
1595.100301871093
 21
4665.320610327199
 31
0.0
  0
LINE
  5
2079
330
2075
100
AcDbEntity
  8
MODEL
  6
Continuous
 62
     0
370
    -2
100
AcDbLine
 10
1445.033436176329
 20
5010.789015567201
 30
0.0
 11
1595.100301871093
 21
5010.789015567201
 31
0.0
  0
LINE
  5
207A
330
2075
100
AcDbEntity
  8
MODEL
  6
Continuous
 62
     0
370
    -2
100
AcDbLine
 10
1595.100301871093
 20
4673.320122045949
 30
0.0
 11
1595.100301871093
 21
5002.789503848451
 31
0.0
  0
INSERT
  5
207B
330
2075
100
AcDbEntity
  8
MODEL
 62
     0
370
    -2
100
AcDbBlockReference
  2
_DOT
 10
1595.100301871093
 20
4665.320610327199
 30
0.0
 41
7.99951171875
 42
7.99951171875
 43
7.99951171875
 50
270.0
  0
INSERT
  5
207C
330
2075
100
AcDbEntity
  8
MODEL
 62
     0
370
    -2
100
AcDbBlockReference
  2
_DOT
 10
1595.100301871093
 20
5010.789015567201
 30
0.0
 41
7.99951171875
 42
7.99951171875
 43
7.99951171875
 50
90.0
  0
POINT
  5
207D
330
2075
100
AcDbEntity
  8
Defpoints
 62
     0
100
AcDbPoint
 10
1395.033436176329
 20
4665.320610327199
 30
0.0
  0
POINT
  5
207E
330
2075
100
AcDbEntity
  8
Defpoints
 62
     0
100
AcDbPoint
 10
1395.033436176329
 20
5010.789015567201
 30
0.0
  0
POINT
  5
207F
330
2075
100
AcDbEntity
  8
Defpoints
 62
     0
100
AcDbPoint
 10
1595.100301871093
 20
5010.789015567201
 30
0.0
  0
ENDBLK
  5
2077
330
2075
100
AcDbEntity
  8
0
100
AcDbBlockEnd
  0
BLOCK
  5
2081
330
2080
100
AcDbEntity
  8
0
100
AcDbBlockBegin
  2
*D33
 70
     1
 10
0.0
 20
0.0
 30
0.0
  3
*D33
  1
*D36
  0
LINE
  5
2083
330
2080
100
AcDbEntity
  8
MODEL
  6
Continuous
 62
     0
370
    -2
100
AcDbLine
 10
1442.593497033856
 20
4268.419788706817
 30
0.0
 11
1604.093497033856
 21
4268.419788706817
 31
0.0
  0
LINE
  5
2084
330
2080
100
AcDbEntity
  8
MODEL
  6
Continuous
 62
     0
370
    -2
100
AcDbLine
 10
1387.093497033856
 20
4532.419788706817
 30
0.0
 11
1604.093497033856
 21
4532.419788706817
 31
0.0
  0
LINE
  5
2085
330
2080
100
AcDbEntity
  8
MODEL
  6
Continuous
 62
     0
370
    -2
100
AcDbLine
 10
1604.093497033856
 20
4276.419300425567
 30
0.0
 11
1604.093497033856
 21
4524.420276988067
 31
0.0
  0
INSERT
  5
2086
330
2080
100
AcDbEntity
  8
MODEL
 62
     0
370
    -2
100
AcDbBlockReference
  2
_DOT
 10
1604.093497033856
 20
4268.419788706817
 30
0.0
 41
7.99951171875
 42
7.99951171875
 43
7.99951171875
 50
270.0
  0
INSERT
  5
2087
330
2080
100
AcDbEntity
  8
MODEL
 62
     0
370
    -2
100
AcDbBlockReference
  2
_DOT
 10
1604.093497033856
 20
4532.419788706817
 30
0.0
 41
7.99951171875
 42
7.99951171875
 43
7.99951171875
 50
90.0
  0
POINT
  5
2088
330
2080
100
AcDbEntity
  8
Defpoints
 62
     0
100
AcDbPoint
 10
1392.593497033856
 20
4268.419788706817
 30
0.0
  0
POINT
  5
2089
330
2080
100
AcDbEntity
  8
Defpoints
 62
     0
100
AcDbPoint
 10
1337.093497033856
 20
4532.419788706817
 30
0.0
  0
POINT
  5
208A
330
2080
100
AcDbEntity
  8
Defpoints
 62
     0
100
AcDbPoint
 10
1604.093497033856
 20
4532.419788706817
 30
0.0
  0
ENDBLK
  5
2082
330
2080
100
AcDbEntity
  8
0
100
AcDbBlockEnd
  0
BLOCK
  5
208C
330
208B
100
AcDbEntity
  8
0
100
AcDbBlockBegin
  2
*D34
 70
     1
 10
0.0
 20
0.0
 30
0.0
  3
*D34
  1
*D37
  0
LINE
  5
208E
330
208B
100
AcDbEntity
  8
MODEL
  6
Continuous
 62
     0
370
    -2
100
AcDbLine
 10
1400.816859846757
 20
4144.105036033775
 30
0.0
 11
1400.816859846757
 21
3690.053984243666
 31
0.0
  0
LINE
  5
208F
330
208B
100
AcDbEntity
  8
MODEL
  6
Continuous
 62
     0
370
    -2
100
AcDbLine
 10
1258.301187996878
 20
4141.053984243665
 30
0.0
 11
1258.301187996878
 21
3690.053984243666
 31
0.0
  0
LINE
  5
2090
330
208B
100
AcDbEntity
  8
MODEL
  6
Continuous
 62
     0
370
    -2
100
AcDbLine
 10
1392.817348128007
 20
3690.053984243666
 30
0.0
 11
1266.300699715628
 21
3690.053984243666
 31
0.0
  0
INSERT
  5
2091
330
208B
100
AcDbEntity
  8
MODEL
 62
     0
370
    -2
100
AcDbBlockReference
  2
_DOT
 10
1400.816859846757
 20
3690.053984243666
 30
0.0
 41
7.99951171875
 42
7.99951171875
 43
7.99951171875
  0
INSERT
  5
2092
330
208B
100
AcDbEntity
  8
MODEL
 62
     0
370
    -2
100
AcDbBlockReference
  2
_DOT
 10
1258.301187996878
 20
3690.053984243666
 30
0.0
 41
7.99951171875
 42
7.99951171875
 43
7.99951171875
 50
180.0
  0
POINT
  5
2093
330
208B
100
AcDbEntity
  8
Defpoints
 62
     0
100
AcDbPoint
 10
1400.816859846757
 20
4194.105036033775
 30
0.0
  0
POINT
  5
2094
330
208B
100
AcDbEntity
  8
Defpoints
 62
     0
100
AcDbPoint
 10
1258.301187996878
 20
4191.053984243665
 30
0.0
  0
POINT
  5
2095
330
208B
100
AcDbEntity
  8
Defpoints
 62
     0
100
AcDbPoint
 10
1258.301187996878
 20
3690.053984243666
 30
0.0
  0
ENDBLK
  5
208D
330
208B
100
AcDbEntity
  8
0
100
AcDbBlockEnd
  0
BLOCK
  5
2103
330
2102
100
AcDbEntity
  8
0
100
AcDbBlockBegin
  2
*D35
 70
     1
 10
0.0
 20
0.0
 30
0.0
  3
*D35
  1
*D35
  0
LINE
  5
2105
330
2102
100
AcDbEntity
  8
DIM
  6
Continuous
 62
     0
370
    -2
100
AcDbLine
 10
2690.58423569674
 20
4359.096733603117
 30
0.0
 11
2407.657228230391
 21
4359.096733603117
 31
0.0
  0
LINE
  5
2106
330
2102
100
AcDbEntity
  8
DIM
  6
Continuous
 62
     0
370
    -2
100
AcDbLine
 10
2690.58423569674
 20
4949.096733603117
 30
0.0
 11
2407.657228230391
 21
4949.096733603117
 31
0.0
  0
LINE
  5
2107
330
2102
100
AcDbEntity
  8
DIM
  6
Continuous
 62
     0
370
    -2
100
AcDbLine
 10
2407.657228230391
 20
4377.096733603117
 30
0.0
 11
2407.657228230391
 21
4931.096733603117
 31
0.0
  0
INSERT
  5
2108
330
2102
100
AcDbEntity
  8
DIM
 62
     0
370
    -2
100
AcDbBlockReference
  2
_DOT
 10
2407.657228230391
 20
4359.096733603117
 30
0.0
 41
18.0
 42
18.0
 43
18.0
 50
270.0
  0
INSERT
  5
2109
330
2102
100
AcDbEntity
  8
DIM
 62
     0
370
    -2
100
AcDbBlockReference
  2
_DOT
 10
2407.657228230391
 20
4949.096733603117
 30
0.0
 41
18.0
 42
18.0
 43
18.0
 50
90.0
  0
MTEXT
  5
210A
330
2102
100
AcDbEntity
  8
DIM
  6
Continuous
 62
     0
100
AcDbMText
 10
2353.657228230391
 20
4654.096733603117
 30
0.0
 40
48.0
 41
0.0
 46
0.0
 71
     5
 72
     1
  1
\A1;590
  7
ＭＳ ゴシック
 11
0.0
 21
1.0
 31
0.0
 73
     1
 44
1.0
  0
POINT
  5
210B
330
2102
100
AcDbEntity
  8
Defpoints
 62
     0
100
AcDbPoint
 10
2715.58423569674
 20
4359.096733603117
 30
0.0
  0
POINT
  5
210C
330
2102
100
AcDbEntity
  8
Defpoints
 62
     0
100
AcDbPoint
 10
2715.58423569674
 20
4949.096733603117
 30
0.0
  0
POINT
  5
210D
330
2102
100
AcDbEntity
  8
Defpoints
 62
     0
100
AcDbPoint
 10
2407.657228230391
 20
4949.096733603117
 30
0.0
  0
ENDBLK
  5
2104
330
2102
100
AcDbEntity
  8
0
100
AcDbBlockEnd
  0
ENDSEC
  0
SECTION
  2
ENTITIES
  0
MTEXT
  5
177
330
A
100
AcDbEntity
  8
TEMPLATE
390
1D
100
AcDbMText
 10
158.5094110653718
 20
697.5697439524535
 30
0.0
 40
32.57682291666666
 41
0.0
 46
0.0
 71
     1
 72
     1
  1
品名
  7
ＭＳ ゴシック
 73
     1
 44
0.7828267384257843
  0
MTEXT
  5
178
330
A
100
AcDbEntity
  8
TEMPLATE
390
1D
100
AcDbMText
 10
158.5094110653718
 20
527.5697439524531
 30
0.0
 40
32.57682291666666
 41
0.0
 46
0.0
 71
     1
 72
     1
  1
仕様
  7
ＭＳ ゴシック
 73
     1
 44
0.7828267384257843
  0
LINE
  5
179
330
A
100
AcDbEntity
  8
TEMPLATE
390
1D
100
AcDbLine
 10
4044.509411064408
 20
544.3995877024532
 30
0.0
 11
144.5094110644077
 21
544.3995877024532
 31
0.0
  0
LWPOLYLINE
  5
17A
330
A
100
AcDbEntity
  8
TEMPLATE
390
1D
100
AcDbPolyline
 90
        5
 70
   128
 43
0.0
 10
4044.509411064408
 20
5804.399587702454
 10
144.5094110644077
 20
5804.399587702454
 10
144.5094110644077
 20
204.3995877024531
 10
4044.509411064408
 20
204.3995877024531
 10
4044.509411064408
 20
5804.399587702454
  0
LINE
  5
17B
330
A
100
AcDbEntity
  8
TEMPLATE
390
1D
100
AcDbLine
 10
4044.509411064408
 20
714.399587702453
 30
0.0
 11
144.5094110644077
 21
714.399587702453
 31
0.0
  0
LINE
  5
17C
330
A
100
AcDbEntity
  8
TEMPLATE
390
1D
100
AcDbLine
 10
4044.509411065372
 20
374.3995877024532
 30
0.0
 11
2538.509411065372
 21
374.3995877024532
 31
0.0
  0
MTEXT
  5
17E
330
A
100
AcDbEntity
  8
TEMPLATE
390
1D
100
AcDbMText
 10
2598.252223569894
 20
314.5787987558371
 30
0.0
 40
48.865234375
 41
0.0
 46
0.0
 71
     1
 72
     1
  1
大洋金物株式会社 ティーフォルム事業部
  7
ＭＳ ゴシック
 73
     1
 44
0.7828267384257843
  0
MTEXT
  5
180
330
A
100
AcDbEntity
  8
TEMPLATE
390
1D
100
AcDbMText
 10
3662.509411065892
 20
470.404822077453
 30
0.0
 40
48.865234375
 41
0.0
 46
24.4326171875
 71
     1
 72
     1
  1
{1:20}
  7
ＭＳ ゴシック
 73
     1
 44
0.7828267384257843
1001
ACAD
1000
ACAD_MTEXT_DEFINED_HEIGHT_BEGIN
1070
    46
1040
24.4326171875
1000
ACAD_MTEXT_DEFINED_HEIGHT_END
  0
MTEXT
  5
181
330
A
100
AcDbEntity
  8
TEMPLATE
390
1D
100
AcDbMText
 10
3556.509411065892
 20
527.5697439524531
 30
0.0
 40
32.57682291666666
 41
0.0
 46
0.0
 71
     1
 72
     1
  1
縮尺
  7
ＭＳ ゴシック
 73
     1
 44
0.7828267384257843
  0
LINE
  5
182
330
A
100
AcDbEntity
  8
TEMPLATE
390
1D
100
AcDbLine
 10
3542.509411065892
 20
374.3995877024532
 30
0.0
 11
3542.509411065892
 21
544.3995877024532
 31
0.0
  0
MTEXT
  5
183
330
A
100
AcDbEntity
  8
TEMPLATE
390
1D
100
AcDbMText
 10
3054.509411065892
 20
527.5697439524531
 30
0.0
 40
32.57682291666666
 41
0.0
 46
0.0
 71
     1
 72
     1
  1
容量
  7
ＭＳ ゴシック
 73
     1
 44
0.7828267384257843
  0
LINE
  5
184
330
A
100
AcDbEntity
  8
TEMPLATE
390
1D
100
AcDbLine
 10
3040.509411065892
 20
374.3995877024532
 30
0.0
 11
3040.509411065892
 21
544.3995877024532
 31
0.0
  0
MTEXT
  5
185
330
A
100
AcDbEntity
  8
TEMPLATE
390
1D
100
AcDbMText
 10
2552.509411065892
 20
697.5697439524535
 30
0.0
 40
32.57682291666666
 41
0.0
 46
0.0
 71
     1
 72
     1
  1
品番
  7
ＭＳ ゴシック
 73
     1
 44
0.7828267384257843
  0
MTEXT
  5
186
330
A
100
AcDbEntity
  8
TEMPLATE
390
1D
100
AcDbMText
 10
2552.509411065892
 20
527.5697439524531
 30
0.0
 40
32.57682291666666
 41
0.0
 46
0.0
 71
     1
 72
     1
  1
重量
  7
ＭＳ ゴシック
 73
     1
 44
0.7828267384257843
  0
MTEXT
  5
187
330
A
100
AcDbEntity
  8
TEMPLATE
390
1D
100
AcDbMText
 10
2658.509411065892
 20
640.404822077453
 30
0.0
 40
48.865234375
 41
0.0
 46
48.865234375
 71
     1
 72
     1
  1
{FLN72-5819}
  7
ＭＳ ゴシック
 73
     1
 44
0.7828267384257843
1001
ACAD
1000
ACAD_MTEXT_DEFINED_HEIGHT_BEGIN
1070
    46
1040
48.865234375
1000
ACAD_MTEXT_DEFINED_HEIGHT_END
  0
LINE
  5
188
330
A
100
AcDbEntity
  8
TEMPLATE
390
1D
100
AcDbLine
 10
2538.509411065892
 20
204.3995877024531
 30
0.0
 11
2538.509411065892
 21
714.399587702453
 31
0.0
  0
MTEXT
  5
189
330
A
100
AcDbEntity
  8
TEMPLATE
390
1D
100
AcDbMText
 10
264.5094110653717
 20
640.404822077453
 30
0.0
 40
48.865234375
 41
0.0
 46
55.071119140625
 71
     1
 72
     1
  1
{鋼板ホーローバス -KALDEWEI,\H1.00276x;Meisterstück \H0.99725x;Conoduo-}
  7
ＭＳ ゴシック
 73
     1
 44
0.7828267384257843
1001
ACAD
1000
ACAD_MTEXT_DEFINED_HEIGHT_BEGIN
1070
    46
1040
55.071119140625
1000
ACAD_MTEXT_DEFINED_HEIGHT_END
  0
MTEXT
  5
18A
330
A
100
AcDbEntity
  8
TEMPLATE
390
1D
100
AcDbMText
 10
264.5094110653717
 20
509.5733518788759
 30
0.0
 40
48.865234375
 41
0.0
 46
263.629768757321
 71
     1
 72
     1
  1
{フリースタンディング/イージークリーンフィニッシュ付き/排水金具付属/\P本体、エプロン: ホーロー/\Pホワイト}
  7
ＭＳ ゴシック
 73
     1
 44
1.304711230709641
1001
ACAD
1000
ACAD_MTEXT_DEFINED_HEIGHT_BEGIN
1070
    46
1040
263.629768757321
1000
ACAD_MTEXT_DEFINED_HEIGHT_END
  0
INSERT
  5
3D0
330
A
100
AcDbEntity
  8
TEMPLATE
100
AcDbBlockReference
  2
名称未設定-1
 10
3741.627912174218
 20
61.99977220290424
 30
0.0
 41
1.524
 42
1.524
 43
1.524
  0
MTEXT
  5
C6B
330
A
100
AcDbEntity
  8
TEMPLATE
390
1D
100
AcDbMText
 10
3160.509411065892
 20
470.404822077453
 30
0.0
 40
48.865234375
 41
0.0
 46
48.865234375
 71
     1
 72
     1
  1
{192L}
  7
ＭＳ ゴシック
 73
     1
 44
0.7828267384257843
1001
ACAD
1000
ACAD_MTEXT_DEFINED_HEIGHT_BEGIN
1070
    46
1040
48.865234375
1000
ACAD_MTEXT_DEFINED_HEIGHT_END
  0
LINE
  5
1783
330
A
100
AcDbEntity
  8
MODEL
  6
STYLE_12
 48
1.5
100
AcDbLine
 10
3134.162241843967
 20
2101.22990967398
 30
0.0
 11
3123.644663718967
 21
2502.98723389269
 31
0.0
  0
LINE
  5
1784
330
A
100
AcDbEntity
  8
MODEL
  6
STYLE_12
 48
1.5
100
AcDbLine
 10
3134.162241843967
 20
1955.52287842398
 30
0.0
 11
3123.644663718967
 21
1553.765310064599
 31
0.0
  0
LINE
  5
1785
330
A
100
AcDbEntity
  8
MODEL
  6
STYLE_12
 48
1.5
100
AcDbLine
 10
3158.070444968967
 20
1980.20647217398
 30
0.0
 11
3158.070444968967
 21
2076.54631592398
 31
0.0
  0
LINE
  5
1786
330
A
100
AcDbEntity
  8
MODEL
  6
STYLE_12
 48
1.5
100
AcDbLine
 10
3160.769663718967
 20
2073.37639404898
 30
0.0
 11
3158.070444968967
 21
2073.37639404898
 31
0.0
  0
LINE
  5
1787
330
A
100
AcDbEntity
  8
MODEL
  6
STYLE_12
 48
1.5
100
AcDbLine
 10
3136.861460593967
 20
2101.30022217398
 30
0.0
 11
3136.152476218967
 21
2128.37639404898
 31
0.0
  0
LINE
  5
1788
330
A
100
AcDbEntity
  8
MODEL
  6
STYLE_12
 48
1.5
100
AcDbLine
 10
3139.873179343967
 20
2098.09905029898
 30
0.0
 11
3143.000132468967
 21
2097.82561279898
 31
0.0
  0
LINE
  5
1789
330
A
100
AcDbEntity
  8
MODEL
  6
STYLE_12
 48
1.5
100
AcDbLine
 10
3142.765757468967
 20
2095.13567139273
 30
0.0
 11
3139.636851218967
 21
2095.40959717398
 31
0.0
  0
LINE
  5
178A
330
A
100
AcDbEntity
  8
MODEL
  6
STYLE_12
 48
1.5
100
AcDbLine
 10
3160.769663718967
 20
1983.37639404898
 30
0.0
 11
3158.070444968967
 21
1983.37639404898
 31
0.0
  0
LINE
  5
178B
330
A
100
AcDbEntity
  8
MODEL
  6
STYLE_12
 48
1.5
100
AcDbLine
 10
3160.769663718967
 20
1980.20647217398
 30
0.0
 11
3160.769663718967
 21
2076.54631592398
 31
0.0
  0
LINE
  5
178C
330
A
100
AcDbEntity
  8
MODEL
  6
STYLE_12
 48
1.5
100
AcDbLine
 10
3139.873179343967
 20
1958.653493658349
 30
0.0
 11
3143.000132468967
 21
1958.926931158349
 31
0.0
  0
LINE
  5
178D
330
A
100
AcDbEntity
  8
MODEL
  6
STYLE_12
 48
1.5
100
AcDbLine
 10
3142.765757468967
 20
1961.616872564599
 30
0.0
 11
3139.636851218967
 21
1961.342946783349
 31
0.0
  0
LINE
  5
178E
330
A
100
AcDbEntity
  8
MODEL
  6
STYLE_12
 48
1.5
100
AcDbLine
 10
3134.162241843967
 20
1955.52287842398
 30
0.0
 11
3134.162241843967
 21
2101.22990967398
 31
0.0
  0
LINE
  5
178F
330
A
100
AcDbEntity
  8
MODEL
  6
STYLE_12
 48
1.5
100
AcDbLine
 10
3134.285288718967
 20
4585.753471884316
 30
0.0
 11
3131.400523093967
 21
4475.624565634316
 31
0.0
  0
LINE
  5
1790
330
A
100
AcDbEntity
  8
MODEL
  6
STYLE_12
 48
1.5
100
AcDbLine
 10
3134.162241843967
 20
4726.949760946816
 30
0.0
 11
3131.400523093967
 21
4832.566460165617
 31
0.0
  0
LINE
  5
1791
330
A
100
AcDbEntity
  8
MODEL
  6
STYLE_12
 48
1.5
100
AcDbLine
 10
3158.070444968967
 20
4605.926811728117
 30
0.0
 11
3158.070444968967
 21
4702.266655478117
 31
0.0
  0
LINE
  5
1792
330
A
100
AcDbEntity
  8
MODEL
  6
STYLE_12
 48
1.5
100
AcDbLine
 10
3160.769663718967
 20
4699.096733603117
 30
0.0
 11
3158.070444968967
 21
4699.096733603117
 31
0.0
  0
LINE
  5
1793
330
A
100
AcDbEntity
  8
MODEL
  6
STYLE_12
 48
1.5
100
AcDbLine
 10
3136.861460593967
 20
4727.020561728117
 30
0.0
 11
3136.152476218967
 21
4754.096733603117
 31
0.0
  0
LINE
  5
1794
330
A
100
AcDbEntity
  8
MODEL
  6
STYLE_12
 48
1.5
100
AcDbLine
 10
3139.873179343967
 20
4723.819389853117
 30
0.0
 11
3143.000132468967
 21
4723.545952353117
 31
0.0
  0
LINE
  5
1795
330
A
100
AcDbEntity
  8
MODEL
  6
STYLE_12
 48
1.5
100
AcDbLine
 10
3142.765757468967
 20
4720.856010946816
 30
0.0
 11
3139.636851218967
 21
4721.129936728117
 31
0.0
  0
LINE
  5
1796
330
A
100
AcDbEntity
  8
MODEL
  6
STYLE_12
 48
1.5
100
AcDbLine
 10
3160.769663718967
 20
4609.096733603117
 30
0.0
 11
3158.070444968967
 21
4609.096733603117
 31
0.0
  0
LINE
  5
1797
330
A
100
AcDbEntity
  8
MODEL
  6
STYLE_12
 48
1.5
100
AcDbLine
 10
3160.769663718967
 20
4605.926811728117
 30
0.0
 11
3160.769663718967
 21
4702.266655478117
 31
0.0
  0
LINE
  5
1798
330
A
100
AcDbEntity
  8
MODEL
  6
STYLE_12
 48
1.5
100
AcDbLine
 10
3139.873179343967
 20
4584.373589071816
 30
0.0
 11
3143.000132468967
 21
4584.647026571816
 31
0.0
  0
LINE
  5
1799
330
A
100
AcDbEntity
  8
MODEL
  6
STYLE_12
 48
1.5
100
AcDbLine
 10
3142.765757468967
 20
4587.336967978117
 30
0.0
 11
3139.636851218967
 21
4587.063042196816
 31
0.0
  0
LINE
  5
179A
330
A
100
AcDbEntity
  8
MODEL
  6
STYLE_12
 48
1.5
100
AcDbLine
 10
3134.162241843967
 20
4581.243217978117
 30
0.0
 11
3134.162241843967
 21
4726.949760946816
 31
0.0
  0
LINE
  5
179C
330
A
100
AcDbEntity
  8
MODEL
  6
STYLE_12
 48
1.5
100
AcDbLine
 10
3147.996226218967
 20
1974.61174561148
 30
0.0
 11
3147.996226218967
 21
2082.14104248648
 31
0.0
  0
LINE
  5
179D
330
A
100
AcDbEntity
  8
MODEL
  6
STYLE_12
 48
1.5
100
AcDbLine
 10
3142.765757468967
 20
1970.93205811148
 30
0.0
 11
3142.765757468967
 21
2085.82072998648
 31
0.0
  0
LINE
  5
179E
330
A
100
AcDbEntity
  8
MODEL
  6
STYLE_12
 48
1.5
100
AcDbLine
 10
3147.996226218967
 20
4600.332085165617
 30
0.0
 11
3147.996226218967
 21
4707.861382040617
 31
0.0
  0
LINE
  5
179F
330
A
100
AcDbEntity
  8
MODEL
  6
STYLE_12
 48
1.5
100
AcDbLine
 10
3142.765757468967
 20
4596.652397665617
 30
0.0
 11
3142.765757468967
 21
4711.541069540617
 31
0.0
  0
ARC
  5
17A0
330
A
100
AcDbEntity
  8
MODEL
  6
STYLE_12
 48
1.5
100
AcDbCircle
 10
-260.3709612810353
 20
-2411.30439208381
 30
0.0
 40
6000.0
100
AcDbArc
 50
56.07442431430999
 51
60.15988756068995
  0
ARC
  5
17A1
330
A
100
AcDbEntity
  8
MODEL
  6
STYLE_12
 48
1.5
100
AcDbCircle
 10
-260.3709612810344
 20
6468.056936041188
 30
0.0
 40
6000.0
100
AcDbArc
 50
299.84011417548
 51
303.9255760109899
  0
ARC
  5
17A2
330
A
100
AcDbEntity
  8
MODEL
  6
STYLE_12
 48
1.5
100
AcDbCircle
 10
3153.070444968967
 20
2076.54631592398
 30
0.0
 40
5.0
100
AcDbArc
 50
0.0
 51
58.38370016251731
  0
ARC
  5
17A3
330
A
100
AcDbEntity
  8
MODEL
  6
STYLE_12
 48
1.5
100
AcDbCircle
 10
3153.070444968967
 20
2076.54631592398
 30
0.0
 40
7.6999998092651
100
AcDbArc
 50
0.0
 51
58.39535411051047
  0
ARC
  5
17A4
330
A
100
AcDbEntity
  8
MODEL
  6
STYLE_12
 48
1.5
100
AcDbCircle
 10
3164.968882468967
 20
2095.877126470849
 30
0.0
 40
15.0
100
AcDbArc
 50
196.4696896957084
 51
238.3837001625337
  0
ARC
  5
17A5
330
A
100
AcDbEntity
  8
MODEL
  6
STYLE_12
 48
1.5
100
AcDbCircle
 10
3164.968882468967
 20
2095.877126470849
 30
0.0
 40
17.700000762939
100
AcDbArc
 50
196.466560155012
 51
238.3891842010123
  0
ARC
  5
17A6
330
A
100
AcDbEntity
  8
MODEL
  6
STYLE_12
 48
1.5
100
AcDbCircle
 10
3142.242319968967
 20
2089.15862061148
 30
0.0
 40
8.6999998092651
100
AcDbArc
 50
16.467023169998
 51
85.00295925308811
  0
ARC
  5
17A7
330
A
100
AcDbEntity
  8
MODEL
  6
STYLE_12
 48
1.5
100
AcDbCircle
 10
3142.242319968967
 20
2089.15862061148
 30
0.0
 40
6.0
100
AcDbArc
 50
16.47281959835611
 51
84.9951167930711
  0
ARC
  5
17A8
330
A
100
AcDbEntity
  8
MODEL
  6
STYLE_12
 48
1.5
100
AcDbCircle
 10
3140.160288718967
 20
2101.38664795523
 30
0.0
 40
6.0
100
AcDbArc
 50
181.4968870543203
 51
264.9951167930884
  0
ARC
  5
17A9
330
A
100
AcDbEntity
  8
MODEL
  6
STYLE_12
 48
1.5
100
AcDbCircle
 10
3140.160288718967
 20
2101.38664795523
 30
0.0
 40
3.2999999523163
100
AcDbArc
 50
181.5007450623041
 51
265.0089617741738
  0
ARC
  5
17AA
330
A
100
AcDbEntity
  8
MODEL
  6
STYLE_12
 48
1.5
100
AcDbCircle
 10
3153.070444968967
 20
1980.20647217398
 30
0.0
 40
5.0
100
AcDbArc
 50
301.6148332674184
 51
0.0
  0
ARC
  5
17AB
330
A
100
AcDbEntity
  8
MODEL
  6
STYLE_12
 48
1.5
100
AcDbCircle
 10
3153.070444968967
 20
1980.20647217398
 30
0.0
 40
7.6999998092651
100
AcDbArc
 50
301.604645889482
 51
0.0
  0
ARC
  5
17AC
330
A
100
AcDbEntity
  8
MODEL
  6
STYLE_12
 48
1.5
100
AcDbCircle
 10
3164.968882468967
 20
1960.87541748648
 30
0.0
 40
15.0
100
AcDbArc
 50
121.6158109672296
 51
163.5294160360767
  0
ARC
  5
17AD
330
A
100
AcDbEntity
  8
MODEL
  6
STYLE_12
 48
1.5
100
AcDbCircle
 10
3164.968882468967
 20
1960.87541748648
 30
0.0
 40
17.700000762939
100
AcDbArc
 50
121.6108157989877
 51
163.5326819917256
  0
ARC
  5
17AE
330
A
100
AcDbEntity
  8
MODEL
  6
STYLE_12
 48
1.5
100
AcDbCircle
 10
3142.242319968967
 20
1967.593923345849
 30
0.0
 40
8.6999998092651
100
AcDbArc
 50
274.9970407469119
 51
343.5345186252828
  0
ARC
  5
17AF
330
A
100
AcDbEntity
  8
MODEL
  6
STYLE_12
 48
1.5
100
AcDbCircle
 10
3142.242319968967
 20
1967.593923345849
 30
0.0
 40
6.0
100
AcDbArc
 50
275.0048832069289
 51
343.5294160360897
  0
ARC
  5
17B0
330
A
100
AcDbEntity
  8
MODEL
  6
STYLE_12
 48
1.5
100
AcDbCircle
 10
3140.160288718967
 20
1955.365896002099
 30
0.0
 40
6.0
100
AcDbArc
 50
95.0048832069116
 51
178.5007824091913
  0
ARC
  5
17B1
330
A
100
AcDbEntity
  8
MODEL
  6
STYLE_12
 48
1.5
100
AcDbCircle
 10
3140.160288718967
 20
1955.365896002099
 30
0.0
 40
3.2999999523163
100
AcDbArc
 50
94.99103822584188
 51
178.4992549376959
  0
ARC
  5
17B2
330
A
100
AcDbEntity
  8
MODEL
  6
STYLE_12
 48
1.5
100
AcDbCircle
 10
3043.673960593967
 20
2500.89397217399
 30
0.0
 40
80.0
100
AcDbArc
 50
1.499358517929914
 51
56.07501922237929
  0
ARC
  5
17B3
330
A
100
AcDbEntity
  8
MODEL
  6
STYLE_12
 48
1.5
100
AcDbCircle
 10
3043.673960593967
 20
1555.85881592398
 30
0.0
 40
80.0
100
AcDbArc
 50
303.92493198426
 51
358.5004666892097
  0
ARC
  5
17B5
330
A
100
AcDbEntity
  8
MODEL
  6
STYLE_12
 48
1.5
100
AcDbCircle
 10
1943.904429343967
 20
-1001.008735146884
 30
0.0
 40
6000.0
100
AcDbArc
 50
79.05787297536999
 51
82.45521520378006
  0
ARC
  5
17B6
330
A
100
AcDbEntity
  8
MODEL
  6
STYLE_12
 48
1.5
100
AcDbCircle
 10
3153.070444968967
 20
4702.266655478117
 30
0.0
 40
5.0
100
AcDbArc
 50
0.0
 51
58.38370016253166
  0
ARC
  5
17B7
330
A
100
AcDbEntity
  8
MODEL
  6
STYLE_12
 48
1.5
100
AcDbCircle
 10
3153.070444968967
 20
4702.266655478117
 30
0.0
 40
7.6999998092651
100
AcDbArc
 50
0.0
 51
58.39630612659101
  0
ARC
  5
17B8
330
A
100
AcDbEntity
  8
MODEL
  6
STYLE_12
 48
1.5
100
AcDbCircle
 10
3164.968882468967
 20
4721.597221884316
 30
0.0
 40
15.0
100
AcDbArc
 50
196.4687954192342
 51
238.3837001625317
  0
ARC
  5
17B9
330
A
100
AcDbEntity
  8
MODEL
  6
STYLE_12
 48
1.5
100
AcDbCircle
 10
3164.968882468967
 20
4721.597221884316
 30
0.0
 40
17.700000762939
100
AcDbArc
 50
196.4673180082776
 51
238.3883557155118
  0
ARC
  5
17BA
330
A
100
AcDbEntity
  8
MODEL
  6
STYLE_12
 48
1.5
100
AcDbCircle
 10
3142.242319968967
 20
4714.878960165617
 30
0.0
 40
8.6999998092651
100
AcDbArc
 50
16.46702316999141
 51
85.0029592530876
  0
ARC
  5
17BB
330
A
100
AcDbEntity
  8
MODEL
  6
STYLE_12
 48
1.5
100
AcDbCircle
 10
3142.242319968967
 20
4714.878960165617
 30
0.0
 40
6.0
100
AcDbArc
 50
16.47058396392404
 51
84.99511679306998
  0
ARC
  5
17BC
330
A
100
AcDbEntity
  8
MODEL
  6
STYLE_12
 48
1.5
100
AcDbCircle
 10
3140.160288718967
 20
4727.106987509316
 30
0.0
 40
6.0
100
AcDbArc
 50
181.5015481223325
 51
264.9951167930888
  0
ARC
  5
17BD
330
A
100
AcDbEntity
  8
MODEL
  6
STYLE_12
 48
1.5
100
AcDbCircle
 10
3140.160288718967
 20
4727.106987509316
 30
0.0
 40
3.2999999523163
100
AcDbArc
 50
181.5007450623041
 51
265.0089617741752
  0
ARC
  5
17BE
330
A
100
AcDbEntity
  8
MODEL
  6
STYLE_12
 48
1.5
100
AcDbCircle
 10
3153.070444968967
 20
4605.926811728117
 30
0.0
 40
5.0
100
AcDbArc
 50
301.6162998374683
 51
0.0
  0
ARC
  5
17BF
330
A
100
AcDbEntity
  8
MODEL
  6
STYLE_12
 48
1.5
100
AcDbCircle
 10
3153.070444968967
 20
4605.926811728117
 30
0.0
 40
7.6999998092651
100
AcDbArc
 50
301.6055979569699
 51
0.0
  0
ARC
  5
17C0
330
A
100
AcDbEntity
  8
MODEL
  6
STYLE_12
 48
1.5
100
AcDbCircle
 10
3164.968882468967
 20
4586.595757040617
 30
0.0
 40
15.0
100
AcDbArc
 50
121.615322110543
 51
163.5312045807658
  0
ARC
  5
17C1
330
A
100
AcDbEntity
  8
MODEL
  6
STYLE_12
 48
1.5
100
AcDbCircle
 10
3164.968882468967
 20
4586.595757040617
 30
0.0
 40
17.700000762939
100
AcDbArc
 50
121.6108157989892
 51
163.5326819917289
  0
ARC
  5
17C2
330
A
100
AcDbEntity
  8
MODEL
  6
STYLE_12
 48
1.5
100
AcDbCircle
 10
3142.242319968967
 20
4593.314018759316
 30
0.0
 40
8.6999998092651
100
AcDbArc
 50
274.9970407469115
 51
343.5329768300086
  0
ARC
  5
17C3
330
A
100
AcDbEntity
  8
MODEL
  6
STYLE_12
 48
1.5
100
AcDbCircle
 10
3142.242319968967
 20
4593.314018759316
 30
0.0
 40
6.0
100
AcDbArc
 50
275.0048832069286
 51
343.5338874596919
  0
ARC
  5
17C4
330
A
100
AcDbEntity
  8
MODEL
  6
STYLE_12
 48
1.5
100
AcDbCircle
 10
3140.160288718967
 20
4581.085991415617
 30
0.0
 40
6.0
100
AcDbArc
 50
95.00488320691122
 51
178.4984518776676
  0
ARC
  5
17C5
330
A
100
AcDbEntity
  8
MODEL
  6
STYLE_12
 48
1.5
100
AcDbCircle
 10
3140.160288718967
 20
4581.085991415617
 30
0.0
 40
3.2999999523163
100
AcDbArc
 50
94.99103822584324
 51
178.4992549376959
  0
ARC
  5
17C6
330
A
100
AcDbEntity
  8
MODEL
  6
STYLE_12
 48
1.5
100
AcDbCircle
 10
2734.074351218967
 20
4964.890190634316
 30
0.0
 40
18.0
100
AcDbArc
 50
180.0
 51
262.4556831942977
  0
ARC
  5
17C7
330
A
100
AcDbEntity
  8
MODEL
  6
STYLE_12
 48
1.5
100
AcDbCircle
 10
1943.904429343968
 20
10309.20171407182
 30
0.0
 40
6000.0
100
AcDbArc
 50
277.5447847962199
 51
280.9421462215799
  0
ARC
  5
17C8
330
A
100
AcDbEntity
  8
MODEL
  6
STYLE_12
 48
1.5
100
AcDbCircle
 10
2734.074351218967
 20
4343.302788290617
 30
0.0
 40
18.0
100
AcDbArc
 50
97.54431680570303
 51
180.0
  0
ARC
  5
17C9
330
A
100
AcDbEntity
  8
MODEL
  6
STYLE_12
 48
1.5
100
AcDbCircle
 10
3071.422007468967
 20
4477.195366415617
 30
0.0
 40
60.0
100
AcDbArc
 50
280.9417764432903
 51
358.4998013678099
  0
ARC
  5
17CA
330
A
100
AcDbEntity
  8
MODEL
  6
STYLE_12
 48
1.5
100
AcDbCircle
 10
3071.420054343967
 20
4830.998100790617
 30
0.0
 40
60.0
100
AcDbArc
 50
1.497819269509547
 51
79.05822355670928
  0
ARC
  5
17CB
330
A
100
AcDbEntity
  8
MODEL
  6
STYLE_12
 48
1.5
100
AcDbCircle
 10
2734.074351218967
 20
2808.812673345889
 30
0.0
 40
18.0
100
AcDbArc
 50
180.0
 51
240.1579576401166
  0
ARC
  5
17CC
330
A
100
AcDbEntity
  8
MODEL
  6
STYLE_12
 48
1.5
100
AcDbCircle
 10
2734.074351218967
 20
1247.940114752099
 30
0.0
 40
18.0
100
AcDbArc
 50
119.8420423598834
 51
180.0
  0
LINE
  5
17CD
330
A
100
AcDbEntity
  8
MODEL
100
AcDbLine
 10
1113.950178366934
 20
2502.976308599742
 30
0.0
 11
1170.950178366934
 21
2502.976308599742
 31
0.0
  0
LINE
  5
17CE
330
A
100
AcDbEntity
  8
MODEL
100
AcDbLine
 10
963.9501783669339
 20
1703.776357427882
 30
0.0
 11
963.9501783669339
 21
2352.976308599742
 31
0.0
  0
LINE
  5
17CF
330
A
100
AcDbEntity
  8
MODEL
100
AcDbLine
 10
1113.950178366934
 20
1553.776357427882
 30
0.0
 11
1170.950178366934
 21
1553.776357427882
 31
0.0
  0
LINE
  5
17D4
330
A
100
AcDbEntity
  8
MODEL
100
AcDbLine
 10
1209.334943991934
 20
2070.356923834132
 30
0.0
 11
1209.290022116934
 21
2053.842763677882
 31
0.0
  0
LINE
  5
17D5
330
A
100
AcDbEntity
  8
MODEL
100
AcDbLine
 10
1167.916975241934
 20
2095.216787115382
 30
0.0
 11
1184.430647116934
 21
2095.261708990382
 31
0.0
  0
LINE
  5
17D6
330
A
100
AcDbEntity
  8
MODEL
100
AcDbLine
 10
1100.469709616934
 20
2095.261708990382
 30
0.0
 11
1116.983381491934
 21
2095.216787115382
 31
0.0
  0
LINE
  5
17D7
330
A
100
AcDbEntity
  8
MODEL
100
AcDbLine
 10
1075.610334616934
 20
2053.842763677882
 30
0.0
 11
1075.565412741945
 21
2070.356923834132
 31
0.0
  0
LINE
  5
17D8
330
A
100
AcDbEntity
  8
MODEL
100
AcDbLine
 10
1338.541975241934
 20
1325.108388677882
 30
0.0
 11
1219.858381491934
 21
1487.044423834132
 31
0.0
  0
LINE
  5
17D9
330
A
100
AcDbEntity
  8
MODEL
100
AcDbLine
 10
1347.268537741934
 20
1614.454091802882
 30
0.0
 11
1411.131818991934
 21
1397.698720709132
 31
0.0
  0
LINE
  5
17DA
330
A
100
AcDbEntity
  8
MODEL
100
AcDbLine
 10
946.3583814919339
 20
1325.108388677882
 30
0.0
 11
1065.041975241934
 21
1487.044423834132
 31
0.0
  0
LINE
  5
17DB
330
A
100
AcDbEntity
  8
MODEL
100
AcDbLine
 10
937.6318189919339
 20
1614.454091802882
 30
0.0
 11
873.7685377419339
 21
1397.698720709132
 31
0.0
  0
LINE
  5
17DC
330
A
100
AcDbEntity
  8
MODEL
100
AcDbLine
 10
937.6318189919339
 20
2442.298818365342
 30
0.0
 11
873.7685377419339
 21
2659.054189459142
 31
0.0
  0
LINE
  5
17DD
330
A
100
AcDbEntity
  8
MODEL
100
AcDbLine
 10
1065.041975241934
 20
2569.708486334142
 30
0.0
 11
946.3583814919339
 21
2731.644521490342
 31
0.0
  0
LINE
  5
17DE
330
A
100
AcDbEntity
  8
MODEL
100
AcDbLine
 10
1219.858381491934
 20
2569.708486334142
 30
0.0
 11
1338.541975241934
 21
2731.644521490342
 31
0.0
  0
LINE
  5
17DF
330
A
100
AcDbEntity
  8
MODEL
100
AcDbLine
 10
1411.131818991934
 20
2659.054189459142
 30
0.0
 11
1347.268537741934
 21
2442.298818365342
 31
0.0
  0
LINE
  5
17E0
330
A
100
AcDbEntity
  8
MODEL
100
AcDbLine
 10
1320.950178366934
 20
1703.776357427882
 30
0.0
 11
1320.950178366934
 21
2352.976308599742
 31
0.0
  0
LINE
  5
17E2
330
A
100
AcDbEntity
  8
MODEL
100
AcDbLine
 10
897.4501783669339
 20
2814.166494146642
 30
0.0
 11
1387.450178366934
 21
2814.166494146642
 31
0.0
  0
LINE
  5
17E3
330
A
100
AcDbEntity
  8
MODEL
100
AcDbLine
 10
1453.239240866934
 20
2748.376455084142
 30
0.0
 11
1453.239240866934
 21
1308.376333013822
 31
0.0
  0
LINE
  5
17E4
330
A
100
AcDbEntity
  8
MODEL
100
AcDbLine
 10
831.6611158669339
 20
1308.376333013822
 30
0.0
 11
831.6611158669339
 21
2748.376455084142
 31
0.0
  0
LINE
  5
17E5
330
A
100
AcDbEntity
  8
MODEL
100
AcDbLine
 10
1387.450178366934
 20
1242.586293951317
 30
0.0
 11
897.4501783669339
 21
1242.586293951317
 31
0.0
  0
ARC
  5
17E6
330
A
100
AcDbEntity
  8
MODEL
100
AcDbCircle
 10
1170.950178366934
 20
2352.976308599742
 30
0.0
 40
150.0
100
AcDbArc
 50
0.0
 51
90.0
  0
ARC
  5
17E7
330
A
100
AcDbEntity
  8
MODEL
100
AcDbCircle
 10
1113.950178366934
 20
2352.976308599742
 30
0.0
 40
150.0
100
AcDbArc
 50
90.0
 51
180.0
  0
ARC
  5
17E8
330
A
100
AcDbEntity
  8
MODEL
100
AcDbCircle
 10
1113.950178366934
 20
1703.776357427882
 30
0.0
 40
150.0
100
AcDbArc
 50
180.0
 51
270.0
  0
ARC
  5
17E9
330
A
100
AcDbEntity
  8
MODEL
100
AcDbCircle
 10
1170.950178366934
 20
1703.776357427882
 30
0.0
 40
150.0
100
AcDbArc
 50
270.0
 51
0.0
  0
ARC
  5
17EE
330
A
100
AcDbEntity
  8
MODEL
100
AcDbCircle
 10
1142.450178366934
 20
2028.376455084132
 30
0.0
 40
66.362281799316
100
AcDbArc
 50
202.7060605481307
 51
247.2946855294907
  0
ARC
  5
17EF
330
A
100
AcDbEntity
  8
MODEL
100
AcDbCircle
 10
1142.450178366934
 20
2028.376455084132
 30
0.0
 40
66.362281799316
100
AcDbArc
 50
22.70567164661975
 51
67.29468552948909
  0
ARC
  5
17F0
330
A
100
AcDbEntity
  8
MODEL
100
AcDbCircle
 10
1142.450178366934
 20
2028.376455084132
 30
0.0
 40
66.362281799316
100
AcDbArc
 50
292.7053144705093
 51
337.2939394518698
  0
ARC
  5
17F1
330
A
100
AcDbEntity
  8
MODEL
100
AcDbCircle
 10
1142.450178366934
 20
2028.376455084132
 30
0.0
 40
66.362281799316
100
AcDbArc
 50
112.7053144705076
 51
157.2943283533781
  0
ARC
  5
17F2
330
A
100
AcDbEntity
  8
MODEL
100
AcDbCircle
 10
897.4501783669339
 20
2748.376455084142
 30
0.0
 40
65.7900390625
100
AcDbArc
 50
90.0
 51
180.0
  0
ARC
  5
17F3
330
A
100
AcDbEntity
  8
MODEL
100
AcDbCircle
 10
897.4501783669339
 20
1308.376333013822
 30
0.0
 40
65.7890625
100
AcDbArc
 50
180.0
 51
270.0
  0
ARC
  5
17F4
330
A
100
AcDbEntity
  8
MODEL
100
AcDbCircle
 10
1387.450178366934
 20
1308.376333013822
 30
0.0
 40
65.7900390625
100
AcDbArc
 50
270.0
 51
0.0
  0
ARC
  5
17F5
330
A
100
AcDbEntity
  8
MODEL
100
AcDbCircle
 10
1387.450178366934
 20
2748.376455084142
 30
0.0
 40
65.7890625
100
AcDbArc
 50
0.0
 51
90.0
  0
LWPOLYLINE
  5
17F7
330
A
100
AcDbEntity
  8
MODEL
100
AcDbPolyline
 90
       11
 70
     0
 43
0.0
 10
1184.604475241934
 20
2095.435537115382
 10
1187.399397116934
 20
2095.288076177882
 10
1190.161115866945
 20
2094.831044927882
 10
1194.141584616934
 20
2093.578115240382
 10
1197.860334616934
 20
2091.679677740382
 10
1201.207990866934
 20
2089.173818365382
 10
1204.086897116945
 20
2086.142080084132
 10
1206.420881491934
 20
2082.644033209132
 10
1208.131818991934
 20
2078.803212896632
 10
1209.166975241945
 20
2074.724599615382
 10
1209.508772116934
 20
2070.530751959132
  0
LWPOLYLINE
  5
17F9
330
A
100
AcDbEntity
  8
MODEL
100
AcDbPolyline
 90
       11
 70
     0
 43
0.0
 10
1100.295881491934
 20
1961.317128912252
 10
1097.500959616934
 20
1961.464345709132
 10
1094.739240866934
 20
1961.921865240382
 10
1090.758772116945
 20
1963.174794927882
 10
1087.040022116945
 20
1965.072988287252
 10
1083.692365866945
 20
1967.578603521632
 10
1080.813459616934
 20
1970.610341802882
 10
1078.479475241934
 20
1974.108632818502
 10
1076.768537741934
 20
1977.949208990382
 10
1075.733381491934
 20
1982.028310552882
 10
1075.391584616945
 20
1986.222158209132
  0
LWPOLYLINE
  5
17FA
330
A
100
AcDbEntity
  8
MODEL
100
AcDbPolyline
 90
       11
 70
     0
 43
0.0
 10
1075.391584616945
 20
2070.530751959132
 10
1075.538068991934
 20
2073.325673834132
 10
1075.995100241934
 20
2076.087392584132
 10
1077.249006491934
 20
2080.068837896632
 10
1079.147443991945
 20
2083.786123052882
 10
1081.653303366934
 20
2087.133291021632
 10
1084.684553366934
 20
2090.013173834132
 10
1088.182600241934
 20
2092.346669927882
 10
1092.022443991934
 20
2094.058583990382
 10
1096.102522116934
 20
2095.093740240382
 10
1100.295881491934
 20
2095.435537115382
  0
LWPOLYLINE
  5
17FD
330
A
100
AcDbEntity
  8
MODEL
100
AcDbPolyline
 90
       11
 70
     0
 43
0.0
 10
1209.508772116934
 20
1986.222158209132
 10
1209.362287741934
 20
1983.426748052882
 10
1208.905256491934
 20
1980.665029302882
 10
1207.651350241934
 20
1976.684072271632
 10
1205.752912741934
 20
1972.966298834132
 10
1203.247053366934
 20
1969.619130865382
 10
1200.215803366934
 20
1966.739736334132
 10
1196.717756491934
 20
1964.406240240382
 10
1192.877912741934
 20
1962.694082037252
 10
1188.797834616934
 20
1961.658681646632
 10
1184.604475241934
 20
1961.317128912252
  0
LWPOLYLINE
  5
1802
330
A
100
AcDbEntity
  8
MODEL
100
AcDbPolyline
 90
        5
 70
     0
 43
0.0
 10
1075.391584616945
 20
1986.222158209132
 10
1075.411115866934
 20
2007.296376959132
 10
1075.416975241934
 20
2028.372548834132
 10
1075.411115866934
 20
2049.451650396632
 10
1075.391584616945
 20
2070.530751959132
  0
LWPOLYLINE
  5
1803
330
A
100
AcDbEntity
  8
MODEL
100
AcDbPolyline
 90
        5
 70
     0
 43
0.0
 10
1184.604475241934
 20
1961.317128912252
 10
1163.530256491934
 20
1961.336171881002
 10
1142.454084616934
 20
1961.343251959132
 10
1121.375959616934
 20
1961.336171881002
 10
1100.295881491934
 20
1961.317128912252
  0
LWPOLYLINE
  5
1804
330
A
100
AcDbEntity
  8
MODEL
100
AcDbPolyline
 90
        5
 70
     0
 43
0.0
 10
1209.508772116934
 20
2070.530751959132
 10
1209.491193991934
 20
2049.456533209132
 10
1209.483381491934
 20
2028.380361334132
 10
1209.491193991934
 20
2007.301259771632
 10
1209.508772116934
 20
1986.222158209132
  0
LWPOLYLINE
  5
1805
330
A
100
AcDbEntity
  8
MODEL
100
AcDbPolyline
 90
        5
 70
     0
 43
0.0
 10
1100.295881491934
 20
2095.435537115382
 10
1121.370100241945
 20
2095.416494146632
 10
1142.446272116934
 20
2095.409658209132
 10
1163.524397116934
 20
2095.416494146632
 10
1184.604475241934
 20
2095.435537115382
  0
LWPOLYLINE
  5
1806
330
A
100
AcDbEntity
  8
MODEL
100
AcDbPolyline
 90
       11
 70
     0
 43
0.0
 10
1184.430647116934
 20
2095.261708990382
 10
1188.604475241934
 20
2094.912099615382
 10
1192.661115866934
 20
2093.875478521632
 10
1196.493147116934
 20
2092.164541021632
 10
1199.985334616934
 20
2089.836904302882
 10
1203.010725241934
 20
2086.973623052882
 10
1205.518537741945
 20
2083.647451177882
 10
1207.422834616934
 20
2079.963369146632
 10
1208.692365866945
 20
2076.015615240382
 10
1209.174787741934
 20
2073.204580084132
 10
1209.334943991934
 20
2070.356923834132
  0
LWPOLYLINE
  5
1807
330
A
100
AcDbEntity
  8
MODEL
100
AcDbPolyline
 90
       11
 70
     0
 43
0.0
 10
1100.469709616934
 20
1961.490712896632
 10
1096.295881491934
 20
1961.840322271632
 10
1092.239240866934
 20
1962.877431646632
 10
1088.407209616934
 20
1964.588369146632
 10
1084.915022116934
 20
1966.915517584132
 10
1081.889631491945
 20
1969.778798834132
 10
1079.381818991934
 20
1973.104970709132
 10
1077.477522116934
 20
1976.789052740382
 10
1076.207990866934
 20
1980.737294927882
 10
1075.725568991934
 20
1983.548085943502
 10
1075.565412741945
 20
1986.395498052882
  0
LWPOLYLINE
  5
1808
330
A
100
AcDbEntity
  8
MODEL
100
AcDbPolyline
 90
       11
 70
     0
 43
0.0
 10
1209.334943991934
 20
1986.395498052882
 10
1208.985334616934
 20
1982.222158209132
 10
1207.950178366934
 20
1978.165029302882
 10
1206.239240866934
 20
1974.332753912252
 10
1203.911115866934
 20
1970.840810552882
 10
1201.047834616934
 20
1967.815419927882
 10
1197.721662741934
 20
1965.308583990382
 10
1194.038068991934
 20
1963.404775396632
 10
1190.088850241934
 20
1962.134511724752
 10
1187.278303366945
 20
1961.651845709132
 10
1184.430647116934
 20
1961.490712896632
  0
LWPOLYLINE
  5
1809
330
A
100
AcDbEntity
  8
MODEL
100
AcDbPolyline
 90
       11
 70
     0
 43
0.0
 10
1075.565412741945
 20
2070.356923834132
 10
1075.915022116934
 20
2074.530263677882
 10
1076.950178366945
 20
2078.587880865382
 10
1078.661115866934
 20
2082.419912115382
 10
1080.989240866934
 20
2085.912099615382
 10
1083.852522116934
 20
2088.937001959132
 10
1087.178693991934
 20
2091.443837896632
 10
1090.862287741934
 20
2093.348134771632
 10
1094.811506491934
 20
2094.618154302882
 10
1097.622053366934
 20
2095.101064459132
 10
1100.469709616934
 20
2095.261708990382
  0
LWPOLYLINE
  5
180A
330
A
100
AcDbEntity
  8
MODEL
100
AcDbPolyline
 90
        3
 70
     0
 43
0.0
 10
1116.983381491934
 20
1961.536123052882
 10
1108.725568991934
 20
1961.515615240382
 10
1100.469709616934
 20
1961.490712896632
  0
LWPOLYLINE
  5
180B
330
A
100
AcDbEntity
  8
MODEL
100
AcDbPolyline
 90
        5
 70
     0
 43
0.0
 10
1167.916975241934
 20
1961.536123052882
 10
1155.198225241934
 20
1961.585439459132
 10
1142.473615866934
 20
1961.616689459132
 10
1129.727522116934
 20
1961.585439459132
 10
1116.983381491934
 20
1961.536123052882
  0
LWPOLYLINE
  5
180C
330
A
100
AcDbEntity
  8
MODEL
100
AcDbPolyline
 90
        3
 70
     0
 43
0.0
 10
1184.430647116934
 20
1961.490712896632
 10
1176.174787741945
 20
1961.515615240382
 10
1167.916975241934
 20
1961.536123052882
  0
LWPOLYLINE
  5
180D
330
A
100
AcDbEntity
  8
MODEL
100
AcDbPolyline
 90
        3
 70
     0
 43
0.0
 10
1209.290022116934
 20
2002.909658209132
 10
1209.311506491934
 20
1994.652089849752
 10
1209.334943991934
 20
1986.395498052882
  0
LWPOLYLINE
  5
180E
330
A
100
AcDbEntity
  8
MODEL
100
AcDbPolyline
 90
        5
 70
     0
 43
0.0
 10
1209.290022116934
 20
2053.842763677882
 10
1209.241193991934
 20
2041.124013677882
 10
1209.209943991934
 20
2028.399404302882
 10
1209.241193991934
 20
2015.654775396632
 10
1209.290022116934
 20
2002.909658209132
  0
LWPOLYLINE
  5
180F
330
A
100
AcDbEntity
  8
MODEL
100
AcDbPolyline
 90
        5
 70
     0
 43
0.0
 10
1116.983381491934
 20
2095.216787115382
 10
1129.702131491934
 20
2095.166982427882
 10
1142.426740866945
 20
2095.135732427882
 10
1155.172834616934
 20
2095.166982427882
 10
1167.916975241934
 20
2095.216787115382
  0
LWPOLYLINE
  5
1810
330
A
100
AcDbEntity
  8
MODEL
100
AcDbPolyline
 90
        5
 70
     0
 43
0.0
 10
1075.610334616934
 20
2002.909658209132
 10
1075.659162741945
 20
2015.628896490382
 10
1075.690412741934
 20
2028.353017584132
 10
1075.659162741945
 20
2041.098134771632
 10
1075.610334616934
 20
2053.842763677882
  0
LWPOLYLINE
  5
1811
330
A
100
AcDbEntity
  8
MODEL
100
AcDbPolyline
 90
        3
 70
     0
 43
0.0
 10
1075.565412741945
 20
1986.395498052882
 10
1075.588850241945
 20
1994.651845709132
 10
1075.610334616934
 20
2002.909658209132
  0
LWPOLYLINE
  5
1812
330
A
100
AcDbEntity
  8
MODEL
100
AcDbPolyline
 90
        6
 70
     0
 43
0.0
 10
1203.668928366945
 20
2002.760732427882
 10
1204.559553366934
 20
2014.724111334132
 10
1204.903303366945
 20
2024.497548834132
 10
1204.862287741934
 20
2034.302236334132
 10
1204.438459616945
 20
2044.151357427882
 10
1203.668928366945
 20
2053.991689459132
  0
LWPOLYLINE
  5
1813
330
A
100
AcDbEntity
  8
MODEL
100
AcDbPolyline
 90
       10
 70
     0
 43
0.0
 10
1081.223615866934
 20
1986.176748052882
 10
1081.715803366945
 20
1981.850576177882
 10
1082.684553366934
 20
1978.833974615382
 10
1084.137678366934
 20
1976.018544927882
 10
1086.051740866934
 20
1973.477529302882
 10
1088.362287741934
 20
1971.291005865382
 10
1091.030256491934
 20
1969.513662115382
 10
1093.957990866934
 20
1968.207998052882
 10
1097.061506491934
 20
1967.416494146632
 10
1100.250959616934
 20
1967.150380865382
  0
LWPOLYLINE
  5
1814
330
A
100
AcDbEntity
  8
MODEL
100
AcDbPolyline
 90
       10
 70
     0
 43
0.0
 10
1203.676740866934
 20
2070.575917974752
 10
1203.184553366934
 20
2074.901845709132
 10
1202.215803366934
 20
2077.918447271632
 10
1200.762678366945
 20
2080.734121099752
 10
1198.848615866934
 20
2083.274892584132
 10
1196.538068991934
 20
2085.461416021632
 10
1193.870100241945
 20
2087.239003912252
 10
1190.942365866934
 20
2088.544912115382
 10
1187.838850241934
 20
2089.335927740382
 10
1184.649397116945
 20
2089.602529302882
  0
LWPOLYLINE
  5
1815
330
A
100
AcDbEntity
  8
MODEL
100
AcDbPolyline
 90
       10
 70
     0
 43
0.0
 10
1100.250959616934
 20
2089.602529302882
 10
1095.924787741934
 20
2089.111562506002
 10
1092.907209616934
 20
2088.142568365382
 10
1090.092756491934
 20
2086.688466802882
 10
1087.551740866945
 20
2084.774404302882
 10
1085.364240866945
 20
2082.463857427882
 10
1083.586897116934
 20
2079.795644537252
 10
1082.282209616934
 20
2076.867666021632
 10
1081.491193991934
 20
2073.765615240382
 10
1081.223615866934
 20
2070.575917974752
  0
LWPOLYLINE
  5
1816
330
A
100
AcDbEntity
  8
MODEL
100
AcDbPolyline
 90
       10
 70
     0
 43
0.0
 10
1184.649397116945
 20
1967.150380865382
 10
1188.975568991934
 20
1967.641103521632
 10
1191.993147116934
 20
1968.610341802882
 10
1194.807600241934
 20
1970.063955084132
 10
1197.348615866934
 20
1971.978017584132
 10
1199.536115866934
 20
1974.288564459132
 10
1201.313459616934
 20
1976.957021490382
 10
1202.618147116934
 20
1979.884755865382
 10
1203.409162741934
 20
1982.986806646632
 10
1203.676740866934
 20
1986.176748052882
  0
LWPOLYLINE
  5
1817
330
A
100
AcDbEntity
  8
MODEL
100
AcDbPolyline
 90
        4
 70
     0
 43
0.0
 10
1081.231428366934
 20
2002.760732427882
 10
1081.229475241934
 20
1996.762929693502
 10
1081.227522116945
 20
1990.765859381002
 10
1081.223615866934
 20
1986.176748052882
  0
LWPOLYLINE
  5
1818
330
A
100
AcDbEntity
  8
MODEL
100
AcDbPolyline
 90
        6
 70
     0
 43
0.0
 10
1081.231428366934
 20
2053.991689459132
 10
1080.340803366934
 20
2042.028310552882
 10
1079.997053366934
 20
2032.255361334132
 10
1080.038068991934
 20
2022.450673834132
 10
1080.461897116934
 20
2012.601552740382
 10
1081.231428366934
 20
2002.760732427882
  0
LWPOLYLINE
  5
1819
330
A
100
AcDbEntity
  8
MODEL
100
AcDbPolyline
 90
        6
 70
     0
 43
0.0
 10
1116.834943991934
 20
1967.157216802882
 10
1128.797834616934
 20
1966.266103521632
 10
1138.571272116934
 20
1965.923574224752
 10
1148.375959616945
 20
1965.964345709132
 10
1158.225568991945
 20
1966.388662115382
 10
1168.065412741934
 20
1967.157216802882
  0
LWPOLYLINE
  5
181A
330
A
100
AcDbEntity
  8
MODEL
100
AcDbPolyline
 90
        6
 70
     0
 43
0.0
 10
1168.065412741934
 20
2089.595693365382
 10
1156.102522116934
 20
2090.486318365382
 10
1146.329084616934
 20
2090.829091802882
 10
1136.524397116934
 20
2090.788564459132
 10
1126.674787741934
 20
2090.364003912252
 10
1116.834943991934
 20
2089.595693365382
  0
LWPOLYLINE
  5
181B
330
A
100
AcDbEntity
  8
MODEL
100
AcDbPolyline
 90
        3
 70
     0
 43
0.0
 10
1184.649397116945
 20
2089.602529302882
 10
1172.655256491934
 20
2089.596181646632
 10
1168.065412741934
 20
2089.595693365382
  0
LWPOLYLINE
  5
181C
330
A
100
AcDbEntity
  8
MODEL
100
AcDbPolyline
 90
        4
 70
     0
 43
0.0
 10
1081.223615866934
 20
2070.575917974752
 10
1081.227522116945
 20
2064.579580084132
 10
1081.229475241934
 20
2058.582265631002
 10
1081.231428366934
 20
2053.991689459132
  0
LWPOLYLINE
  5
181D
330
A
100
AcDbEntity
  8
MODEL
100
AcDbPolyline
 90
        3
 70
     0
 43
0.0
 10
1203.668928366945
 20
2053.991689459132
 10
1203.672834616934
 20
2065.986806646632
 10
1203.676740866934
 20
2070.575917974752
  0
LWPOLYLINE
  5
181E
330
A
100
AcDbEntity
  8
MODEL
100
AcDbPolyline
 90
        3
 70
     0
 43
0.0
 10
1116.834943991934
 20
2089.595693365382
 10
1104.838850241945
 20
2089.599111334132
 10
1100.250959616934
 20
2089.602529302882
  0
LWPOLYLINE
  5
181F
330
A
100
AcDbEntity
  8
MODEL
100
AcDbPolyline
 90
        4
 70
     0
 43
0.0
 10
1168.065412741934
 20
1967.157216802882
 10
1174.063459616934
 20
1967.155751959132
 10
1180.061506491934
 20
1967.153310552882
 10
1184.649397116945
 20
1967.150380865382
  0
LWPOLYLINE
  5
1820
330
A
100
AcDbEntity
  8
MODEL
100
AcDbPolyline
 90
        4
 70
     0
 43
0.0
 10
1203.676740866934
 20
1986.176748052882
 10
1203.672834616934
 20
1992.173085943502
 10
1203.670881491934
 20
1998.170400396632
 10
1203.668928366945
 20
2002.760732427882
  0
LWPOLYLINE
  5
1821
330
A
100
AcDbEntity
  8
MODEL
100
AcDbPolyline
 90
        4
 70
     0
 43
0.0
 10
1100.250959616934
 20
1967.150380865382
 10
1106.247053366945
 20
1967.154042974752
 10
1112.245100241934
 20
1967.156240240382
 10
1116.834943991934
 20
1967.157216802882
  0
ARC
  5
1828
330
A
100
AcDbEntity
  8
MODEL
100
AcDbCircle
 10
1100.391584616934
 20
1986.317128912252
 30
0.0
 40
25.0
100
AcDbArc
 50
180.0
 51
270.0
  0
ARC
  5
182A
330
A
100
AcDbEntity
  8
MODEL
100
AcDbCircle
 10
790.4501783669339
 20
1201.376333013817
 30
0.0
 40
23.0
100
AcDbArc
 50
180.0
 51
270.0
  0
ARC
  5
182B
330
A
100
AcDbEntity
  8
MODEL
100
AcDbCircle
 10
1494.450178366934
 20
1201.376333013817
 30
0.0
 40
23.0
100
AcDbArc
 50
270.0
 51
0.0
  0
ARC
  5
182C
330
A
100
AcDbEntity
  8
MODEL
100
AcDbCircle
 10
1494.450178366934
 20
2855.376455084142
 30
0.0
 40
23.0
100
AcDbArc
 50
0.0
 51
90.0
  0
ARC
  5
182D
330
A
100
AcDbEntity
  8
MODEL
100
AcDbCircle
 10
790.4501783669339
 20
2855.376455084142
 30
0.0
 40
23.0
100
AcDbArc
 50
90.0
 51
180.0
  0
ARC
  5
1831
330
A
100
AcDbEntity
  8
MODEL
100
AcDbCircle
 10
2722.074351218967
 20
1184.376394048978
 30
0.0
 40
6.0
100
AcDbArc
 50
180.0
 51
270.0
  0
ARC
  5
1832
330
A
100
AcDbEntity
  8
MODEL
100
AcDbCircle
 10
2722.074351218967
 20
2872.37639404899
 30
0.0
 40
6.0
100
AcDbArc
 50
90.0
 51
180.0
  0
ARC
  5
1833
330
A
100
AcDbEntity
  8
MODEL
100
AcDbCircle
 10
2722.074351218967
 20
4285.096733603117
 30
0.0
 40
6.0
100
AcDbArc
 50
180.0
 51
270.0
  0
ARC
  5
1834
330
A
100
AcDbEntity
  8
MODEL
100
AcDbCircle
 10
2722.074351218967
 20
5023.096733603117
 30
0.0
 40
6.0
100
AcDbArc
 50
90.0
 51
180.0
  0
LINE
  5
1839
330
A
100
AcDbEntity
  8
MODEL
100
AcDbLine
 10
1494.450178366934
 20
1178.376333013817
 30
0.0
 11
790.4501783669339
 21
1178.376333013817
 31
0.0
  0
LINE
  5
183A
330
A
100
AcDbEntity
  8
MODEL
100
AcDbLine
 10
790.4501783669339
 20
2878.376455084142
 30
0.0
 11
1494.450178366934
 21
2878.376455084142
 31
0.0
  0
LINE
  5
183B
330
A
100
AcDbEntity
  8
MODEL
100
AcDbLine
 10
1517.450178366934
 20
2855.376455084142
 30
0.0
 11
1517.450178366934
 21
1201.376333013817
 31
0.0
  0
LINE
  5
183C
330
A
100
AcDbEntity
  8
MODEL
100
AcDbLine
 10
767.4501783669648
 20
1201.376333013817
 30
0.0
 11
767.4501783669648
 21
2855.376455084142
 31
0.0
  0
LINE
  5
183D
330
A
100
AcDbEntity
  8
MODEL
100
AcDbLine
 10
3326.074351218967
 20
1178.376394048978
 30
0.0
 11
2722.074351218967
 21
1178.376394048978
 31
0.0
  0
LINE
  5
183E
330
A
100
AcDbEntity
  8
MODEL
100
AcDbLine
 10
3326.074351218967
 20
2878.37639404899
 30
0.0
 11
2722.074351218967
 21
2878.37639404899
 31
0.0
  0
LINE
  5
183F
330
A
100
AcDbEntity
  8
MODEL
100
AcDbLine
 10
2716.074351218967
 20
2872.37639404899
 30
0.0
 11
2716.074351218967
 21
1184.376394048978
 31
0.0
  0
LINE
  5
1840
330
A
100
AcDbEntity
  8
MODEL
100
AcDbLine
 10
2716.074351218967
 20
4285.096733603117
 30
0.0
 11
2716.074351218967
 21
5023.096733603117
 31
0.0
  0
LINE
  5
1841
330
A
100
AcDbEntity
  8
MODEL
100
AcDbLine
 10
3326.074351218967
 20
4279.096733603117
 30
0.0
 11
2722.074351218967
 21
4279.096733603117
 31
0.0
  0
LINE
  5
1842
330
A
100
AcDbEntity
  8
MODEL
100
AcDbLine
 10
3326.074351218967
 20
5029.096733603117
 30
0.0
 11
2722.074351218967
 21
5029.096733603117
 31
0.0
  0
LINE
  5
1843
330
A
100
AcDbEntity
  8
MODEL
100
AcDbLine
 10
3326.074351218967
 20
2878.37639404899
 30
0.0
 11
3326.074351218967
 21
1178.376394048978
 31
0.0
  0
LINE
  5
1844
330
A
100
AcDbEntity
  8
MODEL
100
AcDbLine
 10
3326.074351218967
 20
4279.096733603117
 30
0.0
 11
3326.074351218967
 21
5029.096733603117
 31
0.0
  0
CIRCLE
  5
1845
330
A
100
AcDbEntity
  8
MODEL
  6
HIDDEN
 48
0.05
100
AcDbCircle
 10
1142.450178366934
 20
2028.376455084132
 30
0.0
 40
45.0
  0
DIMENSION
  5
1852
330
A
100
AcDbEntity
  8
DIM
100
AcDbDimension
  2
*D6
 10
1517.450117331778
 20
3247.450126950232
 30
0.0
 11
1142.450147849358
 21
3247.450126950232
 31
0.0
 70
   160
 71
     5
 42
749.9999389648406
 73
     0
 74
     0
 75
     0
 52
-270.0
  3
tfrom線あり
100
AcDbAlignedDimension
 13
767.4501783669375
 23
2862.943375555779
 33
0.0
 14
1517.450117331778
 24
2862.943375555779
 34
0.0
 50
180.0
100
AcDbRotatedDimension
1001
ACAD
1000
DSTYLE
1002
{
1070
   179
1070
     0
1070
    41
1040
18.0
1070
   271
1070
     0
1070
    43
1040
25.0
1070
    44
1040
0.0
1070
    42
1040
60.0
1070
   140
1040
48.0
1002
}
  0
DIMENSION
  5
1853
330
A
100
AcDbEntity
  8
DIM
100
AcDbDimension
  2
*D7
 10
416.656478505594
 20
2878.376271978718
 30
0.0
 11
416.6564785055934
 21
2028.376373068172
 31
0.0
 70
   160
 71
     5
 42
1699.999797821092
 73
     0
 74
     0
 75
     0
  3
tfrom線あり
100
AcDbAlignedDimension
 13
771.8865164798726
 23
1178.376474157626
 33
0.0
 14
792.9756775255873
 24
2878.376271978718
 34
0.0
 50
89.99999999999996
100
AcDbRotatedDimension
1001
ACAD
1000
DSTYLE
1002
{
1070
   179
1070
     0
1070
    41
1040
18.0
1070
   271
1070
     0
1070
    43
1040
25.0
1070
    44
1040
0.0
1070
    42
1040
60.0
1070
   140
1040
48.0
1002
}
  0
DIMENSION
  5
1854
330
A
100
AcDbEntity
  8
DIM
100
AcDbDimension
  2
*D8
 10
1798.506748638029
 20
2878.376271978717
 30
0.0
 11
1798.506748638029
 21
2453.376333013849
 31
0.0
 70
   160
 71
     5
 42
849.9998779297382
 73
     0
 74
     0
 75
     0
  3
tfrom線あり
100
AcDbAlignedDimension
 13
1244.486959460041
 23
2028.37639404898
 33
0.0
 14
1513.520430178628
 24
2878.376271978718
 34
0.0
 50
89.99999999999996
100
AcDbRotatedDimension
1001
ACAD
1000
DSTYLE
1002
{
1070
   147
1040
30.0
1070
   179
1070
     0
1070
    41
1040
18.0
1070
   271
1070
     0
1070
    43
1040
25.0
1070
    44
1040
0.0
1070
    42
1040
60.0
1070
   140
1040
48.0
1002
}
  0
DIMENSION
  5
1886
330
A
100
AcDbEntity
  8
DIM
100
AcDbDimension
  2
*D9
 10
2407.657228230391
 20
2798.37639404898
 30
0.0
 11
2407.657228230391
 21
2028.37639404898
 31
0.0
 70
   160
 71
     5
 42
1540.0
 73
     0
 74
     0
 75
     0
  3
JIS
100
AcDbAlignedDimension
 13
2723.977432883125
 23
1258.37639404898
 33
0.0
 14
2723.977380204123
 24
2798.37639404898
 34
0.0
 50
89.99999999999996
100
AcDbRotatedDimension
1001
ACAD
1000
DSTYLE
1002
{
1070
   179
1070
     0
1070
    41
1040
18.0
1070
   271
1070
     0
1070
    43
1040
25.0
1070
    44
1040
0.0
1070
    42
1040
60.0
1070
   147
1040
30.0
1070
   140
1040
48.0
1002
}
  0
DIMENSION
  5
1887
330
A
100
AcDbEntity
  8
DIM
100
AcDbDimension
  2
*D10
 10
2559.578552733949
 20
2568.376373068168
 30
0.0
 11
2505.578552733949
 21
2028.376373068168
 31
0.0
 70
    32
 71
     5
 42
1080.0
 73
     0
 74
     0
 75
     0
  3
JIS
100
AcDbAlignedDimension
 13
2937.511851274175
 23
1488.376373068168
 33
0.0
 14
2937.511851274176
 24
2568.376373068168
 34
0.0
 50
89.99999999999996
100
AcDbRotatedDimension
1001
ACAD
1000
DSTYLE
1002
{
1070
   179
1070
     0
1070
    41
1040
18.0
1070
   271
1070
     0
1070
    43
1040
25.0
1070
    44
1040
0.0
1070
    42
1040
60.0
1070
   147
1040
30.0
1070
   140
1040
48.0
1002
}
  0
DIMENSION
  5
1888
330
A
100
AcDbEntity
  8
DIM
100
AcDbDimension
  2
*D11
 10
2672.901272995677
 20
2054.376369253471
 30
0.0
 11
2672.901272995677
 21
2028.376373068166
 31
0.0
 70
   160
 71
     5
 42
51.99999237060683
 73
     0
 74
     0
 75
     0
  3
JIS
100
AcDbAlignedDimension
 13
2786.074351218967
 23
2002.376376882864
 33
0.0
 14
2786.074351218967
 24
2054.376369253471
 34
0.0
 50
89.99999999999996
100
AcDbRotatedDimension
1001
ACAD
1000
DSTYLE
1002
{
1070
     3
1000
%%c<>
1070
   179
1070
     0
1070
    41
1040
18.0
1070
   271
1070
     0
1070
    43
1040
25.0
1070
    44
1040
0.0
1070
    42
1040
60.0
1070
   147
1040
30.0
1070
   140
1040
48.0
1002
}
  0
DIMENSION
  5
1889
330
A
100
AcDbEntity
  8
DIM
100
AcDbDimension
  2
*D12
 10
3326.088733588061
 20
3324.533907357787
 30
0.0
 11
3021.074352172643
 21
3324.533907357787
 31
0.0
 70
   160
 71
     5
 42
609.9999980926541
 73
     0
 74
     0
 75
     0
 52
-270.0
  3
JIS
100
AcDbAlignedDimension
 13
2716.088735495407
 23
2863.521451721357
 33
0.0
 14
3326.088733588061
 24
2878.521451721357
 34
0.0
 50
180.0
100
AcDbRotatedDimension
1001
ACAD
1000
DSTYLE
1002
{
1070
   179
1070
     0
1070
    41
1040
18.0
1070
   271
1070
     0
1070
    43
1040
25.0
1070
    44
1040
0.0
1070
    42
1040
60.0
1070
   147
1040
30.0
1070
   140
1040
48.0
1002
}
  0
DIMENSION
  5
188B
330
A
100
AcDbEntity
  8
DIM
100
AcDbDimension
  2
*D13
 10
3544.685500398226
 20
2878.37639404899
 30
0.0
 11
3490.685500398225
 21
2028.376394048984
 31
0.0
 70
    32
 71
     5
 42
1700.000000000012
 73
     0
 74
     0
 75
     0
  3
JIS
100
AcDbAlignedDimension
 13
3326.074351218967
 23
1178.376394048978
 33
0.0
 14
3326.074351218967
 24
2878.37639404899
 34
0.0
 50
89.99999999999996
100
AcDbRotatedDimension
1001
ACAD
1000
DSTYLE
1002
{
1070
   179
1070
     0
1070
    41
1040
18.0
1070
   271
1070
     0
1070
    43
1040
25.0
1070
    44
1040
0.0
1070
    42
1040
60.0
1070
   147
1040
30.0
1070
   140
1040
48.0
1002
}
  0
MTEXT
  5
188C
330
A
100
AcDbEntity
  8
TEMPLATE
390
1D
100
AcDbMText
 10
3720.791702098455
 20
1167.86303883556
 30
0.0
 40
48.865234375
 41
0.0
 46
48.865234375
 71
     1
 72
     1
  1
{\fメイリオ|b0|i0|c0|p0;\H0.8795x;※\fＭＳ ゴシック|b0|i0|c0|p0;1:オーバーフロー使用時の満水位置}
  7
ＭＳ ゴシック
 11
5.510910596163090E-16
 21
1.0
 31
0.0
 73
     1
 44
0.7828267384257843
1001
ACAD
1000
ACAD_MTEXT_DEFINED_HEIGHT_BEGIN
1070
    46
1040
48.865234375
1000
ACAD_MTEXT_DEFINED_HEIGHT_END
  0
DIMENSION
  5
188D
330
A
100
AcDbEntity
  8
DIM
100
AcDbDimension
  2
*D14
 10
2716.074471381919
 20
2198.450923406276
 30
0.0
 11
2978.37046756722
 21
2198.450923406276
 31
0.0
 70
   160
  1
93(※1)
 71
     5
 42
95.99999618530092
 73
     0
 74
     1
 75
     1
 52
-270.0
  3
JIS
100
AcDbAlignedDimension
 13
2812.07446756722
 23
2028.376373068168
 33
0.0
 14
2716.074471381919
 24
2028.37635018001
 34
0.0
 50
180.0
100
AcDbRotatedDimension
1001
ACAD
1000
DSTYLE
1002
{
1070
   172
1070
     1
1070
   174
1070
     1
1070
     3
1000
<>
1070
   179
1070
     0
1070
    41
1040
18.0
1070
   271
1070
     0
1070
    43
1040
25.0
1070
    44
1040
0.0
1070
    42
1040
60.0
1070
   147
1040
30.0
1070
   140
1040
48.0
1002
}
  0
DIMENSION
  5
18E3
330
A
100
AcDbEntity
  8
DIM
100
AcDbDimension
  2
*D15
 10
3544.685500398228
 20
5029.096733603117
 30
0.0
 11
3490.685500398228
 21
4654.096733603117
 31
0.0
 70
    32
 71
     5
 42
750.0
 73
     0
 74
     0
 75
     0
  3
JIS
100
AcDbAlignedDimension
 13
3326.074351218967
 23
4279.096733603117
 33
0.0
 14
3326.074351218967
 24
5029.096733603117
 34
0.0
 50
89.99999999999996
100
AcDbRotatedDimension
1001
ACAD
1000
DSTYLE
1002
{
1070
   179
1070
     0
1070
    41
1040
18.0
1070
   271
1070
     0
1070
    43
1040
25.0
1070
    44
1040
0.0
1070
    42
1040
60.0
1070
   147
1040
30.0
1070
   140
1040
48.0
1002
}
  0
DIMENSION
  5
190A
330
A
100
AcDbEntity
  8
DIM
  6
Continuous
370
     0
100
AcDbDimension
  2
*D17
 10
1187.662288837985
 20
1898.798744457777
 30
0.0
 11
1142.450178366934
 21
1898.798744457777
 31
0.0
 70
   160
 71
     5
 42
90.0
 73
     0
 74
     0
 75
     0
 52
-270.0
  3
JIS
100
AcDbAlignedDimension
 13
1097.662288837985
 23
2028.163026324178
 33
0.0
 14
1187.662288837985
 24
2028.163026324178
 34
0.0
 50
180.0
100
AcDbRotatedDimension
1001
ACAD
1000
DSTYLE
1002
{
1070
    77
1070
     2
1070
     3
1000
%%c<>
1070
   179
1070
     0
1070
    41
1040
18.0
1070
   271
1070
     0
1070
    43
1040
25.0
1070
    44
1040
0.0
1070
    42
1040
60.0
1070
   147
1040
30.0
1070
   140
1040
48.0
1002
}
  0
CIRCLE
  5
191C
330
A
100
AcDbEntity
  8
MODEL
  6
STYLE_12
100
AcDbCircle
 10
2786.074351218967
 20
2028.37639404898
 30
0.0
 40
25.99997520449142
  0
DIMENSION
  5
192A
330
A
100
AcDbEntity
  8
DIM
  6
Continuous
370
     0
100
AcDbDimension
  2
*D18
 10
3131.074351218967
 20
3126.600071792872
 30
0.0
 11
2923.574351218967
 21
3180.600071792872
 31
0.0
 70
    32
 71
     5
 42
415.0000000000001
 73
     0
 74
     0
 75
     0
 52
-270.0
  3
JIS
100
AcDbAlignedDimension
 13
2716.074351218967
 23
2872.37639404899
 33
0.0
 14
3131.074351218967
 24
2558.776601741537
 34
0.0
 50
180.0
100
AcDbRotatedDimension
1001
ACAD
1000
DSTYLE
1002
{
1070
   179
1070
     0
1070
    41
1040
18.0
1070
   271
1070
     0
1070
    43
1040
25.0
1070
    44
1040
0.0
1070
    42
1040
60.0
1070
   147
1040
30.0
1070
   140
1040
48.0
1002
}
  0
DIMENSION
  5
1937
330
A
100
AcDbEntity
  8
DIM
  6
Continuous
370
     0
100
AcDbDimension
  2
*D19
 10
2580.000207301839
 20
4889.096733603117
 30
0.0
 11
2526.000207301839
 21
4654.096733603117
 31
0.0
 70
    32
 71
     5
 42
470.0
 73
     0
 74
     0
 75
     0
  3
JIS
100
AcDbAlignedDimension
 13
2890.050043203628
 23
4419.096733603117
 33
0.0
 14
2890.050043203628
 24
4889.096733603117
 34
0.0
 50
90.0
100
AcDbRotatedDimension
1001
ACAD
1000
DSTYLE
1002
{
1070
   179
1070
     0
1070
    41
1040
18.0
1070
   271
1070
     0
1070
    43
1040
25.0
1070
    44
1040
0.0
1070
    42
1040
25.0
1070
   147
1040
30.0
1070
   140
1040
48.0
1002
}
  0
DIMENSION
  5
1975
330
A
100
AcDbEntity
  8
DIM
  6
Continuous
100
AcDbDimension
  2
*D20
 10
3156.074351218967
 20
5197.28412158372
 30
0.0
 11
2936.074351218967
 21
5251.28412158372
 31
0.0
 70
    32
 71
     5
 42
440.0
 73
     0
 74
     0
 75
     0
  3
JIS
100
AcDbAlignedDimension
 13
2716.074351218967
 23
5023.096733603117
 33
0.0
 14
3156.074351218967
 24
4764.513894719612
 34
0.0
100
AcDbRotatedDimension
1001
ACAD
1000
DSTYLE
1002
{
1070
   179
1070
     0
1070
    41
1040
18.0
1070
   271
1070
     0
1070
    43
1040
25.0
1070
    44
1040
0.0
1070
    42
1040
25.0
1070
   147
1040
30.0
1070
   140
1040
48.0
1002
}
  0
LINE
  5
19C4
330
A
100
AcDbEntity
  8
DIM
  6
Continuous
100
AcDbLine
 10
1204.899989379176
 20
1805.560094712444
 30
0.0
 11
872.6309052465435
 21
1805.560094712444
 31
0.0
  0
MTEXT
  5
19C5
330
A
100
AcDbEntity
  8
TEMPLATE
390
1D
100
AcDbMText
 10
885.1156084262689
 20
1870.982379591521
 30
0.0
 40
48.865234375
 41
429.0367578125001
 46
48.865234375
 71
     1
 72
     1
  1
{排水口}
  7
ＭＳ ゴシック
 73
     1
 44
0.7828267384257843
1001
ACAD
1000
ACAD_MTEXT_DEFINED_HEIGHT_BEGIN
1070
    46
1040
48.865234375
1000
ACAD_MTEXT_DEFINED_HEIGHT_END
  0
LWPOLYLINE
  5
1A02
330
A
100
AcDbEntity
  8
MODEL
100
AcDbPolyline
 90
       48
 70
     0
 43
0.0
 10
1433.473502779579
 20
2002.80608154898
 10
1432.680534029579
 20
2003.52580811148
 10
1432.000846529579
 20
2005.37639404898
 10
1431.483268404579
 20
2007.73479248648
 10
1431.112174654579
 20
2010.10686279898
 10
1430.852409029579
 20
2012.25237061148
 10
1430.670768404579
 20
2014.10490967398
 10
1430.539909029579
 20
2015.67717529898
 10
1430.446159029579
 20
2017.00627686148
 10
1430.373893404579
 20
2018.13420654898
 10
1430.321159029579
 20
2019.09905029898
 10
1430.278190279579
 20
2019.92912842398
 10
1430.246940279579
 20
2020.65178467398
 10
1430.219596529579
 20
2021.28459717398
 10
1430.200065279579
 20
2021.84514404898
 10
1430.180534029579
 20
2022.34319092398
 10
1430.166862154579
 20
2022.78947998648
 10
1430.155143404579
 20
2023.19280029898
 10
1430.145377779579
 20
2023.55901123648
 10
1430.135612154579
 20
2023.89397217398
 10
1430.129752779579
 20
2024.20061279898
 10
1430.121940279579
 20
2024.48381592398
 10
1430.116080904579
 20
2024.74651123648
 10
1430.110221529579
 20
2024.99162842398
 10
1430.096549654579
 20
2025.82854248648
 10
1430.086784029579
 20
2026.50432373648
 10
1430.078971529579
 20
2027.33733154898
 10
1430.075065279579
 20
2028.37639404898
 10
1430.075065279579
 20
2029.45451904898
 10
1430.082877779579
 20
2030.67033936148
 10
1430.094596529579
 20
2031.60295654898
 10
1430.106315279579
 20
2032.39201904898
 10
1430.129752779579
 20
2033.41155029898
 10
1430.135612154579
 20
2033.71819092398
 10
1430.145377779579
 20
2034.05315186148
 10
1430.155143404579
 20
2034.41936279898
 10
1430.166862154579
 20
2034.82268311148
 10
1430.180534029579
 20
2035.26897217398
 10
1430.200065279579
 20
2035.76701904898
 10
1430.219596529579
 20
2036.32756592398
 10
1430.246940279579
 20
2036.96037842398
 10
1430.278190279579
 20
2037.68303467398
 10
1430.321159029579
 20
2038.51311279898
 10
1430.373893404579
 20
2039.47795654898
 10
1430.446159029579
 20
2040.60588623648
 10
1430.539909029579
 20
2041.93498779898
 10
1430.670768404579
 20
2043.50725342398
 10
1430.852409029579
 20
2045.35979248648
  0
LWPOLYLINE
  5
1A03
102
{ACAD_REACTORS
330
1A07
102
}
330
A
100
AcDbEntity
  8
MODEL
100
AcDbPolyline
 90
       48
 70
     0
 43
0.0
 10
1430.852409029579
 20
2045.35979248648
 10
1431.112174654579
 20
2047.50530029898
 10
1431.483268404579
 20
2049.87737061148
 10
1432.000846529579
 20
2052.23576904898
 10
1432.680534029579
 20
2054.08635498648
 10
1433.473502779579
 20
2054.80608154898
 10
1434.270377779579
 20
2054.08635498648
 10
1434.948112154579
 20
2052.23576904898
 10
1435.465690279579
 20
2049.87737061148
 10
1435.836784029579
 20
2047.50530029898
 10
1436.096549654579
 20
2045.35881592398
 10
1436.278190279579
 20
2043.50725342398
 10
1436.409049654579
 20
2041.93498779898
 10
1436.504752779579
 20
2040.60588623648
 10
1436.575065279579
 20
2039.47795654898
 10
1436.629752779579
 20
2038.51311279898
 10
1436.670768404579
 20
2037.68303467398
 10
1436.703971529579
 20
2036.96037842398
 10
1436.729362154579
 20
2036.32756592398
 10
1436.750846529579
 20
2035.76701904898
 10
1436.768424654579
 20
2035.26897217398
 10
1436.782096529579
 20
2034.82268311148
 10
1436.793815279579
 20
2034.41936279898
 10
1436.805534029579
 20
2034.05315186148
 10
1436.813346529579
 20
2033.71819092398
 10
1436.821159029579
 20
2033.41155029898
 10
1436.827018404579
 20
2033.12834717398
 10
1436.832877779579
 20
2032.86565186148
 10
1436.836784029579
 20
2032.62053467398
 10
1436.852409029579
 20
2031.78362061148
 10
1436.860221529579
 20
2031.10783936148
 10
1436.868034029579
 20
2030.27483154898
 10
1436.873893404579
 20
2029.34514404898
 10
1436.873893404579
 20
2028.26701904898
 10
1436.868034029579
 20
2027.07756592398
 10
1436.852409029579
 20
2025.82854248648
 10
1436.836784029579
 20
2024.99162842398
 10
1436.832877779579
 20
2024.74651123648
 10
1436.827018404579
 20
2024.48381592398
 10
1436.821159029579
 20
2024.20061279898
 10
1436.813346529579
 20
2023.89397217398
 10
1436.805534029579
 20
2023.55901123648
 10
1436.793815279579
 20
2023.19280029898
 10
1436.782096529579
 20
2022.78947998648
 10
1436.768424654579
 20
2022.34319092398
 10
1436.750846529579
 20
2021.84514404898
 10
1436.729362154579
 20
2021.28459717398
 10
1436.703971529579
 20
2020.65178467398
  0
LWPOLYLINE
  5
1A04
330
A
100
AcDbEntity
  8
MODEL
100
AcDbPolyline
 90
       13
 70
     0
 43
0.0
 10
1436.703971529579
 20
2020.65178467398
 10
1436.670768404579
 20
2019.92912842398
 10
1436.629752779579
 20
2019.09905029898
 10
1436.575065279579
 20
2018.13420654898
 10
1436.504752779579
 20
2017.00627686148
 10
1436.409049654579
 20
2015.67717529898
 10
1436.278190279579
 20
2014.10490967398
 10
1436.096549654579
 20
2012.25237061148
 10
1435.836784029579
 20
2010.10686279898
 10
1435.465690279579
 20
2007.73479248648
 10
1434.948112154579
 20
2005.37639404898
 10
1434.268424654579
 20
2003.52580811148
 10
1433.473502779579
 20
2002.80608154898
  0
LEADER
  5
1A05
102
{ACAD_REACTORS
330
1A07
102
}
102
{ACAD_XDICTIONARY
360
1A06
102
}
330
A
100
AcDbEntity
  8
DIM
  6
Continuous
100
AcDbLeader
  3
JIS
 76
     3
 10
1436.873893404579
 20
2029.34514404898
 30
0.0
 10
1661.921099650846
 20
1819.541076981593
 30
0.0
 10
1661.921099650846
 20
1305.3711257671
 30
0.0
1001
ACAD
1000
DSTYLE
1002
{
1070
   179
1070
     0
1070
    41
1040
10.0
1070
   271
1070
     0
1070
    43
1040
25.0
1070
    44
1040
0.0
1070
    42
1040
25.0
1070
   147
1040
30.0
1070
   140
1040
48.0
1002
}
  0
MTEXT
  5
1A08
330
A
100
AcDbEntity
  8
TEMPLATE
390
1D
100
AcDbMText
 10
1586.37059883345
 20
1362.005844969279
 30
0.0
 40
48.865234375
 41
0.0
 46
48.865234375
 71
     1
 72
     1
  1
{オーバーフロー}
  7
ＭＳ ゴシック
 11
6.123233995736766E-17
 21
1.0
 31
0.0
 73
     1
 44
0.7828267384257843
1001
ACAD
1000
ACAD_MTEXT_DEFINED_HEIGHT_BEGIN
1070
    46
1040
48.865234375
1000
ACAD_MTEXT_DEFINED_HEIGHT_END
  0
DIMENSION
  5
1A29
330
A
100
AcDbEntity
  8
DIM
  6
Continuous
100
AcDbDimension
  2
*D23
 10
1206.818098503376
 20
2203.613240853815
 30
0.0
 11
1144.318098503376
 21
2203.613240853815
 31
0.0
 70
   160
 71
     5
 42
125.0
 73
     0
 74
     0
 75
     0
  3
JIS
100
AcDbAlignedDimension
 13
1081.818098503376
 23
2103.472425484688
 33
0.0
 14
1206.818098503376
 24
2103.472425484688
 34
0.0
100
AcDbRotatedDimension
1001
ACAD
1000
DSTYLE
1002
{
1070
   179
1070
     0
1070
    41
1040
18.0
1070
   271
1070
     0
1070
    43
1040
25.0
1070
    44
1040
0.0
1070
    42
1040
25.0
1070
   147
1040
30.0
1070
   140
1040
48.0
1002
}
  0
MTEXT
  5
20ED
330
A
100
AcDbEntity
  8
TEMPLATE
390
1D
100
AcDbMText
 10
2658.509411065372
 20
470.404822077453
 30
0.0
 40
48.865234375
 41
0.0
 46
48.865234375
 71
     1
 72
     1
  1
{137kg}
  7
ＭＳ ゴシック
 73
     1
 44
0.7828267384257843
1001
ACAD
1000
ACAD_MTEXT_DEFINED_HEIGHT_BEGIN
1070
    46
1040
48.865234375
1000
ACAD_MTEXT_DEFINED_HEIGHT_END
  0
DIMENSION
  5
2101
330
A
100
AcDbEntity
  8
DIM
  6
Continuous
100
AcDbDimension
  2
*D35
 10
2407.657228230391
 20
4949.096733603117
 30
0.0
 11
2407.657228230391
 21
4654.096733603117
 31
0.0
 70
   160
 71
     5
 42
590.0
 73
     0
 74
     0
 75
     0
  3
JIS
100
AcDbAlignedDimension
 13
2715.58423569674
 23
4359.096733603117
 33
0.0
 14
2715.58423569674
 24
4949.096733603117
 34
0.0
 50
90.0
100
AcDbRotatedDimension
1001
ACAD
1000
DSTYLE
1002
{
1070
   179
1070
     0
1070
    41
1040
18.0
1070
   271
1070
     0
1070
    43
1040
25.0
1070
    44
1040
0.0
1070
    42
1040
25.0
1070
   147
1040
30.0
1070
   140
1040
48.0
1002
}
  0
MTEXT
  5
2115
102
{ACAD_XDICTIONARY
360
2117
102
}
330
A
100
AcDbEntity
  8
DIM
  6
Continuous
100
AcDbMText
 10
152.5260175840131
 20
171.8643755678003
 30
0.0
 40
43.0
 41
0.0
 46
43.0
 71
     1
 72
     1
  1
{20170510N}
  7
ＭＳ ゴシック
 73
     1
 44
1.0
1001
ACAD
1000
ACAD_MTEXT_DEFINED_HEIGHT_BEGIN
1070
    46
1040
43.0
1000
ACAD_MTEXT_DEFINED_HEIGHT_END
  0
VIEWPORT
  5
349
330
B
100
AcDbEntity
 67
     1
  8
0
100
AcDbViewport
 10
202.5
 20
128.5
 30
0.0
 40
486.0
 41
308.4
 68
     1
 69
     1
 12
202.5
 22
128.5
 13
0.0
 23
0.0
 14
0.5
 24
0.5
 15
0.0
 25
0.0
 16
0.0
 26
0.0
 36
1.0
 17
0.0
 27
0.0
 37
0.0
 42
50.0
 43
0.0
 44
0.0
 45
308.4
 50
0.0
 51
0.0
 72
   100
 90
   557152
  1

281
     0
 71
     1
 74
     0
110
0.0
120
0.0
130
0.0
111
1.0
121
0.0
131
0.0
112
0.0
122
1.0
132
0.0
 79
     0
146
0.0
170
     0
 61
     5
348
26C
292
     1
282
     1
141
0.0
142
0.0
 63
   256
  0
VIEWPORT
  5
34A
330
B
100
AcDbEntity
 67
     1
  8
0
100
AcDbViewport
 10
202.5
 20
128.5
 30
0.0
 40
324.0
 41
205.6
 68
     2
 69
     2
 12
986.6781359294573
 22
1427.077061889956
 13
0.0
 23
0.0
 14
0.5
 24
0.5
 15
0.0
 25
0.0
 16
0.0
 26
0.0
 36
1.0
 17
0.0
 27
0.0
 37
0.0
 42
50.0
 43
0.0
 44
0.0
 45
2890.021615685494
 50
0.0
 51
0.0
 72
   100
 90
   557152
  1

281
     0
 71
     1
 74
     0
110
0.0
120
0.0
130
0.0
111
1.0
121
0.0
131
0.0
112
0.0
122
1.0
132
0.0
 79
     0
146
0.0
170
     0
 61
     5
348
26C
292
     1
282
     1
141
0.0
142
0.0
 63
   256
  0
ENDSEC
  0
SECTION
  2
OBJECTS
  0
DICTIONARY
  5
19
330
0
100
AcDbDictionary
281
     1
  3
ACAD_COLOR
350
38F
  3
ACAD_DETAILVIEWSTYLE
350
BE8
  3
ACAD_FIELDLIST
350
2119
  3
ACAD_GROUP
350
1A
  3
ACAD_IMAGE_VARS
350
27B
  3
ACAD_LAYOUT
350
1E
  3
ACAD_MATERIAL
350
263
  3
ACAD_MLEADERSTYLE
350
336
  3
ACAD_MLINESTYLE
350
1B
  3
ACAD_PLOTSETTINGS
350
22
  3
ACAD_PLOTSTYLENAME
350
1F
  3
ACAD_SCALELIST
350
241
  3
ACAD_SECTIONVIEWSTYLE
350
BE9
  3
ACAD_TABLESTYLE
350
278
  3
ACAD_VISUALSTYLE
350
267
  3
ACDB_RECOMPOSE_DATA
350
2138
  3
AcDbVariableDictionary
350
330
  3
APPDATA
350
27A
  0
SUN
  5
BE4
330
15
100
AcDbSun
 90
        1
290
     0
 63
     7
421
 16777215
 40
1.0
291
     1
 91
  2455826
 92
 54000000
292
     0
 70
     2
 71
   256
280
     1
  0
DICTIONARY
  5
2E1
330
2
100
AcDbDictionary
280
     1
281
     1
  3
ACAD_LAYERSTATES
360
2E2
  3
ACLYDICTIONARY
360
C3B
  0
DICTIONARY
  5
1A06
330
1A05
100
AcDbDictionary
280
     1
281
     1
  3
ACAD_DIMASSOC
360
1A07
  0
DICTIONARY
  5
2117
330
2115
100
AcDbDictionary
280
     1
281
     1
  3
ACAD_FIELD
360
211B
  0
DICTIONARY
  5
38F
102
{ACAD_REACTORS
330
19
102
}
330
19
100
AcDbDictionary
281
     1
  0
DICTIONARY
  5
BE8
102
{ACAD_REACTORS
330
19
102
}
330
19
100
AcDbDictionary
281
     1
  0
FIELDLIST
  5
2119
102
{ACAD_REACTORS
330
19
102
}
330
19
100
AcDbIdSet
 90
        2
330
211A
330
2116
100
AcDbFieldList
  0
DICTIONARY
  5
1A
102
{ACAD_REACTORS
330
19
102
}
330
19
100
AcDbDictionary
281
     1
  0
RASTERVARIABLES
  5
27B
102
{ACAD_REACTORS
330
19
102
}
330
19
100
AcDbRasterVariables
 90
        0
 70
     1
 71
     1
 72
     1
  0
DICTIONARY
  5
1E
102
{ACAD_REACTORS
330
19
102
}
330
19
100
AcDbDictionary
281
     1
  3
Layout1
350
21
  3
Model
350
20
  0
DICTIONARY
  5
263
102
{ACAD_REACTORS
330
19
102
}
330
19
100
AcDbDictionary
281
     1
  3
ByBlock
350
1962
  3
ByLayer
350
264
  3
Global
350
266
  0
DICTIONARY
  5
336
102
{ACAD_REACTORS
330
19
102
}
330
19
100
AcDbDictionary
281
     1
  3
Standard
350
2100
  0
DICTIONARY
  5
1B
102
{ACAD_REACTORS
330
19
102
}
330
19
100
AcDbDictionary
281
     1
  3
Standard
350
1C
  0
DICTIONARY
  5
22
102
{ACAD_REACTORS
330
19
102
}
330
19
100
AcDbDictionary
281
     1
  0
ACDBDICTIONARYWDFLT
  5
1F
102
{ACAD_REACTORS
330
19
102
}
330
19
100
AcDbDictionary
281
     1
  3
Normal
350
1D
100
AcDbDictionaryWithDefault
340
1D
  0
DICTIONARY
  5
241
102
{ACAD_REACTORS
330
19
102
}
330
19
100
AcDbDictionary
281
     1
  3
A0
350
242
  3
A1
350
243
  3
A2
350
244
  3
A3
350
245
  3
A4
350
246
  3
A5
350
247
  3
A6
350
248
  3
A7
350
249
  3
A8
350
24A
  3
A9
350
24B
  3
B0
350
24C
  3
B1
350
24D
  3
B2
350
24E
  3
B3
350
24F
  3
B4
350
250
  3
B5
350
251
  3
B6
350
252
  3
B7
350
253
  3
B8
350
254
  3
B9
350
255
  3
C0
350
256
  3
C1
350
257
  3
C2
350
258
  3
C3
350
259
  3
C4
350
25A
  3
C5
350
25B
  3
C6
350
25C
  3
C7
350
25D
  3
C8
350
25E
  3
C9
350
25F
  3
D0
350
260
  3
D1
350
261
  3
D2
350
262
  0
DICTIONARY
  5
BE9
102
{ACAD_REACTORS
330
19
102
}
330
19
100
AcDbDictionary
281
     1
  0
DICTIONARY
  5
278
102
{ACAD_REACTORS
330
19
102
}
330
19
100
AcDbDictionary
281
     1
  3
Standard
350
279
  0
DICTIONARY
  5
267
102
{ACAD_REACTORS
330
19
102
}
330
19
100
AcDbDictionary
281
     1
  3
2dWireframe
350
26C
  3
3D Hidden
350
26E
  3
3dWireframe
350
26D
  3
Basic
350
26F
  3
Brighten
350
273
  3
ColorChange
350
277
  3
Conceptual
350
271
  3
Dim
350
272
  3
EdgeColorOff
350
BDE
  3
Facepattern
350
276
  3
Flat
350
268
  3
FlatWithEdges
350
269
  3
Gouraud
350
26A
  3
GouraudWithEdges
350
26B
  3
Hidden
350
BDB
  3
JitterOff
350
BDC
  3
Linepattern
350
275
  3
OverhangOff
350
BDD
  3
Realistic
350
270
  3
Shaded
350
BE3
  3
Shaded with edges
350
BE2
  3
Shades of Gray
350
BDF
  3
Sketchy
350
BE0
  3
Thicken
350
274
  3
Wireframe
350
BDA
  3
X-Ray
350
BE1
  0
XRECORD
  5
2138
102
{ACAD_REACTORS
330
19
102
}
330
19
100
AcDbXrecord
280
     1
 90
        1
330
279
  0
DICTIONARY
  5
330
102
{ACAD_REACTORS
330
19
102
}
330
19
100
AcDbDictionary
281
     1
  3
CANNOSCALE
350
331
  3
CMLEADERSTYLE
350
2114
  3
CTABLESTYLE
350
335
  3
HPTRANSPARENCY
350
C00
  3
XCLIPFRAME
350
64A
  0
DICTIONARY
  5
27A
102
{ACAD_REACTORS
330
19
102
}
330
19
100
AcDbDictionary
281
     1
  0
DICTIONARY
  5
2E2
102
{ACAD_REACTORS
330
2E1
102
}
330
2E1
100
AcDbDictionary
281
     1
  3
ARGON_LAYERP_14
350
C3A
  0
DICTIONARY
  5
C3B
102
{ACAD_REACTORS
330
2E1
102
}
330
2E1
100
AcDbDictionary
281
     1
1001
ACAD
1000
<All
  0
DIMASSOC
  5
1A07
102
{ACAD_REACTORS
330
1A06
102
}
330
1A06
100
AcDbDimAssoc
330
1A05
 90
        1
 70
     0
 71
     1
  1
AcDbOsnapPointRef
 72
    10
331
1A03
 73
     2
 91
       33
 40
0.0
 10
0.0
 20
0.0
 30
0.0
 75
     0
  0
DICTIONARY
  5
211B
102
{ACAD_REACTORS
330
2117
102
}
330
2117
100
AcDbDictionary
280
     1
281
     1
  3
TEXT
360
2116
  0
LAYOUT
  5
21
102
{ACAD_REACTORS
330
1E
102
}
330
1E
100
AcDbPlotSettings
  1

  2
none_device
  4
ISO_A3_(420.00_x_297.00_MM)
  6

 40
7.5
 41
20.0
 42
7.5
 43
20.0
 44
420.0
 45
297.0
 46
0.0
 47
0.0
 48
0.0
 49
0.0
140
0.0
141
0.0
142
1.0
143
1.0
 70
     0
 72
     1
 73
     0
 74
     0
  7

 75
     0
 76
     0
 77
     2
 78
   300
147
1.0
148
0.0
149
0.0
100
AcDbLayout
  1
Layout1
 70
     0
 71
     0
 10
0.0
 20
0.0
 11
0.0
 21
0.0
 12
0.0
 22
0.0
 32
0.0
 14
0.0
 24
0.0
 34
0.0
 15
0.0
 25
0.0
 35
0.0
146
0.0
 13
0.0
 23
0.0
 33
0.0
 16
0.0
 26
0.0
 36
0.0
 17
0.0
 27
0.0
 37
0.0
 76
     0
330
B
331
349
  0
LAYOUT
  5
20
102
{ACAD_REACTORS
330
1E
102
}
330
1E
100
AcDbPlotSettings
  1

  2
none_device
  4
ISO_A3_(420.00_x_297.00_MM)
  6

 40
7.5
 41
20.0
 42
7.5
 43
20.0
 44
420.0
 45
297.0
 46
0.0
 47
0.0
 48
0.0
 49
0.0
140
0.0
141
0.0
142
1.0
143
1.0
 70
  1024
 72
     1
 73
     0
 74
     0
  7

 75
     0
 76
     0
 77
     2
 78
   300
147
1.0
148
0.0
149
0.0
100
AcDbLayout
  1
Model
 70
     0
 71
     1
 10
0.0
 20
0.0
 11
4200.000000000001
 21
5940.000000000001
 12
0.0
 22
0.0
 32
0.0
 14
144.5094110644077
 24
121.0094849428006
 34
-0.0000000000002274
 15
4044.509411065372
 25
5804.399587702454
 35
0.0
146
0.0
 13
0.0
 23
0.0
 33
0.0
 16
0.0
 26
0.0
 36
0.0
 17
0.0
 27
0.0
 37
0.0
 76
     0
330
A
331
15
  0
MATERIAL
  5
1962
102
{ACAD_REACTORS
330
263
102
}
330
263
100
AcDbMaterial
  1
ByBlock
 72
     1
 94
      127
  0
MATERIAL
  5
264
102
{ACAD_REACTORS
330
263
102
}
330
263
100
AcDbMaterial
  1
ByLayer
 72
     1
 94
      127
  0
MATERIAL
  5
266
102
{ACAD_REACTORS
330
263
102
}
330
263
100
AcDbMaterial
  1
Global
 72
     1
 94
      127
  0
MLEADERSTYLE
  5
2100
102
{ACAD_REACTORS
330
336
102
}
330
336
100
AcDbMLeaderStyle
170
     2
171
     1
172
     0
 90
        2
 40
0.0
 41
0.0
173
     1
 91
-1056964608
340
11
 92
       -2
290
     1
 42
2.0
291
     1
 43
8.0
  3
Standard
341
0
 44
4.0
300

342
17
174
     1
178
     6
175
     1
176
     0
 93
-1056964608
 45
4.0
292
     0
297
     0
 46
4.0
343
0
 94
-1056964608
 47
1.0
 49
1.0
140
1.0
293
     1
141
0.0
294
     1
177
     0
142
1.0
295
     0
296
     0
143
3.75
1001
ACAD_MLEADERVER
1070
     2
  0
MLINESTYLE
  5
1C
102
{ACAD_REACTORS
330
1B
102
}
330
1B
100
AcDbMlineStyle
  2
Standard
 70
     0
  3

 62
     0
 51
90.0
 52
90.0
 71
     2
 49
0.5
 62
   256
  6
BYLAYER
 49
-0.5
 62
   256
  6
BYLAYER
  0
ACDBPLACEHOLDER
  5
1D
102
{ACAD_REACTORS
330
1F
102
}
330
1F
  0
SCALE
  5
242
102
{ACAD_REACTORS
330
241
102
}
330
241
100
AcDbScale
 70
     0
300
1:1
140
1.0
141
1.0
290
     1
  0
SCALE
  5
243
102
{ACAD_REACTORS
330
241
102
}
330
241
100
AcDbScale
 70
     0
300
1:2
140
1.0
141
2.0
290
     0
  0
SCALE
  5
244
102
{ACAD_REACTORS
330
241
102
}
330
241
100
AcDbScale
 70
     0
300
1:4
140
1.0
141
4.0
290
     0
  0
SCALE
  5
245
102
{ACAD_REACTORS
330
241
102
}
330
241
100
AcDbScale
 70
     0
300
1:5
140
1.0
141
5.0
290
     0
  0
SCALE
  5
246
102
{ACAD_REACTORS
330
241
102
}
330
241
100
AcDbScale
 70
     0
300
1:8
140
1.0
141
8.0
290
     0
  0
SCALE
  5
247
102
{ACAD_REACTORS
330
241
102
}
330
241
100
AcDbScale
 70
     0
300
1:10
140
1.0
141
10.0
290
     0
  0
SCALE
  5
248
102
{ACAD_REACTORS
330
241
102
}
330
241
100
AcDbScale
 70
     0
300
1:16
140
1.0
141
16.0
290
     0
  0
SCALE
  5
249
102
{ACAD_REACTORS
330
241
102
}
330
241
100
AcDbScale
 70
     0
300
1:20
140
1.0
141
20.0
290
     0
  0
SCALE
  5
24A
102
{ACAD_REACTORS
330
241
102
}
330
241
100
AcDbScale
 70
     0
300
1:30
140
1.0
141
30.0
290
     0
  0
SCALE
  5
24B
102
{ACAD_REACTORS
330
241
102
}
330
241
100
AcDbScale
 70
     0
300
1:40
140
1.0
141
40.0
290
     0
  0
SCALE
  5
24C
102
{ACAD_REACTORS
330
241
102
}
330
241
100
AcDbScale
 70
     0
300
1:50
140
1.0
141
50.0
290
     0
  0
SCALE
  5
24D
102
{ACAD_REACTORS
330
241
102
}
330
241
100
AcDbScale
 70
     0
300
1:100
140
1.0
141
100.0
290
     0
  0
SCALE
  5
24E
102
{ACAD_REACTORS
330
241
102
}
330
241
100
AcDbScale
 70
     0
300
2:1
140
2.0
141
1.0
290
     0
  0
SCALE
  5
24F
102
{ACAD_REACTORS
330
241
102
}
330
241
100
AcDbScale
 70
     0
300
4:1
140
4.0
141
1.0
290
     0
  0
SCALE
  5
250
102
{ACAD_REACTORS
330
241
102
}
330
241
100
AcDbScale
 70
     0
300
8:1
140
8.0
141
1.0
290
     0
  0
SCALE
  5
251
102
{ACAD_REACTORS
330
241
102
}
330
241
100
AcDbScale
 70
     0
300
10:1
140
10.0
141
1.0
290
     0
  0
SCALE
  5
252
102
{ACAD_REACTORS
330
241
102
}
330
241
100
AcDbScale
 70
     0
300
100:1
140
100.0
141
1.0
290
     0
  0
SCALE
  5
253
102
{ACAD_REACTORS
330
241
102
}
330
241
100
AcDbScale
 70
     0
300
1/128" = 1'-0"
140
0.0078125
141
12.0
290
     0
  0
SCALE
  5
254
102
{ACAD_REACTORS
330
241
102
}
330
241
100
AcDbScale
 70
     0
300
1/64" = 1'-0"
140
0.015625
141
12.0
290
     0
  0
SCALE
  5
255
102
{ACAD_REACTORS
330
241
102
}
330
241
100
AcDbScale
 70
     0
300
1/32" = 1'-0"
140
0.03125
141
12.0
290
     0
  0
SCALE
  5
256
102
{ACAD_REACTORS
330
241
102
}
330
241
100
AcDbScale
 70
     0
300
1/16" = 1'-0"
140
0.0625
141
12.0
290
     0
  0
SCALE
  5
257
102
{ACAD_REACTORS
330
241
102
}
330
241
100
AcDbScale
 70
     0
300
3/32" = 1'-0"
140
0.09375
141
12.0
290
     0
  0
SCALE
  5
258
102
{ACAD_REACTORS
330
241
102
}
330
241
100
AcDbScale
 70
     0
300
1/8" = 1'-0"
140
0.125
141
12.0
290
     0
  0
SCALE
  5
259
102
{ACAD_REACTORS
330
241
102
}
330
241
100
AcDbScale
 70
     0
300
3/16" = 1'-0"
140
0.1875
141
12.0
290
     0
  0
SCALE
  5
25A
102
{ACAD_REACTORS
330
241
102
}
330
241
100
AcDbScale
 70
     0
300
1/4" = 1'-0"
140
0.25
141
12.0
290
     0
  0
SCALE
  5
25B
102
{ACAD_REACTORS
330
241
102
}
330
241
100
AcDbScale
 70
     0
300
3/8" = 1'-0"
140
0.375
141
12.0
290
     0
  0
SCALE
  5
25C
102
{ACAD_REACTORS
330
241
102
}
330
241
100
AcDbScale
 70
     0
300
1/2" = 1'-0"
140
0.5
141
12.0
290
     0
  0
SCALE
  5
25D
102
{ACAD_REACTORS
330
241
102
}
330
241
100
AcDbScale
 70
     0
300
3/4" = 1'-0"
140
0.75
141
12.0
290
     0
  0
SCALE
  5
25E
102
{ACAD_REACTORS
330
241
102
}
330
241
100
AcDbScale
 70
     0
300
1" = 1'-0"
140
1.0
141
12.0
290
     0
  0
SCALE
  5
25F
102
{ACAD_REACTORS
330
241
102
}
330
241
100
AcDbScale
 70
     0
300
1-1/2" = 1'-0"
140
1.5
141
12.0
290
     0
  0
SCALE
  5
260
102
{ACAD_REACTORS
330
241
102
}
330
241
100
AcDbScale
 70
     0
300
3" = 1'-0"
140
3.0
141
12.0
290
     0
  0
SCALE
  5
261
102
{ACAD_REACTORS
330
241
102
}
330
241
100
AcDbScale
 70
     0
300
6" = 1'-0"
140
6.0
141
12.0
290
     0
  0
SCALE
  5
262
102
{ACAD_REACTORS
330
241
102
}
330
241
100
AcDbScale
 70
     0
300
1'-0" = 1'-0"
140
12.0
141
12.0
290
     0
  0
TABLESTYLE
  5
279
102
{ACAD_REACTORS
330
278
102
}
102
{ACAD_XDICTIONARY
360
2136
102
}
330
278
100
AcDbTableStyle
  3
Standard
 70
     0
 71
     0
 40
0.06
 41
0.06
280
     0
281
     0
  7
Standard
140
4.5
170
     2
 62
     0
 63
   257
283
     0
 90
        4
 91
        0
  1

274
    -2
284
     1
 64
     0
275
    -2
285
     1
 65
     0
276
    -2
286
     1
 66
     0
277
    -2
287
     1
 67
     0
278
    -2
288
     1
 68
     0
279
    -2
289
     1
 69
     0
  7
Standard
140
6.0
170
     5
 62
     0
 63
   257
283
     0
 90
        4
 91
        0
  1

274
    -2
284
     1
 64
     0
275
    -2
285
     1
 65
     0
276
    -2
286
     1
 66
     0
277
    -2
287
     1
 67
     0
278
    -2
288
     1
 68
     0
279
    -2
289
     1
 69
     0
  7
Standard
140
4.5
170
     5
 62
     0
 63
   257
283
     0
 90
        4
 91
        0
  1

274
    -2
284
     1
 64
     0
275
    -2
285
     1
 65
     0
276
    -2
286
     1
 66
     0
277
    -2
287
     1
 67
     0
278
    -2
288
     1
 68
     0
279
    -2
289
     1
 69
     0
  0
VISUALSTYLE
  5
26C
102
{ACAD_REACTORS
330
267
102
}
330
267
100
AcDbVisualStyle
  2
2dWireframe
 70
     4
 71
     0
 72
     2
 73
     0
 90
        0
 40
-0.6
 41
-30.0
 62
     5
 63
     7
421
 16777215
 74
     1
 91
        4
 64
     7
 65
   257
 75
     1
175
     1
 42
1.0
 92
        0
 66
   257
 43
1.0
 76
     1
 77
     6
 78
     2
 67
     7
 79
     5
170
     0
171
     0
290
     0
174
     0
 93
        1
 44
0.0
173
     0
291
     0
 45
0.0
  0
VISUALSTYLE
  5
26E
102
{ACAD_REACTORS
330
267
102
}
330
267
100
AcDbVisualStyle
  2
3D Hidden
 70
     6
 71
     1
 72
     2
 73
     2
 90
        0
 40
-0.6
 41
-30.0
 62
     5
 63
     7
421
 16777215
 74
     2
 91
        2
 64
     7
 65
   257
 75
     2
175
     1
 42
40.0
 92
        0
 66
   257
 43
1.0
 76
     1
 77
     6
 78
     2
 67
     7
 79
     3
170
     0
171
     0
290
     0
174
     0
 93
        1
 44
0.0
173
     0
291
     0
 45
0.0
  0
VISUALSTYLE
  5
26D
102
{ACAD_REACTORS
330
267
102
}
330
267
100
AcDbVisualStyle
  2
3dWireframe
 70
     5
 71
     0
 72
     2
 73
     0
 90
        0
 40
-0.6
 41
-30.0
 62
     5
 63
     7
421
 16777215
 74
     1
 91
        4
 64
     7
 65
   257
 75
     1
175
     1
 42
1.0
 92
        0
 66
   257
 43
1.0
 76
     1
 77
     6
 78
     2
 67
     7
 79
     5
170
     0
171
     0
290
     0
174
     0
 93
        1
 44
0.0
173
     0
291
     0
 45
0.0
  0
VISUALSTYLE
  5
26F
102
{ACAD_REACTORS
330
267
102
}
330
267
100
AcDbVisualStyle
  2
Basic
 70
     7
 71
     1
 72
     0
 73
     1
 90
        0
 40
-0.6
 41
-30.0
 62
     5
 63
     7
421
 16777215
 74
     0
 91
        4
 64
     7
 65
   257
 75
     1
175
     1
 42
1.0
 92
        8
 66
     7
 43
1.0
 76
     1
 77
     6
 78
     2
 67
     7
 79
     5
170
     0
171
     0
290
     0
174
     0
 93
        1
 44
0.0
173
     0
291
     1
 45
0.0
  0
VISUALSTYLE
  5
273
102
{ACAD_REACTORS
330
267
102
}
330
267
100
AcDbVisualStyle
  2
Brighten
 70
    12
 71
     2
 72
     2
 73
     0
 90
        0
 40
-0.6
 41
-30.0
 62
     5
 63
     7
421
 16777215
 74
     1
 91
        4
 64
     7
 65
   257
 75
     1
175
     1
 42
1.0
 92
        8
 66
     7
 43
1.0
 76
     1
 77
     6
 78
     2
 67
     7
 79
     5
170
     0
171
     0
290
     0
174
     0
 93
        1
 44
50.0
173
     0
291
     1
 45
0.0
  0
VISUALSTYLE
  5
277
102
{ACAD_REACTORS
330
267
102
}
330
267
100
AcDbVisualStyle
  2
ColorChange
 70
    16
 71
     2
 72
     2
 73
     3
 90
        0
 40
-0.6
 41
-30.0
 62
     5
 63
     8
421
  8421504
 74
     1
 91
        4
 64
     7
 65
   257
 75
     1
175
     1
 42
1.0
 92
        8
 66
     8
424
  8421504
 43
1.0
 76
     1
 77
     6
 78
     2
 67
     7
 79
     5
170
     0
171
     0
290
     0
174
     0
 93
        1
 44
0.0
173
     0
291
     1
 45
0.0
  0
VISUALSTYLE
  5
271
102
{ACAD_REACTORS
330
267
102
}
330
267
100
AcDbVisualStyle
  2
Conceptual
 70
     9
 71
     3
 72
     2
 73
     0
 90
        0
 40
-0.6
 41
-30.0
 62
     5
 63
     7
421
 16777215
 74
     2
 91
        2
 64
     7
 65
   257
 75
     1
175
     1
 42
40.0
 92
        8
 66
     7
 43
1.0
 76
     1
 77
     6
 78
     2
 67
     7
 79
     3
170
     0
171
     0
290
     0
174
     0
 93
        1
 44
0.0
173
     0
291
     0
 45
0.0
  0
VISUALSTYLE
  5
272
102
{ACAD_REACTORS
330
267
102
}
330
267
100
AcDbVisualStyle
  2
Dim
 70
    11
 71
     2
 72
     2
 73
     0
 90
        0
 40
-0.6
 41
-30.0
 62
     5
 63
     7
421
 16777215
 74
     1
 91
        4
 64
     7
 65
   257
 75
     1
175
     1
 42
1.0
 92
        8
 66
     7
 43
1.0
 76
     1
 77
     6
 78
     2
 67
     7
 79
     5
170
     0
171
     0
290
     0
174
     0
 93
        1
 44
-50.0
173
     0
291
     1
 45
0.0
  0
VISUALSTYLE
  5
BDE
102
{ACAD_REACTORS
330
267
102
}
330
267
100
AcDbVisualStyle
  2
EdgeColorOff
 70
    22
 71
     2
 72
     2
 73
     0
 90
        0
 40
0.6
 41
30.0
 62
     5
 63
     7
421
 16777215
 74
     1
 91
        4
 64
     7
 65
   257
 75
     1
175
     1
 42
1.0
 92
        8
 66
     7
 43
1.0
 76
     1
 77
     6
 78
     2
 67
     7
 79
     5
170
     0
171
     0
290
     0
174
     0
 93
        1
 44
0.0
173
     0
291
     1
 45
0.0
  0
VISUALSTYLE
  5
276
102
{ACAD_REACTORS
330
267
102
}
330
267
100
AcDbVisualStyle
  2
Facepattern
 70
    15
 71
     2
 72
     2
 73
     0
 90
        0
 40
-0.6
 41
-30.0
 62
     5
 63
     7
421
 16777215
 74
     1
 91
        4
 64
     7
 65
   257
 75
     1
175
     1
 42
1.0
 92
        8
 66
     7
 43
1.0
 76
     1
 77
     6
 78
     2
 67
     7
 79
     5
170
     0
171
     0
290
     0
174
     0
 93
        1
 44
0.0
173
     0
291
     1
 45
0.0
  0
VISUALSTYLE
  5
268
102
{ACAD_REACTORS
330
267
102
}
330
267
100
AcDbVisualStyle
  2
Flat
 70
     0
 71
     2
 72
     1
 73
     1
 90
        2
 40
-0.6
 41
30.0
 62
     5
 63
     7
421
 16777215
 74
     0
 91
        4
 64
     7
 65
   257
 75
     1
175
     1
 42
1.0
 92
        8
 66
     7
 43
1.0
 76
     1
 77
     6
 78
     2
 67
     7
 79
     5
170
     0
171
     0
290
     0
174
     0
 93
       13
 44
0.0
173
     0
291
     1
 45
0.0
  0
VISUALSTYLE
  5
269
102
{ACAD_REACTORS
330
267
102
}
330
267
100
AcDbVisualStyle
  2
FlatWithEdges
 70
     1
 71
     2
 72
     1
 73
     1
 90
        2
 40
-0.6
 41
30.0
 62
     5
 63
     7
421
 16777215
 74
     1
 91
        4
 64
     7
 65
   257
 75
     1
175
     1
 42
1.0
 92
        0
 66
   257
 43
1.0
 76
     1
 77
     6
 78
     2
 67
     7
 79
     5
170
     0
171
     0
290
     0
174
     0
 93
       13
 44
0.0
173
     0
291
     1
 45
0.0
  0
VISUALSTYLE
  5
26A
102
{ACAD_REACTORS
330
267
102
}
330
267
100
AcDbVisualStyle
  2
Gouraud
 70
     2
 71
     2
 72
     2
 73
     1
 90
        2
 40
-0.6
 41
30.0
 62
     5
 63
     7
421
 16777215
 74
     0
 91
        4
 64
     7
 65
   257
 75
     1
175
     1
 42
1.0
 92
        0
 66
     7
 43
1.0
 76
     1
 77
     6
 78
     2
 67
     7
 79
     5
170
     0
171
     0
290
     0
174
     0
 93
       13
 44
0.0
173
     0
291
     1
 45
0.0
  0
VISUALSTYLE
  5
26B
102
{ACAD_REACTORS
330
267
102
}
330
267
100
AcDbVisualStyle
  2
GouraudWithEdges
 70
     3
 71
     2
 72
     2
 73
     1
 90
        2
 40
-0.6
 41
30.0
 62
     5
 63
     7
421
 16777215
 74
     1
 91
        4
 64
     7
 65
   257
 75
     1
175
     1
 42
1.0
 92
        0
 66
   257
 43
1.0
 76
     1
 77
     6
 78
     2
 67
     7
 79
     5
170
     0
171
     0
290
     0
174
     0
 93
       13
 44
0.0
173
     0
291
     1
 45
0.0
  0
VISUALSTYLE
  5
BDB
102
{ACAD_REACTORS
330
267
102
}
330
267
100
AcDbVisualStyle
  2
Hidden
 70
     6
 71
     1
 72
     2
 73
     2
 90
        0
 40
0.6
 41
30.0
 62
     5
 63
     7
421
 16777215
 74
     2
 91
        2
 64
     7
 65
   257
 75
     2
175
     1
 42
40.0
 92
        0
 66
   257
 43
1.0
 76
     1
 77
     6
 78
     2
 67
     7
 79
     3
170
     0
171
     0
290
     0
174
     0
 93
        1
 44
0.0
173
     0
291
     0
 45
0.0
  0
VISUALSTYLE
  5
BDC
102
{ACAD_REACTORS
330
267
102
}
330
267
100
AcDbVisualStyle
  2
JitterOff
 70
    20
 71
     2
 72
     2
 73
     0
 90
        0
 40
0.6
 41
30.0
 62
     5
 63
     7
421
 16777215
 74
     1
 91
        4
 64
     7
 65
   257
 75
     1
175
     1
 42
1.0
 92
       10
 66
     7
 43
1.0
 76
     1
 77
     6
 78
     2
 67
     7
 79
     5
170
     0
171
     0
290
     0
174
     0
 93
        1
 44
0.0
173
     0
291
     1
 45
0.0
  0
VISUALSTYLE
  5
275
102
{ACAD_REACTORS
330
267
102
}
330
267
100
AcDbVisualStyle
  2
Linepattern
 70
    14
 71
     2
 72
     2
 73
     0
 90
        0
 40
-0.6
 41
-30.0
 62
     5
 63
     7
421
 16777215
 74
     1
 91
        4
 64
     7
 65
   257
 75
     7
175
     7
 42
1.0
 92
        8
 66
     7
 43
1.0
 76
     1
 77
     6
 78
     2
 67
     7
 79
     5
170
     0
171
     0
290
     0
174
     0
 93
        1
 44
0.0
173
     0
291
     1
 45
0.0
  0
VISUALSTYLE
  5
BDD
102
{ACAD_REACTORS
330
267
102
}
330
267
100
AcDbVisualStyle
  2
OverhangOff
 70
    21
 71
     2
 72
     2
 73
     0
 90
        0
 40
0.6
 41
30.0
 62
     5
 63
     7
421
 16777215
 74
     1
 91
        4
 64
     7
 65
   257
 75
     1
175
     1
 42
1.0
 92
        9
 66
     7
 43
1.0
 76
     1
 77
     6
 78
     2
 67
     7
 79
     5
170
     0
171
     0
290
     0
174
     0
 93
        1
 44
0.0
173
     0
291
     1
 45
0.0
  0
VISUALSTYLE
  5
270
102
{ACAD_REACTORS
330
267
102
}
330
267
100
AcDbVisualStyle
  2
Realistic
 70
     8
 71
     2
 72
     2
 73
     0
 90
        0
 40
-0.6
 41
-30.0
 62
     5
 63
     7
421
 16777215
 74
     1
 91
        0
 64
     7
 65
   257
 75
     1
175
     1
 42
1.0
 92
        8
 66
     8
424
  7895160
 43
1.0
 76
     1
 77
     6
 78
     2
 67
     7
 79
     5
170
     0
171
     0
290
     0
174
     0
 93
       13
 44
0.0
173
     0
291
     0
 45
0.0
  0
VISUALSTYLE
  5
BE3
102
{ACAD_REACTORS
330
267
102
}
330
267
100
AcDbVisualStyle
  2
Shaded
 70
    27
 71
     2
 72
     2
 73
     1
 90
        2
 40
0.6
 41
30.0
 62
     5
 63
     7
421
 16777215
 74
     0
 91
        4
 64
     7
 65
   257
 75
     1
175
     1
 42
1.0
 92
        8
 66
   257
 43
1.0
 76
     1
 77
     6
 78
     2
 67
     8
425
  7895160
 79
     3
170
     0
171
     0
290
     0
174
     0
 93
        5
 44
0.0
173
     0
291
     0
 45
0.0
  0
VISUALSTYLE
  5
BE2
102
{ACAD_REACTORS
330
267
102
}
330
267
100
AcDbVisualStyle
  2
Shaded with edges
 70
    26
 71
     2
 72
     2
 73
     1
 90
        2
 40
0.6
 41
30.0
 62
     5
 63
     7
421
 16777215
 74
     1
 91
       10
 64
     7
 65
   257
 75
     2
175
     1
 42
1.0
 92
        8
 66
   257
 43
1.0
 76
     1
 77
     6
 78
     2
 67
     7
 79
     3
170
     0
171
     0
290
     0
174
     0
 93
        5
 44
0.0
173
     0
291
     0
 45
0.0
  0
VISUALSTYLE
  5
BDF
102
{ACAD_REACTORS
330
267
102
}
330
267
100
AcDbVisualStyle
  2
Shades of Gray
 70
    23
 71
     2
 72
     2
 73
     3
 90
        0
 40
0.6
 41
30.0
 62
     5
 63
     7
421
 16777215
 74
     2
 91
        2
 64
     7
 65
     7
 75
     1
175
     1
 42
40.0
 92
        8
 66
     7
 43
1.0
 76
     1
 77
     6
 78
     2
 67
     7
 79
     3
170
     0
171
     0
290
     0
174
     0
 93
        1
 44
0.0
173
     0
291
     0
 45
0.0
  0
VISUALSTYLE
  5
BE0
102
{ACAD_REACTORS
330
267
102
}
330
267
100
AcDbVisualStyle
  2
Sketchy
 70
    24
 71
     1
 72
     2
 73
     2
 90
        0
 40
0.6
 41
30.0
 62
     5
 63
     7
421
 16777215
 74
     2
 91
        2
 64
     7
 65
     7
 75
     1
175
     1
 42
40.0
 92
       11
 66
     7
 43
1.0
 76
     1
 77
     6
 78
     2
 67
     7
 79
     6
170
     0
171
     0
290
     0
174
     0
 93
        1
 44
0.0
173
     0
291
     0
 45
0.0
  0
VISUALSTYLE
  5
274
102
{ACAD_REACTORS
330
267
102
}
330
267
100
AcDbVisualStyle
  2
Thicken
 70
    13
 71
     2
 72
     2
 73
     0
 90
        0
 40
-0.6
 41
-30.0
 62
     5
 63
     7
421
 16777215
 74
     1
 91
        4
 64
     7
 65
   257
 75
     1
175
     1
 42
1.0
 92
       12
 66
     7
 43
1.0
 76
     1
 77
     6
 78
     2
 67
     7
 79
     5
170
     0
171
     0
290
     0
174
     0
 93
        1
 44
0.0
173
     0
291
     1
 45
0.0
  0
VISUALSTYLE
  5
BDA
102
{ACAD_REACTORS
330
267
102
}
330
267
100
AcDbVisualStyle
  2
Wireframe
 70
     5
 71
     0
 72
     2
 73
     0
 90
        0
 40
0.6
 41
30.0
 62
     5
 63
     7
421
 16777215
 74
     1
 91
        4
 64
     7
 65
   257
 75
     1
175
     1
 42
1.0
 92
        0
 66
   257
 43
1.0
 76
     1
 77
     6
 78
     2
 67
     7
 79
     3
170
     0
171
     0
290
     0
174
     0
 93
        1
 44
0.0
173
     0
291
     0
 45
0.0
  0
VISUALSTYLE
  5
BE1
102
{ACAD_REACTORS
330
267
102
}
330
267
100
AcDbVisualStyle
  2
X-Ray
 70
    25
 71
     2
 72
     2
 73
     1
 90
        1
 40
0.5
 41
30.0
 62
     5
 63
     7
421
 16777215
 74
     1
 91
        0
 64
     7
 65
   257
 75
     1
175
     1
 42
1.0
 92
        8
 66
     7
 43
1.0
 76
     1
 77
     6
 78
     2
 67
     7
 79
     3
170
     0
171
     0
290
     0
174
     0
 93
       13
 44
0.0
173
     0
291
     0
 45
0.0
  0
DICTIONARYVAR
  5
331
102
{ACAD_REACTORS
330
330
102
}
330
330
100
DictionaryVariables
280
     0
  1
1:1
  0
DICTIONARYVAR
  5
2114
102
{ACAD_REACTORS
330
330
102
}
330
330
100
DictionaryVariables
280
     0
  1
Standard
  0
DICTIONARYVAR
  5
335
102
{ACAD_REACTORS
330
330
102
}
330
330
100
DictionaryVariables
280
     0
  1
Standard
  0
DICTIONARYVAR
  5
C00
102
{ACAD_REACTORS
330
330
102
}
330
330
100
DictionaryVariables
280
     0
  1
ByLayer
  0
DICTIONARYVAR
  5
64A
102
{ACAD_REACTORS
330
330
102
}
330
330
100
DictionaryVariables
280
     0
  1
0
  0
XRECORD
  5
C3A
102
{ACAD_REACTORS
330
2E2
102
}
330
2E2
100
AcDbXrecord
280
     1
 91
     1023
301

290
     0
302
DIM
330
14
 90
        8
 62
     7
370
    -3
331
13
  1
Color_7
330
4A
 90
        0
 62
     7
370
     9
331
13
  1
Color_7
330
4B
 90
        8
 62
     7
370
    -3
331
13
  1
Color_7
330
4D
 90
        8
 62
     7
370
    -3
331
13
  1
Color_7
330
382
 90
        8
 62
     7
370
    -3
331
13
  1
Color_7
330
0
 90
        8
 62
     7
370
     9
331
45
  1
Color_7
330
B7A
 90
        8
 62
     7
370
     9
331
13
  1
Color_7
  0
FIELD
  5
2116
102
{ACAD_REACTORS
330
211B
102
}
330
211B
100
AcDbField
  1
_text
  2
{%<\_FldIdx 0>%N}
 90
        1
360
211A
 97
        0
 91
       63
 92
        0
 94
        8
 95
        2
 96
        0
300

 93
        1
  6
ACFD_FIELDTEXT_CHECKSUM
 93
        2
 90
        2
140
4476.0
 94
        0
300

302

304
ACVALUE_END
  7
ACFD_FIELD_VALUE
 93
        6
 90
        4
  1
{20170510N}
 94
        0
300

302

304
ACVALUE_END
301
{20170510N}
 98
       11
  0
DICTIONARY
  5
2136
330
279
100
AcDbDictionary
280
     1
281
     1
  3
ACAD_ROUNDTRIP_2008_TABLESTYLE_CELLSTYLEMAP
360
2137
  0
FIELD
  5
211A
330
2116
100
AcDbField
  1
AcVar
  2
\AcVar Date \f "yyyyMMdd"
 90
        0
 97
        0
 91
       63
 92
        0
 94
        8
 95
        2
 96
        0
300

 93
        1
  6
Variable
 93
        2
 90
        4
  1
Date
 94
        0
300

302

304
ACVALUE_END
  7
ACFD_FIELD_VALUE
 93
        6
 90
        8
 92
       16
310
E107050000000A000200100037000000
 94
        0
300
yyyyMMdd
302

304
ACVALUE_END
301
20170510
 98
        8
  0
CELLSTYLEMAP
  5
2137
102
{ACAD_REACTORS
330
2136
102
}
330
2136
100
AcDbCellStyleMap
 90
        3
300
CELLSTYLE
  1
TABLEFORMAT_BEGIN
 90
        5
170
     1
 91
        0
 92
    32768
 62
   257
 93
        1
300
CONTENTFORMAT
  1
CONTENTFORMAT_BEGIN
 90
        0
 91
        0
 92
        4
 93
        0
300

 40
0.0
140
1.0
 94
        5
 62
     0
340
17
144
6.0
309
CONTENTFORMAT_END
171
     1
301
MARGIN
  1
CELLMARGIN_BEGIN
 40
0.06
 40
0.06
 40
0.06
 40
0.06
 40
0.18
 40
0.18
309
CELLMARGIN_END
 94
        6
 95
        1
302
GRIDFORMAT
  1
GRIDFORMAT_BEGIN
 90
        0
 91
        1
 62
     0
 92
       -2
340
0
 93
        0
 40
0.045
309
GRIDFORMAT_END
 95
        2
302
GRIDFORMAT
  1
GRIDFORMAT_BEGIN
 90
        0
 91
        1
 62
     0
 92
       -2
340
0
 93
        0
 40
0.045
309
GRIDFORMAT_END
 95
        4
302
GRIDFORMAT
  1
GRIDFORMAT_BEGIN
 90
        0
 91
        1
 62
     0
 92
       -2
340
0
 93
        0
 40
0.045
309
GRIDFORMAT_END
 95
        8
302
GRIDFORMAT
  1
GRIDFORMAT_BEGIN
 90
        0
 91
        1
 62
     0
 92
       -2
340
0
 93
        0
 40
0.045
309
GRIDFORMAT_END
 95
       16
302
GRIDFORMAT
  1
GRIDFORMAT_BEGIN
 90
        0
 91
        1
 62
     0
 92
       -2
340
0
 93
        0
 40
0.045
309
GRIDFORMAT_END
 95
       32
302
GRIDFORMAT
  1
GRIDFORMAT_BEGIN
 90
        0
 91
        1
 62
     0
 92
       -2
340
0
 93
        0
 40
0.045
309
GRIDFORMAT_END
309
TABLEFORMAT_END
  1
CELLSTYLE_BEGIN
 90
        1
 91
        1
300
_TITLE
309
CELLSTYLE_END
300
CELLSTYLE
  1
TABLEFORMAT_BEGIN
 90
        5
170
     1
 91
        0
 92
        0
 62
   257
 93
        1
300
CONTENTFORMAT
  1
CONTENTFORMAT_BEGIN
 90
        0
 91
        0
 92
        4
 93
        0
300

 40
0.0
140
1.0
 94
        5
 62
     0
340
17
144
4.5
309
CONTENTFORMAT_END
171
     1
301
MARGIN
  1
CELLMARGIN_BEGIN
 40
0.06
 40
0.06
 40
0.06
 40
0.06
 40
0.18
 40
0.18
309
CELLMARGIN_END
 94
        6
 95
        1
302
GRIDFORMAT
  1
GRIDFORMAT_BEGIN
 90
        0
 91
        1
 62
     0
 92
       -2
340
0
 93
        0
 40
0.045
309
GRIDFORMAT_END
 95
        2
302
GRIDFORMAT
  1
GRIDFORMAT_BEGIN
 90
        0
 91
        1
 62
     0
 92
       -2
340
0
 93
        0
 40
0.045
309
GRIDFORMAT_END
 95
        4
302
GRIDFORMAT
  1
GRIDFORMAT_BEGIN
 90
        0
 91
        1
 62
     0
 92
       -2
340
0
 93
        0
 40
0.045
309
GRIDFORMAT_END
 95
        8
302
GRIDFORMAT
  1
GRIDFORMAT_BEGIN
 90
        0
 91
        1
 62
     0
 92
       -2
340
0
 93
        0
 40
0.045
309
GRIDFORMAT_END
 95
       16
302
GRIDFORMAT
  1
GRIDFORMAT_BEGIN
 90
        0
 91
        1
 62
     0
 92
       -2
340
0
 93
        0
 40
0.045
309
GRIDFORMAT_END
 95
       32
302
GRIDFORMAT
  1
GRIDFORMAT_BEGIN
 90
        0
 91
        1
 62
     0
 92
       -2
340
0
 93
        0
 40
0.045
309
GRIDFORMAT_END
309
TABLEFORMAT_END
  1
CELLSTYLE_BEGIN
 90
        2
 91
        1
300
_HEADER
309
CELLSTYLE_END
300
CELLSTYLE
  1
TABLEFORMAT_BEGIN
 90
        5
170
     1
 91
        0
 92
        0
 62
   257
 93
        1
300
CONTENTFORMAT
  1
CONTENTFORMAT_BEGIN
 90
        0
 91
        0
 92
        4
 93
        0
300

 40
0.0
140
1.0
 94
        2
 62
     0
340
17
144
4.5
309
CONTENTFORMAT_END
171
     1
301
MARGIN
  1
CELLMARGIN_BEGIN
 40
0.06
 40
0.06
 40
0.06
 40
0.06
 40
0.18
 40
0.18
309
CELLMARGIN_END
 94
        6
 95
        1
302
GRIDFORMAT
  1
GRIDFORMAT_BEGIN
 90
        0
 91
        1
 62
     0
 92
       -2
340
0
 93
        0
 40
0.045
309
GRIDFORMAT_END
 95
        2
302
GRIDFORMAT
  1
GRIDFORMAT_BEGIN
 90
        0
 91
        1
 62
     0
 92
       -2
340
0
 93
        0
 40
0.045
309
GRIDFORMAT_END
 95
        4
302
GRIDFORMAT
  1
GRIDFORMAT_BEGIN
 90
        0
 91
        1
 62
     0
 92
       -2
340
0
 93
        0
 40
0.045
309
GRIDFORMAT_END
 95
        8
302
GRIDFORMAT
  1
GRIDFORMAT_BEGIN
 90
        0
 91
        1
 62
     0
 92
       -2
340
0
 93
        0
 40
0.045
309
GRIDFORMAT_END
 95
       16
302
GRIDFORMAT
  1
GRIDFORMAT_BEGIN
 90
        0
 91
        1
 62
     0
 92
       -2
340
0
 93
        0
 40
0.045
309
GRIDFORMAT_END
 95
       32
302
GRIDFORMAT
  1
GRIDFORMAT_BEGIN
 90
        0
 91
        1
 62
     0
 92
       -2
340
0
 93
        0
 40
0.045
309
GRIDFORMAT_END
309
TABLEFORMAT_END
  1
CELLSTYLE_BEGIN
 90
        3
 91
        2
300
_DATA
309
CELLSTYLE_END
  0
ENDSEC
  0
EOF
