  0
SECTION
  2
HEADER
  9
$ACADVER
  1
AC1021
  9
$ACADMAINTVER
 70
    25
  9
$DWGCODEPAGE
  3
ANSI_932
  9
$LASTSAVEDBY
  1
Shimosaki
  9
$INSBASE
 10
0.0
 20
0.0
 30
0.0
  9
$EXTMIN
 10
144.5094110644077
 20
137.690537338739
 30
-0.0000000000002274
  9
$EXTMAX
 10
4044.509411065372
 20
5804.399587702454
 30
0.0000000000001137
  9
$LIMMIN
 10
0.0
 20
0.0
  9
$LIMMAX
 10
4200.000000000001
 20
5940.000000000001
  9
$ORTHOMODE
 70
     0
  9
$REGENMODE
 70
     1
  9
$FILLMODE
 70
     1
  9
$QTEXTMODE
 70
     0
  9
$MIRRTEXT
 70
     1
  9
$LTSCALE
 40
50.8
  9
$ATTMODE
 70
     1
  9
$TEXTSIZE
 40
533.0403732820173
  9
$TRACEWID
 40
1.0
  9
$TEXTSTYLE
  7
Standard
  9
$CLAYER
  8
DIM
  9
$CELTYPE
  6
Continuous
  9
$CECOLOR
 62
   256
  9
$CELTSCALE
 40
1.0
  9
$DISPSILH
 70
     0
  9
$DIMSCALE
 40
1.0
  9
$DIMASZ
 40
18.0
  9
$DIMEXO
 40
25.0
  9
$DIMDLI
 40
25.0
  9
$DIMRND
 40
0.0
  9
$DIMDLE
 40
0.0
  9
$DIMEXE
 40
0.0
  9
$DIMTP
 40
0.0
  9
$DIMTM
 40
0.0
  9
$DIMTXT
 40
48.0
  9
$DIMCEN
 40
0.0
  9
$DIMTSZ
 40
0.0
  9
$DIMTOL
 70
     0
  9
$DIMLIM
 70
     0
  9
$DIMTIH
 70
     0
  9
$DIMTOH
 70
     0
  9
$DIMSE1
 70
     0
  9
$DIMSE2
 70
     0
  9
$DIMTAD
 70
     1
  9
$DIMZIN
 70
    11
  9
$DIMBLK
  1
DOT
  9
$DIMASO
 70
     1
  9
$DIMSHO
 70
     1
  9
$DIMPOST
  1
<>
  9
$DIMAPOST
  1
[]
  9
$DIMALT
 70
     0
  9
$DIMALTD
 70
     1
  9
$DIMALTF
 40
1.0
  9
$DIMLFAC
 40
1.0
  9
$DIMTOFL
 70
     0
  9
$DIMTVP
 40
0.0
  9
$DIMTIX
 70
     1
  9
$DIMSOXD
 70
     0
  9
$DIMSAH
 70
     0
  9
$DIMBLK1
  1

  9
$DIMBLK2
  1

  9
$DIMSTYLE
  2
JIS
  9
$DIMCLRD
 70
     0
  9
$DIMCLRE
 70
     0
  9
$DIMCLRT
 70
     0
  9
$DIMTFAC
 40
1.0
  9
$DIMGAP
 40
30.0
  9
$DIMJUST
 70
     0
  9
$DIMSD1
 70
     0
  9
$DIMSD2
 70
     0
  9
$DIMTOLJ
 70
     1
  9
$DIMTZIN
 70
    11
  9
$DIMALTZ
 70
    11
  9
$DIMALTTZ
 70
    11
  9
$DIMUPT
 70
     0
  9
$DIMDEC
 70
     0
  9
$DIMTDEC
 70
     1
  9
$DIMALTU
 70
     2
  9
$DIMALTTD
 70
     2
  9
$DIMTXSTY
  7
ＭＳ ゴシック
  9
$DIMAUNIT
 70
     0
  9
$DIMADEC
 70
     0
  9
$DIMALTRND
 40
0.0
  9
$DIMAZIN
 70
     0
  9
$DIMDSEP
 70
    46
  9
$DIMATFIT
 70
     0
  9
$DIMFRAC
 70
     2
  9
$DIMLDRBLK
  1
DOT
  9
$DIMLUNIT
 70
     2
  9
$DIMLWD
 70
    -2
  9
$DIMLWE
 70
    -2
  9
$DIMTMOVE
 70
     0
  9
$DIMFXL
 40
1.0
  9
$DIMFXLON
 70
     0
  9
$DIMJOGANG
 40
0.7853981633974483
  9
$DIMTFILL
 70
     0
  9
$DIMTFILLCLR
 70
     0
  9
$DIMARCSYM
 70
     0
  9
$DIMLTYPE
  6

  9
$DIMLTEX1
  6

  9
$DIMLTEX2
  6

  9
$LUNITS
 70
     2
  9
$LUPREC
 70
     0
  9
$SKETCHINC
 40
0.1
  9
$FILLETRAD
 40
0.0
  9
$AUNITS
 70
     0
  9
$AUPREC
 70
     0
  9
$MENU
  1
acad
  9
$ELEVATION
 40
0.0
  9
$PELEVATION
 40
0.0
  9
$THICKNESS
 40
0.0
  9
$LIMCHECK
 70
     0
  9
$CHAMFERA
 40
0.0
  9
$CHAMFERB
 40
0.0
  9
$CHAMFERC
 40
0.0
  9
$CHAMFERD
 40
0.0
  9
$SKPOLY
 70
     0
  9
$TDCREATE
 40
2447893.375
  9
$TDUCREATE
 40
0.0
  9
$TDUPDATE
 40
2457884.497903125
  9
$TDUUPDATE
 40
2457884.122903125
  9
$TDINDWG
 40
0.2254981597
  9
$TDUSRTIMER
 40
2457884.121988576
  9
$USRTIMER
 70
     1
  9
$ANGBASE
 50
0.0
  9
$ANGDIR
 70
     0
  9
$PDMODE
 70
     1
  9
$PDSIZE
 40
-2.0
  9
$PLINEWID
 40
0.0
  9
$SPLFRAME
 70
     0
  9
$SPLINETYPE
 70
     6
  9
$SPLINESEGS
 70
     8
  9
$HANDSEED
  5
3550
  9
$SURFTAB1
 70
     6
  9
$SURFTAB2
 70
     6
  9
$SURFTYPE
 70
     6
  9
$SURFU
 70
     6
  9
$SURFV
 70
     6
  9
$UCSBASE
  2

  9
$UCSNAME
  2

  9
$UCSORG
 10
0.0
 20
0.0
 30
0.0
  9
$UCSXDIR
 10
1.0
 20
0.0
 30
0.0
  9
$UCSYDIR
 10
0.0
 20
1.0
 30
0.0
  9
$UCSORTHOREF
  2

  9
$UCSORTHOVIEW
 70
     0
  9
$UCSORGTOP
 10
0.0
 20
0.0
 30
0.0
  9
$UCSORGBOTTOM
 10
0.0
 20
0.0
 30
0.0
  9
$UCSORGLEFT
 10
0.0
 20
0.0
 30
0.0
  9
$UCSORGRIGHT
 10
0.0
 20
0.0
 30
0.0
  9
$UCSORGFRONT
 10
0.0
 20
0.0
 30
0.0
  9
$UCSORGBACK
 10
0.0
 20
0.0
 30
0.0
  9
$PUCSBASE
  2

  9
$PUCSNAME
  2

  9
$PUCSORG
 10
0.0
 20
0.0
 30
0.0
  9
$PUCSXDIR
 10
1.0
 20
0.0
 30
0.0
  9
$PUCSYDIR
 10
0.0
 20
1.0
 30
0.0
  9
$PUCSORTHOREF
  2

  9
$PUCSORTHOVIEW
 70
     0
  9
$PUCSORGTOP
 10
0.0
 20
0.0
 30
0.0
  9
$PUCSORGBOTTOM
 10
0.0
 20
0.0
 30
0.0
  9
$PUCSORGLEFT
 10
0.0
 20
0.0
 30
0.0
  9
$PUCSORGRIGHT
 10
0.0
 20
0.0
 30
0.0
  9
$PUCSORGFRONT
 10
0.0
 20
0.0
 30
0.0
  9
$PUCSORGBACK
 10
0.0
 20
0.0
 30
0.0
  9
$USERI1
 70
     0
  9
$USERI2
 70
     0
  9
$USERI3
 70
     0
  9
$USERI4
 70
     0
  9
$USERI5
 70
     0
  9
$USERR1
 40
0.0
  9
$USERR2
 40
0.0
  9
$USERR3
 40
0.0
  9
$USERR4
 40
0.0
  9
$USERR5
 40
0.0
  9
$WORLDVIEW
 70
     1
  9
$SHADEDGE
 70
     3
  9
$SHADEDIF
 70
    70
  9
$TILEMODE
 70
     1
  9
$MAXACTVP
 70
    64
  9
$PINSBASE
 10
0.0
 20
0.0
 30
0.0
  9
$PLIMCHECK
 70
     0
  9
$PEXTMIN
 10
0.0
 20
0.0
 30
0.0
  9
$PEXTMAX
 10
0.0
 20
0.0
 30
0.0
  9
$PLIMMIN
 10
-7.5
 20
-20.0
  9
$PLIMMAX
 10
412.5
 20
277.0
  9
$UNITMODE
 70
     0
  9
$VISRETAIN
 70
     0
  9
$PLINEGEN
 70
     1
  9
$PSLTSCALE
 70
     0
  9
$TREEDEPTH
 70
  3020
  9
$CMLSTYLE
  2
Standard
  9
$CMLJUST
 70
     0
  9
$CMLSCALE
 40
1.0
  9
$PROXYGRAPHICS
 70
     0
  9
$MEASUREMENT
 70
     1
  9
$CELWEIGHT
370
    -1
  9
$ENDCAPS
280
     0
  9
$JOINSTYLE
280
     0
  9
$LWDISPLAY
290
     1
  9
$INSUNITS
 70
     4
  9
$HYPERLINKBASE
  1

  9
$STYLESHEET
  1

  9
$XEDIT
290
     1
  9
$CEPSNTYPE
380
     0
  9
$PSTYLEMODE
290
     1
  9
$FINGERPRINTGUID
  2

  9
$VERSIONGUID
  2

  9
$EXTNAMES
290
     1
  9
$PSVPSCALE
 40
0.0
  9
$OLESTARTUP
290
     0
  9
$SORTENTS
280
   127
  9
$INDEXCTL
280
     0
  9
$HIDETEXT
280
     1
  9
$XCLIPFRAME
290
     0
  9
$HALOGAP
280
     0
  9
$OBSCOLOR
 70
   257
  9
$OBSLTYPE
280
     0
  9
$INTERSECTIONDISPLAY
280
     0
  9
$INTERSECTIONCOLOR
 70
   257
  9
$DIMASSOC
280
     2
  9
$PROJECTNAME
  1

  9
$CAMERADISPLAY
290
     0
  9
$LENSLENGTH
 40
50.0
  9
$CAMERAHEIGHT
 40
0.0
  9
$STEPSPERSEC
 40
2.0
  9
$STEPSIZE
 40
6.0
  9
$3DDWFPREC
 40
2.0
  9
$PSOLWIDTH
 40
0.25
  9
$PSOLHEIGHT
 40
4.0
  9
$LOFTANG1
 40
1.570796326794897
  9
$LOFTANG2
 40
1.570796326794897
  9
$LOFTMAG1
 40
0.0
  9
$LOFTMAG2
 40
0.0
  9
$LOFTPARAM
 70
     7
  9
$LOFTNORMALS
280
     1
  9
$LATITUDE
 40
37.795
  9
$LONGITUDE
 40
-122.394
  9
$NORTHDIRECTION
 40
0.0
  9
$TIMEZONE
 70
 -8000
  9
$LIGHTGLYPHDISPLAY
280
     1
  9
$TILEMODELIGHTSYNCH
280
     1
  9
$SOLIDHIST
280
     1
  9
$SHOWHIST
280
     1
  9
$DWFFRAME
280
     2
  9
$DGNFRAME
280
     2
  9
$REALWORLDSCALE
290
     1
  9
$INTERFERECOLOR
 62
   256
  9
$CSHADOW
280
     0
  9
$SHADOWPLANELOCATION
 40
0.0
  0
ENDSEC
  0
SECTION
  2
CLASSES
  0
CLASS
  1
LWPOLYLINE
  2
AcDbPolyline
  3
ObjectDBX Classes
 90
        0
 91
        1
280
     0
281
     1
  0
CLASS
  1
IMAGE
  2
AcDbRasterImage
  3
ISM
 90
      127
 91
        5
280
     0
281
     1
  0
CLASS
  1
OLE2FRAME
  2
AcDbOle2Frame
  3
ObjectDBX Classes
 90
        0
 91
        1
280
     0
281
     1
  0
CLASS
  1
HATCH
  2
AcDbHatch
  3
ObjectDBX Classes
 90
        0
 91
        1
280
     0
281
     1
  0
CLASS
  1
DICTIONARYVAR
  2
AcDbDictionaryVar
  3
ObjectDBX Classes
 90
        0
 91
        4
280
     0
281
     0
  0
CLASS
  1
RASTERVARIABLES
  2
AcDbRasterVariables
  3
ISM
 90
        0
 91
        4
280
     0
281
     0
  0
CLASS
  1
IMAGEDEF
  2
AcDbRasterImageDef
  3
ISM
 90
        0
 91
        4
280
     0
281
     0
  0
CLASS
  1
IMAGEDEF_REACTOR
  2
AcDbRasterImageDefReactor
  3
ISM
 90
        1
 91
        4
280
     0
281
     0
  0
CLASS
  1
IDBUFFER
  2
AcDbIdBuffer
  3
ObjectDBX Classes
 90
        0
 91
        4
280
     0
281
     0
  0
CLASS
  1
SPATIAL_FILTER
  2
AcDbSpatialFilter
  3
ObjectDBX Classes
 90
        0
 91
        4
280
     0
281
     0
  0
CLASS
  1
XRECORD
  2
AcDbXrecord
  3
ObjectDBX Classes
 90
        0
 91
        1
280
     0
281
     0
  0
CLASS
  1
SORTENTSTABLE
  2
AcDbSortentsTable
  3
ObjectDBX Classes
 90
        0
 91
        4
280
     0
281
     0
  0
CLASS
  1
LAYER_INDEX
  2
AcDbLayerIndex
  3
ObjectDBX Classes
 90
        0
 91
        4
280
     0
281
     0
  0
CLASS
  1
SPATIAL_INDEX
  2
AcDbSpatialIndex
  3
AutoCAD 2000
 90
        0
 91
        4
280
     0
281
     0
  0
CLASS
  1
OBJECT_PTR
  2
CAseDLPNTableRecord
  3
ASE-LPNTableRecord
 90
        1
 91
        4
280
     0
281
     0
  0
CLASS
  1
LAYOUT
  2
AcDbLayout
  3
ObjectDBX Classes
 90
        0
 91
        1
280
     0
281
     0
  0
CLASS
  1
PLOTSETTINGS
  2
AcDbPlotSettings
  3
ObjectDBX Classes
 90
        0
 91
        4
280
     0
281
     0
  0
CLASS
  1
ACDBDICTIONARYWDFLT
  2
AcDbDictionaryWithDefault
  3
ObjectDBX Classes
 90
        0
 91
        4
280
     0
281
     0
  0
CLASS
  1
ACDBPLACEHOLDER
  2
AcDbPlaceHolder
  3
ObjectDBX Classes
 90
        0
 91
        1
280
     0
281
     0
  0
CLASS
  1
SCALE
  2
AcDbScale
  3
ObjectDBX Classes
 90
     1153
 91
        4
280
     0
281
     0
  0
CLASS
  1
MATERIAL
  2
AcDbMaterial
  3
ObjectDBX Classes
 90
     1153
 91
        4
280
     0
281
     0
  0
CLASS
  1
VISUALSTYLE
  2
AcDbVisualStyle
  3
ObjectDBX Classes
 90
     4095
 91
        4
280
     0
281
     0
  0
CLASS
  1
TABLESTYLE
  2
AcDbTableStyle
  3
ObjectDBX Classes
 90
     4095
 91
        4
280
     0
281
     0
  0
CLASS
  1
DIMASSOC
  2
AcDbDimAssoc
  3
"AcDbDimAssoc|Product Desc:     AcDim ARX App For Dimension|Company:          Autodesk, Inc.|WEB Address:      www.autodesk.com"
 90
        0
 91
        4
280
     0
281
     0
  0
CLASS
  1
CELLSTYLEMAP
  2
AcDbCellStyleMap
  3
ObjectDBX Classes
 90
     1152
 91
        4
280
     0
281
     0
  0
CLASS
  1
SUN
  2
AcDbSun
  3
SCENEOE
 90
     1153
 91
        4
280
     0
281
     0
  0
CLASS
  1
MLEADERSTYLE
  2
AcDbMLeaderStyle
  3
ACDB_MLEADERSTYLE_CLASS
 90
     4095
 91
        4
280
     0
281
     0
  0
ENDSEC
  0
SECTION
  2
TABLES
  0
TABLE
  2
VPORT
  5
7
330
0
100
AcDbSymbolTable
 70
     1
  0
VPORT
  5
15
330
7
100
AcDbSymbolTableRecord
100
AcDbViewportTableRecord
  2
*ACTIVE
 70
     0
 10
0.0
 20
0.0
 11
1.0
 21
1.0
 12
1865.147240885807
 22
2868.141109193409
 13
0.0
 23
0.0
 14
1.0
 24
1.0
 15
0.0
 25
0.0
 16
0.0
 26
0.0
 36
1.0
 17
531.9535768260321
 27
-54.90875110267552
 37
-796.100446371116
 40
6371.144540173714
 41
0.9080882352941176
 42
50.0
 43
0.0
 44
0.0
 50
0.0
 51
0.0
 71
    16
 72
  2000
 73
     1
 74
     1
 75
     0
 76
     0
 77
     0
 78
     0
281
     0
 65
     1
110
0.0
120
0.0
130
0.0
111
1.0
121
0.0
131
0.0
112
0.0
122
1.0
132
0.0
 79
     0
146
0.0
348
26C
 60
     3
 61
     5
292
     1
282
     1
141
0.0
142
0.0
 63
   256
361
BE4
  0
ENDTAB
  0
TABLE
  2
LTYPE
  5
4
330
0
100
AcDbSymbolTable
 70
     3
  0
LTYPE
  5
11
330
4
100
AcDbSymbolTableRecord
100
AcDbLinetypeTableRecord
  2
ByBlock
 70
     0
  3

 72
    65
 73
     0
 40
0.0
  0
LTYPE
  5
12
330
4
100
AcDbSymbolTableRecord
100
AcDbLinetypeTableRecord
  2
ByLayer
 70
     0
  3

 72
    65
 73
     0
 40
0.0
  0
LTYPE
  5
13
330
4
100
AcDbSymbolTableRecord
100
AcDbLinetypeTableRecord
  2
Continuous
 70
     0
  3
Solid line
 72
    65
 73
     0
 40
0.0
  0
LTYPE
  5
30D8
330
4
100
AcDbSymbolTableRecord
100
AcDbLinetypeTableRecord
  2
AUSGEZOGEN
 70
     0
  3
________________________________
 72
    65
 73
     2
 40
16.0
 49
16.0
 74
     0
 49
0.0
 74
     0
  0
LTYPE
  5
3385
330
4
100
AcDbSymbolTableRecord
100
AcDbLinetypeTableRecord
  2
STYLE_12
 70
     0
  3

 72
    65
 73
     2
 40
0.3937007874015748
 49
0.1968503937007874
 74
     0
 49
-0.1968503937007874
 74
     0
  0
ENDTAB
  0
TABLE
  2
LAYER
  5
2
102
{ACAD_XDICTIONARY
360
2E1
102
}
330
0
100
AcDbSymbolTable
 70
    10
  0
LAYER
  5
14
330
2
100
AcDbSymbolTableRecord
100
AcDbLayerTableRecord
  2
0
 70
     0
 62
     7
  6
Continuous
370
    -3
390
1D
347
266
  0
LAYER
  5
4A
330
2
100
AcDbSymbolTableRecord
100
AcDbLayerTableRecord
  2
Defpoints
 70
     0
 62
     7
  6
Continuous
290
     0
370
     9
390
1D
347
266
  0
LAYER
  5
4B
330
2
100
AcDbSymbolTableRecord
100
AcDbLayerTableRecord
  2
TEMPLATE
 70
     0
 62
     7
  6
Continuous
370
    20
390
1D
347
266
  0
LAYER
  5
4D
330
2
100
AcDbSymbolTableRecord
100
AcDbLayerTableRecord
  2
MODEL
 70
     0
 62
     7
  6
Continuous
370
    20
390
1D
347
266
  0
LAYER
  5
382
330
2
100
AcDbSymbolTableRecord
100
AcDbLayerTableRecord
  2
LOGO
 70
     0
 62
     7
  6
Continuous
370
    -3
390
1D
347
266
  0
LAYER
  5
B7A
330
2
100
AcDbSymbolTableRecord
100
AcDbLayerTableRecord
  2
DIM
 70
     0
 62
     7
  6
Continuous
370
    13
390
1D
347
266
1001
AcAecLayerStandard
1000

1000

  0
LAYER
  5
30D6
330
2
100
AcDbSymbolTableRecord
100
AcDbLayerTableRecord
  2
SICHTBARE_KANTE
 70
     0
 62
     7
  6
AUSGEZOGEN
370
    -3
390
1D
347
266
  0
LAYER
  5
3480
330
2
100
AcDbSymbolTableRecord
100
AcDbLayerTableRecord
  2
notes
 70
     0
 62
     7
  6
Continuous
370
    -3
390
1D
347
266
  0
LAYER
  5
3482
330
2
100
AcDbSymbolTableRecord
100
AcDbLayerTableRecord
  2
FLN72-6311
 70
     0
 62
     7
  6
Continuous
370
    -3
390
1D
347
266
  0
LAYER
  5
3483
330
2
100
AcDbSymbolTableRecord
100
AcDbLayerTableRecord
  2
_____1
 70
     0
 62
     7
  6
Continuous
370
    -3
390
1D
347
266
  0
ENDTAB
  0
TABLE
  2
STYLE
  5
3
330
0
100
AcDbSymbolTable
 70
     2
  0
STYLE
  5
17
330
3
100
AcDbSymbolTableRecord
100
AcDbTextStyleTableRecord
  2
Standard
 70
     0
 40
0.0
 41
1.0
 50
0.0
 71
     0
 42
533.0403732820173
  3
txt
  4
BIGFONT.SHX
  0
STYLE
  5
39
330
3
100
AcDbSymbolTableRecord
100
AcDbTextStyleTableRecord
  2
ＭＳ ゴシック
 70
     0
 40
0.0
 41
1.0
 50
0.0
 71
     0
 42
533.0403732820173
  3
msgothic.ttc
  4
ＭＳ ゴシック
1001
ACAD
1000
ＭＳ ゴシック
1071
        0
  0
ENDTAB
  0
TABLE
  2
VIEW
  5
5
330
0
100
AcDbSymbolTable
 70
     0
  0
ENDTAB
  0
TABLE
  2
UCS
  5
6
330
0
100
AcDbSymbolTable
 70
     0
  0
ENDTAB
  0
TABLE
  2
APPID
  5
8
330
0
100
AcDbSymbolTable
 70
     6
  0
APPID
  5
16
330
8
100
AcDbSymbolTableRecord
100
AcDbRegAppTableRecord
  2
ACAD
 70
     0
  0
APPID
  5
5C5
330
8
100
AcDbSymbolTableRecord
100
AcDbRegAppTableRecord
  2
AcAecLayerStandard
 70
     0
  0
APPID
  5
694
330
8
100
AcDbSymbolTableRecord
100
AcDbRegAppTableRecord
  2
ACAD_DSTYLE_DIMJAG
 70
     0
  0
APPID
  5
695
330
8
100
AcDbSymbolTableRecord
100
AcDbRegAppTableRecord
  2
ACAD_DSTYLE_DIMTALN
 70
     0
  0
APPID
  5
69A
330
8
100
AcDbSymbolTableRecord
100
AcDbRegAppTableRecord
  2
ACAD_PSEXT
 70
     0
  0
APPID
  5
337B
330
8
100
AcDbSymbolTableRecord
100
AcDbRegAppTableRecord
  2
ACAD_MLEADERVER
 70
     0
  0
ENDTAB
  0
TABLE
  2
DIMSTYLE
  5
9
330
0
100
AcDbSymbolTable
 70
     4
100
AcDbDimStyleTable
  0
DIMSTYLE
105
18
330
9
100
AcDbSymbolTableRecord
100
AcDbDimStyleTableRecord
  2
Standard
 70
     0
178
     0
340
17
  0
DIMSTYLE
105
57
102
{ACAD_REACTORS
330
32FC
102
}
330
9
100
AcDbSymbolTableRecord
100
AcDbDimStyleTableRecord
  2
tfrom線あり
 70
     0
  3
<>
  4
[]
 41
9.999389648437498
 42
25.0
 43
0.9999999999999999
 44
0.0
 73
     0
 74
     0
 77
     1
 78
    11
140
24.4326171875
141
0.0
143
1.0
147
30.0
171
     1
174
     1
178
     0
179
     2
271
     1
272
     1
276
     2
284
    11
285
    11
286
    11
289
     0
340
39
341
4E
342
4E
  0
DIMSTYLE
105
5C
102
{ACAD_REACTORS
330
16F1
330
31EB
330
3269
330
3278
330
3285
330
3294
330
32A3
330
32A4
330
32BD
330
32CC
330
32DB
330
32F9
330
3349
330
334A
330
3365
102
}
330
9
100
AcDbSymbolTableRecord
100
AcDbDimStyleTableRecord
  2
JIS
 70
     0
  3
<>
  4
[]
 41
9.0
 42
0.0
 43
6.99999999999994
 44
19.9999999999962
 73
     0
 74
     0
 77
     1
 78
    11
140
24.4326171875
141
0.0
143
1.0
147
10.0
171
     1
174
     1
178
     0
179
     2
271
     1
272
     1
276
     2
284
    11
285
    11
286
    11
289
     0
340
39
341
4E
342
4E
  0
DIMSTYLE
105
3484
102
{ACAD_REACTORS
330
34F3
330
34F4
330
34F5
102
}
330
9
100
AcDbSymbolTableRecord
100
AcDbDimStyleTableRecord
  2
T-form線あり
 70
     0
  3
<>
  4
[]
 41
7.99951171875
 42
49.99999999999999
 43
0.9999999999999999
 44
0.0
 73
     0
 74
     0
 77
     1
 78
    11
140
48.86523437500001
141
0.0
143
0.0393700787401575
147
0.4999999999999999
171
     3
172
     1
174
     1
178
     0
179
     2
271
     1
272
     1
273
     4
276
     2
284
    11
285
    15
286
    15
289
     0
340
39
341
4E
342
4E
  0
ENDTAB
  0
TABLE
  2
BLOCK_RECORD
  5
1
330
0
100
AcDbSymbolTable
 70
    24
  0
BLOCK_RECORD
  5
A
330
1
100
AcDbSymbolTableRecord
100
AcDbBlockTableRecord
  2
*MODEL_SPACE
340
20
 70
     0
280
     1
281
     0
  0
BLOCK_RECORD
  5
B
330
1
100
AcDbSymbolTableRecord
100
AcDbBlockTableRecord
  2
*PAPER_SPACE
340
21
 70
     0
280
     1
281
     0
  0
BLOCK_RECORD
  5
4E
330
1
100
AcDbSymbolTableRecord
100
AcDbBlockTableRecord
  2
_DOT
340
0
102
{BLKREFS
331
31F2
331
31F3
331
3272
331
3273
331
327F
331
3280
331
328E
331
328F
331
329D
331
329E
331
32AB
331
32AC
331
32B7
331
32B8
331
32C6
331
32C7
331
32D5
331
32D6
331
32E4
331
32E5
331
3304
331
3305
331
3310
331
3311
331
3352
331
3353
331
335E
331
335F
331
336E
331
336F
331
3507
331
3508
331
3513
331
3514
331
351F
331
3520
102
}
 70
     0
280
     1
281
     0
  0
BLOCK_RECORD
  5
3A5
330
1
100
AcDbSymbolTableRecord
100
AcDbBlockTableRecord
  2
名称未設定-1
340
0
102
{BLKREFS
331
3D0
102
}
 70
     1
280
     1
281
     0
  0
BLOCK_RECORD
  5
3A8
330
1
100
AcDbSymbolTableRecord
100
AcDbBlockTableRecord
  2
block 2
340
0
102
{BLKREFS
331
3A7
102
}
 70
     0
280
     1
281
     0
  0
BLOCK_RECORD
  5
3AB
330
1
100
AcDbSymbolTableRecord
100
AcDbBlockTableRecord
  2
block 3
340
0
102
{BLKREFS
331
3AA
102
}
 70
     0
280
     1
281
     0
  0
BLOCK_RECORD
  5
3AE
330
1
100
AcDbSymbolTableRecord
100
AcDbBlockTableRecord
  2
block 4
340
0
102
{BLKREFS
331
3AD
102
}
 70
     0
280
     1
281
     0
  0
BLOCK_RECORD
  5
3BD
330
1
100
AcDbSymbolTableRecord
100
AcDbBlockTableRecord
  2
block 5
340
0
102
{BLKREFS
331
3BC
102
}
 70
     0
280
     1
281
     0
  0
BLOCK_RECORD
  5
31EC
330
1
100
AcDbSymbolTableRecord
100
AcDbBlockTableRecord
  2
*D6
340
0
 70
     0
280
     1
281
     0
  0
BLOCK_RECORD
  5
326C
330
1
100
AcDbSymbolTableRecord
100
AcDbBlockTableRecord
  2
*D7
340
0
 70
     0
280
     1
281
     0
  0
BLOCK_RECORD
  5
3279
330
1
100
AcDbSymbolTableRecord
100
AcDbBlockTableRecord
  2
*D8
340
0
 70
     0
280
     1
281
     0
  0
BLOCK_RECORD
  5
3288
330
1
100
AcDbSymbolTableRecord
100
AcDbBlockTableRecord
  2
*D9
340
0
 70
     0
280
     1
281
     0
  0
BLOCK_RECORD
  5
3297
330
1
100
AcDbSymbolTableRecord
100
AcDbBlockTableRecord
  2
*D10
340
0
 70
     0
280
     1
281
     0
  0
BLOCK_RECORD
  5
32A5
330
1
100
AcDbSymbolTableRecord
100
AcDbBlockTableRecord
  2
*D11
340
0
 70
     0
280
     1
281
     0
  0
BLOCK_RECORD
  5
32B1
330
1
100
AcDbSymbolTableRecord
100
AcDbBlockTableRecord
  2
*D12
340
0
 70
     0
280
     1
281
     0
  0
BLOCK_RECORD
  5
32C0
330
1
100
AcDbSymbolTableRecord
100
AcDbBlockTableRecord
  2
*D13
340
0
 70
     0
280
     1
281
     0
  0
BLOCK_RECORD
  5
32CF
330
1
100
AcDbSymbolTableRecord
100
AcDbBlockTableRecord
  2
*D14
340
0
 70
     0
280
     1
281
     0
  0
BLOCK_RECORD
  5
32DE
330
1
100
AcDbSymbolTableRecord
100
AcDbBlockTableRecord
  2
*D15
340
0
 70
     0
280
     1
281
     0
  0
BLOCK_RECORD
  5
32FE
330
1
100
AcDbSymbolTableRecord
100
AcDbBlockTableRecord
  2
*D16
340
0
 70
     0
280
     1
281
     0
  0
BLOCK_RECORD
  5
330A
330
1
100
AcDbSymbolTableRecord
100
AcDbBlockTableRecord
  2
*D17
340
0
 70
     0
280
     1
281
     0
  0
BLOCK_RECORD
  5
334B
330
1
100
AcDbSymbolTableRecord
100
AcDbBlockTableRecord
  2
*D18
340
0
 70
     0
280
     1
281
     0
  0
BLOCK_RECORD
  5
3358
330
1
100
AcDbSymbolTableRecord
100
AcDbBlockTableRecord
  2
*D19
340
0
 70
     0
280
     1
281
     0
  0
BLOCK_RECORD
  5
3368
330
1
100
AcDbSymbolTableRecord
100
AcDbBlockTableRecord
  2
*D20
340
0
 70
     0
280
     1
281
     0
  0
BLOCK_RECORD
  5
3501
330
1
100
AcDbSymbolTableRecord
100
AcDbBlockTableRecord
  2
*D21
340
0
 70
     0
280
     1
281
     0
  0
BLOCK_RECORD
  5
350D
330
1
100
AcDbSymbolTableRecord
100
AcDbBlockTableRecord
  2
*D22
340
0
 70
     0
280
     1
281
     0
  0
BLOCK_RECORD
  5
3519
330
1
100
AcDbSymbolTableRecord
100
AcDbBlockTableRecord
  2
*D23
340
0
 70
     0
280
     1
281
     0
  0
ENDTAB
  0
ENDSEC
  0
SECTION
  2
BLOCKS
  0
BLOCK
  5
D
330
A
100
AcDbEntity
  8
0
390
1D
100
AcDbBlockBegin
  2
*MODEL_SPACE
 70
     0
 10
0.0
 20
0.0
 30
0.0
  3
*MODEL_SPACE
  1
*MODEL_SPACE
  0
ENDBLK
  5
E
330
A
100
AcDbEntity
  8
0
390
1D
100
AcDbBlockEnd
  0
BLOCK
  5
F
330
B
100
AcDbEntity
 67
     1
  8
0
390
1D
100
AcDbBlockBegin
  2
*PAPER_SPACE
 70
     0
 10
0.0
 20
0.0
 30
0.0
  3
*PAPER_SPACE
  1
*PAPER_SPACE
  0
ENDBLK
  5
10
330
B
100
AcDbEntity
 67
     1
  8
0
390
1D
100
AcDbBlockEnd
  0
BLOCK
  5
E45
330
4E
100
AcDbEntity
  8
0
390
1D
100
AcDbBlockBegin
  2
_DOT
 70
     0
 10
0.0
 20
0.0
 30
0.0
  3
_DOT
  1
_DOT
  0
POLYLINE
  5
E47
330
4E
100
AcDbEntity
  8
0
  6
ByBlock
 62
     0
370
    -2
390
1D
100
AcDb2dPolyline
 66
     1
 10
0.0
 20
0.0
 30
0.0
 70
     1
 40
0.5
 41
0.5
  0
VERTEX
  5
E48
330
E47
100
AcDbEntity
  8
0
  6
ByBlock
 62
     0
370
    -2
390
1D
100
AcDbVertex
100
AcDb2dVertex
 10
-0.25
 20
0.0
 30
0.0
 42
1.0
  0
VERTEX
  5
E49
330
E47
100
AcDbEntity
  8
0
  6
ByBlock
 62
     0
370
    -2
390
1D
100
AcDbVertex
100
AcDb2dVertex
 10
0.25
 20
0.0
 30
0.0
 42
1.0
  0
SEQEND
  5
E4A
330
E47
100
AcDbEntity
  8
0
390
1D
  0
LINE
  5
E4B
330
4E
100
AcDbEntity
  8
0
  6
ByBlock
 62
     0
370
    -2
390
1D
100
AcDbLine
 10
-0.5
 20
0.0
 30
0.0
 11
-1.0
 21
0.0
 31
0.0
  0
ENDBLK
  5
E4C
330
4E
100
AcDbEntity
  8
0
390
1D
100
AcDbBlockEnd
  0
BLOCK
  5
3A6
330
3A5
100
AcDbEntity
  8
0
100
AcDbBlockBegin
  2
名称未設定-1
 70
     0
 10
0.0
 20
0.0
 30
0.0
  3
名称未設定-1
  1
名称未設定-1
  0
INSERT
  5
3A7
330
3A5
100
AcDbEntity
  8
LOGO
100
AcDbBlockReference
  2
block 2
 10
0.0
 20
0.0
 30
0.0
  0
ENDBLK
  5
3CC
330
3A5
100
AcDbEntity
  8
0
100
AcDbBlockEnd
  0
BLOCK
  5
3A9
330
3A8
100
AcDbEntity
  8
0
100
AcDbBlockBegin
  2
block 2
 70
     0
 10
0.0
 20
0.0
 30
0.0
  3
block 2
  1
block 2
  0
INSERT
  5
3AA
330
3A8
100
AcDbEntity
  8
LOGO
100
AcDbBlockReference
  2
block 3
 10
0.0
 20
0.0
 30
0.0
  0
ENDBLK
  5
3CB
330
3A8
100
AcDbEntity
  8
0
100
AcDbBlockEnd
  0
BLOCK
  5
3AC
330
3AB
100
AcDbEntity
  8
0
100
AcDbBlockBegin
  2
block 3
 70
     0
 10
0.0
 20
0.0
 30
0.0
  3
block 3
  1
block 3
  0
INSERT
  5
3AD
330
3AB
100
AcDbEntity
  8
LOGO
100
AcDbBlockReference
  2
block 4
 10
0.0
 20
0.0
 30
0.0
  0
ENDBLK
  5
3CA
330
3AB
100
AcDbEntity
  8
0
100
AcDbBlockEnd
  0
BLOCK
  5
3AF
330
3AE
100
AcDbEntity
  8
0
100
AcDbBlockBegin
  2
block 4
 70
     0
 10
0.0
 20
0.0
 30
0.0
  3
block 4
  1
block 4
  0
POLYLINE
  5
3B0
330
3AE
100
AcDbEntity
  8
LOGO
370
     0
100
AcDb2dPolyline
 66
     1
 10
0.0
 20
0.0
 30
0.0
  0
VERTEX
  5
3B1
330
3B0
100
AcDbEntity
  8
LOGO
370
     0
100
AcDbVertex
100
AcDb2dVertex
 10
83.79545727667795
 20
167.6444858234922
 30
0.0
  0
VERTEX
  5
3B2
330
3B0
100
AcDbEntity
  8
LOGO
370
     0
100
AcDbVertex
100
AcDb2dVertex
 10
83.79545727667795
 20
159.7968976406313
 30
0.0
  0
VERTEX
  5
3B3
330
3B0
100
AcDbEntity
  8
LOGO
370
     0
100
AcDbVertex
100
AcDb2dVertex
 10
71.3631329975216
 20
159.7968976406313
 30
0.0
  0
VERTEX
  5
3B4
330
3B0
100
AcDbEntity
  8
LOGO
370
     0
100
AcDbVertex
100
AcDb2dVertex
 10
71.3631329975216
 20
127.8027915271048
 30
0.0
  0
VERTEX
  5
3B5
330
3B0
100
AcDbEntity
  8
LOGO
370
     0
100
AcDbVertex
100
AcDb2dVertex
 10
60.43011526263018
 20
127.8027915271048
 30
0.0
  0
VERTEX
  5
3B6
330
3B0
100
AcDbEntity
  8
LOGO
370
     0
100
AcDbVertex
100
AcDb2dVertex
 10
60.43011526263018
 20
159.7968976406313
 30
0.0
  0
VERTEX
  5
3B7
330
3B0
100
AcDbEntity
  8
LOGO
370
     0
100
AcDbVertex
100
AcDb2dVertex
 10
48.21793273020759
 20
159.7968976406313
 30
0.0
  0
VERTEX
  5
3B8
330
3B0
100
AcDbEntity
  8
LOGO
370
     0
100
AcDbVertex
100
AcDb2dVertex
 10
48.21793273020759
 20
167.6444858234922
 30
0.0
  0
VERTEX
  5
3B9
330
3B0
100
AcDbEntity
  8
LOGO
370
     0
100
AcDbVertex
100
AcDb2dVertex
 10
83.79545727667795
 20
167.6444858234922
 30
0.0
  0
SEQEND
  5
3BA
330
3B0
100
AcDbEntity
  8
LOGO
370
     0
  0
HATCH
  5
3BB
330
3AE
100
AcDbEntity
  8
LOGO
 62
   250
420
  2234388
100
AcDbHatch
 10
0.0
 20
0.0
 30
0.0
210
0.0
220
0.0
230
1.0
  2
SOLID
 70
     1
 71
     0
 91
        1
 92
        1
 93
        8
 72
     1
 10
83.79545727667795
 20
167.6444858234922
 11
83.79545727667795
 21
159.7968976406313
 72
     1
 10
83.79545727667795
 20
159.7968976406313
 11
71.3631329975216
 21
159.7968976406313
 72
     1
 10
71.3631329975216
 20
159.7968976406313
 11
71.3631329975216
 21
127.8027915271048
 72
     1
 10
71.3631329975216
 20
127.8027915271048
 11
60.43011526263018
 21
127.8027915271048
 72
     1
 10
60.43011526263018
 20
127.8027915271048
 11
60.43011526263018
 21
159.7968976406313
 72
     1
 10
60.43011526263018
 20
159.7968976406313
 11
48.21793273020759
 21
159.7968976406313
 72
     1
 10
48.21793273020759
 20
159.7968976406313
 11
48.21793273020759
 21
167.6444858234922
 72
     1
 10
48.21793273020759
 20
167.6444858234922
 11
83.79545727667795
 21
167.6444858234922
 97
        0
 75
     2
 76
     1
 98
        0
  0
INSERT
  5
3BC
330
3AE
100
AcDbEntity
  8
LOGO
100
AcDbBlockReference
  2
block 5
 10
0.0
 20
0.0
 30
0.0
  0
ENDBLK
  5
3C9
330
3AE
100
AcDbEntity
  8
0
100
AcDbBlockEnd
  0
BLOCK
  5
3BE
330
3BD
100
AcDbEntity
  8
0
100
AcDbBlockBegin
  2
block 5
 70
     0
 10
0.0
 20
0.0
 30
0.0
  3
block 5
  1
block 5
  0
SPLINE
  5
3BF
330
3BD
100
AcDbEntity
  8
LOGO
370
     0
100
AcDbSpline
210
0.0
220
0.0
230
1.0
 70
    11
 71
     3
 72
    56
 73
    52
 74
     0
 42
0.000000001
 43
0.0000000001
 40
0.0
 40
0.0
 40
0.0
 40
0.0
 40
1.0
 40
1.0
 40
1.0
 40
2.0
 40
2.0
 40
2.0
 40
3.0
 40
3.0
 40
3.0
 40
4.0
 40
4.0
 40
4.0
 40
5.0
 40
5.0
 40
5.0
 40
6.0
 40
6.0
 40
6.0
 40
7.0
 40
7.0
 40
7.0
 40
8.0
 40
8.0
 40
8.0
 40
9.0
 40
9.0
 40
9.0
 40
10.0
 40
10.0
 40
10.0
 40
11.0
 40
11.0
 40
11.0
 40
12.0
 40
12.0
 40
12.0
 40
13.0
 40
13.0
 40
13.0
 40
14.0
 40
14.0
 40
14.0
 40
15.0
 40
15.0
 40
15.0
 40
16.0
 40
16.0
 40
16.0
 40
17.0
 40
17.0
 40
17.0
 40
17.0
 10
100.4504378777679
 20
166.69157178364
 30
0.0
 10
101.9848844191641
 20
167.1313385124438
 30
0.0
 10
103.9637485713373
 20
166.7649523658846
 30
0.0
 10
103.9637485713373
 20
166.7649523658846
 30
0.0
 10
103.9637485713373
 20
166.7649523658846
 30
0.0
 10
103.0132460999156
 20
163.911205638077
 30
0.0
 10
103.0132460999156
 20
163.911205638077
 30
0.0
 10
103.0132460999156
 20
163.911205638077
 30
0.0
 10
101.0674548862189
 20
164.3601018759394
 30
0.0
 10
99.57090442016032
 20
163.1805004036133
 30
0.0
 10
98.40508333886608
 20
162.258247733807
 30
0.0
 10
97.65301849830304
 20
159.804132345923
 30
0.0
 10
97.3598406791005
 20
158.8699940888517
 30
0.0
 10
97.3598406791005
 20
158.8699940888517
 30
0.0
 10
96.07137411762282
 20
154.9119212747295
 30
0.0
 10
96.07137411762282
 20
154.9119212747295
 30
0.0
 10
96.07137411762282
 20
154.9119212747295
 30
0.0
 10
100.3012651448482
 20
154.9119212747295
 30
0.0
 10
100.3012651448482
 20
154.9119212747295
 30
0.0
 10
100.3012651448482
 20
154.9119212747295
 30
0.0
 10
99.64152892419852
 20
152.4199098115079
 30
0.0
 10
99.64152892419852
 20
152.4199098115079
 30
0.0
 10
99.64152892419852
 20
152.4199098115079
 30
0.0
 10
95.38097652692731
 20
152.4199098115079
 30
0.0
 10
95.38097652692731
 20
152.4199098115079
 30
0.0
 10
95.38097652692731
 20
152.4199098115079
 30
0.0
 10
87.75353009080013
 20
127.8027915271048
 30
0.0
 10
87.75353009080013
 20
127.8027915271048
 30
0.0
 10
87.75353009080013
 20
127.8027915271048
 30
0.0
 10
85.36538832498108
 20
127.8027915271048
 30
0.0
 10
85.36538832498108
 20
127.8027915271048
 30
0.0
 10
85.36538832498108
 20
127.8027915271048
 30
0.0
 10
93.00006946639998
 20
152.4199098115079
 30
0.0
 10
93.00006946639998
 20
152.4199098115079
 30
0.0
 10
93.00006946639998
 20
152.4199098115079
 30
0.0
 10
89.85297266450198
 20
152.4199098115079
 30
0.0
 10
89.85297266450198
 20
152.4199098115079
 30
0.0
 10
89.85297266450198
 20
152.4199098115079
 30
0.0
 10
90.51270888515164
 20
154.9119212747295
 30
0.0
 10
90.51270888515164
 20
154.9119212747295
 30
0.0
 10
90.51270888515164
 20
154.9119212747295
 30
0.0
 10
93.6904670570955
 20
154.9119212747295
 30
0.0
 10
93.6904670570955
 20
154.9119212747295
 30
0.0
 10
93.6904670570955
 20
154.9119212747295
 30
0.0
 10
94.81598049462158
 20
158.3616699146644
 30
0.0
 10
94.81598049462158
 20
158.3616699146644
 30
0.0
 10
95.7237637538445
 20
161.2605474231013
 30
0.0
 10
96.4968436907311
 20
162.8139420021662
 30
0.0
 10
97.15657991138076
 20
163.9844139654337
 30
0.0
 10
97.81183750494507
 20
165.1523021053827
 30
0.0
 10
99.1047826935081
 20
166.3084769129547
 30
0.0
 10
100.4504378777679
 20
166.69157178364
 30
0.0
  0
HATCH
  5
3C0
330
3BD
100
AcDbEntity
  8
LOGO
 62
   250
420
  2234388
100
AcDbHatch
 10
0.0
 20
0.0
 30
0.0
210
0.0
220
0.0
230
1.0
  2
SOLID
 70
     1
 71
     0
 91
        1
 92
        1
 93
        1
 72
     4
 94
        3
 73
     0
 74
     1
 95
       56
 96
       52
 40
0.0
 40
0.0
 40
0.0
 40
0.0
 40
1.0
 40
1.0
 40
1.0
 40
2.0
 40
2.0
 40
2.0
 40
3.0
 40
3.0
 40
3.0
 40
4.0
 40
4.0
 40
4.0
 40
5.0
 40
5.0
 40
5.0
 40
6.0
 40
6.0
 40
6.0
 40
7.0
 40
7.0
 40
7.0
 40
8.0
 40
8.0
 40
8.0
 40
9.0
 40
9.0
 40
9.0
 40
10.0
 40
10.0
 40
10.0
 40
11.0
 40
11.0
 40
11.0
 40
12.0
 40
12.0
 40
12.0
 40
13.0
 40
13.0
 40
13.0
 40
14.0
 40
14.0
 40
14.0
 40
15.0
 40
15.0
 40
15.0
 40
16.0
 40
16.0
 40
16.0
 40
17.0
 40
17.0
 40
17.0
 40
17.0
 10
100.4504378777679
 20
166.69157178364
 10
101.9848844191641
 20
167.1313385124438
 10
103.9637485713373
 20
166.7649523658846
 10
103.9637485713373
 20
166.7649523658846
 10
103.9637485713373
 20
166.7649523658846
 10
103.0132460999156
 20
163.911205638077
 10
103.0132460999156
 20
163.911205638077
 10
103.0132460999156
 20
163.911205638077
 10
101.0674548862189
 20
164.3601018759394
 10
99.57090442016032
 20
163.1805004036133
 10
98.40508333886608
 20
162.258247733807
 10
97.65301849830304
 20
159.804132345923
 10
97.3598406791005
 20
158.8699940888517
 10
97.3598406791005
 20
158.8699940888517
 10
96.07137411762282
 20
154.9119212747295
 10
96.07137411762282
 20
154.9119212747295
 10
96.07137411762282
 20
154.9119212747295
 10
100.3012651448482
 20
154.9119212747295
 10
100.3012651448482
 20
154.9119212747295
 10
100.3012651448482
 20
154.9119212747295
 10
99.64152892419852
 20
152.4199098115079
 10
99.64152892419852
 20
152.4199098115079
 10
99.64152892419852
 20
152.4199098115079
 10
95.38097652692731
 20
152.4199098115079
 10
95.38097652692731
 20
152.4199098115079
 10
95.38097652692731
 20
152.4199098115079
 10
87.75353009080013
 20
127.8027915271048
 10
87.75353009080013
 20
127.8027915271048
 10
87.75353009080013
 20
127.8027915271048
 10
85.36538832498108
 20
127.8027915271048
 10
85.36538832498108
 20
127.8027915271048
 10
85.36538832498108
 20
127.8027915271048
 10
93.00006946639998
 20
152.4199098115079
 10
93.00006946639998
 20
152.4199098115079
 10
93.00006946639998
 20
152.4199098115079
 10
89.85297266450198
 20
152.4199098115079
 10
89.85297266450198
 20
152.4199098115079
 10
89.85297266450198
 20
152.4199098115079
 10
90.51270888515164
 20
154.9119212747295
 10
90.51270888515164
 20
154.9119212747295
 10
90.51270888515164
 20
154.9119212747295
 10
93.6904670570955
 20
154.9119212747295
 10
93.6904670570955
 20
154.9119212747295
 10
93.6904670570955
 20
154.9119212747295
 10
94.81598049462158
 20
158.3616699146644
 10
94.81598049462158
 20
158.3616699146644
 10
95.7237637538445
 20
161.2605474231013
 10
96.4968436907311
 20
162.8139420021662
 10
97.15657991138076
 20
163.9844139654337
 10
97.81183750494507
 20
165.1523021053827
 10
99.1047826935081
 20
166.3084769129547
 10
100.4504378777679
 20
166.69157178364
 97
        0
 75
     2
 76
     1
 98
        0
  0
SPLINE
  5
3C1
330
3BD
100
AcDbEntity
  8
LOGO
370
     0
100
AcDbSpline
210
0.0
220
0.0
230
1.0
 70
    11
 71
     3
 72
    38
 73
    34
 74
     0
 42
0.000000001
 43
0.0000000001
 40
0.0
 40
0.0
 40
0.0
 40
0.0
 40
1.0
 40
1.0
 40
1.0
 40
2.0
 40
2.0
 40
2.0
 40
3.0
 40
3.0
 40
3.0
 40
4.0
 40
4.0
 40
4.0
 40
5.0
 40
5.0
 40
5.0
 40
6.0
 40
6.0
 40
6.0
 40
7.0
 40
7.0
 40
7.0
 40
8.0
 40
8.0
 40
8.0
 40
9.0
 40
9.0
 40
9.0
 40
10.0
 40
10.0
 40
10.0
 40
11.0
 40
11.0
 40
11.0
 40
11.0
 10
126.377554584636
 20
154.8151140277308
 30
0.0
 10
126.377554584636
 20
154.8151140277308
 30
0.0
 10
128.8311532078563
 20
154.8151140277308
 30
0.0
 10
128.8311532078563
 20
154.8151140277308
 30
0.0
 10
128.8311532078563
 20
154.8151140277308
 30
0.0
 10
127.7345785914971
 20
151.3062819612468
 30
0.0
 10
127.7345785914971
 20
151.3062819612468
 30
0.0
 10
128.571392836906
 20
152.2922689395754
 30
0.0
 10
129.8860421413442
 20
153.604506675583
 30
0.0
 10
131.0163787157314
 20
154.2664822097754
 30
0.0
 10
132.7044766171327
 20
155.2500576196734
 30
0.0
 10
133.6642808525008
 20
155.3847609420097
 30
0.0
 10
134.7284715499351
 20
155.3565111403944
 30
0.0
 10
134.7284715499351
 20
155.3565111403944
 30
0.0
 10
133.6877075172549
 20
152.0345756272799
 30
0.0
 10
133.6877075172549
 20
152.0345756272799
 30
0.0
 10
133.011434827367
 20
152.3184516825359
 30
0.0
 10
130.930940291334
 20
151.7768823149844
 30
0.0
 10
129.739280976855
 20
150.9162968950455
 30
0.0
 10
128.66613302525
 20
150.1454562717016
 30
0.0
 10
127.9192358313239
 20
149.4857200510519
 30
0.0
 10
127.0393578639405
 20
147.8282835196966
 30
0.0
 10
126.164647543194
 20
146.1699857139017
 30
0.0
 10
125.4742499524985
 20
143.5262176944419
 30
0.0
 10
124.2822461282437
 20
139.6959580071401
 30
0.0
 10
124.2822461282437
 20
139.6959580071401
 30
0.0
 10
120.5753209406769
 20
127.8027915271048
 30
0.0
 10
120.5753209406769
 20
127.8027915271048
 30
0.0
 10
120.5753209406769
 20
127.8027915271048
 30
0.0
 10
118.1964809388044
 20
127.8027915271048
 30
0.0
 10
118.1964809388044
 20
127.8027915271048
 30
0.0
 10
118.1964809388044
 20
127.8027915271048
 30
0.0
 10
126.377554584636
 20
154.8151140277308
 30
0.0
 10
126.377554584636
 20
154.8151140277308
 30
0.0
  0
HATCH
  5
3C2
330
3BD
100
AcDbEntity
  8
LOGO
 62
   250
420
  2234388
100
AcDbHatch
 10
0.0
 20
0.0
 30
0.0
210
0.0
220
0.0
230
1.0
  2
SOLID
 70
     1
 71
     0
 91
        1
 92
        1
 93
        1
 72
     4
 94
        3
 73
     0
 74
     1
 95
       38
 96
       34
 40
0.0
 40
0.0
 40
0.0
 40
0.0
 40
1.0
 40
1.0
 40
1.0
 40
2.0
 40
2.0
 40
2.0
 40
3.0
 40
3.0
 40
3.0
 40
4.0
 40
4.0
 40
4.0
 40
5.0
 40
5.0
 40
5.0
 40
6.0
 40
6.0
 40
6.0
 40
7.0
 40
7.0
 40
7.0
 40
8.0
 40
8.0
 40
8.0
 40
9.0
 40
9.0
 40
9.0
 40
10.0
 40
10.0
 40
10.0
 40
11.0
 40
11.0
 40
11.0
 40
11.0
 10
126.377554584636
 20
154.8151140277308
 10
126.377554584636
 20
154.8151140277308
 10
128.8311532078563
 20
154.8151140277308
 10
128.8311532078563
 20
154.8151140277308
 10
128.8311532078563
 20
154.8151140277308
 10
127.7345785914971
 20
151.3062819612468
 10
127.7345785914971
 20
151.3062819612468
 10
128.571392836906
 20
152.2922689395754
 10
129.8860421413442
 20
153.604506675583
 10
131.0163787157314
 20
154.2664822097754
 10
132.7044766171327
 20
155.2500576196734
 10
133.6642808525008
 20
155.3847609420097
 10
134.7284715499351
 20
155.3565111403944
 10
134.7284715499351
 20
155.3565111403944
 10
133.6877075172549
 20
152.0345756272799
 10
133.6877075172549
 20
152.0345756272799
 10
133.011434827367
 20
152.3184516825359
 10
130.930940291334
 20
151.7768823149844
 10
129.739280976855
 20
150.9162968950455
 10
128.66613302525
 20
150.1454562717016
 10
127.9192358313239
 20
149.4857200510519
 10
127.0393578639405
 20
147.8282835196966
 10
126.164647543194
 20
146.1699857139017
 10
125.4742499524985
 20
143.5262176944419
 10
124.2822461282437
 20
139.6959580071401
 10
124.2822461282437
 20
139.6959580071401
 10
120.5753209406769
 20
127.8027915271048
 10
120.5753209406769
 20
127.8027915271048
 10
120.5753209406769
 20
127.8027915271048
 10
118.1964809388044
 20
127.8027915271048
 10
118.1964809388044
 20
127.8027915271048
 10
118.1964809388044
 20
127.8027915271048
 10
126.377554584636
 20
154.8151140277308
 10
126.377554584636
 20
154.8151140277308
 97
        0
 75
     2
 76
     1
 98
        0
  0
SPLINE
  5
3C3
330
3BD
100
AcDbEntity
  8
LOGO
370
     0
100
AcDbSpline
210
0.0
220
0.0
230
1.0
 70
    11
 71
     3
 72
   104
 73
   100
 74
     0
 42
0.000000001
 43
0.0000000001
 40
0.0
 40
0.0
 40
0.0
 40
0.0
 40
1.0
 40
1.0
 40
1.0
 40
2.0
 40
2.0
 40
2.0
 40
3.0
 40
3.0
 40
3.0
 40
4.0
 40
4.0
 40
4.0
 40
5.0
 40
5.0
 40
5.0
 40
6.0
 40
6.0
 40
6.0
 40
7.0
 40
7.0
 40
7.0
 40
8.0
 40
8.0
 40
8.0
 40
9.0
 40
9.0
 40
9.0
 40
10.0
 40
10.0
 40
10.0
 40
11.0
 40
11.0
 40
11.0
 40
12.0
 40
12.0
 40
12.0
 40
13.0
 40
13.0
 40
13.0
 40
14.0
 40
14.0
 40
14.0
 40
15.0
 40
15.0
 40
15.0
 40
16.0
 40
16.0
 40
16.0
 40
17.0
 40
17.0
 40
17.0
 40
18.0
 40
18.0
 40
18.0
 40
19.0
 40
19.0
 40
19.0
 40
20.0
 40
20.0
 40
20.0
 40
21.0
 40
21.0
 40
21.0
 40
22.0
 40
22.0
 40
22.0
 40
23.0
 40
23.0
 40
23.0
 40
24.0
 40
24.0
 40
24.0
 40
25.0
 40
25.0
 40
25.0
 40
26.0
 40
26.0
 40
26.0
 40
27.0
 40
27.0
 40
27.0
 40
28.0
 40
28.0
 40
28.0
 40
29.0
 40
29.0
 40
29.0
 40
30.0
 40
30.0
 40
30.0
 40
31.0
 40
31.0
 40
31.0
 40
32.0
 40
32.0
 40
32.0
 40
33.0
 40
33.0
 40
33.0
 40
33.0
 10
139.8926730891197
 20
154.8294111834263
 30
0.0
 10
139.8926730891197
 20
154.8294111834263
 30
0.0
 10
142.0344903652445
 20
154.8294111834263
 30
0.0
 10
142.0344903652445
 20
154.8294111834263
 30
0.0
 10
142.0344903652445
 20
154.8294111834263
 30
0.0
 10
140.9516961399171
 20
151.3157559800812
 30
0.0
 10
140.9516961399171
 20
151.3157559800812
 30
0.0
 10
141.8928968473923
 20
152.7887075264977
 30
0.0
 10
142.7341897198865
 20
153.4484437471474
 30
0.0
 10
143.8552245303272
 20
154.2926649527359
 30
0.0
 10
144.9803934580775
 20
155.1296514530327
 30
0.0
 10
146.3139908001845
 20
155.3044901642492
 30
0.0
 10
147.241066606852
 20
155.3044901642492
 30
0.0
 10
148.3855280820469
 20
155.3044901642492
 30
0.0
 10
149.4969166187653
 20
155.0752189084569
 30
0.0
 10
150.0784491203092
 20
153.8172414621372
 30
0.0
 10
150.5228667310863
 20
152.833838307127
 30
0.0
 10
150.5414702589793
 20
152.7201500811143
 30
0.0
 10
150.4140016419347
 20
150.7765981809602
 30
0.0
 10
151.5818897818837
 20
152.7699317437168
 30
0.0
 10
152.4424752018226
 20
153.6256940267945
 30
0.0
 10
153.9038856707499
 20
154.4507949398263
 30
0.0
 10
155.4455669174378
 20
155.3044901642492
 30
0.0
 10
156.339225275853
 20
155.3659851592288
 30
0.0
 10
157.3748216618963
 20
155.2147453676543
 30
0.0
 10
158.911679771723
 20
154.9877134254046
 30
0.0
 10
159.8859534176746
 20
154.4390816074493
 30
0.0
 10
160.3965169054045
 20
152.7816450760939
 30
0.0
 10
160.9070803931344
 20
151.1219692311958
 30
0.0
 10
160.6328506116007
 20
150.2303779314354
 30
0.0
 10
159.9992971339115
 20
147.597634224801
 30
0.0
 10
159.7105979417943
 20
146.4014962832367
 30
0.0
 10
159.2947746424084
 20
144.9400858143094
 30
0.0
 10
158.7463150793409
 20
143.2092687007094
 30
0.0
 10
158.7463150793409
 20
143.2092687007094
 30
0.0
 10
153.9038856707499
 20
127.8027915271048
 30
0.0
 10
153.9038856707499
 20
127.8027915271048
 30
0.0
 10
153.9038856707499
 20
127.8027915271048
 30
0.0
 10
151.3882752878863
 20
127.8027915271048
 30
0.0
 10
151.3882752878863
 20
127.8027915271048
 30
0.0
 10
151.3882752878863
 20
127.8027915271048
 30
0.0
 10
155.6250565106276
 20
141.2751908193897
 30
0.0
 10
155.6250565106276
 20
141.2751908193897
 30
0.0
 10
156.5094131050963
 20
144.0936252951782
 30
0.0
 10
157.109893644309
 20
146.1506931664571
 30
0.0
 10
157.4220195011804
 20
147.4415712963654
 30
0.0
 10
157.8095929989511
 20
149.0530157726519
 30
0.0
 10
157.9656559273867
 20
149.5826995529385
 30
0.0
 10
157.7816877071116
 20
150.7529992613181
 30
0.0
 10
157.6111553680925
 20
151.8430281919372
 30
0.0
 10
157.0582171779396
 20
152.5547853887321
 30
0.0
 10
156.1170164704645
 20
152.5547853887321
 30
0.0
 10
155.1096698860365
 20
152.5547853887321
 30
0.0
 10
154.2962823053817
 20
152.4412694176073
 30
0.0
 10
153.156643967048
 20
151.2945686288697
 30
0.0
 10
152.0170056287143
 20
150.1476955852443
 30
0.0
 10
151.076149431015
 20
148.7930831468137
 30
0.0
 10
150.3337308641742
 20
147.2290087646991
 30
0.0
 10
149.5957909244188
 20
145.6683794803425
 30
0.0
 10
148.8530278478023
 20
143.6822806228776
 30
0.0
 10
148.0964843801539
 20
141.2751908193897
 30
0.0
 10
148.0964843801539
 20
141.2751908193897
 30
0.0
 10
143.8552245303272
 20
127.8027915271048
 30
0.0
 10
143.8552245303272
 20
127.8027915271048
 30
0.0
 10
143.8552245303272
 20
127.8027915271048
 30
0.0
 10
141.486030802177
 20
127.8027915271048
 30
0.0
 10
141.486030802177
 20
127.8027915271048
 30
0.0
 10
141.486030802177
 20
127.8027915271048
 30
0.0
 10
146.3329388378533
 20
143.2092687007094
 30
0.0
 10
146.3329388378533
 20
143.2092687007094
 30
0.0
 10
146.8483254624444
 20
144.8408669988801
 30
0.0
 10
147.2314203331297
 20
146.1837661049335
 30
0.0
 10
147.4867020769946
 20
147.224185627838
 30
0.0
 10
147.9169947869641
 20
149.0197705792876
 30
0.0
 10
148.0306830129768
 20
150.2400242051577
 30
0.0
 10
147.709255392159
 20
151.3157559800812
 30
0.0
 10
147.3874832615654
 20
152.3916600098926
 30
0.0
 10
146.8245542879144
 20
152.6683013598569
 30
0.0
 10
145.8840425999909
 20
152.6683013598569
 30
0.0
 10
145.0989048209514
 20
152.6683013598569
 30
0.0
 10
144.3282364524954
 20
152.3275811915945
 30
0.0
 10
143.4531816219731
 20
151.6538923250251
 30
0.0
 10
142.34627171234
 20
150.8074318058939
 30
0.0
 10
141.901854101563
 20
150.1097995099067
 30
0.0
 10
141.3578731655808
 20
149.289521733736
 30
0.0
 10
140.6299240093235
 20
148.192602607601
 30
0.0
 10
140.2850697237515
 20
147.455696197173
 30
0.0
 10
139.6652966370942
 20
145.8385673095858
 30
0.0
 10
139.0506911970739
 20
144.2214384219986
 30
0.0
 10
138.463991048893
 20
142.3252566160164
 30
0.0
 10
138.0571250036777
 20
141.0154304484394
 30
0.0
 10
138.0571250036777
 20
141.0154304484394
 30
0.0
 10
133.9009590684727
 20
127.8027915271048
 30
0.0
 10
133.9009590684727
 20
127.8027915271048
 30
0.0
 10
133.9009590684727
 20
127.8027915271048
 30
0.0
 10
131.4180771143097
 20
127.8027915271048
 30
0.0
 10
131.4180771143097
 20
127.8027915271048
 30
0.0
 10
131.4180771143097
 20
127.8027915271048
 30
0.0
 10
139.8926730891197
 20
154.8294111834263
 30
0.0
 10
139.8926730891197
 20
154.8294111834263
 30
0.0
  0
HATCH
  5
3C4
330
3BD
100
AcDbEntity
  8
LOGO
 62
   250
420
  2234388
100
AcDbHatch
 10
0.0
 20
0.0
 30
0.0
210
0.0
220
0.0
230
1.0
  2
SOLID
 70
     1
 71
     0
 91
        1
 92
        1
 93
        1
 72
     4
 94
        3
 73
     0
 74
     1
 95
      104
 96
      100
 40
0.0
 40
0.0
 40
0.0
 40
0.0
 40
1.0
 40
1.0
 40
1.0
 40
2.0
 40
2.0
 40
2.0
 40
3.0
 40
3.0
 40
3.0
 40
4.0
 40
4.0
 40
4.0
 40
5.0
 40
5.0
 40
5.0
 40
6.0
 40
6.0
 40
6.0
 40
7.0
 40
7.0
 40
7.0
 40
8.0
 40
8.0
 40
8.0
 40
9.0
 40
9.0
 40
9.0
 40
10.0
 40
10.0
 40
10.0
 40
11.0
 40
11.0
 40
11.0
 40
12.0
 40
12.0
 40
12.0
 40
13.0
 40
13.0
 40
13.0
 40
14.0
 40
14.0
 40
14.0
 40
15.0
 40
15.0
 40
15.0
 40
16.0
 40
16.0
 40
16.0
 40
17.0
 40
17.0
 40
17.0
 40
18.0
 40
18.0
 40
18.0
 40
19.0
 40
19.0
 40
19.0
 40
20.0
 40
20.0
 40
20.0
 40
21.0
 40
21.0
 40
21.0
 40
22.0
 40
22.0
 40
22.0
 40
23.0
 40
23.0
 40
23.0
 40
24.0
 40
24.0
 40
24.0
 40
25.0
 40
25.0
 40
25.0
 40
26.0
 40
26.0
 40
26.0
 40
27.0
 40
27.0
 40
27.0
 40
28.0
 40
28.0
 40
28.0
 40
29.0
 40
29.0
 40
29.0
 40
30.0
 40
30.0
 40
30.0
 40
31.0
 40
31.0
 40
31.0
 40
32.0
 40
32.0
 40
32.0
 40
33.0
 40
33.0
 40
33.0
 40
33.0
 10
139.8926730891197
 20
154.8294111834263
 10
139.8926730891197
 20
154.8294111834263
 10
142.0344903652445
 20
154.8294111834263
 10
142.0344903652445
 20
154.8294111834263
 10
142.0344903652445
 20
154.8294111834263
 10
140.9516961399171
 20
151.3157559800812
 10
140.9516961399171
 20
151.3157559800812
 10
141.8928968473923
 20
152.7887075264977
 10
142.7341897198865
 20
153.4484437471474
 10
143.8552245303272
 20
154.2926649527359
 10
144.9803934580775
 20
155.1296514530327
 10
146.3139908001845
 20
155.3044901642492
 10
147.241066606852
 20
155.3044901642492
 10
148.3855280820469
 20
155.3044901642492
 10
149.4969166187653
 20
155.0752189084569
 10
150.0784491203092
 20
153.8172414621372
 10
150.5228667310863
 20
152.833838307127
 10
150.5414702589793
 20
152.7201500811143
 10
150.4140016419347
 20
150.7765981809602
 10
151.5818897818837
 20
152.7699317437168
 10
152.4424752018226
 20
153.6256940267945
 10
153.9038856707499
 20
154.4507949398263
 10
155.4455669174378
 20
155.3044901642492
 10
156.339225275853
 20
155.3659851592288
 10
157.3748216618963
 20
155.2147453676543
 10
158.911679771723
 20
154.9877134254046
 10
159.8859534176746
 20
154.4390816074493
 10
160.3965169054045
 20
152.7816450760939
 10
160.9070803931344
 20
151.1219692311958
 10
160.6328506116007
 20
150.2303779314354
 10
159.9992971339115
 20
147.597634224801
 10
159.7105979417943
 20
146.4014962832367
 10
159.2947746424084
 20
144.9400858143094
 10
158.7463150793409
 20
143.2092687007094
 10
158.7463150793409
 20
143.2092687007094
 10
153.9038856707499
 20
127.8027915271048
 10
153.9038856707499
 20
127.8027915271048
 10
153.9038856707499
 20
127.8027915271048
 10
151.3882752878863
 20
127.8027915271048
 10
151.3882752878863
 20
127.8027915271048
 10
151.3882752878863
 20
127.8027915271048
 10
155.6250565106276
 20
141.2751908193897
 10
155.6250565106276
 20
141.2751908193897
 10
156.5094131050963
 20
144.0936252951782
 10
157.109893644309
 20
146.1506931664571
 10
157.4220195011804
 20
147.4415712963654
 10
157.8095929989511
 20
149.0530157726519
 10
157.9656559273867
 20
149.5826995529385
 10
157.7816877071116
 20
150.7529992613181
 10
157.6111553680925
 20
151.8430281919372
 10
157.0582171779396
 20
152.5547853887321
 10
156.1170164704645
 20
152.5547853887321
 10
155.1096698860365
 20
152.5547853887321
 10
154.2962823053817
 20
152.4412694176073
 10
153.156643967048
 20
151.2945686288697
 10
152.0170056287143
 20
150.1476955852443
 10
151.076149431015
 20
148.7930831468137
 10
150.3337308641742
 20
147.2290087646991
 10
149.5957909244188
 20
145.6683794803425
 10
148.8530278478023
 20
143.6822806228776
 10
148.0964843801539
 20
141.2751908193897
 10
148.0964843801539
 20
141.2751908193897
 10
143.8552245303272
 20
127.8027915271048
 10
143.8552245303272
 20
127.8027915271048
 10
143.8552245303272
 20
127.8027915271048
 10
141.486030802177
 20
127.8027915271048
 10
141.486030802177
 20
127.8027915271048
 10
141.486030802177
 20
127.8027915271048
 10
146.3329388378533
 20
143.2092687007094
 10
146.3329388378533
 20
143.2092687007094
 10
146.8483254624444
 20
144.8408669988801
 10
147.2314203331297
 20
146.1837661049335
 10
147.4867020769946
 20
147.224185627838
 10
147.9169947869641
 20
149.0197705792876
 10
148.0306830129768
 20
150.2400242051577
 10
147.709255392159
 20
151.3157559800812
 10
147.3874832615654
 20
152.3916600098926
 10
146.8245542879144
 20
152.6683013598569
 10
145.8840425999909
 20
152.6683013598569
 10
145.0989048209514
 20
152.6683013598569
 10
144.3282364524954
 20
152.3275811915945
 10
143.4531816219731
 20
151.6538923250251
 10
142.34627171234
 20
150.8074318058939
 10
141.901854101563
 20
150.1097995099067
 10
141.3578731655808
 20
149.289521733736
 10
140.6299240093235
 20
148.192602607601
 10
140.2850697237515
 20
147.455696197173
 10
139.6652966370942
 20
145.8385673095858
 10
139.0506911970739
 20
144.2214384219986
 10
138.463991048893
 20
142.3252566160164
 10
138.0571250036777
 20
141.0154304484394
 10
138.0571250036777
 20
141.0154304484394
 10
133.9009590684727
 20
127.8027915271048
 10
133.9009590684727
 20
127.8027915271048
 10
133.9009590684727
 20
127.8027915271048
 10
131.4180771143097
 20
127.8027915271048
 10
131.4180771143097
 20
127.8027915271048
 10
131.4180771143097
 20
127.8027915271048
 10
139.8926730891197
 20
154.8294111834263
 10
139.8926730891197
 20
154.8294111834263
 97
        0
 75
     2
 76
     1
 98
        0
  0
SPLINE
  5
3C5
330
3BD
100
AcDbEntity
  8
LOGO
370
     0
100
AcDbSpline
210
0.0
220
0.0
230
1.0
 70
    11
 71
     3
 72
    29
 73
    25
 74
     0
 42
0.000000001
 43
0.0000000001
 40
0.0
 40
0.0
 40
0.0
 40
0.0
 40
1.0
 40
1.0
 40
1.0
 40
2.0
 40
2.0
 40
2.0
 40
3.0
 40
3.0
 40
3.0
 40
4.0
 40
4.0
 40
4.0
 40
5.0
 40
5.0
 40
5.0
 40
6.0
 40
6.0
 40
6.0
 40
7.0
 40
7.0
 40
7.0
 40
8.0
 40
8.0
 40
8.0
 40
8.0
 10
101.6420971922469
 20
132.8388354296931
 30
0.0
 10
101.630039350094
 20
134.7164137077823
 30
0.0
 10
102.2236296937908
 20
138.0598810818841
 30
0.0
 10
103.7487744712405
 20
142.5378191476827
 30
0.0
 10
105.819967243327
 20
148.5896501242061
 30
0.0
 10
107.0602024361932
 20
150.8074318058939
 30
0.0
 10
108.1522984254671
 20
151.8833358357054
 30
0.0
 10
109.741177511439
 20
153.4532668840085
 30
0.0
 10
111.8740375333931
 20
153.5290590346837
 30
0.0
 10
112.5075910110823
 20
153.4532668840085
 30
0.0
 10
113.4012493694975
 20
153.3490526768302
 30
0.0
 10
114.6683563248758
 20
152.7580461564518
 30
0.0
 10
114.7493161221879
 20
150.7838328862519
 30
0.0
 10
114.8106388622796
 20
149.0909118479895
 30
0.0
 10
114.3186789024427
 20
145.9191825971221
 30
0.0
 10
112.6164561002338
 20
140.9489400617108
 30
0.0
 10
110.6444821435766
 20
135.1746117095912
 30
0.0
 10
109.4669477299053
 20
132.8960240524753
 30
0.0
 10
108.5212683953448
 20
131.9072809959403
 30
0.0
 10
106.7346406980658
 20
130.0538184021569
 30
0.0
 10
104.8222669326213
 20
130.2336525051225
 30
0.0
 10
104.5408024457958
 20
130.2336525051225
 30
0.0
 10
104.1721769856939
 20
130.2336525051225
 30
0.0
 10
101.6465758193322
 20
130.6305277668397
 30
0.0
 10
101.6420971922469
 20
132.8388354296931
 30
0.0
  0
SPLINE
  5
3C6
330
3BD
100
AcDbEntity
  8
LOGO
370
     0
100
AcDbSpline
210
0.0
220
0.0
230
1.0
 70
    11
 71
     3
 72
    32
 73
    28
 74
     0
 42
0.000000001
 43
0.0000000001
 40
0.0
 40
0.0
 40
0.0
 40
0.0
 40
1.0
 40
1.0
 40
1.0
 40
2.0
 40
2.0
 40
2.0
 40
3.0
 40
3.0
 40
3.0
 40
4.0
 40
4.0
 40
4.0
 40
5.0
 40
5.0
 40
5.0
 40
6.0
 40
6.0
 40
6.0
 40
7.0
 40
7.0
 40
7.0
 40
8.0
 40
8.0
 40
8.0
 40
9.0
 40
9.0
 40
9.0
 40
9.0
 10
106.2595617172429
 20
153.4105476718098
 30
0.0
 10
104.8222669326213
 20
151.5474388043041
 30
0.0
 10
103.7177685914188
 20
149.8758773721411
 30
0.0
 10
101.9232171692965
 20
144.6141795664062
 30
0.0
 10
100.2754269116635
 20
139.7999999594306
 30
0.0
 10
99.22777268346732
 20
136.3052927937542
 30
0.0
 10
99.06964269637689
 20
132.039572749846
 30
0.0
 10
98.94665270641765
 20
128.8673267343149
 30
0.0
 10
100.8807305877373
 20
127.8027915271048
 30
0.0
 10
103.7129454545577
 20
127.8027915271048
 30
0.0
 10
104.9352661390825
 20
127.8027915271048
 30
0.0
 10
108.0151835347002
 20
127.8827177950895
 30
0.0
 10
110.2045431598849
 20
130.5926316915021
 30
0.0
 10
111.7417457794874
 20
132.4984597712065
 30
0.0
 10
113.155269389579
 20
134.475256864725
 30
0.0
 10
115.0562743324223
 20
140.9489400617108
 30
0.0
 10
116.6361961642235
 20
146.3680788349845
 30
0.0
 10
117.7282921534974
 20
149.8639917848761
 30
0.0
 10
117.6480213757369
 20
151.8595646611754
 30
0.0
 10
117.6480213757369
 20
151.8595646611754
 30
0.0
 10
117.6480213757369
 20
151.8595646611754
 30
0.0
 10
117.6480213757369
 20
151.8595646611754
 30
0.0
 10
117.13229024137
 20
155.18150017429
 30
0.0
 10
114.7162431837115
 20
155.886194920681
 30
0.0
 10
113.3351034925446
 20
155.886194920681
 30
0.0
 10
111.9829026225447
 20
155.886194920681
 30
0.0
 10
108.3414342923792
 20
156.1251124501957
 30
0.0
 10
106.2595617172429
 20
153.4105476718098
 30
0.0
  0
HATCH
  5
3C7
330
3BD
100
AcDbEntity
  8
LOGO
 62
   250
420
  2234388
100
AcDbHatch
 10
0.0
 20
0.0
 30
0.0
210
0.0
220
0.0
230
1.0
  2
SOLID
 70
     1
 71
     0
 91
        2
 92
        1
 93
        1
 72
     4
 94
        3
 73
     0
 74
     1
 95
       29
 96
       25
 40
0.0
 40
0.0
 40
0.0
 40
0.0
 40
1.0
 40
1.0
 40
1.0
 40
2.0
 40
2.0
 40
2.0
 40
3.0
 40
3.0
 40
3.0
 40
4.0
 40
4.0
 40
4.0
 40
5.0
 40
5.0
 40
5.0
 40
6.0
 40
6.0
 40
6.0
 40
7.0
 40
7.0
 40
7.0
 40
8.0
 40
8.0
 40
8.0
 40
8.0
 10
101.6420971922469
 20
132.8388354296931
 10
101.630039350094
 20
134.7164137077823
 10
102.2236296937908
 20
138.0598810818841
 10
103.7487744712405
 20
142.5378191476827
 10
105.819967243327
 20
148.5896501242061
 10
107.0602024361932
 20
150.8074318058939
 10
108.1522984254671
 20
151.8833358357054
 10
109.741177511439
 20
153.4532668840085
 10
111.8740375333931
 20
153.5290590346837
 10
112.5075910110823
 20
153.4532668840085
 10
113.4012493694975
 20
153.3490526768302
 10
114.6683563248758
 20
152.7580461564518
 10
114.7493161221879
 20
150.7838328862519
 10
114.8106388622796
 20
149.0909118479895
 10
114.3186789024427
 20
145.9191825971221
 10
112.6164561002338
 20
140.9489400617108
 10
110.6444821435766
 20
135.1746117095912
 10
109.4669477299053
 20
132.8960240524753
 10
108.5212683953448
 20
131.9072809959403
 10
106.7346406980658
 20
130.0538184021569
 10
104.8222669326213
 20
130.2336525051225
 10
104.5408024457958
 20
130.2336525051225
 10
104.1721769856939
 20
130.2336525051225
 10
101.6465758193322
 20
130.6305277668397
 10
101.6420971922469
 20
132.8388354296931
 97
        0
 92
        1
 93
        1
 72
     4
 94
        3
 73
     0
 74
     1
 95
       32
 96
       28
 40
0.0
 40
0.0
 40
0.0
 40
0.0
 40
1.0
 40
1.0
 40
1.0
 40
2.0
 40
2.0
 40
2.0
 40
3.0
 40
3.0
 40
3.0
 40
4.0
 40
4.0
 40
4.0
 40
5.0
 40
5.0
 40
5.0
 40
6.0
 40
6.0
 40
6.0
 40
7.0
 40
7.0
 40
7.0
 40
8.0
 40
8.0
 40
8.0
 40
9.0
 40
9.0
 40
9.0
 40
9.0
 10
106.2595617172429
 20
153.4105476718098
 10
104.8222669326213
 20
151.5474388043041
 10
103.7177685914188
 20
149.8758773721411
 10
101.9232171692965
 20
144.6141795664062
 10
100.2754269116635
 20
139.7999999594306
 10
99.22777268346732
 20
136.3052927937542
 10
99.06964269637689
 20
132.039572749846
 10
98.94665270641765
 20
128.8673267343149
 10
100.8807305877373
 20
127.8027915271048
 10
103.7129454545577
 20
127.8027915271048
 10
104.9352661390825
 20
127.8027915271048
 10
108.0151835347002
 20
127.8827177950895
 10
110.2045431598849
 20
130.5926316915021
 10
111.7417457794874
 20
132.4984597712065
 10
113.155269389579
 20
134.475256864725
 10
115.0562743324223
 20
140.9489400617108
 10
116.6361961642235
 20
146.3680788349845
 10
117.7282921534974
 20
149.8639917848761
 10
117.6480213757369
 20
151.8595646611754
 10
117.6480213757369
 20
151.8595646611754
 10
117.6480213757369
 20
151.8595646611754
 10
117.6480213757369
 20
151.8595646611754
 10
117.13229024137
 20
155.18150017429
 10
114.7162431837115
 20
155.886194920681
 10
113.3351034925446
 20
155.886194920681
 10
111.9829026225447
 20
155.886194920681
 10
108.3414342923792
 20
156.1251124501957
 10
106.2595617172429
 20
153.4105476718098
 97
        0
 75
     2
 76
     1
 98
        0
  0
ENDBLK
  5
3C8
330
3BD
100
AcDbEntity
  8
0
100
AcDbBlockEnd
  0
BLOCK
  5
31ED
330
31EC
100
AcDbEntity
  8
0
100
AcDbBlockBegin
  2
*D6
 70
     1
 10
0.0
 20
0.0
 30
0.0
  3
*D6
  1
*D40
  0
LINE
  5
31EF
330
31EC
100
AcDbEntity
  8
DIM
  6
Continuous
 62
     0
370
    -2
100
AcDbLine
 10
3169.613989710959
 20
4647.780924027024
 30
0.0
 11
3169.613989710959
 21
5109.832322247854
 31
0.0
  0
LINE
  5
31F0
330
31EC
100
AcDbEntity
  8
DIM
  6
Continuous
 62
     0
370
    -2
100
AcDbLine
 10
2686.529348254344
 20
4965.436508098808
 30
0.0
 11
2686.529348254344
 21
5109.832322247854
 31
0.0
  0
LINE
  5
31F1
330
31EC
100
AcDbEntity
  8
DIM
  6
Continuous
 62
     0
370
    -2
100
AcDbLine
 10
3151.613989710959
 20
5109.832322247854
 30
0.0
 11
2704.529348254344
 21
5109.832322247854
 31
0.0
  0
INSERT
  5
31F2
330
31EC
100
AcDbEntity
  8
DIM
 62
     0
370
    -2
100
AcDbBlockReference
  2
_DOT
 10
3169.613989710959
 20
5109.832322247854
 30
0.0
 41
18.0
 42
18.0
 43
18.0
  0
INSERT
  5
31F3
330
31EC
100
AcDbEntity
  8
DIM
 62
     0
370
    -2
100
AcDbBlockReference
  2
_DOT
 10
2686.529348254344
 20
5109.832322247854
 30
0.0
 41
18.0
 42
18.0
 43
18.0
 50
180.0
  0
MTEXT
  5
31F4
330
31EC
100
AcDbEntity
  8
DIM
  6
Continuous
 62
     0
100
AcDbMText
 10
2928.071668982651
 20
5163.832322247854
 30
0.0
 40
48.0
 41
0.0
 46
0.0
 71
     5
 72
     1
  1
\A1;485
  7
ＭＳ ゴシック
 73
     1
 44
1.0
  0
POINT
  5
31F5
330
31EC
100
AcDbEntity
  8
Defpoints
 62
     0
100
AcDbPoint
 10
3169.613989710959
 20
4622.780924027024
 30
0.0
  0
POINT
  5
31F6
330
31EC
100
AcDbEntity
  8
Defpoints
 62
     0
100
AcDbPoint
 10
2686.529348254344
 20
4940.436508098808
 30
0.0
  0
POINT
  5
31F7
330
31EC
100
AcDbEntity
  8
Defpoints
 62
     0
100
AcDbPoint
 10
2686.529348254344
 20
5109.832322247854
 30
0.0
  0
ENDBLK
  5
31EE
330
31EC
100
AcDbEntity
  8
0
100
AcDbBlockEnd
  0
BLOCK
  5
326D
330
326C
100
AcDbEntity
  8
0
100
AcDbBlockBegin
  2
*D7
 70
     1
 10
0.0
 20
0.0
 30
0.0
  3
*D7
  1
*D42
  0
LINE
  5
326F
330
326C
100
AcDbEntity
  8
DIM
  6
Continuous
 62
     0
370
    -2
100
AcDbLine
 10
2661.529348254344
 20
4256.436752239508
 30
0.0
 11
2441.43944992339
 21
4256.436752239508
 31
0.0
  0
LINE
  5
3270
330
326C
100
AcDbEntity
  8
DIM
  6
Continuous
 62
     0
370
    -2
100
AcDbLine
 10
2661.529348254344
 20
4886.436752239508
 30
0.0
 11
2441.43944992339
 21
4886.436752239508
 31
0.0
  0
LINE
  5
3271
330
326C
100
AcDbEntity
  8
DIM
  6
Continuous
 62
     0
370
    -2
100
AcDbLine
 10
2441.43944992339
 20
4274.436752239508
 30
0.0
 11
2441.43944992339
 21
4868.436752239508
 31
0.0
  0
INSERT
  5
3272
330
326C
100
AcDbEntity
  8
DIM
 62
     0
370
    -2
100
AcDbBlockReference
  2
_DOT
 10
2441.43944992339
 20
4256.436752239508
 30
0.0
 41
18.0
 42
18.0
 43
18.0
 50
270.0
  0
INSERT
  5
3273
330
326C
100
AcDbEntity
  8
DIM
 62
     0
370
    -2
100
AcDbBlockReference
  2
_DOT
 10
2441.43944992339
 20
4886.436752239508
 30
0.0
 41
18.0
 42
18.0
 43
18.0
 50
90.0
  0
MTEXT
  5
3274
330
326C
100
AcDbEntity
  8
DIM
  6
Continuous
 62
     0
100
AcDbMText
 10
2387.43944992339
 20
4571.436752239508
 30
0.0
 40
48.0
 41
0.0
 46
0.0
 71
     5
 72
     1
  1
\A1;630
  7
ＭＳ ゴシック
 11
0.0
 21
1.0
 31
0.0
 73
     1
 44
1.0
  0
POINT
  5
3275
330
326C
100
AcDbEntity
  8
Defpoints
 62
     0
100
AcDbPoint
 10
2686.529348254344
 20
4256.436752239508
 30
0.0
  0
POINT
  5
3276
330
326C
100
AcDbEntity
  8
Defpoints
 62
     0
100
AcDbPoint
 10
2686.529348254344
 20
4886.436752239508
 30
0.0
  0
POINT
  5
3277
330
326C
100
AcDbEntity
  8
Defpoints
 62
     0
100
AcDbPoint
 10
2441.43944992339
 20
4886.436752239508
 30
0.0
  0
ENDBLK
  5
326E
330
326C
100
AcDbEntity
  8
0
100
AcDbBlockEnd
  0
BLOCK
  5
327A
330
3279
100
AcDbEntity
  8
0
100
AcDbBlockBegin
  2
*D8
 70
     1
 10
0.0
 20
0.0
 30
0.0
  3
*D8
  1
*D43
  0
LINE
  5
327C
330
3279
100
AcDbEntity
  8
DIM
  6
Continuous
 62
     0
370
    -2
100
AcDbLine
 10
2661.529348254344
 20
4316.436752239508
 30
0.0
 11
2549.772936211125
 21
4316.436752239508
 31
0.0
  0
LINE
  5
327D
330
3279
100
AcDbEntity
  8
DIM
  6
Continuous
 62
     0
370
    -2
100
AcDbLine
 10
2661.529348254344
 20
4826.436752239508
 30
0.0
 11
2549.772936211125
 21
4826.436752239508
 31
0.0
  0
LINE
  5
327E
330
3279
100
AcDbEntity
  8
DIM
  6
Continuous
 62
     0
370
    -2
100
AcDbLine
 10
2549.772936211125
 20
4334.436752239508
 30
0.0
 11
2549.772936211125
 21
4808.436752239508
 31
0.0
  0
INSERT
  5
327F
330
3279
100
AcDbEntity
  8
DIM
 62
     0
370
    -2
100
AcDbBlockReference
  2
_DOT
 10
2549.772936211125
 20
4316.436752239508
 30
0.0
 41
18.0
 42
18.0
 43
18.0
 50
270.0
  0
INSERT
  5
3280
330
3279
100
AcDbEntity
  8
DIM
 62
     0
370
    -2
100
AcDbBlockReference
  2
_DOT
 10
2549.772936211125
 20
4826.436752239508
 30
0.0
 41
18.0
 42
18.0
 43
18.0
 50
90.0
  0
MTEXT
  5
3281
330
3279
100
AcDbEntity
  8
DIM
  6
Continuous
 62
     0
100
AcDbMText
 10
2495.772936211125
 20
4571.436752239508
 30
0.0
 40
48.0
 41
0.0
 46
0.0
 71
     5
 72
     1
  1
\A1;510
  7
ＭＳ ゴシック
 11
0.0
 21
1.0
 31
0.0
 73
     1
 44
1.0
  0
POINT
  5
3282
330
3279
100
AcDbEntity
  8
Defpoints
 62
     0
100
AcDbPoint
 10
2686.529348254344
 20
4316.436752239508
 30
0.0
  0
POINT
  5
3283
330
3279
100
AcDbEntity
  8
Defpoints
 62
     0
100
AcDbPoint
 10
2686.529348254344
 20
4826.436752239508
 30
0.0
  0
POINT
  5
3284
330
3279
100
AcDbEntity
  8
Defpoints
 62
     0
100
AcDbPoint
 10
2549.772936211125
 20
4826.436752239508
 30
0.0
  0
ENDBLK
  5
327B
330
3279
100
AcDbEntity
  8
0
100
AcDbBlockEnd
  0
BLOCK
  5
3289
330
3288
100
AcDbEntity
  8
0
100
AcDbBlockBegin
  2
*D9
 70
     1
 10
0.0
 20
0.0
 30
0.0
  3
*D9
  1
*D44
  0
LINE
  5
328B
330
3288
100
AcDbEntity
  8
DIM
  6
Continuous
 62
     0
370
    -2
100
AcDbLine
 10
3321.529348254344
 20
4946.436508098808
 30
0.0
 11
3559.063924885149
 21
4946.436508098808
 31
0.0
  0
LINE
  5
328C
330
3288
100
AcDbEntity
  8
DIM
  6
Continuous
 62
     0
370
    -2
100
AcDbLine
 10
3321.529348254344
 20
4196.436752239508
 30
0.0
 11
3559.063924885149
 21
4196.436752239508
 31
0.0
  0
LINE
  5
328D
330
3288
100
AcDbEntity
  8
DIM
  6
Continuous
 62
     0
370
    -2
100
AcDbLine
 10
3559.063924885149
 20
4928.436508098808
 30
0.0
 11
3559.063924885149
 21
4214.436752239508
 31
0.0
  0
INSERT
  5
328E
330
3288
100
AcDbEntity
  8
DIM
 62
     0
370
    -2
100
AcDbBlockReference
  2
_DOT
 10
3559.063924885149
 20
4946.436508098808
 30
0.0
 41
18.0
 42
18.0
 43
18.0
 50
90.0
  0
INSERT
  5
328F
330
3288
100
AcDbEntity
  8
DIM
 62
     0
370
    -2
100
AcDbBlockReference
  2
_DOT
 10
3559.063924885149
 20
4196.436752239508
 30
0.0
 41
18.0
 42
18.0
 43
18.0
 50
270.0
  0
MTEXT
  5
3290
330
3288
100
AcDbEntity
  8
DIM
  6
Continuous
 62
     0
100
AcDbMText
 10
3505.063924885149
 20
4571.436630169158
 30
0.0
 40
48.0
 41
0.0
 46
0.0
 71
     5
 72
     1
  1
\A1;750
  7
ＭＳ ゴシック
 11
0.0
 21
1.0
 31
0.0
 73
     1
 44
1.0
  0
POINT
  5
3291
330
3288
100
AcDbEntity
  8
Defpoints
 62
     0
100
AcDbPoint
 10
3296.529348254344
 20
4946.436508098808
 30
0.0
  0
POINT
  5
3292
330
3288
100
AcDbEntity
  8
Defpoints
 62
     0
100
AcDbPoint
 10
3296.529348254344
 20
4196.436752239508
 30
0.0
  0
POINT
  5
3293
330
3288
100
AcDbEntity
  8
Defpoints
 62
     0
100
AcDbPoint
 10
3559.063924885149
 20
4196.436752239508
 30
0.0
  0
ENDBLK
  5
328A
330
3288
100
AcDbEntity
  8
0
100
AcDbBlockEnd
  0
BLOCK
  5
3298
330
3297
100
AcDbEntity
  8
0
100
AcDbBlockBegin
  2
*D10
 70
     1
 10
0.0
 20
0.0
 30
0.0
  3
*D10
  1
*D45
  0
LINE
  5
329A
330
3297
100
AcDbEntity
  8
DIM
  6
Continuous
 62
     0
370
    -2
100
AcDbLine
 10
3321.529348254344
 20
2982.250526396645
 30
0.0
 11
3619.190969992222
 21
2982.250526396645
 31
0.0
  0
LINE
  5
329B
330
3297
100
AcDbEntity
  8
DIM
  6
Continuous
 62
     0
370
    -2
100
AcDbLine
 10
3321.529348254344
 20
1282.250728575552
 30
0.0
 11
3619.190969992222
 21
1282.250728575552
 31
0.0
  0
LINE
  5
329C
330
3297
100
AcDbEntity
  8
DIM
  6
Continuous
 62
     0
370
    -2
100
AcDbLine
 10
3619.190969992222
 20
2964.250526396645
 30
0.0
 11
3619.190969992222
 21
1300.250728575552
 31
0.0
  0
INSERT
  5
329D
330
3297
100
AcDbEntity
  8
DIM
 62
     0
370
    -2
100
AcDbBlockReference
  2
_DOT
 10
3619.190969992222
 20
2982.250526396645
 30
0.0
 41
18.0
 42
18.0
 43
18.0
 50
90.0
  0
INSERT
  5
329E
330
3297
100
AcDbEntity
  8
DIM
 62
     0
370
    -2
100
AcDbBlockReference
  2
_DOT
 10
3619.190969992222
 20
1282.250728575552
 30
0.0
 41
18.0
 42
18.0
 43
18.0
 50
270.0
  0
MTEXT
  5
329F
330
3297
100
AcDbEntity
  8
DIM
  6
Continuous
 62
     0
100
AcDbMText
 10
3565.190969992222
 20
2132.250627486099
 30
0.0
 40
48.0
 41
0.0
 46
0.0
 71
     5
 72
     1
  1
\A1;1700
  7
ＭＳ ゴシック
 11
0.0
 21
1.0
 31
0.0
 73
     1
 44
1.0
  0
POINT
  5
32A0
330
3297
100
AcDbEntity
  8
Defpoints
 62
     0
100
AcDbPoint
 10
3296.529348254344
 20
2982.250526396645
 30
0.0
  0
POINT
  5
32A1
330
3297
100
AcDbEntity
  8
Defpoints
 62
     0
100
AcDbPoint
 10
3296.529348254344
 20
1282.250728575552
 30
0.0
  0
POINT
  5
32A2
330
3297
100
AcDbEntity
  8
Defpoints
 62
     0
100
AcDbPoint
 10
3619.190969992222
 20
1282.250728575552
 30
0.0
  0
ENDBLK
  5
3299
330
3297
100
AcDbEntity
  8
0
100
AcDbBlockEnd
  0
BLOCK
  5
32A6
330
32A5
100
AcDbEntity
  8
0
100
AcDbBlockBegin
  2
*D11
 70
     1
 10
0.0
 20
0.0
 30
0.0
  3
*D11
  1
*D46
  0
LINE
  5
32A8
330
32A5
100
AcDbEntity
  8
DIM
 62
     0
370
    -2
100
AcDbLine
 10
2686.543610460484
 20
3001.664202390205
 30
0.0
 11
2686.543610460484
 21
3299.525179314278
 31
0.0
  0
LINE
  5
32A9
330
32A5
100
AcDbEntity
  8
DIM
 62
     0
370
    -2
100
AcDbLine
 10
3296.543608553136
 20
3016.664202390205
 30
0.0
 11
3296.543608553136
 21
3299.525179314278
 31
0.0
  0
LINE
  5
32AA
330
32A5
100
AcDbEntity
  8
DIM
 62
     0
370
    -2
100
AcDbLine
 10
2704.543610460484
 20
3299.525179314278
 30
0.0
 11
3278.543608553136
 21
3299.525179314278
 31
0.0
  0
INSERT
  5
32AB
330
32A5
100
AcDbEntity
  8
DIM
 62
     0
370
    -2
100
AcDbBlockReference
  2
_DOT
 10
2686.543610460484
 20
3299.525179314278
 30
0.0
 41
18.0
 42
18.0
 43
18.0
 50
180.0
  0
INSERT
  5
32AC
330
32A5
100
AcDbEntity
  8
DIM
 62
     0
370
    -2
100
AcDbBlockReference
  2
_DOT
 10
3296.543608553136
 20
3299.525179314278
 30
0.0
 41
18.0
 42
18.0
 43
18.0
  0
MTEXT
  5
32AD
330
32A5
100
AcDbEntity
  8
DIM
  6
Continuous
 62
     0
100
AcDbMText
 10
2991.529227137718
 20
3353.525179314278
 30
0.0
 40
48.0
 41
0.0
 46
0.0
 71
     5
 72
     1
  1
\A1;610
  7
ＭＳ ゴシック
 73
     1
 44
1.0
  0
POINT
  5
32AE
330
32A5
100
AcDbEntity
  8
Defpoints
 62
     0
100
AcDbPoint
 10
2686.543610460484
 20
2976.664202390205
 30
0.0
  0
POINT
  5
32AF
330
32A5
100
AcDbEntity
  8
Defpoints
 62
     0
100
AcDbPoint
 10
3296.543608553136
 20
2991.664202390205
 30
0.0
  0
POINT
  5
32B0
330
32A5
100
AcDbEntity
  8
Defpoints
 62
     0
100
AcDbPoint
 10
3296.543608553136
 20
3299.525179314278
 30
0.0
  0
ENDBLK
  5
32A7
330
32A5
100
AcDbEntity
  8
0
100
AcDbBlockEnd
  0
BLOCK
  5
32B2
330
32B1
100
AcDbEntity
  8
0
100
AcDbBlockBegin
  2
*D12
 70
     1
 10
0.0
 20
0.0
 30
0.0
  3
*D12
  1
*D47
  0
LINE
  5
32B4
330
32B1
100
AcDbEntity
  8
DIM
 62
     0
370
    -2
100
AcDbLine
 10
2686.531301379344
 20
3001.093543974747
 30
0.0
 11
2686.531301379344
 21
3151.643315397825
 31
0.0
  0
LINE
  5
32B5
330
32B1
100
AcDbEntity
  8
DIM
 62
     0
370
    -2
100
AcDbLine
 10
3135.249929309044
 20
2641.111976591947
 30
0.0
 11
3135.249929309044
 21
3151.643315397825
 31
0.0
  0
LINE
  5
32B6
330
32B1
100
AcDbEntity
  8
DIM
 62
     0
370
    -2
100
AcDbLine
 10
2704.531301379344
 20
3151.643315397825
 30
0.0
 11
3117.249929309044
 21
3151.643315397825
 31
0.0
  0
INSERT
  5
32B7
330
32B1
100
AcDbEntity
  8
DIM
 62
     0
370
    -2
100
AcDbBlockReference
  2
_DOT
 10
2686.531301379344
 20
3151.643315397825
 30
0.0
 41
18.0
 42
18.0
 43
18.0
 50
180.0
  0
INSERT
  5
32B8
330
32B1
100
AcDbEntity
  8
DIM
 62
     0
370
    -2
100
AcDbBlockReference
  2
_DOT
 10
3135.249929309044
 20
3151.643315397825
 30
0.0
 41
18.0
 42
18.0
 43
18.0
  0
MTEXT
  5
32B9
330
32B1
100
AcDbEntity
  8
DIM
  6
Continuous
 62
     0
100
AcDbMText
 10
2929.043610460487
 20
3205.643315397825
 30
0.0
 40
48.0
 41
0.0
 46
0.0
 71
     5
 72
     1
  1
\A1;460
  7
ＭＳ ゴシック
 73
     1
 44
1.0
  0
POINT
  5
32BA
330
32B1
100
AcDbEntity
  8
Defpoints
 62
     0
100
AcDbPoint
 10
2686.531301379344
 20
2976.093543974747
 30
0.0
  0
POINT
  5
32BB
330
32B1
100
AcDbEntity
  8
Defpoints
 62
     0
100
AcDbPoint
 10
3135.249929309044
 20
2616.111976591947
 30
0.0
  0
POINT
  5
32BC
330
32B1
100
AcDbEntity
  8
Defpoints
 62
     0
100
AcDbPoint
 10
3135.249929309044
 20
3151.643315397825
 30
0.0
  0
ENDBLK
  5
32B3
330
32B1
100
AcDbEntity
  8
0
100
AcDbBlockEnd
  0
BLOCK
  5
32C1
330
32C0
100
AcDbEntity
  8
0
100
AcDbBlockBegin
  2
*D13
 70
     1
 10
0.0
 20
0.0
 30
0.0
  3
*D13
  1
*D48
  0
LINE
  5
32C3
330
32C0
100
AcDbEntity
  8
DIM
  6
Continuous
 62
     0
370
    -2
100
AcDbLine
 10
2661.529348254344
 20
1342.250648466906
 30
0.0
 11
2235.444703087308
 21
1342.250648466906
 31
0.0
  0
LINE
  5
32C4
330
32C0
100
AcDbEntity
  8
DIM
  6
Continuous
 62
     0
370
    -2
100
AcDbLine
 10
2661.529348254344
 20
2922.250648466906
 30
0.0
 11
2235.444703087308
 21
2922.250648466906
 31
0.0
  0
LINE
  5
32C5
330
32C0
100
AcDbEntity
  8
DIM
  6
Continuous
 62
     0
370
    -2
100
AcDbLine
 10
2235.444703087308
 20
1360.250648466906
 30
0.0
 11
2235.444703087308
 21
2904.250648466906
 31
0.0
  0
INSERT
  5
32C6
330
32C0
100
AcDbEntity
  8
DIM
 62
     0
370
    -2
100
AcDbBlockReference
  2
_DOT
 10
2235.444703087308
 20
1342.250648466906
 30
0.0
 41
18.0
 42
18.0
 43
18.0
 50
270.0
  0
INSERT
  5
32C7
330
32C0
100
AcDbEntity
  8
DIM
 62
     0
370
    -2
100
AcDbBlockReference
  2
_DOT
 10
2235.444703087308
 20
2922.250648466906
 30
0.0
 41
18.0
 42
18.0
 43
18.0
 50
90.0
  0
MTEXT
  5
32C8
330
32C0
100
AcDbEntity
  8
DIM
  6
Continuous
 62
     0
100
AcDbMText
 10
2181.444703087308
 20
2132.250648466906
 30
0.0
 40
48.0
 41
0.0
 46
0.0
 71
     5
 72
     1
  1
\A1;1580
  7
ＭＳ ゴシック
 11
0.0
 21
1.0
 31
0.0
 73
     1
 44
1.0
  0
POINT
  5
32C9
330
32C0
100
AcDbEntity
  8
Defpoints
 62
     0
100
AcDbPoint
 10
2686.529348254344
 20
1342.250648466906
 30
0.0
  0
POINT
  5
32CA
330
32C0
100
AcDbEntity
  8
Defpoints
 62
     0
100
AcDbPoint
 10
2686.529348254344
 20
2922.250648466906
 30
0.0
  0
POINT
  5
32CB
330
32C0
100
AcDbEntity
  8
Defpoints
 62
     0
100
AcDbPoint
 10
2235.444703087308
 20
2922.250648466906
 30
0.0
  0
ENDBLK
  5
32C2
330
32C0
100
AcDbEntity
  8
0
100
AcDbBlockEnd
  0
BLOCK
  5
32D0
330
32CF
100
AcDbEntity
  8
0
100
AcDbBlockBegin
  2
*D14
 70
     1
 10
0.0
 20
0.0
 30
0.0
  3
*D14
  1
*D49
  0
LINE
  5
32D2
330
32CF
100
AcDbEntity
  8
DIM
  6
Continuous
 62
     0
370
    -2
100
AcDbLine
 10
2661.529348254344
 20
1567.250648466906
 30
0.0
 11
2424.110932151476
 21
1567.250648466906
 31
0.0
  0
LINE
  5
32D3
330
32CF
100
AcDbEntity
  8
DIM
  6
Continuous
 62
     0
370
    -2
100
AcDbLine
 10
2661.529348254344
 20
2697.250648466906
 30
0.0
 11
2424.110932151476
 21
2697.250648466906
 31
0.0
  0
LINE
  5
32D4
330
32CF
100
AcDbEntity
  8
DIM
  6
Continuous
 62
     0
370
    -2
100
AcDbLine
 10
2424.110932151476
 20
1585.250648466906
 30
0.0
 11
2424.110932151476
 21
2679.250648466906
 31
0.0
  0
INSERT
  5
32D5
330
32CF
100
AcDbEntity
  8
DIM
 62
     0
370
    -2
100
AcDbBlockReference
  2
_DOT
 10
2424.110932151476
 20
1567.250648466906
 30
0.0
 41
18.0
 42
18.0
 43
18.0
 50
270.0
  0
INSERT
  5
32D6
330
32CF
100
AcDbEntity
  8
DIM
 62
     0
370
    -2
100
AcDbBlockReference
  2
_DOT
 10
2424.110932151476
 20
2697.250648466906
 30
0.0
 41
18.0
 42
18.0
 43
18.0
 50
90.0
  0
MTEXT
  5
32D7
330
32CF
100
AcDbEntity
  8
DIM
  6
Continuous
 62
     0
100
AcDbMText
 10
2370.110932151476
 20
2132.250648466906
 30
0.0
 40
48.0
 41
0.0
 46
0.0
 71
     5
 72
     1
  1
\A1;1130
  7
ＭＳ ゴシック
 11
0.0
 21
1.0
 31
0.0
 73
     1
 44
1.0
  0
POINT
  5
32D8
330
32CF
100
AcDbEntity
  8
Defpoints
 62
     0
100
AcDbPoint
 10
2686.529348254344
 20
1567.250648466906
 30
0.0
  0
POINT
  5
32D9
330
32CF
100
AcDbEntity
  8
Defpoints
 62
     0
100
AcDbPoint
 10
2686.529348254344
 20
2697.250648466906
 30
0.0
  0
POINT
  5
32DA
330
32CF
100
AcDbEntity
  8
Defpoints
 62
     0
100
AcDbPoint
 10
2424.110932151476
 20
2697.250648466906
 30
0.0
  0
ENDBLK
  5
32D1
330
32CF
100
AcDbEntity
  8
0
100
AcDbBlockEnd
  0
BLOCK
  5
32DF
330
32DE
100
AcDbEntity
  8
0
100
AcDbBlockBegin
  2
*D15
 70
     1
 10
0.0
 20
0.0
 30
0.0
  3
*D15
  1
*D50
  0
LINE
  5
32E1
330
32DE
100
AcDbEntity
  8
DIM
  6
Continuous
 62
     0
370
    -2
100
AcDbLine
 10
863.7295032370894
 20
2632.250505415839
 30
0.0
 11
863.7295032370894
 21
3151.643315397825
 31
0.0
  0
LINE
  5
32E2
330
32DE
100
AcDbEntity
  8
DIM
  6
Continuous
 62
     0
370
    -2
100
AcDbLine
 10
1613.72935064917
 20
2632.250505415839
 30
0.0
 11
1613.72935064917
 21
3151.643315397825
 31
0.0
  0
LINE
  5
32E3
330
32DE
100
AcDbEntity
  8
DIM
  6
Continuous
 62
     0
370
    -2
100
AcDbLine
 10
881.7295032370894
 20
3151.643315397825
 30
0.0
 11
1595.72935064917
 21
3151.643315397825
 31
0.0
  0
INSERT
  5
32E4
330
32DE
100
AcDbEntity
  8
DIM
 62
     0
370
    -2
100
AcDbBlockReference
  2
_DOT
 10
863.7295032370894
 20
3151.643315397825
 30
0.0
 41
18.0
 42
18.0
 43
18.0
 50
180.0
  0
INSERT
  5
32E5
330
32DE
100
AcDbEntity
  8
DIM
 62
     0
370
    -2
100
AcDbBlockReference
  2
_DOT
 10
1613.72935064917
 20
3151.643315397825
 30
0.0
 41
18.0
 42
18.0
 43
18.0
  0
MTEXT
  5
32E6
330
32DE
100
AcDbEntity
  8
DIM
  6
Continuous
 62
     0
100
AcDbMText
 10
1238.72942694313
 20
3205.643315397825
 30
0.0
 40
48.0
 41
0.0
 46
0.0
 71
     5
 72
     1
  1
\A1;750
  7
ＭＳ ゴシック
 73
     1
 44
1.0
  0
POINT
  5
32E7
330
32DE
100
AcDbEntity
  8
Defpoints
 62
     0
100
AcDbPoint
 10
863.7295032370894
 20
2607.250505415839
 30
0.0
  0
POINT
  5
32E8
330
32DE
100
AcDbEntity
  8
Defpoints
 62
     0
100
AcDbPoint
 10
1613.72935064917
 20
2607.250505415839
 30
0.0
  0
POINT
  5
32E9
330
32DE
100
AcDbEntity
  8
Defpoints
 62
     0
100
AcDbPoint
 10
1613.72935064917
 20
3151.643315397825
 30
0.0
  0
ENDBLK
  5
32E0
330
32DE
100
AcDbEntity
  8
0
100
AcDbBlockEnd
  0
BLOCK
  5
32FF
330
32FE
100
AcDbEntity
  8
0
100
AcDbBlockBegin
  2
*D16
 70
     1
 10
0.0
 20
0.0
 30
0.0
  3
*D16
  1
*D52
  0
LINE
  5
3301
330
32FE
100
AcDbEntity
  8
DIM
  6
Continuous
 62
     0
370
    -2
100
AcDbLine
 10
1188.72938116675
 20
2157.250606505292
 30
0.0
 11
1188.72938116675
 21
2237.200898943206
 31
0.0
  0
LINE
  5
3302
330
32FE
100
AcDbEntity
  8
DIM
  6
Continuous
 62
     0
370
    -2
100
AcDbLine
 10
1288.72938116675
 20
2157.250606505292
 30
0.0
 11
1288.72938116675
 21
2237.200898943206
 31
0.0
  0
LINE
  5
3303
330
32FE
100
AcDbEntity
  8
DIM
  6
Continuous
 62
     0
370
    -2
100
AcDbLine
 10
1206.72938116675
 20
2237.200898943206
 30
0.0
 11
1270.72938116675
 21
2237.200898943206
 31
0.0
  0
INSERT
  5
3304
330
32FE
100
AcDbEntity
  8
DIM
 62
     0
370
    -2
100
AcDbBlockReference
  2
_DOT
 10
1188.72938116675
 20
2237.200898943206
 30
0.0
 41
18.0
 42
18.0
 43
18.0
 50
180.0
  0
INSERT
  5
3305
330
32FE
100
AcDbEntity
  8
DIM
 62
     0
370
    -2
100
AcDbBlockReference
  2
_DOT
 10
1288.72938116675
 20
2237.200898943206
 30
0.0
 41
18.0
 42
18.0
 43
18.0
  0
MTEXT
  5
3306
330
32FE
100
AcDbEntity
  8
DIM
  6
Continuous
 62
     0
100
AcDbMText
 10
1238.72938116675
 20
2293.000898943206
 30
0.0
 40
48.0
 41
0.0
 46
0.0
 71
     5
 72
     1
  1
\A1;%%c100
  7
ＭＳ ゴシック
 73
     1
 44
1.0
  0
POINT
  5
3307
330
32FE
100
AcDbEntity
  8
Defpoints
 62
     0
100
AcDbPoint
 10
1188.72938116675
 20
2132.250606505292
 30
0.0
  0
POINT
  5
3308
330
32FE
100
AcDbEntity
  8
Defpoints
 62
     0
100
AcDbPoint
 10
1288.72938116675
 20
2132.250606505292
 30
0.0
  0
POINT
  5
3309
330
32FE
100
AcDbEntity
  8
Defpoints
 62
     0
100
AcDbPoint
 10
1288.72938116675
 20
2237.200898943206
 30
0.0
  0
ENDBLK
  5
3300
330
32FE
100
AcDbEntity
  8
0
100
AcDbBlockEnd
  0
BLOCK
  5
330B
330
330A
100
AcDbEntity
  8
0
100
AcDbBlockBegin
  2
*D17
 70
     1
 10
0.0
 20
0.0
 30
0.0
  3
*D17
  1
*D53
  0
LINE
  5
330D
330
330A
100
AcDbEntity
  8
DIM
  6
Continuous
 62
     0
370
    -2
100
AcDbLine
 10
1212.729384981447
 20
2107.250606505292
 30
0.0
 11
1212.729384981447
 21
2041.470338699034
 31
0.0
  0
LINE
  5
330E
330
330A
100
AcDbEntity
  8
DIM
  6
Continuous
 62
     0
370
    -2
100
AcDbLine
 10
1264.729377352052
 20
2107.250606505292
 30
0.0
 11
1264.729377352052
 21
2041.470338699034
 31
0.0
  0
LINE
  5
330F
330
330A
100
AcDbEntity
  8
DIM
  6
Continuous
 62
     0
370
    -2
100
AcDbLine
 10
1230.729384981447
 20
2041.470338699034
 30
0.0
 11
1246.729377352052
 21
2041.470338699034
 31
0.0
  0
INSERT
  5
3310
330
330A
100
AcDbEntity
  8
DIM
 62
     0
370
    -2
100
AcDbBlockReference
  2
_DOT
 10
1212.729384981447
 20
2041.470338699034
 30
0.0
 41
18.0
 42
18.0
 43
18.0
 50
180.0
  0
INSERT
  5
3311
330
330A
100
AcDbEntity
  8
DIM
 62
     0
370
    -2
100
AcDbBlockReference
  2
_DOT
 10
1264.729377352052
 20
2041.470338699034
 30
0.0
 41
18.0
 42
18.0
 43
18.0
  0
MTEXT
  5
3312
330
330A
100
AcDbEntity
  8
DIM
  6
Continuous
 62
     0
100
AcDbMText
 10
1240.013563709097
 20
1985.670338699034
 30
0.0
 40
48.0
 41
0.0
 46
0.0
 71
     5
 72
     1
  1
\A1;%%c52
  7
ＭＳ ゴシック
 73
     1
 44
1.0
  0
POINT
  5
3313
330
330A
100
AcDbEntity
  8
Defpoints
 62
     0
100
AcDbPoint
 10
1212.729384981447
 20
2132.250606505292
 30
0.0
  0
POINT
  5
3314
330
330A
100
AcDbEntity
  8
Defpoints
 62
     0
100
AcDbPoint
 10
1264.729377352052
 20
2132.250606505292
 30
0.0
  0
POINT
  5
3315
330
330A
100
AcDbEntity
  8
Defpoints
 62
     0
100
AcDbPoint
 10
1264.729377352052
 20
2041.470338699034
 30
0.0
  0
ENDBLK
  5
330C
330
330A
100
AcDbEntity
  8
0
100
AcDbBlockEnd
  0
BLOCK
  5
334C
330
334B
100
AcDbEntity
  8
0
100
AcDbBlockBegin
  2
*D18
 70
     1
 10
0.0
 20
0.0
 30
0.0
  3
*D18
  1
*D55
  0
LINE
  5
334E
330
334B
100
AcDbEntity
  8
DIM
 62
     0
370
    -2
100
AcDbLine
 10
2779.529342532297
 20
2157.250627486093
 30
0.0
 11
2779.529342532297
 21
2302.325177824202
 31
0.0
  0
LINE
  5
334F
330
334B
100
AcDbEntity
  8
DIM
 62
     0
370
    -2
100
AcDbLine
 10
2686.529346346995
 20
2157.250604597937
 30
0.0
 11
2686.529346346995
 21
2302.325177824202
 31
0.0
  0
LINE
  5
3350
330
334B
100
AcDbEntity
  8
DIM
 62
     0
370
    -2
100
AcDbLine
 10
2779.529342532297
 20
2302.325177824202
 30
0.0
 11
3094.721342532297
 21
2302.325177824202
 31
0.0
  0
LINE
  5
3351
330
334B
100
AcDbEntity
  8
DIM
 62
     0
370
    -2
100
AcDbLine
 10
2761.529342532297
 20
2302.325177824202
 30
0.0
 11
2704.529346346995
 21
2302.325177824202
 31
0.0
  0
INSERT
  5
3352
330
334B
100
AcDbEntity
  8
DIM
 62
     0
370
    -2
100
AcDbBlockReference
  2
_DOT
 10
2779.529342532297
 20
2302.325177824202
 30
0.0
 41
18.0
 42
18.0
 43
18.0
  0
INSERT
  5
3353
330
334B
100
AcDbEntity
  8
DIM
 62
     0
370
    -2
100
AcDbBlockReference
  2
_DOT
 10
2686.529346346995
 20
2302.325177824202
 30
0.0
 41
18.0
 42
18.0
 43
18.0
 50
180.0
  0
MTEXT
  5
3354
330
334B
100
AcDbEntity
  8
DIM
  6
Continuous
 62
     0
100
AcDbMText
 10
2964.425342532297
 20
2360.333177824202
 30
0.0
 40
48.0
 41
0.0
 46
0.0
 71
     5
 72
     1
  1
\A1;93(※1)
  7
ＭＳ ゴシック
 73
     1
 44
1.0
  0
POINT
  5
3355
330
334B
100
AcDbEntity
  8
Defpoints
 62
     0
100
AcDbPoint
 10
2779.529342532297
 20
2132.250627486093
 30
0.0
  0
POINT
  5
3356
330
334B
100
AcDbEntity
  8
Defpoints
 62
     0
100
AcDbPoint
 10
2686.529346346995
 20
2132.250604597937
 30
0.0
  0
POINT
  5
3357
330
334B
100
AcDbEntity
  8
Defpoints
 62
     0
100
AcDbPoint
 10
2686.529346346995
 20
2302.325177824202
 30
0.0
  0
ENDBLK
  5
334D
330
334B
100
AcDbEntity
  8
0
100
AcDbBlockEnd
  0
BLOCK
  5
3359
330
3358
100
AcDbEntity
  8
0
100
AcDbBlockBegin
  2
*D19
 70
     1
 10
0.0
 20
0.0
 30
0.0
  3
*D19
  1
*D56
  0
LINE
  5
335B
330
3358
100
AcDbEntity
  8
DIM
 62
     0
370
    -2
100
AcDbLine
 10
2731.529226184043
 20
2106.25063130079
 30
0.0
 11
2643.356147960752
 21
2106.25063130079
 31
0.0
  0
LINE
  5
335C
330
3358
100
AcDbEntity
  8
DIM
 62
     0
370
    -2
100
AcDbLine
 10
2731.529226184043
 20
2158.250623671397
 30
0.0
 11
2643.356147960752
 21
2158.250623671397
 31
0.0
  0
LINE
  5
335D
330
3358
100
AcDbEntity
  8
DIM
 62
     0
370
    -2
100
AcDbLine
 10
2643.356147960752
 20
2124.25063130079
 30
0.0
 11
2643.356147960752
 21
2140.250623671397
 31
0.0
  0
INSERT
  5
335E
330
3358
100
AcDbEntity
  8
DIM
 62
     0
370
    -2
100
AcDbBlockReference
  2
_DOT
 10
2643.356147960752
 20
2106.25063130079
 30
0.0
 41
18.0
 42
18.0
 43
18.0
 50
270.0
  0
INSERT
  5
335F
330
3358
100
AcDbEntity
  8
DIM
 62
     0
370
    -2
100
AcDbBlockReference
  2
_DOT
 10
2643.356147960752
 20
2158.250623671397
 30
0.0
 41
18.0
 42
18.0
 43
18.0
 50
90.0
  0
MTEXT
  5
3360
330
3358
100
AcDbEntity
  8
DIM
  6
Continuous
 62
     0
100
AcDbMText
 10
2587.556147960752
 20
2132.250627486093
 30
0.0
 40
48.0
 41
0.0
 46
0.0
 71
     5
 72
     1
  1
\A1;%%c52
  7
ＭＳ ゴシック
 11
0.0
 21
1.0
 31
0.0
 73
     1
 44
1.0
  0
POINT
  5
3361
330
3358
100
AcDbEntity
  8
Defpoints
 62
     0
100
AcDbPoint
 10
2756.529226184043
 20
2106.25063130079
 30
0.0
  0
POINT
  5
3362
330
3358
100
AcDbEntity
  8
Defpoints
 62
     0
100
AcDbPoint
 10
2756.529226184043
 20
2158.250623671397
 30
0.0
  0
POINT
  5
3363
330
3358
100
AcDbEntity
  8
Defpoints
 62
     0
100
AcDbPoint
 10
2643.356147960752
 20
2158.250623671397
 30
0.0
  0
ENDBLK
  5
335A
330
3358
100
AcDbEntity
  8
0
100
AcDbBlockEnd
  0
BLOCK
  5
3369
330
3368
100
AcDbEntity
  8
0
100
AcDbBlockBegin
  2
*D20
 70
     1
 10
0.0
 20
0.0
 30
0.0
  3
*D20
  1
*D57
  0
LINE
  5
336B
330
3368
100
AcDbEntity
  8
DIM
  6
Continuous
 62
     0
370
    -2
100
AcDbLine
 10
1288.72938116675
 20
2982.250505415838
 30
0.0
 11
1804.891876336303
 21
2982.250505415838
 31
0.0
  0
LINE
  5
336C
330
3368
100
AcDbEntity
  8
DIM
  6
Continuous
 62
     0
370
    -2
100
AcDbLine
 10
1638.72935064917
 20
2132.250627486099
 30
0.0
 11
1804.891876336303
 21
2132.250627486099
 31
0.0
  0
LINE
  5
336D
330
3368
100
AcDbEntity
  8
DIM
  6
Continuous
 62
     0
370
    -2
100
AcDbLine
 10
1804.891876336303
 20
2964.250505415838
 30
0.0
 11
1804.891876336303
 21
2150.250627486099
 31
0.0
  0
INSERT
  5
336E
330
3368
100
AcDbEntity
  8
DIM
 62
     0
370
    -2
100
AcDbBlockReference
  2
_DOT
 10
1804.891876336303
 20
2982.250505415838
 30
0.0
 41
18.0
 42
18.0
 43
18.0
 50
90.0
  0
INSERT
  5
336F
330
3368
100
AcDbEntity
  8
DIM
 62
     0
370
    -2
100
AcDbBlockReference
  2
_DOT
 10
1804.891876336303
 20
2132.250627486099
 30
0.0
 41
18.0
 42
18.0
 43
18.0
 50
270.0
  0
MTEXT
  5
3370
330
3368
100
AcDbEntity
  8
DIM
  6
Continuous
 62
     0
100
AcDbMText
 10
1750.891876336303
 20
2557.250566450969
 30
0.0
 40
48.0
 41
0.0
 46
0.0
 71
     5
 72
     1
  1
\A1;850
  7
ＭＳ ゴシック
 11
0.0
 21
1.0
 31
0.0
 73
     1
 44
1.0
  0
POINT
  5
3371
330
3368
100
AcDbEntity
  8
Defpoints
 62
     0
100
AcDbPoint
 10
1263.72938116675
 20
2982.250505415838
 30
0.0
  0
POINT
  5
3372
330
3368
100
AcDbEntity
  8
Defpoints
 62
     0
100
AcDbPoint
 10
1613.72935064917
 20
2132.250627486099
 30
0.0
  0
POINT
  5
3373
330
3368
100
AcDbEntity
  8
Defpoints
 62
     0
100
AcDbPoint
 10
1804.891876336303
 20
2132.250627486099
 30
0.0
  0
ENDBLK
  5
336A
330
3368
100
AcDbEntity
  8
0
100
AcDbBlockEnd
  0
BLOCK
  5
3502
330
3501
100
AcDbEntity
  8
0
100
AcDbBlockBegin
  2
*D21
 70
     1
 10
0.0
 20
0.0
 30
0.0
  3
*D21
  1
*D28
  0
LINE
  5
3504
330
3501
100
AcDbEntity
  8
notes
  6
Continuous
 62
     0
370
    -2
100
AcDbLine
 10
1037.48786871389
 20
2982.250505415838
 30
0.0
 11
513.7296556491698
 21
2982.250505415838
 31
0.0
  0
LINE
  5
3505
330
3501
100
AcDbEntity
  8
notes
  6
Continuous
 62
     0
370
    -2
100
AcDbLine
 10
1142.736736723884
 20
1282.251203415839
 30
0.0
 11
513.7296556491697
 21
1282.251203415839
 31
0.0
  0
LINE
  5
3506
330
3501
100
AcDbEntity
  8
notes
  6
Continuous
 62
     0
370
    -2
100
AcDbLine
 10
513.7296556491698
 20
2974.250993697088
 30
0.0
 11
513.7296556491697
 21
1290.250715134589
 31
0.0
  0
INSERT
  5
3507
330
3501
100
AcDbEntity
  8
notes
 62
     0
370
    -2
100
AcDbBlockReference
  2
_DOT
 10
513.7296556491698
 20
2982.250505415838
 30
0.0
 41
7.99951171875
 42
7.99951171875
 43
7.99951171875
 50
90.0
  0
INSERT
  5
3508
330
3501
100
AcDbEntity
  8
notes
 62
     0
370
    -2
100
AcDbBlockReference
  2
_DOT
 10
513.7296556491697
 20
1282.251203415839
 30
0.0
 41
7.99951171875
 42
7.99951171875
 43
7.99951171875
 50
270.0
  0
MTEXT
  5
3509
330
3501
100
AcDbEntity
  8
notes
  6
Continuous
 62
     0
370
     5
100
AcDbMText
 10
479.2970384616697
 20
2132.250854415838
 30
0.0
 40
48.86523437500001
 41
0.0
 46
0.0
 71
     5
 72
     1
  1
\A1;1700
  7
ＭＳ ゴシック
 11
6.687463788241962E-17
 21
1.0
 31
0.0
 73
     1
 44
1.0
  0
POINT
  5
350A
330
3501
100
AcDbEntity
  8
Defpoints
 62
     0
100
AcDbPoint
 10
1087.48786871389
 20
2982.250505415838
 30
0.0
  0
POINT
  5
350B
330
3501
100
AcDbEntity
  8
Defpoints
 62
     0
100
AcDbPoint
 10
1192.736736723884
 20
1282.251203415839
 30
0.0
  0
POINT
  5
350C
330
3501
100
AcDbEntity
  8
Defpoints
 62
     0
100
AcDbPoint
 10
513.7296556491697
 20
1282.251203415839
 30
0.0
  0
ENDBLK
  5
3503
330
3501
100
AcDbEntity
  8
0
100
AcDbBlockEnd
  0
BLOCK
  5
350E
330
350D
100
AcDbEntity
  8
0
100
AcDbBlockBegin
  2
*D22
 70
     1
 10
0.0
 20
0.0
 30
0.0
  3
*D22
  1
*D29
  0
LINE
  5
3510
330
350D
100
AcDbEntity
  8
FLN72-6311
  6
Continuous
 62
     0
370
    -2
100
AcDbLine
 10
1037.48786871389
 20
2982.250505415838
 30
0.0
 11
738.6366940272496
 21
2982.250505415838
 31
0.0
  0
LINE
  5
3511
330
350D
100
AcDbEntity
  8
FLN72-6311
  6
Continuous
 62
     0
370
    -2
100
AcDbLine
 10
836.7296556491697
 20
2274.250505415838
 30
0.0
 11
738.6366940272496
 21
2274.250505415838
 31
0.0
  0
LINE
  5
3512
330
350D
100
AcDbEntity
  8
FLN72-6311
  6
Continuous
 62
     0
370
    -2
100
AcDbLine
 10
738.6366940272496
 20
2974.250993697088
 30
0.0
 11
738.6366940272496
 21
2282.250017134588
 31
0.0
  0
INSERT
  5
3513
330
350D
100
AcDbEntity
  8
FLN72-6311
 62
     0
370
    -2
100
AcDbBlockReference
  2
_DOT
 10
738.6366940272496
 20
2982.250505415838
 30
0.0
 41
7.99951171875
 42
7.99951171875
 43
7.99951171875
 50
90.0
  0
INSERT
  5
3514
330
350D
100
AcDbEntity
  8
FLN72-6311
 62
     0
370
    -2
100
AcDbBlockReference
  2
_DOT
 10
738.6366940272496
 20
2274.250505415838
 30
0.0
 41
7.99951171875
 42
7.99951171875
 43
7.99951171875
 50
270.0
  0
MTEXT
  5
3515
330
350D
100
AcDbEntity
  8
FLN72-6311
  6
Continuous
 62
     0
370
     0
100
AcDbMText
 10
699.2040768397496
 20
2628.250505415838
 30
0.0
 40
48.86523437500001
 41
0.0
 46
0.0
 71
     5
 72
     1
  1
\A1;708
  7
ＭＳ ゴシック
 11
0.0
 21
1.0
 31
0.0
 73
     1
 44
1.0
  0
POINT
  5
3516
330
350D
100
AcDbEntity
  8
Defpoints
 62
     0
100
AcDbPoint
 10
1087.48786871389
 20
2982.250505415838
 30
0.0
  0
POINT
  5
3517
330
350D
100
AcDbEntity
  8
Defpoints
 62
     0
100
AcDbPoint
 10
886.7296556491697
 20
2274.250505415838
 30
0.0
  0
POINT
  5
3518
330
350D
100
AcDbEntity
  8
Defpoints
 62
     0
100
AcDbPoint
 10
738.6366940272496
 20
2274.250505415838
 30
0.0
  0
ENDBLK
  5
350F
330
350D
100
AcDbEntity
  8
0
100
AcDbBlockEnd
  0
BLOCK
  5
351A
330
3519
100
AcDbEntity
  8
0
100
AcDbBlockBegin
  2
*D23
 70
     1
 10
0.0
 20
0.0
 30
0.0
  3
*D23
  1
*D30
  0
LINE
  5
351C
330
3519
100
AcDbEntity
  8
FLN72-6311
  6
Continuous
 62
     0
370
    -2
100
AcDbLine
 10
1137.48786871389
 20
2982.250505415838
 30
0.0
 11
630.7388428823775
 21
2982.250505415838
 31
0.0
  0
LINE
  5
351D
330
3519
100
AcDbEntity
  8
FLN72-6311
  6
Continuous
 62
     0
370
    -2
100
AcDbLine
 10
836.7296556491697
 20
1990.250505415838
 30
0.0
 11
630.7388428823774
 21
1990.250505415838
 31
0.0
  0
LINE
  5
351E
330
3519
100
AcDbEntity
  8
FLN72-6311
  6
Continuous
 62
     0
370
    -2
100
AcDbLine
 10
630.7388428823775
 20
2974.250993697088
 30
0.0
 11
630.7388428823774
 21
1998.250017134588
 31
0.0
  0
INSERT
  5
351F
330
3519
100
AcDbEntity
  8
FLN72-6311
 62
     0
370
    -2
100
AcDbBlockReference
  2
_DOT
 10
630.7388428823775
 20
2982.250505415838
 30
0.0
 41
7.99951171875
 42
7.99951171875
 43
7.99951171875
 50
90.0
  0
INSERT
  5
3520
330
3519
100
AcDbEntity
  8
FLN72-6311
 62
     0
370
    -2
100
AcDbBlockReference
  2
_DOT
 10
630.7388428823774
 20
1990.250505415838
 30
0.0
 41
7.99951171875
 42
7.99951171875
 43
7.99951171875
 50
270.0
  0
MTEXT
  5
3521
330
3519
100
AcDbEntity
  8
FLN72-6311
  6
Continuous
 62
     0
370
     0
100
AcDbMText
 10
591.3062256948774
 20
2486.250505415838
 30
0.0
 40
48.86523437500001
 41
0.0
 46
0.0
 71
     5
 72
     1
  1
\A1;992
  7
ＭＳ ゴシック
 11
1.146036670580807E-16
 21
1.0
 31
0.0
 73
     1
 44
1.0
  0
POINT
  5
3522
330
3519
100
AcDbEntity
  8
Defpoints
 62
     0
100
AcDbPoint
 10
1187.48786871389
 20
2982.250505415838
 30
0.0
  0
POINT
  5
3523
330
3519
100
AcDbEntity
  8
Defpoints
 62
     0
100
AcDbPoint
 10
886.7296556491697
 20
1990.250505415838
 30
0.0
  0
POINT
  5
3524
330
3519
100
AcDbEntity
  8
Defpoints
 62
     0
100
AcDbPoint
 10
630.7388428823774
 20
1990.250505415838
 30
0.0
  0
ENDBLK
  5
351B
330
3519
100
AcDbEntity
  8
0
100
AcDbBlockEnd
  0
ENDSEC
  0
SECTION
  2
ENTITIES
  0
MTEXT
  5
177
330
A
100
AcDbEntity
  8
TEMPLATE
390
1D
100
AcDbMText
 10
158.5094110653718
 20
697.5697439524535
 30
0.0
 40
32.57682291666666
 41
0.0
 46
0.0
 71
     1
 72
     1
  1
品名
  7
ＭＳ ゴシック
 73
     1
 44
0.7828267384257843
  0
MTEXT
  5
178
330
A
100
AcDbEntity
  8
TEMPLATE
390
1D
100
AcDbMText
 10
158.5094110653718
 20
527.5697439524531
 30
0.0
 40
32.57682291666666
 41
0.0
 46
0.0
 71
     1
 72
     1
  1
仕様
  7
ＭＳ ゴシック
 73
     1
 44
0.7828267384257843
  0
LINE
  5
179
330
A
100
AcDbEntity
  8
TEMPLATE
390
1D
100
AcDbLine
 10
4044.509411064408
 20
544.3995877024532
 30
0.0
 11
144.5094110644077
 21
544.3995877024532
 31
0.0
  0
LWPOLYLINE
  5
17A
330
A
100
AcDbEntity
  8
TEMPLATE
390
1D
100
AcDbPolyline
 90
        5
 70
   128
 43
0.0
 10
4044.509411064408
 20
5804.399587702454
 10
144.5094110644077
 20
5804.399587702454
 10
144.5094110644077
 20
204.3995877024531
 10
4044.509411064408
 20
204.3995877024531
 10
4044.509411064408
 20
5804.399587702454
  0
LINE
  5
17B
330
A
100
AcDbEntity
  8
TEMPLATE
390
1D
100
AcDbLine
 10
4044.509411064408
 20
714.399587702453
 30
0.0
 11
144.5094110644077
 21
714.399587702453
 31
0.0
  0
LINE
  5
17C
330
A
100
AcDbEntity
  8
TEMPLATE
390
1D
100
AcDbLine
 10
4044.509411065372
 20
374.3995877024532
 30
0.0
 11
2538.509411065372
 21
374.3995877024532
 31
0.0
  0
MTEXT
  5
17D
330
A
100
AcDbEntity
  8
TEMPLATE
390
1D
100
AcDbMText
 10
144.5094110657792
 20
180.6919435887389
 30
0.0
 40
43.4357638888889
 41
0.0
 46
43.4357638888889
 71
     1
 72
     1
  1
{151224N}
  7
ＭＳ ゴシック
 73
     1
 44
0.7828267384257843
1001
ACAD
1000
ACAD_MTEXT_DEFINED_HEIGHT_BEGIN
1070
    46
1040
43.4357638888889
1000
ACAD_MTEXT_DEFINED_HEIGHT_END
  0
MTEXT
  5
17E
330
A
100
AcDbEntity
  8
TEMPLATE
390
1D
100
AcDbMText
 10
2598.252223569894
 20
314.5787987558371
 30
0.0
 40
48.865234375
 41
0.0
 46
0.0
 71
     1
 72
     1
  1
大洋金物株式会社 ティーフォルム事業部
  7
ＭＳ ゴシック
 73
     1
 44
0.7828267384257843
  0
MTEXT
  5
180
330
A
100
AcDbEntity
  8
TEMPLATE
390
1D
100
AcDbMText
 10
3662.509411065892
 20
470.404822077453
 30
0.0
 40
48.865234375
 41
0.0
 46
24.4326171875
 71
     1
 72
     1
  1
{1:20}
  7
ＭＳ ゴシック
 73
     1
 44
0.7828267384257843
1001
ACAD
1000
ACAD_MTEXT_DEFINED_HEIGHT_BEGIN
1070
    46
1040
24.4326171875
1000
ACAD_MTEXT_DEFINED_HEIGHT_END
  0
MTEXT
  5
181
330
A
100
AcDbEntity
  8
TEMPLATE
390
1D
100
AcDbMText
 10
3556.509411065892
 20
527.5697439524531
 30
0.0
 40
32.57682291666666
 41
0.0
 46
0.0
 71
     1
 72
     1
  1
縮尺
  7
ＭＳ ゴシック
 73
     1
 44
0.7828267384257843
  0
LINE
  5
182
330
A
100
AcDbEntity
  8
TEMPLATE
390
1D
100
AcDbLine
 10
3542.509411065892
 20
374.3995877024532
 30
0.0
 11
3542.509411065892
 21
544.3995877024532
 31
0.0
  0
MTEXT
  5
183
330
A
100
AcDbEntity
  8
TEMPLATE
390
1D
100
AcDbMText
 10
3054.509411065892
 20
527.5697439524531
 30
0.0
 40
32.57682291666666
 41
0.0
 46
0.0
 71
     1
 72
     1
  1
容量
  7
ＭＳ ゴシック
 73
     1
 44
0.7828267384257843
  0
LINE
  5
184
330
A
100
AcDbEntity
  8
TEMPLATE
390
1D
100
AcDbLine
 10
3040.509411065892
 20
374.3995877024532
 30
0.0
 11
3040.509411065892
 21
544.3995877024532
 31
0.0
  0
MTEXT
  5
185
330
A
100
AcDbEntity
  8
TEMPLATE
390
1D
100
AcDbMText
 10
2552.509411065892
 20
697.5697439524535
 30
0.0
 40
32.57682291666666
 41
0.0
 46
0.0
 71
     1
 72
     1
  1
品番
  7
ＭＳ ゴシック
 73
     1
 44
0.7828267384257843
  0
MTEXT
  5
186
330
A
100
AcDbEntity
  8
TEMPLATE
390
1D
100
AcDbMText
 10
2552.509411065892
 20
527.5697439524531
 30
0.0
 40
32.57682291666666
 41
0.0
 46
0.0
 71
     1
 72
     1
  1
重量
  7
ＭＳ ゴシック
 73
     1
 44
0.7828267384257843
  0
MTEXT
  5
187
330
A
100
AcDbEntity
  8
TEMPLATE
390
1D
100
AcDbMText
 10
2658.509411065892
 20
640.404822077453
 30
0.0
 40
48.865234375
 41
0.0
 46
48.865234375
 71
     1
 72
     1
  1
{FLN72-6022}
  7
ＭＳ ゴシック
 73
     1
 44
0.7828267384257843
1001
ACAD
1000
ACAD_MTEXT_DEFINED_HEIGHT_BEGIN
1070
    46
1040
48.865234375
1000
ACAD_MTEXT_DEFINED_HEIGHT_END
  0
LINE
  5
188
330
A
100
AcDbEntity
  8
TEMPLATE
390
1D
100
AcDbLine
 10
2538.509411065892
 20
204.3995877024531
 30
0.0
 11
2538.509411065892
 21
714.399587702453
 31
0.0
  0
MTEXT
  5
189
330
A
100
AcDbEntity
  8
TEMPLATE
390
1D
100
AcDbMText
 10
264.5094110653717
 20
640.404822077453
 30
0.0
 40
48.865234375
 41
0.0
 46
55.071119140625
 71
     1
 72
     1
  1
{鋼板ホーローバス -KALDEWEI,Meisterstück Centro Duo Oval-}
  7
ＭＳ ゴシック
 73
     1
 44
0.7828267384257843
1001
ACAD
1000
ACAD_MTEXT_DEFINED_HEIGHT_BEGIN
1070
    46
1040
55.071119140625
1000
ACAD_MTEXT_DEFINED_HEIGHT_END
  0
MTEXT
  5
18A
330
A
100
AcDbEntity
  8
TEMPLATE
390
1D
100
AcDbMText
 10
264.5094110653717
 20
509.5733518788759
 30
0.0
 40
48.865234375
 41
0.0
 46
263.629768757321
 71
     1
 72
     1
  1
{フリースタンディング/イージークリーンフィニッシュ付き/排水金具付属/\P本体、エプロン: ホーロー/\Pホワイト}
  7
ＭＳ ゴシック
 73
     1
 44
1.304711230709641
1001
ACAD
1000
ACAD_MTEXT_DEFINED_HEIGHT_BEGIN
1070
    46
1040
263.629768757321
1000
ACAD_MTEXT_DEFINED_HEIGHT_END
  0
INSERT
  5
3D0
330
A
100
AcDbEntity
  8
TEMPLATE
100
AcDbBlockReference
  2
名称未設定-1
 10
3741.627912174218
 20
61.99977220290424
 30
0.0
 41
1.524
 42
1.524
 43
1.524
  0
MTEXT
  5
C6B
330
A
100
AcDbEntity
  8
TEMPLATE
390
1D
100
AcDbMText
 10
3160.509411065892
 20
470.404822077453
 30
0.0
 40
48.865234375
 41
0.0
 46
48.865234375
 71
     1
 72
     1
  1
{226L}
  7
ＭＳ ゴシック
 73
     1
 44
0.7828267384257843
1001
ACAD
1000
ACAD_MTEXT_DEFINED_HEIGHT_BEGIN
1070
    46
1040
48.865234375
1000
ACAD_MTEXT_DEFINED_HEIGHT_END
  0
LEADER
  5
16F1
102
{ACAD_XDICTIONARY
360
16F2
102
}
330
A
100
AcDbEntity
  8
DIM
  6
Continuous
100
AcDbLeader
  3
JIS
 76
     3
 10
1551.156712022529
 20
2130.703671629873
 30
0.0
 10
1746.848905116686
 20
1951.270526199227
 30
0.0
 10
1746.848905116686
 20
1502.705323128066
 30
0.0
1001
ACAD
1000
DSTYLE
1002
{
1070
   179
1070
     0
1070
    41
1040
10.0
1070
   271
1070
     0
1070
    43
1040
25.0
1070
    44
1040
0.0
1070
    42
1040
25.0
1070
   147
1040
30.0
1070
   140
1040
48.0
1002
}
  0
MTEXT
  5
16F4
330
A
100
AcDbEntity
  8
DIM
390
1D
100
AcDbMText
 10
1662.078859162792
 20
1512.021698441939
 30
0.0
 40
48.865234375
 41
0.0
 46
48.865234375
 71
     1
 72
     1
  1
{オーバーフロー}
  7
ＭＳ ゴシック
 11
6.123233995736766E-17
 21
1.0
 31
0.0
 73
     1
 44
0.7828267384257843
1001
ACAD
1000
ACAD_MTEXT_DEFINED_HEIGHT_BEGIN
1070
    46
1040
48.865234375
1000
ACAD_MTEXT_DEFINED_HEIGHT_END
  0
MTEXT
  5
30B8
330
A
100
AcDbEntity
  8
TEMPLATE
390
1D
100
AcDbMText
 10
2658.509411065372
 20
470.404822077453
 30
0.0
 40
48.865234375
 41
0.0
 46
56.78140234375
 71
     1
 72
     1
  1
{120kg}
  7
ＭＳ ゴシック
 73
     1
 44
0.7828267384257843
1001
ACAD
1000
ACAD_MTEXT_DEFINED_HEIGHT_BEGIN
1070
    46
1040
56.78140234375
1000
ACAD_MTEXT_DEFINED_HEIGHT_END
  0
ARC
  5
3159
330
A
100
AcDbEntity
  8
MODEL
  6
STYLE_12
100
AcDbCircle
 10
3028.923879504344
 20
1652.250678984486
 30
0.0
 40
108.00009155273
100
AcDbArc
 50
305.60998817081
 51
358.4999784412299
  0
ARC
  5
315A
330
A
100
AcDbEntity
  8
MODEL
  6
STYLE_12
100
AcDbCircle
 10
1927.025686144945
 20
3190.263709990346
 30
0.0
 40
1999.9997558594
100
AcDbArc
 50
292.7305800020399
 51
305.6194738308899
  0
ARC
  5
315B
330
A
100
AcDbEntity
  8
MODEL
  6
STYLE_12
100
AcDbCircle
 10
2707.550832629344
 20
1327.154045073355
 30
0.0
 40
19.999998092651
100
AcDbArc
 50
112.7322819425804
 51
178.5002186732845
  0
ARC
  5
315C
330
A
100
AcDbEntity
  8
MODEL
  6
STYLE_12
100
AcDbCircle
 10
3028.923879504344
 20
2612.250526396646
 30
0.0
 40
107.99994659424
100
AcDbArc
 50
1.500021558769909
 51
54.37981296992007
  0
ARC
  5
315D
330
A
100
AcDbEntity
  8
MODEL
  6
STYLE_12
100
AcDbCircle
 10
1927.025686144943
 20
1074.237449614366
 30
0.0
 40
1999.9997558594
100
AcDbArc
 50
54.38052642369005
 51
67.26941966013993
  0
ARC
  5
315E
330
A
100
AcDbEntity
  8
MODEL
  6
STYLE_12
100
AcDbCircle
 10
2707.550832629344
 20
2937.347206084145
 30
0.0
 40
19.999998092651
100
AcDbArc
 50
181.499781326713
 51
247.2678531919379
  0
ARC
  5
315F
330
A
100
AcDbEntity
  8
MODEL
  6
STYLE_12
100
AcDbCircle
 10
3152.447317004344
 20
2083.903480498156
 30
0.0
 40
8.700047492981
100
AcDbArc
 50
274.9970407469093
 51
359.6269523739006
  0
ARC
  5
3160
330
A
100
AcDbEntity
  8
MODEL
  6
STYLE_12
100
AcDbCircle
 10
3151.246145129344
 20
2071.752601591906
 30
0.0
 40
3.2999873161316
100
AcDbArc
 50
94.99140702088246
 51
180.0
  0
ARC
  5
3161
330
A
100
AcDbEntity
  8
MODEL
  6
STYLE_12
100
AcDbCircle
 10
3176.146535754344
 20
2083.749671904406
 30
0.0
 40
14.999998092651
100
AcDbArc
 50
121.6158109672342
 51
179.6288508905368
  0
ARC
  5
3162
330
A
100
AcDbEntity
  8
MODEL
  6
STYLE_12
100
AcDbCircle
 10
3164.246145129344
 20
2103.080726591906
 30
0.0
 40
7.6999988555908
100
AcDbArc
 50
301.6208315786928
 51
0.0
  0
ARC
  5
3163
330
A
100
AcDbEntity
  8
MODEL
  6
STYLE_12
100
AcDbCircle
 10
3164.246145129344
 20
2161.420570341906
 30
0.0
 40
7.6999988555908
100
AcDbArc
 50
0.0
 51
58.37916842130719
  0
ARC
  5
3164
330
A
100
AcDbEntity
  8
MODEL
  6
STYLE_12
100
AcDbCircle
 10
3176.146535754344
 20
2180.751380888786
 30
0.0
 40
14.999998092651
100
AcDbArc
 50
180.3711491094633
 51
238.3841890327658
  0
ARC
  5
3165
330
A
100
AcDbEntity
  8
MODEL
  6
STYLE_12
100
AcDbCircle
 10
3152.447317004344
 20
2180.597816435656
 30
0.0
 40
8.700047492981
100
AcDbArc
 50
0.3714397073423046
 51
85.00295925309064
  0
LINE
  5
3166
330
A
100
AcDbEntity
  8
MODEL
  6
STYLE_12
100
AcDbLine
 10
2686.531301379344
 20
1288.40770718273
 30
0.0
 11
2687.558645129344
 21
1327.677482573355
 31
0.0
  0
LINE
  5
3167
330
A
100
AcDbEntity
  8
MODEL
  6
STYLE_12
100
AcDbLine
 10
3149.529348254344
 20
2132.250648466906
 30
0.0
 11
3136.886770129344
 21
1649.423530546986
 31
0.0
  0
LINE
  5
3168
330
A
100
AcDbEntity
  8
MODEL
  6
STYLE_12
100
AcDbLine
 10
3149.529348254344
 20
2132.250648466906
 30
0.0
 11
3136.886770129344
 21
2615.077674834146
 31
0.0
  0
LINE
  5
3169
330
A
100
AcDbEntity
  8
MODEL
  6
STYLE_12
100
AcDbLine
 10
2686.531301379344
 20
2976.093543974747
 30
0.0
 11
2687.558645129344
 21
2936.823768584145
 31
0.0
  0
LINE
  5
316A
330
A
100
AcDbEntity
  8
MODEL
  6
STYLE_12
100
AcDbLine
 10
3171.947317004344
 20
2161.420570341906
 30
0.0
 11
3171.947317004344
 21
2103.080726591906
 31
0.0
  0
LINE
  5
316B
330
A
100
AcDbEntity
  8
MODEL
  6
STYLE_12
100
AcDbLine
 10
3153.205129504344
 20
2189.264808623156
 30
0.0
 11
3150.959035754344
 21
2189.461097685656
 31
0.0
  0
CIRCLE
  5
316C
330
A
100
AcDbEntity
  8
MODEL
100
AcDbCircle
 10
2756.529348254344
 20
2132.250648466906
 30
0.0
 40
25.999996185303
  0
LINE
  5
316D
330
A
100
AcDbEntity
  8
MODEL
100
AcDbLine
 10
1417.97938116675
 20
1828.800432173599
 30
0.0
 11
1417.97938116675
 21
2435.700822798639
 31
0.0
  0
LINE
  5
316E
330
A
100
AcDbEntity
  8
MODEL
100
AcDbLine
 10
1059.479442201899
 20
1828.800432173599
 30
0.0
 11
1059.479442201899
 21
2435.700822798639
 31
0.0
  0
ARC
  5
3173
330
A
100
AcDbEntity
  8
MODEL
100
AcDbCircle
 10
1238.72938116675
 20
2435.700822798639
 30
0.0
 40
179.24998474121
100
AcDbArc
 50
0.0
 51
180.0
  0
ARC
  5
3174
330
A
100
AcDbEntity
  8
MODEL
100
AcDbCircle
 10
1238.72938116675
 20
1828.800432173599
 30
0.0
 40
179.24998474121
100
AcDbArc
 50
180.0
 51
0.0
  0
CIRCLE
  5
3179
330
A
100
AcDbEntity
  8
MODEL
100
AcDbCircle
 10
1238.72938116675
 20
2132.250627486099
 30
0.0
 40
54.999992370605
  0
LINE
  5
317E
330
A
100
AcDbEntity
  8
MODEL
100
AcDbLine
 10
1553.72935064917
 20
2607.250505415839
 30
0.0
 11
1553.72935064917
 21
1657.250658003679
 31
0.0
  0
LINE
  5
317F
330
A
100
AcDbEntity
  8
MODEL
100
AcDbLine
 10
923.7294422018986
 20
1657.250658003679
 30
0.0
 11
923.7294422018986
 21
2607.250505415839
 31
0.0
  0
LINE
  5
3180
330
A
100
AcDbEntity
  8
MODEL
100
AcDbLine
 10
1613.72935064917
 20
2607.250505415839
 30
0.0
 11
1613.72935064917
 21
1657.250658003679
 31
0.0
  0
LINE
  5
3181
102
{ACAD_REACTORS
330
32DD
102
}
330
A
100
AcDbEntity
  8
MODEL
100
AcDbLine
 10
863.7295032370894
 20
1657.250658003679
 30
0.0
 11
863.7295032370894
 21
2607.250505415839
 31
0.0
  0
LINE
  5
3182
330
A
100
AcDbEntity
  8
MODEL
  6
STYLE_12
100
AcDbLine
 10
3153.205129504344
 20
2075.236488310656
 30
0.0
 11
3150.959035754344
 21
2075.039955107536
 31
0.0
  0
LINE
  5
3183
330
A
100
AcDbEntity
  8
MODEL
100
AcDbLine
 10
2686.529348254344
 20
1288.250724760855
 30
0.0
 11
2686.529348254344
 21
2976.250526396645
 31
0.0
  0
LINE
  5
3184
330
A
100
AcDbEntity
  8
MODEL
100
AcDbLine
 10
2692.529348254344
 20
1282.250728575552
 30
0.0
 11
3296.529348254344
 21
1282.250728575552
 31
0.0
  0
LINE
  5
3185
330
A
100
AcDbEntity
  8
MODEL
100
AcDbLine
 10
2692.529348254344
 20
2982.250526396645
 30
0.0
 11
3296.529348254344
 21
2982.250526396645
 31
0.0
  0
LINE
  5
3186
102
{ACAD_REACTORS
330
3296
102
}
330
A
100
AcDbEntity
  8
MODEL
100
AcDbLine
 10
3296.529348254344
 20
1282.250728575552
 30
0.0
 11
3296.529348254344
 21
2982.250526396645
 31
0.0
  0
ARC
  5
3187
102
{ACAD_REACTORS
330
32DD
102
}
330
A
100
AcDbEntity
  8
MODEL
100
AcDbCircle
 10
1238.72938116675
 20
2607.250505415839
 30
0.0
 40
374.99996948242
100
AcDbArc
 50
0.0
 51
180.0
  0
ARC
  5
3188
330
A
100
AcDbEntity
  8
MODEL
100
AcDbCircle
 10
1238.72938116675
 20
1657.250658003679
 30
0.0
 40
374.99996948242
100
AcDbArc
 50
180.0
 51
0.0
  0
ARC
  5
3189
330
A
100
AcDbEntity
  8
MODEL
100
AcDbCircle
 10
1238.72938116675
 20
1657.250658003679
 30
0.0
 40
314.99996948242
100
AcDbArc
 50
180.0
 51
0.0
  0
ARC
  5
318A
330
A
100
AcDbEntity
  8
MODEL
100
AcDbCircle
 10
1238.72938116675
 20
2607.250505415839
 30
0.0
 40
314.99996948242
100
AcDbArc
 50
0.0
 51
180.0
  0
ARC
  5
318B
330
A
100
AcDbEntity
  8
MODEL
100
AcDbCircle
 10
2701.529348254344
 20
1297.250724760855
 30
0.0
 40
14.999998092651
100
AcDbArc
 50
177.4902956494209
 51
180.0
  0
ARC
  5
318C
330
A
100
AcDbEntity
  8
MODEL
100
AcDbCircle
 10
2701.529348254344
 20
2967.250526396645
 30
0.0
 40
14.999998092651
100
AcDbArc
 50
180.0
 51
182.5092385456513
  0
ARC
  5
318D
330
A
100
AcDbEntity
  8
MODEL
100
AcDbCircle
 10
2692.529348254344
 20
2976.250526396645
 30
0.0
 40
5.9999990463257
100
AcDbArc
 50
90.0
 51
180.0
  0
ARC
  5
318E
330
A
100
AcDbEntity
  8
MODEL
  6
STYLE_12
100
AcDbCircle
 10
3151.246145129344
 20
2192.748695341906
 30
0.0
 40
3.2999873161316
100
AcDbArc
 50
180.0
 51
265.0085929791175
  0
ARC
  5
318F
330
A
100
AcDbEntity
  8
MODEL
100
AcDbCircle
 10
2692.529348254344
 20
1288.250724760855
 30
0.0
 40
5.9999990463257
100
AcDbArc
 50
180.0
 51
270.0
  0
LWPOLYLINE
  5
3190
330
A
100
AcDbEntity
  8
SICHTBARE_KANTE
100
AcDbPolyline
 90
       48
 70
     0
 43
0.0
 10
1545.52817877417
 20
2106.250627486099
 10
1544.73521002417
 20
2106.970354048599
 10
1544.05552252417
 20
2108.820939986099
 10
1543.53794439917
 20
2111.179338423599
 10
1543.16685064917
 20
2113.551408736099
 10
1542.90708502417
 20
2115.696916548599
 10
1542.72544439917
 20
2117.549455611099
 10
1542.59458502417
 20
2119.121721236099
 10
1542.50083502417
 20
2120.450822798599
 10
1542.42856939917
 20
2121.578752486099
 10
1542.37583502417
 20
2122.543596236099
 10
1542.33286627417
 20
2123.373674361099
 10
1542.30161627417
 20
2124.096330611099
 10
1542.27427252417
 20
2124.729143111099
 10
1542.25474127417
 20
2125.289689986099
 10
1542.23521002417
 20
2125.787736861099
 10
1542.22153814917
 20
2126.234025923599
 10
1542.20981939917
 20
2126.637346236099
 10
1542.20005377417
 20
2127.003557173599
 10
1542.19028814917
 20
2127.338518111099
 10
1542.18442877417
 20
2127.645158736099
 10
1542.17661627417
 20
2127.928361861099
 10
1542.17075689917
 20
2128.191057173599
 10
1542.16489752417
 20
2128.436174361099
 10
1542.15122564917
 20
2129.273088423599
 10
1542.14146002417
 20
2129.948869673599
 10
1542.13364752417
 20
2130.781877486099
 10
1542.12974127417
 20
2131.820939986099
 10
1542.12974127417
 20
2132.899064986099
 10
1542.13755377417
 20
2134.114885298599
 10
1542.14927252417
 20
2135.047502486099
 10
1542.16099127417
 20
2135.836564986099
 10
1542.18442877417
 20
2136.856096236099
 10
1542.19028814917
 20
2137.162736861099
 10
1542.20005377417
 20
2137.497697798599
 10
1542.20981939917
 20
2137.863908736099
 10
1542.22153814917
 20
2138.267229048599
 10
1542.23521002417
 20
2138.713518111099
 10
1542.25474127417
 20
2139.211564986099
 10
1542.27427252417
 20
2139.772111861099
 10
1542.30161627417
 20
2140.404924361099
 10
1542.33286627417
 20
2141.127580611099
 10
1542.37583502417
 20
2141.957658736099
 10
1542.42856939917
 20
2142.922502486099
 10
1542.50083502417
 20
2144.050432173599
 10
1542.59458502417
 20
2145.379533736099
 10
1542.72544439917
 20
2146.951799361099
 10
1542.90708502417
 20
2148.804338423599
  0
LWPOLYLINE
  5
3191
330
A
100
AcDbEntity
  8
SICHTBARE_KANTE
100
AcDbPolyline
 90
       48
 70
     0
 43
0.0
 10
1542.90708502417
 20
2148.804338423599
 10
1543.16685064917
 20
2150.949846236099
 10
1543.53794439917
 20
2153.321916548599
 10
1544.05552252417
 20
2155.680314986099
 10
1544.73521002417
 20
2157.530900923599
 10
1545.52817877417
 20
2158.250627486099
 10
1546.32505377417
 20
2157.530900923599
 10
1547.00278814917
 20
2155.680314986099
 10
1547.52036627417
 20
2153.321916548599
 10
1547.89146002417
 20
2150.949846236099
 10
1548.15122564917
 20
2148.803361861099
 10
1548.33286627417
 20
2146.951799361099
 10
1548.46372564917
 20
2145.379533736099
 10
1548.55942877417
 20
2144.050432173599
 10
1548.62974127417
 20
2142.922502486099
 10
1548.68442877417
 20
2141.957658736099
 10
1548.72544439917
 20
2141.127580611099
 10
1548.75864752417
 20
2140.404924361099
 10
1548.78403814917
 20
2139.772111861099
 10
1548.80552252417
 20
2139.211564986099
 10
1548.82310064917
 20
2138.713518111099
 10
1548.83677252417
 20
2138.267229048599
 10
1548.84849127417
 20
2137.863908736099
 10
1548.86021002417
 20
2137.497697798599
 10
1548.86802252417
 20
2137.162736861099
 10
1548.87583502417
 20
2136.856096236099
 10
1548.88169439917
 20
2136.572893111099
 10
1548.88755377417
 20
2136.310197798599
 10
1548.89146002417
 20
2136.065080611099
 10
1548.90708502417
 20
2135.228166548599
 10
1548.91489752417
 20
2134.552385298599
 10
1548.92271002417
 20
2133.719377486099
 10
1548.92856939917
 20
2132.789689986099
 10
1548.92856939917
 20
2131.711564986099
 10
1548.92271002417
 20
2130.522111861099
 10
1548.90708502417
 20
2129.273088423599
 10
1548.89146002417
 20
2128.436174361099
 10
1548.88755377417
 20
2128.191057173599
 10
1548.88169439917
 20
2127.928361861099
 10
1548.87583502417
 20
2127.645158736099
 10
1548.86802252417
 20
2127.338518111099
 10
1548.86021002417
 20
2127.003557173599
 10
1548.84849127417
 20
2126.637346236099
 10
1548.83677252417
 20
2126.234025923599
 10
1548.82310064917
 20
2125.787736861099
 10
1548.80552252417
 20
2125.289689986099
 10
1548.78403814917
 20
2124.729143111099
 10
1548.75864752417
 20
2124.096330611099
  0
LWPOLYLINE
  5
3192
330
A
100
AcDbEntity
  8
SICHTBARE_KANTE
100
AcDbPolyline
 90
       13
 70
     0
 43
0.0
 10
1548.75864752417
 20
2124.096330611099
 10
1548.72544439917
 20
2123.373674361099
 10
1548.68442877417
 20
2122.543596236099
 10
1548.62974127417
 20
2121.578752486099
 10
1548.55942877417
 20
2120.450822798599
 10
1548.46372564917
 20
2119.121721236099
 10
1548.33286627417
 20
2117.549455611099
 10
1548.15122564917
 20
2115.696916548599
 10
1547.89146002417
 20
2113.551408736099
 10
1547.52036627417
 20
2111.179338423599
 10
1547.00278814917
 20
2108.820939986099
 10
1546.32310064917
 20
2106.970354048599
 10
1545.52817877417
 20
2106.250627486099
  0
CIRCLE
  5
3193
330
A
100
AcDbEntity
  8
MODEL
100
AcDbCircle
 10
1238.72938116675
 20
2132.250627486099
 30
0.0
 40
25.999996185303
  0
ARC
  5
3194
330
A
100
AcDbEntity
  8
MODEL
  6
STYLE_12
100
AcDbCircle
 10
2707.482473254344
 20
4904.192855755107
 30
0.0
 40
19.99903678894
100
AcDbArc
 50
181.4997813267163
 51
264.6765139258209
  0
ARC
  5
3195
330
A
100
AcDbEntity
  8
MODEL
  6
STYLE_12
100
AcDbCircle
 10
2427.232473254344
 20
1897.224555889361
 30
0.0
 40
2999.9997558594
100
AcDbArc
 50
77.66119429304007
 51
84.67539464075999
  0
ARC
  5
3196
330
A
100
AcDbEntity
  8
MODEL
  6
STYLE_12
100
AcDbCircle
 10
3049.076223254344
 20
4740.006332317607
 30
0.0
 40
89.999992370605
100
AcDbArc
 50
5.063507108091071
 51
77.6610835357306
  0
ARC
  5
3197
330
A
100
AcDbEntity
  8
MODEL
  6
STYLE_12
100
AcDbCircle
 10
3049.076223254344
 20
4402.866928020709
 30
0.0
 40
89.999992370605
100
AcDbArc
 50
282.33888325097
 51
354.9366477107292
  0
ARC
  5
3198
330
A
100
AcDbEntity
  8
MODEL
  6
STYLE_12
100
AcDbCircle
 10
1146.529592394943
 20
4571.436752239508
 30
0.0
 40
1999.9997558594
100
AcDbArc
 50
354.93668836418
 51
5.063311635820024
  0
ARC
  5
3199
330
A
100
AcDbEntity
  8
MODEL
  6
STYLE_12
100
AcDbCircle
 10
3161.914113879344
 20
4600.606674114508
 30
0.0
 40
7.6999988555908
100
AcDbArc
 50
0.0
 51
58.37916842130542
  0
ARC
  5
319A
330
A
100
AcDbEntity
  8
MODEL
  6
STYLE_12
100
AcDbCircle
 10
3148.914113879344
 20
4631.934799114508
 30
0.0
 40
3.2999873161316
100
AcDbArc
 50
180.0
 51
265.0085929791175
  0
ARC
  5
319B
330
A
100
AcDbEntity
  8
MODEL
  6
STYLE_12
100
AcDbCircle
 10
3173.814504504344
 20
4619.937728802008
 30
0.0
 40
14.999998092651
100
AcDbArc
 50
180.3711491094598
 51
238.3841890327667
  0
ARC
  5
319C
330
A
100
AcDbEntity
  8
MODEL
  6
STYLE_12
100
AcDbCircle
 10
3150.115285754344
 20
4619.783920208209
 30
0.0
 40
8.700047492981
100
AcDbArc
 50
0.3730476260932712
 51
85.0029592530909
  0
ARC
  5
319D
330
A
100
AcDbEntity
  8
MODEL
  6
STYLE_12
100
AcDbCircle
 10
3161.914113879344
 20
4542.266830364508
 30
0.0
 40
7.6999988555908
100
AcDbArc
 50
301.6208315786946
 51
0.0
  0
ARC
  5
319E
330
A
100
AcDbEntity
  8
MODEL
  6
STYLE_12
100
AcDbCircle
 10
2427.232473254344
 20
7245.648910442607
 30
0.0
 40
2999.9997558594
100
AcDbArc
 50
275.32460499415
 51
282.33880586265
  0
ARC
  5
319F
330
A
100
AcDbEntity
  8
MODEL
  6
STYLE_12
100
AcDbCircle
 10
3148.914113879344
 20
4510.938705364508
 30
0.0
 40
3.2999873161316
100
AcDbArc
 50
94.99140702088246
 51
180.0
  0
ARC
  5
31A0
330
A
100
AcDbEntity
  8
MODEL
  6
STYLE_12
100
AcDbCircle
 10
3173.814504504344
 20
4522.936019817607
 30
0.0
 40
14.999998092651
100
AcDbArc
 50
121.6158109672256
 51
179.6288508905333
  0
ARC
  5
31A1
330
A
100
AcDbEntity
  8
MODEL
  6
STYLE_12
100
AcDbCircle
 10
3150.115285754344
 20
4523.089584270709
 30
0.0
 40
8.700047492981
100
AcDbArc
 50
274.9970407469091
 51
359.6285602926637
  0
ARC
  5
31A2
330
A
100
AcDbEntity
  8
MODEL
  6
STYLE_12
100
AcDbCircle
 10
2707.482473254344
 20
4238.680404583209
 30
0.0
 40
19.999998092651
100
AcDbArc
 50
95.32316162284712
 51
178.5002186732871
  0
LINE
  5
31A3
330
A
100
AcDbEntity
  8
MODEL
  6
STYLE_12
100
AcDbLine
 10
2687.490285754344
 20
4903.669418255107
 30
0.0
 11
2686.531301379344
 21
4940.279769817607
 31
0.0
  0
LINE
  5
31A4
330
A
100
AcDbEntity
  8
MODEL
  6
STYLE_12
100
AcDbLine
 10
3150.873098254344
 20
4628.450912395709
 30
0.0
 11
3148.627004504344
 21
4628.647201458209
 31
0.0
  0
LINE
  5
31A5
330
A
100
AcDbEntity
  8
MODEL
  6
STYLE_12
100
AcDbLine
 10
3150.873098254344
 20
4514.422592083209
 30
0.0
 11
3148.627004504344
 21
4514.226303020709
 31
0.0
  0
LINE
  5
31A6
330
A
100
AcDbEntity
  8
MODEL
  6
STYLE_12
100
AcDbLine
 10
3169.615285754344
 20
4542.266830364508
 30
0.0
 11
3169.615285754344
 21
4600.606674114508
 31
0.0
  0
LINE
  5
31A7
330
A
100
AcDbEntity
  8
MODEL
  6
STYLE_12
100
AcDbLine
 10
2687.490285754344
 20
4239.203842083209
 30
0.0
 11
2686.531301379344
 21
4202.593490520709
 31
0.0
  0
LINE
  5
31A9
330
A
100
AcDbEntity
  8
MODEL
100
AcDbLine
 10
2686.529348254344
 20
4202.436752239508
 30
0.0
 11
2686.529348254344
 21
4940.436508098808
 31
0.0
  0
LINE
  5
31AA
102
{ACAD_REACTORS
330
3287
102
}
330
A
100
AcDbEntity
  8
MODEL
100
AcDbLine
 10
3296.529348254344
 20
4196.436752239508
 30
0.0
 11
2692.529348254344
 21
4196.436752239508
 31
0.0
  0
LINE
  5
31AB
102
{ACAD_REACTORS
330
3287
102
}
330
A
100
AcDbEntity
  8
MODEL
100
AcDbLine
 10
3296.529348254344
 20
4946.436508098808
 30
0.0
 11
2692.529348254344
 21
4946.436508098808
 31
0.0
  0
LINE
  5
31AC
330
A
100
AcDbEntity
  8
MODEL
100
AcDbLine
 10
3296.529348254344
 20
4196.436752239508
 30
0.0
 11
3296.529348254344
 21
4946.436508098808
 31
0.0
  0
ARC
  5
31AD
330
A
100
AcDbEntity
  8
MODEL
100
AcDbCircle
 10
2701.529348254344
 20
4931.436508098808
 30
0.0
 40
14.999998092651
100
AcDbArc
 50
180.0
 51
182.5524234112836
  0
ARC
  5
31AE
330
A
100
AcDbEntity
  8
MODEL
100
AcDbCircle
 10
2692.529348254344
 20
4202.436752239508
 30
0.0
 40
5.9999990463257
100
AcDbArc
 50
180.0
 51
270.0
  0
ARC
  5
31AF
330
A
100
AcDbEntity
  8
MODEL
100
AcDbCircle
 10
2692.529348254344
 20
4940.436508098808
 30
0.0
 40
5.9999990463257
100
AcDbArc
 50
90.0
 51
180.0
  0
DIMENSION
  5
31EB
330
A
100
AcDbEntity
  8
DIM
  6
Continuous
100
AcDbDimension
  2
*D6
 10
2686.529348254344
 20
5109.832322247854
 30
0.0
 11
2928.071668982651
 21
5163.832322247854
 31
0.0
 70
    32
  1
485
 71
     5
 42
483.0846414566149
 73
     0
 74
     0
 75
     0
  3
JIS
100
AcDbAlignedDimension
 13
3169.613989710959
 23
4622.780924027024
 33
0.0
 14
2686.529348254344
 24
4940.436508098808
 34
0.0
100
AcDbRotatedDimension
1001
ACAD
1000
DSTYLE
1002
{
1070
   179
1070
     0
1070
    41
1040
18.0
1070
   271
1070
     0
1070
    43
1040
25.0
1070
    44
1040
0.0
1070
    42
1040
25.0
1070
   147
1040
30.0
1070
   140
1040
48.0
1002
}
  0
DIMENSION
  5
3269
330
A
100
AcDbEntity
  8
DIM
  6
Continuous
100
AcDbDimension
  2
*D7
 10
2441.43944992339
 20
4886.436752239508
 30
0.0
 11
2387.43944992339
 21
4571.436752239508
 31
0.0
 70
    32
 71
     5
 42
630.0
 73
     0
 74
     0
 75
     0
  3
JIS
100
AcDbAlignedDimension
 13
2686.529348254344
 23
4256.436752239508
 33
0.0
 14
2686.529348254344
 24
4886.436752239508
 34
0.0
 50
90.0
100
AcDbRotatedDimension
1001
ACAD
1000
DSTYLE
1002
{
1070
   179
1070
     0
1070
    41
1040
18.0
1070
   271
1070
     0
1070
    43
1040
25.0
1070
    44
1040
0.0
1070
    42
1040
25.0
1070
   147
1040
30.0
1070
   140
1040
48.0
1002
}
  0
DIMENSION
  5
3278
330
A
100
AcDbEntity
  8
DIM
  6
Continuous
100
AcDbDimension
  2
*D8
 10
2549.772936211125
 20
4826.436752239508
 30
0.0
 11
2495.772936211125
 21
4571.436752239508
 31
0.0
 70
    32
 71
     5
 42
510.0
 73
     0
 74
     0
 75
     0
  3
JIS
100
AcDbAlignedDimension
 13
2686.529348254344
 23
4316.436752239508
 33
0.0
 14
2686.529348254344
 24
4826.436752239508
 34
0.0
 50
90.0
100
AcDbRotatedDimension
1001
ACAD
1000
DSTYLE
1002
{
1070
   179
1070
     0
1070
    41
1040
18.0
1070
   271
1070
     0
1070
    43
1040
25.0
1070
    44
1040
0.0
1070
    42
1040
25.0
1070
   147
1040
30.0
1070
   140
1040
48.0
1002
}
  0
DIMENSION
  5
3285
102
{ACAD_REACTORS
330
3287
102
}
102
{ACAD_XDICTIONARY
360
3286
102
}
330
A
100
AcDbEntity
  8
DIM
  6
Continuous
100
AcDbDimension
  2
*D9
 10
3559.063924885149
 20
4196.436752239508
 30
0.0
 11
3505.063924885149
 21
4571.436630169158
 31
0.0
 70
    32
 71
     5
 42
749.9997558593004
 73
     0
 74
     0
 75
     0
  3
JIS
100
AcDbAlignedDimension
 13
3296.529348254344
 23
4946.436508098808
 33
0.0
 14
3296.529348254344
 24
4196.436752239508
 34
0.0
 50
90.0
100
AcDbRotatedDimension
1001
ACAD
1000
DSTYLE
1002
{
1070
   179
1070
     0
1070
    41
1040
18.0
1070
   271
1070
     0
1070
    43
1040
25.0
1070
    44
1040
0.0
1070
    42
1040
25.0
1070
   147
1040
30.0
1070
   140
1040
48.0
1002
}
  0
DIMENSION
  5
3294
102
{ACAD_REACTORS
330
3296
102
}
102
{ACAD_XDICTIONARY
360
3295
102
}
330
A
100
AcDbEntity
  8
DIM
  6
Continuous
100
AcDbDimension
  2
*D10
 10
3619.190969992222
 20
1282.250728575552
 30
0.0
 11
3565.190969992222
 21
2132.250627486099
 31
0.0
 70
    32
 71
     5
 42
1699.999797821093
 73
     0
 74
     0
 75
     0
  3
JIS
100
AcDbAlignedDimension
 13
3296.529348254344
 23
2982.250526396645
 33
0.0
 14
3296.529348254344
 24
1282.250728575552
 34
0.0
 50
90.0
100
AcDbRotatedDimension
1001
ACAD
1000
DSTYLE
1002
{
1070
   179
1070
     0
1070
    41
1040
18.0
1070
   271
1070
     0
1070
    43
1040
25.0
1070
    44
1040
0.0
1070
    42
1040
25.0
1070
   147
1040
30.0
1070
   140
1040
48.0
1002
}
  0
DIMENSION
  5
32A3
330
A
100
AcDbEntity
  8
DIM
100
AcDbDimension
  2
*D11
 10
3296.543608553136
 20
3299.525179314278
 30
0.0
 11
2991.529227137718
 21
3299.525179314278
 31
0.0
 70
   160
 71
     5
 42
609.9999980926523
 73
     0
 74
     0
 75
     0
 52
-270.0
  3
JIS
100
AcDbAlignedDimension
 13
2686.543610460484
 23
2976.664202390205
 33
0.0
 14
3296.543608553136
 24
2991.664202390205
 34
0.0
 50
180.0
100
AcDbRotatedDimension
1001
ACAD
1000
DSTYLE
1002
{
1070
   179
1070
     0
1070
    41
1040
18.0
1070
   271
1070
     0
1070
    43
1040
25.0
1070
    44
1040
0.0
1070
    42
1040
25.0
1070
   147
1040
30.0
1070
   140
1040
48.0
1002
}
  0
DIMENSION
  5
32A4
330
A
100
AcDbEntity
  8
DIM
100
AcDbDimension
  2
*D12
 10
3135.249929309044
 20
3151.643315397825
 30
0.0
 11
2929.043610460487
 21
3151.643315397825
 31
0.0
 70
   160
  1
460
 71
     5
 42
448.7186279297003
 73
     0
 74
     0
 75
     0
 52
-270.0
  3
JIS
100
AcDbAlignedDimension
 13
2686.531301379344
 23
2976.093543974747
 33
0.0
 14
3135.249929309044
 24
2616.111976591947
 34
0.0
 50
180.0
100
AcDbRotatedDimension
1001
ACAD
1000
DSTYLE
1002
{
1070
   179
1070
     0
1070
    41
1040
18.0
1070
   271
1070
     0
1070
    43
1040
25.0
1070
    44
1040
0.0
1070
    42
1040
25.0
1070
   147
1040
30.0
1070
   140
1040
48.0
1002
}
  0
DIMENSION
  5
32BD
330
A
100
AcDbEntity
  8
DIM
  6
Continuous
100
AcDbDimension
  2
*D13
 10
2235.444703087308
 20
2922.250648466906
 30
0.0
 11
2181.444703087308
 21
2132.250648466906
 31
0.0
 70
    32
 71
     5
 42
1580.0
 73
     0
 74
     0
 75
     0
  3
JIS
100
AcDbAlignedDimension
 13
2686.529348254344
 23
1342.250648466906
 33
0.0
 14
2686.529348254344
 24
2922.250648466906
 34
0.0
 50
90.0
100
AcDbRotatedDimension
1001
ACAD
1000
DSTYLE
1002
{
1070
   179
1070
     0
1070
    41
1040
18.0
1070
   271
1070
     0
1070
    43
1040
25.0
1070
    44
1040
0.0
1070
    42
1040
25.0
1070
   147
1040
30.0
1070
   140
1040
48.0
1002
}
  0
DIMENSION
  5
32CC
330
A
100
AcDbEntity
  8
DIM
  6
Continuous
100
AcDbDimension
  2
*D14
 10
2424.110932151476
 20
2697.250648466906
 30
0.0
 11
2370.110932151476
 21
2132.250648466906
 31
0.0
 70
    32
 71
     5
 42
1130.0
 73
     0
 74
     0
 75
     0
  3
JIS
100
AcDbAlignedDimension
 13
2686.529348254344
 23
1567.250648466906
 33
0.0
 14
2686.529348254344
 24
2697.250648466906
 34
0.0
 50
90.0
100
AcDbRotatedDimension
1001
ACAD
1000
DSTYLE
1002
{
1070
   179
1070
     0
1070
    41
1040
18.0
1070
   271
1070
     0
1070
    43
1040
25.0
1070
    44
1040
0.0
1070
    42
1040
25.0
1070
   147
1040
30.0
1070
   140
1040
48.0
1002
}
  0
DIMENSION
  5
32DB
102
{ACAD_REACTORS
330
32DD
102
}
102
{ACAD_XDICTIONARY
360
32DC
102
}
330
A
100
AcDbEntity
  8
DIM
  6
Continuous
100
AcDbDimension
  2
*D15
 10
1613.72935064917
 20
3151.643315397825
 30
0.0
 11
1238.72942694313
 21
3151.643315397825
 31
0.0
 70
   161
 71
     5
 42
749.9998474120807
 73
     0
 74
     0
 75
     0
  3
JIS
100
AcDbAlignedDimension
 13
863.7295032370894
 23
2607.250505415839
 33
0.0
 14
1613.72935064917
 24
2607.250505415839
 34
0.0
1001
ACAD
1000
DSTYLE
1002
{
1070
   179
1070
     0
1070
    41
1040
18.0
1070
   271
1070
     0
1070
    43
1040
25.0
1070
    44
1040
0.0
1070
    42
1040
25.0
1070
   147
1040
30.0
1070
   140
1040
48.0
1002
}
  0
DIMENSION
  5
32F9
330
A
100
AcDbEntity
  8
DIM
  6
Continuous
100
AcDbDimension
  2
*D16
 10
1288.72938116675
 20
2237.200898943206
 30
0.0
 11
1238.72938116675
 21
2237.200898943206
 31
0.0
 70
   160
 71
     5
 42
100.0
 73
     0
 74
     0
 75
     0
  3
JIS
100
AcDbAlignedDimension
 13
1188.72938116675
 23
2132.250606505292
 33
0.0
 14
1288.72938116675
 24
2132.250606505292
 34
0.0
100
AcDbRotatedDimension
1001
ACAD
1000
DSTYLE
1002
{
1070
     3
1000
%%c<>
1070
   179
1070
     0
1070
    41
1040
18.0
1070
   271
1070
     0
1070
    43
1040
25.0
1070
    44
1040
0.0
1070
    42
1040
25.0
1070
   147
1040
30.0
1070
   140
1040
48.0
1002
}
  0
DIMENSION
  5
32FC
330
A
100
AcDbEntity
  8
DIM
  6
Continuous
100
AcDbDimension
  2
*D17
 10
1264.729377352052
 20
2041.470338699034
 30
0.0
 11
1240.013563709097
 21
2041.470338699034
 31
0.0
 70
   160
 71
     5
 42
51.99999237060547
 73
     0
 74
     0
 75
     0
 52
-270.0
  3
tfrom線あり
100
AcDbAlignedDimension
 13
1212.729384981447
 23
2132.250606505292
 33
0.0
 14
1264.729377352052
 24
2132.250606505292
 34
0.0
 50
180.0
100
AcDbRotatedDimension
1001
ACAD
1000
DSTYLE
1002
{
1070
    77
1070
     2
1070
     3
1000
%%c<>
1070
   179
1070
     0
1070
    41
1040
18.0
1070
   271
1070
     0
1070
    43
1040
25.0
1070
    44
1040
0.0
1070
    42
1040
25.0
1070
   140
1040
48.0
1002
}
  0
LINE
  5
32FD
330
A
100
AcDbEntity
  8
DIM
  6
Continuous
100
AcDbLine
 10
1292.747257993628
 20
1949.3212082445
 30
0.0
 11
960.4781738609963
 21
1949.3212082445
 31
0.0
  0
MTEXT
  5
3348
330
A
100
AcDbEntity
  8
DIM
390
1D
100
AcDbMText
 10
964.700401731513
 20
2010.978798102584
 30
0.0
 40
48.865234375
 41
424.9765055376683
 46
44.97493848072827
 71
     1
 72
     1
  1
{排水口}
  7
ＭＳ ゴシック
 73
     1
 44
0.7828267384257843
1001
ACAD
1000
ACAD_MTEXT_DEFINED_HEIGHT_BEGIN
1070
    46
1040
44.97493848072827
1000
ACAD_MTEXT_DEFINED_HEIGHT_END
  0
DIMENSION
  5
3349
330
A
100
AcDbEntity
  8
DIM
100
AcDbDimension
  2
*D18
 10
2686.529346346995
 20
2302.325177824202
 30
0.0
 11
2964.425342532297
 21
2302.325177824202
 31
0.0
 70
   160
 71
     5
 42
92.99999618530182
 73
     0
 74
     1
 75
     1
 52
-270.0
  3
JIS
100
AcDbAlignedDimension
 13
2779.529342532297
 23
2132.250627486093
 33
0.0
 14
2686.529346346995
 24
2132.250604597937
 34
0.0
 50
180.0
100
AcDbRotatedDimension
1001
ACAD
1000
DSTYLE
1002
{
1070
   172
1070
     1
1070
   174
1070
     1
1070
     3
1000
<>(※1)
1070
   179
1070
     0
1070
    41
1040
18.0
1070
   271
1070
     0
1070
    43
1040
25.0
1070
    44
1040
0.0
1070
    42
1040
25.0
1070
   147
1040
30.0
1070
   140
1040
48.0
1002
}
  0
DIMENSION
  5
334A
330
A
100
AcDbEntity
  8
DIM
100
AcDbDimension
  2
*D19
 10
2643.356147960752
 20
2158.250623671397
 30
0.0
 11
2643.356147960752
 21
2132.250627486093
 31
0.0
 70
   160
 71
     5
 42
51.99999237060683
 73
     0
 74
     0
 75
     0
  3
JIS
100
AcDbAlignedDimension
 13
2756.529226184043
 23
2106.25063130079
 33
0.0
 14
2756.529226184043
 24
2158.250623671397
 34
0.0
 50
89.99999999999999
100
AcDbRotatedDimension
1001
ACAD
1000
DSTYLE
1002
{
1070
     3
1000
%%c<>
1070
   179
1070
     0
1070
    41
1040
18.0
1070
   271
1070
     0
1070
    43
1040
25.0
1070
    44
1040
0.0
1070
    42
1040
25.0
1070
   147
1040
30.0
1070
   140
1040
48.0
1002
}
  0
MTEXT
  5
3364
330
A
100
AcDbEntity
  8
TEMPLATE
390
1D
100
AcDbMText
 10
3846.795872637915
 20
1228.163538056699
 30
0.0
 40
48.865234375
 41
0.0
 46
48.865234375
 71
     1
 72
     1
  1
{\fメイリオ|b0|i0|c0|p0;\H0.8795x;※\fＭＳ ゴシック|b0|i0|c0|p0;1:オーバーフロー使用時の満水位置}
  7
ＭＳ ゴシック
 11
3.061616997868383E-16
 21
1.0
 31
0.0
 73
     1
 44
0.7828267384257843
1001
ACAD
1000
ACAD_MTEXT_DEFINED_HEIGHT_BEGIN
1070
    46
1040
48.865234375
1000
ACAD_MTEXT_DEFINED_HEIGHT_END
  0
DIMENSION
  5
3365
330
A
100
AcDbEntity
  8
DIM
  6
Continuous
100
AcDbDimension
  2
*D20
 10
1804.891876336303
 20
2132.250627486099
 30
0.0
 11
1750.891876336303
 21
2557.250566450969
 31
0.0
 70
    32
 71
     5
 42
849.9998779297393
 73
     0
 74
     0
 75
     0
  3
JIS
100
AcDbAlignedDimension
 13
1263.72938116675
 23
2982.250505415838
 33
0.0
 14
1613.72935064917
 24
2132.250627486099
 34
0.0
 50
90.0
100
AcDbRotatedDimension
1001
ACAD
1000
DSTYLE
1002
{
1070
   179
1070
     0
1070
    41
1040
18.0
1070
   271
1070
     0
1070
    43
1040
25.0
1070
    44
1040
0.0
1070
    42
1040
25.0
1070
   147
1040
30.0
1070
   140
1040
48.0
1002
}
  0
DIMENSION
  5
34F3
330
A
100
AcDbEntity
  8
notes
  6
Continuous
 62
     7
370
     5
390
1D
100
AcDbDimension
  2
*D21
 10
513.7296556491697
 20
1282.251203415839
 30
0.0
 11
479.2970384616697
 21
2132.250854415838
 31
0.0
 70
    32
 71
     5
 42
1699.999301999999
 73
     0
 74
     0
 75
     0
  3
T-form線あり
100
AcDbAlignedDimension
 13
1087.48786871389
 23
2982.250505415838
 33
0.0
 14
1192.736736723884
 24
1282.251203415839
 34
0.0
 50
90.0
100
AcDbRotatedDimension
1001
ACAD
1000
DSTYLE
1002
{
1070
   279
1070
     2
1070
   340
1005
39
1070
   147
1040
10.0
1002
}
  0
DIMENSION
  5
34F4
330
A
100
AcDbEntity
  8
FLN72-6311
  6
Continuous
370
     0
100
AcDbDimension
  2
*D22
 10
738.6366940272496
 20
2274.250505415838
 30
0.0
 11
699.2040768397496
 21
2628.250505415838
 31
0.0
 70
    32
 71
     5
 42
708.0
 73
     0
 74
     0
 75
     0
  3
T-form線あり
100
AcDbAlignedDimension
 13
1087.48786871389
 23
2982.250505415838
 33
0.0
 14
886.7296556491697
 24
2274.250505415838
 34
0.0
 50
90.0
100
AcDbRotatedDimension
1001
ACAD
1000
DSTYLE
1002
{
1070
   147
1040
15.0
1070
   341
1005
0
1002
}
  0
DIMENSION
  5
34F5
330
A
100
AcDbEntity
  8
FLN72-6311
  6
Continuous
370
     0
100
AcDbDimension
  2
*D23
 10
630.7388428823774
 20
1990.250505415838
 30
0.0
 11
591.3062256948774
 21
2486.250505415838
 31
0.0
 70
    32
 71
     5
 42
992.0
 73
     0
 74
     0
 75
     0
  3
T-form線あり
100
AcDbAlignedDimension
 13
1187.48786871389
 23
2982.250505415838
 33
0.0
 14
886.7296556491697
 24
1990.250505415838
 34
0.0
 50
90.0
100
AcDbRotatedDimension
1001
ACAD
1000
DSTYLE
1002
{
1070
   147
1040
15.0
1070
   341
1005
0
1002
}
  0
LWPOLYLINE
  5
34F8
330
A
100
AcDbEntity
  8
_____1
100
AcDbPolyline
 90
        2
 70
     0
 43
0.0
 10
932.1176516047594
 20
1990.029757080448
 10
932.1176516047594
 20
2038.756265934196
  0
LWPOLYLINE
  5
34F9
330
A
100
AcDbEntity
  8
_____1
100
AcDbPolyline
 90
        2
 70
     0
 43
0.0
 10
932.1176516047594
 20
2274.481741413676
 10
932.1176516047594
 20
2225.74535489748
  0
LWPOLYLINE
  5
34FA
330
A
100
AcDbEntity
  8
_____1
100
AcDbPolyline
 90
       14
 70
     0
 43
0.0
 10
932.1176516047594
 20
1990.029757080448
 10
939.4123053222715
 20
1996.736689882332
 10
946.1587487739457
 20
2004.15481438044
 10
952.3964926095709
 20
2012.224864600087
 10
958.0909650105827
 20
2020.887574566583
 10
963.271798964322
 20
2030.103433630146
 10
967.9143003146687
 20
2039.813175816084
 10
972.0332855552947
 20
2049.967412812164
 10
975.6139381925318
 20
2060.506878643695
 10
979.3526334289268
 20
2074.226951783336
 10
982.286299175848
 20
2088.352009083329
 10
984.380363614729
 20
2102.822784568986
 10
985.6249490831192
 20
2117.481235641145
 10
986.0398109059183
 20
2132.248341000225
  0
LWPOLYLINE
  5
34FB
330
A
100
AcDbEntity
  8
_____1
100
AcDbPolyline
 90
       14
 70
     0
 43
0.0
 10
986.0398109059183
 20
2132.248341000225
 10
985.6940927202527
 20
2145.677023097665
 10
984.6766934881557
 20
2159.031622726748
 10
982.9332860661648
 20
2172.228179756671
 10
980.518197597738
 20
2185.187672887853
 10
977.4215504204317
 20
2197.831080820712
 10
973.6285280405759
 20
2210.079382255672
 10
969.1292527957171
 20
2221.833800568251
 10
964.4126689770123
 20
2232.126324838594
 10
959.1231807363524
 20
2241.905210661666
 10
953.2459715800628
 20
2251.071681412988
 10
946.7859803393671
 20
2259.605981767669
 10
939.7333293518182
 20
2267.429090426127
 10
932.1176516047594
 20
2274.481741413676
  0
LWPOLYLINE
  5
34FC
330
A
100
AcDbEntity
  8
_____1
100
AcDbPolyline
 90
       12
 70
     0
 43
0.0
 10
960.530747635125
 20
2072.577382154598
 10
958.4366831962484
 20
2065.949470652291
 10
956.3821294071563
 20
2060.338958382086
 10
954.3325144492896
 20
2055.61743573216
 10
952.307593647543
 20
2051.686126078036
 10
950.272795183349
 20
2048.446252795239
 10
948.2528132128259
 20
2045.78916159685
 10
946.1587487739457
 20
2043.665464170627
 10
943.1855723772364
 20
2041.462745444826
 10
939.9456990944386
 20
2039.981096077691
 10
936.305780482518
 20
2039.082228794966
 10
932.1176516047594
 20
2038.756265934196
  0
LWPOLYLINE
  5
34FD
330
A
100
AcDbEntity
  8
_____1
100
AcDbPolyline
 90
       12
 70
     0
 43
0.0
 10
932.1176516047594
 20
2225.74535489748
 10
936.3848017820987
 20
2225.409514374263
 10
940.0691698750347
 20
2224.50076942909
 10
943.3534926388434
 20
2222.940098762377
 10
946.3711185165689
 20
2220.648481074546
 10
949.2603347824747
 20
2217.467873766436
 10
951.1123964913918
 20
2214.800904905597
 10
952.9743358627552
 20
2211.600542272594
 10
954.8263975716704
 20
2207.787764567839
 10
956.7179699303738
 20
2203.303305816654
 10
958.619419951528
 20
2198.048389394558
 10
960.530747635125
 20
2191.943994001975
  0
SPLINE
  5
34FE
330
A
100
AcDbEntity
  8
_____1
100
AcDbSpline
210
0.0
220
0.0
230
1.0
 70
     8
 71
     3
 72
     8
 73
     4
 74
     0
 42
0.000000001
 43
0.0000000001
 40
0.0
 40
0.0
 40
0.0
 40
0.0
 40
1.0
 40
1.0
 40
1.0
 40
1.0
 10
960.530747635125
 20
2072.577382154598
 30
0.0
 10
966.0128502935145
 20
2091.996866526471
 30
0.0
 10
968.7341462978161
 20
2112.088031944785
 30
0.0
 10
968.6304308421145
 20
2132.248341000225
 30
0.0
  0
SPLINE
  5
34FF
330
A
100
AcDbEntity
  8
_____1
100
AcDbSpline
210
0.0
220
0.0
230
1.0
 70
     8
 71
     3
 72
     8
 73
     4
 74
     0
 42
0.000000001
 43
0.0000000001
 40
0.0
 40
0.0
 40
0.0
 40
0.0
 40
1.0
 40
1.0
 40
1.0
 40
1.0
 10
968.6304308421145
 20
2132.248341000225
 30
0.0
 10
968.7341462978161
 20
2152.433344211788
 30
0.0
 10
965.99309496862
 20
2172.504754305202
 30
0.0
 10
960.530747635125
 20
2191.943994001975
 30
0.0
  0
VIEWPORT
  5
349
330
B
100
AcDbEntity
 67
     1
  8
0
100
AcDbViewport
 10
202.5
 20
128.5
 30
0.0
 40
486.0
 41
308.4
 68
     1
 69
     1
 12
202.5
 22
128.5
 13
0.0
 23
0.0
 14
0.5
 24
0.5
 15
0.0
 25
0.0
 16
0.0
 26
0.0
 36
1.0
 17
0.0
 27
0.0
 37
0.0
 42
50.0
 43
0.0
 44
0.0
 45
308.4
 50
0.0
 51
0.0
 72
   100
 90
   557152
  1

281
     0
 71
     1
 74
     0
110
0.0
120
0.0
130
0.0
111
1.0
121
0.0
131
0.0
112
0.0
122
1.0
132
0.0
 79
     0
146
0.0
170
     0
 61
     5
348
26C
292
     1
282
     1
141
0.0
142
0.0
 63
   256
  0
VIEWPORT
  5
34A
330
B
100
AcDbEntity
 67
     1
  8
0
100
AcDbViewport
 10
202.5
 20
128.5
 30
0.0
 40
324.0
 41
205.6
 68
     2
 69
     2
 12
986.6781359294573
 22
1427.077061889956
 13
0.0
 23
0.0
 14
0.5
 24
0.5
 15
0.0
 25
0.0
 16
0.0
 26
0.0
 36
1.0
 17
0.0
 27
0.0
 37
0.0
 42
50.0
 43
0.0
 44
0.0
 45
2890.021615685494
 50
0.0
 51
0.0
 72
   100
 90
   557152
  1

281
     0
 71
     1
 74
     0
110
0.0
120
0.0
130
0.0
111
1.0
121
0.0
131
0.0
112
0.0
122
1.0
132
0.0
 79
     0
146
0.0
170
     0
 61
     5
348
26C
292
     1
282
     1
141
0.0
142
0.0
 63
   256
  0
ENDSEC
  0
SECTION
  2
OBJECTS
  0
DICTIONARY
  5
19
330
0
100
AcDbDictionary
281
     1
  3
ACAD_COLOR
350
38F
  3
ACAD_DETAILVIEWSTYLE
350
BE8
  3
ACAD_GROUP
350
1A
  3
ACAD_IMAGE_VARS
350
27B
  3
ACAD_LAYOUT
350
1E
  3
ACAD_MATERIAL
350
263
  3
ACAD_MLEADERSTYLE
350
336
  3
ACAD_MLINESTYLE
350
1B
  3
ACAD_PLOTSETTINGS
350
22
  3
ACAD_PLOTSTYLENAME
350
1F
  3
ACAD_SCALELIST
350
241
  3
ACAD_SECTIONVIEWSTYLE
350
BE9
  3
ACAD_TABLESTYLE
350
278
  3
ACAD_VISUALSTYLE
350
267
  3
ACDB_RECOMPOSE_DATA
350
354F
  3
AcDbVariableDictionary
350
330
  3
APPDATA
350
27A
  0
SUN
  5
BE4
330
15
100
AcDbSun
 90
        1
290
     0
 63
     7
421
 16777215
 40
1.0
291
     1
 91
  2455826
 92
 54000000
292
     0
 70
     2
 71
   256
280
     1
  0
DICTIONARY
  5
2E1
330
2
100
AcDbDictionary
280
     1
281
     1
  3
ACAD_LAYERSTATES
360
2E2
  3
ACLYDICTIONARY
360
C3B
  0
DICTIONARY
  5
16F2
330
16F1
100
AcDbDictionary
280
     1
281
     1
  0
DICTIONARY
  5
3286
330
3285
100
AcDbDictionary
280
     1
281
     1
  3
ACAD_DIMASSOC
360
3287
  0
DICTIONARY
  5
3295
330
3294
100
AcDbDictionary
280
     1
281
     1
  3
ACAD_DIMASSOC
360
3296
  0
DICTIONARY
  5
32DC
330
32DB
100
AcDbDictionary
280
     1
281
     1
  3
ACAD_DIMASSOC
360
32DD
  0
DICTIONARY
  5
38F
102
{ACAD_REACTORS
330
19
102
}
330
19
100
AcDbDictionary
281
     1
  0
DICTIONARY
  5
BE8
102
{ACAD_REACTORS
330
19
102
}
330
19
100
AcDbDictionary
281
     1
  0
DICTIONARY
  5
1A
102
{ACAD_REACTORS
330
19
102
}
330
19
100
AcDbDictionary
281
     1
  0
RASTERVARIABLES
  5
27B
102
{ACAD_REACTORS
330
19
102
}
330
19
100
AcDbRasterVariables
 90
        0
 70
     1
 71
     1
 72
     1
  0
DICTIONARY
  5
1E
102
{ACAD_REACTORS
330
19
102
}
330
19
100
AcDbDictionary
281
     1
  3
Layout1
350
21
  3
Model
350
20
  0
DICTIONARY
  5
263
102
{ACAD_REACTORS
330
19
102
}
330
19
100
AcDbDictionary
281
     1
  3
ByBlock
350
3543
  3
ByLayer
350
264
  3
Global
350
266
  0
DICTIONARY
  5
336
102
{ACAD_REACTORS
330
19
102
}
330
19
100
AcDbDictionary
281
     1
  3
Standard
350
30D4
  0
DICTIONARY
  5
1B
102
{ACAD_REACTORS
330
19
102
}
330
19
100
AcDbDictionary
281
     1
  3
Standard
350
1C
  0
DICTIONARY
  5
22
102
{ACAD_REACTORS
330
19
102
}
330
19
100
AcDbDictionary
281
     1
  0
ACDBDICTIONARYWDFLT
  5
1F
102
{ACAD_REACTORS
330
19
102
}
330
19
100
AcDbDictionary
281
     1
  3
Normal
350
1D
100
AcDbDictionaryWithDefault
340
1D
  0
DICTIONARY
  5
241
102
{ACAD_REACTORS
330
19
102
}
330
19
100
AcDbDictionary
281
     1
  3
*A1
350
30E6
  3
A0
350
242
  3
A1
350
243
  3
A2
350
244
  3
A3
350
245
  3
A4
350
246
  3
A5
350
247
  3
A6
350
248
  3
A7
350
249
  3
A8
350
24A
  3
A9
350
24B
  3
B0
350
24C
  3
B1
350
24D
  3
B2
350
24E
  3
B3
350
24F
  3
B4
350
250
  3
B5
350
251
  3
B6
350
252
  3
B7
350
253
  3
B8
350
254
  3
B9
350
255
  3
C0
350
256
  3
C1
350
257
  3
C2
350
258
  3
C3
350
259
  3
C4
350
25A
  3
C5
350
25B
  3
C6
350
25C
  3
C7
350
25D
  3
C8
350
25E
  3
C9
350
25F
  3
D0
350
260
  3
D1
350
261
  3
D2
350
262
  0
DICTIONARY
  5
BE9
102
{ACAD_REACTORS
330
19
102
}
330
19
100
AcDbDictionary
281
     1
  0
DICTIONARY
  5
278
102
{ACAD_REACTORS
330
19
102
}
330
19
100
AcDbDictionary
281
     1
  3
Standard
350
279
  0
DICTIONARY
  5
267
102
{ACAD_REACTORS
330
19
102
}
330
19
100
AcDbDictionary
281
     1
  3
2dWireframe
350
26C
  3
3D Hidden
350
26E
  3
3dWireframe
350
26D
  3
Basic
350
26F
  3
Brighten
350
273
  3
ColorChange
350
277
  3
Conceptual
350
271
  3
Dim
350
272
  3
EdgeColorOff
350
BDE
  3
Facepattern
350
276
  3
Flat
350
268
  3
FlatWithEdges
350
269
  3
Gouraud
350
26A
  3
GouraudWithEdges
350
26B
  3
Hidden
350
BDB
  3
JitterOff
350
BDC
  3
Linepattern
350
275
  3
OverhangOff
350
BDD
  3
Realistic
350
270
  3
Shaded
350
BE3
  3
Shaded with edges
350
BE2
  3
Shades of Gray
350
BDF
  3
Sketchy
350
BE0
  3
Thicken
350
274
  3
Wireframe
350
BDA
  3
X-Ray
350
BE1
  0
XRECORD
  5
354F
102
{ACAD_REACTORS
330
19
102
}
330
19
100
AcDbXrecord
280
     1
 90
        1
330
279
  0
DICTIONARY
  5
330
102
{ACAD_REACTORS
330
19
102
}
330
19
100
AcDbDictionary
281
     1
  3
CANNOSCALE
350
331
  3
CMLEADERSTYLE
350
31E9
  3
CTABLESTYLE
350
335
  3
HPTRANSPARENCY
350
C00
  3
XCLIPFRAME
350
64A
  0
DICTIONARY
  5
27A
102
{ACAD_REACTORS
330
19
102
}
330
19
100
AcDbDictionary
281
     1
  0
DICTIONARY
  5
2E2
102
{ACAD_REACTORS
330
2E1
102
}
330
2E1
100
AcDbDictionary
281
     1
  3
ARGON_LAYERP_14
350
C3A
  0
DICTIONARY
  5
C3B
102
{ACAD_REACTORS
330
2E1
102
}
330
2E1
100
AcDbDictionary
281
     1
1001
ACAD
1000
<All
  0
DIMASSOC
  5
3287
102
{ACAD_REACTORS
330
3286
102
}
330
3286
100
AcDbDimAssoc
330
3285
 90
        3
 70
     0
 71
     1
  1
AcDbOsnapPointRef
 72
    13
331
31AB
 73
     0
 91
        0
 40
0.0
 10
0.0
 20
0.0
 30
0.0
 75
     0
  1
AcDbOsnapPointRef
 72
    13
331
31AA
 73
     0
 91
        0
 40
0.0
 10
0.0
 20
0.0
 30
0.0
 75
     0
  0
DIMASSOC
  5
3296
102
{ACAD_REACTORS
330
3295
102
}
330
3295
100
AcDbDimAssoc
330
3294
 90
        3
 70
     0
 71
     1
  1
AcDbOsnapPointRef
 72
     1
331
3186
 73
     0
 91
        0
 40
0.0
 10
0.0
 20
0.0
 30
0.0
 75
     0
  1
AcDbOsnapPointRef
 72
    13
331
3186
 73
     0
 91
        0
 40
0.0
 10
0.0
 20
0.0
 30
0.0
 75
     0
  0
DIMASSOC
  5
32DD
102
{ACAD_REACTORS
330
32DC
102
}
330
32DC
100
AcDbDimAssoc
330
32DB
 90
        3
 70
     0
 71
     1
  1
AcDbOsnapPointRef
 72
     1
331
3181
 73
     0
 91
        0
 40
0.0
 10
0.0
 20
0.0
 30
0.0
 75
     0
  1
AcDbOsnapPointRef
 72
    13
331
3187
 73
     0
 91
        0
 40
0.0
 10
0.0
 20
0.0
 30
0.0
 75
     0
  0
LAYOUT
  5
21
102
{ACAD_REACTORS
330
1E
102
}
330
1E
100
AcDbPlotSettings
  1

  2
none_device
  4
ISO_A3_(420.00_x_297.00_MM)
  6

 40
7.5
 41
20.0
 42
7.5
 43
20.0
 44
420.0
 45
297.0
 46
0.0
 47
0.0
 48
0.0
 49
0.0
140
0.0
141
0.0
142
1.0
143
1.0
 70
     0
 72
     1
 73
     0
 74
     0
  7

 75
     0
 76
     0
 77
     2
 78
   300
147
1.0
148
0.0
149
0.0
100
AcDbLayout
  1
Layout1
 70
     0
 71
     0
 10
0.0
 20
0.0
 11
0.0
 21
0.0
 12
0.0
 22
0.0
 32
0.0
 14
0.0
 24
0.0
 34
0.0
 15
0.0
 25
0.0
 35
0.0
146
0.0
 13
0.0
 23
0.0
 33
0.0
 16
0.0
 26
0.0
 36
0.0
 17
0.0
 27
0.0
 37
0.0
 76
     0
330
B
331
349
  0
LAYOUT
  5
20
102
{ACAD_REACTORS
330
1E
102
}
330
1E
100
AcDbPlotSettings
  1

  2
none_device
  4
ISO_A3_(420.00_x_297.00_MM)
  6

 40
7.5
 41
20.0
 42
7.5
 43
20.0
 44
420.0
 45
297.0
 46
0.0
 47
0.0
 48
0.0
 49
0.0
140
0.0
141
0.0
142
1.0
143
1.0
 70
  1024
 72
     1
 73
     0
 74
     0
  7

 75
     0
 76
     0
 77
     2
 78
   300
147
1.0
148
0.0
149
0.0
100
AcDbLayout
  1
Model
 70
     0
 71
     1
 10
0.0
 20
0.0
 11
4200.000000000001
 21
5940.000000000001
 12
0.0
 22
0.0
 32
0.0
 14
144.5094110644077
 24
137.690537338739
 34
-0.0000000000002274
 15
4044.509411065372
 25
5804.399587702454
 35
0.0000000000001137
146
0.0
 13
0.0
 23
0.0
 33
0.0
 16
0.0
 26
0.0
 36
0.0
 17
0.0
 27
0.0
 37
0.0
 76
     0
330
A
331
15
  0
MATERIAL
  5
3543
102
{ACAD_REACTORS
330
263
102
}
330
263
100
AcDbMaterial
  1
ByBlock
 72
     1
 94
      127
  0
MATERIAL
  5
264
102
{ACAD_REACTORS
330
263
102
}
330
263
100
AcDbMaterial
  1
ByLayer
 72
     1
 94
      127
  0
MATERIAL
  5
266
102
{ACAD_REACTORS
330
263
102
}
330
263
100
AcDbMaterial
  1
Global
 72
     1
 94
      127
  0
MLEADERSTYLE
  5
30D4
102
{ACAD_REACTORS
330
336
102
}
330
336
100
AcDbMLeaderStyle
170
     2
171
     1
172
     0
 90
        2
 40
0.0
 41
0.0
173
     1
 91
-1056964608
340
11
 92
       -2
290
     1
 42
2.0
291
     1
 43
8.0
  3
Standard
341
0
 44
4.0
300

342
17
174
     1
178
     6
175
     1
176
     0
 93
-1056964608
 45
4.0
292
     0
297
     0
 46
4.0
343
0
 94
-1056964608
 47
1.0
 49
1.0
140
1.0
293
     1
141
0.0
294
     1
177
     0
142
1.0
295
     0
296
     0
143
3.75
1001
ACAD_MLEADERVER
1070
     2
  0
MLINESTYLE
  5
1C
102
{ACAD_REACTORS
330
1B
102
}
330
1B
100
AcDbMlineStyle
  2
Standard
 70
     0
  3

 62
     0
 51
90.0
 52
90.0
 71
     2
 49
0.5
 62
   256
  6
BYLAYER
 49
-0.5
 62
   256
  6
BYLAYER
  0
ACDBPLACEHOLDER
  5
1D
102
{ACAD_REACTORS
330
1F
102
}
330
1F
  0
SCALE
  5
30E6
102
{ACAD_REACTORS
330
241
102
}
330
241
100
AcDbScale
 70
     0
300
1:1_XREF_XREF
140
1.0
141
1.0
290
     1
  0
SCALE
  5
242
102
{ACAD_REACTORS
330
241
102
}
330
241
100
AcDbScale
 70
     0
300
1:1
140
1.0
141
1.0
290
     0
  0
SCALE
  5
243
102
{ACAD_REACTORS
330
241
102
}
330
241
100
AcDbScale
 70
     0
300
1:2
140
1.0
141
2.0
290
     0
  0
SCALE
  5
244
102
{ACAD_REACTORS
330
241
102
}
330
241
100
AcDbScale
 70
     0
300
1:4
140
1.0
141
4.0
290
     0
  0
SCALE
  5
245
102
{ACAD_REACTORS
330
241
102
}
330
241
100
AcDbScale
 70
     0
300
1:5
140
1.0
141
5.0
290
     0
  0
SCALE
  5
246
102
{ACAD_REACTORS
330
241
102
}
330
241
100
AcDbScale
 70
     0
300
1:8
140
1.0
141
8.0
290
     0
  0
SCALE
  5
247
102
{ACAD_REACTORS
330
241
102
}
330
241
100
AcDbScale
 70
     0
300
1:10
140
1.0
141
10.0
290
     0
  0
SCALE
  5
248
102
{ACAD_REACTORS
330
241
102
}
330
241
100
AcDbScale
 70
     0
300
1:16
140
1.0
141
16.0
290
     0
  0
SCALE
  5
249
102
{ACAD_REACTORS
330
241
102
}
330
241
100
AcDbScale
 70
     0
300
1:20
140
1.0
141
20.0
290
     0
  0
SCALE
  5
24A
102
{ACAD_REACTORS
330
241
102
}
330
241
100
AcDbScale
 70
     0
300
1:30
140
1.0
141
30.0
290
     0
  0
SCALE
  5
24B
102
{ACAD_REACTORS
330
241
102
}
330
241
100
AcDbScale
 70
     0
300
1:40
140
1.0
141
40.0
290
     0
  0
SCALE
  5
24C
102
{ACAD_REACTORS
330
241
102
}
330
241
100
AcDbScale
 70
     0
300
1:50
140
1.0
141
50.0
290
     0
  0
SCALE
  5
24D
102
{ACAD_REACTORS
330
241
102
}
330
241
100
AcDbScale
 70
     0
300
1:100
140
1.0
141
100.0
290
     0
  0
SCALE
  5
24E
102
{ACAD_REACTORS
330
241
102
}
330
241
100
AcDbScale
 70
     0
300
2:1
140
2.0
141
1.0
290
     0
  0
SCALE
  5
24F
102
{ACAD_REACTORS
330
241
102
}
330
241
100
AcDbScale
 70
     0
300
4:1
140
4.0
141
1.0
290
     0
  0
SCALE
  5
250
102
{ACAD_REACTORS
330
241
102
}
330
241
100
AcDbScale
 70
     0
300
8:1
140
8.0
141
1.0
290
     0
  0
SCALE
  5
251
102
{ACAD_REACTORS
330
241
102
}
330
241
100
AcDbScale
 70
     0
300
10:1
140
10.0
141
1.0
290
     0
  0
SCALE
  5
252
102
{ACAD_REACTORS
330
241
102
}
330
241
100
AcDbScale
 70
     0
300
100:1
140
100.0
141
1.0
290
     0
  0
SCALE
  5
253
102
{ACAD_REACTORS
330
241
102
}
330
241
100
AcDbScale
 70
     0
300
1/128" = 1'-0"
140
0.0078125
141
12.0
290
     0
  0
SCALE
  5
254
102
{ACAD_REACTORS
330
241
102
}
330
241
100
AcDbScale
 70
     0
300
1/64" = 1'-0"
140
0.015625
141
12.0
290
     0
  0
SCALE
  5
255
102
{ACAD_REACTORS
330
241
102
}
330
241
100
AcDbScale
 70
     0
300
1/32" = 1'-0"
140
0.03125
141
12.0
290
     0
  0
SCALE
  5
256
102
{ACAD_REACTORS
330
241
102
}
330
241
100
AcDbScale
 70
     0
300
1/16" = 1'-0"
140
0.0625
141
12.0
290
     0
  0
SCALE
  5
257
102
{ACAD_REACTORS
330
241
102
}
330
241
100
AcDbScale
 70
     0
300
3/32" = 1'-0"
140
0.09375
141
12.0
290
     0
  0
SCALE
  5
258
102
{ACAD_REACTORS
330
241
102
}
330
241
100
AcDbScale
 70
     0
300
1/8" = 1'-0"
140
0.125
141
12.0
290
     0
  0
SCALE
  5
259
102
{ACAD_REACTORS
330
241
102
}
330
241
100
AcDbScale
 70
     0
300
3/16" = 1'-0"
140
0.1875
141
12.0
290
     0
  0
SCALE
  5
25A
102
{ACAD_REACTORS
330
241
102
}
330
241
100
AcDbScale
 70
     0
300
1/4" = 1'-0"
140
0.25
141
12.0
290
     0
  0
SCALE
  5
25B
102
{ACAD_REACTORS
330
241
102
}
330
241
100
AcDbScale
 70
     0
300
3/8" = 1'-0"
140
0.375
141
12.0
290
     0
  0
SCALE
  5
25C
102
{ACAD_REACTORS
330
241
102
}
330
241
100
AcDbScale
 70
     0
300
1/2" = 1'-0"
140
0.5
141
12.0
290
     0
  0
SCALE
  5
25D
102
{ACAD_REACTORS
330
241
102
}
330
241
100
AcDbScale
 70
     0
300
3/4" = 1'-0"
140
0.75
141
12.0
290
     0
  0
SCALE
  5
25E
102
{ACAD_REACTORS
330
241
102
}
330
241
100
AcDbScale
 70
     0
300
1" = 1'-0"
140
1.0
141
12.0
290
     0
  0
SCALE
  5
25F
102
{ACAD_REACTORS
330
241
102
}
330
241
100
AcDbScale
 70
     0
300
1-1/2" = 1'-0"
140
1.5
141
12.0
290
     0
  0
SCALE
  5
260
102
{ACAD_REACTORS
330
241
102
}
330
241
100
AcDbScale
 70
     0
300
3" = 1'-0"
140
3.0
141
12.0
290
     0
  0
SCALE
  5
261
102
{ACAD_REACTORS
330
241
102
}
330
241
100
AcDbScale
 70
     0
300
6" = 1'-0"
140
6.0
141
12.0
290
     0
  0
SCALE
  5
262
102
{ACAD_REACTORS
330
241
102
}
330
241
100
AcDbScale
 70
     0
300
1'-0" = 1'-0"
140
12.0
141
12.0
290
     0
  0
TABLESTYLE
  5
279
102
{ACAD_REACTORS
330
278
102
}
102
{ACAD_XDICTIONARY
360
354D
102
}
330
278
100
AcDbTableStyle
  3
Standard
 70
     0
 71
     0
 40
0.06
 41
0.06
280
     0
281
     0
  7
Standard
140
4.5
170
     2
 62
     0
 63
   257
283
     0
 90
        4
 91
        0
  1

274
    -2
284
     1
 64
     0
275
    -2
285
     1
 65
     0
276
    -2
286
     1
 66
     0
277
    -2
287
     1
 67
     0
278
    -2
288
     1
 68
     0
279
    -2
289
     1
 69
     0
  7
Standard
140
6.0
170
     5
 62
     0
 63
   257
283
     0
 90
        4
 91
        0
  1

274
    -2
284
     1
 64
     0
275
    -2
285
     1
 65
     0
276
    -2
286
     1
 66
     0
277
    -2
287
     1
 67
     0
278
    -2
288
     1
 68
     0
279
    -2
289
     1
 69
     0
  7
Standard
140
4.5
170
     5
 62
     0
 63
   257
283
     0
 90
        4
 91
        0
  1

274
    -2
284
     1
 64
     0
275
    -2
285
     1
 65
     0
276
    -2
286
     1
 66
     0
277
    -2
287
     1
 67
     0
278
    -2
288
     1
 68
     0
279
    -2
289
     1
 69
     0
  0
VISUALSTYLE
  5
26C
102
{ACAD_REACTORS
330
267
102
}
330
267
100
AcDbVisualStyle
  2
2dWireframe
 70
     4
 71
     0
 72
     2
 73
     0
 90
        0
 40
-0.6
 41
-30.0
 62
     5
 63
     7
421
 16777215
 74
     1
 91
        4
 64
     7
 65
   257
 75
     1
175
     1
 42
1.0
 92
        0
 66
   257
 43
1.0
 76
     1
 77
     6
 78
     2
 67
     7
 79
     5
170
     0
171
     0
290
     0
174
     0
 93
        1
 44
0.0
173
     0
291
     0
 45
0.0
  0
VISUALSTYLE
  5
26E
102
{ACAD_REACTORS
330
267
102
}
330
267
100
AcDbVisualStyle
  2
3D Hidden
 70
     6
 71
     1
 72
     2
 73
     2
 90
        0
 40
-0.6
 41
-30.0
 62
     5
 63
     7
421
 16777215
 74
     2
 91
        2
 64
     7
 65
   257
 75
     2
175
     1
 42
40.0
 92
        0
 66
   257
 43
1.0
 76
     1
 77
     6
 78
     2
 67
     7
 79
     3
170
     0
171
     0
290
     0
174
     0
 93
        1
 44
0.0
173
     0
291
     0
 45
0.0
  0
VISUALSTYLE
  5
26D
102
{ACAD_REACTORS
330
267
102
}
330
267
100
AcDbVisualStyle
  2
3dWireframe
 70
     5
 71
     0
 72
     2
 73
     0
 90
        0
 40
-0.6
 41
-30.0
 62
     5
 63
     7
421
 16777215
 74
     1
 91
        4
 64
     7
 65
   257
 75
     1
175
     1
 42
1.0
 92
        0
 66
   257
 43
1.0
 76
     1
 77
     6
 78
     2
 67
     7
 79
     5
170
     0
171
     0
290
     0
174
     0
 93
        1
 44
0.0
173
     0
291
     0
 45
0.0
  0
VISUALSTYLE
  5
26F
102
{ACAD_REACTORS
330
267
102
}
330
267
100
AcDbVisualStyle
  2
Basic
 70
     7
 71
     1
 72
     0
 73
     1
 90
        0
 40
-0.6
 41
-30.0
 62
     5
 63
     7
421
 16777215
 74
     0
 91
        4
 64
     7
 65
   257
 75
     1
175
     1
 42
1.0
 92
        8
 66
     7
 43
1.0
 76
     1
 77
     6
 78
     2
 67
     7
 79
     5
170
     0
171
     0
290
     0
174
     0
 93
        1
 44
0.0
173
     0
291
     1
 45
0.0
  0
VISUALSTYLE
  5
273
102
{ACAD_REACTORS
330
267
102
}
330
267
100
AcDbVisualStyle
  2
Brighten
 70
    12
 71
     2
 72
     2
 73
     0
 90
        0
 40
-0.6
 41
-30.0
 62
     5
 63
     7
421
 16777215
 74
     1
 91
        4
 64
     7
 65
   257
 75
     1
175
     1
 42
1.0
 92
        8
 66
     7
 43
1.0
 76
     1
 77
     6
 78
     2
 67
     7
 79
     5
170
     0
171
     0
290
     0
174
     0
 93
        1
 44
50.0
173
     0
291
     1
 45
0.0
  0
VISUALSTYLE
  5
277
102
{ACAD_REACTORS
330
267
102
}
330
267
100
AcDbVisualStyle
  2
ColorChange
 70
    16
 71
     2
 72
     2
 73
     3
 90
        0
 40
-0.6
 41
-30.0
 62
     5
 63
     8
421
  8421504
 74
     1
 91
        4
 64
     7
 65
   257
 75
     1
175
     1
 42
1.0
 92
        8
 66
     8
424
  8421504
 43
1.0
 76
     1
 77
     6
 78
     2
 67
     7
 79
     5
170
     0
171
     0
290
     0
174
     0
 93
        1
 44
0.0
173
     0
291
     1
 45
0.0
  0
VISUALSTYLE
  5
271
102
{ACAD_REACTORS
330
267
102
}
330
267
100
AcDbVisualStyle
  2
Conceptual
 70
     9
 71
     3
 72
     2
 73
     0
 90
        0
 40
-0.6
 41
-30.0
 62
     5
 63
     7
421
 16777215
 74
     2
 91
        2
 64
     7
 65
   257
 75
     1
175
     1
 42
40.0
 92
        8
 66
     7
 43
1.0
 76
     1
 77
     6
 78
     2
 67
     7
 79
     3
170
     0
171
     0
290
     0
174
     0
 93
        1
 44
0.0
173
     0
291
     0
 45
0.0
  0
VISUALSTYLE
  5
272
102
{ACAD_REACTORS
330
267
102
}
330
267
100
AcDbVisualStyle
  2
Dim
 70
    11
 71
     2
 72
     2
 73
     0
 90
        0
 40
-0.6
 41
-30.0
 62
     5
 63
     7
421
 16777215
 74
     1
 91
        4
 64
     7
 65
   257
 75
     1
175
     1
 42
1.0
 92
        8
 66
     7
 43
1.0
 76
     1
 77
     6
 78
     2
 67
     7
 79
     5
170
     0
171
     0
290
     0
174
     0
 93
        1
 44
-50.0
173
     0
291
     1
 45
0.0
  0
VISUALSTYLE
  5
BDE
102
{ACAD_REACTORS
330
267
102
}
330
267
100
AcDbVisualStyle
  2
EdgeColorOff
 70
    22
 71
     2
 72
     2
 73
     0
 90
        0
 40
0.6
 41
30.0
 62
     5
 63
     7
421
 16777215
 74
     1
 91
        4
 64
     7
 65
   257
 75
     1
175
     1
 42
1.0
 92
        8
 66
     7
 43
1.0
 76
     1
 77
     6
 78
     2
 67
     7
 79
     5
170
     0
171
     0
290
     0
174
     0
 93
        1
 44
0.0
173
     0
291
     1
 45
0.0
  0
VISUALSTYLE
  5
276
102
{ACAD_REACTORS
330
267
102
}
330
267
100
AcDbVisualStyle
  2
Facepattern
 70
    15
 71
     2
 72
     2
 73
     0
 90
        0
 40
-0.6
 41
-30.0
 62
     5
 63
     7
421
 16777215
 74
     1
 91
        4
 64
     7
 65
   257
 75
     1
175
     1
 42
1.0
 92
        8
 66
     7
 43
1.0
 76
     1
 77
     6
 78
     2
 67
     7
 79
     5
170
     0
171
     0
290
     0
174
     0
 93
        1
 44
0.0
173
     0
291
     1
 45
0.0
  0
VISUALSTYLE
  5
268
102
{ACAD_REACTORS
330
267
102
}
330
267
100
AcDbVisualStyle
  2
Flat
 70
     0
 71
     2
 72
     1
 73
     1
 90
        2
 40
-0.6
 41
30.0
 62
     5
 63
     7
421
 16777215
 74
     0
 91
        4
 64
     7
 65
   257
 75
     1
175
     1
 42
1.0
 92
        8
 66
     7
 43
1.0
 76
     1
 77
     6
 78
     2
 67
     7
 79
     5
170
     0
171
     0
290
     0
174
     0
 93
       13
 44
0.0
173
     0
291
     1
 45
0.0
  0
VISUALSTYLE
  5
269
102
{ACAD_REACTORS
330
267
102
}
330
267
100
AcDbVisualStyle
  2
FlatWithEdges
 70
     1
 71
     2
 72
     1
 73
     1
 90
        2
 40
-0.6
 41
30.0
 62
     5
 63
     7
421
 16777215
 74
     1
 91
        4
 64
     7
 65
   257
 75
     1
175
     1
 42
1.0
 92
        0
 66
   257
 43
1.0
 76
     1
 77
     6
 78
     2
 67
     7
 79
     5
170
     0
171
     0
290
     0
174
     0
 93
       13
 44
0.0
173
     0
291
     1
 45
0.0
  0
VISUALSTYLE
  5
26A
102
{ACAD_REACTORS
330
267
102
}
330
267
100
AcDbVisualStyle
  2
Gouraud
 70
     2
 71
     2
 72
     2
 73
     1
 90
        2
 40
-0.6
 41
30.0
 62
     5
 63
     7
421
 16777215
 74
     0
 91
        4
 64
     7
 65
   257
 75
     1
175
     1
 42
1.0
 92
        0
 66
     7
 43
1.0
 76
     1
 77
     6
 78
     2
 67
     7
 79
     5
170
     0
171
     0
290
     0
174
     0
 93
       13
 44
0.0
173
     0
291
     1
 45
0.0
  0
VISUALSTYLE
  5
26B
102
{ACAD_REACTORS
330
267
102
}
330
267
100
AcDbVisualStyle
  2
GouraudWithEdges
 70
     3
 71
     2
 72
     2
 73
     1
 90
        2
 40
-0.6
 41
30.0
 62
     5
 63
     7
421
 16777215
 74
     1
 91
        4
 64
     7
 65
   257
 75
     1
175
     1
 42
1.0
 92
        0
 66
   257
 43
1.0
 76
     1
 77
     6
 78
     2
 67
     7
 79
     5
170
     0
171
     0
290
     0
174
     0
 93
       13
 44
0.0
173
     0
291
     1
 45
0.0
  0
VISUALSTYLE
  5
BDB
102
{ACAD_REACTORS
330
267
102
}
330
267
100
AcDbVisualStyle
  2
Hidden
 70
     6
 71
     1
 72
     2
 73
     2
 90
        0
 40
0.6
 41
30.0
 62
     5
 63
     7
421
 16777215
 74
     2
 91
        2
 64
     7
 65
   257
 75
     2
175
     1
 42
40.0
 92
        0
 66
   257
 43
1.0
 76
     1
 77
     6
 78
     2
 67
     7
 79
     3
170
     0
171
     0
290
     0
174
     0
 93
        1
 44
0.0
173
     0
291
     0
 45
0.0
  0
VISUALSTYLE
  5
BDC
102
{ACAD_REACTORS
330
267
102
}
330
267
100
AcDbVisualStyle
  2
JitterOff
 70
    20
 71
     2
 72
     2
 73
     0
 90
        0
 40
0.6
 41
30.0
 62
     5
 63
     7
421
 16777215
 74
     1
 91
        4
 64
     7
 65
   257
 75
     1
175
     1
 42
1.0
 92
       10
 66
     7
 43
1.0
 76
     1
 77
     6
 78
     2
 67
     7
 79
     5
170
     0
171
     0
290
     0
174
     0
 93
        1
 44
0.0
173
     0
291
     1
 45
0.0
  0
VISUALSTYLE
  5
275
102
{ACAD_REACTORS
330
267
102
}
330
267
100
AcDbVisualStyle
  2
Linepattern
 70
    14
 71
     2
 72
     2
 73
     0
 90
        0
 40
-0.6
 41
-30.0
 62
     5
 63
     7
421
 16777215
 74
     1
 91
        4
 64
     7
 65
   257
 75
     7
175
     7
 42
1.0
 92
        8
 66
     7
 43
1.0
 76
     1
 77
     6
 78
     2
 67
     7
 79
     5
170
     0
171
     0
290
     0
174
     0
 93
        1
 44
0.0
173
     0
291
     1
 45
0.0
  0
VISUALSTYLE
  5
BDD
102
{ACAD_REACTORS
330
267
102
}
330
267
100
AcDbVisualStyle
  2
OverhangOff
 70
    21
 71
     2
 72
     2
 73
     0
 90
        0
 40
0.6
 41
30.0
 62
     5
 63
     7
421
 16777215
 74
     1
 91
        4
 64
     7
 65
   257
 75
     1
175
     1
 42
1.0
 92
        9
 66
     7
 43
1.0
 76
     1
 77
     6
 78
     2
 67
     7
 79
     5
170
     0
171
     0
290
     0
174
     0
 93
        1
 44
0.0
173
     0
291
     1
 45
0.0
  0
VISUALSTYLE
  5
270
102
{ACAD_REACTORS
330
267
102
}
330
267
100
AcDbVisualStyle
  2
Realistic
 70
     8
 71
     2
 72
     2
 73
     0
 90
        0
 40
-0.6
 41
-30.0
 62
     5
 63
     7
421
 16777215
 74
     1
 91
        0
 64
     7
 65
   257
 75
     1
175
     1
 42
1.0
 92
        8
 66
     8
424
  7895160
 43
1.0
 76
     1
 77
     6
 78
     2
 67
     7
 79
     5
170
     0
171
     0
290
     0
174
     0
 93
       13
 44
0.0
173
     0
291
     0
 45
0.0
  0
VISUALSTYLE
  5
BE3
102
{ACAD_REACTORS
330
267
102
}
330
267
100
AcDbVisualStyle
  2
Shaded
 70
    27
 71
     2
 72
     2
 73
     1
 90
        2
 40
0.6
 41
30.0
 62
     5
 63
     7
421
 16777215
 74
     0
 91
        4
 64
     7
 65
   257
 75
     1
175
     1
 42
1.0
 92
        8
 66
   257
 43
1.0
 76
     1
 77
     6
 78
     2
 67
     8
425
  7895160
 79
     3
170
     0
171
     0
290
     0
174
     0
 93
        5
 44
0.0
173
     0
291
     0
 45
0.0
  0
VISUALSTYLE
  5
BE2
102
{ACAD_REACTORS
330
267
102
}
330
267
100
AcDbVisualStyle
  2
Shaded with edges
 70
    26
 71
     2
 72
     2
 73
     1
 90
        2
 40
0.6
 41
30.0
 62
     5
 63
     7
421
 16777215
 74
     1
 91
       10
 64
     7
 65
   257
 75
     2
175
     1
 42
1.0
 92
        8
 66
   257
 43
1.0
 76
     1
 77
     6
 78
     2
 67
     7
 79
     3
170
     0
171
     0
290
     0
174
     0
 93
        5
 44
0.0
173
     0
291
     0
 45
0.0
  0
VISUALSTYLE
  5
BDF
102
{ACAD_REACTORS
330
267
102
}
330
267
100
AcDbVisualStyle
  2
Shades of Gray
 70
    23
 71
     2
 72
     2
 73
     3
 90
        0
 40
0.6
 41
30.0
 62
     5
 63
     7
421
 16777215
 74
     2
 91
        2
 64
     7
 65
     7
 75
     1
175
     1
 42
40.0
 92
        8
 66
     7
 43
1.0
 76
     1
 77
     6
 78
     2
 67
     7
 79
     3
170
     0
171
     0
290
     0
174
     0
 93
        1
 44
0.0
173
     0
291
     0
 45
0.0
  0
VISUALSTYLE
  5
BE0
102
{ACAD_REACTORS
330
267
102
}
330
267
100
AcDbVisualStyle
  2
Sketchy
 70
    24
 71
     1
 72
     2
 73
     2
 90
        0
 40
0.6
 41
30.0
 62
     5
 63
     7
421
 16777215
 74
     2
 91
        2
 64
     7
 65
     7
 75
     1
175
     1
 42
40.0
 92
       11
 66
     7
 43
1.0
 76
     1
 77
     6
 78
     2
 67
     7
 79
     6
170
     0
171
     0
290
     0
174
     0
 93
        1
 44
0.0
173
     0
291
     0
 45
0.0
  0
VISUALSTYLE
  5
274
102
{ACAD_REACTORS
330
267
102
}
330
267
100
AcDbVisualStyle
  2
Thicken
 70
    13
 71
     2
 72
     2
 73
     0
 90
        0
 40
-0.6
 41
-30.0
 62
     5
 63
     7
421
 16777215
 74
     1
 91
        4
 64
     7
 65
   257
 75
     1
175
     1
 42
1.0
 92
       12
 66
     7
 43
1.0
 76
     1
 77
     6
 78
     2
 67
     7
 79
     5
170
     0
171
     0
290
     0
174
     0
 93
        1
 44
0.0
173
     0
291
     1
 45
0.0
  0
VISUALSTYLE
  5
BDA
102
{ACAD_REACTORS
330
267
102
}
330
267
100
AcDbVisualStyle
  2
Wireframe
 70
     5
 71
     0
 72
     2
 73
     0
 90
        0
 40
0.6
 41
30.0
 62
     5
 63
     7
421
 16777215
 74
     1
 91
        4
 64
     7
 65
   257
 75
     1
175
     1
 42
1.0
 92
        0
 66
   257
 43
1.0
 76
     1
 77
     6
 78
     2
 67
     7
 79
     3
170
     0
171
     0
290
     0
174
     0
 93
        1
 44
0.0
173
     0
291
     0
 45
0.0
  0
VISUALSTYLE
  5
BE1
102
{ACAD_REACTORS
330
267
102
}
330
267
100
AcDbVisualStyle
  2
X-Ray
 70
    25
 71
     2
 72
     2
 73
     1
 90
        1
 40
0.5
 41
30.0
 62
     5
 63
     7
421
 16777215
 74
     1
 91
        0
 64
     7
 65
   257
 75
     1
175
     1
 42
1.0
 92
        8
 66
     7
 43
1.0
 76
     1
 77
     6
 78
     2
 67
     7
 79
     3
170
     0
171
     0
290
     0
174
     0
 93
       13
 44
0.0
173
     0
291
     0
 45
0.0
  0
DICTIONARYVAR
  5
331
102
{ACAD_REACTORS
330
330
102
}
330
330
100
DictionaryVariables
280
     0
  1
1:1
  0
DICTIONARYVAR
  5
31E9
102
{ACAD_REACTORS
330
330
102
}
330
330
100
DictionaryVariables
280
     0
  1
Standard
  0
DICTIONARYVAR
  5
335
102
{ACAD_REACTORS
330
330
102
}
330
330
100
DictionaryVariables
280
     0
  1
Standard
  0
DICTIONARYVAR
  5
C00
102
{ACAD_REACTORS
330
330
102
}
330
330
100
DictionaryVariables
280
     0
  1
ByLayer
  0
DICTIONARYVAR
  5
64A
102
{ACAD_REACTORS
330
330
102
}
330
330
100
DictionaryVariables
280
     0
  1
0
  0
XRECORD
  5
C3A
102
{ACAD_REACTORS
330
2E2
102
}
330
2E2
100
AcDbXrecord
280
     1
 91
     1023
301

290
     0
302
DIM
330
14
 90
        8
 62
     7
370
    -3
331
13
  1
Color_7
330
4A
 90
        0
 62
     7
370
     9
331
13
  1
Color_7
330
4B
 90
        8
 62
     7
370
    -3
331
13
  1
Color_7
330
4D
 90
        8
 62
     7
370
    -3
331
13
  1
Color_7
330
382
 90
        8
 62
     7
370
    -3
331
13
  1
Color_7
330
0
 90
        8
 62
     7
370
     9
331
0
  1
Color_7
330
B7A
 90
        8
 62
     7
370
     9
331
13
  1
Color_7
  0
DICTIONARY
  5
354D
330
279
100
AcDbDictionary
280
     1
281
     1
  3
ACAD_ROUNDTRIP_2008_TABLESTYLE_CELLSTYLEMAP
360
354E
  0
CELLSTYLEMAP
  5
354E
102
{ACAD_REACTORS
330
354D
102
}
330
354D
100
AcDbCellStyleMap
 90
        3
300
CELLSTYLE
  1
TABLEFORMAT_BEGIN
 90
        5
170
     1
 91
        0
 92
    32768
 62
   257
 93
        1
300
CONTENTFORMAT
  1
CONTENTFORMAT_BEGIN
 90
        0
 91
        0
 92
        4
 93
        0
300

 40
0.0
140
1.0
 94
        5
 62
     0
340
17
144
6.0
309
CONTENTFORMAT_END
171
     1
301
MARGIN
  1
CELLMARGIN_BEGIN
 40
0.06
 40
0.06
 40
0.06
 40
0.06
 40
0.18
 40
0.18
309
CELLMARGIN_END
 94
        6
 95
        1
302
GRIDFORMAT
  1
GRIDFORMAT_BEGIN
 90
        0
 91
        1
 62
     0
 92
       -2
340
0
 93
        0
 40
0.045
309
GRIDFORMAT_END
 95
        2
302
GRIDFORMAT
  1
GRIDFORMAT_BEGIN
 90
        0
 91
        1
 62
     0
 92
       -2
340
0
 93
        0
 40
0.045
309
GRIDFORMAT_END
 95
        4
302
GRIDFORMAT
  1
GRIDFORMAT_BEGIN
 90
        0
 91
        1
 62
     0
 92
       -2
340
0
 93
        0
 40
0.045
309
GRIDFORMAT_END
 95
        8
302
GRIDFORMAT
  1
GRIDFORMAT_BEGIN
 90
        0
 91
        1
 62
     0
 92
       -2
340
0
 93
        0
 40
0.045
309
GRIDFORMAT_END
 95
       16
302
GRIDFORMAT
  1
GRIDFORMAT_BEGIN
 90
        0
 91
        1
 62
     0
 92
       -2
340
0
 93
        0
 40
0.045
309
GRIDFORMAT_END
 95
       32
302
GRIDFORMAT
  1
GRIDFORMAT_BEGIN
 90
        0
 91
        1
 62
     0
 92
       -2
340
0
 93
        0
 40
0.045
309
GRIDFORMAT_END
309
TABLEFORMAT_END
  1
CELLSTYLE_BEGIN
 90
        1
 91
        1
300
_TITLE
309
CELLSTYLE_END
300
CELLSTYLE
  1
TABLEFORMAT_BEGIN
 90
        5
170
     1
 91
        0
 92
        0
 62
   257
 93
        1
300
CONTENTFORMAT
  1
CONTENTFORMAT_BEGIN
 90
        0
 91
        0
 92
        4
 93
        0
300

 40
0.0
140
1.0
 94
        5
 62
     0
340
17
144
4.5
309
CONTENTFORMAT_END
171
     1
301
MARGIN
  1
CELLMARGIN_BEGIN
 40
0.06
 40
0.06
 40
0.06
 40
0.06
 40
0.18
 40
0.18
309
CELLMARGIN_END
 94
        6
 95
        1
302
GRIDFORMAT
  1
GRIDFORMAT_BEGIN
 90
        0
 91
        1
 62
     0
 92
       -2
340
0
 93
        0
 40
0.045
309
GRIDFORMAT_END
 95
        2
302
GRIDFORMAT
  1
GRIDFORMAT_BEGIN
 90
        0
 91
        1
 62
     0
 92
       -2
340
0
 93
        0
 40
0.045
309
GRIDFORMAT_END
 95
        4
302
GRIDFORMAT
  1
GRIDFORMAT_BEGIN
 90
        0
 91
        1
 62
     0
 92
       -2
340
0
 93
        0
 40
0.045
309
GRIDFORMAT_END
 95
        8
302
GRIDFORMAT
  1
GRIDFORMAT_BEGIN
 90
        0
 91
        1
 62
     0
 92
       -2
340
0
 93
        0
 40
0.045
309
GRIDFORMAT_END
 95
       16
302
GRIDFORMAT
  1
GRIDFORMAT_BEGIN
 90
        0
 91
        1
 62
     0
 92
       -2
340
0
 93
        0
 40
0.045
309
GRIDFORMAT_END
 95
       32
302
GRIDFORMAT
  1
GRIDFORMAT_BEGIN
 90
        0
 91
        1
 62
     0
 92
       -2
340
0
 93
        0
 40
0.045
309
GRIDFORMAT_END
309
TABLEFORMAT_END
  1
CELLSTYLE_BEGIN
 90
        2
 91
        1
300
_HEADER
309
CELLSTYLE_END
300
CELLSTYLE
  1
TABLEFORMAT_BEGIN
 90
        5
170
     1
 91
        0
 92
        0
 62
   257
 93
        1
300
CONTENTFORMAT
  1
CONTENTFORMAT_BEGIN
 90
        0
 91
        0
 92
        4
 93
        0
300

 40
0.0
140
1.0
 94
        2
 62
     0
340
17
144
4.5
309
CONTENTFORMAT_END
171
     1
301
MARGIN
  1
CELLMARGIN_BEGIN
 40
0.06
 40
0.06
 40
0.06
 40
0.06
 40
0.18
 40
0.18
309
CELLMARGIN_END
 94
        6
 95
        1
302
GRIDFORMAT
  1
GRIDFORMAT_BEGIN
 90
        0
 91
        1
 62
     0
 92
       -2
340
0
 93
        0
 40
0.045
309
GRIDFORMAT_END
 95
        2
302
GRIDFORMAT
  1
GRIDFORMAT_BEGIN
 90
        0
 91
        1
 62
     0
 92
       -2
340
0
 93
        0
 40
0.045
309
GRIDFORMAT_END
 95
        4
302
GRIDFORMAT
  1
GRIDFORMAT_BEGIN
 90
        0
 91
        1
 62
     0
 92
       -2
340
0
 93
        0
 40
0.045
309
GRIDFORMAT_END
 95
        8
302
GRIDFORMAT
  1
GRIDFORMAT_BEGIN
 90
        0
 91
        1
 62
     0
 92
       -2
340
0
 93
        0
 40
0.045
309
GRIDFORMAT_END
 95
       16
302
GRIDFORMAT
  1
GRIDFORMAT_BEGIN
 90
        0
 91
        1
 62
     0
 92
       -2
340
0
 93
        0
 40
0.045
309
GRIDFORMAT_END
 95
       32
302
GRIDFORMAT
  1
GRIDFORMAT_BEGIN
 90
        0
 91
        1
 62
     0
 92
       -2
340
0
 93
        0
 40
0.045
309
GRIDFORMAT_END
309
TABLEFORMAT_END
  1
CELLSTYLE_BEGIN
 90
        3
 91
        2
300
_DATA
309
CELLSTYLE_END
  0
ENDSEC
  0
EOF
