  0
SECTION
  2
HEADER
  9
$ACADVER
  1
AC1021
  9
$ACADMAINTVER
 70
    25
  9
$DWGCODEPAGE
  3
ANSI_932
  9
$LASTSAVEDBY
  1
howeNelson
  9
$INSBASE
 10
0.0
 20
0.0
 30
0.0
  9
$EXTMIN
 10
0.0
 20
0.0
 30
-0.0000000000000071
  9
$EXTMAX
 10
1050.0
 20
1485.0
 30
0.0000000000000071
  9
$LIMMIN
 10
0.0
 20
0.0
  9
$LIMMAX
 10
1050.0
 20
1485.0
  9
$ORTHOMODE
 70
     0
  9
$REGENMODE
 70
     1
  9
$FILLMODE
 70
     1
  9
$QTEXTMODE
 70
     0
  9
$MIRRTEXT
 70
     1
  9
$LTSCALE
 40
50.0
  9
$ATTMODE
 70
     1
  9
$TEXTSIZE
 40
2.5
  9
$TRACEWID
 40
1.0
  9
$TEXTSTYLE
  7
ＭＳ ゴシック
  9
$CLAYER
  8
DIM
  9
$CELTYPE
  6
ByLayer
  9
$CECOLOR
 62
   256
  9
$CELTSCALE
 40
0.05
  9
$DISPSILH
 70
     0
  9
$DIMSCALE
 40
1.0
  9
$DIMASZ
 40
6.0
  9
$DIMEXO
 40
5.0
  9
$DIMDLI
 40
0.9999999999999999
  9
$DIMRND
 40
0.0
  9
$DIMDLE
 40
0.0
  9
$DIMEXE
 40
0.0
  9
$DIMTP
 40
0.0
  9
$DIMTM
 40
0.0
  9
$DIMTXT
 40
12.0
  9
$DIMCEN
 40
0.0
  9
$DIMTSZ
 40
0.0
  9
$DIMTOL
 70
     0
  9
$DIMLIM
 70
     0
  9
$DIMTIH
 70
     0
  9
$DIMTOH
 70
     0
  9
$DIMSE1
 70
     0
  9
$DIMSE2
 70
     0
  9
$DIMTAD
 70
     1
  9
$DIMZIN
 70
    11
  9
$DIMBLK
  1
DOT
  9
$DIMASO
 70
     1
  9
$DIMSHO
 70
     1
  9
$DIMPOST
  1
<>
  9
$DIMAPOST
  1
[]
  9
$DIMALT
 70
     0
  9
$DIMALTD
 70
     1
  9
$DIMALTF
 40
1.0
  9
$DIMLFAC
 40
1.0
  9
$DIMTOFL
 70
     0
  9
$DIMTVP
 40
0.0
  9
$DIMTIX
 70
     1
  9
$DIMSOXD
 70
     0
  9
$DIMSAH
 70
     0
  9
$DIMBLK1
  1

  9
$DIMBLK2
  1

  9
$DIMSTYLE
  2
tfrom線あり
  9
$DIMCLRD
 70
     0
  9
$DIMCLRE
 70
     0
  9
$DIMCLRT
 70
     0
  9
$DIMTFAC
 40
1.0
  9
$DIMGAP
 40
10.0
  9
$DIMJUST
 70
     0
  9
$DIMSD1
 70
     0
  9
$DIMSD2
 70
     0
  9
$DIMTOLJ
 70
     1
  9
$DIMTZIN
 70
    11
  9
$DIMALTZ
 70
    11
  9
$DIMALTTZ
 70
    11
  9
$DIMUPT
 70
     0
  9
$DIMDEC
 70
     0
  9
$DIMTDEC
 70
     1
  9
$DIMALTU
 70
     2
  9
$DIMALTTD
 70
     2
  9
$DIMTXSTY
  7
ＭＳ ゴシック
  9
$DIMAUNIT
 70
     0
  9
$DIMADEC
 70
     2
  9
$DIMALTRND
 40
0.0
  9
$DIMAZIN
 70
     0
  9
$DIMDSEP
 70
    46
  9
$DIMATFIT
 70
     0
  9
$DIMFRAC
 70
     2
  9
$DIMLDRBLK
  1
DOT
  9
$DIMLUNIT
 70
     2
  9
$DIMLWD
 70
    -2
  9
$DIMLWE
 70
    -2
  9
$DIMTMOVE
 70
     0
  9
$DIMFXL
 40
1.0
  9
$DIMFXLON
 70
     0
  9
$DIMJOGANG
 40
0.7853981633974483
  9
$DIMTFILL
 70
     0
  9
$DIMTFILLCLR
 70
     0
  9
$DIMARCSYM
 70
     0
  9
$DIMLTYPE
  6

  9
$DIMLTEX1
  6

  9
$DIMLTEX2
  6

  9
$LUNITS
 70
     2
  9
$LUPREC
 70
     0
  9
$SKETCHINC
 40
0.1
  9
$FILLETRAD
 40
0.0
  9
$AUNITS
 70
     0
  9
$AUPREC
 70
     0
  9
$MENU
  1
acad
  9
$ELEVATION
 40
0.0
  9
$PELEVATION
 40
0.0
  9
$THICKNESS
 40
0.0
  9
$LIMCHECK
 70
     0
  9
$CHAMFERA
 40
0.0
  9
$CHAMFERB
 40
0.0
  9
$CHAMFERC
 40
0.0
  9
$CHAMFERD
 40
0.0
  9
$SKPOLY
 70
     0
  9
$TDCREATE
 40
2447893.375
  9
$TDUCREATE
 40
0.0
  9
$TDUPDATE
 40
2457581.560350243
  9
$TDUUPDATE
 40
2457581.185350243
  9
$TDINDWG
 40
0.1231012731
  9
$TDUSRTIMER
 40
2457581.184359097
  9
$USRTIMER
 70
     1
  9
$ANGBASE
 50
0.0
  9
$ANGDIR
 70
     0
  9
$PDMODE
 70
     1
  9
$PDSIZE
 40
-2.0
  9
$PLINEWID
 40
0.0
  9
$SPLFRAME
 70
     0
  9
$SPLINETYPE
 70
     6
  9
$SPLINESEGS
 70
     8
  9
$HANDSEED
  5
1102
  9
$SURFTAB1
 70
     6
  9
$SURFTAB2
 70
     6
  9
$SURFTYPE
 70
     6
  9
$SURFU
 70
     6
  9
$SURFV
 70
     6
  9
$UCSBASE
  2

  9
$UCSNAME
  2

  9
$UCSORG
 10
0.0
 20
0.0
 30
0.0
  9
$UCSXDIR
 10
1.0
 20
0.0
 30
0.0
  9
$UCSYDIR
 10
0.0
 20
1.0
 30
0.0
  9
$UCSORTHOREF
  2

  9
$UCSORTHOVIEW
 70
     0
  9
$UCSORGTOP
 10
0.0
 20
0.0
 30
0.0
  9
$UCSORGBOTTOM
 10
0.0
 20
0.0
 30
0.0
  9
$UCSORGLEFT
 10
0.0
 20
0.0
 30
0.0
  9
$UCSORGRIGHT
 10
0.0
 20
0.0
 30
0.0
  9
$UCSORGFRONT
 10
0.0
 20
0.0
 30
0.0
  9
$UCSORGBACK
 10
0.0
 20
0.0
 30
0.0
  9
$PUCSBASE
  2

  9
$PUCSNAME
  2

  9
$PUCSORG
 10
0.0
 20
0.0
 30
0.0
  9
$PUCSXDIR
 10
1.0
 20
0.0
 30
0.0
  9
$PUCSYDIR
 10
0.0
 20
1.0
 30
0.0
  9
$PUCSORTHOREF
  2

  9
$PUCSORTHOVIEW
 70
     0
  9
$PUCSORGTOP
 10
0.0
 20
0.0
 30
0.0
  9
$PUCSORGBOTTOM
 10
0.0
 20
0.0
 30
0.0
  9
$PUCSORGLEFT
 10
0.0
 20
0.0
 30
0.0
  9
$PUCSORGRIGHT
 10
0.0
 20
0.0
 30
0.0
  9
$PUCSORGFRONT
 10
0.0
 20
0.0
 30
0.0
  9
$PUCSORGBACK
 10
0.0
 20
0.0
 30
0.0
  9
$USERI1
 70
     0
  9
$USERI2
 70
     0
  9
$USERI3
 70
     0
  9
$USERI4
 70
     0
  9
$USERI5
 70
     0
  9
$USERR1
 40
0.0
  9
$USERR2
 40
0.0
  9
$USERR3
 40
0.0
  9
$USERR4
 40
0.0
  9
$USERR5
 40
0.0
  9
$WORLDVIEW
 70
     1
  9
$SHADEDGE
 70
     3
  9
$SHADEDIF
 70
    70
  9
$TILEMODE
 70
     1
  9
$MAXACTVP
 70
    64
  9
$PINSBASE
 10
0.0
 20
0.0
 30
0.0
  9
$PLIMCHECK
 70
     0
  9
$PEXTMIN
 10
0.0
 20
0.0
 30
0.0
  9
$PEXTMAX
 10
0.0
 20
0.0
 30
0.0
  9
$PLIMMIN
 10
-95.87226993865028
 20
-25.69999999999999
  9
$PLIMMAX
 10
201.1277300613497
 20
184.3
  9
$UNITMODE
 70
     0
  9
$VISRETAIN
 70
     0
  9
$PLINEGEN
 70
     1
  9
$PSLTSCALE
 70
     0
  9
$TREEDEPTH
 70
  3020
  9
$CMLSTYLE
  2
Standard
  9
$CMLJUST
 70
     0
  9
$CMLSCALE
 40
1.0
  9
$PROXYGRAPHICS
 70
     0
  9
$MEASUREMENT
 70
     1
  9
$CELWEIGHT
370
    -1
  9
$ENDCAPS
280
     0
  9
$JOINSTYLE
280
     0
  9
$LWDISPLAY
290
     1
  9
$INSUNITS
 70
     4
  9
$HYPERLINKBASE
  1

  9
$STYLESHEET
  1

  9
$XEDIT
290
     1
  9
$CEPSNTYPE
380
     0
  9
$PSTYLEMODE
290
     1
  9
$FINGERPRINTGUID
  2

  9
$VERSIONGUID
  2

  9
$EXTNAMES
290
     1
  9
$PSVPSCALE
 40
0.0
  9
$OLESTARTUP
290
     0
  9
$SORTENTS
280
   127
  9
$INDEXCTL
280
     0
  9
$HIDETEXT
280
     1
  9
$XCLIPFRAME
290
     0
  9
$HALOGAP
280
     0
  9
$OBSCOLOR
 70
   257
  9
$OBSLTYPE
280
     0
  9
$INTERSECTIONDISPLAY
280
     0
  9
$INTERSECTIONCOLOR
 70
   257
  9
$DIMASSOC
280
     2
  9
$PROJECTNAME
  1

  9
$CAMERADISPLAY
290
     0
  9
$LENSLENGTH
 40
50.0
  9
$CAMERAHEIGHT
 40
0.0
  9
$STEPSPERSEC
 40
2.0
  9
$STEPSIZE
 40
6.0
  9
$3DDWFPREC
 40
2.0
  9
$PSOLWIDTH
 40
0.25
  9
$PSOLHEIGHT
 40
4.0
  9
$LOFTANG1
 40
1.570796326794897
  9
$LOFTANG2
 40
1.570796326794897
  9
$LOFTMAG1
 40
0.0
  9
$LOFTMAG2
 40
0.0
  9
$LOFTPARAM
 70
     7
  9
$LOFTNORMALS
280
     1
  9
$LATITUDE
 40
37.795
  9
$LONGITUDE
 40
-122.394
  9
$NORTHDIRECTION
 40
0.0
  9
$TIMEZONE
 70
 -8000
  9
$LIGHTGLYPHDISPLAY
280
     1
  9
$TILEMODELIGHTSYNCH
280
     1
  9
$SOLIDHIST
280
     1
  9
$SHOWHIST
280
     1
  9
$DWFFRAME
280
     2
  9
$DGNFRAME
280
     2
  9
$REALWORLDSCALE
290
     1
  9
$INTERFERECOLOR
 62
   256
  9
$CSHADOW
280
     0
  9
$SHADOWPLANELOCATION
 40
0.0
  0
ENDSEC
  0
SECTION
  2
CLASSES
  0
CLASS
  1
LWPOLYLINE
  2
AcDbPolyline
  3
ObjectDBX Classes
 90
        0
 91
        1
280
     0
281
     1
  0
CLASS
  1
IMAGE
  2
AcDbRasterImage
  3
ISM
 90
      127
 91
        6
280
     0
281
     1
  0
CLASS
  1
OLE2FRAME
  2
AcDbOle2Frame
  3
ObjectDBX Classes
 90
        0
 91
        1
280
     0
281
     1
  0
CLASS
  1
HATCH
  2
AcDbHatch
  3
ObjectDBX Classes
 90
        0
 91
        1
280
     0
281
     1
  0
CLASS
  1
DICTIONARYVAR
  2
AcDbDictionaryVar
  3
ObjectDBX Classes
 90
        0
 91
        5
280
     0
281
     0
  0
CLASS
  1
RASTERVARIABLES
  2
AcDbRasterVariables
  3
ISM
 90
        0
 91
        5
280
     0
281
     0
  0
CLASS
  1
IMAGEDEF
  2
AcDbRasterImageDef
  3
ISM
 90
        0
 91
        5
280
     0
281
     0
  0
CLASS
  1
IMAGEDEF_REACTOR
  2
AcDbRasterImageDefReactor
  3
ISM
 90
        1
 91
        5
280
     0
281
     0
  0
CLASS
  1
IDBUFFER
  2
AcDbIdBuffer
  3
ObjectDBX Classes
 90
        0
 91
        5
280
     0
281
     0
  0
CLASS
  1
SPATIAL_FILTER
  2
AcDbSpatialFilter
  3
ObjectDBX Classes
 90
        0
 91
        5
280
     0
281
     0
  0
CLASS
  1
XRECORD
  2
AcDbXrecord
  3
ObjectDBX Classes
 90
        0
 91
        1
280
     0
281
     0
  0
CLASS
  1
SORTENTSTABLE
  2
AcDbSortentsTable
  3
ObjectDBX Classes
 90
        0
 91
        5
280
     0
281
     0
  0
CLASS
  1
LAYER_INDEX
  2
AcDbLayerIndex
  3
ObjectDBX Classes
 90
        0
 91
        5
280
     0
281
     0
  0
CLASS
  1
SPATIAL_INDEX
  2
AcDbSpatialIndex
  3
AutoCAD 2000
 90
        0
 91
        5
280
     0
281
     0
  0
CLASS
  1
OBJECT_PTR
  2
CAseDLPNTableRecord
  3
ASE-LPNTableRecord
 90
        1
 91
        5
280
     0
281
     0
  0
CLASS
  1
LAYOUT
  2
AcDbLayout
  3
ObjectDBX Classes
 90
        0
 91
        1
280
     0
281
     0
  0
CLASS
  1
PLOTSETTINGS
  2
AcDbPlotSettings
  3
ObjectDBX Classes
 90
        0
 91
        5
280
     0
281
     0
  0
CLASS
  1
ACDBDICTIONARYWDFLT
  2
AcDbDictionaryWithDefault
  3
ObjectDBX Classes
 90
        0
 91
        5
280
     0
281
     0
  0
CLASS
  1
ACDBPLACEHOLDER
  2
AcDbPlaceHolder
  3
ObjectDBX Classes
 90
        0
 91
        1
280
     0
281
     0
  0
CLASS
  1
SCALE
  2
AcDbScale
  3
ObjectDBX Classes
 90
     1153
 91
        5
280
     0
281
     0
  0
CLASS
  1
MATERIAL
  2
AcDbMaterial
  3
ObjectDBX Classes
 90
     1153
 91
        5
280
     0
281
     0
  0
CLASS
  1
VISUALSTYLE
  2
AcDbVisualStyle
  3
ObjectDBX Classes
 90
     4095
 91
        5
280
     0
281
     0
  0
CLASS
  1
TABLESTYLE
  2
AcDbTableStyle
  3
ObjectDBX Classes
 90
     4095
 91
        5
280
     0
281
     0
  0
CLASS
  1
DIMASSOC
  2
AcDbDimAssoc
  3
"AcDbDimAssoc|Product Desc:     AcDim ARX App For Dimension|Company:          Autodesk, Inc.|WEB Address:      www.autodesk.com"
 90
        0
 91
        5
280
     0
281
     0
  0
CLASS
  1
CELLSTYLEMAP
  2
AcDbCellStyleMap
  3
ObjectDBX Classes
 90
     1152
 91
        5
280
     0
281
     0
  0
CLASS
  1
SUN
  2
AcDbSun
  3
SCENEOE
 90
     1153
 91
        5
280
     0
281
     0
  0
CLASS
  1
MLEADERSTYLE
  2
AcDbMLeaderStyle
  3
ACDB_MLEADERSTYLE_CLASS
 90
     4095
 91
        5
280
     0
281
     0
  0
ENDSEC
  0
SECTION
  2
TABLES
  0
TABLE
  2
VPORT
  5
7
330
0
100
AcDbSymbolTable
 70
     1
  0
VPORT
  5
15
330
7
100
AcDbSymbolTableRecord
100
AcDbViewportTableRecord
  2
*ACTIVE
 70
     0
 10
0.0
 20
0.0
 11
1.0
 21
1.0
 12
616.0201356709003
 22
668.901285469834
 13
0.0
 23
0.0
 14
1.0
 24
1.0
 15
0.0
 25
0.0
 16
0.0
 26
0.0
 36
1.0
 17
-91.02013567090034
 27
73.59871453016603
 37
-46.86809886248109
 40
1514.7
 41
2.479940564635958
 42
50.0
 43
0.0
 44
0.0
 50
0.0
 51
0.0
 71
    16
 72
  2000
 73
     1
 74
     1
 75
     0
 76
     0
 77
     0
 78
     0
281
     0
 65
     1
110
0.0
120
0.0
130
0.0
111
1.0
121
0.0
131
0.0
112
0.0
122
1.0
132
0.0
 79
     0
146
0.0
348
26C
 60
     3
 61
     5
292
     1
282
     1
141
0.0
142
0.0
 63
   256
361
904
  0
ENDTAB
  0
TABLE
  2
LTYPE
  5
4
330
0
100
AcDbSymbolTable
 70
     3
  0
LTYPE
  5
11
330
4
100
AcDbSymbolTableRecord
100
AcDbLinetypeTableRecord
  2
ByBlock
 70
     0
  3

 72
    65
 73
     0
 40
0.0
  0
LTYPE
  5
12
330
4
100
AcDbSymbolTableRecord
100
AcDbLinetypeTableRecord
  2
ByLayer
 70
     0
  3

 72
    65
 73
     0
 40
0.0
  0
LTYPE
  5
13
330
4
100
AcDbSymbolTableRecord
100
AcDbLinetypeTableRecord
  2
Continuous
 70
     0
  3
Solid line
 72
    65
 73
     0
 40
0.0
  0
LTYPE
  5
D6C
330
4
100
AcDbSymbolTableRecord
100
AcDbLinetypeTableRecord
  2
BORDER
 70
     0
  3
Border __  __  . __  __  . __  __  . __  __  . 
 72
    65
 73
     6
 40
44.45
 49
12.7
 74
     0
 49
-6.35
 74
     0
 49
12.7
 74
     0
 49
-6.35
 74
     0
 49
0.0
 74
     0
 49
-6.35
 74
     0
  0
LTYPE
  5
10AF
330
4
100
AcDbSymbolTableRecord
100
AcDbLinetypeTableRecord
  2
CENTER
 70
     0
  3
 Center _____  _  _____  _  _____  _  _____  _ 
 72
    65
 73
     4
 40
50.8
 49
31.75
 74
     0
 49
-6.35
 74
     0
 49
6.35
 74
     0
 49
-6.35
 74
     0
  0
ENDTAB
  0
TABLE
  2
LAYER
  5
2
102
{ACAD_XDICTIONARY
360
2E1
102
}
330
0
100
AcDbSymbolTable
 70
     7
  0
LAYER
  5
14
330
2
100
AcDbSymbolTableRecord
100
AcDbLayerTableRecord
  2
0
 70
     0
 62
     7
  6
Continuous
370
    -3
390
1D
347
266
  0
LAYER
  5
4B
330
2
100
AcDbSymbolTableRecord
100
AcDbLayerTableRecord
  2
TEMPLATE
 70
     0
 62
     7
  6
Continuous
370
    20
390
1D
347
266
  0
LAYER
  5
4C
330
2
100
AcDbSymbolTableRecord
100
AcDbLayerTableRecord
  2
DIM
 70
     0
 62
     3
  6
Continuous
370
    13
390
1D
347
266
  0
LAYER
  5
4D
330
2
100
AcDbSymbolTableRecord
100
AcDbLayerTableRecord
  2
MODEL
 70
     0
 62
     7
  6
Continuous
370
    20
390
1D
347
266
  0
LAYER
  5
667
330
2
100
AcDbSymbolTableRecord
100
AcDbLayerTableRecord
  2
LOGO
 70
     0
 62
     7
  6
Continuous
370
    -3
390
1D
347
266
  0
LAYER
  5
D6B
330
2
100
AcDbSymbolTableRecord
100
AcDbLayerTableRecord
  2
BORDER
 70
     0
 62
     4
  6
BORDER
290
     0
370
    20
390
1D
347
266
1001
AcAecLayerStandard
1000

1000

  0
LAYER
  5
D8C
330
2
100
AcDbSymbolTableRecord
100
AcDbLayerTableRecord
  2
Defpoints
 70
     0
 62
     7
  6
Continuous
290
     0
370
    -3
390
1D
347
266
  0
ENDTAB
  0
TABLE
  2
STYLE
  5
3
330
0
100
AcDbSymbolTable
 70
     2
  0
STYLE
  5
17
330
3
100
AcDbSymbolTableRecord
100
AcDbTextStyleTableRecord
  2
Standard
 70
     0
 40
0.0
 41
1.0
 50
0.0
 71
     0
 42
2.5
  3
txt
  4
BIGFONT.SHX
  0
STYLE
  5
39
330
3
100
AcDbSymbolTableRecord
100
AcDbTextStyleTableRecord
  2
ＭＳ ゴシック
 70
     0
 40
0.0
 41
1.0
 50
0.0
 71
     0
 42
2.5
  3
msgothic.ttc
  4
ＭＳ ゴシック
1001
ACAD
1000
ＭＳ ゴシック
1071
        0
  0
ENDTAB
  0
TABLE
  2
VIEW
  5
5
330
0
100
AcDbSymbolTable
 70
     0
  0
ENDTAB
  0
TABLE
  2
UCS
  5
6
330
0
100
AcDbSymbolTable
 70
     0
  0
ENDTAB
  0
TABLE
  2
APPID
  5
8
330
0
100
AcDbSymbolTable
 70
     3
  0
APPID
  5
16
330
8
100
AcDbSymbolTableRecord
100
AcDbRegAppTableRecord
  2
ACAD
 70
     0
  0
APPID
  5
7AC
330
8
100
AcDbSymbolTableRecord
100
AcDbRegAppTableRecord
  2
AcAecLayerStandard
 70
     0
  0
APPID
  5
E29
330
8
100
AcDbSymbolTableRecord
100
AcDbRegAppTableRecord
  2
ACAD_MLEADERVER
 70
     0
  0
ENDTAB
  0
TABLE
  2
DIMSTYLE
  5
9
330
0
100
AcDbSymbolTable
 70
     2
100
AcDbDimStyleTable
  0
DIMSTYLE
105
18
330
9
100
AcDbSymbolTableRecord
100
AcDbDimStyleTableRecord
  2
Standard
 70
     0
178
     0
340
17
  0
DIMSTYLE
105
57
102
{ACAD_REACTORS
330
1002
330
1003
330
1004
330
105F
330
1060
102
}
330
9
100
AcDbSymbolTableRecord
100
AcDbDimStyleTableRecord
  2
tfrom線あり
 70
     0
  3
<>
  4
[]
 41
6.0
 42
5.0
 43
0.9999999999999999
 44
0.0
 73
     0
 74
     0
 77
     1
 78
    11
140
12.0
141
0.0
143
1.0
147
10.0
171
     1
174
     1
178
     0
179
     2
271
     0
272
     1
276
     2
284
    11
285
    11
286
    11
289
     0
340
39
341
4E
342
4E
  0
ENDTAB
  0
TABLE
  2
BLOCK_RECORD
  5
1
330
0
100
AcDbSymbolTable
 70
    12
  0
BLOCK_RECORD
  5
A
330
1
100
AcDbSymbolTableRecord
100
AcDbBlockTableRecord
  2
*MODEL_SPACE
340
20
 70
     0
280
     1
281
     0
  0
BLOCK_RECORD
  5
B
330
1
100
AcDbSymbolTableRecord
100
AcDbBlockTableRecord
  2
*PAPER_SPACE
340
21
 70
     0
280
     1
281
     0
  0
BLOCK_RECORD
  5
4E
330
1
100
AcDbSymbolTableRecord
100
AcDbBlockTableRecord
  2
_DOT
340
0
102
{BLKREFS
331
106A
331
106B
331
1076
331
1077
331
1082
331
1083
331
108E
331
108F
331
109A
331
109B
102
}
 70
     0
280
     1
281
     0
  0
BLOCK_RECORD
  5
68A
330
1
100
AcDbSymbolTableRecord
100
AcDbBlockTableRecord
  2
名称未設定-1
340
0
102
{BLKREFS
331
6B5
102
}
 70
     1
280
     1
281
     0
  0
BLOCK_RECORD
  5
68D
330
1
100
AcDbSymbolTableRecord
100
AcDbBlockTableRecord
  2
block 2
340
0
102
{BLKREFS
331
68C
102
}
 70
     0
280
     1
281
     0
  0
BLOCK_RECORD
  5
690
330
1
100
AcDbSymbolTableRecord
100
AcDbBlockTableRecord
  2
block 3
340
0
102
{BLKREFS
331
68F
102
}
 70
     0
280
     1
281
     0
  0
BLOCK_RECORD
  5
693
330
1
100
AcDbSymbolTableRecord
100
AcDbBlockTableRecord
  2
block 4
340
0
102
{BLKREFS
331
692
102
}
 70
     0
280
     1
281
     0
  0
BLOCK_RECORD
  5
6A2
330
1
100
AcDbSymbolTableRecord
100
AcDbBlockTableRecord
  2
block 5
340
0
102
{BLKREFS
331
6A1
102
}
 70
     0
280
     1
281
     0
  0
BLOCK_RECORD
  5
1064
330
1
100
AcDbSymbolTableRecord
100
AcDbBlockTableRecord
  2
*D6
340
0
 70
     0
280
     1
281
     0
  0
BLOCK_RECORD
  5
1070
330
1
100
AcDbSymbolTableRecord
100
AcDbBlockTableRecord
  2
*D7
340
0
 70
     0
280
     1
281
     0
  0
BLOCK_RECORD
  5
107C
330
1
100
AcDbSymbolTableRecord
100
AcDbBlockTableRecord
  2
*D8
340
0
 70
     0
280
     1
281
     0
  0
BLOCK_RECORD
  5
1088
330
1
100
AcDbSymbolTableRecord
100
AcDbBlockTableRecord
  2
*D9
340
0
 70
     0
280
     1
281
     0
  0
BLOCK_RECORD
  5
1094
330
1
100
AcDbSymbolTableRecord
100
AcDbBlockTableRecord
  2
*D10
340
0
 70
     0
280
     1
281
     0
  0
ENDTAB
  0
ENDSEC
  0
SECTION
  2
BLOCKS
  0
BLOCK
  5
D
330
A
100
AcDbEntity
  8
0
390
1D
100
AcDbBlockBegin
  2
*MODEL_SPACE
 70
     0
 10
0.0
 20
0.0
 30
0.0
  3
*MODEL_SPACE
  1
*MODEL_SPACE
  0
ENDBLK
  5
E
330
A
100
AcDbEntity
  8
0
390
1D
100
AcDbBlockEnd
  0
BLOCK
  5
F
330
B
100
AcDbEntity
 67
     1
  8
0
390
1D
100
AcDbBlockBegin
  2
*PAPER_SPACE
 70
     0
 10
0.0
 20
0.0
 30
0.0
  3
*PAPER_SPACE
  1
*PAPER_SPACE
  0
ENDBLK
  5
10
330
B
100
AcDbEntity
 67
     1
  8
0
390
1D
100
AcDbBlockEnd
  0
BLOCK
  5
D4A
330
4E
100
AcDbEntity
  8
0
390
1D
100
AcDbBlockBegin
  2
_DOT
 70
     0
 10
0.0
 20
0.0
 30
0.0
  3
_DOT
  1
_DOT
  0
POLYLINE
  5
D4C
330
4E
100
AcDbEntity
  8
0
  6
ByBlock
 62
     0
370
    -2
390
1D
100
AcDb2dPolyline
 66
     1
 10
0.0
 20
0.0
 30
0.0
 70
     1
 40
0.5
 41
0.5
  0
VERTEX
  5
D4D
330
D4C
100
AcDbEntity
  8
0
  6
ByBlock
 62
     0
370
    -2
390
1D
100
AcDbVertex
100
AcDb2dVertex
 10
-0.25
 20
0.0
 30
0.0
 42
1.0
  0
VERTEX
  5
D4E
330
D4C
100
AcDbEntity
  8
0
  6
ByBlock
 62
     0
370
    -2
390
1D
100
AcDbVertex
100
AcDb2dVertex
 10
0.25
 20
0.0
 30
0.0
 42
1.0
  0
SEQEND
  5
D4F
330
D4C
100
AcDbEntity
  8
0
390
1D
  0
LINE
  5
D50
330
4E
100
AcDbEntity
  8
0
  6
ByBlock
 62
     0
370
    -2
390
1D
100
AcDbLine
 10
-0.5
 20
0.0
 30
0.0
 11
-1.0
 21
0.0
 31
0.0
  0
ENDBLK
  5
D51
330
4E
100
AcDbEntity
  8
0
390
1D
100
AcDbBlockEnd
  0
BLOCK
  5
68B
330
68A
100
AcDbEntity
  8
0
100
AcDbBlockBegin
  2
名称未設定-1
 70
     0
 10
0.0
 20
0.0
 30
0.0
  3
名称未設定-1
  1
名称未設定-1
  0
INSERT
  5
68F
330
68A
100
AcDbEntity
  8
LOGO
100
AcDbBlockReference
  2
block 3
 10
0.0
 20
0.0
 30
0.0
  0
ENDBLK
  5
6B1
330
68A
100
AcDbEntity
  8
0
100
AcDbBlockEnd
  0
BLOCK
  5
68E
330
68D
100
AcDbEntity
  8
0
100
AcDbBlockBegin
  2
block 2
 70
     0
 10
0.0
 20
0.0
 30
0.0
  3
block 2
  1
block 2
  0
ENDBLK
  5
6B0
330
68D
100
AcDbEntity
  8
0
100
AcDbBlockEnd
  0
BLOCK
  5
691
330
690
100
AcDbEntity
  8
0
100
AcDbBlockBegin
  2
block 3
 70
     0
 10
0.0
 20
0.0
 30
0.0
  3
block 3
  1
block 3
  0
INSERT
  5
692
330
690
100
AcDbEntity
  8
LOGO
100
AcDbBlockReference
  2
block 4
 10
0.0
 20
0.0
 30
0.0
  0
INSERT
  5
6A1
330
690
100
AcDbEntity
  8
LOGO
100
AcDbBlockReference
  2
block 5
 10
0.0
 20
0.0
 30
0.0
  0
ENDBLK
  5
6AF
330
690
100
AcDbEntity
  8
0
100
AcDbBlockEnd
  0
BLOCK
  5
694
330
693
100
AcDbEntity
  8
0
100
AcDbBlockBegin
  2
block 4
 70
     0
 10
0.0
 20
0.0
 30
0.0
  3
block 4
  1
block 4
  0
POLYLINE
  5
695
330
693
100
AcDbEntity
  8
LOGO
370
     0
100
AcDb2dPolyline
 66
     1
 10
0.0
 20
0.0
 30
0.0
  0
VERTEX
  5
696
330
695
100
AcDbEntity
  8
LOGO
370
     0
100
AcDbVertex
100
AcDb2dVertex
 10
83.79545727667795
 20
167.6444858234922
 30
0.0
  0
VERTEX
  5
697
330
695
100
AcDbEntity
  8
LOGO
370
     0
100
AcDbVertex
100
AcDb2dVertex
 10
83.79545727667795
 20
159.7968976406313
 30
0.0
  0
VERTEX
  5
698
330
695
100
AcDbEntity
  8
LOGO
370
     0
100
AcDbVertex
100
AcDb2dVertex
 10
71.3631329975216
 20
159.7968976406313
 30
0.0
  0
VERTEX
  5
699
330
695
100
AcDbEntity
  8
LOGO
370
     0
100
AcDbVertex
100
AcDb2dVertex
 10
71.3631329975216
 20
127.8027915271048
 30
0.0
  0
VERTEX
  5
69A
330
695
100
AcDbEntity
  8
LOGO
370
     0
100
AcDbVertex
100
AcDb2dVertex
 10
60.43011526263018
 20
127.8027915271048
 30
0.0
  0
VERTEX
  5
69B
330
695
100
AcDbEntity
  8
LOGO
370
     0
100
AcDbVertex
100
AcDb2dVertex
 10
60.43011526263018
 20
159.7968976406313
 30
0.0
  0
VERTEX
  5
69C
330
695
100
AcDbEntity
  8
LOGO
370
     0
100
AcDbVertex
100
AcDb2dVertex
 10
48.21793273020759
 20
159.7968976406313
 30
0.0
  0
VERTEX
  5
69D
330
695
100
AcDbEntity
  8
LOGO
370
     0
100
AcDbVertex
100
AcDb2dVertex
 10
48.21793273020759
 20
167.6444858234922
 30
0.0
  0
VERTEX
  5
69E
330
695
100
AcDbEntity
  8
LOGO
370
     0
100
AcDbVertex
100
AcDb2dVertex
 10
83.79545727667795
 20
167.6444858234922
 30
0.0
  0
SEQEND
  5
69F
330
695
100
AcDbEntity
  8
LOGO
370
     0
  0
HATCH
  5
6A0
330
693
100
AcDbEntity
  8
LOGO
 62
   250
420
  2234388
100
AcDbHatch
 10
0.0
 20
0.0
 30
0.0
210
0.0
220
0.0
230
1.0
  2
SOLID
 70
     1
 71
     0
 91
        1
 92
        1
 93
        8
 72
     1
 10
83.79545727667795
 20
167.6444858234922
 11
83.79545727667795
 21
159.7968976406313
 72
     1
 10
83.79545727667795
 20
159.7968976406313
 11
71.3631329975216
 21
159.7968976406313
 72
     1
 10
71.3631329975216
 20
159.7968976406313
 11
71.3631329975216
 21
127.8027915271048
 72
     1
 10
71.3631329975216
 20
127.8027915271048
 11
60.43011526263018
 21
127.8027915271048
 72
     1
 10
60.43011526263018
 20
127.8027915271048
 11
60.43011526263018
 21
159.7968976406313
 72
     1
 10
60.43011526263018
 20
159.7968976406313
 11
48.21793273020759
 21
159.7968976406313
 72
     1
 10
48.21793273020759
 20
159.7968976406313
 11
48.21793273020759
 21
167.6444858234922
 72
     1
 10
48.21793273020759
 20
167.6444858234922
 11
83.79545727667795
 21
167.6444858234922
 97
        0
 75
     2
 76
     1
 98
        0
  0
ENDBLK
  5
6AE
330
693
100
AcDbEntity
  8
0
100
AcDbBlockEnd
  0
BLOCK
  5
6A3
330
6A2
100
AcDbEntity
  8
0
100
AcDbBlockBegin
  2
block 5
 70
     0
 10
0.0
 20
0.0
 30
0.0
  3
block 5
  1
block 5
  0
SPLINE
  5
6A4
330
6A2
100
AcDbEntity
  8
LOGO
370
     0
100
AcDbSpline
210
0.0
220
0.0
230
1.0
 70
    11
 71
     3
 72
    56
 73
    52
 74
     0
 42
0.000000001
 43
0.0000000001
 40
0.0
 40
0.0
 40
0.0
 40
0.0
 40
1.0
 40
1.0
 40
1.0
 40
2.0
 40
2.0
 40
2.0
 40
3.0
 40
3.0
 40
3.0
 40
4.0
 40
4.0
 40
4.0
 40
5.0
 40
5.0
 40
5.0
 40
6.0
 40
6.0
 40
6.0
 40
7.0
 40
7.0
 40
7.0
 40
8.0
 40
8.0
 40
8.0
 40
9.0
 40
9.0
 40
9.0
 40
10.0
 40
10.0
 40
10.0
 40
11.0
 40
11.0
 40
11.0
 40
12.0
 40
12.0
 40
12.0
 40
13.0
 40
13.0
 40
13.0
 40
14.0
 40
14.0
 40
14.0
 40
15.0
 40
15.0
 40
15.0
 40
16.0
 40
16.0
 40
16.0
 40
17.0
 40
17.0
 40
17.0
 40
17.0
 10
100.4504378777679
 20
166.69157178364
 30
0.0
 10
101.9848844191641
 20
167.1313385124438
 30
0.0
 10
103.9637485713373
 20
166.7649523658846
 30
0.0
 10
103.9637485713373
 20
166.7649523658846
 30
0.0
 10
103.9637485713373
 20
166.7649523658846
 30
0.0
 10
103.0132460999156
 20
163.911205638077
 30
0.0
 10
103.0132460999156
 20
163.911205638077
 30
0.0
 10
103.0132460999156
 20
163.911205638077
 30
0.0
 10
101.0674548862189
 20
164.3601018759394
 30
0.0
 10
99.57090442016032
 20
163.1805004036133
 30
0.0
 10
98.40508333886608
 20
162.258247733807
 30
0.0
 10
97.65301849830304
 20
159.804132345923
 30
0.0
 10
97.3598406791005
 20
158.8699940888517
 30
0.0
 10
97.3598406791005
 20
158.8699940888517
 30
0.0
 10
96.07137411762282
 20
154.9119212747295
 30
0.0
 10
96.07137411762282
 20
154.9119212747295
 30
0.0
 10
96.07137411762282
 20
154.9119212747295
 30
0.0
 10
100.3012651448482
 20
154.9119212747295
 30
0.0
 10
100.3012651448482
 20
154.9119212747295
 30
0.0
 10
100.3012651448482
 20
154.9119212747295
 30
0.0
 10
99.64152892419852
 20
152.4199098115079
 30
0.0
 10
99.64152892419852
 20
152.4199098115079
 30
0.0
 10
99.64152892419852
 20
152.4199098115079
 30
0.0
 10
95.38097652692731
 20
152.4199098115079
 30
0.0
 10
95.38097652692731
 20
152.4199098115079
 30
0.0
 10
95.38097652692731
 20
152.4199098115079
 30
0.0
 10
87.75353009080013
 20
127.8027915271048
 30
0.0
 10
87.75353009080013
 20
127.8027915271048
 30
0.0
 10
87.75353009080013
 20
127.8027915271048
 30
0.0
 10
85.36538832498108
 20
127.8027915271048
 30
0.0
 10
85.36538832498108
 20
127.8027915271048
 30
0.0
 10
85.36538832498108
 20
127.8027915271048
 30
0.0
 10
93.00006946639998
 20
152.4199098115079
 30
0.0
 10
93.00006946639998
 20
152.4199098115079
 30
0.0
 10
93.00006946639998
 20
152.4199098115079
 30
0.0
 10
89.85297266450198
 20
152.4199098115079
 30
0.0
 10
89.85297266450198
 20
152.4199098115079
 30
0.0
 10
89.85297266450198
 20
152.4199098115079
 30
0.0
 10
90.51270888515164
 20
154.9119212747295
 30
0.0
 10
90.51270888515164
 20
154.9119212747295
 30
0.0
 10
90.51270888515164
 20
154.9119212747295
 30
0.0
 10
93.6904670570955
 20
154.9119212747295
 30
0.0
 10
93.6904670570955
 20
154.9119212747295
 30
0.0
 10
93.6904670570955
 20
154.9119212747295
 30
0.0
 10
94.81598049462158
 20
158.3616699146644
 30
0.0
 10
94.81598049462158
 20
158.3616699146644
 30
0.0
 10
95.7237637538445
 20
161.2605474231013
 30
0.0
 10
96.4968436907311
 20
162.8139420021662
 30
0.0
 10
97.15657991138076
 20
163.9844139654337
 30
0.0
 10
97.81183750494507
 20
165.1523021053827
 30
0.0
 10
99.1047826935081
 20
166.3084769129547
 30
0.0
 10
100.4504378777679
 20
166.69157178364
 30
0.0
  0
HATCH
  5
6A5
330
6A2
100
AcDbEntity
  8
LOGO
 62
   250
420
  2234388
100
AcDbHatch
 10
0.0
 20
0.0
 30
0.0
210
0.0
220
0.0
230
1.0
  2
SOLID
 70
     1
 71
     0
 91
        1
 92
        1
 93
        1
 72
     4
 94
        3
 73
     0
 74
     1
 95
       56
 96
       52
 40
0.0
 40
0.0
 40
0.0
 40
0.0
 40
1.0
 40
1.0
 40
1.0
 40
2.0
 40
2.0
 40
2.0
 40
3.0
 40
3.0
 40
3.0
 40
4.0
 40
4.0
 40
4.0
 40
5.0
 40
5.0
 40
5.0
 40
6.0
 40
6.0
 40
6.0
 40
7.0
 40
7.0
 40
7.0
 40
8.0
 40
8.0
 40
8.0
 40
9.0
 40
9.0
 40
9.0
 40
10.0
 40
10.0
 40
10.0
 40
11.0
 40
11.0
 40
11.0
 40
12.0
 40
12.0
 40
12.0
 40
13.0
 40
13.0
 40
13.0
 40
14.0
 40
14.0
 40
14.0
 40
15.0
 40
15.0
 40
15.0
 40
16.0
 40
16.0
 40
16.0
 40
17.0
 40
17.0
 40
17.0
 40
17.0
 10
100.4504378777679
 20
166.69157178364
 10
101.9848844191641
 20
167.1313385124438
 10
103.9637485713373
 20
166.7649523658846
 10
103.9637485713373
 20
166.7649523658846
 10
103.9637485713373
 20
166.7649523658846
 10
103.0132460999156
 20
163.911205638077
 10
103.0132460999156
 20
163.911205638077
 10
103.0132460999156
 20
163.911205638077
 10
101.0674548862189
 20
164.3601018759394
 10
99.57090442016032
 20
163.1805004036133
 10
98.40508333886608
 20
162.258247733807
 10
97.65301849830304
 20
159.804132345923
 10
97.3598406791005
 20
158.8699940888517
 10
97.3598406791005
 20
158.8699940888517
 10
96.07137411762282
 20
154.9119212747295
 10
96.07137411762282
 20
154.9119212747295
 10
96.07137411762282
 20
154.9119212747295
 10
100.3012651448482
 20
154.9119212747295
 10
100.3012651448482
 20
154.9119212747295
 10
100.3012651448482
 20
154.9119212747295
 10
99.64152892419852
 20
152.4199098115079
 10
99.64152892419852
 20
152.4199098115079
 10
99.64152892419852
 20
152.4199098115079
 10
95.38097652692731
 20
152.4199098115079
 10
95.38097652692731
 20
152.4199098115079
 10
95.38097652692731
 20
152.4199098115079
 10
87.75353009080013
 20
127.8027915271048
 10
87.75353009080013
 20
127.8027915271048
 10
87.75353009080013
 20
127.8027915271048
 10
85.36538832498108
 20
127.8027915271048
 10
85.36538832498108
 20
127.8027915271048
 10
85.36538832498108
 20
127.8027915271048
 10
93.00006946639998
 20
152.4199098115079
 10
93.00006946639998
 20
152.4199098115079
 10
93.00006946639998
 20
152.4199098115079
 10
89.85297266450198
 20
152.4199098115079
 10
89.85297266450198
 20
152.4199098115079
 10
89.85297266450198
 20
152.4199098115079
 10
90.51270888515164
 20
154.9119212747295
 10
90.51270888515164
 20
154.9119212747295
 10
90.51270888515164
 20
154.9119212747295
 10
93.6904670570955
 20
154.9119212747295
 10
93.6904670570955
 20
154.9119212747295
 10
93.6904670570955
 20
154.9119212747295
 10
94.81598049462158
 20
158.3616699146644
 10
94.81598049462158
 20
158.3616699146644
 10
95.7237637538445
 20
161.2605474231013
 10
96.4968436907311
 20
162.8139420021662
 10
97.15657991138076
 20
163.9844139654337
 10
97.81183750494507
 20
165.1523021053827
 10
99.1047826935081
 20
166.3084769129547
 10
100.4504378777679
 20
166.69157178364
 97
        0
 75
     2
 76
     1
 98
        0
  0
SPLINE
  5
6A6
330
6A2
100
AcDbEntity
  8
LOGO
370
     0
100
AcDbSpline
210
0.0
220
0.0
230
1.0
 70
    11
 71
     3
 72
    38
 73
    34
 74
     0
 42
0.000000001
 43
0.0000000001
 40
0.0
 40
0.0
 40
0.0
 40
0.0
 40
1.0
 40
1.0
 40
1.0
 40
2.0
 40
2.0
 40
2.0
 40
3.0
 40
3.0
 40
3.0
 40
4.0
 40
4.0
 40
4.0
 40
5.0
 40
5.0
 40
5.0
 40
6.0
 40
6.0
 40
6.0
 40
7.0
 40
7.0
 40
7.0
 40
8.0
 40
8.0
 40
8.0
 40
9.0
 40
9.0
 40
9.0
 40
10.0
 40
10.0
 40
10.0
 40
11.0
 40
11.0
 40
11.0
 40
11.0
 10
126.377554584636
 20
154.8151140277308
 30
0.0
 10
126.377554584636
 20
154.8151140277308
 30
0.0
 10
128.8311532078563
 20
154.8151140277308
 30
0.0
 10
128.8311532078563
 20
154.8151140277308
 30
0.0
 10
128.8311532078563
 20
154.8151140277308
 30
0.0
 10
127.7345785914971
 20
151.3062819612468
 30
0.0
 10
127.7345785914971
 20
151.3062819612468
 30
0.0
 10
128.571392836906
 20
152.2922689395754
 30
0.0
 10
129.8860421413442
 20
153.604506675583
 30
0.0
 10
131.0163787157314
 20
154.2664822097754
 30
0.0
 10
132.7044766171327
 20
155.2500576196734
 30
0.0
 10
133.6642808525008
 20
155.3847609420097
 30
0.0
 10
134.7284715499351
 20
155.3565111403944
 30
0.0
 10
134.7284715499351
 20
155.3565111403944
 30
0.0
 10
133.6877075172549
 20
152.0345756272799
 30
0.0
 10
133.6877075172549
 20
152.0345756272799
 30
0.0
 10
133.011434827367
 20
152.3184516825359
 30
0.0
 10
130.930940291334
 20
151.7768823149844
 30
0.0
 10
129.739280976855
 20
150.9162968950455
 30
0.0
 10
128.66613302525
 20
150.1454562717016
 30
0.0
 10
127.9192358313239
 20
149.4857200510519
 30
0.0
 10
127.0393578639405
 20
147.8282835196966
 30
0.0
 10
126.164647543194
 20
146.1699857139017
 30
0.0
 10
125.4742499524985
 20
143.5262176944419
 30
0.0
 10
124.2822461282437
 20
139.6959580071401
 30
0.0
 10
124.2822461282437
 20
139.6959580071401
 30
0.0
 10
120.5753209406769
 20
127.8027915271048
 30
0.0
 10
120.5753209406769
 20
127.8027915271048
 30
0.0
 10
120.5753209406769
 20
127.8027915271048
 30
0.0
 10
118.1964809388044
 20
127.8027915271048
 30
0.0
 10
118.1964809388044
 20
127.8027915271048
 30
0.0
 10
118.1964809388044
 20
127.8027915271048
 30
0.0
 10
126.377554584636
 20
154.8151140277308
 30
0.0
 10
126.377554584636
 20
154.8151140277308
 30
0.0
  0
HATCH
  5
6A7
330
6A2
100
AcDbEntity
  8
LOGO
 62
   250
420
  2234388
100
AcDbHatch
 10
0.0
 20
0.0
 30
0.0
210
0.0
220
0.0
230
1.0
  2
SOLID
 70
     1
 71
     0
 91
        1
 92
        1
 93
        1
 72
     4
 94
        3
 73
     0
 74
     1
 95
       38
 96
       34
 40
0.0
 40
0.0
 40
0.0
 40
0.0
 40
1.0
 40
1.0
 40
1.0
 40
2.0
 40
2.0
 40
2.0
 40
3.0
 40
3.0
 40
3.0
 40
4.0
 40
4.0
 40
4.0
 40
5.0
 40
5.0
 40
5.0
 40
6.0
 40
6.0
 40
6.0
 40
7.0
 40
7.0
 40
7.0
 40
8.0
 40
8.0
 40
8.0
 40
9.0
 40
9.0
 40
9.0
 40
10.0
 40
10.0
 40
10.0
 40
11.0
 40
11.0
 40
11.0
 40
11.0
 10
126.377554584636
 20
154.8151140277308
 10
126.377554584636
 20
154.8151140277308
 10
128.8311532078563
 20
154.8151140277308
 10
128.8311532078563
 20
154.8151140277308
 10
128.8311532078563
 20
154.8151140277308
 10
127.7345785914971
 20
151.3062819612468
 10
127.7345785914971
 20
151.3062819612468
 10
128.571392836906
 20
152.2922689395754
 10
129.8860421413442
 20
153.604506675583
 10
131.0163787157314
 20
154.2664822097754
 10
132.7044766171327
 20
155.2500576196734
 10
133.6642808525008
 20
155.3847609420097
 10
134.7284715499351
 20
155.3565111403944
 10
134.7284715499351
 20
155.3565111403944
 10
133.6877075172549
 20
152.0345756272799
 10
133.6877075172549
 20
152.0345756272799
 10
133.011434827367
 20
152.3184516825359
 10
130.930940291334
 20
151.7768823149844
 10
129.739280976855
 20
150.9162968950455
 10
128.66613302525
 20
150.1454562717016
 10
127.9192358313239
 20
149.4857200510519
 10
127.0393578639405
 20
147.8282835196966
 10
126.164647543194
 20
146.1699857139017
 10
125.4742499524985
 20
143.5262176944419
 10
124.2822461282437
 20
139.6959580071401
 10
124.2822461282437
 20
139.6959580071401
 10
120.5753209406769
 20
127.8027915271048
 10
120.5753209406769
 20
127.8027915271048
 10
120.5753209406769
 20
127.8027915271048
 10
118.1964809388044
 20
127.8027915271048
 10
118.1964809388044
 20
127.8027915271048
 10
118.1964809388044
 20
127.8027915271048
 10
126.377554584636
 20
154.8151140277308
 10
126.377554584636
 20
154.8151140277308
 97
        0
 75
     2
 76
     1
 98
        0
  0
SPLINE
  5
6A8
330
6A2
100
AcDbEntity
  8
LOGO
370
     0
100
AcDbSpline
210
0.0
220
0.0
230
1.0
 70
    11
 71
     3
 72
   104
 73
   100
 74
     0
 42
0.000000001
 43
0.0000000001
 40
0.0
 40
0.0
 40
0.0
 40
0.0
 40
1.0
 40
1.0
 40
1.0
 40
2.0
 40
2.0
 40
2.0
 40
3.0
 40
3.0
 40
3.0
 40
4.0
 40
4.0
 40
4.0
 40
5.0
 40
5.0
 40
5.0
 40
6.0
 40
6.0
 40
6.0
 40
7.0
 40
7.0
 40
7.0
 40
8.0
 40
8.0
 40
8.0
 40
9.0
 40
9.0
 40
9.0
 40
10.0
 40
10.0
 40
10.0
 40
11.0
 40
11.0
 40
11.0
 40
12.0
 40
12.0
 40
12.0
 40
13.0
 40
13.0
 40
13.0
 40
14.0
 40
14.0
 40
14.0
 40
15.0
 40
15.0
 40
15.0
 40
16.0
 40
16.0
 40
16.0
 40
17.0
 40
17.0
 40
17.0
 40
18.0
 40
18.0
 40
18.0
 40
19.0
 40
19.0
 40
19.0
 40
20.0
 40
20.0
 40
20.0
 40
21.0
 40
21.0
 40
21.0
 40
22.0
 40
22.0
 40
22.0
 40
23.0
 40
23.0
 40
23.0
 40
24.0
 40
24.0
 40
24.0
 40
25.0
 40
25.0
 40
25.0
 40
26.0
 40
26.0
 40
26.0
 40
27.0
 40
27.0
 40
27.0
 40
28.0
 40
28.0
 40
28.0
 40
29.0
 40
29.0
 40
29.0
 40
30.0
 40
30.0
 40
30.0
 40
31.0
 40
31.0
 40
31.0
 40
32.0
 40
32.0
 40
32.0
 40
33.0
 40
33.0
 40
33.0
 40
33.0
 10
139.8926730891197
 20
154.8294111834263
 30
0.0
 10
139.8926730891197
 20
154.8294111834263
 30
0.0
 10
142.0344903652445
 20
154.8294111834263
 30
0.0
 10
142.0344903652445
 20
154.8294111834263
 30
0.0
 10
142.0344903652445
 20
154.8294111834263
 30
0.0
 10
140.9516961399171
 20
151.3157559800812
 30
0.0
 10
140.9516961399171
 20
151.3157559800812
 30
0.0
 10
141.8928968473923
 20
152.7887075264977
 30
0.0
 10
142.7341897198865
 20
153.4484437471474
 30
0.0
 10
143.8552245303272
 20
154.2926649527359
 30
0.0
 10
144.9803934580775
 20
155.1296514530327
 30
0.0
 10
146.3139908001845
 20
155.3044901642492
 30
0.0
 10
147.241066606852
 20
155.3044901642492
 30
0.0
 10
148.3855280820469
 20
155.3044901642492
 30
0.0
 10
149.4969166187653
 20
155.0752189084569
 30
0.0
 10
150.0784491203092
 20
153.8172414621372
 30
0.0
 10
150.5228667310863
 20
152.833838307127
 30
0.0
 10
150.5414702589793
 20
152.7201500811143
 30
0.0
 10
150.4140016419347
 20
150.7765981809602
 30
0.0
 10
151.5818897818837
 20
152.7699317437168
 30
0.0
 10
152.4424752018226
 20
153.6256940267945
 30
0.0
 10
153.9038856707499
 20
154.4507949398263
 30
0.0
 10
155.4455669174378
 20
155.3044901642492
 30
0.0
 10
156.339225275853
 20
155.3659851592288
 30
0.0
 10
157.3748216618963
 20
155.2147453676543
 30
0.0
 10
158.911679771723
 20
154.9877134254046
 30
0.0
 10
159.8859534176746
 20
154.4390816074493
 30
0.0
 10
160.3965169054045
 20
152.7816450760939
 30
0.0
 10
160.9070803931344
 20
151.1219692311958
 30
0.0
 10
160.6328506116007
 20
150.2303779314354
 30
0.0
 10
159.9992971339115
 20
147.597634224801
 30
0.0
 10
159.7105979417943
 20
146.4014962832367
 30
0.0
 10
159.2947746424084
 20
144.9400858143094
 30
0.0
 10
158.7463150793409
 20
143.2092687007094
 30
0.0
 10
158.7463150793409
 20
143.2092687007094
 30
0.0
 10
153.9038856707499
 20
127.8027915271048
 30
0.0
 10
153.9038856707499
 20
127.8027915271048
 30
0.0
 10
153.9038856707499
 20
127.8027915271048
 30
0.0
 10
151.3882752878863
 20
127.8027915271048
 30
0.0
 10
151.3882752878863
 20
127.8027915271048
 30
0.0
 10
151.3882752878863
 20
127.8027915271048
 30
0.0
 10
155.6250565106276
 20
141.2751908193897
 30
0.0
 10
155.6250565106276
 20
141.2751908193897
 30
0.0
 10
156.5094131050963
 20
144.0936252951782
 30
0.0
 10
157.109893644309
 20
146.1506931664571
 30
0.0
 10
157.4220195011804
 20
147.4415712963654
 30
0.0
 10
157.8095929989511
 20
149.0530157726519
 30
0.0
 10
157.9656559273867
 20
149.5826995529385
 30
0.0
 10
157.7816877071116
 20
150.7529992613181
 30
0.0
 10
157.6111553680925
 20
151.8430281919372
 30
0.0
 10
157.0582171779396
 20
152.5547853887321
 30
0.0
 10
156.1170164704645
 20
152.5547853887321
 30
0.0
 10
155.1096698860365
 20
152.5547853887321
 30
0.0
 10
154.2962823053817
 20
152.4412694176073
 30
0.0
 10
153.156643967048
 20
151.2945686288697
 30
0.0
 10
152.0170056287143
 20
150.1476955852443
 30
0.0
 10
151.076149431015
 20
148.7930831468137
 30
0.0
 10
150.3337308641742
 20
147.2290087646991
 30
0.0
 10
149.5957909244188
 20
145.6683794803425
 30
0.0
 10
148.8530278478023
 20
143.6822806228776
 30
0.0
 10
148.0964843801539
 20
141.2751908193897
 30
0.0
 10
148.0964843801539
 20
141.2751908193897
 30
0.0
 10
143.8552245303272
 20
127.8027915271048
 30
0.0
 10
143.8552245303272
 20
127.8027915271048
 30
0.0
 10
143.8552245303272
 20
127.8027915271048
 30
0.0
 10
141.486030802177
 20
127.8027915271048
 30
0.0
 10
141.486030802177
 20
127.8027915271048
 30
0.0
 10
141.486030802177
 20
127.8027915271048
 30
0.0
 10
146.3329388378533
 20
143.2092687007094
 30
0.0
 10
146.3329388378533
 20
143.2092687007094
 30
0.0
 10
146.8483254624444
 20
144.8408669988801
 30
0.0
 10
147.2314203331297
 20
146.1837661049335
 30
0.0
 10
147.4867020769946
 20
147.224185627838
 30
0.0
 10
147.9169947869641
 20
149.0197705792876
 30
0.0
 10
148.0306830129768
 20
150.2400242051577
 30
0.0
 10
147.709255392159
 20
151.3157559800812
 30
0.0
 10
147.3874832615654
 20
152.3916600098926
 30
0.0
 10
146.8245542879144
 20
152.6683013598569
 30
0.0
 10
145.8840425999909
 20
152.6683013598569
 30
0.0
 10
145.0989048209514
 20
152.6683013598569
 30
0.0
 10
144.3282364524954
 20
152.3275811915945
 30
0.0
 10
143.4531816219731
 20
151.6538923250251
 30
0.0
 10
142.34627171234
 20
150.8074318058939
 30
0.0
 10
141.901854101563
 20
150.1097995099067
 30
0.0
 10
141.3578731655808
 20
149.289521733736
 30
0.0
 10
140.6299240093235
 20
148.192602607601
 30
0.0
 10
140.2850697237515
 20
147.455696197173
 30
0.0
 10
139.6652966370942
 20
145.8385673095858
 30
0.0
 10
139.0506911970739
 20
144.2214384219986
 30
0.0
 10
138.463991048893
 20
142.3252566160164
 30
0.0
 10
138.0571250036777
 20
141.0154304484394
 30
0.0
 10
138.0571250036777
 20
141.0154304484394
 30
0.0
 10
133.9009590684727
 20
127.8027915271048
 30
0.0
 10
133.9009590684727
 20
127.8027915271048
 30
0.0
 10
133.9009590684727
 20
127.8027915271048
 30
0.0
 10
131.4180771143097
 20
127.8027915271048
 30
0.0
 10
131.4180771143097
 20
127.8027915271048
 30
0.0
 10
131.4180771143097
 20
127.8027915271048
 30
0.0
 10
139.8926730891197
 20
154.8294111834263
 30
0.0
 10
139.8926730891197
 20
154.8294111834263
 30
0.0
  0
HATCH
  5
6A9
330
6A2
100
AcDbEntity
  8
LOGO
 62
   250
420
  2234388
100
AcDbHatch
 10
0.0
 20
0.0
 30
0.0
210
0.0
220
0.0
230
1.0
  2
SOLID
 70
     1
 71
     0
 91
        1
 92
        1
 93
        1
 72
     4
 94
        3
 73
     0
 74
     1
 95
      104
 96
      100
 40
0.0
 40
0.0
 40
0.0
 40
0.0
 40
1.0
 40
1.0
 40
1.0
 40
2.0
 40
2.0
 40
2.0
 40
3.0
 40
3.0
 40
3.0
 40
4.0
 40
4.0
 40
4.0
 40
5.0
 40
5.0
 40
5.0
 40
6.0
 40
6.0
 40
6.0
 40
7.0
 40
7.0
 40
7.0
 40
8.0
 40
8.0
 40
8.0
 40
9.0
 40
9.0
 40
9.0
 40
10.0
 40
10.0
 40
10.0
 40
11.0
 40
11.0
 40
11.0
 40
12.0
 40
12.0
 40
12.0
 40
13.0
 40
13.0
 40
13.0
 40
14.0
 40
14.0
 40
14.0
 40
15.0
 40
15.0
 40
15.0
 40
16.0
 40
16.0
 40
16.0
 40
17.0
 40
17.0
 40
17.0
 40
18.0
 40
18.0
 40
18.0
 40
19.0
 40
19.0
 40
19.0
 40
20.0
 40
20.0
 40
20.0
 40
21.0
 40
21.0
 40
21.0
 40
22.0
 40
22.0
 40
22.0
 40
23.0
 40
23.0
 40
23.0
 40
24.0
 40
24.0
 40
24.0
 40
25.0
 40
25.0
 40
25.0
 40
26.0
 40
26.0
 40
26.0
 40
27.0
 40
27.0
 40
27.0
 40
28.0
 40
28.0
 40
28.0
 40
29.0
 40
29.0
 40
29.0
 40
30.0
 40
30.0
 40
30.0
 40
31.0
 40
31.0
 40
31.0
 40
32.0
 40
32.0
 40
32.0
 40
33.0
 40
33.0
 40
33.0
 40
33.0
 10
139.8926730891197
 20
154.8294111834263
 10
139.8926730891197
 20
154.8294111834263
 10
142.0344903652445
 20
154.8294111834263
 10
142.0344903652445
 20
154.8294111834263
 10
142.0344903652445
 20
154.8294111834263
 10
140.9516961399171
 20
151.3157559800812
 10
140.9516961399171
 20
151.3157559800812
 10
141.8928968473923
 20
152.7887075264977
 10
142.7341897198865
 20
153.4484437471474
 10
143.8552245303272
 20
154.2926649527359
 10
144.9803934580775
 20
155.1296514530327
 10
146.3139908001845
 20
155.3044901642492
 10
147.241066606852
 20
155.3044901642492
 10
148.3855280820469
 20
155.3044901642492
 10
149.4969166187653
 20
155.0752189084569
 10
150.0784491203092
 20
153.8172414621372
 10
150.5228667310863
 20
152.833838307127
 10
150.5414702589793
 20
152.7201500811143
 10
150.4140016419347
 20
150.7765981809602
 10
151.5818897818837
 20
152.7699317437168
 10
152.4424752018226
 20
153.6256940267945
 10
153.9038856707499
 20
154.4507949398263
 10
155.4455669174378
 20
155.3044901642492
 10
156.339225275853
 20
155.3659851592288
 10
157.3748216618963
 20
155.2147453676543
 10
158.911679771723
 20
154.9877134254046
 10
159.8859534176746
 20
154.4390816074493
 10
160.3965169054045
 20
152.7816450760939
 10
160.9070803931344
 20
151.1219692311958
 10
160.6328506116007
 20
150.2303779314354
 10
159.9992971339115
 20
147.597634224801
 10
159.7105979417943
 20
146.4014962832367
 10
159.2947746424084
 20
144.9400858143094
 10
158.7463150793409
 20
143.2092687007094
 10
158.7463150793409
 20
143.2092687007094
 10
153.9038856707499
 20
127.8027915271048
 10
153.9038856707499
 20
127.8027915271048
 10
153.9038856707499
 20
127.8027915271048
 10
151.3882752878863
 20
127.8027915271048
 10
151.3882752878863
 20
127.8027915271048
 10
151.3882752878863
 20
127.8027915271048
 10
155.6250565106276
 20
141.2751908193897
 10
155.6250565106276
 20
141.2751908193897
 10
156.5094131050963
 20
144.0936252951782
 10
157.109893644309
 20
146.1506931664571
 10
157.4220195011804
 20
147.4415712963654
 10
157.8095929989511
 20
149.0530157726519
 10
157.9656559273867
 20
149.5826995529385
 10
157.7816877071116
 20
150.7529992613181
 10
157.6111553680925
 20
151.8430281919372
 10
157.0582171779396
 20
152.5547853887321
 10
156.1170164704645
 20
152.5547853887321
 10
155.1096698860365
 20
152.5547853887321
 10
154.2962823053817
 20
152.4412694176073
 10
153.156643967048
 20
151.2945686288697
 10
152.0170056287143
 20
150.1476955852443
 10
151.076149431015
 20
148.7930831468137
 10
150.3337308641742
 20
147.2290087646991
 10
149.5957909244188
 20
145.6683794803425
 10
148.8530278478023
 20
143.6822806228776
 10
148.0964843801539
 20
141.2751908193897
 10
148.0964843801539
 20
141.2751908193897
 10
143.8552245303272
 20
127.8027915271048
 10
143.8552245303272
 20
127.8027915271048
 10
143.8552245303272
 20
127.8027915271048
 10
141.486030802177
 20
127.8027915271048
 10
141.486030802177
 20
127.8027915271048
 10
141.486030802177
 20
127.8027915271048
 10
146.3329388378533
 20
143.2092687007094
 10
146.3329388378533
 20
143.2092687007094
 10
146.8483254624444
 20
144.8408669988801
 10
147.2314203331297
 20
146.1837661049335
 10
147.4867020769946
 20
147.224185627838
 10
147.9169947869641
 20
149.0197705792876
 10
148.0306830129768
 20
150.2400242051577
 10
147.709255392159
 20
151.3157559800812
 10
147.3874832615654
 20
152.3916600098926
 10
146.8245542879144
 20
152.6683013598569
 10
145.8840425999909
 20
152.6683013598569
 10
145.0989048209514
 20
152.6683013598569
 10
144.3282364524954
 20
152.3275811915945
 10
143.4531816219731
 20
151.6538923250251
 10
142.34627171234
 20
150.8074318058939
 10
141.901854101563
 20
150.1097995099067
 10
141.3578731655808
 20
149.289521733736
 10
140.6299240093235
 20
148.192602607601
 10
140.2850697237515
 20
147.455696197173
 10
139.6652966370942
 20
145.8385673095858
 10
139.0506911970739
 20
144.2214384219986
 10
138.463991048893
 20
142.3252566160164
 10
138.0571250036777
 20
141.0154304484394
 10
138.0571250036777
 20
141.0154304484394
 10
133.9009590684727
 20
127.8027915271048
 10
133.9009590684727
 20
127.8027915271048
 10
133.9009590684727
 20
127.8027915271048
 10
131.4180771143097
 20
127.8027915271048
 10
131.4180771143097
 20
127.8027915271048
 10
131.4180771143097
 20
127.8027915271048
 10
139.8926730891197
 20
154.8294111834263
 10
139.8926730891197
 20
154.8294111834263
 97
        0
 75
     2
 76
     1
 98
        0
  0
SPLINE
  5
6AA
330
6A2
100
AcDbEntity
  8
LOGO
370
     0
100
AcDbSpline
210
0.0
220
0.0
230
1.0
 70
    11
 71
     3
 72
    29
 73
    25
 74
     0
 42
0.000000001
 43
0.0000000001
 40
0.0
 40
0.0
 40
0.0
 40
0.0
 40
1.0
 40
1.0
 40
1.0
 40
2.0
 40
2.0
 40
2.0
 40
3.0
 40
3.0
 40
3.0
 40
4.0
 40
4.0
 40
4.0
 40
5.0
 40
5.0
 40
5.0
 40
6.0
 40
6.0
 40
6.0
 40
7.0
 40
7.0
 40
7.0
 40
8.0
 40
8.0
 40
8.0
 40
8.0
 10
101.6420971922469
 20
132.8388354296931
 30
0.0
 10
101.630039350094
 20
134.7164137077823
 30
0.0
 10
102.2236296937908
 20
138.0598810818841
 30
0.0
 10
103.7487744712405
 20
142.5378191476827
 30
0.0
 10
105.819967243327
 20
148.5896501242061
 30
0.0
 10
107.0602024361932
 20
150.8074318058939
 30
0.0
 10
108.1522984254671
 20
151.8833358357054
 30
0.0
 10
109.741177511439
 20
153.4532668840085
 30
0.0
 10
111.8740375333931
 20
153.5290590346837
 30
0.0
 10
112.5075910110823
 20
153.4532668840085
 30
0.0
 10
113.4012493694975
 20
153.3490526768302
 30
0.0
 10
114.6683563248758
 20
152.7580461564518
 30
0.0
 10
114.7493161221879
 20
150.7838328862519
 30
0.0
 10
114.8106388622796
 20
149.0909118479895
 30
0.0
 10
114.3186789024427
 20
145.9191825971221
 30
0.0
 10
112.6164561002338
 20
140.9489400617108
 30
0.0
 10
110.6444821435766
 20
135.1746117095912
 30
0.0
 10
109.4669477299053
 20
132.8960240524753
 30
0.0
 10
108.5212683953448
 20
131.9072809959403
 30
0.0
 10
106.7346406980658
 20
130.0538184021569
 30
0.0
 10
104.8222669326213
 20
130.2336525051225
 30
0.0
 10
104.5408024457958
 20
130.2336525051225
 30
0.0
 10
104.1721769856939
 20
130.2336525051225
 30
0.0
 10
101.6465758193322
 20
130.6305277668397
 30
0.0
 10
101.6420971922469
 20
132.8388354296931
 30
0.0
  0
SPLINE
  5
6AB
330
6A2
100
AcDbEntity
  8
LOGO
370
     0
100
AcDbSpline
210
0.0
220
0.0
230
1.0
 70
    11
 71
     3
 72
    32
 73
    28
 74
     0
 42
0.000000001
 43
0.0000000001
 40
0.0
 40
0.0
 40
0.0
 40
0.0
 40
1.0
 40
1.0
 40
1.0
 40
2.0
 40
2.0
 40
2.0
 40
3.0
 40
3.0
 40
3.0
 40
4.0
 40
4.0
 40
4.0
 40
5.0
 40
5.0
 40
5.0
 40
6.0
 40
6.0
 40
6.0
 40
7.0
 40
7.0
 40
7.0
 40
8.0
 40
8.0
 40
8.0
 40
9.0
 40
9.0
 40
9.0
 40
9.0
 10
106.2595617172429
 20
153.4105476718098
 30
0.0
 10
104.8222669326213
 20
151.5474388043041
 30
0.0
 10
103.7177685914188
 20
149.8758773721411
 30
0.0
 10
101.9232171692965
 20
144.6141795664062
 30
0.0
 10
100.2754269116635
 20
139.7999999594306
 30
0.0
 10
99.22777268346732
 20
136.3052927937542
 30
0.0
 10
99.06964269637689
 20
132.039572749846
 30
0.0
 10
98.94665270641765
 20
128.8673267343149
 30
0.0
 10
100.8807305877373
 20
127.8027915271048
 30
0.0
 10
103.7129454545577
 20
127.8027915271048
 30
0.0
 10
104.9352661390825
 20
127.8027915271048
 30
0.0
 10
108.0151835347002
 20
127.8827177950895
 30
0.0
 10
110.2045431598849
 20
130.5926316915021
 30
0.0
 10
111.7417457794874
 20
132.4984597712065
 30
0.0
 10
113.155269389579
 20
134.475256864725
 30
0.0
 10
115.0562743324223
 20
140.9489400617108
 30
0.0
 10
116.6361961642235
 20
146.3680788349845
 30
0.0
 10
117.7282921534974
 20
149.8639917848761
 30
0.0
 10
117.6480213757369
 20
151.8595646611754
 30
0.0
 10
117.6480213757369
 20
151.8595646611754
 30
0.0
 10
117.6480213757369
 20
151.8595646611754
 30
0.0
 10
117.6480213757369
 20
151.8595646611754
 30
0.0
 10
117.13229024137
 20
155.18150017429
 30
0.0
 10
114.7162431837115
 20
155.886194920681
 30
0.0
 10
113.3351034925446
 20
155.886194920681
 30
0.0
 10
111.9829026225447
 20
155.886194920681
 30
0.0
 10
108.3414342923792
 20
156.1251124501957
 30
0.0
 10
106.2595617172429
 20
153.4105476718098
 30
0.0
  0
HATCH
  5
6AC
330
6A2
100
AcDbEntity
  8
LOGO
 62
   250
420
  2234388
100
AcDbHatch
 10
0.0
 20
0.0
 30
0.0
210
0.0
220
0.0
230
1.0
  2
SOLID
 70
     1
 71
     0
 91
        2
 92
        1
 93
        1
 72
     4
 94
        3
 73
     0
 74
     1
 95
       29
 96
       25
 40
0.0
 40
0.0
 40
0.0
 40
0.0
 40
1.0
 40
1.0
 40
1.0
 40
2.0
 40
2.0
 40
2.0
 40
3.0
 40
3.0
 40
3.0
 40
4.0
 40
4.0
 40
4.0
 40
5.0
 40
5.0
 40
5.0
 40
6.0
 40
6.0
 40
6.0
 40
7.0
 40
7.0
 40
7.0
 40
8.0
 40
8.0
 40
8.0
 40
8.0
 10
101.6420971922469
 20
132.8388354296931
 10
101.630039350094
 20
134.7164137077823
 10
102.2236296937908
 20
138.0598810818841
 10
103.7487744712405
 20
142.5378191476827
 10
105.819967243327
 20
148.5896501242061
 10
107.0602024361932
 20
150.8074318058939
 10
108.1522984254671
 20
151.8833358357054
 10
109.741177511439
 20
153.4532668840085
 10
111.8740375333931
 20
153.5290590346837
 10
112.5075910110823
 20
153.4532668840085
 10
113.4012493694975
 20
153.3490526768302
 10
114.6683563248758
 20
152.7580461564518
 10
114.7493161221879
 20
150.7838328862519
 10
114.8106388622796
 20
149.0909118479895
 10
114.3186789024427
 20
145.9191825971221
 10
112.6164561002338
 20
140.9489400617108
 10
110.6444821435766
 20
135.1746117095912
 10
109.4669477299053
 20
132.8960240524753
 10
108.5212683953448
 20
131.9072809959403
 10
106.7346406980658
 20
130.0538184021569
 10
104.8222669326213
 20
130.2336525051225
 10
104.5408024457958
 20
130.2336525051225
 10
104.1721769856939
 20
130.2336525051225
 10
101.6465758193322
 20
130.6305277668397
 10
101.6420971922469
 20
132.8388354296931
 97
        0
 92
        1
 93
        1
 72
     4
 94
        3
 73
     0
 74
     1
 95
       32
 96
       28
 40
0.0
 40
0.0
 40
0.0
 40
0.0
 40
1.0
 40
1.0
 40
1.0
 40
2.0
 40
2.0
 40
2.0
 40
3.0
 40
3.0
 40
3.0
 40
4.0
 40
4.0
 40
4.0
 40
5.0
 40
5.0
 40
5.0
 40
6.0
 40
6.0
 40
6.0
 40
7.0
 40
7.0
 40
7.0
 40
8.0
 40
8.0
 40
8.0
 40
9.0
 40
9.0
 40
9.0
 40
9.0
 10
106.2595617172429
 20
153.4105476718098
 10
104.8222669326213
 20
151.5474388043041
 10
103.7177685914188
 20
149.8758773721411
 10
101.9232171692965
 20
144.6141795664062
 10
100.2754269116635
 20
139.7999999594306
 10
99.22777268346732
 20
136.3052927937542
 10
99.06964269637689
 20
132.039572749846
 10
98.94665270641765
 20
128.8673267343149
 10
100.8807305877373
 20
127.8027915271048
 10
103.7129454545577
 20
127.8027915271048
 10
104.9352661390825
 20
127.8027915271048
 10
108.0151835347002
 20
127.8827177950895
 10
110.2045431598849
 20
130.5926316915021
 10
111.7417457794874
 20
132.4984597712065
 10
113.155269389579
 20
134.475256864725
 10
115.0562743324223
 20
140.9489400617108
 10
116.6361961642235
 20
146.3680788349845
 10
117.7282921534974
 20
149.8639917848761
 10
117.6480213757369
 20
151.8595646611754
 10
117.6480213757369
 20
151.8595646611754
 10
117.6480213757369
 20
151.8595646611754
 10
117.6480213757369
 20
151.8595646611754
 10
117.13229024137
 20
155.18150017429
 10
114.7162431837115
 20
155.886194920681
 10
113.3351034925446
 20
155.886194920681
 10
111.9829026225447
 20
155.886194920681
 10
108.3414342923792
 20
156.1251124501957
 10
106.2595617172429
 20
153.4105476718098
 97
        0
 75
     2
 76
     1
 98
        0
  0
ENDBLK
  5
6AD
330
6A2
100
AcDbEntity
  8
0
100
AcDbBlockEnd
  0
BLOCK
  5
1065
330
1064
100
AcDbEntity
  8
0
100
AcDbBlockBegin
  2
*D6
 70
     1
 10
0.0
 20
0.0
 30
0.0
  3
*D6
  1
*D17
  0
LINE
  5
1067
330
1064
100
AcDbEntity
  8
DIM
 62
     0
370
    -2
100
AcDbLine
 10
215.3550131961993
 20
559.7171111523933
 30
0.0
 11
215.4599034398044
 21
496.6438357651398
 31
0.0
  0
LINE
  5
1068
330
1064
100
AcDbEntity
  8
DIM
 62
     0
370
    -2
100
AcDbLine
 10
559.7568635944299
 20
560.289848080429
 30
0.0
 11
559.8617538380352
 21
497.2165726931746
 31
0.0
  0
LINE
  5
1069
330
1064
100
AcDbEntity
  8
DIM
 62
     0
370
    -2
100
AcDbLine
 10
221.4598951432116
 20
496.653813692995
 30
0.0
 11
553.861762134628
 21
497.2065947653195
 31
0.0
  0
INSERT
  5
106A
330
1064
100
AcDbEntity
  8
DIM
 62
     0
370
    -2
100
AcDbBlockReference
  2
_DOT
 10
215.4599034398044
 20
496.6438357651398
 30
0.0
 41
6.0
 42
6.0
 43
6.0
 50
180.0952822363151
  0
INSERT
  5
106B
330
1064
100
AcDbEntity
  8
DIM
 62
     0
370
    -2
100
AcDbBlockReference
  2
_DOT
 10
559.8617538380352
 20
497.2165726931746
 30
0.0
 41
6.0
 42
6.0
 43
6.0
 50
0.0952822363150711
  0
MTEXT
  5
106C
330
1064
100
AcDbEntity
  8
DIM
 62
     0
 48
0.05
100
AcDbMText
 10
387.62424290345
 20
518.930173808317
 30
0.0
 40
12.0
 41
0.0
 46
0.0
 71
     2
 72
     1
  1
\A1;344
  7
ＭＳ ゴシック
 11
0.9999986172345401
 21
0.001662987975853431
 31
0.0
 73
     1
 44
1.0
  0
POINT
  5
106D
330
1064
100
AcDbEntity
  8
Defpoints
 62
     0
100
AcDbPoint
 10
215.34669825632
 20
564.717104238566
 30
0.0
  0
POINT
  5
106E
330
1064
100
AcDbEntity
  8
Defpoints
 62
     0
100
AcDbPoint
 10
559.7485486545506
 20
565.2898411666017
 30
0.0
  0
POINT
  5
106F
330
1064
100
AcDbEntity
  8
Defpoints
 62
     0
100
AcDbPoint
 10
559.8617538380352
 20
497.2165726931746
 30
0.0
  0
ENDBLK
  5
1066
330
1064
100
AcDbEntity
  8
0
100
AcDbBlockEnd
  0
BLOCK
  5
1071
330
1070
100
AcDbEntity
  8
0
100
AcDbBlockBegin
  2
*D7
 70
     1
 10
0.0
 20
0.0
 30
0.0
  3
*D7
  1
*D18
  0
LINE
  5
1073
330
1070
100
AcDbEntity
  8
DIM
 62
     0
370
    -2
100
AcDbLine
 10
590.1454011592805
 20
627.3405165090301
 30
0.0
 11
622.4676757571733
 21
627.3942681373645
 31
0.0
  0
LINE
  5
1074
330
1070
100
AcDbEntity
  8
DIM
 62
     0
370
    -2
100
AcDbLine
 10
574.7718096783092
 20
551.3148452855796
 30
0.0
 11
622.5940628433382
 21
551.3943732275399
 31
0.0
  0
LINE
  5
1075
330
1070
100
AcDbEntity
  8
DIM
 62
     0
370
    -2
100
AcDbLine
 10
622.4776536850285
 20
621.3942764339573
 30
0.0
 11
622.584084915483
 21
557.3943649309471
 31
0.0
  0
INSERT
  5
1076
330
1070
100
AcDbEntity
  8
DIM
 62
     0
370
    -2
100
AcDbBlockReference
  2
_DOT
 10
622.4676757571733
 20
627.3942681373645
 30
0.0
 41
6.0
 42
6.0
 43
6.0
 50
90.09528223631509
  0
INSERT
  5
1077
330
1070
100
AcDbEntity
  8
DIM
 62
     0
370
    -2
100
AcDbBlockReference
  2
_DOT
 10
622.5940628433382
 20
551.3943732275399
 30
0.0
 41
6.0
 42
6.0
 43
6.0
 50
270.0952822363151
  0
MTEXT
  5
1078
330
1070
100
AcDbEntity
  8
DIM
 62
     0
 48
0.05
100
AcDbMText
 10
644.5308388794156
 20
589.430906417921
 30
0.0
 40
12.0
 41
0.0
 46
0.0
 71
     2
 72
     1
  1
\A1;76
  7
ＭＳ ゴシック
 11
0.001662987975853537
 21
-0.9999986172345401
 31
0.0
 73
     1
 44
1.0
  0
POINT
  5
1079
330
1070
100
AcDbEntity
  8
Defpoints
 62
     0
100
AcDbPoint
 10
585.1454080731078
 20
627.3322015691508
 30
0.0
  0
POINT
  5
107A
330
1070
100
AcDbEntity
  8
Defpoints
 62
     0
100
AcDbPoint
 10
569.7718165921365
 20
551.3065303457004
 30
0.0
  0
POINT
  5
107B
330
1070
100
AcDbEntity
  8
Defpoints
 62
     0
100
AcDbPoint
 10
622.5940628433382
 20
551.3943732275397
 30
0.0
  0
ENDBLK
  5
1072
330
1070
100
AcDbEntity
  8
0
100
AcDbBlockEnd
  0
BLOCK
  5
107D
330
107C
100
AcDbEntity
  8
0
100
AcDbBlockBegin
  2
*D8
 70
     1
 10
0.0
 20
0.0
 30
0.0
  3
*D8
  1
*D19
  0
LINE
  5
107F
330
107C
100
AcDbEntity
  8
DIM
 62
     0
370
    -2
100
AcDbLine
 10
185.2652532620459
 20
613.6671867844082
 30
0.0
 11
185.5099800096152
 21
466.5065261398147
 31
0.0
  0
LINE
  5
1080
330
107C
100
AcDbEntity
  8
DIM
 62
     0
370
    -2
100
AcDbLine
 10
589.667020694349
 20
614.339702990994
 30
0.0
 11
589.9117474419184
 21
467.1790423463979
 31
0.0
  0
LINE
  5
1081
330
107C
100
AcDbEntity
  8
DIM
 62
     0
370
    -2
100
AcDbLine
 10
191.5099717130225
 20
466.5165040676698
 30
0.0
 11
583.9117557385111
 21
467.1690644185429
 31
0.0
  0
INSERT
  5
1082
330
107C
100
AcDbEntity
  8
DIM
 62
     0
370
    -2
100
AcDbBlockReference
  2
_DOT
 10
185.5099800096152
 20
466.5065261398147
 30
0.0
 41
6.0
 42
6.0
 43
6.0
 50
180.0952822363147
  0
INSERT
  5
1083
330
107C
100
AcDbEntity
  8
DIM
 62
     0
370
    -2
100
AcDbBlockReference
  2
_DOT
 10
589.9117474419184
 20
467.1790423463979
 30
0.0
 41
6.0
 42
6.0
 43
6.0
 50
0.0952822363146811
  0
MTEXT
  5
1084
330
107C
100
AcDbEntity
  8
DIM
 62
     0
 48
0.05
100
AcDbMText
 10
387.6742779902979
 20
488.8427538222662
 30
0.0
 40
12.0
 41
0.0
 46
0.0
 71
     2
 72
     1
  1
\A1;404
  7
ＭＳ ゴシック
 11
0.9999986172345402
 21
0.001662987975846625
 31
0.0
 73
     1
 44
1.0
  0
POINT
  5
1085
330
107C
100
AcDbEntity
  8
Defpoints
 62
     0
100
AcDbPoint
 10
185.2569383221667
 20
618.6671798705809
 30
0.0
  0
POINT
  5
1086
330
107C
100
AcDbEntity
  8
Defpoints
 62
     0
100
AcDbPoint
 10
589.6587057544698
 20
619.3396960771668
 30
0.0
  0
POINT
  5
1087
330
107C
100
AcDbEntity
  8
Defpoints
 62
     0
100
AcDbPoint
 10
589.9117474419184
 20
467.179042346398
 30
0.0
  0
ENDBLK
  5
107E
330
107C
100
AcDbEntity
  8
0
100
AcDbBlockEnd
  0
BLOCK
  5
1089
330
1088
100
AcDbEntity
  8
0
100
AcDbBlockBegin
  2
*D9
 70
     1
 10
0.0
 20
0.0
 30
0.0
  3
*D9
  1
*D20
  0
LINE
  5
108B
330
1088
100
AcDbEntity
  8
DIM
 62
     0
370
    -2
100
AcDbLine
 10
784.8754962764756
 20
1051.487883900925
 30
0.0
 11
771.9916843470703
 21
1051.487883900925
 31
0.0
  0
LINE
  5
108C
330
1088
100
AcDbEntity
  8
DIM
 62
     0
370
    -2
100
AcDbLine
 10
784.265342118983
 20
908.8317692996422
 30
0.0
 11
771.9916843470708
 21
908.8317692996422
 31
0.0
  0
LINE
  5
108D
330
1088
100
AcDbEntity
  8
DIM
 62
     0
370
    -2
100
AcDbLine
 10
771.9916843470703
 20
1045.487883900925
 30
0.0
 11
771.9916843470708
 21
914.8317692996422
 31
0.0
  0
INSERT
  5
108E
330
1088
100
AcDbEntity
  8
DIM
 62
     0
370
    -2
100
AcDbBlockReference
  2
_DOT
 10
771.9916843470703
 20
1051.487883900925
 30
0.0
 41
6.0
 42
6.0
 43
6.0
 50
90.0000000000002
  0
INSERT
  5
108F
330
1088
100
AcDbEntity
  8
DIM
 62
     0
370
    -2
100
AcDbBlockReference
  2
_DOT
 10
771.9916843470708
 20
908.8317692996422
 30
0.0
 41
6.0
 42
6.0
 43
6.0
 50
270.0000000000002
  0
MTEXT
  5
1090
330
1088
100
AcDbEntity
  8
DIM
 62
     0
 48
0.05
100
AcDbMText
 10
749.9916843470705
 20
980.1598266002818
 30
0.0
 40
12.0
 41
0.0
 46
0.0
 71
     2
 72
     1
  1
\A1;143
  7
ＭＳ ゴシック
 11
-3.187717204814260E-15
 21
1.0
 31
0.0
 73
     1
 44
1.0
  0
POINT
  5
1091
330
1088
100
AcDbEntity
  8
Defpoints
 62
     0
100
AcDbPoint
 10
789.8754962764756
 20
1051.487883900925
 30
0.0
  0
POINT
  5
1092
330
1088
100
AcDbEntity
  8
Defpoints
 62
     0
100
AcDbPoint
 10
789.265342118983
 20
908.8317692996422
 30
0.0
  0
POINT
  5
1093
330
1088
100
AcDbEntity
  8
Defpoints
 62
     0
100
AcDbPoint
 10
771.9916843470708
 20
908.8317692996421
 30
0.0
  0
ENDBLK
  5
108A
330
1088
100
AcDbEntity
  8
0
100
AcDbBlockEnd
  0
BLOCK
  5
1095
330
1094
100
AcDbEntity
  8
0
100
AcDbBlockBegin
  2
*D10
 70
     1
 10
0.0
 20
0.0
 30
0.0
  3
*D10
  1
*D21
  0
LINE
  5
1097
330
1094
100
AcDbEntity
  8
DIM
 62
     0
370
    -2
100
AcDbLine
 10
794.8754962764747
 20
1081.487883900925
 30
0.0
 11
739.1234015210282
 21
1081.487883900925
 31
0.0
  0
LINE
  5
1098
330
1094
100
AcDbEntity
  8
DIM
 62
     0
370
    -2
100
AcDbLine
 10
794.3027593484389
 20
878.8317692996422
 30
0.0
 11
739.1234015210289
 21
878.831769299642
 31
0.0
  0
LINE
  5
1099
330
1094
100
AcDbEntity
  8
DIM
 62
     0
370
    -2
100
AcDbLine
 10
739.1234015210282
 20
1075.487883900925
 30
0.0
 11
739.1234015210289
 21
884.831769299642
 31
0.0
  0
INSERT
  5
109A
330
1094
100
AcDbEntity
  8
DIM
 62
     0
370
    -2
100
AcDbBlockReference
  2
_DOT
 10
739.1234015210282
 20
1081.487883900925
 30
0.0
 41
6.0
 42
6.0
 43
6.0
 50
90.0000000000002
  0
INSERT
  5
109B
330
1094
100
AcDbEntity
  8
DIM
 62
     0
370
    -2
100
AcDbBlockReference
  2
_DOT
 10
739.1234015210289
 20
878.831769299642
 30
0.0
 41
6.0
 42
6.0
 43
6.0
 50
270.0000000000002
  0
MTEXT
  5
109C
330
1094
100
AcDbEntity
  8
DIM
 62
     0
 48
0.05
100
AcDbMText
 10
717.1234015210285
 20
980.1598266002836
 30
0.0
 40
12.0
 41
0.0
 46
0.0
 71
     2
 72
     1
  1
\A1;203
  7
ＭＳ ゴシック
 11
-3.365903997872160E-15
 21
1.0
 31
0.0
 73
     1
 44
1.0
  0
POINT
  5
109D
330
1094
100
AcDbEntity
  8
Defpoints
 62
     0
100
AcDbPoint
 10
799.8754962764747
 20
1081.487883900925
 30
0.0
  0
POINT
  5
109E
330
1094
100
AcDbEntity
  8
Defpoints
 62
     0
100
AcDbPoint
 10
799.3027593484389
 20
878.8317692996422
 30
0.0
  0
POINT
  5
109F
330
1094
100
AcDbEntity
  8
Defpoints
 62
     0
100
AcDbPoint
 10
739.1234015210289
 20
878.831769299642
 30
0.0
  0
ENDBLK
  5
1096
330
1094
100
AcDbEntity
  8
0
100
AcDbBlockEnd
  0
ENDSEC
  0
SECTION
  2
ENTITIES
  0
MTEXT
  5
177
330
A
100
AcDbEntity
  8
TEMPLATE
390
1D
100
AcDbMText
 10
39.60107227386538
 20
171.8658758157141
 30
0.0
 40
8.144205729166663
 41
0.0
 46
0.0
 71
     1
 72
     1
  1
品名
  7
ＭＳ ゴシック
 73
     1
 44
0.7828267384257843
  0
MTEXT
  5
178
330
A
100
AcDbEntity
  8
TEMPLATE
390
1D
100
AcDbMText
 10
39.60107227386538
 20
129.365875815714
 30
0.0
 40
8.144205729166663
 41
0.0
 46
0.0
 71
     1
 72
     1
  1
仕様
  7
ＭＳ ゴシック
 73
     1
 44
0.7828267384257843
  0
LINE
  5
179
330
A
100
AcDbEntity
  8
TEMPLATE
390
1D
100
AcDbLine
 10
1011.101072273624
 20
133.5733367532142
 30
0.0
 11
36.10107227362437
 21
133.5733367532142
 31
0.0
  0
LWPOLYLINE
  5
17A
330
A
100
AcDbEntity
  8
TEMPLATE
390
1D
100
AcDbPolyline
 90
        5
 70
   128
 43
0.0
 10
1011.101072273624
 20
1448.573336753213
 10
36.10107227362437
 20
1448.573336753213
 10
36.10107227362437
 20
48.57333675321413
 10
1011.101072273624
 20
48.57333675321413
 10
1011.101072273624
 20
1448.573336753213
  0
LINE
  5
17B
330
A
100
AcDbEntity
  8
TEMPLATE
390
1D
100
AcDbLine
 10
1011.101072273624
 20
176.0733367532141
 30
0.0
 11
36.10107227362437
 21
176.0733367532141
 31
0.0
  0
LINE
  5
17C
330
A
100
AcDbEntity
  8
TEMPLATE
390
1D
100
AcDbLine
 10
1011.101072273866
 20
91.07333675321412
 30
0.0
 11
634.601072273865
 21
91.07333675321412
 31
0.0
  0
MTEXT
  5
17D
330
A
100
AcDbEntity
  8
TEMPLATE
390
1D
100
AcDbMText
 10
36.10107227396725
 20
42.64642572478557
 30
0.0
 40
10.85894097222222
 41
0.0
 46
10.85894097222222
 71
     1
 72
     1
  1
{20160704S}
  7
ＭＳ ゴシック
 73
     1
 44
0.7828267384257843
1001
ACAD
1000
ACAD_MTEXT_DEFINED_HEIGHT_BEGIN
1070
    46
1040
10.85894097222222
1000
ACAD_MTEXT_DEFINED_HEIGHT_END
  0
MTEXT
  5
17E
330
A
100
AcDbEntity
  8
TEMPLATE
390
1D
100
AcDbMText
 10
649.5367753999956
 20
76.11813951656006
 30
0.0
 40
12.21630859375
 41
0.0
 46
0.0
 71
     1
 72
     1
  1
大洋金物株式会社 ティーフォルム事業部
  7
ＭＳ ゴシック
 73
     1
 44
0.7828267384257843
  0
MTEXT
  5
180
330
A
100
AcDbEntity
  8
TEMPLATE
390
1D
100
AcDbMText
 10
915.601072273995
 20
115.0746453469641
 30
0.0
 40
12.21630859375
 41
0.0
 46
12.21630859375
 71
     1
 72
     1
  1
{1:5}
  7
ＭＳ ゴシック
 73
     1
 44
0.7828267384257843
1001
ACAD
1000
ACAD_MTEXT_DEFINED_HEIGHT_BEGIN
1070
    46
1040
12.21630859375
1000
ACAD_MTEXT_DEFINED_HEIGHT_END
  0
MTEXT
  5
181
330
A
100
AcDbEntity
  8
TEMPLATE
390
1D
100
AcDbMText
 10
889.101072273995
 20
129.365875815714
 30
0.0
 40
8.144205729166663
 41
0.0
 46
0.0
 71
     1
 72
     1
  1
縮尺
  7
ＭＳ ゴシック
 73
     1
 44
0.7828267384257843
  0
LINE
  5
182
330
A
100
AcDbEntity
  8
TEMPLATE
390
1D
100
AcDbLine
 10
885.601072273995
 20
91.07333675321412
 30
0.0
 11
885.601072273995
 21
133.5733367532142
 31
0.0
  0
MTEXT
  5
183
330
A
100
AcDbEntity
  8
TEMPLATE
390
1D
100
AcDbMText
 10
763.601072273995
 20
129.365875815714
 30
0.0
 40
8.144205729166663
 41
0.0
 46
0.0
 71
     1
 72
     1
  1
容量
  7
ＭＳ ゴシック
 73
     1
 44
0.7828267384257843
  0
LINE
  5
184
330
A
100
AcDbEntity
  8
TEMPLATE
390
1D
100
AcDbLine
 10
760.101072273995
 20
91.07333675321412
 30
0.0
 11
760.101072273995
 21
133.5733367532142
 31
0.0
  0
MTEXT
  5
185
330
A
100
AcDbEntity
  8
TEMPLATE
390
1D
100
AcDbMText
 10
638.101072273995
 20
171.8658758157141
 30
0.0
 40
8.144205729166663
 41
0.0
 46
0.0
 71
     1
 72
     1
  1
品番
  7
ＭＳ ゴシック
 73
     1
 44
0.7828267384257843
  0
MTEXT
  5
186
330
A
100
AcDbEntity
  8
TEMPLATE
390
1D
100
AcDbMText
 10
638.101072273995
 20
129.365875815714
 30
0.0
 40
8.144205729166663
 41
0.0
 46
0.0
 71
     1
 72
     1
  1
重量
  7
ＭＳ ゴシック
 73
     1
 44
0.7828267384257843
  0
MTEXT
  5
187
330
A
100
AcDbEntity
  8
TEMPLATE
390
1D
100
AcDbMText
 10
664.601072273995
 20
157.5746453469641
 30
0.0
 40
12.21630859375
 41
0.0
 46
12.21630859375
 71
     1
 72
     1
  1
{FRF74-0428}
  7
ＭＳ ゴシック
 73
     1
 44
0.7828267384257843
1001
ACAD
1000
ACAD_MTEXT_DEFINED_HEIGHT_BEGIN
1070
    46
1040
12.21630859375
1000
ACAD_MTEXT_DEFINED_HEIGHT_END
  0
LINE
  5
188
330
A
100
AcDbEntity
  8
TEMPLATE
390
1D
100
AcDbLine
 10
634.601072273995
 20
48.57333675321413
 30
0.0
 11
634.601072273995
 21
176.0733367532141
 31
0.0
  0
MTEXT
  5
189
330
A
100
AcDbEntity
  8
TEMPLATE
390
1D
100
AcDbMText
 10
66.10107227386537
 20
157.5746453469641
 30
0.0
 40
12.21630859375
 41
0.0
 46
13.76777978515625
 71
     1
 72
     1
  1
{グラブレール　-LANGBERGER,Nero-}
  7
ＭＳ ゴシック
 73
     1
 44
0.7828267384257843
1001
ACAD
1000
ACAD_MTEXT_DEFINED_HEIGHT_BEGIN
1070
    46
1040
13.76777978515625
1000
ACAD_MTEXT_DEFINED_HEIGHT_END
  0
INSERT
  5
6B5
330
A
100
AcDbEntity
  8
TEMPLATE
100
AcDbBlockReference
  2
名称未設定-1
 10
935.3753740442249
 20
12.97338287832691
 30
0.0
 41
0.3809999999999999
 42
0.3809999999999999
 43
0.3809999999999999
  0
MTEXT
  5
7D9
330
A
100
AcDbEntity
  8
TEMPLATE
390
1D
100
AcDbMText
 10
62.62717263801819
 20
113.4059880146976
 30
0.0
 40
12.21630859375
 41
0.0
 46
12.39955322265625
 71
     1
 72
     1
  1
{クローム}
  7
ＭＳ ゴシック
 73
     1
 44
0.7828267384257843
1001
ACAD
1000
ACAD_MTEXT_DEFINED_HEIGHT_BEGIN
1070
    46
1040
12.39955322265625
1000
ACAD_MTEXT_DEFINED_HEIGHT_END
  0
INSERT
  5
68C
330
A
100
AcDbEntity
  8
TEMPLATE
100
AcDbBlockReference
  2
block 2
 10
919.2743017702577
 20
8.373076514336368
 30
0.0
 41
0.3809999999999999
 42
0.3809999999999999
 43
0.3809999999999999
  0
LWPOLYLINE
  5
D69
330
A
100
AcDbEntity
  8
BORDER
 48
0.05
100
AcDbPolyline
 90
        4
 70
     1
 43
0.0
 10
0.0
 20
0.0
 10
0.0
 20
1485.0
 10
1050.0
 20
1485.0
 10
1050.0
 20
0.0
  0
LINE
  5
FA4
330
A
100
AcDbEntity
  8
MODEL
  6
Continuous
100
AcDbLine
 10
569.7518655481731
 20
896.8317691953341
 30
0.0
 11
572.7518567266857
 21
896.8317691953341
 31
0.0
  0
LINE
  5
FA5
330
A
100
AcDbEntity
  8
MODEL
  6
Continuous
100
AcDbLine
 10
572.7518567266857
 20
920.8317694039504
 30
0.0
 11
569.7518655481731
 21
920.8317694039504
 31
0.0
  0
LINE
  5
FA6
330
A
100
AcDbEntity
  8
MODEL
  6
Continuous
100
AcDbLine
 10
216.7642557444965
 20
1067.04422242655
 30
0.0
 11
214.6429338875209
 21
1069.165551734106
 31
0.0
  0
LINE
  5
FA7
330
A
100
AcDbEntity
  8
MODEL
  6
Continuous
100
AcDbLine
 10
197.6723590317165
 20
1052.194991779462
 30
0.0
 11
199.7936734381115
 21
1050.073677373068
 31
0.0
  0
LINE
  5
FA8
330
A
100
AcDbEntity
  8
MODEL
  6
Continuous
100
AcDbLine
 10
559.6587428274547
 20
938.83176862909
 30
0.0
 11
559.6454360905086
 21
938.83176862909
 31
0.0
  0
LINE
  5
FA9
330
A
100
AcDbEntity
  8
MODEL
  6
Continuous
100
AcDbLine
 10
559.6454360905086
 20
878.8317699701945
 30
0.0
 11
559.6587428274547
 21
878.8317699701945
 31
0.0
  0
LINE
  5
FAA
330
A
100
AcDbEntity
  8
MODEL
  6
Continuous
100
AcDbLine
 10
215.2568989816104
 20
1081.487888169424
 30
0.0
 11
215.2435922446643
 21
1081.487888169424
 31
0.0
  0
LINE
  5
FAB
330
A
100
AcDbEntity
  8
MODEL
  6
Continuous
100
AcDbLine
 10
215.2435922446643
 20
1021.487885785238
 30
0.0
 11
215.2568989816104
 21
1021.487885785238
 31
0.0
  0
LINE
  5
FAC
330
A
100
AcDbEntity
  8
MODEL
  6
Continuous
100
AcDbLine
 10
199.7936734381115
 20
1050.073677373068
 30
0.0
 11
334.1437814208662
 21
915.7233877824108
 31
0.0
  0
LINE
  5
FAD
330
A
100
AcDbEntity
  8
MODEL
  6
Continuous
100
AcDbLine
 10
351.1143562766706
 20
932.6939393551509
 30
0.0
 11
216.7642557444965
 21
1067.04422242655
 31
0.0
  0
SPLINE
  5
FAE
330
A
100
AcDbEntity
  8
MODEL
  6
Continuous
100
AcDbSpline
210
0.0
220
0.0
230
1.0
 70
     8
 71
     3
 72
    19
 73
    15
 74
     0
 42
0.000000001
 43
0.00000001
 40
0.0
 40
0.0
 40
0.0
 40
0.0
 40
0.0519427329563312
 40
0.1410497537191176
 40
0.230168786283155
 40
0.3192878376526866
 40
0.408406849898102
 40
0.4975258813673699
 40
0.5866449036593968
 40
0.6757639590340522
 40
0.7648829530765654
 40
0.854001971515272
 40
0.9431210489206057
 40
1.0
 40
1.0
 40
1.0
 40
1.0
 10
334.1437814208662
 20
915.7233877824108
 30
0.0
 10
334.7714811197679
 20
915.1108532725937
 30
0.0
 10
336.4759907383518
 20
913.4475245096135
 30
0.0
 10
339.4346270119545
 20
910.9216381786553
 30
0.0
 10
343.0562959665608
 20
908.2228329203369
 30
0.0
 10
346.8611247211843
 20
905.7871581435872
 30
0.0
 10
350.8261483814417
 20
903.6226460325004
 30
0.0
 10
354.9330670765144
 20
901.741005854992
 30
0.0
 10
359.1614701018048
 20
900.1510435575717
 30
0.0
 10
363.4907229735604
 20
898.8610647212706
 30
0.0
 10
367.8996282927842
 20
897.8757278478804
 30
0.0
 10
372.3665023607923
 20
897.2059632120161
 30
0.0
 10
376.3267895432914
 20
896.8773577368427
 30
0.0
 10
378.7917918385333
 20
896.8445504799727
 30
0.0
 10
379.7521249773895
 20
896.8317691953341
 30
0.0
  0
SPLINE
  5
FAF
330
A
100
AcDbEntity
  8
MODEL
  6
Continuous
100
AcDbSpline
210
0.0
220
0.0
230
1.0
 70
     8
 71
     3
 72
    17
 73
    13
 74
     0
 42
0.000000001
 43
0.00000001
 40
0.0
 40
0.0
 40
0.0
 40
0.0
 40
0.051948413906337
 40
0.1643983189695287
 40
0.2768770603946775
 40
0.389355721403415
 40
0.501834370144011
 40
0.6143131481020357
 40
0.72679179097577
 40
0.8392704470080949
 40
0.9517491218804649
 40
1.0
 40
1.0
 40
1.0
 40
1.0
 10
379.7521249773895
 20
920.8317694039504
 30
0.0
 10
379.2014744525181
 20
920.8386030535764
 30
0.0
 10
377.4588606974216
 20
920.8602291327286
 30
0.0
 10
374.5304735414379
 20
921.1190907467242
 30
0.0
 10
371.0031517021603
 20
921.7334147860072
 30
0.0
 10
367.5436318577435
 20
922.6605838756257
 30
0.0
 10
364.179317821166
 20
923.8882632429093
 30
0.0
 10
360.9366477201761
 20
925.4084390259775
 30
0.0
 10
357.839991575564
 20
927.2080434132265
 30
0.0
 10
354.9169980276324
 20
929.2763487121626
 30
0.0
 10
352.6988496287327
 20
931.1457171971331
 30
0.0
 10
351.4801952942521
 20
932.3364748870615
 30
0.0
 10
351.1143562766706
 20
932.6939393551509
 30
0.0
  0
LINE
  5
FB0
330
A
100
AcDbEntity
  8
MODEL
  6
Continuous
100
AcDbLine
 10
569.7518655481731
 20
920.8317694039504
 30
0.0
 11
379.7521249773895
 21
920.8317694039504
 31
0.0
  0
LINE
  5
FB1
330
A
100
AcDbEntity
  8
MODEL
  6
Continuous
100
AcDbLine
 10
379.7521249773895
 20
896.8317691953341
 30
0.0
 11
569.7518655481731
 21
896.8317691953341
 31
0.0
  0
LWPOLYLINE
  5
FB2
330
A
100
AcDbEntity
  8
MODEL
  6
Continuous
100
AcDbPolyline
 90
       20
 70
   128
 43
0.0
 10
569.7518655481731
 20
896.8317691953341
 10
569.7546073618328
 20
896.9456354872743
 10
569.7579899254238
 20
897.4125922442834
 10
569.7611936750804
 20
898.226514157788
 10
569.7641143026744
 20
899.3626708881418
 10
569.7666624012386
 20
900.7865420327942
 10
569.7687634649669
 20
902.4548634672026
 10
569.7703429880535
 20
904.3169433036308
 10
569.7713711681758
 20
906.3162043941627
 10
569.7718033018505
 20
908.3918995940546
 10
569.7716244879161
 20
910.4809599713842
 10
569.7708496275341
 20
912.5199105375866
 10
569.7694936218654
 20
914.4467987836758
 10
569.7676011743938
 20
916.2030771159987
 10
569.7652467909252
 20
917.7353816823522
 10
569.7624602737819
 20
918.9971552015702
 10
569.7593757334148
 20
919.9500583828847
 10
569.7560378733074
 20
920.5651373387734
 10
569.7525957050716
 20
920.8237050817768
 10
569.7518655481731
 20
920.8317694039504
  0
LWPOLYLINE
  5
FB3
330
A
100
AcDbEntity
  8
MODEL
  6
Continuous
100
AcDbPolyline
 90
       20
 70
   128
 43
0.0
 10
572.7518567266857
 20
896.8317691953341
 10
572.7545985403453
 20
896.9456354872743
 10
572.7579960050975
 20
897.4125922442834
 10
572.7611997547542
 20
898.226514157788
 10
572.7641203823482
 20
899.3626708881418
 10
572.7666684809124
 20
900.7865420327942
 10
572.7687546434795
 20
902.4548634672026
 10
572.7703490677272
 20
904.3169433036308
 10
572.7713623466884
 20
906.3162043941627
 10
572.771794480363
 20
908.3918995940546
 10
572.7716156664287
 20
910.4809599713842
 10
572.7708408060466
 20
912.5199105375866
 10
572.7694997015392
 20
914.4467987836758
 10
572.7676072540676
 20
916.2030771159987
 10
572.7652379694377
 20
917.7353816823522
 10
572.7624663534557
 20
918.9971552015702
 10
572.7593669119274
 20
919.9500583828847
 10
572.7560439529811
 20
920.5651373387734
 10
572.7525868835842
 20
920.8237050817768
 10
572.7518567266857
 20
920.8317694039504
  0
LWPOLYLINE
  5
FB4
330
A
100
AcDbEntity
  8
MODEL
  6
Continuous
100
AcDbPolyline
 90
       20
 70
   128
 43
0.0
 10
216.7642557444965
 20
1067.04422242655
 10
216.6922831359302
 20
1066.969642114774
 10
216.3729587021267
 20
1066.646912765638
 10
215.8076980533992
 20
1066.078448367254
 10
215.0136822286045
 20
1065.281504464285
 10
214.0150362077152
 20
1064.28029544367
 10
212.8420987549221
 20
1063.105249476568
 10
211.5305208983814
 20
1061.792054844038
 10
210.1201408925449
 20
1060.380631756918
 10
208.6538144770061
 20
1058.913865757124
 10
207.1761035743152
 20
1057.436311316625
 10
205.7319053831493
 20
1055.9928656341
 10
204.3650963726436
 20
1054.62738282694
 10
203.1172060790454
 20
1053.381377530233
 10
202.0261505070125
 20
1052.292668891088
 10
201.1250921907817
 20
1051.394367289678
 10
200.4413971128856
 20
1050.713756752149
 10
199.9958374920284
 20
1050.271520090238
 10
199.8019584837352
 20
1050.081098151342
 10
199.7936734381115
 20
1050.073677373068
  0
LWPOLYLINE
  5
FB5
330
A
100
AcDbEntity
  8
MODEL
  6
Continuous
100
AcDbPolyline
 90
       37
 70
   128
 43
0.0
 10
202.9060938778316
 20
1057.447159361974
 10
204.3164738836681
 20
1058.858582449094
 10
205.7828002992069
 20
1060.32536335005
 10
207.2605112018978
 20
1061.802917790548
 10
208.7047093930637
 20
1063.246363473074
 10
210.0715184035694
 20
1064.611831379072
 10
211.3194086971675
 20
1065.85785157694
 10
212.4104642692005
 20
1066.946545314924
 10
213.3115300360118
 20
1067.844846916334
 10
213.995225113908
 20
1068.525457453863
 10
214.4407772841846
 20
1068.967694115774
 10
214.6346562924778
 20
1069.158130955831
 10
214.5709687295353
 20
1069.090956521169
 10
214.2516368451511
 20
1068.768242073194
 10
213.6863836470043
 20
1068.199762773649
 10
212.8923678222095
 20
1067.40281887068
 10
211.8937218013202
 20
1066.401609850065
 10
210.7207843485271
 20
1065.226563882963
 10
209.4091990414058
 20
1063.913384151594
 10
207.9988264861499
 20
1062.501961064474
 10
206.5325000706111
 20
1061.035180163519
 10
205.0547891679203
 20
1059.55762572302
 10
203.6105835261737
 20
1058.114180040495
 10
202.2437819662487
 20
1056.748712134496
 10
200.9958842220699
 20
1055.502691936628
 10
199.9048361006176
 20
1054.413998198644
 10
199.0037628832256
 20
1053.515696597234
 10
198.3200678053295
 20
1052.835086059705
 10
197.8745230856334
 20
1052.392849397794
 10
197.6806440773403
 20
1052.202412557737
 10
197.7443316402828
 20
1052.269586992399
 10
198.0636635246669
 20
1052.592301440374
 10
198.6289241733944
 20
1053.160780739919
 10
199.4229325476085
 20
1053.957724642889
 10
200.4215785684978
 20
1054.958933663503
 10
201.5945085707103
 20
1056.133979630605
 10
202.9060938778316
 20
1057.447159361974
  0
ARC
  5
FB6
330
A
100
AcDbEntity
  8
MODEL
  6
Continuous
100
AcDbCircle
 10
559.658768214666
 20
908.8317479345367
 30
0.0
 40
29.99997796435204
100
AcDbArc
 50
203.5781525417489
 51
269.9999515139659
  0
ARC
  5
FB7
330
A
100
AcDbEntity
  8
MODEL
  6
Continuous
100
AcDbCircle
 10
559.6587599400777
 20
908.8317547261865
 30
0.0
 40
29.99998475599691
100
AcDbArc
 50
269.9999673172845
 51
156.4217782294955
  0
ARC
  5
FB8
330
A
100
AcDbEntity
  8
MODEL
  6
Continuous
100
AcDbCircle
 10
559.6454717123984
 20
908.8317750310414
 30
0.0
 40
29.99999359806975
100
AcDbArc
 50
90.00006803281258
 51
156.4218279114791
  0
ARC
  5
FB9
330
A
100
AcDbEntity
  8
MODEL
  6
Continuous
100
AcDbCircle
 10
559.6454591794777
 20
908.831744423918
 30
0.0
 40
29.99997445373332
100
AcDbArc
 50
203.5781481524293
 51
269.9999559032831
  0
ARC
  5
FBA
330
A
100
AcDbEntity
  8
MODEL
  6
Continuous
100
AcDbCircle
 10
215.2568703183383
 20
1051.487863510829
 30
0.0
 40
29.99997772560311
100
AcDbArc
 50
338.7155272149558
 51
270.0000547428614
  0
ARC
  5
FBB
330
A
100
AcDbEntity
  8
MODEL
  6
Continuous
100
AcDbCircle
 10
215.2569124894521
 20
1051.487771798458
 30
0.0
 40
29.99988601322335
100
AcDbArc
 50
269.9999742018281
 51
291.5589838512811
  0
ARC
  5
FBC
330
A
100
AcDbEntity
  8
MODEL
  6
Continuous
100
AcDbCircle
 10
215.2436311628931
 20
1051.487886977331
 30
0.0
 40
30.00000119211814
100
AcDbArc
 50
90.00007432833877
 51
269.9999256716648
  0
LWPOLYLINE
  5
FBD
330
A
100
AcDbEntity
  8
MODEL
  6
Continuous
100
AcDbPolyline
 90
       20
 70
   128
 43
0.0
 10
216.7642333927547
 20
1067.044237327711
 10
216.6387879672443
 20
1066.915327382223
 10
216.2593373480236
 20
1066.532501649992
 10
215.6374001326953
 20
1065.907427740232
 10
214.7918858948146
 20
1065.059059929983
 10
213.748476785699
 20
1064.01319212927
 10
212.5388824763691
 20
1062.80159361376
 10
211.1998492303287
 20
1061.461085152761
 10
209.7720721187984
 20
1060.032406520979
 10
208.2989209714328
 20
1058.558949899809
 10
206.8251663270389
 20
1057.085493278639
 10
205.3955861750042
 20
1055.656814646856
 10
204.053609949628
 20
1054.316306185857
 10
202.8400221290981
 20
1053.104722571508
 10
201.7916956367885
 20
1052.058854770796
 10
200.9404817047512
 20
1051.210486960546
 10
200.3122487488185
 20
1050.585398149625
 10
199.9260702553188
 20
1050.202587318556
 10
199.7937032404338
 20
1050.073677373068
 10
199.7936734381115
 20
1050.073677373068
  0
LWPOLYLINE
  5
FBE
330
A
100
AcDbEntity
  8
MODEL
  6
Continuous
100
AcDbPolyline
 90
       19
 70
   128
 43
0.0
 10
569.7518655481731
 20
920.8317694039504
 10
569.7553226175701
 20
920.6494620786468
 10
569.7586902799999
 20
920.1080805407325
 10
569.7618344250118
 20
919.2240738095204
 10
569.764695447961
 20
918.0243021593849
 10
569.767154139558
 20
916.5452208155255
 10
569.7691359939968
 20
914.8317693517963
 10
569.770611208955
 20
912.9360110284249
 10
569.7715201797878
 20
910.9155474481593
 10
569.7718182030117
 20
908.8317692996422
 10
569.7715201797878
 20
906.7479911511252
 10
569.770611208955
 20
904.7275275708596
 10
569.7691359939968
 20
902.8317692474882
 10
569.767154139558
 20
901.118317783759
 10
569.764695447961
 20
899.6392364398996
 10
569.7618344250118
 20
898.4394647897641
 10
569.7586902799999
 20
897.555458058552
 10
569.7553226175701
 20
897.0140765206377
 10
569.7518655481731
 20
896.8317691953341
  0
ARC
  5
FBF
330
A
100
AcDbEntity
  8
MODEL
  6
Continuous
100
AcDbCircle
 10
559.6604180568761
 20
908.8317562360105
 30
0.0
 40
28.99998610190405
100
AcDbArc
 50
269.9999875542327
 51
155.5566235139183
  0
ARC
  5
FC0
330
A
100
AcDbEntity
  8
MODEL
  6
Continuous
100
AcDbCircle
 10
559.6604326596939
 20
908.8317604711826
 30
0.0
 40
28.99999033708284
100
AcDbArc
 50
204.4433251718211
 51
269.9999587031963
  0
ARC
  5
FC1
330
A
100
AcDbEntity
  8
MODEL
  6
Continuous
100
AcDbCircle
 10
215.2585026367983
 20
1051.488049011043
 30
0.0
 40
29.0001686498861
100
AcDbArc
 50
270.0001142437357
 51
290.6968943299285
  0
ARC
  5
FC2
330
A
100
AcDbEntity
  8
MODEL
  6
Continuous
100
AcDbCircle
 10
215.2585362117484
 20
1051.48785902976
 30
0.0
 40
28.99997866855505
100
AcDbArc
 50
339.5838329845816
 51
270.0000479098512
  0
LINE
  5
FC7
330
A
100
AcDbEntity
  8
MODEL
  6
Continuous
100
AcDbLine
 10
569.7718182030117
 20
551.3065323662756
 30
0.0
 11
572.7718093815242
 21
551.311516804695
 31
0.0
  0
LINE
  5
FC8
330
A
100
AcDbEntity
  8
MODEL
  6
Continuous
100
AcDbLine
 10
572.7319040718471
 20
575.3114834856985
 30
0.0
 11
569.7318979921733
 21
575.3064990472792
 31
0.0
  0
LINE
  5
FC9
330
A
100
AcDbEntity
  8
MODEL
  6
Continuous
100
AcDbLine
 10
208.2590082111751
 20
574.7053713035582
 30
0.0
 11
206.1376938047802
 21
574.7018471789359
 31
0.0
  0
LINE
  5
FCA
330
A
100
AcDbEntity
  8
MODEL
  6
Continuous
100
AcDbLine
 10
206.1776065650379
 20
550.7018730473517
 30
0.0
 11
208.2989209714328
 21
550.7054046225546
 31
0.0
  0
LINE
  5
FCB
330
A
100
AcDbEntity
  8
MODEL
  6
Continuous
100
AcDbLine
 10
554.7102013054287
 20
627.4315879178046
 30
0.0
 11
554.5299419584667
 21
627.365640966296
 31
0.0
  0
LINE
  5
FCC
330
A
100
AcDbEntity
  8
MODEL
  6
Continuous
100
AcDbLine
 10
564.760662001649
 20
627.3826543670891
 30
0.0
 11
564.5801940384304
 21
627.4480015468596
 31
0.0
  0
LINE
  5
FCD
330
A
100
AcDbEntity
  8
MODEL
  6
Continuous
100
AcDbLine
 10
220.5907100263034
 20
626.7259508800505
 30
0.0
 11
220.1783352914249
 21
626.8752642405032
 31
0.0
  0
LINE
  5
FCE
330
A
100
AcDbEntity
  8
MODEL
  6
Continuous
100
AcDbLine
 10
210.3083500090038
 20
626.8588506114481
 30
0.0
 11
209.8964819136058
 21
626.7081663441656
 31
0.0
  0
LINE
  5
FCF
330
A
100
AcDbEntity
  8
MODEL
  6
Continuous
100
AcDbLine
 10
589.658699316064
 20
619.3396967333554
 30
0.0
 11
589.6454074802791
 21
627.3396850061415
 31
0.0
  0
LINE
  5
FD0
330
A
100
AcDbEntity
  8
MODEL
  6
Continuous
100
AcDbLine
 10
529.6454796018993
 20
627.2399049681424
 30
0.0
 11
529.6587863388454
 21
619.2399166953562
 31
0.0
  0
ARC
  5
FD1
330
A
100
AcDbEntity
  8
MODEL
  6
Continuous
100
AcDbCircle
 10
588.6587071372355
 20
619.3380330891903
 30
0.0
 40
1.00000000000007
100
AcDbArc
 50
270.0952822362993
 51
0.0952822362993
  0
ARC
  5
FD2
330
A
100
AcDbEntity
  8
MODEL
  6
Continuous
100
AcDbCircle
 10
530.6587873376325
 20
619.2415797865904
 30
0.0
 40
0.9999999999999987
100
AcDbArc
 50
180.0952822362993
 51
270.0952822362472
  0
ARC
  5
FD3
330
A
100
AcDbEntity
  8
MODEL
  6
Continuous
100
AcDbCircle
 10
244.2568567390031
 20
618.7652961611554
 30
0.0
 40
0.9999999999999633
100
AcDbArc
 50
270.0952822364035
 51
0.0952822362993108
  0
ARC
  5
FD4
330
A
100
AcDbEntity
  8
MODEL
  6
Continuous
100
AcDbCircle
 10
186.2569369394009
 20
618.6688428585564
 30
0.0
 40
0.9999999999999809
100
AcDbArc
 50
180.0952822362993
 51
270.0952822362993
  0
LINE
  5
FD5
330
A
100
AcDbEntity
  8
MODEL
  6
Continuous
100
AcDbLine
 10
245.2568554702198
 20
618.7669594269989
 30
0.0
 11
245.2435487332737
 21
626.7669476997851
 31
0.0
  0
LINE
  5
FD6
330
A
100
AcDbEntity
  8
MODEL
  6
Continuous
100
AcDbLine
 10
185.2436283054744
 20
626.6671695244311
 30
0.0
 11
185.2569350424205
 21
618.6671793889998
 31
0.0
  0
LINE
  5
FD7
330
A
100
AcDbEntity
  8
MODEL
  6
Continuous
100
AcDbLine
 10
550.6604233208095
 20
618.2748411279915
 30
0.0
 11
550.7319339933788
 21
575.2749011349676
 31
0.0
  0
LINE
  5
FD8
330
A
100
AcDbEntity
  8
MODEL
  6
Continuous
100
AcDbLine
 10
568.7319108667766
 20
575.3048375678061
 30
0.0
 11
568.6604001942073
 21
618.3047738355397
 31
0.0
  0
LINE
  5
FD9
330
A
100
AcDbEntity
  8
MODEL
  6
Continuous
100
AcDbLine
 10
206.2585720243846
 20
617.7021056842802
 30
0.0
 11
206.3300826969539
 21
574.7021601033209
 31
0.0
  0
LINE
  5
FDA
330
A
100
AcDbEntity
  8
MODEL
  6
Continuous
100
AcDbLine
 10
224.3330919566547
 20
572.9055941534041
 30
0.0
 11
224.2585488977825
 21
617.7320383918284
 31
0.0
  0
LINE
  5
FDB
330
A
100
AcDbEntity
  8
MODEL
  6
Continuous
100
AcDbLine
 10
208.2989209714328
 20
550.7054046225546
 30
0.0
 11
342.6490242975747
 21
550.9288251829146
 31
0.0
  0
LINE
  5
FDC
330
A
100
AcDbEntity
  8
MODEL
  6
Continuous
100
AcDbLine
 10
208.9661130133068
 20
574.7065484952925
 30
0.0
 11
208.2590082111751
 21
574.7053713035582
 31
0.0
  0
LINE
  5
FDD
330
A
100
AcDbEntity
  8
MODEL
  6
Continuous
100
AcDbLine
 10
342.6091124686395
 20
574.9287918639181
 30
0.0
 11
224.3300595703518
 21
574.7320965361594
 31
0.0
  0
LWPOLYLINE
  5
FDE
330
A
100
AcDbEntity
  8
MODEL
  6
Continuous
100
AcDbPolyline
 90
       10
 70
   128
 43
0.0
 10
379.7321685972606
 20
574.9905273747443
 10
375.1564988317882
 20
574.9829203319548
 10
370.6156493547355
 20
574.9753654432295
 10
366.144187134782
 20
574.9679297637938
 10
361.7761352482235
 20
574.9606654477118
 10
357.5447400483285
 20
574.9536320996283
 10
353.4822048070823
 20
574.9468744230269
 10
349.6194457086717
 20
574.9404520225523
 10
345.9858646067773
 20
574.9344096016882
 10
342.6091124686395
 20
574.9287918639181
  0
LWPOLYLINE
  5
FDF
330
A
100
AcDbEntity
  8
MODEL
  6
Continuous
100
AcDbPolyline
 90
       10
 70
   128
 43
0.0
 10
342.6490242975747
 20
550.9288251829146
 10
346.0257773670351
 20
550.9344429206847
 10
349.6593584689294
 20
550.9404853415488
 10
353.5221157046949
 20
550.9469077420233
 10
357.5846509459411
 20
550.9536654186247
 10
361.8160480084812
 20
550.9606987667082
 10
366.1840998950397
 20
550.9679630827902
 10
370.6555621149932
 20
550.975398762226
 10
375.1964078667556
 20
550.9829536509512
 10
379.772077632228
 20
550.9905606937407
  0
LINE
  5
FE0
330
A
100
AcDbEntity
  8
MODEL
  6
Continuous
100
AcDbLine
 10
550.7319339933788
 20
575.2749011349676
 30
0.0
 11
379.7321685972606
 21
574.9905273747443
 31
0.0
  0
LINE
  5
FE1
330
A
100
AcDbEntity
  8
MODEL
  6
Continuous
100
AcDbLine
 10
569.7318979921733
 20
575.3064990472792
 30
0.0
 11
568.7319108667766
 21
575.3048375678061
 31
0.0
  0
LINE
  5
FE2
330
A
100
AcDbEntity
  8
MODEL
  6
Continuous
100
AcDbLine
 10
379.772077632228
 20
550.9905606937407
 30
0.0
 11
569.7718182030117
 21
551.3065323662756
 31
0.0
  0
LWPOLYLINE
  5
FE3
330
A
100
AcDbEntity
  8
MODEL
  6
Continuous
100
AcDbPolyline
 90
        3
 70
   128
 43
0.0
 10
569.7323450270092
 20
575.0398651194571
 10
569.7319128933345
 20
575.2984300684927
 10
569.7318979921733
 20
575.3064990472792
  0
LWPOLYLINE
  5
FE4
330
A
100
AcDbEntity
  8
MODEL
  6
Continuous
100
AcDbPolyline
 90
       18
 70
   128
 43
0.0
 10
569.7718182030117
 20
551.3065323662756
 10
569.7716244879161
 20
551.4203995895384
 10
569.7708496275341
 20
551.8873498272894
 10
569.7694936218654
 20
552.7012736034392
 10
569.7676011743938
 20
553.8374275398253
 10
569.7652467909252
 20
555.2613005471228
 10
569.7624602737819
 20
556.9296196532248
 10
569.7593757334148
 20
558.7916911077498
 10
569.7560378733074
 20
560.7909501028059
 10
569.7525957050716
 20
562.8666446042059
 10
569.7491237345134
 20
564.9557054471968
 10
569.7457262697612
 20
566.9946462345122
 10
569.7425225201046
 20
568.9215377402304
 10
569.7396018925106
 20
570.6778109502791
 10
569.7370537939464
 20
572.2101122570036
 10
569.7349527302181
 20
573.4718829822539
 10
569.7333732071315
 20
574.4247898888586
 10
569.7323450270092
 20
575.0398651194571
  0
LWPOLYLINE
  5
FE5
330
A
100
AcDbEntity
  8
MODEL
  6
Continuous
100
AcDbPolyline
 90
        3
 70
   128
 43
0.0
 10
572.7323511066829
 20
575.044857008457
 10
572.7319189730083
 20
575.3034219574927
 10
572.7319040718471
 20
575.3114834856985
  0
LWPOLYLINE
  5
FE6
330
A
100
AcDbEntity
  8
MODEL
  6
Continuous
100
AcDbPolyline
 90
       18
 70
   128
 43
0.0
 10
572.7718093815242
 20
551.311516804695
 10
572.7716156664287
 20
551.4253840279578
 10
572.7708408060466
 20
551.8923417162894
 10
572.7694997015392
 20
552.7062654924391
 10
572.7676072540676
 20
553.8424194288252
 10
572.7652379694377
 20
555.2662849855421
 10
572.7624663534557
 20
556.9346040916441
 10
572.7593669119274
 20
558.7966829967497
 10
572.7560439529811
 20
560.7959419918059
 10
572.7525868835842
 20
562.8716364932059
 10
572.749114913026
 20
564.9606898856161
 10
572.7457174482738
 20
566.9996381235121
 10
572.7425136986171
 20
568.9265221786497
 10
572.7395930710231
 20
570.682802839279
 10
572.737044972459
 20
572.2151041460036
 10
572.7349588098919
 20
573.4768748712538
 10
572.7333643856441
 20
574.429774327278
 10
572.7323511066829
 20
575.044857008457
  0
LWPOLYLINE
  5
FE7
330
A
100
AcDbEntity
  8
MODEL
  6
Continuous
100
AcDbPolyline
 90
       20
 70
   128
 43
0.0
 10
208.2590082111751
 20
574.7053713035582
 10
209.3818256082927
 20
574.6017486286162
 10
210.8260312500393
 20
574.1477474999426
 10
212.1928402605449
 20
573.3460873794554
 10
213.4407305541431
 20
572.2211018633841
 10
214.5317786755954
 20
570.8069965672491
 10
215.4328444424068
 20
569.1467240881918
 10
216.1165395203029
 20
567.2907323074339
 10
216.5620991411602
 20
565.2954221200941
 10
216.7559781494533
 20
563.221411449909
 10
216.6922831359302
 20
561.131724758148
 10
216.3729587021267
 20
559.0898484420775
 10
215.8076980533992
 20
557.1578309369086
 10
215.0136822286045
 20
555.3943753671645
 10
214.0150362077152
 20
553.8530588579176
 10
212.8420987549221
 20
552.5807157588004
 10
211.5305208983814
 20
551.6160071325301
 10
210.1201408925449
 20
550.988243563175
 10
208.6538144770061
 20
550.7164985370634
 10
208.2989209714328
 20
550.7054046225546
  0
LWPOLYLINE
  5
FE8
330
A
100
AcDbEntity
  8
MODEL
  6
Continuous
100
AcDbPolyline
 90
       37
 70
   128
 43
0.0
 10
202.9060938778316
 20
573.7912446689604
 10
204.3164738836681
 20
574.4190082383154
 10
205.7828002992069
 20
574.690753264427
 10
207.2605112018978
 20
574.5982170534132
 10
208.7047093930637
 20
574.1442233753203
 10
210.0715184035694
 20
573.3425558042525
 10
211.3194086971675
 20
572.2175777387617
 10
212.4104642692005
 20
570.8034649920462
 10
213.3115300360118
 20
569.1431925129889
 10
213.995225113908
 20
567.2872081828116
 10
214.4407772841846
 20
565.2918905448912
 10
214.6346562924778
 20
563.2178798747061
 10
214.5709687295353
 20
561.1281931829451
 10
214.2516368451511
 20
559.0863168668745
 10
213.6863836470043
 20
557.1542993617056
 10
212.8923678222095
 20
555.3908437919615
 10
211.8937218013202
 20
553.8495272827147
 10
210.7207843485271
 20
552.5771841835974
 10
209.4091990414058
 20
551.6124755573271
 10
207.9988264861499
 20
550.9847119879721
 10
206.5325000706111
 20
550.7129669618605
 10
205.0547891679203
 20
550.8055031728743
 10
203.6105835261737
 20
551.2594968509673
 10
202.2437819662487
 20
552.0611644220351
 10
200.9958842220699
 20
553.1861424875258
 10
199.9048361006176
 20
554.6002552342413
 10
199.0037628832256
 20
556.2605277132986
 10
198.3200678053295
 20
558.116512043476
 10
197.8745230856334
 20
560.1118296813963
 10
197.6806440773403
 20
562.1858403515814
 10
197.7443316402828
 20
564.2755270433424
 10
198.0636635246669
 20
566.317403359413
 10
198.6289241733944
 20
568.2494208645819
 10
199.4229325476085
 20
570.012876434326
 10
200.4215785684978
 20
571.5541929435728
 10
201.5945085707103
 20
572.8265360426901
 10
202.9060938778316
 20
573.7912446689604
  0
LWPOLYLINE
  5
FE9
330
A
100
AcDbEntity
  8
MODEL
  6
Continuous
100
AcDbPolyline
 90
        9
 70
   128
 43
0.0
 10
556.1939248266613
 20
627.4340559226273
 10
556.683875006715
 20
627.4348698985575
 10
557.224504035989
 20
627.4357695561646
 10
557.8065433922206
 20
627.4367381316422
 10
558.4200390997325
 20
627.4377569985388
 10
559.0545007410442
 20
627.4388131183384
 10
559.6990653696453
 20
627.4398841392992
 10
560.3427210274135
 20
627.44095516026
 10
560.9744259539043
 20
627.4420056921242
  0
LWPOLYLINE
  5
FEA
330
A
100
AcDbEntity
  8
MODEL
  6
Continuous
100
AcDbPolyline
 90
        9
 70
   128
 43
0.0
 10
560.9744259539043
 20
627.4420056921242
 10
561.5833917084133
 20
627.4430189710854
 10
562.1592023792659
 20
627.4439763706921
 10
562.691993397752
 20
627.444861127138
 10
563.1726452532207
 20
627.4456620645522
 10
563.5929474058544
 20
627.4463605564831
 10
563.9457025947963
 20
627.4469472897051
 10
564.2248758497631
 20
627.4474110883473
 10
564.4256838980114
 20
627.447744501829
  0
LINE
  5
FEB
330
A
100
AcDbEntity
  8
MODEL
  6
Continuous
100
AcDbLine
 10
564.4256838980114
 20
627.447744501829
 30
0.0
 11
564.7397705736553
 21
627.3249645215271
 31
0.0
  0
LWPOLYLINE
  5
FEC
330
A
100
AcDbEntity
  8
MODEL
  6
Continuous
100
AcDbPolyline
 90
        8
 70
   128
 43
0.0
 10
554.7102013054287
 20
627.4315879178046
 10
554.7104993286525
 20
627.4315879178046
 10
554.7597476663982
 20
627.4316698741911
 10
554.8925915184413
 20
627.4318915289639
 10
555.1067361059581
 20
627.4322472941874
 10
555.3985604467784
 20
627.4327334445713
 10
555.7630279484188
 20
627.4333388042448
 10
556.1939248266613
 20
627.4340559226273
  0
LWPOLYLINE
  5
FED
330
A
100
AcDbEntity
  8
MODEL
  6
Continuous
100
AcDbPolyline
 90
        3
 70
   128
 43
0.0
 10
564.4256838980114
 20
627.447744501829
 10
564.5447143736278
 20
627.44794380486
 10
564.5801940384304
 20
627.4480015468596
  0
LWPOLYLINE
  5
FEE
330
A
100
AcDbEntity
  8
MODEL
  6
Continuous
100
AcDbPolyline
 90
        9
 70
   128
 43
0.0
 10
214.8310163441097
 20
626.8663719725607
 10
215.4764377894794
 20
626.8674467188118
 10
216.1178657236492
 20
626.8685121518372
 10
216.7443403425609
 20
626.8695552331208
 10
217.3451253595745
 20
626.8705536109208
 10
217.9099464240467
 20
626.871492384076
 10
218.4291475835239
 20
626.8723566514252
 10
218.893840295354
 20
626.8731296491621
 10
219.2960673394596
 20
626.8737983387707
  0
LWPOLYLINE
  5
FEF
330
A
100
AcDbEntity
  8
MODEL
  6
Continuous
100
AcDbPolyline
 90
        9
 70
   128
 43
0.0
 10
210.7782953801548
 20
626.8596329224108
 10
211.0908323350345
 20
626.8601526004074
 10
211.4744180264865
 20
626.8607896250485
 10
211.9224884930049
 20
626.8615365457533
 10
212.4273845377361
 20
626.8623747360705
 10
212.9804634871875
 20
626.8632948827742
 10
213.5722631040012
 20
626.864278359413
 10
214.1926505985653
 20
626.8653102648257
 10
214.8310163441097
 20
626.8663719725607
  0
LWPOLYLINE
  5
FF0
330
A
100
AcDbEntity
  8
MODEL
  6
Continuous
100
AcDbPolyline
 90
        6
 70
   128
 43
0.0
 10
219.2960673394596
 20
626.8737983387707
 10
219.6289518299495
 20
626.87435154438
 10
219.8867940726673
 20
626.8747799527644
 10
220.06519077448
 20
626.8750761133431
 10
220.1610797467624
 20
626.8752363008259
 10
220.1783352914249
 20
626.8752642405032
  0
LWPOLYLINE
  5
FF1
330
A
100
AcDbEntity
  8
MODEL
  6
Continuous
100
AcDbPolyline
 90
        5
 70
   128
 43
0.0
 10
210.3083500090038
 20
626.8588506114481
 10
210.3138559880649
 20
626.8588599246739
 10
210.3864544454013
 20
626.8589809966086
 10
210.5421566787159
 20
626.8592399042843
 10
210.7782953801548
 20
626.8596329224108
  0
LWPOLYLINE
  5
FF2
330
A
100
AcDbEntity
  8
MODEL
  6
Continuous
100
AcDbPolyline
 90
       31
 70
   128
 43
0.0
 10
589.6454074802791
 20
627.3396850061415
 10
589.6013894501125
 20
627.3396123629807
 10
589.2501988830959
 20
627.3390274924038
 10
588.5519006672298
 20
627.3378670644759
 10
587.5147202434932
 20
627.3361422550677
 10
586.1507573547756
 20
627.3338735532759
 10
584.4760754528438
 20
627.3310888987778
 10
582.510284465829
 20
627.3278199565409
 10
580.2763917866146
 20
627.3241039794682
 10
577.8006383600627
 20
627.3199875336884
 10
575.112036747018
 20
627.3155153226851
 10
572.2421029034053
 20
627.3107432258128
 10
569.2244687500393
 20
627.3057252597807
 10
566.0945543470775
 20
627.3005210292338
 10
562.889016551057
 20
627.2951901388167
 10
559.6454360905086
 20
627.2897959184645
 10
556.4018705311214
 20
627.2844016981123
 10
553.1963327351009
 20
627.2790708076952
 10
550.066403430978
 20
627.2738647145031
 10
547.0487841787731
 20
627.2688467484711
 10
544.1788503351604
 20
627.2640746515988
 10
541.4902487221157
 20
627.2596043032406
 10
539.0144952955638
 20
627.2554859948157
 10
536.7806175175106
 20
627.2517718803881
 10
534.8148116293346
 20
627.2485029381512
 10
533.1401148262416
 20
627.245716421008
 10
531.7761817398464
 20
627.2434495818613
 10
530.7389864149486
 20
627.2417247724532
 10
530.0406881990825
 20
627.24056248188
 10
529.6894827309047
 20
627.2399794739483
 10
529.6454796018993
 20
627.2399049681424
  0
LWPOLYLINE
  5
FF3
330
A
100
AcDbEntity
  8
MODEL
  6
Continuous
100
AcDbPolyline
 90
       30
 70
   128
 43
0.0
 10
588.660381120721
 20
618.3380350899695
 10
588.5613182011043
 20
618.3378693145512
 10
588.1224790039455
 20
618.3371391576527
 10
587.3381116810237
 20
618.3358353060482
 10
586.2178125801479
 20
618.333972660899
 10
584.775111955682
 20
618.3315735739468
 10
583.0275633755123
 20
618.328667847514
 10
580.9963860931789
 20
618.3252890092133
 10
578.7061968269741
 20
618.3214798998831
 10
576.1848160448467
 20
618.3172870856522
 10
573.4628656330501
 20
618.3127608579396
 10
570.5733665647899
 20
618.3079552334545
 10
567.5513961735164
 20
618.3029298168419
 10
564.4336411180889
 20
618.2977460753916
 10
561.2579503479396
 20
618.2924636137484
 10
558.0628731670772
 20
618.2871513497828
 10
554.8871674957668
 20
618.2818707507847
 10
551.7694273415004
 20
618.2766851466893
 10
548.7474569502269
 20
618.2716597300766
 10
545.8579578819667
 20
618.2668541055916
 10
543.135992569009
 20
618.262327877879
 10
540.6146266880428
 20
618.2581350636481
 10
538.3244523229992
 20
618.2543259543179
 10
536.2932601395046
 20
618.2509489786623
 10
534.5457115593349
 20
618.2480413895844
 10
533.1030258360302
 20
618.2456423026322
 10
531.9826969328319
 20
618.243779657483
 10
531.1983594122325
 20
618.2424758058785
 10
530.7595053139125
 20
618.24174564898
 10
530.660457295457
 20
618.2415817362069
  0
LWPOLYLINE
  5
FF4
330
A
100
AcDbEntity
  8
MODEL
  6
Continuous
100
AcDbPolyline
 90
       30
 70
   128
 43
0.0
 10
244.2585223737156
 20
617.765297783613
 10
244.1594669046794
 20
617.7651338708399
 10
243.7206128063594
 20
617.7644037139414
 10
242.9362678351795
 20
617.763099862337
 10
241.8159463825618
 20
617.7612372171877
 10
240.3732606592571
 20
617.7588381302355
 10
238.6257120790874
 20
617.7559286785124
 10
236.5945273461734
 20
617.752553565502
 10
234.3043455305492
 20
617.7487425935267
 10
231.7829721990024
 20
617.7445516419409
 10
229.0610143366252
 20
617.7400254142283
 10
226.1715152683651
 20
617.7352197897433
 10
223.1495523276722
 20
617.7301943731306
 10
220.0317972722446
 20
617.7250087690352
 10
216.8560990515148
 20
617.719726307392
 10
213.6610144200718
 20
617.7144140434264
 10
210.4853236499225
 20
617.7091315817831
 10
207.367568594495
 20
617.703949702978
 10
204.3456056538021
 20
617.6989242863654
 10
201.4561065855419
 20
617.6941186618803
 10
198.7341561737453
 20
617.6895924341677
 10
196.2127753916179
 20
617.6853977572916
 10
193.9226010265743
 20
617.6815905106066
 10
191.8914088430797
 20
617.6782116723059
 10
190.14386026291
 20
617.6753059458731
 10
188.7011745396053
 20
617.6729068589209
 10
187.580845636407
 20
617.6710442137717
 10
186.7965081158077
 20
617.6697403621672
 10
186.3576540174877
 20
617.6690102052687
 10
186.2586059990322
 20
617.6688425672053
  0
LWPOLYLINE
  5
FF5
330
A
100
AcDbEntity
  8
MODEL
  6
Continuous
100
AcDbPolyline
 90
       31
 70
   128
 43
0.0
 10
245.2435487332737
 20
626.7669476997851
 10
245.1995530548488
 20
626.7668750566243
 10
244.848347586671
 20
626.7662901860474
 10
244.1500493708049
 20
626.7651297581194
 10
243.1128540459072
 20
626.7634049487112
 10
241.7489209595119
 20
626.7611362469195
 10
240.0742316069995
 20
626.7583515924214
 10
238.1084257188236
 20
626.7550826501845
 10
235.8745479407703
 20
626.7513666731118
 10
233.3987945142185
 20
626.747250227332
 10
230.7101854505931
 20
626.7427798789738
 10
227.8402516069805
 20
626.7380059194563
 10
224.822624904195
 20
626.7329879534243
 10
221.6926956000721
 20
626.7277837228773
 10
218.4871578040515
 20
626.7224528324602
 10
215.2435922446643
 20
626.7170586121081
 10
212.0000266852771
 20
626.7116643917559
 10
208.7944888892566
 20
626.7063335013388
 10
205.6645595851337
 20
626.7011292707919
 10
202.6469328823482
 20
626.6961094421147
 10
199.7769990387355
 20
626.6913373452423
 10
197.0883974256908
 20
626.6868669968842
 10
194.612643999139
 20
626.6827486884592
 10
192.3787662210857
 20
626.6790345740317
 10
190.4129603329097
 20
626.6757656317948
 10
188.7382635298168
 20
626.6729809772967
 10
187.3743304434215
 20
626.6707122755049
 10
186.3371351185237
 20
626.6689874660967
 10
185.6388369026577
 20
626.6678251755236
 10
185.2876314344799
 20
626.6672421675919
 10
185.2436283054744
 20
626.6671695244311
  0
SPLINE
  5
FF6
330
A
100
AcDbEntity
  8
MODEL
  6
Continuous
100
AcDbSpline
210
0.0
220
0.0
230
1.0
 70
     8
 71
     3
 72
    18
 73
    14
 74
     0
 42
0.000000001
 43
0.00000001
 40
0.0
 40
0.0
 40
0.0
 40
0.0
 40
0.0889861573808693
 40
0.1776288747890074
 40
0.2745907054678625
 40
0.3911325695015023
 40
0.4675197629846657
 40
0.5444142455219875
 40
0.6132821689481395
 40
0.7253217576288489
 40
0.8401835113326542
 40
0.9319022906844303
 40
1.0
 40
1.0
 40
1.0
 40
1.0
 10
550.7319339933788
 20
575.2749011349676
 30
0.0
 10
550.8084796849957
 20
575.2171812951735
 30
0.0
 10
550.9612756419388
 20
575.1019643839434
 30
0.0
 10
552.12142098292
 20
574.2591923486614
 30
0.0
 10
553.9313231893052
 20
573.0658714983845
 30
0.0
 10
556.2143780699976
 20
571.8567368010042
 30
0.0
 10
558.7544785521445
 20
571.176575198602
 30
0.0
 10
560.9989696669495
 20
571.2341873643079
 30
0.0
 10
563.3841177611007
 20
571.9361223283211
 30
0.0
 10
565.7015718181087
 20
573.1744969462286
 30
0.0
 10
567.5525823414805
 20
574.4296975036875
 30
0.0
 10
568.6095659221724
 20
575.212093080512
 30
0.0
 10
568.6397259254122
 20
575.2354408953986
 30
0.0
 10
568.6525770845806
 20
575.2453893852232
 30
0.0
  0
SPLINE
  5
FF7
330
A
100
AcDbEntity
  8
MODEL
  6
Continuous
100
AcDbSpline
210
0.0
220
0.0
230
1.0
 70
     8
 71
     3
 72
    16
 73
    12
 74
     0
 42
0.000000001
 43
0.00000001
 40
0.0
 40
0.0
 40
0.0
 40
0.0
 40
0.118392772210246
 40
0.2363280618880827
 40
0.3653320967849669
 40
0.5203861944092513
 40
0.6220161224744405
 40
0.7243211253229721
 40
0.815946968497872
 40
0.9650113246037015
 40
1.0
 40
1.0
 40
1.0
 40
1.0
 10
208.9661130133068
 20
574.7065484952925
 30
0.0
 10
209.6425210418997
 20
574.6498254017349
 30
0.0
 10
210.9927233849871
 20
574.5365983988174
 30
0.0
 10
213.4934122705713
 20
573.6960632543921
 30
0.0
 10
216.2349555178912
 20
572.5042386946759
 30
0.0
 10
218.8068487930909
 20
571.29581554415
 30
0.0
 10
221.033671347192
 20
570.6145279545151
 30
0.0
 10
222.5986803802884
 20
570.6729697175458
 30
0.0
 10
223.7927193262235
 20
571.3649446320148
 30
0.0
 10
224.4220728065352
 20
572.2648049325323
 30
0.0
 10
224.2660069928056
 20
572.7806748462779
 30
0.0
 10
224.236338717023
 20
572.8787422609328
 30
0.0
  0
LWPOLYLINE
  5
FF8
330
A
100
AcDbEntity
  8
MODEL
  6
Continuous
100
AcDbPolyline
 90
       10
 70
   128
 43
0.0
 10
216.7642333927547
 20
562.7194956374167
 10
216.6387879672443
 20
560.6355086398123
 10
216.2593373480236
 20
558.6144119930266
 10
215.6374001326953
 20
556.7176133823393
 10
214.7918858948146
 20
555.002757949829
 10
213.748476785699
 20
553.5219401550291
 10
212.5388824763691
 20
552.3201540541647
 10
211.1998492303287
 20
551.4339149427412
 10
209.7720721187984
 20
550.8901641201971
 10
208.2989209714328
 20
550.7054046225546
  0
LWPOLYLINE
  5
FF9
330
A
100
AcDbEntity
  8
MODEL
  6
Continuous
100
AcDbPolyline
 90
       10
 70
   128
 43
0.0
 10
208.2590082111751
 20
574.7053713035582
 10
209.732762855569
 20
574.5255142879485
 10
211.1623504581844
 20
573.9865094852446
 10
212.5043192329799
 20
573.1047332715987
 10
213.7179070535099
 20
571.9069779348372
 10
214.7662335458194
 20
570.4296395611761
 10
215.6174474778568
 20
568.7176004481314
 10
216.24568788437
 20
566.8228805494307
 10
216.6318589272892
 20
564.803057951927
 10
216.7642333927547
 20
562.7194956374167
  0
LWPOLYLINE
  5
FFA
330
A
100
AcDbEntity
  8
MODEL
  6
Continuous
100
AcDbPolyline
 90
       10
 70
   128
 43
0.0
 10
569.7518655481731
 20
563.3065119814871
 10
569.7553226175701
 20
561.2227410507201
 10
569.7586902799999
 20
559.2022777032851
 10
569.7618344250118
 20
557.3065221738814
 10
569.764695447961
 20
555.5930749011038
 10
569.767154139558
 20
554.1139930915831
 10
569.7691359939968
 20
552.9142260980605
 10
569.770611208955
 20
552.0302147102354
 10
569.7715201797878
 20
551.4888406229018
 10
569.7718182030117
 20
551.3065323662756
  0
LWPOLYLINE
  5
FFB
330
A
100
AcDbEntity
  8
MODEL
  6
Continuous
100
AcDbPolyline
 90
       10
 70
   128
 43
0.0
 10
569.7318979921733
 20
575.3064990472792
 10
569.7322109165584
 20
575.1241907906531
 10
569.73310498623
 20
574.5828092527388
 10
569.7345802011882
 20
573.6988053154944
 10
569.7365769567882
 20
572.4990308713911
 10
569.7390356483852
 20
571.019956512451
 10
569.7418817701732
 20
569.3065017890929
 10
569.7450408163463
 20
567.4107462596892
 10
569.7483935776149
 20
565.3902903628348
 10
569.7518655481731
 20
563.3065119814871
  0
LWPOLYLINE
  5
FFC
330
A
100
AcDbEntity
  8
MODEL
  6
Continuous
100
AcDbPolyline
 90
       31
 70
   128
 43
0.0
 10
529.6587863388454
 20
619.2399166953562
 10
529.7027894678508
 20
619.239989338517
 10
530.0539949360286
 20
619.2405742090939
 10
530.7522931518947
 20
619.2417346370219
 10
531.7894884767925
 20
619.24345944643
 10
533.1534215631877
 20
619.2457281482218
 10
534.8281183662807
 20
619.2485128027199
 10
536.7939242544567
 20
619.2517817449568
 10
539.0277871313488
 20
619.2554977220295
 10
541.5035405579006
 20
619.2596141678093
 10
544.1921570721065
 20
619.2640863788126
 10
547.0620909157192
 20
619.268858475685
 10
550.0797101679241
 20
619.273876441717
 10
553.209639472047
 20
619.2790825349091
 10
556.4151772680675
 20
619.284411562681
 10
559.6587428274547
 20
619.2898057830332
 10
562.9023083868419
 20
619.2952000033854
 10
566.1078461828624
 20
619.3005308938025
 10
569.2377754869854
 20
619.3057369869946
 10
572.2554096403514
 20
619.3107549530266
 10
575.1253434839641
 20
619.315527049899
 10
577.8139450970089
 20
619.3199992609023
 10
580.2897134247219
 20
619.324115706682
 10
582.523576301614
 20
619.3278298211096
 10
584.4893970909511
 20
619.3310987633465
 10
586.1640789928829
 20
619.3338852804898
 10
587.5280120792781
 20
619.3361521196364
 10
588.5651925030147
 20
619.3378769290446
 10
589.2634907188808
 20
619.3390392196177
 10
589.6147110882198
 20
619.3396222275494
 10
589.658699316064
 20
619.3396967333554
  0
LWPOLYLINE
  5
FFD
330
A
100
AcDbEntity
  8
MODEL
  6
Continuous
100
AcDbPolyline
 90
       31
 70
   128
 43
0.0
 10
185.2569350424205
 20
618.6671793889998
 10
185.300938171426
 20
618.6672538948058
 10
185.6521436396038
 20
618.6678369027375
 10
186.3504418554699
 20
618.6689991933106
 10
187.3876371803676
 20
618.6707240027188
 10
188.7515702667629
 20
618.6729908418654
 10
190.4262670698558
 20
618.6757754963635
 10
192.3920729580318
 20
618.6790463012455
 10
194.6259358349239
 20
618.6827604156731
 10
197.1016892614757
 20
618.6868768614529
 10
199.7903057756816
 20
618.6913490724562
 10
202.6602396192943
 20
618.6961211693285
 10
205.6778663220798
 20
618.7011391353606
 10
208.8077956262027
 20
618.7063452285527
 10
212.0133334222232
 20
618.7116761189698
 10
215.2568989816104
 20
618.7170703393219
 10
218.5004645409977
 20
618.722462697029
 10
221.7060023370182
 20
618.7277935874461
 10
224.8359316411411
 20
618.7329996806382
 10
227.853550893346
 20
618.7380176466702
 10
230.7234921875393
 20
618.7427897435425
 10
233.4121012511646
 20
618.7472619545458
 10
235.8878546777164
 20
618.7513784003256
 10
238.1217250051891
 20
618.7550943773983
 10
240.0875308933651
 20
618.7583633196352
 10
241.7622202458774
 20
618.7611479741333
 10
243.1261607828533
 20
618.7634166759251
 10
244.163356107751
 20
618.7651414853333
 10
244.8616543236171
 20
618.7663019132613
 10
245.2128597917949
 20
618.7668867838381
 10
245.2568554702198
 20
618.7669594269989
  0
DIMENSION
  5
1002
330
A
100
AcDbEntity
  8
DIM
100
AcDbDimension
  2
*D6
 10
559.8617538380352
 20
497.2165726931746
 30
0.0
 11
387.6608286389187
 21
496.9302042291572
 31
0.0
 70
   160
 71
     2
 42
344.4023266258723
 73
     0
 74
     0
 75
     0
  3
tfrom線あり
100
AcDbAlignedDimension
 13
215.34669825632
 23
564.717104238566
 33
0.0
 14
559.7485486545506
 24
565.2898411666017
 34
0.0
 50
0.0952822363150709
100
AcDbRotatedDimension
  0
DIMENSION
  5
1003
330
A
100
AcDbEntity
  8
DIM
100
AcDbDimension
  2
*D7
 10
622.5940628433382
 20
551.3943732275399
 30
0.0
 11
622.5308693002557
 21
589.3943206824522
 31
0.0
 70
   160
 71
     2
 42
75.99999999999967
 73
     0
 74
     0
 75
     0
  3
tfrom線あり
100
AcDbAlignedDimension
 13
585.1454080731078
 23
627.3322015691508
 33
0.0
 14
569.7718165921365
 24
551.3065303457004
 34
0.0
 50
-89.90471776368494
100
AcDbRotatedDimension
  0
DIMENSION
  5
1004
330
A
100
AcDbEntity
  8
DIM
100
AcDbDimension
  2
*D8
 10
589.9117474419184
 20
467.1790423463979
 30
0.0
 11
387.7108637257666
 21
466.8427842431063
 31
0.0
 70
   160
 71
     2
 42
404.4023266258723
 73
     0
 74
     0
 75
     0
  3
tfrom線あり
100
AcDbAlignedDimension
 13
185.2569383221667
 23
618.6671798705809
 33
0.0
 14
589.6587057544698
 24
619.3396960771668
 34
0.0
 50
0.0952822363146851
100
AcDbRotatedDimension
  0
LINE
  5
1008
330
A
100
AcDbEntity
  8
MODEL
  6
CENTER
 48
0.005
100
AcDbLine
 10
215.3124404711841
 20
585.317215762282
 30
0.0
 11
215.226963055637
 21
636.717044620076
 31
0.0
  0
LINE
  5
1009
330
A
100
AcDbEntity
  8
MODEL
  6
CENTER
 48
0.005
100
AcDbLine
 10
559.7152433253565
 20
585.317215762282
 30
0.0
 11
559.6288134538677
 21
637.2897815481117
 31
0.0
  0
LINE
  5
100A
330
A
100
AcDbEntity
  8
MODEL
  6
Continuous
100
AcDbLine
 10
863.28105085372
 20
896.8317691953341
 30
0.0
 11
863.2860427427199
 21
896.8317691953341
 31
0.0
  0
LINE
  5
100B
330
A
100
AcDbEntity
  8
MODEL
  6
Continuous
100
AcDbLine
 10
875.8871501016524
 20
1058.53899724497
 30
0.0
 11
875.8906816768563
 21
1060.660311651365
 31
0.0
  0
LINE
  5
100C
330
A
100
AcDbEntity
  8
MODEL
  6
Continuous
100
AcDbLine
 10
851.8907075452712
 20
1060.700231862203
 30
0.0
 11
851.8871834206498
 21
1058.578902554647
 31
0.0
  0
LINE
  5
100E
330
A
100
AcDbEntity
  8
MODEL
  6
Continuous
100
AcDbLine
 10
799.2192899513161
 20
913.9496122272174
 30
0.0
 11
799.1527227389729
 21
913.7667177030305
 31
0.0
  0
LINE
  5
100F
330
A
100
AcDbEntity
  8
MODEL
  6
Continuous
100
AcDbLine
 10
799.1527227389729
 20
903.896820896254
 30
0.0
 11
799.224056460253
 21
903.7008291827003
 31
0.0
  0
LINE
  5
1010
330
A
100
AcDbEntity
  8
MODEL
  6
Continuous
100
AcDbLine
 10
799.7254581826842
 20
1046.552935314314
 30
0.0
 11
799.7310908216155
 21
1046.537467908994
 31
0.0
  0
LINE
  5
1011
330
A
100
AcDbEntity
  8
MODEL
  6
Continuous
100
AcDbLine
 10
799.732471041671
 20
1056.442090940611
 30
0.0
 11
799.7254581826842
 21
1056.422838640348
 31
0.0
  0
LINE
  5
1012
330
A
100
AcDbEntity
  8
MODEL
  6
Continuous
100
AcDbLine
 10
807.3027489411747
 20
938.83176862909
 30
0.0
 11
799.3027588057435
 21
938.83176862909
 31
0.0
  0
LINE
  5
1013
330
A
100
AcDbEntity
  8
MODEL
  6
Continuous
100
AcDbLine
 10
799.3027588057435
 20
878.8317699701945
 30
0.0
 11
807.3027489411747
 21
878.8317699701945
 31
0.0
  0
SPLINE
  5
1014
330
A
100
AcDbEntity
  8
MODEL
  6
Continuous
100
AcDbSpline
210
0.0
220
0.0
230
1.0
 70
     8
 71
     3
 72
    13
 73
     9
 74
     0
 42
0.000000001
 43
0.00000001
 40
0.0
 40
0.0
 40
0.0
 40
0.0
 40
0.0333395336580824
 40
0.1293440258671936
 40
0.3059349989893584
 40
0.5260421868166695
 40
0.765853163660498
 40
1.0
 40
1.0
 40
1.0
 40
1.0
 10
808.2834651398575
 20
938.0254332692782
 30
0.0
 10
808.281950147692
 20
938.0338939723067
 30
0.0
 10
808.2760725854009
 20
938.0667181084352
 30
0.0
 10
808.2413531485367
 20
938.1925038905836
 30
0.0
 10
808.1440938037563
 20
938.3958923113348
 30
0.0
 10
807.945686401958
 20
938.6185779685345
 30
0.0
 10
807.6628341352866
 20
938.7910985127116
 30
0.0
 10
807.4419182559072
 20
938.8142572712711
 30
0.0
 10
807.3327803689158
 20
938.8256982685486
 30
0.0
  0
SPLINE
  5
1015
330
A
100
AcDbEntity
  8
MODEL
  6
Continuous
100
AcDbSpline
210
0.0
220
0.0
230
1.0
 70
     8
 71
     3
 72
    14
 73
    10
 74
     0
 42
0.000000001
 43
0.00000001
 40
0.0
 40
0.0
 40
0.0
 40
0.0
 40
0.2506592307953023
 40
0.4466272903992619
 40
0.6102242778591825
 40
0.7483458663916853
 40
0.8591472783682237
 40
0.936350914327776
 40
1.0
 40
1.0
 40
1.0
 40
1.0
 10
807.3027489411747
 20
878.8317699701945
 30
0.0
 10
807.4286365449993
 20
878.8454455503422
 30
0.0
 10
807.6529444199273
 20
878.8698128448812
 30
0.0
 10
807.9200005524131
 20
879.0304985067103
 30
0.0
 10
808.0952667931037
 20
879.2078391999355
 30
0.0
 10
808.2027103104488
 20
879.3828532157311
 30
0.0
 10
808.2588463504276
 20
879.5293045082342
 30
0.0
 10
808.2830645093813
 20
879.6292412154596
 30
0.0
 10
808.2888249135981
 20
879.6642210556599
 30
0.0
 10
808.2914279478705
 20
879.68002788438
 30
0.0
  0
LINE
  5
1016
330
A
100
AcDbEntity
  8
MODEL
  6
Continuous
100
AcDbLine
 10
807.875484384886
 20
1081.487888169424
 30
0.0
 11
799.8754961120999
 21
1081.487888169424
 31
0.0
  0
LINE
  5
1017
330
A
100
AcDbEntity
  8
MODEL
  6
Continuous
100
AcDbLine
 10
799.8754961120999
 20
1021.487885785238
 30
0.0
 11
807.875484384886
 21
1021.487885785238
 31
0.0
  0
SPLINE
  5
1018
330
A
100
AcDbEntity
  8
MODEL
  6
Continuous
100
AcDbSpline
210
0.0
220
0.0
230
1.0
 70
     8
 71
     3
 72
    13
 73
     9
 74
     0
 42
0.000000001
 43
0.00000001
 40
0.0
 40
0.0
 40
0.0
 40
0.0
 40
0.033349145845082
 40
0.1293503716447837
 40
0.305937279115942
 40
0.5260433538767995
 40
0.765854843107306
 40
1.0
 40
1.0
 40
1.0
 40
1.0
 10
808.856202446214
 20
1080.681541633741
 30
0.0
 10
808.854687639769
 20
1080.690006624147
 30
0.0
 10
808.848812203632
 20
1080.722839538668
 30
0.0
 10
808.8140893717841
 20
1080.848624097632
 30
0.0
 10
808.7168300090248
 20
1081.052009931384
 30
0.0
 10
808.5184224755744
 20
1081.274689692478
 30
0.0
 10
808.235573283167
 20
1081.447221961934
 30
0.0
 10
808.0146558271094
 20
1081.470371906554
 30
0.0
 10
807.9055176752722
 20
1081.481808495657
 30
0.0
  0
SPLINE
  5
1019
330
A
100
AcDbEntity
  8
MODEL
  6
Continuous
100
AcDbSpline
210
0.0
220
0.0
230
1.0
 70
     8
 71
     3
 72
    14
 73
    10
 74
     0
 42
0.000000001
 43
0.00000001
 40
0.0
 40
0.0
 40
0.0
 40
0.0
 40
0.2506583667635101
 40
0.4466262579514945
 40
0.6102237002844018
 40
0.7483450975022601
 40
0.8591464835335297
 40
0.9363470482956378
 40
1.0
 40
1.0
 40
1.0
 40
1.0
 10
807.875484384886
 20
1021.487885785238
 30
0.0
 10
808.0013721213286
 20
1021.50156050657
 30
0.0
 10
808.2256804872336
 20
1021.525926298529
 30
0.0
 10
808.4927358398004
 20
1021.686613512348
 30
0.0
 10
808.6680037068531
 20
1021.863951181442
 30
0.0
 10
808.7754491720375
 20
1022.038971454673
 30
0.0
 10
808.8315791161845
 20
1022.185414402251
 30
0.0
 10
808.8558038833312
 20
1022.285359420973
 30
0.0
 10
808.8615614818241
 20
1022.320335732014
 30
0.0
 10
808.8641633915818
 20
1022.336141836778
 30
0.0
  0
LINE
  5
101A
330
A
100
AcDbEntity
  8
MODEL
  6
Continuous
100
AcDbLine
 10
799.3128599303877
 20
937.3419095547358
 30
0.0
 11
799.3026805746472
 21
937.3317301989953
 31
0.0
  0
LINE
  5
101B
330
A
100
AcDbEntity
  8
MODEL
  6
Continuous
100
AcDbLine
 10
799.3026805746472
 20
880.3318084002892
 30
0.0
 11
799.3128599303877
 21
880.3216290445487
 31
0.0
  0
LINE
  5
101C
330
A
100
AcDbEntity
  8
MODEL
  6
Continuous
100
AcDbLine
 10
799.8855972367442
 20
1079.998025369779
 30
0.0
 11
799.8754178810036
 21
1079.987847876684
 31
0.0
  0
LINE
  5
101D
330
A
100
AcDbEntity
  8
MODEL
  6
Continuous
100
AcDbLine
 10
799.8754178810036
 20
1022.987926077978
 30
0.0
 11
799.8855972367442
 21
1022.977741134302
 31
0.0
  0
LINE
  5
101E
330
A
100
AcDbEntity
  8
MODEL
  6
Continuous
100
AcDbLine
 10
808.3485925275004
 20
899.8317696870724
 30
0.0
 11
855.3193678784287
 21
899.8317696870724
 31
0.0
  0
LINE
  5
101F
330
A
100
AcDbEntity
  8
MODEL
  6
Continuous
100
AcDbLine
 10
851.6508361029532
 20
917.831768912212
 30
0.0
 11
808.3485925275004
 21
917.831768912212
 31
0.0
  0
LINE
  5
1020
330
A
100
AcDbEntity
  8
MODEL
  6
Continuous
100
AcDbLine
 10
808.9213279712117
 20
1042.487883639471
 30
0.0
 11
853.7019287872222
 21
1042.487883639471
 31
0.0
  0
LINE
  5
1021
330
A
100
AcDbEntity
  8
MODEL
  6
Continuous
100
AcDbLine
 10
851.8903573679831
 20
1060.487890315191
 30
0.0
 11
808.9213279712117
 21
1060.487890315191
 31
0.0
  0
LINE
  5
1022
330
A
100
AcDbEntity
  8
MODEL
  6
Continuous
100
AcDbLine
 10
851.8604209351447
 20
1042.487883639471
 30
0.0
 11
851.6637628602889
 21
924.2286194832484
 31
0.0
  0
LINE
  5
1023
330
A
100
AcDbEntity
  8
MODEL
  6
Continuous
100
AcDbLine
 10
851.8871834206498
 20
1058.578902554647
 30
0.0
 11
851.8855219411757
 21
1057.578855824606
 31
0.0
  0
LINE
  5
1024
330
A
100
AcDbEntity
  8
MODEL
  6
Continuous
100
AcDbLine
 10
875.6637295412925
 20
924.1887076543132
 30
0.0
 11
875.8871501016524
 21
1058.53899724497
 31
0.0
  0
SPLINE
  5
1025
330
A
100
AcDbEntity
  8
MODEL
  6
Continuous
100
AcDbSpline
210
0.0
220
0.0
230
1.0
 70
     8
 71
     3
 72
    18
 73
    14
 74
     0
 42
0.000000001
 43
0.00000001
 40
0.0
 40
0.0
 40
0.0
 40
0.0
 40
0.057264183291656
 40
0.1660730330518183
 40
0.2748672119360453
 40
0.3836027675864254
 40
0.4922421438563712
 40
0.6007118837261705
 40
0.7088515381198218
 40
0.816253688936643
 40
0.9093434199694315
 40
0.9778953624192077
 40
1.0
 40
1.0
 40
1.0
 40
1.0
 10
851.6637628602889
 20
924.2286194832484
 30
0.0
 10
851.6629122770278
 20
923.730647712883
 30
0.0
 10
851.6604454830544
 20
922.2864695630303
 30
0.0
 10
851.6561023750642
 20
920.0720547863173
 30
0.0
 10
851.6506422798589
 20
917.6805471392533
 30
0.0
 10
851.6448789117226
 20
915.5562808401808
 30
0.0
 10
851.6388886777881
 20
913.7094966650891
 30
0.0
 10
851.632685392306
 20
912.153133903467
 30
0.0
 10
851.6264164658692
 20
910.9017278543131
 30
0.0
 10
851.6202104506006
 20
909.9964540218859
 30
0.0
 10
851.615432229722
 20
909.4823558864916
 30
0.0
 10
851.6115641510801
 20
909.2487635946579
 30
0.0
 10
851.6118216757873
 20
909.25922953038
 30
0.0
 10
851.6118844675934
 20
909.2617814214389
 30
0.0
  0
SPLINE
  5
1026
330
A
100
AcDbEntity
  8
MODEL
  6
Continuous
100
AcDbSpline
210
0.0
220
0.0
230
1.0
 70
     8
 71
     3
 72
    25
 73
    21
 74
     0
 42
0.000000001
 43
0.00000001
 40
0.0
 40
0.0
 40
0.0
 40
0.0
 40
0.0066407184771898
 40
0.0294225332520239
 40
0.0468986988291866
 40
0.0595908385098472
 40
0.0704074108983817
 40
0.0818395157817322
 40
0.0994290664231902
 40
0.1259655670566374
 40
0.1736466260915066
 40
0.2708772026440243
 40
0.3629469942637539
 40
0.4603177997372528
 40
0.5559676214803542
 40
0.6510246885528487
 40
0.745826639205527
 40
0.8404992512039969
 40
0.9350988606515331
 40
1.0
 40
1.0
 40
1.0
 40
1.0
 10
875.0680779743102
 20
905.3258708929131
 30
0.0
 10
875.0988964008379
 20
905.416011457867
 30
0.0
 10
875.2354412916316
 20
905.8153904977733
 30
0.0
 10
875.3749589444919
 20
906.4715628783849
 30
0.0
 10
875.4974008435206
 20
907.2033206499616
 30
0.0
 10
875.5536100432496
 20
907.7241403487003
 30
0.0
 10
875.57910557273
 20
908.0586729342065
 30
0.0
 10
875.5925577719095
 20
908.3038926106199
 30
0.0
 10
875.6003408382117
 20
908.5052480883703
 30
0.0
 10
875.6059937517389
 20
908.7148992519612
 30
0.0
 10
875.6116918545645
 20
909.0329145663525
 30
0.0
 10
875.6177006457497
 20
909.5785228112125
 30
0.0
 10
875.6245985816427
 20
910.525983534945
 30
0.0
 10
875.6311826144342
 20
911.7624728281132
 30
0.0
 10
875.6376189048019
 20
913.3155616959918
 30
0.0
 10
875.6437642472306
 20
915.1452516154238
 30
0.0
 10
875.6496194871393
 20
917.2460144476825
 30
0.0
 10
875.6551735897542
 20
919.6121441991124
 30
0.0
 10
875.6598699000538
 20
921.9422406911879
 30
0.0
 10
875.6626132622991
 20
923.5389882307325
 30
0.0
 10
875.6637295412925
 20
924.1887076543132
 30
0.0
  0
LINE
  5
1027
330
A
100
AcDbEntity
  8
MODEL
  6
Continuous
100
AcDbLine
 10
863.2860427427199
 20
896.8317691953341
 30
0.0
 11
863.6020069646743
 21
896.8317691953341
 31
0.0
  0
ARC
  5
1028
330
A
100
AcDbEntity
  8
MODEL
  6
Continuous
100
AcDbCircle
 10
863.2860385651861
 20
908.8317353558793
 30
0.0
 40
11.99996616054522
100
AcDbArc
 50
227.1601962001646
 51
270.0000199463153
  0
ARC
  5
1029
330
A
100
AcDbEntity
  8
MODEL
  6
Continuous
100
AcDbCircle
 10
863.2811638036742
 20
908.8320306597996
 30
0.0
 40
12.00026146499717
100
AcDbArc
 50
227.2432072431698
 51
269.9994607154487
  0
ARC
  5
102A
330
A
100
AcDbEntity
  8
MODEL
  6
Continuous
100
AcDbCircle
 10
858.2271355667895
 20
1058.599617220261
 30
0.0
 40
6.339985986792205
100
AcDbArc
 50
180.1872030991657
 51
211.0890052551146
  0
LWPOLYLINE
  5
102B
330
A
100
AcDbEntity
  8
MODEL
  6
Continuous
100
AcDbPolyline
 90
       17
 70
   128
 43
0.0
 10
875.8871501016524
 20
1058.53899724497
 10
875.7835274267104
 20
1057.436311316625
 10
875.3295262980369
 20
1055.9928656341
 10
874.5278661775496
 20
1054.62738282694
 10
873.4028806614783
 20
1053.381377530233
 10
871.9887753653443
 20
1052.292668891088
 10
870.3285028862861
 20
1051.394367289678
 10
868.4725111055291
 20
1050.713756752149
 10
866.4772009181884
 20
1050.271520090238
 10
864.4031902480042
 20
1050.081098151342
 10
862.3135035562423
 20
1050.148257684843
 10
860.2716272401717
 20
1050.470987033979
 10
858.3396097350037
 20
1051.039451432363
 10
856.5761541652587
 20
1051.836410236494
 10
855.0348376560119
 20
1052.837604355947
 10
853.7624945568955
 20
1054.01266522421
 10
852.7977859306243
 20
1055.325844955579
  0
LWPOLYLINE
  5
102C
330
A
100
AcDbEntity
  8
MODEL
  6
Continuous
100
AcDbPolyline
 90
       37
 70
   128
 43
0.0
 10
852.8013100552466
 20
1057.447159361974
 10
852.1735464858925
 20
1058.858582449094
 10
851.90180145978
 20
1060.32536335005
 10
851.9943376707938
 20
1061.802917790548
 10
852.4483313488868
 20
1063.246363473074
 10
853.2499989199546
 20
1064.611831379072
 10
854.3749769854453
 20
1065.85785157694
 10
855.7890897321618
 20
1066.946545314924
 10
857.4493622112182
 20
1067.844846916334
 10
859.3053465413955
 20
1068.525457453863
 10
861.3006641793158
 20
1068.967694115774
 10
863.3746748495018
 20
1069.158130955831
 10
865.464361541262
 20
1069.090956521169
 10
867.5062378573325
 20
1068.768242073194
 10
869.4382553625023
 20
1068.199762773649
 10
871.2017109322455
 20
1067.40281887068
 10
872.7430274414924
 20
1066.401609850065
 10
874.0153705406105
 20
1065.226563882963
 10
874.9800791668799
 20
1063.913384151594
 10
875.6078427362349
 20
1062.501961064474
 10
875.8795877623465
 20
1061.035180163519
 10
875.7870515513328
 20
1059.55762572302
 10
875.3330578732398
 20
1058.114180040495
 10
874.531390302172
 20
1056.748712134496
 10
873.4064122366813
 20
1055.502691936628
 10
871.9922994899657
 20
1054.413998198644
 10
870.3320270109093
 20
1053.515696597234
 10
868.4760426807311
 20
1052.835086059705
 10
866.4807250428107
 20
1052.392849397794
 10
864.4067143726256
 20
1052.202412557737
 10
862.3170276808655
 20
1052.269586992399
 10
860.275151364794
 20
1052.592301440374
 10
858.3431338596251
 20
1053.160780739919
 10
856.579678289881
 20
1053.957724642889
 10
855.0383617806342
 20
1054.958933663503
 10
853.7660186815169
 20
1056.133979630605
 10
852.8013100552466
 20
1057.447159361974
  0
ARC
  5
102D
330
A
100
AcDbEntity
  8
MODEL
  6
Continuous
100
AcDbCircle
 10
-1631.680575545767
 20
908.8520722177179
 30
0.0
 40
2430.841604367195
100
AcDbArc
 50
359.97064409166
 51
0.0826649298698836
  0
ARC
  5
102E
330
A
100
AcDbEntity
  8
MODEL
  6
Continuous
100
AcDbCircle
 10
1739.692525950046
 20
910.2904868411513
 30
0.0
 40
940.5477447271654
100
AcDbArc
 50
179.799343666728
 51
180.0142279540346
  0
LWPOLYLINE
  5
102F
330
A
100
AcDbEntity
  8
MODEL
  6
Continuous
100
AcDbPolyline
 90
        9
 70
   128
 43
0.0
 10
799.1584988015807
 20
912.3592289881269
 10
799.1576848256504
 20
912.7795320720832
 10
799.1567851680434
 20
913.1322877266864
 10
799.1558165925658
 20
913.4114600503306
 10
799.1547977256691
 20
913.612273220853
 10
799.1537416058695
 20
913.7312901922921
 10
799.1526705849087
 20
913.7664750934998
 10
799.1515995639479
 20
913.7172258244316
 10
799.1505490320837
 20
913.5843852320174
  0
ARC
  5
1030
330
A
100
AcDbEntity
  8
MODEL
  6
Continuous
100
AcDbCircle
 10
-142.7860725878231
 20
907.37532789396
 30
0.0
 40
941.9468107439901
100
AcDbArc
 50
359.7995032498666
 51
0.0140683708958537
  0
LWPOLYLINE
  5
1031
330
A
100
AcDbEntity
  8
MODEL
  6
Continuous
100
AcDbPolyline
 90
        9
 70
   128
 43
0.0
 10
799.147019319526
 20
905.3043096111576
 10
799.1478351581013
 20
904.8840065272013
 10
799.1487348157084
 20
904.5312508725981
 10
799.1497015285408
 20
904.2520785489539
 10
799.1507222580826
 20
904.0512653784315
 10
799.1517765152371
 20
903.9322484069924
 10
799.152849398843
 20
903.8970635057847
 10
799.1539204198039
 20
903.9463127748529
 10
799.154970951668
 20
904.079153367267
  0
ARC
  5
1032
330
A
100
AcDbEntity
  8
MODEL
  6
Continuous
100
AcDbCircle
 10
3230.870762591717
 20
908.8109248955495
 30
0.0
 40
2431.726271590713
100
AcDbArc
 50
179.9706420130308
 51
180.0826220977881
  0
LINE
  5
1033
330
A
100
AcDbEntity
  8
MODEL
  6
Continuous
100
AcDbLine
 10
799.2622052955544
 20
903.7079342426221
 30
0.0
 11
799.154970951668
 21
904.079153367267
 31
0.0
  0
LWPOLYLINE
  5
1034
330
A
100
AcDbEntity
  8
MODEL
  6
Continuous
100
AcDbPolyline
 90
        9
 70
   128
 43
0.0
 10
799.7322363483822
 20
1048.671925139562
 10
799.7327895539916
 20
1049.224996638433
 10
799.7332179623759
 20
1049.816796255247
 10
799.7335159855998
 20
1050.437191200391
 10
799.7336743104374
 20
1051.075556945936
 10
799.7336947995341
 20
1051.720970940725
 10
799.7335737275994
 20
1052.362406325475
 10
799.7333148199236
 20
1052.988880944387
 10
799.7329218017971
 20
1053.589665961401
  0
LWPOLYLINE
  5
1035
330
A
100
AcDbEntity
  8
MODEL
  6
Continuous
100
AcDbPolyline
 90
        9
 70
   128
 43
0.0
 10
799.7261827516472
 20
1056.405627799169
 10
799.7251080053961
 20
1056.41736991419
 10
799.7240425723708
 20
1056.344771456854
 10
799.7229994910872
 20
1056.1890841247
 10
799.7220011132872
 20
1055.952945423261
 10
799.721062340132
 20
1055.640408468382
 10
799.7201980727828
 20
1055.256807875768
 10
799.7194250750458
 20
1054.808744859831
 10
799.7187563854372
 20
1054.303848815099
  0
ARC
  5
1036
330
A
100
AcDbEntity
  8
MODEL
  6
Continuous
100
AcDbCircle
 10
355.2614798626842
 20
1053.933963207494
 30
0.0
 40
444.4715752891602
100
AcDbArc
 50
359.955617451895
 51
0.3186180787238105
  0
LWPOLYLINE
  5
1037
330
A
100
AcDbEntity
  8
MODEL
  6
Continuous
100
AcDbPolyline
 90
        9
 70
   128
 43
0.0
 10
799.7248099821722
 20
1046.570146155492
 10
799.7258847284234
 20
1046.558389139311
 10
799.7269501614487
 20
1046.630987596647
 10
799.7279932427323
 20
1046.786689829961
 10
799.7289916205323
 20
1047.0228285314
 10
799.7299303936875
 20
1047.33536548628
 10
799.7307946610367
 20
1047.718951177732
 10
799.7315676587737
 20
1048.167029094831
 10
799.7322363483822
 20
1048.671925139562
  0
ARC
  5
1038
330
A
100
AcDbEntity
  8
MODEL
  6
Continuous
100
AcDbCircle
 10
1244.576598775099
 20
1049.042735289092
 30
0.0
 40
444.8586603510041
100
AcDbArc
 50
179.9557770665563
 51
180.3184599152302
  0
LWPOLYLINE
  5
1039
330
A
100
AcDbEntity
  8
MODEL
  6
Continuous
100
AcDbPolyline
 90
        9
 70
   128
 43
0.0
 10
799.7187563854372
 20
1054.303848815099
 10
799.7182031798279
 20
1053.750762415067
 10
799.7177747714436
 20
1053.158962798254
 10
799.7174786108649
 20
1052.53858275427
 10
799.717318423382
 20
1051.900217008726
 10
799.7172979342854
 20
1051.254788112775
 10
799.7174190062201
 20
1050.613352728025
 10
799.7176779138958
 20
1049.986893010275
 10
799.7180709320223
 20
1049.3860930921
  0
LINE
  5
103A
330
A
100
AcDbEntity
  8
MODEL
  6
Continuous
100
AcDbLine
 10
799.7248099821722
 20
1046.570146155492
 30
0.0
 11
799.7614519375479
 21
1046.537840438024
 31
0.0
  0
LINE
  5
103B
330
A
100
AcDbEntity
  8
MODEL
  6
Continuous
100
AcDbLine
 10
799.7261827516472
 20
1056.405627799169
 30
0.0
 11
799.7599506455576
 21
1056.441912126676
 31
0.0
  0
LWPOLYLINE
  5
103C
330
A
100
AcDbEntity
  8
MODEL
  6
Continuous
100
AcDbPolyline
 90
       14
 70
   128
 43
0.0
 10
799.3027588057435
 20
878.8317699701945
 10
799.2973645853913
 20
879.007629749314
 10
799.2920336949742
 20
879.5331527264277
 10
799.2868294644272
 20
880.4021735460917
 10
799.2818114983952
 20
881.60450726463
 10
799.2770394015229
 20
883.1260536582629
 10
799.2725671905196
 20
884.9489778996865
 10
799.2684507447398
 20
887.0519042731682
 10
799.264734767667
 20
889.4101806701581
 10
799.2614658254302
 20
891.9961579860608
 10
799.258681170932
 20
894.7795160831372
 10
799.2564124691403
 20
897.7276242123405
 10
799.2546876597321
 20
900.8059191302816
 10
799.2537172216093
 20
903.3263150387863
  0
LWPOLYLINE
  5
103D
330
A
100
AcDbEntity
  8
MODEL
  6
Continuous
100
AcDbPolyline
 90
       44
 70
   128
 43
0.0
 10
799.253737710706
 20
914.4015313842754
 10
799.2546876597321
 20
916.8576194690029
 10
799.2564124691403
 20
919.935914386944
 10
799.258681170932
 20
922.8840225161473
 10
799.2614658254302
 20
925.6673806132237
 10
799.264734767667
 20
928.2533579291264
 10
799.2684507447398
 20
930.6116343261162
 10
799.2725671905196
 20
932.714560699598
 10
799.2770394015229
 20
934.5374849410216
 10
799.2818114983952
 20
936.0590313346545
 10
799.2868294644272
 20
937.2613650531928
 10
799.2920336949742
 20
938.1303858728568
 10
799.2973645853913
 20
938.6559088499705
 10
799.3027588057435
 20
938.83176862909
 10
799.3081530260956
 20
938.6559088499705
 10
799.3134839165127
 20
938.1303858728568
 10
799.3186900097048
 20
937.2613650531928
 10
799.3237079757369
 20
936.0590313346545
 10
799.3284800726092
 20
934.5374849410216
 10
799.3329504209673
 20
932.714560699598
 10
799.3370687293923
 20
930.6116343261162
 10
799.3407828438199
 20
928.2533579291264
 10
799.3440517860568
 20
925.6673806132237
 10
799.3468383032
 20
922.8840225161473
 10
799.3491051423466
 20
919.935914386944
 10
799.3508299517548
 20
916.8576194690029
 10
799.3519922423279
 20
913.6852293060581
 10
799.3525752502596
 20
910.4559366143728
 10
799.3525752502596
 20
907.2076019849117
 10
799.3519922423279
 20
903.9783092932264
 10
799.3508299517548
 20
900.8059191302816
 10
799.3491051423466
 20
897.7276242123405
 10
799.3468383032
 20
894.7795160831372
 10
799.3440517860568
 20
891.9961579860608
 10
799.3407828438199
 20
889.4101806701581
 10
799.3370687293923
 20
887.0519042731682
 10
799.3329504209673
 20
884.9489778996865
 10
799.3284800726092
 20
883.1260536582629
 10
799.3237079757369
 20
881.60450726463
 10
799.3186900097048
 20
880.4021735460917
 10
799.3134839165127
 20
879.5331527264277
 10
799.3081530260956
 20
879.007629749314
 10
799.3027588057435
 20
878.8317699701945
 10
799.3027588057435
 20
878.8317699701945
  0
LWPOLYLINE
  5
103E
330
A
100
AcDbEntity
  8
MODEL
  6
Continuous
100
AcDbPolyline
 90
       43
 70
   128
 43
0.0
 10
799.3027588057435
 20
937.9817691416899
 10
799.3080915588057
 20
937.8048476548354
 10
799.3133609819329
 20
937.2762345494191
 10
799.3185000198996
 20
936.4023410500447
 10
799.323447205416
 20
935.1937805087725
 10
799.3281447964823
 20
933.6652193935076
 10
799.3325331884539
 20
931.8352152378718
 10
799.3365620899117
 20
929.7259800852696
 10
799.3401793467915
 20
927.3631159932772
 10
799.3433421182549
 20
924.7753076971928
 10
799.3460131513989
 20
921.993966844813
 10
799.3481570559657
 20
919.0528538794676
 10
799.3497514802134
 20
915.9876710520546
 10
799.3507759350455
 20
912.8356256307522
 10
799.3512173819458
 20
909.634978384194
 10
799.351070232979
 20
906.4245814708481
 10
799.3503363507903
 20
903.2434045122425
 10
799.3490250486052
 20
900.130062994496
 10
799.3471530902302
 20
897.1223474265496
 10
799.344740964762
 20
894.2567693786184
 10
799.341820337168
 20
891.5681109548966
 10
799.3384247350609
 20
889.0890122176568
 10
799.3345969992793
 20
886.849561405317
 10
799.3303818333065
 20
884.8769456864754
 10
799.325831391207
 20
883.1951093645255
 10
799.321001552335
 20
881.8244670303027
 10
799.3159500586903
 20
880.7816576929251
 10
799.3107383775628
 20
880.0793380261819
 10
799.3054298388874
 20
879.7260333569209
 10
799.3000896352446
 20
879.7260333569209
 10
799.2947810965693
 20
880.0793380261819
 10
799.2895694154417
 20
880.7816576929251
 10
799.284517921797
 20
881.8244670303027
 10
799.2796880829251
 20
883.1951093645255
 10
799.2751376408255
 20
884.8769456864754
 10
799.2709224748528
 20
886.849561405317
 10
799.2670947390711
 20
889.0890122176568
 10
799.2636991369641
 20
891.5681109548966
 10
799.2607785093701
 20
894.2567693786184
 10
799.2583663839018
 20
897.1223474265496
 10
799.2564944255269
 20
900.130062994496
 10
799.2551831233418
 20
903.2434045122425
 10
799.2551551836646
 20
903.3276323945681
  0
LWPOLYLINE
  5
103F
330
A
100
AcDbEntity
  8
MODEL
  6
Continuous
100
AcDbPolyline
 90
       14
 70
   128
 43
0.0
 10
799.255173810116
 20
914.3964295992116
 10
799.2557661312735
 20
915.9876710520546
 10
799.2573605555212
 20
919.0528538794676
 10
799.2595063227332
 20
921.993966844813
 10
799.2621773558772
 20
924.7753076971928
 10
799.2653401273406
 20
927.3631159932772
 10
799.2689573842204
 20
929.7259800852696
 10
799.272984423033
 20
931.8352152378718
 10
799.2773728150046
 20
933.6652193935076
 10
799.2820704060709
 20
935.1937805087725
 10
799.2870194542324
 20
936.4023410500447
 10
799.2921584921992
 20
937.2762345494191
 10
799.2974260526812
 20
937.8048476548354
 10
799.3027588057435
 20
937.9817691416899
  0
LWPOLYLINE
  5
1040
330
A
100
AcDbEntity
  8
MODEL
  6
Continuous
100
AcDbPolyline
 90
       30
 70
   128
 43
0.0
 10
808.3031477111494
 20
937.8307682247321
 10
808.3054033744252
 20
937.7877336712043
 10
808.3106839734232
 20
937.4362469436089
 10
808.3158695775187
 20
936.7375408084552
 10
808.3208949941313
 20
935.7000977517525
 10
808.3257006186163
 20
934.3365073920647
 10
808.330226846329
 20
932.6633267821232
 10
808.3344196605599
 20
930.7008606166999
 10
808.3382287698901
 20
928.4729339898984
 10
808.3416057455456
 20
926.0065925092856
 10
808.3445133346236
 20
923.3317688824097
 10
808.3469124215758
 20
920.4809364648024
 10
808.348775066725
 20
917.4886985467235
 10
808.3500789183295
 20
914.3913776399056
 10
808.350809075228
 20
911.2265703053633
 10
808.3509543615496
 20
908.032693366469
 10
808.3505166399395
 20
904.8485161521892
 10
808.3494977730429
 20
901.7126901791851
 10
808.3479107993758
 20
898.6632802308957
 10
808.3457780706799
 20
895.7373021887104
 10
808.343120076052
 20
892.9702729703347
 10
808.3399740683949
 20
890.3957807244221
 10
808.3363754379666
 20
888.0450759799639
 10
808.3323688882506
 20
885.9466944606463
 10
808.3280009853756
 20
884.1261059762398
 10
808.3233294713414
 20
882.6054108114402
 10
808.318406500212
 20
881.4030696423213
 10
808.3132935392773
 20
880.5336744309823
 10
808.3080520558274
 20
880.0077789248387
 10
808.3027472424424
 20
879.8317701341073
  0
LWPOLYLINE
  5
1041
330
A
100
AcDbEntity
  8
MODEL
  6
Continuous
100
AcDbPolyline
 90
       14
 70
   128
 43
0.0
 10
799.8754961120999
 20
1021.487885785238
 10
799.8701018917477
 20
1021.663741839067
 10
799.8647710013306
 20
1022.189268541471
 10
799.8595667707837
 20
1023.058289361135
 10
799.8545488047516
 20
1024.260619354383
 10
799.8497748452342
 20
1025.782169473306
 10
799.845304496876
 20
1027.605095577375
 10
799.8411880510962
 20
1029.708021950857
 10
799.8374720740235
 20
1032.066294622556
 10
799.8342031317866
 20
1034.652271938459
 10
799.8314184772885
 20
1037.435630035535
 10
799.8291497754967
 20
1040.383735370771
 10
799.8274249660885
 20
1043.462032151357
 10
799.826283164612
 20
1046.562844586507
  0
LWPOLYLINE
  5
1042
330
A
100
AcDbEntity
  8
MODEL
  6
Continuous
100
AcDbPolyline
 90
       44
 70
   128
 43
0.0
 10
799.8259907293236
 20
1055.206337642805
 10
799.8262645381606
 20
1056.341344189779
 10
799.8274249660885
 20
1059.513726902143
 10
799.8291497754967
 20
1062.592023682729
 10
799.8314184772885
 20
1065.540143919126
 10
799.8342031317866
 20
1068.323502016203
 10
799.8374720740235
 20
1070.909479332105
 10
799.8411880510962
 20
1073.267752003805
 10
799.845304496876
 20
1075.370678377287
 10
799.8497748452342
 20
1077.193597030775
 10
799.8545488047516
 20
1078.715139699117
 10
799.8595667707837
 20
1079.917484593527
 10
799.8647710013306
 20
1080.786505413191
 10
799.8701018917477
 20
1081.312024665014
 10
799.8754961120999
 20
1081.487888169424
 10
799.880890332452
 20
1081.312024665014
 10
799.8862212228692
 20
1080.786505413191
 10
799.8914254534161
 20
1079.917484593527
 10
799.8964452820933
 20
1078.715139699117
 10
799.9012173789656
 20
1077.193597030775
 10
799.9056877273238
 20
1075.370678377287
 10
799.9098060357487
 20
1073.267752003805
 10
799.9135201501763
 20
1070.909479332105
 10
799.9167890924132
 20
1068.323502016203
 10
799.9195737469113
 20
1065.540143919126
 10
799.921842448703
 20
1062.592023682729
 10
799.9235672581112
 20
1059.513726902143
 10
799.9247295486844
 20
1056.341344189779
 10
799.9253125566161
 20
1053.112053942815
 10
799.9253125566161
 20
1049.863720011846
 10
799.9247295486844
 20
1046.634429764883
 10
799.9235672581112
 20
1043.462032151357
 10
799.921842448703
 20
1040.383735370771
 10
799.9195737469113
 20
1037.435630035535
 10
799.9167890924132
 20
1034.652271938459
 10
799.9135201501763
 20
1032.066294622556
 10
799.9098060357487
 20
1029.708021950857
 10
799.9056877273238
 20
1027.605095577375
 10
799.9012173789656
 20
1025.782169473306
 10
799.8964452820933
 20
1024.260619354383
 10
799.8914254534161
 20
1023.058289361135
 10
799.8862212228692
 20
1022.189268541471
 10
799.880890332452
 20
1021.663741839067
 10
799.8754961120999
 20
1021.487885785238
  0
LWPOLYLINE
  5
1043
330
A
100
AcDbEntity
  8
MODEL
  6
Continuous
100
AcDbPolyline
 90
       43
 70
   128
 43
0.0
 10
799.8754961120999
 20
1080.637881231443
 10
799.8808288651621
 20
1080.460959744589
 10
799.8860964256442
 20
1079.932341051237
 10
799.891237326256
 20
1079.058462453024
 10
799.8961845117724
 20
1077.849888873235
 10
799.9008821028388
 20
1076.32132775797
 10
799.9052704948103
 20
1074.491331052915
 10
799.9092993962681
 20
1072.382101488249
 10
799.9129166531479
 20
1070.01922435774
 10
799.9160794246113
 20
1067.431429100172
 10
799.9187485951102
 20
1064.650082659856
 10
799.9208943623221
 20
1061.708965969221
 10
799.9224887865698
 20
1058.643782210485
 10
799.9235132414019
 20
1055.491739583151
 10
799.9239546883023
 20
1052.291089368002
 10
799.9238075393355
 20
1049.080693793432
 10
799.9230736571467
 20
1045.899519395963
 10
799.9217623549616
 20
1042.786175084249
 10
799.9198885339415
 20
1039.778465104238
 10
799.9174782711184
 20
1036.912882399694
 10
799.9145557808793
 20
1034.224221182005
 10
799.9111620414174
 20
1031.745122444765
 10
799.9073324429905
 20
1029.505679083006
 10
799.903119139663
 20
1027.533063364164
 10
799.8985686975634
 20
1025.851221454279
 10
799.8937388586914
 20
1024.480582845346
 10
799.8886873650467
 20
1023.437769782678
 10
799.8834756839192
 20
1022.73544825329
 10
799.8781671452439
 20
1022.382149171964
 10
799.8728250789559
 20
1022.382149171964
 10
799.8675165402806
 20
1022.73544825329
 10
799.862304859153
 20
1023.437769782678
 10
799.8572533655083
 20
1024.480582845346
 10
799.8524235266364
 20
1025.851221454279
 10
799.8478749471819
 20
1027.533063364164
 10
799.8436597812092
 20
1029.505679083006
 10
799.8398320454276
 20
1031.745122444765
 10
799.8364364433205
 20
1034.224221182005
 10
799.8335139530814
 20
1036.912882399694
 10
799.8311036902583
 20
1039.778465104238
 10
799.8292298692381
 20
1042.786175084249
 10
799.8279185670531
 20
1045.899519395963
 10
799.8277490663445
 20
1046.449565959112
  0
LWPOLYLINE
  5
1044
330
A
100
AcDbEntity
  8
MODEL
  6
Continuous
100
AcDbPolyline
 90
       15
 70
   128
 43
0.0
 10
799.8274193781531
 20
1055.220180821554
 10
799.8274789827979
 20
1055.491739583151
 10
799.8285034376299
 20
1058.643782210485
 10
799.8300978618777
 20
1061.708965969221
 10
799.8322436290896
 20
1064.650082659856
 10
799.8349127995884
 20
1067.431429100172
 10
799.838077433697
 20
1070.01922435774
 10
799.8416946905768
 20
1072.382101488249
 10
799.8457217293894
 20
1074.491331052915
 10
799.850110121361
 20
1076.32132775797
 10
799.8548077124274
 20
1077.849888873235
 10
799.8597567605889
 20
1079.058462453024
 10
799.8648957985556
 20
1079.932341051237
 10
799.8701633590376
 20
1080.460959744589
 10
799.8754961120999
 20
1080.637881231443
  0
LWPOLYLINE
  5
1045
330
A
100
AcDbEntity
  8
MODEL
  6
Continuous
100
AcDbPolyline
 90
       30
 70
   128
 43
0.0
 10
808.8758831548607
 20
1080.486887765066
 10
808.8781406807816
 20
1080.443853211538
 10
808.8834231424248
 20
1080.092364621298
 10
808.88860502123
 20
1079.393649172918
 10
808.8936304378426
 20
1078.356215429441
 10
808.8984360623276
 20
1076.992625069753
 10
808.9029622900403
 20
1075.319433283941
 10
808.9071569669163
 20
1073.356980157034
 10
808.9109642136013
 20
1071.129047942297
 10
808.914343051902
 20
1068.662712049619
 10
808.9172487783349
 20
1065.987879109518
 10
808.9196478652871
 20
1063.137048554556
 10
808.9215105104363
 20
1060.144805979864
 10
808.9228143620408
 20
1057.047495317594
 10
808.9235445189393
 20
1053.882682395116
 10
808.9236935305512
 20
1050.688812208311
 10
808.923253946296
 20
1047.504627776281
 10
808.9222332167542
 20
1044.368797612325
 10
808.9206499683773
 20
1041.319394183294
 10
808.9185153770363
 20
1038.393417072431
 10
808.9158592450535
 20
1035.626390648023
 10
808.9127113747513
 20
1033.05189467682
 10
808.909112744323
 20
1030.701191795007
 10
808.9051043319619
 20
1028.60281027569
 10
808.9007382917321
 20
1026.782223653928
 10
808.8960667776978
 20
1025.261522901193
 10
808.8911419439232
 20
1024.059185457365
 10
808.8860308456337
 20
1023.189792108671
 10
808.8807893621838
 20
1022.663892877237
 10
808.8754845487988
 20
1022.487880361215
  0
LWPOLYLINE
  5
1046
330
A
100
AcDbEntity
  8
MODEL
  6
Continuous
100
AcDbPolyline
 90
       42
 70
   128
 43
0.0
 10
799.3027588057435
 20
880.3317692847411
 10
799.3080654817736
 20
880.5109706492583
 10
799.3133051025784
 20
881.0463246674697
 10
799.3184124755776
 20
881.9310941518704
 10
799.323322408191
 20
883.1541572482745
 10
799.3279752957737
 20
884.7001303703944
 10
799.332309671036
 20
886.5495712281624
 10
799.3362733799136
 20
888.6792265595357
 10
799.3398142683423
 20
891.062309664623
 10
799.3428894954836
 20
893.668855239586
 10
799.3454618084347
 20
896.4660825924436
 10
799.3474939542925
 20
899.4188156695525
 10
799.3489654439604
 20
902.4899226398627
 10
799.3498557883418
 20
905.6407817890356
 10
799.3501538115656
 20
908.8317692996422
 10
799.3498557883418
 20
912.0227568102489
 10
799.3489654439604
 20
915.1736159594218
 10
799.3474939542925
 20
918.244722929732
 10
799.3454618084347
 20
921.1974560068409
 10
799.3428894954836
 20
923.9946833596985
 10
799.3398142683423
 20
926.6012289346615
 10
799.3362733799136
 20
928.9843120397488
 10
799.332309671036
 20
931.113967371122
 10
799.3279752957737
 20
932.9634082288901
 10
799.323322408191
 20
934.50938135101
 10
799.3184124755776
 20
935.7324444474141
 10
799.3133051025784
 20
936.6172139318148
 10
799.3080654817736
 20
937.1525679500262
 10
799.3027588057435
 20
937.3317693145434
 10
799.2974521297133
 20
937.1525679500262
 10
799.2922125089085
 20
936.6172139318148
 10
799.2871051359093
 20
935.7324444474141
 10
799.2821952032959
 20
934.50938135101
 10
799.2775441783583
 20
932.9634082288901
 10
799.273209803096
 20
931.113967371122
 10
799.2692460942185
 20
928.9843120397488
 10
799.2657052057898
 20
926.6012289346615
 10
799.2626281160033
 20
923.9946833596985
 10
799.2600576656973
 20
921.1974560068409
 10
799.2580236571944
 20
918.244722929732
 10
799.2565521675265
 20
915.1736159594218
 10
799.2562802213347
 20
914.4101060712198
  0
LWPOLYLINE
  5
1047
330
A
100
AcDbEntity
  8
MODEL
  6
Continuous
100
AcDbPolyline
 90
       14
 70
   128
 43
0.0
 10
799.2562541443026
 20
903.3370750741522
 10
799.2565521675265
 20
902.4899226398627
 10
799.2580236571944
 20
899.4188156695525
 10
799.2600576656973
 20
896.4660825924436
 10
799.2626281160033
 20
893.668855239586
 10
799.2657052057898
 20
891.062309664623
 10
799.2692460942185
 20
888.6792265595357
 10
799.273209803096
 20
886.5495712281624
 10
799.2775441783583
 20
884.7001303703944
 10
799.2821952032959
 20
883.1541572482745
 10
799.2871051359093
 20
881.9310941518704
 10
799.2922125089085
 20
881.0463246674697
 10
799.2974521297133
 20
880.5109706492583
 10
799.3027588057435
 20
880.3317692847411
  0
ARC
  5
1048
330
A
100
AcDbEntity
  8
MODEL
  6
Continuous
100
AcDbCircle
 10
1452.179044789309
 20
902.8345456731256
 30
0.0
 40
652.8918132382183
100
AcDbArc
 50
179.9353509098212
 51
180.3951529398394
  0
LWPOLYLINE
  5
1049
330
A
100
AcDbEntity
  8
MODEL
  6
Continuous
100
AcDbPolyline
 90
       25
 70
   128
 43
0.0
 10
799.2875968742287
 20
914.0387626150111
 10
799.288824357382
 20
915.159432847933
 10
799.2909962016261
 20
916.5913627268235
 10
799.293566651932
 20
917.7590493829409
 10
799.2964518892682
 20
918.6227281363169
 10
799.2995513307965
 20
919.1529868887226
 10
799.3027588057435
 20
919.3317691580812
 10
799.3059681433356
 20
919.1529868887226
 10
799.3090675848639
 20
918.6227281363169
 10
799.3119509595549
 20
917.7590493829409
 10
799.314523272506
 20
916.5913627268235
 10
799.3166932541048
 20
915.159432847933
 10
799.3183901238358
 20
913.5120219336311
 10
799.3195542770541
 20
911.7052307603369
 10
799.3201465982115
 20
909.8005870957347
 10
799.3201465982115
 20
907.8629515035498
 10
799.3195542770541
 20
905.9583078389476
 10
799.3183901238358
 20
904.1515166656534
 10
799.3166932541048
 20
902.5041057513515
 10
799.314523272506
 20
901.072175872461
 10
799.3119509595549
 20
899.9044892163436
 10
799.3090675848639
 20
899.0408104629676
 10
799.3059681433356
 20
898.5105517105619
 10
799.3027588057435
 20
898.3317694412033
 10
799.3027588057435
 20
898.3317694412033
  0
ARC
  5
104A
330
A
100
AcDbEntity
  8
MODEL
  6
Continuous
100
AcDbCircle
 10
987.1424867730398
 20
888.2079072803406
 30
0.0
 40
187.8666038277467
100
AcDbArc
 50
178.7377972731855
 51
180.5679054096602
  0
ARC
  5
104B
330
A
100
AcDbEntity
  8
MODEL
  6
Continuous
100
AcDbCircle
 10
987.1425497533551
 20
927.1790507176381
 30
0.0
 40
187.8666667796961
100
AcDbArc
 50
178.7377978773854
 51
180.567905400406
  0
LWPOLYLINE
  5
104C
330
A
100
AcDbEntity
  8
MODEL
  6
Continuous
100
AcDbPolyline
 90
       26
 70
   128
 43
0.0
 10
799.9212762045777
 20
1058.864229989187
 10
799.9196147251046
 20
1061.900103163854
 10
799.917398177377
 20
1064.805039835111
 10
799.9146563637173
 20
1067.542502355711
 10
799.9114209490931
 20
1070.078069043295
 10
799.9077329116976
 20
1072.379866314069
 10
799.9036406803048
 20
1074.418926310674
 10
799.8991945463335
 20
1076.169604134695
 10
799.8944485264933
 20
1077.609905672208
 10
799.8894659507191
 20
1078.721711111204
 10
799.8843082863009
 20
1079.49102826132
 10
799.8790388631737
 20
1079.908186268942
 10
799.873724736563
 20
1079.96795482649
 10
799.868432961694
 20
1079.669559073583
 10
799.863228731147
 20
1079.016769004003
 10
799.8581809627926
 20
1078.017780256406
 10
799.8533492612755
 20
1076.685169410841
 10
799.8487969565308
 20
1075.035685372488
 10
799.8445817905581
 20
1073.090085458891
 10
799.8407540547764
 20
1070.872807574407
 10
799.8373621779597
 20
1068.411761593954
 10
799.8344508635914
 20
1065.737882328169
 10
799.8320555019295
 20
1062.884801697866
 10
799.8302058952963
 20
1059.888401699201
 10
799.828928120724
 20
1056.786367368833
 10
799.8285146135008
 20
1055.240744424001
  0
LWPOLYLINE
  5
104D
330
A
100
AcDbEntity
  8
MODEL
  6
Continuous
100
AcDbPolyline
 90
       31
 70
   128
 43
0.0
 10
799.8288443016922
 20
1046.462440562383
 10
799.8297160196221
 20
1044.111543965475
 10
799.8313774990952
 20
1041.075670790807
 10
799.8335940468228
 20
1038.17073411955
 10
799.8363358604824
 20
1035.43325669779
 10
799.8395712751067
 20
1032.897690010206
 10
799.8432593125021
 20
1030.595907640592
 10
799.847351543895
 20
1028.556847643987
 10
799.8517995405114
 20
1026.806162369386
 10
799.8565436977065
 20
1025.365860831873
 10
799.8615262734806
 20
1024.254055392877
 10
799.866685800544
 20
1023.484738242761
 10
799.8719552236712
 20
1023.067572784559
 10
799.877269350282
 20
1023.007811677591
 10
799.8825592625058
 20
1023.306207430498
 10
799.8877634930527
 20
1023.958997500078
 10
799.8928112614071
 20
1024.957978797094
 10
799.8976429629242
 20
1026.29059709324
 10
799.902195267669
 20
1027.940081131593
 10
799.9064122962868
 20
1029.885688495771
 10
799.9102400320685
 20
1032.102958929674
 10
799.9136300462401
 20
1034.564012360708
 10
799.9165413606083
 20
1037.237876725332
 10
799.9189367222702
 20
1040.090957355634
 10
799.9207863289034
 20
1043.087357354299
 10
799.922065966121
 20
1046.189406585828
 10
799.9227588701165
 20
1049.358078909055
 10
799.9228575903094
 20
1052.553528618948
 10
799.9223621266997
 20
1055.735582184927
 10
799.9212762045777
 20
1058.864229989187
 10
799.9212762045777
 20
1058.864229989187
  0
LWPOLYLINE
  5
104E
330
A
100
AcDbEntity
  8
MODEL
  6
Continuous
100
AcDbPolyline
 90
       17
 70
   128
 43
0.0
 10
799.8923623639262
 20
1054.205486250059
 10
799.8929062563097
 20
1052.295589518682
 10
799.8928559648907
 20
1050.35817034258
 10
799.8922152149594
 20
1048.459240865843
 10
799.8910044956124
 20
1046.663442325727
 10
799.8892666476881
 20
1045.031943988935
 10
799.8870594131863
 20
1043.620282483236
 10
799.884459160558
 20
1042.476543855802
 10
799.8815534341252
 20
1041.639679741995
 10
799.8784409540808
 20
1041.138181162016
 10
799.8752278911984
 20
1040.989124846594
 10
799.8720241415417
 20
1041.197606992857
 10
799.8689377385294
 20
1041.756489944593
 10
799.8660767155802
 20
1042.646789622442
 10
799.8635360675967
 20
1043.83813745989
 10
799.8614014762557
 20
1045.29000229849
 10
799.8601982074892
 20
1046.425321769849
  0
LWPOLYLINE
  5
104F
330
A
100
AcDbEntity
  8
MODEL
  6
Continuous
100
AcDbPolyline
 90
       15
 70
   128
 43
0.0
 10
799.8593935447848
 20
1055.547335815565
 10
799.8599877285874
 20
1056.312316727773
 10
799.8617255765116
 20
1057.943829965727
 10
799.8639328110135
 20
1059.355491471426
 10
799.8665330636418
 20
1060.499230098859
 10
799.8694406527197
 20
1061.336094212667
 10
799.8725531327641
 20
1061.837592792646
 10
799.8757643330014
 20
1061.986634206907
 10
799.878968082658
 20
1061.778166961805
 10
799.8820544856703
 20
1061.219269108907
 10
799.8849155086195
 20
1060.32898433222
 10
799.8874580192482
 20
1059.13762159361
 10
799.8895907479441
 20
1057.68575675501
 10
799.8912447768366
 20
1056.022846770422
 10
799.8923623639262
 20
1054.205486250059
  0
LWPOLYLINE
  5
1050
330
A
100
AcDbEntity
  8
MODEL
  6
Continuous
100
AcDbPolyline
 90
       19
 70
   128
 43
0.0
 10
799.8899986672318
 20
1030.531013083593
 10
799.8892666476881
 20
1031.475284767286
 10
799.8880428898251
 20
1032.21200562729
 10
799.8864726799643
 20
1032.652327489988
 10
799.884746007911
 20
1032.743135166303
 10
799.8830714899218
 20
1032.473476302759
 10
799.8816521543181
 20
1031.87587268366
 10
799.8806593644535
 20
1031.022408676283
 10
799.8802104669726
 20
1030.016021502153
 10
799.8803613412297
 20
1028.978096020357
 10
799.8810933607733
 20
1028.033824336664
 10
799.8823189812815
 20
1027.297096026079
 10
799.8838891911423
 20
1026.856774163381
 10
799.8856158631957
 20
1026.765966487066
 10
799.8872885185397
 20
1027.035632801191
 10
799.8887078541434
 20
1027.633228969709
 10
799.8897025066531
 20
1028.486700427667
 10
799.890151404134
 20
1029.493087601797
 10
799.8899986672318
 20
1030.531013083593
  0
LWPOLYLINE
  5
1051
330
A
100
AcDbEntity
  8
MODEL
  6
Continuous
100
AcDbPolyline
 90
       19
 70
   128
 43
0.0
 10
799.9067736494458
 20
1068.174237084524
 10
799.9060416299021
 20
1069.118508768217
 10
799.9048160093939
 20
1069.855237078802
 10
799.9032457995331
 20
1070.29556639208
 10
799.9015191274798
 20
1070.386374068395
 10
799.8998464721358
 20
1070.11670775427
 10
799.8984271365321
 20
1069.519111585752
 10
799.8974324840224
 20
1068.665647578375
 10
799.8969835865414
 20
1067.659252953664
 10
799.8971344607985
 20
1066.621327471868
 10
799.8978683429873
 20
1065.677055788175
 10
799.8990921008503
 20
1064.94032747759
 10
799.9006623107111
 20
1064.500013065473
 10
799.9023889827645
 20
1064.409205389158
 10
799.9040635007536
 20
1064.678856802122
 10
799.9054828363574
 20
1065.276467871801
 10
799.9064756262219
 20
1066.129931879179
 10
799.9069245237029
 20
1067.136326503889
 10
799.9067736494458
 20
1068.174237084524
  0
ARC
  5
1052
330
A
100
AcDbEntity
  8
MODEL
  6
Continuous
100
AcDbCircle
 10
1592.187271362822
 20
1057.216102929271
 30
0.0
 40
792.3539635179629
100
AcDbArc
 50
179.7761822996226
 51
180.1407560565899
  0
SPLINE
  5
1053
330
A
100
AcDbEntity
  8
MODEL
  6
Continuous
100
AcDbSpline
210
0.0
220
0.0
230
1.0
 70
     8
 71
     3
 72
     9
 73
     5
 74
     0
 42
0.000000001
 43
0.00000001
 40
0.0
 40
0.0
 40
0.0
 40
0.0
 40
0.9609370362856715
 40
1.0
 40
1.0
 40
1.0
 40
1.0
 10
851.3176535892394
 20
908.8317692996422
 30
0.0
 10
851.3363584477734
 20
909.7409829297774
 30
0.0
 10
851.3558236758013
 20
910.6871569201674
 30
0.0
 10
851.6189006970249
 20
911.4786862726721
 30
0.0
 10
851.629177265158
 20
911.509605755047
 30
0.0
  0
SPLINE
  5
1054
330
A
100
AcDbEntity
  8
MODEL
  6
Continuous
100
AcDbSpline
210
0.0
220
0.0
230
1.0
 70
     8
 71
     3
 72
    14
 73
    10
 74
     0
 42
0.000000001
 43
0.00000001
 40
0.0
 40
0.0
 40
0.0
 40
0.0
 40
0.1167236442662303
 40
0.2950738892172399
 40
0.5356571412198781
 40
0.6550649288167173
 40
0.77887605492349
 40
0.9497941087300665
 40
1.0
 40
1.0
 40
1.0
 40
1.0
 10
855.3193604278472
 20
899.8730729119341
 30
0.0
 10
855.299601848295
 20
899.890383329194
 30
0.0
 10
855.2496527488606
 20
899.9341435474159
 30
0.0
 10
854.29677591679
 20
900.838122304637
 30
0.0
 10
853.1657649995245
 20
902.3052080138866
 30
0.0
 10
852.2606651686124
 20
904.0759274841037
 30
0.0
 10
851.6399798052375
 20
905.8260144443991
 30
0.0
 10
851.3430498474268
 20
907.4954293512508
 30
0.0
 10
851.3223528209733
 20
908.5844977903532
 30
0.0
 10
851.3176535892394
 20
908.8317692996422
 30
0.0
  0
SPLINE
  5
1055
330
A
100
AcDbEntity
  8
MODEL
  6
Continuous
100
AcDbSpline
210
0.0
220
0.0
230
1.0
 70
     8
 71
     3
 72
    18
 73
    14
 74
     0
 42
0.000000001
 43
0.00000001
 40
0.0
 40
0.0
 40
0.0
 40
0.0
 40
0.0597069457564047
 40
0.1380228863518205
 40
0.2188891923960707
 40
0.3155937097717961
 40
0.4126830076874096
 40
0.5312738128416256
 40
0.6912443948772709
 40
0.7706423687068111
 40
0.852968300675324
 40
0.9666165327118453
 40
0.9999999999999999
 40
0.9999999999999999
 40
0.9999999999999999
 40
0.9999999999999999
 10
853.7211065816796
 20
1042.590060901777
 30
0.0
 10
853.8972271680482
 20
1042.56454841652
 30
0.0
 10
854.3043602305174
 20
1042.505571913726
 30
0.0
 10
854.9761999797643
 20
1042.896507417438
 30
0.0
 10
855.6371962886374
 20
1043.579289118599
 30
0.0
 10
856.039286448739
 20
1044.757939545914
 30
0.0
 10
855.8342845933189
 20
1046.5427751668
 30
0.0
 10
854.8972488612785
 20
1048.952695640734
 30
0.0
 10
853.7402171147355
 20
1051.375039450813
 30
0.0
 10
852.8357937928954
 20
1053.571546757318
 30
0.0
 10
852.2118631798908
 20
1055.422460964574
 30
0.0
 10
851.9130061652727
 20
1056.882839350947
 30
0.0
 10
851.8910022140594
 20
1057.672543255958
 30
0.0
 10
851.8860062289145
 20
1057.851845097677
 30
0.0
  0
LWPOLYLINE
  5
1056
330
A
100
AcDbEntity
  8
MODEL
  6
Continuous
100
AcDbPolyline
 90
       20
 70
   128
 43
0.0
 10
875.8871501016524
 20
1058.53899724497
 10
875.7072930860427
 20
1057.085493278639
 10
875.1682882833388
 20
1055.656814646856
 10
874.2865120696929
 20
1054.316306185857
 10
873.0887567329314
 20
1053.104722571508
 10
871.6114183592704
 20
1052.058854770796
 10
869.8993792462256
 20
1051.210486960546
 10
868.0046593475249
 20
1050.585398149625
 10
865.9848367500222
 20
1050.202587318556
 10
863.9012744355109
 20
1050.073677373068
 10
861.8172874379065
 20
1050.202587318556
 10
859.7961907911208
 20
1050.585398149625
 10
857.8993921804345
 20
1051.210486960546
 10
856.1845367479232
 20
1052.058854770796
 10
854.7037189531234
 20
1053.104722571508
 10
853.501932852259
 20
1054.316306185857
 10
852.6156937408355
 20
1055.656814646856
 10
852.0719429182914
 20
1057.085493278639
 10
851.8871834206498
 20
1058.558949899809
 10
851.8871834206498
 20
1058.578902554647
  0
ARC
  5
1057
330
A
100
AcDbEntity
  8
MODEL
  6
Continuous
100
AcDbCircle
 10
863.6020066394944
 20
908.8317491685846
 30
0.0
 40
11.99997964836107
100
AcDbArc
 50
270.01821542161
 51
343.000734485418
  0
ARC
  5
1058
330
A
100
AcDbEntity
  8
MODEL
  6
Continuous
100
AcDbCircle
 10
863.2860889730823
 20
908.831846802588
 30
0.0
 40
12.00007760734343
100
AcDbArc
 50
217.4421131865655
 51
269.999779267711
  0
SPLINE
  5
1059
330
A
100
AcDbEntity
  8
MODEL
  6
Continuous
100
AcDbSpline
210
0.0
220
0.0
230
1.0
 70
     8
 71
     3
 72
    11
 73
     7
 74
     0
 42
0.000000001
 43
0.00000001
 40
0.0
 40
0.0
 40
0.0
 40
0.0
 40
0.1223380350865239
 40
0.505796614700599
 40
0.8942250772968379
 40
1.0
 40
1.0
 40
1.0
 40
1.0
 10
851.6295050907052
 20
911.5747515363107
 30
0.0
 10
851.6094680154752
 20
911.4968090038963
 30
0.0
 10
851.5266263643666
 20
911.1745619692072
 30
0.0
 10
851.3689064129362
 20
910.1987684705744
 30
0.0
 10
851.2822573284825
 20
909.1608031138428
 30
0.0
 10
851.3207293576456
 20
908.5877054145046
 30
0.0
 10
851.3289635705855
 20
908.4650446504309
 30
0.0
  0
SPLINE
  5
105A
330
A
100
AcDbEntity
  8
MODEL
  6
Continuous
100
AcDbSpline
210
0.0
220
0.0
230
1.0
 70
     8
 71
     3
 72
    15
 73
    11
 74
     0
 42
0.000000001
 43
0.00000001
 40
0.0
 40
0.0
 40
0.0
 40
0.0
 40
0.0846937057106315
 40
0.3001637871829266
 40
0.511008161831192
 40
0.6164983534909577
 40
0.7198469169514786
 40
0.8231304178914064
 40
0.9288173888986477
 40
1.0
 40
1.0
 40
1.0
 40
1.0
 10
851.3548394369996
 20
908.0043907644647
 30
0.0
 10
851.3625826665707
 20
907.8264697146521
 30
0.0
 10
851.3900255219019
 20
907.1958979893604
 30
0.0
 10
851.5723536832415
 20
906.2840695050152
 30
0.0
 10
851.7392248477368
 20
905.6223361059035
 30
0.0
 10
851.8204206573223
 20
905.3485312555038
 30
0.0
 10
851.8410986586773
 20
905.2766413873576
 30
0.0
 10
851.8171243505672
 20
905.3552454183871
 30
0.0
 10
851.7657457984992
 20
905.5083685481684
 30
0.0
 10
851.709529195618
 20
905.7389641757034
 30
0.0
 10
851.686904363623
 20
905.8317692735652
 30
0.0
  0
LWPOLYLINE
  5
105B
330
A
100
AcDbEntity
  8
MODEL
  6
Continuous
100
AcDbPolyline
 90
       31
 70
   128
 43
0.0
 10
807.3027489411747
 20
878.8317699701945
 10
807.3081431615269
 20
879.007629749314
 10
807.3134721892989
 20
879.5331527264277
 10
807.318678282491
 20
880.4021735460917
 10
807.323696248523
 20
881.60450726463
 10
807.3284683453953
 20
883.1260536582629
 10
807.3329405563986
 20
884.9489778996865
 10
807.3370570021784
 20
887.0519042731682
 10
807.3407729792511
 20
889.4101806701581
 10
807.344041921488
 20
891.9961579860608
 10
807.3468265759861
 20
894.7795160831372
 10
807.3490952777779
 20
897.7276242123405
 10
807.3508200871861
 20
900.8059191302816
 10
807.3519805151141
 20
903.9783092932264
 10
807.3525653856909
 20
907.2076019849117
 10
807.3525653856909
 20
910.4559366143728
 10
807.3519805151141
 20
913.6852293060581
 10
807.3508200871861
 20
916.8576194690029
 10
807.3490952777779
 20
919.935914386944
 10
807.3468265759861
 20
922.8840225161473
 10
807.344041921488
 20
925.6673806132237
 10
807.3407729792511
 20
928.2533579291264
 10
807.3370570021784
 20
930.6116343261162
 10
807.3329405563986
 20
932.714560699598
 10
807.3284683453953
 20
934.5374849410216
 10
807.323696248523
 20
936.0590313346545
 10
807.318678282491
 20
937.2613650531928
 10
807.3134721892989
 20
938.1303858728568
 10
807.3081431615269
 20
938.6559088499705
 10
807.3027489411747
 20
938.83176862909
 10
807.3027489411747
 20
938.83176862909
  0
LWPOLYLINE
  5
105C
330
A
100
AcDbEntity
  8
MODEL
  6
Continuous
100
AcDbPolyline
 90
       30
 70
   128
 43
0.0
 10
807.875484384886
 20
1021.487885785238
 10
807.8808786052382
 20
1021.663741839067
 10
807.8862094956553
 20
1022.189268541471
 10
807.8914155888474
 20
1023.058289361135
 10
807.8964335548794
 20
1024.260619354383
 10
807.9012056517518
 20
1025.782169473306
 10
807.905677862755
 20
1027.605095577375
 10
807.9097943085349
 20
1029.708021950857
 10
807.9135084229624
 20
1032.066294622556
 10
807.9167792278445
 20
1034.652271938459
 10
807.9195638823426
 20
1037.435630035535
 10
807.9218307214892
 20
1040.383735370771
 10
807.9235555308974
 20
1043.462032151357
 10
807.9247178214705
 20
1046.634429764883
 10
807.9253008294022
 20
1049.863720011846
 10
807.9253008294022
 20
1053.112053942815
 10
807.9247178214705
 20
1056.341344189779
 10
807.9235555308974
 20
1059.513726902143
 10
807.9218307214892
 20
1062.592023682729
 10
807.9195638823426
 20
1065.540143919126
 10
807.9167792278445
 20
1068.323502016203
 10
807.9135084229624
 20
1070.909479332105
 10
807.9097943085349
 20
1073.267752003805
 10
807.905677862755
 20
1075.370678377287
 10
807.9012056517518
 20
1077.193597030775
 10
807.8964335548794
 20
1078.715139699117
 10
807.8914155888474
 20
1079.917484593527
 10
807.8862094956553
 20
1080.786505413191
 10
807.8808786052382
 20
1081.312024665014
 10
807.875484384886
 20
1081.487888169424
  0
LWPOLYLINE
  5
105D
330
A
100
AcDbEntity
  8
MODEL
  6
Continuous
100
AcDbPolyline
 90
       20
 70
   128
 43
0.0
 10
875.6637295412925
 20
924.1887076543132
 10
875.4838725256827
 20
922.7352092759172
 10
874.9448677229798
 20
921.3065259875218
 10
874.0630915093338
 20
919.9660221831361
 10
872.8653361725724
 20
918.754429255561
 10
871.3879977989113
 20
917.7085605235259
 10
869.6759586858657
 20
916.8601936445991
 10
867.781238787165
 20
916.2351071619848
 10
865.7614161896613
 20
915.8522926056246
 10
863.677853875151
 20
915.723381728814
 10
861.5938668775466
 20
915.8522926056246
 10
859.5727702307609
 20
916.2351071619848
 10
857.6759716200736
 20
916.8601936445991
 10
855.9611161875632
 20
917.7085605235259
 10
854.4802909421828
 20
918.754429255561
 10
853.278512291899
 20
919.9660221831361
 10
852.3922731804755
 20
921.3065259875218
 10
851.8485149073517
 20
922.7352092759172
 10
851.6637628602889
 20
924.2086631031195
 10
851.6637628602889
 20
924.2286194832484
  0
ARC
  5
105E
330
A
100
AcDbEntity
  8
MODEL
  6
Continuous
100
AcDbCircle
 10
863.6020210922384
 20
908.8317638043561
 30
0.0
 40
11.99999427954658
100
AcDbArc
 50
178.0051739009034
 51
270.0181463925951
  0
DIMENSION
  5
105F
330
A
100
AcDbEntity
  8
DIM
100
AcDbDimension
  2
*D9
 10
771.9916843470708
 20
908.8317692996422
 30
0.0
 11
771.9916843470705
 21
980.1598266002818
 31
0.0
 70
   160
 71
     2
 42
142.6561146012828
 73
     0
 74
     0
 75
     0
 52
-270.0
  3
tfrom線あり
100
AcDbAlignedDimension
 13
789.8754962764756
 23
1051.487883900925
 33
0.0
 14
789.265342118983
 24
908.8317692996422
 34
0.0
 50
90.0000000000002
100
AcDbRotatedDimension
  0
DIMENSION
  5
1060
330
A
100
AcDbEntity
  8
DIM
100
AcDbDimension
  2
*D10
 10
739.1234015210289
 20
878.831769299642
 30
0.0
 11
739.1234015210285
 21
980.1598266002836
 31
0.0
 70
   160
 71
     2
 42
202.6561146012828
 73
     0
 74
     0
 75
     0
 52
-270.0
  3
tfrom線あり
100
AcDbAlignedDimension
 13
799.8754962764747
 23
1081.487883900925
 33
0.0
 14
799.3027593484389
 24
878.8317692996422
 34
0.0
 50
90.0000000000002
100
AcDbRotatedDimension
  0
LINE
  5
1062
330
A
100
AcDbEntity
  8
MODEL
  6
CENTER
 48
0.005
100
AcDbLine
 10
837.6512206677008
 20
1051.487883900927
 30
0.0
 11
789.8754962764756
 21
1051.487883900925
 31
0.0
  0
LINE
  5
1063
330
A
100
AcDbEntity
  8
MODEL
  6
CENTER
 48
0.005
100
AcDbLine
 10
837.6512206677008
 20
908.8317692996422
 30
0.0
 11
789.265342118983
 21
908.8317692996422
 31
0.0
  0
LINE
  5
10C0
330
A
100
AcDbEntity
  8
DIM
 48
0.05
100
AcDbLine
 10
432.4876021032193
 20
920.8317694039504
 30
0.0
 11
478.5264048486694
 21
1013.862253383164
 31
0.0
  0
LINE
  5
10C1
330
A
100
AcDbEntity
  8
DIM
 48
0.05
100
AcDbLine
 10
478.5264048486694
 20
1013.862253383164
 30
0.0
 11
517.8036409119047
 21
1013.862253383164
 31
0.0
  0
MTEXT
  5
10F2
330
A
100
AcDbEntity
  8
DIM
390
1D
100
AcDbMText
 10
487.8020372490271
 20
1031.437377745586
 30
0.0
 40
12.21630859375
 41
0.0
 46
12.3384716796875
 71
     1
 72
     1
  1
{ø24}
  7
ＭＳ ゴシック
 73
     1
 44
0.7828267384257843
1001
ACAD
1000
ACAD_MTEXT_DEFINED_HEIGHT_BEGIN
1070
    46
1040
12.3384716796875
1000
ACAD_MTEXT_DEFINED_HEIGHT_END
  0
VIEWPORT
  5
349
330
B
100
AcDbEntity
 67
     1
  8
0
100
AcDbViewport
 10
202.5
 20
128.5
 30
0.0
 40
486.0
 41
308.4
 68
     1
 69
     1
 12
202.5
 22
128.5
 13
0.0
 23
0.0
 14
0.5
 24
0.5
 15
0.0
 25
0.0
 16
0.0
 26
0.0
 36
1.0
 17
0.0
 27
0.0
 37
0.0
 42
50.0
 43
0.0
 44
0.0
 45
308.4
 50
0.0
 51
0.0
 72
   100
 90
   557152
  1

281
     0
 71
     1
 74
     0
110
0.0
120
0.0
130
0.0
111
1.0
121
0.0
131
0.0
112
0.0
122
1.0
132
0.0
 79
     0
146
0.0
170
     0
 61
     5
348
26C
292
     1
282
     1
141
0.0
142
0.0
 63
   256
  0
VIEWPORT
  5
34A
330
B
100
AcDbEntity
 67
     1
  8
0
100
AcDbViewport
 10
202.5
 20
128.5
 30
0.0
 40
324.0
 41
205.6
 68
     2
 69
     2
 12
986.6781359294573
 22
1427.077061889956
 13
0.0
 23
0.0
 14
0.5
 24
0.5
 15
0.0
 25
0.0
 16
0.0
 26
0.0
 36
1.0
 17
0.0
 27
0.0
 37
0.0
 42
50.0
 43
0.0
 44
0.0
 45
2890.021615685494
 50
0.0
 51
0.0
 72
   100
 90
   557152
  1

281
     0
 71
     1
 74
     0
110
0.0
120
0.0
130
0.0
111
1.0
121
0.0
131
0.0
112
0.0
122
1.0
132
0.0
 79
     0
146
0.0
170
     0
 61
     5
348
26C
292
     1
282
     1
141
0.0
142
0.0
 63
   256
  0
ENDSEC
  0
SECTION
  2
OBJECTS
  0
DICTIONARY
  5
19
330
0
100
AcDbDictionary
281
     1
  3
ACAD_COLOR
350
674
  3
ACAD_DETAILVIEWSTYLE
350
BBF
  3
ACAD_GROUP
350
1A
  3
ACAD_IMAGE_VARS
350
27B
  3
ACAD_LAYOUT
350
1E
  3
ACAD_MATERIAL
350
263
  3
ACAD_MLEADERSTYLE
350
336
  3
ACAD_MLINESTYLE
350
1B
  3
ACAD_PLOTSETTINGS
350
22
  3
ACAD_PLOTSTYLENAME
350
1F
  3
ACAD_SCALELIST
350
241
  3
ACAD_SECTIONVIEWSTYLE
350
BC0
  3
ACAD_TABLESTYLE
350
278
  3
ACAD_VISUALSTYLE
350
267
  3
ACDB_RECOMPOSE_DATA
350
1101
  3
AcDbVariableDictionary
350
330
  3
APPDATA
350
27A
  0
SUN
  5
904
330
15
100
AcDbSun
 90
        1
290
     0
 63
     7
421
 16777215
 40
1.0
291
     1
 91
  2455826
 92
 54000000
292
     0
 70
     2
 71
   256
280
     1
  0
DICTIONARY
  5
2E1
330
2
100
AcDbDictionary
280
     1
281
     1
  3
ACAD_LAYERSTATES
360
2E2
  3
ACLYDICTIONARY
360
DDE
  0
DICTIONARY
  5
674
102
{ACAD_REACTORS
330
19
102
}
330
19
100
AcDbDictionary
281
     1
  0
DICTIONARY
  5
BBF
102
{ACAD_REACTORS
330
19
102
}
330
19
100
AcDbDictionary
281
     1
  0
DICTIONARY
  5
1A
102
{ACAD_REACTORS
330
19
102
}
330
19
100
AcDbDictionary
281
     1
  0
RASTERVARIABLES
  5
27B
102
{ACAD_REACTORS
330
19
102
}
330
19
100
AcDbRasterVariables
 90
        0
 70
     1
 71
     1
 72
     1
  0
DICTIONARY
  5
1E
102
{ACAD_REACTORS
330
19
102
}
330
19
100
AcDbDictionary
281
     1
  3
Layout1
350
21
  3
Model
350
20
  0
DICTIONARY
  5
263
102
{ACAD_REACTORS
330
19
102
}
330
19
100
AcDbDictionary
281
     1
  3
ByBlock
350
10B4
  3
ByLayer
350
264
  3
Global
350
266
  0
DICTIONARY
  5
336
102
{ACAD_REACTORS
330
19
102
}
330
19
100
AcDbDictionary
281
     1
  3
Standard
350
D59
  0
DICTIONARY
  5
1B
102
{ACAD_REACTORS
330
19
102
}
330
19
100
AcDbDictionary
281
     1
  3
Standard
350
1C
  0
DICTIONARY
  5
22
102
{ACAD_REACTORS
330
19
102
}
330
19
100
AcDbDictionary
281
     1
  0
ACDBDICTIONARYWDFLT
  5
1F
102
{ACAD_REACTORS
330
19
102
}
330
19
100
AcDbDictionary
281
     1
  3
Normal
350
1D
100
AcDbDictionaryWithDefault
340
1D
  0
DICTIONARY
  5
241
102
{ACAD_REACTORS
330
19
102
}
330
19
100
AcDbDictionary
281
     1
  3
*A1
350
E8C
  3
A0
350
242
  3
A1
350
243
  3
A2
350
244
  3
A3
350
245
  3
A4
350
246
  3
A5
350
247
  3
A6
350
248
  3
A7
350
249
  3
A8
350
24A
  3
A9
350
24B
  3
B0
350
24C
  3
B1
350
24D
  3
B2
350
24E
  3
B3
350
24F
  3
B4
350
250
  3
B5
350
251
  3
B6
350
252
  3
B7
350
253
  3
B8
350
254
  3
B9
350
255
  3
C0
350
256
  3
C1
350
257
  3
C2
350
258
  3
C3
350
259
  3
C4
350
25A
  3
C5
350
25B
  3
C6
350
25C
  3
C7
350
25D
  3
C8
350
25E
  3
C9
350
25F
  3
D0
350
260
  3
D1
350
261
  3
D2
350
262
  0
DICTIONARY
  5
BC0
102
{ACAD_REACTORS
330
19
102
}
330
19
100
AcDbDictionary
281
     1
  0
DICTIONARY
  5
278
102
{ACAD_REACTORS
330
19
102
}
330
19
100
AcDbDictionary
281
     1
  3
Standard
350
279
  0
DICTIONARY
  5
267
102
{ACAD_REACTORS
330
19
102
}
330
19
100
AcDbDictionary
281
     1
  3
2dWireframe
350
26C
  3
3D Hidden
350
26E
  3
3dWireframe
350
26D
  3
Basic
350
26F
  3
Brighten
350
273
  3
ColorChange
350
277
  3
Conceptual
350
271
  3
Dim
350
272
  3
EdgeColorOff
350
8FE
  3
Facepattern
350
276
  3
Flat
350
268
  3
FlatWithEdges
350
269
  3
Gouraud
350
26A
  3
GouraudWithEdges
350
26B
  3
Hidden
350
8FB
  3
JitterOff
350
8FC
  3
Linepattern
350
275
  3
OverhangOff
350
8FD
  3
Realistic
350
270
  3
Shaded
350
903
  3
Shaded with edges
350
902
  3
Shades of Gray
350
8FF
  3
Sketchy
350
900
  3
Thicken
350
274
  3
Wireframe
350
8FA
  3
X-Ray
350
901
  0
XRECORD
  5
1101
102
{ACAD_REACTORS
330
19
102
}
330
19
100
AcDbXrecord
280
     1
 90
        1
330
279
  0
DICTIONARY
  5
330
102
{ACAD_REACTORS
330
19
102
}
330
19
100
AcDbDictionary
281
     1
  3
CANNOSCALE
350
331
  3
CMLEADERSTYLE
350
D5E
  3
CTABLESTYLE
350
335
  3
HPTRANSPARENCY
350
D52
  3
XCLIPFRAME
350
896
  0
DICTIONARY
  5
27A
102
{ACAD_REACTORS
330
19
102
}
330
19
100
AcDbDictionary
281
     1
  0
DICTIONARY
  5
2E2
102
{ACAD_REACTORS
330
2E1
102
}
330
2E1
100
AcDbDictionary
281
     1
  3
ARGON_LAYERP_9
350
7AA
  0
DICTIONARY
  5
DDE
102
{ACAD_REACTORS
330
2E1
102
}
330
2E1
100
AcDbDictionary
281
     1
1001
ACAD
1000
<All
  0
LAYOUT
  5
21
102
{ACAD_REACTORS
330
1E
102
}
330
1E
100
AcDbPlotSettings
  1

  2
none_device
  4
ISO_A3_(420.00_x_297.00_MM)
  6

 40
7.5
 41
20.0
 42
7.5
 43
20.0
 44
420.0
 45
297.0
 46
0.0
 47
0.0
 48
0.0
 49
0.0
140
0.0
141
0.0
142
1.0
143
1.0
 70
     0
 72
     1
 73
     0
 74
     0
  7

 75
     0
 76
     0
 77
     2
 78
   300
147
1.0
148
0.0
149
0.0
100
AcDbLayout
  1
Layout1
 70
     0
 71
     0
 10
-7.5
 20
-20.0
 11
412.5
 21
277.0
 12
0.0
 22
0.0
 32
0.0
 14
0.0
 24
0.0
 34
0.0
 15
0.0
 25
0.0
 35
0.0
146
0.0
 13
0.0
 23
0.0
 33
0.0
 16
0.0
 26
0.0
 36
0.0
 17
0.0
 27
0.0
 37
0.0
 76
     0
330
B
331
349
  0
LAYOUT
  5
20
102
{ACAD_REACTORS
330
1E
102
}
330
1E
100
AcDbPlotSettings
  1

  2
none_device
  4
ISO_A3_(420.00_x_297.00_MM)
  6

 40
7.5
 41
20.0
 42
7.5
 43
20.0
 44
420.0
 45
297.0
 46
0.0
 47
0.0
 48
0.0
 49
0.0
140
0.0
141
0.0
142
1.0
143
1.0
 70
  1024
 72
     1
 73
     0
 74
     0
  7

 75
     0
 76
     0
 77
     2
 78
   300
147
1.0
148
0.0
149
0.0
100
AcDbLayout
  1
Model
 70
     0
 71
     1
 10
0.0
 20
0.0
 11
1050.0
 21
1485.0
 12
0.0
 22
0.0
 32
0.0
 14
0.0
 24
0.0
 34
-0.0000000000000071
 15
1050.0
 25
1485.0
 35
0.0000000000000071
146
0.0
 13
0.0
 23
0.0
 33
0.0
 16
0.0
 26
0.0
 36
0.0
 17
0.0
 27
0.0
 37
0.0
 76
     0
330
A
331
15
  0
MATERIAL
  5
10B4
102
{ACAD_REACTORS
330
263
102
}
330
263
100
AcDbMaterial
  1
ByBlock
 72
     1
 94
      127
  0
MATERIAL
  5
264
102
{ACAD_REACTORS
330
263
102
}
330
263
100
AcDbMaterial
  1
ByLayer
 72
     1
 94
      127
  0
MATERIAL
  5
266
102
{ACAD_REACTORS
330
263
102
}
330
263
100
AcDbMaterial
  1
Global
 72
     1
 94
      127
  0
MLEADERSTYLE
  5
D59
102
{ACAD_REACTORS
330
336
102
}
330
336
100
AcDbMLeaderStyle
170
     2
171
     1
172
     0
 90
        2
 40
0.0
 41
0.0
173
     1
 91
-1056964608
340
11
 92
       -2
290
     1
 42
2.0
291
     1
 43
8.0
  3
Standard
341
0
 44
4.0
300

342
17
174
     1
178
     6
175
     1
176
     0
 93
-1056964608
 45
4.0
292
     0
297
     0
 46
4.0
343
0
 94
-1056964608
 47
1.0
 49
1.0
140
1.0
293
     1
141
0.0
294
     1
177
     0
142
1.0
295
     0
296
     0
143
3.75
1001
ACAD_MLEADERVER
1070
     2
  0
MLINESTYLE
  5
1C
102
{ACAD_REACTORS
330
1B
102
}
330
1B
100
AcDbMlineStyle
  2
Standard
 70
     0
  3

 62
     0
 51
90.0
 52
90.0
 71
     2
 49
0.5
 62
   256
  6
BYLAYER
 49
-0.5
 62
   256
  6
BYLAYER
  0
ACDBPLACEHOLDER
  5
1D
102
{ACAD_REACTORS
330
1F
102
}
330
1F
  0
SCALE
  5
E8C
102
{ACAD_REACTORS
330
241
102
}
330
241
100
AcDbScale
 70
     0
300
1:1_XREF_XREF
140
1.0
141
1.0
290
     1
  0
SCALE
  5
242
102
{ACAD_REACTORS
330
241
102
}
330
241
100
AcDbScale
 70
     0
300
1:1
140
1.0
141
1.0
290
     0
  0
SCALE
  5
243
102
{ACAD_REACTORS
330
241
102
}
330
241
100
AcDbScale
 70
     0
300
1:2
140
1.0
141
2.0
290
     0
  0
SCALE
  5
244
102
{ACAD_REACTORS
330
241
102
}
330
241
100
AcDbScale
 70
     0
300
1:4
140
1.0
141
4.0
290
     0
  0
SCALE
  5
245
102
{ACAD_REACTORS
330
241
102
}
330
241
100
AcDbScale
 70
     0
300
1:5
140
1.0
141
5.0
290
     0
  0
SCALE
  5
246
102
{ACAD_REACTORS
330
241
102
}
330
241
100
AcDbScale
 70
     0
300
1:8
140
1.0
141
8.0
290
     0
  0
SCALE
  5
247
102
{ACAD_REACTORS
330
241
102
}
330
241
100
AcDbScale
 70
     0
300
1:10
140
1.0
141
10.0
290
     0
  0
SCALE
  5
248
102
{ACAD_REACTORS
330
241
102
}
330
241
100
AcDbScale
 70
     0
300
1:16
140
1.0
141
16.0
290
     0
  0
SCALE
  5
249
102
{ACAD_REACTORS
330
241
102
}
330
241
100
AcDbScale
 70
     0
300
1:20
140
1.0
141
20.0
290
     0
  0
SCALE
  5
24A
102
{ACAD_REACTORS
330
241
102
}
330
241
100
AcDbScale
 70
     0
300
1:30
140
1.0
141
30.0
290
     0
  0
SCALE
  5
24B
102
{ACAD_REACTORS
330
241
102
}
330
241
100
AcDbScale
 70
     0
300
1:40
140
1.0
141
40.0
290
     0
  0
SCALE
  5
24C
102
{ACAD_REACTORS
330
241
102
}
330
241
100
AcDbScale
 70
     0
300
1:50
140
1.0
141
50.0
290
     0
  0
SCALE
  5
24D
102
{ACAD_REACTORS
330
241
102
}
330
241
100
AcDbScale
 70
     0
300
1:100
140
1.0
141
100.0
290
     0
  0
SCALE
  5
24E
102
{ACAD_REACTORS
330
241
102
}
330
241
100
AcDbScale
 70
     0
300
2:1
140
2.0
141
1.0
290
     0
  0
SCALE
  5
24F
102
{ACAD_REACTORS
330
241
102
}
330
241
100
AcDbScale
 70
     0
300
4:1
140
4.0
141
1.0
290
     0
  0
SCALE
  5
250
102
{ACAD_REACTORS
330
241
102
}
330
241
100
AcDbScale
 70
     0
300
8:1
140
8.0
141
1.0
290
     0
  0
SCALE
  5
251
102
{ACAD_REACTORS
330
241
102
}
330
241
100
AcDbScale
 70
     0
300
10:1
140
10.0
141
1.0
290
     0
  0
SCALE
  5
252
102
{ACAD_REACTORS
330
241
102
}
330
241
100
AcDbScale
 70
     0
300
100:1
140
100.0
141
1.0
290
     0
  0
SCALE
  5
253
102
{ACAD_REACTORS
330
241
102
}
330
241
100
AcDbScale
 70
     0
300
1/128" = 1'-0"
140
0.0078125
141
12.0
290
     0
  0
SCALE
  5
254
102
{ACAD_REACTORS
330
241
102
}
330
241
100
AcDbScale
 70
     0
300
1/64" = 1'-0"
140
0.015625
141
12.0
290
     0
  0
SCALE
  5
255
102
{ACAD_REACTORS
330
241
102
}
330
241
100
AcDbScale
 70
     0
300
1/32" = 1'-0"
140
0.03125
141
12.0
290
     0
  0
SCALE
  5
256
102
{ACAD_REACTORS
330
241
102
}
330
241
100
AcDbScale
 70
     0
300
1/16" = 1'-0"
140
0.0625
141
12.0
290
     0
  0
SCALE
  5
257
102
{ACAD_REACTORS
330
241
102
}
330
241
100
AcDbScale
 70
     0
300
3/32" = 1'-0"
140
0.09375
141
12.0
290
     0
  0
SCALE
  5
258
102
{ACAD_REACTORS
330
241
102
}
330
241
100
AcDbScale
 70
     0
300
1/8" = 1'-0"
140
0.125
141
12.0
290
     0
  0
SCALE
  5
259
102
{ACAD_REACTORS
330
241
102
}
330
241
100
AcDbScale
 70
     0
300
3/16" = 1'-0"
140
0.1875
141
12.0
290
     0
  0
SCALE
  5
25A
102
{ACAD_REACTORS
330
241
102
}
330
241
100
AcDbScale
 70
     0
300
1/4" = 1'-0"
140
0.25
141
12.0
290
     0
  0
SCALE
  5
25B
102
{ACAD_REACTORS
330
241
102
}
330
241
100
AcDbScale
 70
     0
300
3/8" = 1'-0"
140
0.375
141
12.0
290
     0
  0
SCALE
  5
25C
102
{ACAD_REACTORS
330
241
102
}
330
241
100
AcDbScale
 70
     0
300
1/2" = 1'-0"
140
0.5
141
12.0
290
     0
  0
SCALE
  5
25D
102
{ACAD_REACTORS
330
241
102
}
330
241
100
AcDbScale
 70
     0
300
3/4" = 1'-0"
140
0.75
141
12.0
290
     0
  0
SCALE
  5
25E
102
{ACAD_REACTORS
330
241
102
}
330
241
100
AcDbScale
 70
     0
300
1" = 1'-0"
140
1.0
141
12.0
290
     0
  0
SCALE
  5
25F
102
{ACAD_REACTORS
330
241
102
}
330
241
100
AcDbScale
 70
     0
300
1-1/2" = 1'-0"
140
1.5
141
12.0
290
     0
  0
SCALE
  5
260
102
{ACAD_REACTORS
330
241
102
}
330
241
100
AcDbScale
 70
     0
300
3" = 1'-0"
140
3.0
141
12.0
290
     0
  0
SCALE
  5
261
102
{ACAD_REACTORS
330
241
102
}
330
241
100
AcDbScale
 70
     0
300
6" = 1'-0"
140
6.0
141
12.0
290
     0
  0
SCALE
  5
262
102
{ACAD_REACTORS
330
241
102
}
330
241
100
AcDbScale
 70
     0
300
1'-0" = 1'-0"
140
12.0
141
12.0
290
     0
  0
TABLESTYLE
  5
279
102
{ACAD_REACTORS
330
278
102
}
102
{ACAD_XDICTIONARY
360
10FF
102
}
330
278
100
AcDbTableStyle
  3
Standard
 70
     0
 71
     0
 40
0.06
 41
0.06
280
     0
281
     0
  7
Standard
140
4.5
170
     2
 62
     0
 63
   257
283
     0
 90
        4
 91
        0
  1

274
    -2
284
     1
 64
     0
275
    -2
285
     1
 65
     0
276
    -2
286
     1
 66
     0
277
    -2
287
     1
 67
     0
278
    -2
288
     1
 68
     0
279
    -2
289
     1
 69
     0
  7
Standard
140
6.0
170
     5
 62
     0
 63
   257
283
     0
 90
        4
 91
        0
  1

274
    -2
284
     1
 64
     0
275
    -2
285
     1
 65
     0
276
    -2
286
     1
 66
     0
277
    -2
287
     1
 67
     0
278
    -2
288
     1
 68
     0
279
    -2
289
     1
 69
     0
  7
Standard
140
4.5
170
     5
 62
     0
 63
   257
283
     0
 90
        4
 91
        0
  1

274
    -2
284
     1
 64
     0
275
    -2
285
     1
 65
     0
276
    -2
286
     1
 66
     0
277
    -2
287
     1
 67
     0
278
    -2
288
     1
 68
     0
279
    -2
289
     1
 69
     0
  0
VISUALSTYLE
  5
26C
102
{ACAD_REACTORS
330
267
102
}
330
267
100
AcDbVisualStyle
  2
2dWireframe
 70
     4
 71
     0
 72
     2
 73
     0
 90
        0
 40
-0.6
 41
-30.0
 62
     5
 63
     7
421
 16777215
 74
     1
 91
        4
 64
     7
 65
   257
 75
     1
175
     1
 42
1.0
 92
        0
 66
   257
 43
1.0
 76
     1
 77
     6
 78
     2
 67
     7
 79
     5
170
     0
171
     0
290
     0
174
     0
 93
        1
 44
0.0
173
     0
291
     0
 45
0.0
  0
VISUALSTYLE
  5
26E
102
{ACAD_REACTORS
330
267
102
}
330
267
100
AcDbVisualStyle
  2
3D Hidden
 70
     6
 71
     1
 72
     2
 73
     2
 90
        0
 40
-0.6
 41
-30.0
 62
     5
 63
     7
421
 16777215
 74
     2
 91
        2
 64
     7
 65
   257
 75
     2
175
     1
 42
40.0
 92
        0
 66
   257
 43
1.0
 76
     1
 77
     6
 78
     2
 67
     7
 79
     3
170
     0
171
     0
290
     0
174
     0
 93
        1
 44
0.0
173
     0
291
     0
 45
0.0
  0
VISUALSTYLE
  5
26D
102
{ACAD_REACTORS
330
267
102
}
330
267
100
AcDbVisualStyle
  2
3dWireframe
 70
     5
 71
     0
 72
     2
 73
     0
 90
        0
 40
-0.6
 41
-30.0
 62
     5
 63
     7
421
 16777215
 74
     1
 91
        4
 64
     7
 65
   257
 75
     1
175
     1
 42
1.0
 92
        0
 66
   257
 43
1.0
 76
     1
 77
     6
 78
     2
 67
     7
 79
     5
170
     0
171
     0
290
     0
174
     0
 93
        1
 44
0.0
173
     0
291
     0
 45
0.0
  0
VISUALSTYLE
  5
26F
102
{ACAD_REACTORS
330
267
102
}
330
267
100
AcDbVisualStyle
  2
Basic
 70
     7
 71
     1
 72
     0
 73
     1
 90
        0
 40
-0.6
 41
-30.0
 62
     5
 63
     7
421
 16777215
 74
     0
 91
        4
 64
     7
 65
   257
 75
     1
175
     1
 42
1.0
 92
        8
 66
     7
 43
1.0
 76
     1
 77
     6
 78
     2
 67
     7
 79
     5
170
     0
171
     0
290
     0
174
     0
 93
        1
 44
0.0
173
     0
291
     1
 45
0.0
  0
VISUALSTYLE
  5
273
102
{ACAD_REACTORS
330
267
102
}
330
267
100
AcDbVisualStyle
  2
Brighten
 70
    12
 71
     2
 72
     2
 73
     0
 90
        0
 40
-0.6
 41
-30.0
 62
     5
 63
     7
421
 16777215
 74
     1
 91
        4
 64
     7
 65
   257
 75
     1
175
     1
 42
1.0
 92
        8
 66
     7
 43
1.0
 76
     1
 77
     6
 78
     2
 67
     7
 79
     5
170
     0
171
     0
290
     0
174
     0
 93
        1
 44
50.0
173
     0
291
     1
 45
0.0
  0
VISUALSTYLE
  5
277
102
{ACAD_REACTORS
330
267
102
}
330
267
100
AcDbVisualStyle
  2
ColorChange
 70
    16
 71
     2
 72
     2
 73
     3
 90
        0
 40
-0.6
 41
-30.0
 62
     5
 63
     8
421
  8421504
 74
     1
 91
        4
 64
     7
 65
   257
 75
     1
175
     1
 42
1.0
 92
        8
 66
     8
424
  8421504
 43
1.0
 76
     1
 77
     6
 78
     2
 67
     7
 79
     5
170
     0
171
     0
290
     0
174
     0
 93
        1
 44
0.0
173
     0
291
     1
 45
0.0
  0
VISUALSTYLE
  5
271
102
{ACAD_REACTORS
330
267
102
}
330
267
100
AcDbVisualStyle
  2
Conceptual
 70
     9
 71
     3
 72
     2
 73
     0
 90
        0
 40
-0.6
 41
-30.0
 62
     5
 63
     7
421
 16777215
 74
     2
 91
        2
 64
     7
 65
   257
 75
     1
175
     1
 42
40.0
 92
        8
 66
     7
 43
1.0
 76
     1
 77
     6
 78
     2
 67
     7
 79
     3
170
     0
171
     0
290
     0
174
     0
 93
        1
 44
0.0
173
     0
291
     0
 45
0.0
  0
VISUALSTYLE
  5
272
102
{ACAD_REACTORS
330
267
102
}
330
267
100
AcDbVisualStyle
  2
Dim
 70
    11
 71
     2
 72
     2
 73
     0
 90
        0
 40
-0.6
 41
-30.0
 62
     5
 63
     7
421
 16777215
 74
     1
 91
        4
 64
     7
 65
   257
 75
     1
175
     1
 42
1.0
 92
        8
 66
     7
 43
1.0
 76
     1
 77
     6
 78
     2
 67
     7
 79
     5
170
     0
171
     0
290
     0
174
     0
 93
        1
 44
-50.0
173
     0
291
     1
 45
0.0
  0
VISUALSTYLE
  5
8FE
102
{ACAD_REACTORS
330
267
102
}
330
267
100
AcDbVisualStyle
  2
EdgeColorOff
 70
    22
 71
     2
 72
     2
 73
     0
 90
        0
 40
0.6
 41
30.0
 62
     5
 63
     7
421
 16777215
 74
     1
 91
        4
 64
     7
 65
   257
 75
     1
175
     1
 42
1.0
 92
        8
 66
     7
 43
1.0
 76
     1
 77
     6
 78
     2
 67
     7
 79
     5
170
     0
171
     0
290
     0
174
     0
 93
        1
 44
0.0
173
     0
291
     1
 45
0.0
  0
VISUALSTYLE
  5
276
102
{ACAD_REACTORS
330
267
102
}
330
267
100
AcDbVisualStyle
  2
Facepattern
 70
    15
 71
     2
 72
     2
 73
     0
 90
        0
 40
-0.6
 41
-30.0
 62
     5
 63
     7
421
 16777215
 74
     1
 91
        4
 64
     7
 65
   257
 75
     1
175
     1
 42
1.0
 92
        8
 66
     7
 43
1.0
 76
     1
 77
     6
 78
     2
 67
     7
 79
     5
170
     0
171
     0
290
     0
174
     0
 93
        1
 44
0.0
173
     0
291
     1
 45
0.0
  0
VISUALSTYLE
  5
268
102
{ACAD_REACTORS
330
267
102
}
330
267
100
AcDbVisualStyle
  2
Flat
 70
     0
 71
     2
 72
     1
 73
     1
 90
        2
 40
-0.6
 41
30.0
 62
     5
 63
     7
421
 16777215
 74
     0
 91
        4
 64
     7
 65
   257
 75
     1
175
     1
 42
1.0
 92
        8
 66
     7
 43
1.0
 76
     1
 77
     6
 78
     2
 67
     7
 79
     5
170
     0
171
     0
290
     0
174
     0
 93
       13
 44
0.0
173
     0
291
     1
 45
0.0
  0
VISUALSTYLE
  5
269
102
{ACAD_REACTORS
330
267
102
}
330
267
100
AcDbVisualStyle
  2
FlatWithEdges
 70
     1
 71
     2
 72
     1
 73
     1
 90
        2
 40
-0.6
 41
30.0
 62
     5
 63
     7
421
 16777215
 74
     1
 91
        4
 64
     7
 65
   257
 75
     1
175
     1
 42
1.0
 92
        0
 66
   257
 43
1.0
 76
     1
 77
     6
 78
     2
 67
     7
 79
     5
170
     0
171
     0
290
     0
174
     0
 93
       13
 44
0.0
173
     0
291
     1
 45
0.0
  0
VISUALSTYLE
  5
26A
102
{ACAD_REACTORS
330
267
102
}
330
267
100
AcDbVisualStyle
  2
Gouraud
 70
     2
 71
     2
 72
     2
 73
     1
 90
        2
 40
-0.6
 41
30.0
 62
     5
 63
     7
421
 16777215
 74
     0
 91
        4
 64
     7
 65
   257
 75
     1
175
     1
 42
1.0
 92
        0
 66
     7
 43
1.0
 76
     1
 77
     6
 78
     2
 67
     7
 79
     5
170
     0
171
     0
290
     0
174
     0
 93
       13
 44
0.0
173
     0
291
     1
 45
0.0
  0
VISUALSTYLE
  5
26B
102
{ACAD_REACTORS
330
267
102
}
330
267
100
AcDbVisualStyle
  2
GouraudWithEdges
 70
     3
 71
     2
 72
     2
 73
     1
 90
        2
 40
-0.6
 41
30.0
 62
     5
 63
     7
421
 16777215
 74
     1
 91
        4
 64
     7
 65
   257
 75
     1
175
     1
 42
1.0
 92
        0
 66
   257
 43
1.0
 76
     1
 77
     6
 78
     2
 67
     7
 79
     5
170
     0
171
     0
290
     0
174
     0
 93
       13
 44
0.0
173
     0
291
     1
 45
0.0
  0
VISUALSTYLE
  5
8FB
102
{ACAD_REACTORS
330
267
102
}
330
267
100
AcDbVisualStyle
  2
Hidden
 70
     6
 71
     1
 72
     2
 73
     2
 90
        0
 40
0.6
 41
30.0
 62
     5
 63
     7
421
 16777215
 74
     2
 91
        2
 64
     7
 65
   257
 75
     2
175
     1
 42
40.0
 92
        0
 66
   257
 43
1.0
 76
     1
 77
     6
 78
     2
 67
     7
 79
     3
170
     0
171
     0
290
     0
174
     0
 93
        1
 44
0.0
173
     0
291
     0
 45
0.0
  0
VISUALSTYLE
  5
8FC
102
{ACAD_REACTORS
330
267
102
}
330
267
100
AcDbVisualStyle
  2
JitterOff
 70
    20
 71
     2
 72
     2
 73
     0
 90
        0
 40
0.6
 41
30.0
 62
     5
 63
     7
421
 16777215
 74
     1
 91
        4
 64
     7
 65
   257
 75
     1
175
     1
 42
1.0
 92
       10
 66
     7
 43
1.0
 76
     1
 77
     6
 78
     2
 67
     7
 79
     5
170
     0
171
     0
290
     0
174
     0
 93
        1
 44
0.0
173
     0
291
     1
 45
0.0
  0
VISUALSTYLE
  5
275
102
{ACAD_REACTORS
330
267
102
}
330
267
100
AcDbVisualStyle
  2
Linepattern
 70
    14
 71
     2
 72
     2
 73
     0
 90
        0
 40
-0.6
 41
-30.0
 62
     5
 63
     7
421
 16777215
 74
     1
 91
        4
 64
     7
 65
   257
 75
     7
175
     7
 42
1.0
 92
        8
 66
     7
 43
1.0
 76
     1
 77
     6
 78
     2
 67
     7
 79
     5
170
     0
171
     0
290
     0
174
     0
 93
        1
 44
0.0
173
     0
291
     1
 45
0.0
  0
VISUALSTYLE
  5
8FD
102
{ACAD_REACTORS
330
267
102
}
330
267
100
AcDbVisualStyle
  2
OverhangOff
 70
    21
 71
     2
 72
     2
 73
     0
 90
        0
 40
0.6
 41
30.0
 62
     5
 63
     7
421
 16777215
 74
     1
 91
        4
 64
     7
 65
   257
 75
     1
175
     1
 42
1.0
 92
        9
 66
     7
 43
1.0
 76
     1
 77
     6
 78
     2
 67
     7
 79
     5
170
     0
171
     0
290
     0
174
     0
 93
        1
 44
0.0
173
     0
291
     1
 45
0.0
  0
VISUALSTYLE
  5
270
102
{ACAD_REACTORS
330
267
102
}
330
267
100
AcDbVisualStyle
  2
Realistic
 70
     8
 71
     2
 72
     2
 73
     0
 90
        0
 40
-0.6
 41
-30.0
 62
     5
 63
     7
421
 16777215
 74
     1
 91
        0
 64
     7
 65
   257
 75
     1
175
     1
 42
1.0
 92
        8
 66
     8
424
  7895160
 43
1.0
 76
     1
 77
     6
 78
     2
 67
     7
 79
     5
170
     0
171
     0
290
     0
174
     0
 93
       13
 44
0.0
173
     0
291
     0
 45
0.0
  0
VISUALSTYLE
  5
903
102
{ACAD_REACTORS
330
267
102
}
330
267
100
AcDbVisualStyle
  2
Shaded
 70
    27
 71
     2
 72
     2
 73
     1
 90
        2
 40
0.6
 41
30.0
 62
     5
 63
     7
421
 16777215
 74
     0
 91
        4
 64
     7
 65
   257
 75
     1
175
     1
 42
1.0
 92
        8
 66
   257
 43
1.0
 76
     1
 77
     6
 78
     2
 67
     8
425
  7895160
 79
     3
170
     0
171
     0
290
     0
174
     0
 93
        5
 44
0.0
173
     0
291
     0
 45
0.0
  0
VISUALSTYLE
  5
902
102
{ACAD_REACTORS
330
267
102
}
330
267
100
AcDbVisualStyle
  2
Shaded with edges
 70
    26
 71
     2
 72
     2
 73
     1
 90
        2
 40
0.6
 41
30.0
 62
     5
 63
     7
421
 16777215
 74
     1
 91
       10
 64
     7
 65
   257
 75
     2
175
     1
 42
1.0
 92
        8
 66
   257
 43
1.0
 76
     1
 77
     6
 78
     2
 67
     7
 79
     3
170
     0
171
     0
290
     0
174
     0
 93
        5
 44
0.0
173
     0
291
     0
 45
0.0
  0
VISUALSTYLE
  5
8FF
102
{ACAD_REACTORS
330
267
102
}
330
267
100
AcDbVisualStyle
  2
Shades of Gray
 70
    23
 71
     2
 72
     2
 73
     3
 90
        0
 40
0.6
 41
30.0
 62
     5
 63
     7
421
 16777215
 74
     2
 91
        2
 64
     7
 65
     7
 75
     1
175
     1
 42
40.0
 92
        8
 66
     7
 43
1.0
 76
     1
 77
     6
 78
     2
 67
     7
 79
     3
170
     0
171
     0
290
     0
174
     0
 93
        1
 44
0.0
173
     0
291
     0
 45
0.0
  0
VISUALSTYLE
  5
900
102
{ACAD_REACTORS
330
267
102
}
330
267
100
AcDbVisualStyle
  2
Sketchy
 70
    24
 71
     1
 72
     2
 73
     2
 90
        0
 40
0.6
 41
30.0
 62
     5
 63
     7
421
 16777215
 74
     2
 91
        2
 64
     7
 65
     7
 75
     1
175
     1
 42
40.0
 92
       11
 66
     7
 43
1.0
 76
     1
 77
     6
 78
     2
 67
     7
 79
     6
170
     0
171
     0
290
     0
174
     0
 93
        1
 44
0.0
173
     0
291
     0
 45
0.0
  0
VISUALSTYLE
  5
274
102
{ACAD_REACTORS
330
267
102
}
330
267
100
AcDbVisualStyle
  2
Thicken
 70
    13
 71
     2
 72
     2
 73
     0
 90
        0
 40
-0.6
 41
-30.0
 62
     5
 63
     7
421
 16777215
 74
     1
 91
        4
 64
     7
 65
   257
 75
     1
175
     1
 42
1.0
 92
       12
 66
     7
 43
1.0
 76
     1
 77
     6
 78
     2
 67
     7
 79
     5
170
     0
171
     0
290
     0
174
     0
 93
        1
 44
0.0
173
     0
291
     1
 45
0.0
  0
VISUALSTYLE
  5
8FA
102
{ACAD_REACTORS
330
267
102
}
330
267
100
AcDbVisualStyle
  2
Wireframe
 70
     5
 71
     0
 72
     2
 73
     0
 90
        0
 40
0.6
 41
30.0
 62
     5
 63
     7
421
 16777215
 74
     1
 91
        4
 64
     7
 65
   257
 75
     1
175
     1
 42
1.0
 92
        0
 66
   257
 43
1.0
 76
     1
 77
     6
 78
     2
 67
     7
 79
     3
170
     0
171
     0
290
     0
174
     0
 93
        1
 44
0.0
173
     0
291
     0
 45
0.0
  0
VISUALSTYLE
  5
901
102
{ACAD_REACTORS
330
267
102
}
330
267
100
AcDbVisualStyle
  2
X-Ray
 70
    25
 71
     2
 72
     2
 73
     1
 90
        1
 40
0.5
 41
30.0
 62
     5
 63
     7
421
 16777215
 74
     1
 91
        0
 64
     7
 65
   257
 75
     1
175
     1
 42
1.0
 92
        8
 66
     7
 43
1.0
 76
     1
 77
     6
 78
     2
 67
     7
 79
     3
170
     0
171
     0
290
     0
174
     0
 93
       13
 44
0.0
173
     0
291
     0
 45
0.0
  0
DICTIONARYVAR
  5
331
102
{ACAD_REACTORS
330
330
102
}
330
330
100
DictionaryVariables
280
     0
  1
1:1
  0
DICTIONARYVAR
  5
D5E
102
{ACAD_REACTORS
330
330
102
}
330
330
100
DictionaryVariables
280
     0
  1
Standard
  0
DICTIONARYVAR
  5
335
102
{ACAD_REACTORS
330
330
102
}
330
330
100
DictionaryVariables
280
     0
  1
Standard
  0
DICTIONARYVAR
  5
D52
102
{ACAD_REACTORS
330
330
102
}
330
330
100
DictionaryVariables
280
     0
  1
ByLayer
  0
DICTIONARYVAR
  5
896
102
{ACAD_REACTORS
330
330
102
}
330
330
100
DictionaryVariables
280
     0
  1
0
  0
XRECORD
  5
7AA
102
{ACAD_REACTORS
330
2E2
102
}
330
2E2
100
AcDbXrecord
280
     1
 91
    34815
301

290
     0
302
HIDDEN
330
14
 90
        8
 62
     7
370
    -3
331
13
  1
Color_7
440
 33554687
330
4B
 90
        8
 62
     7
370
    20
331
13
  1
Color_7
440
 33554687
330
4C
 90
        8
 62
     3
370
    13
331
13
  1
Color_3
440
 33554687
330
4D
 90
        8
 62
     7
370
    20
331
13
  1
Color_7
440
 33554687
330
667
 90
        8
 62
     7
370
    -3
331
13
  1
Color_7
440
 33554687
330
0
 90
        8
 62
     8
370
    20
331
0
  1
Color_8
440
 33554687
330
D6B
 90
        0
 62
     4
370
    20
331
D6C
  1
Color_4
440
 33554687
330
D8C
 90
        0
 62
     7
370
    -3
331
13
  1
Color_7
440
 33554687
  0
DICTIONARY
  5
10FF
330
279
100
AcDbDictionary
280
     1
281
     1
  3
ACAD_ROUNDTRIP_2008_TABLESTYLE_CELLSTYLEMAP
360
1100
  0
CELLSTYLEMAP
  5
1100
102
{ACAD_REACTORS
330
10FF
102
}
330
10FF
100
AcDbCellStyleMap
 90
        3
300
CELLSTYLE
  1
TABLEFORMAT_BEGIN
 90
        5
170
     1
 91
        0
 92
    32768
 62
   257
 93
        1
300
CONTENTFORMAT
  1
CONTENTFORMAT_BEGIN
 90
        0
 91
        0
 92
        4
 93
        0
300

 40
0.0
140
1.0
 94
        5
 62
     0
340
17
144
6.0
309
CONTENTFORMAT_END
171
     1
301
MARGIN
  1
CELLMARGIN_BEGIN
 40
0.06
 40
0.06
 40
0.06
 40
0.06
 40
0.18
 40
0.18
309
CELLMARGIN_END
 94
        6
 95
        1
302
GRIDFORMAT
  1
GRIDFORMAT_BEGIN
 90
        0
 91
        1
 62
     0
 92
       -2
340
0
 93
        0
 40
0.045
309
GRIDFORMAT_END
 95
        2
302
GRIDFORMAT
  1
GRIDFORMAT_BEGIN
 90
        0
 91
        1
 62
     0
 92
       -2
340
0
 93
        0
 40
0.045
309
GRIDFORMAT_END
 95
        4
302
GRIDFORMAT
  1
GRIDFORMAT_BEGIN
 90
        0
 91
        1
 62
     0
 92
       -2
340
0
 93
        0
 40
0.045
309
GRIDFORMAT_END
 95
        8
302
GRIDFORMAT
  1
GRIDFORMAT_BEGIN
 90
        0
 91
        1
 62
     0
 92
       -2
340
0
 93
        0
 40
0.045
309
GRIDFORMAT_END
 95
       16
302
GRIDFORMAT
  1
GRIDFORMAT_BEGIN
 90
        0
 91
        1
 62
     0
 92
       -2
340
0
 93
        0
 40
0.045
309
GRIDFORMAT_END
 95
       32
302
GRIDFORMAT
  1
GRIDFORMAT_BEGIN
 90
        0
 91
        1
 62
     0
 92
       -2
340
0
 93
        0
 40
0.045
309
GRIDFORMAT_END
309
TABLEFORMAT_END
  1
CELLSTYLE_BEGIN
 90
        1
 91
        1
300
_TITLE
309
CELLSTYLE_END
300
CELLSTYLE
  1
TABLEFORMAT_BEGIN
 90
        5
170
     1
 91
        0
 92
        0
 62
   257
 93
        1
300
CONTENTFORMAT
  1
CONTENTFORMAT_BEGIN
 90
        0
 91
        0
 92
        4
 93
        0
300

 40
0.0
140
1.0
 94
        5
 62
     0
340
17
144
4.5
309
CONTENTFORMAT_END
171
     1
301
MARGIN
  1
CELLMARGIN_BEGIN
 40
0.06
 40
0.06
 40
0.06
 40
0.06
 40
0.18
 40
0.18
309
CELLMARGIN_END
 94
        6
 95
        1
302
GRIDFORMAT
  1
GRIDFORMAT_BEGIN
 90
        0
 91
        1
 62
     0
 92
       -2
340
0
 93
        0
 40
0.045
309
GRIDFORMAT_END
 95
        2
302
GRIDFORMAT
  1
GRIDFORMAT_BEGIN
 90
        0
 91
        1
 62
     0
 92
       -2
340
0
 93
        0
 40
0.045
309
GRIDFORMAT_END
 95
        4
302
GRIDFORMAT
  1
GRIDFORMAT_BEGIN
 90
        0
 91
        1
 62
     0
 92
       -2
340
0
 93
        0
 40
0.045
309
GRIDFORMAT_END
 95
        8
302
GRIDFORMAT
  1
GRIDFORMAT_BEGIN
 90
        0
 91
        1
 62
     0
 92
       -2
340
0
 93
        0
 40
0.045
309
GRIDFORMAT_END
 95
       16
302
GRIDFORMAT
  1
GRIDFORMAT_BEGIN
 90
        0
 91
        1
 62
     0
 92
       -2
340
0
 93
        0
 40
0.045
309
GRIDFORMAT_END
 95
       32
302
GRIDFORMAT
  1
GRIDFORMAT_BEGIN
 90
        0
 91
        1
 62
     0
 92
       -2
340
0
 93
        0
 40
0.045
309
GRIDFORMAT_END
309
TABLEFORMAT_END
  1
CELLSTYLE_BEGIN
 90
        2
 91
        1
300
_HEADER
309
CELLSTYLE_END
300
CELLSTYLE
  1
TABLEFORMAT_BEGIN
 90
        5
170
     1
 91
        0
 92
        0
 62
   257
 93
        1
300
CONTENTFORMAT
  1
CONTENTFORMAT_BEGIN
 90
        0
 91
        0
 92
        4
 93
        0
300

 40
0.0
140
1.0
 94
        2
 62
     0
340
17
144
4.5
309
CONTENTFORMAT_END
171
     1
301
MARGIN
  1
CELLMARGIN_BEGIN
 40
0.06
 40
0.06
 40
0.06
 40
0.06
 40
0.18
 40
0.18
309
CELLMARGIN_END
 94
        6
 95
        1
302
GRIDFORMAT
  1
GRIDFORMAT_BEGIN
 90
        0
 91
        1
 62
     0
 92
       -2
340
0
 93
        0
 40
0.045
309
GRIDFORMAT_END
 95
        2
302
GRIDFORMAT
  1
GRIDFORMAT_BEGIN
 90
        0
 91
        1
 62
     0
 92
       -2
340
0
 93
        0
 40
0.045
309
GRIDFORMAT_END
 95
        4
302
GRIDFORMAT
  1
GRIDFORMAT_BEGIN
 90
        0
 91
        1
 62
     0
 92
       -2
340
0
 93
        0
 40
0.045
309
GRIDFORMAT_END
 95
        8
302
GRIDFORMAT
  1
GRIDFORMAT_BEGIN
 90
        0
 91
        1
 62
     0
 92
       -2
340
0
 93
        0
 40
0.045
309
GRIDFORMAT_END
 95
       16
302
GRIDFORMAT
  1
GRIDFORMAT_BEGIN
 90
        0
 91
        1
 62
     0
 92
       -2
340
0
 93
        0
 40
0.045
309
GRIDFORMAT_END
 95
       32
302
GRIDFORMAT
  1
GRIDFORMAT_BEGIN
 90
        0
 91
        1
 62
     0
 92
       -2
340
0
 93
        0
 40
0.045
309
GRIDFORMAT_END
309
TABLEFORMAT_END
  1
CELLSTYLE_BEGIN
 90
        3
 91
        2
300
_DATA
309
CELLSTYLE_END
  0
ENDSEC
  0
EOF
