  0
SECTION
  2
HEADER
  9
$ACADVER
  1
AC1021
  9
$ACADMAINTVER
 70
    25
  9
$DWGCODEPAGE
  3
ANSI_932
  9
$LASTSAVEDBY
  1
howeNelson
  9
$INSBASE
 10
0.0
 20
0.0
 30
0.0
  9
$EXTMIN
 10
0.0
 20
0.0
 30
-0.0000000000000071
  9
$EXTMAX
 10
420.0
 20
594.0
 30
0.0000000000000071
  9
$LIMMIN
 10
0.0
 20
0.0
  9
$LIMMAX
 10
420.0
 20
594.0
  9
$ORTHOMODE
 70
     0
  9
$REGENMODE
 70
     1
  9
$FILLMODE
 70
     1
  9
$QTEXTMODE
 70
     0
  9
$MIRRTEXT
 70
     1
  9
$LTSCALE
 40
1.0
  9
$ATTMODE
 70
     1
  9
$TEXTSIZE
 40
2.5
  9
$TRACEWID
 40
1.0
  9
$TEXTSTYLE
  7
ＭＳ ゴシック
  9
$CLAYER
  8
DIM
  9
$CELTYPE
  6
ByLayer
  9
$CECOLOR
 62
   256
  9
$CELTSCALE
 40
1.0
  9
$DISPSILH
 70
     0
  9
$DIMSCALE
 40
1.0
  9
$DIMASZ
 40
2.0
  9
$DIMEXO
 40
5.0
  9
$DIMDLI
 40
0.9999999999999999
  9
$DIMRND
 40
0.0
  9
$DIMDLE
 40
0.0
  9
$DIMEXE
 40
0.0
  9
$DIMTP
 40
0.0
  9
$DIMTM
 40
0.0
  9
$DIMTXT
 40
5.0
  9
$DIMCEN
 40
0.0
  9
$DIMTSZ
 40
0.0
  9
$DIMTOL
 70
     0
  9
$DIMLIM
 70
     0
  9
$DIMTIH
 70
     0
  9
$DIMTOH
 70
     0
  9
$DIMSE1
 70
     0
  9
$DIMSE2
 70
     0
  9
$DIMTAD
 70
     1
  9
$DIMZIN
 70
    11
  9
$DIMBLK
  1
DOT
  9
$DIMASO
 70
     1
  9
$DIMSHO
 70
     1
  9
$DIMPOST
  1
<>
  9
$DIMAPOST
  1
[]
  9
$DIMALT
 70
     0
  9
$DIMALTD
 70
     1
  9
$DIMALTF
 40
1.0
  9
$DIMLFAC
 40
1.0
  9
$DIMTOFL
 70
     0
  9
$DIMTVP
 40
0.0
  9
$DIMTIX
 70
     1
  9
$DIMSOXD
 70
     0
  9
$DIMSAH
 70
     0
  9
$DIMBLK1
  1

  9
$DIMBLK2
  1

  9
$DIMSTYLE
  2
tfrom線あり
  9
$DIMCLRD
 70
     0
  9
$DIMCLRE
 70
     0
  9
$DIMCLRT
 70
     0
  9
$DIMTFAC
 40
1.0
  9
$DIMGAP
 40
3.0
  9
$DIMJUST
 70
     0
  9
$DIMSD1
 70
     0
  9
$DIMSD2
 70
     0
  9
$DIMTOLJ
 70
     1
  9
$DIMTZIN
 70
    11
  9
$DIMALTZ
 70
    11
  9
$DIMALTTZ
 70
    11
  9
$DIMUPT
 70
     0
  9
$DIMDEC
 70
     0
  9
$DIMTDEC
 70
     1
  9
$DIMALTU
 70
     2
  9
$DIMALTTD
 70
     2
  9
$DIMTXSTY
  7
ＭＳ ゴシック
  9
$DIMAUNIT
 70
     0
  9
$DIMADEC
 70
     2
  9
$DIMALTRND
 40
0.0
  9
$DIMAZIN
 70
     0
  9
$DIMDSEP
 70
    46
  9
$DIMATFIT
 70
     0
  9
$DIMFRAC
 70
     2
  9
$DIMLDRBLK
  1
DOT
  9
$DIMLUNIT
 70
     2
  9
$DIMLWD
 70
    -2
  9
$DIMLWE
 70
    -2
  9
$DIMTMOVE
 70
     0
  9
$DIMFXL
 40
1.0
  9
$DIMFXLON
 70
     0
  9
$DIMJOGANG
 40
0.7853981633974483
  9
$DIMTFILL
 70
     0
  9
$DIMTFILLCLR
 70
     0
  9
$DIMARCSYM
 70
     0
  9
$DIMLTYPE
  6

  9
$DIMLTEX1
  6

  9
$DIMLTEX2
  6

  9
$LUNITS
 70
     2
  9
$LUPREC
 70
     0
  9
$SKETCHINC
 40
0.1
  9
$FILLETRAD
 40
0.0
  9
$AUNITS
 70
     0
  9
$AUPREC
 70
     0
  9
$MENU
  1
acad
  9
$ELEVATION
 40
0.0
  9
$PELEVATION
 40
0.0
  9
$THICKNESS
 40
0.0
  9
$LIMCHECK
 70
     0
  9
$CHAMFERA
 40
0.0
  9
$CHAMFERB
 40
0.0
  9
$CHAMFERC
 40
0.0
  9
$CHAMFERD
 40
0.0
  9
$SKPOLY
 70
     0
  9
$TDCREATE
 40
2447893.375
  9
$TDUCREATE
 40
0.0
  9
$TDUPDATE
 40
2458820.580127975
  9
$TDUUPDATE
 40
2458820.205127975
  9
$TDINDWG
 40
0.0388734144
  9
$TDUSRTIMER
 40
0.0067284028
  9
$USRTIMER
 70
     1
  9
$ANGBASE
 50
0.0
  9
$ANGDIR
 70
     0
  9
$PDMODE
 70
     1
  9
$PDSIZE
 40
-2.0
  9
$PLINEWID
 40
0.0
  9
$SPLFRAME
 70
     0
  9
$SPLINETYPE
 70
     6
  9
$SPLINESEGS
 70
     8
  9
$HANDSEED
  5
56B7
  9
$SURFTAB1
 70
     6
  9
$SURFTAB2
 70
     6
  9
$SURFTYPE
 70
     6
  9
$SURFU
 70
     6
  9
$SURFV
 70
     6
  9
$UCSBASE
  2

  9
$UCSNAME
  2

  9
$UCSORG
 10
0.0
 20
0.0
 30
0.0
  9
$UCSXDIR
 10
1.0
 20
0.0
 30
0.0
  9
$UCSYDIR
 10
0.0
 20
1.0
 30
0.0
  9
$UCSORTHOREF
  2

  9
$UCSORTHOVIEW
 70
     0
  9
$UCSORGTOP
 10
0.0
 20
0.0
 30
0.0
  9
$UCSORGBOTTOM
 10
0.0
 20
0.0
 30
0.0
  9
$UCSORGLEFT
 10
0.0
 20
0.0
 30
0.0
  9
$UCSORGRIGHT
 10
0.0
 20
0.0
 30
0.0
  9
$UCSORGFRONT
 10
0.0
 20
0.0
 30
0.0
  9
$UCSORGBACK
 10
0.0
 20
0.0
 30
0.0
  9
$PUCSBASE
  2

  9
$PUCSNAME
  2

  9
$PUCSORG
 10
0.0
 20
0.0
 30
0.0
  9
$PUCSXDIR
 10
1.0
 20
0.0
 30
0.0
  9
$PUCSYDIR
 10
0.0
 20
1.0
 30
0.0
  9
$PUCSORTHOREF
  2

  9
$PUCSORTHOVIEW
 70
     0
  9
$PUCSORGTOP
 10
0.0
 20
0.0
 30
0.0
  9
$PUCSORGBOTTOM
 10
0.0
 20
0.0
 30
0.0
  9
$PUCSORGLEFT
 10
0.0
 20
0.0
 30
0.0
  9
$PUCSORGRIGHT
 10
0.0
 20
0.0
 30
0.0
  9
$PUCSORGFRONT
 10
0.0
 20
0.0
 30
0.0
  9
$PUCSORGBACK
 10
0.0
 20
0.0
 30
0.0
  9
$USERI1
 70
     0
  9
$USERI2
 70
     0
  9
$USERI3
 70
     0
  9
$USERI4
 70
     0
  9
$USERI5
 70
     0
  9
$USERR1
 40
0.0
  9
$USERR2
 40
0.0
  9
$USERR3
 40
0.0
  9
$USERR4
 40
0.0
  9
$USERR5
 40
0.0
  9
$WORLDVIEW
 70
     1
  9
$SHADEDGE
 70
     3
  9
$SHADEDIF
 70
    70
  9
$TILEMODE
 70
     1
  9
$MAXACTVP
 70
    64
  9
$PINSBASE
 10
0.0
 20
0.0
 30
0.0
  9
$PLIMCHECK
 70
     0
  9
$PEXTMIN
 10
0.0
 20
0.0
 30
0.0
  9
$PEXTMAX
 10
0.0
 20
0.0
 30
0.0
  9
$PLIMMIN
 10
-7.5
 20
-20.0
  9
$PLIMMAX
 10
412.5
 20
277.0
  9
$UNITMODE
 70
     0
  9
$VISRETAIN
 70
     0
  9
$PLINEGEN
 70
     1
  9
$PSLTSCALE
 70
     0
  9
$TREEDEPTH
 70
  3020
  9
$CMLSTYLE
  2
Standard
  9
$CMLJUST
 70
     0
  9
$CMLSCALE
 40
1.0
  9
$PROXYGRAPHICS
 70
     0
  9
$MEASUREMENT
 70
     1
  9
$CELWEIGHT
370
    -1
  9
$ENDCAPS
280
     0
  9
$JOINSTYLE
280
     0
  9
$LWDISPLAY
290
     1
  9
$INSUNITS
 70
     4
  9
$HYPERLINKBASE
  1

  9
$STYLESHEET
  1

  9
$XEDIT
290
     1
  9
$CEPSNTYPE
380
     0
  9
$PSTYLEMODE
290
     1
  9
$FINGERPRINTGUID
  2

  9
$VERSIONGUID
  2

  9
$EXTNAMES
290
     1
  9
$PSVPSCALE
 40
0.0
  9
$OLESTARTUP
290
     0
  9
$SORTENTS
280
   127
  9
$INDEXCTL
280
     0
  9
$HIDETEXT
280
     1
  9
$XCLIPFRAME
290
     0
  9
$HALOGAP
280
     0
  9
$OBSCOLOR
 70
   257
  9
$OBSLTYPE
280
     0
  9
$INTERSECTIONDISPLAY
280
     0
  9
$INTERSECTIONCOLOR
 70
   257
  9
$DIMASSOC
280
     2
  9
$PROJECTNAME
  1

  9
$CAMERADISPLAY
290
     0
  9
$LENSLENGTH
 40
50.0
  9
$CAMERAHEIGHT
 40
0.0
  9
$STEPSPERSEC
 40
2.0
  9
$STEPSIZE
 40
6.0
  9
$3DDWFPREC
 40
2.0
  9
$PSOLWIDTH
 40
0.25
  9
$PSOLHEIGHT
 40
4.0
  9
$LOFTANG1
 40
1.570796326794897
  9
$LOFTANG2
 40
1.570796326794897
  9
$LOFTMAG1
 40
0.0
  9
$LOFTMAG2
 40
0.0
  9
$LOFTPARAM
 70
     7
  9
$LOFTNORMALS
280
     1
  9
$LATITUDE
 40
37.795
  9
$LONGITUDE
 40
-122.394
  9
$NORTHDIRECTION
 40
0.0
  9
$TIMEZONE
 70
 -8000
  9
$LIGHTGLYPHDISPLAY
280
     1
  9
$TILEMODELIGHTSYNCH
280
     1
  9
$SOLIDHIST
280
     1
  9
$SHOWHIST
280
     1
  9
$DWFFRAME
280
     2
  9
$DGNFRAME
280
     2
  9
$REALWORLDSCALE
290
     1
  9
$INTERFERECOLOR
 62
   256
  9
$CSHADOW
280
     0
  9
$SHADOWPLANELOCATION
 40
0.0
  0
ENDSEC
  0
SECTION
  2
CLASSES
  0
CLASS
  1
LWPOLYLINE
  2
AcDbPolyline
  3
ObjectDBX Classes
 90
        0
 91
        1
280
     0
281
     1
  0
CLASS
  1
IMAGE
  2
AcDbRasterImage
  3
ISM
 90
      127
 91
        5
280
     0
281
     1
  0
CLASS
  1
OLE2FRAME
  2
AcDbOle2Frame
  3
ObjectDBX Classes
 90
        0
 91
        1
280
     0
281
     1
  0
CLASS
  1
HATCH
  2
AcDbHatch
  3
ObjectDBX Classes
 90
        0
 91
        1
280
     0
281
     1
  0
CLASS
  1
DICTIONARYVAR
  2
AcDbDictionaryVar
  3
ObjectDBX Classes
 90
        0
 91
        4
280
     0
281
     0
  0
CLASS
  1
RASTERVARIABLES
  2
AcDbRasterVariables
  3
ISM
 90
        0
 91
        4
280
     0
281
     0
  0
CLASS
  1
IMAGEDEF
  2
AcDbRasterImageDef
  3
ISM
 90
        0
 91
        4
280
     0
281
     0
  0
CLASS
  1
IMAGEDEF_REACTOR
  2
AcDbRasterImageDefReactor
  3
ISM
 90
        1
 91
        4
280
     0
281
     0
  0
CLASS
  1
IDBUFFER
  2
AcDbIdBuffer
  3
ObjectDBX Classes
 90
        0
 91
        4
280
     0
281
     0
  0
CLASS
  1
SPATIAL_FILTER
  2
AcDbSpatialFilter
  3
ObjectDBX Classes
 90
        0
 91
        4
280
     0
281
     0
  0
CLASS
  1
XRECORD
  2
AcDbXrecord
  3
ObjectDBX Classes
 90
        0
 91
        1
280
     0
281
     0
  0
CLASS
  1
SORTENTSTABLE
  2
AcDbSortentsTable
  3
ObjectDBX Classes
 90
        0
 91
        4
280
     0
281
     0
  0
CLASS
  1
LAYER_INDEX
  2
AcDbLayerIndex
  3
ObjectDBX Classes
 90
        0
 91
        4
280
     0
281
     0
  0
CLASS
  1
SPATIAL_INDEX
  2
AcDbSpatialIndex
  3
AutoCAD 2000
 90
        0
 91
        4
280
     0
281
     0
  0
CLASS
  1
OBJECT_PTR
  2
CAseDLPNTableRecord
  3
ASE-LPNTableRecord
 90
        1
 91
        4
280
     0
281
     0
  0
CLASS
  1
LAYOUT
  2
AcDbLayout
  3
ObjectDBX Classes
 90
        0
 91
        1
280
     0
281
     0
  0
CLASS
  1
PLOTSETTINGS
  2
AcDbPlotSettings
  3
ObjectDBX Classes
 90
        0
 91
        4
280
     0
281
     0
  0
CLASS
  1
ACDBDICTIONARYWDFLT
  2
AcDbDictionaryWithDefault
  3
ObjectDBX Classes
 90
        0
 91
        4
280
     0
281
     0
  0
CLASS
  1
ACDBPLACEHOLDER
  2
AcDbPlaceHolder
  3
ObjectDBX Classes
 90
        0
 91
        1
280
     0
281
     0
  0
CLASS
  1
SCALE
  2
AcDbScale
  3
ObjectDBX Classes
 90
     1153
 91
        4
280
     0
281
     0
  0
CLASS
  1
MATERIAL
  2
AcDbMaterial
  3
ObjectDBX Classes
 90
     1153
 91
        4
280
     0
281
     0
  0
CLASS
  1
VISUALSTYLE
  2
AcDbVisualStyle
  3
ObjectDBX Classes
 90
     4095
 91
        4
280
     0
281
     0
  0
CLASS
  1
TABLESTYLE
  2
AcDbTableStyle
  3
ObjectDBX Classes
 90
     4095
 91
        4
280
     0
281
     0
  0
CLASS
  1
DIMASSOC
  2
AcDbDimAssoc
  3
"AcDbDimAssoc|Product Desc:     AcDim ARX App For Dimension|Company:          Autodesk, Inc.|WEB Address:      www.autodesk.com"
 90
        0
 91
        4
280
     0
281
     0
  0
CLASS
  1
CELLSTYLEMAP
  2
AcDbCellStyleMap
  3
ObjectDBX Classes
 90
     1152
 91
        4
280
     0
281
     0
  0
CLASS
  1
SUN
  2
AcDbSun
  3
SCENEOE
 90
     1153
 91
        4
280
     0
281
     0
  0
CLASS
  1
MLEADERSTYLE
  2
AcDbMLeaderStyle
  3
ACDB_MLEADERSTYLE_CLASS
 90
     4095
 91
        4
280
     0
281
     0
  0
CLASS
  1
FIELD
  2
AcDbField
  3
ObjectDBX Classes
 90
     1152
 91
        4
280
     0
281
     0
  0
CLASS
  1
FIELDLIST
  2
AcDbFieldList
  3
ObjectDBX Classes
 90
     1152
 91
        4
280
     0
281
     0
  0
ENDSEC
  0
SECTION
  2
TABLES
  0
TABLE
  2
VPORT
  5
7
330
0
100
AcDbSymbolTable
 70
     1
  0
VPORT
  5
15
330
7
100
AcDbSymbolTableRecord
100
AcDbViewportTableRecord
  2
*ACTIVE
 70
     0
 10
0.0
 20
0.0
 11
1.0
 21
1.0
 12
301.0201356709001
 22
223.401285469834
 13
0.0
 23
0.0
 14
1.0
 24
1.0
 15
0.0
 25
0.0
 16
0.0
 26
0.0
 36
1.0
 17
-91.02013567090012
 27
73.59871453016603
 37
-46.86809886248109
 40
605.88
 41
2.310294117647059
 42
50.0
 43
0.0
 44
0.0
 50
0.0
 51
0.0
 71
    16
 72
  2000
 73
     1
 74
     1
 75
     0
 76
     0
 77
     0
 78
     0
281
     0
 65
     1
110
0.0
120
0.0
130
0.0
111
1.0
121
0.0
131
0.0
112
0.0
122
1.0
132
0.0
 79
     0
146
0.0
348
26C
 60
     3
 61
     5
292
     1
282
     1
141
0.0
142
0.0
 63
   256
361
904
  0
ENDTAB
  0
TABLE
  2
LTYPE
  5
4
330
0
100
AcDbSymbolTable
 70
     3
  0
LTYPE
  5
11
330
4
100
AcDbSymbolTableRecord
100
AcDbLinetypeTableRecord
  2
ByBlock
 70
     0
  3

 72
    65
 73
     0
 40
0.0
  0
LTYPE
  5
12
330
4
100
AcDbSymbolTableRecord
100
AcDbLinetypeTableRecord
  2
ByLayer
 70
     0
  3

 72
    65
 73
     0
 40
0.0
  0
LTYPE
  5
13
330
4
100
AcDbSymbolTableRecord
100
AcDbLinetypeTableRecord
  2
Continuous
 70
     0
  3
Solid line
 72
    65
 73
     0
 40
0.0
  0
LTYPE
  5
D6C
330
4
100
AcDbSymbolTableRecord
100
AcDbLinetypeTableRecord
  2
BORDER
 70
     0
  3
Border __  __  . __  __  . __  __  . __  __  . 
 72
    65
 73
     6
 40
44.45
 49
12.7
 74
     0
 49
-6.35
 74
     0
 49
12.7
 74
     0
 49
-6.35
 74
     0
 49
0.0
 74
     0
 49
-6.35
 74
     0
  0
LTYPE
  5
5477
330
4
100
AcDbSymbolTableRecord
100
AcDbLinetypeTableRecord
  2
HIDDEN
 70
     0
  3
Hidden _ _ _ _ _ _ _ _ _ _ _ _ _ _ _ _ _ _ _ _ 
 72
    65
 73
     2
 40
9.524999999999999
 49
6.35
 74
     0
 49
-3.175
 74
     0
  0
ENDTAB
  0
TABLE
  2
LAYER
  5
2
102
{ACAD_XDICTIONARY
360
2E1
102
}
330
0
100
AcDbSymbolTable
 70
     9
  0
LAYER
  5
14
330
2
100
AcDbSymbolTableRecord
100
AcDbLayerTableRecord
  2
0
 70
     0
 62
     7
  6
Continuous
370
    -3
390
1D
347
266
  0
LAYER
  5
4B
330
2
100
AcDbSymbolTableRecord
100
AcDbLayerTableRecord
  2
TEMPLATE
 70
     0
 62
     7
  6
Continuous
370
    20
390
1D
347
266
  0
LAYER
  5
4C
330
2
100
AcDbSymbolTableRecord
100
AcDbLayerTableRecord
  2
DIM
 70
     0
 62
     3
  6
Continuous
370
    13
390
1D
347
266
  0
LAYER
  5
4D
330
2
100
AcDbSymbolTableRecord
100
AcDbLayerTableRecord
  2
MODEL
 70
     0
 62
     7
  6
Continuous
370
    20
390
1D
347
266
  0
LAYER
  5
D6B
330
2
100
AcDbSymbolTableRecord
100
AcDbLayerTableRecord
  2
BORDER
 70
     0
 62
     4
  6
BORDER
290
     0
370
    20
390
1D
347
266
1001
AcAecLayerStandard
1000

1000

  0
LAYER
  5
D8C
330
2
100
AcDbSymbolTableRecord
100
AcDbLayerTableRecord
  2
Defpoints
 70
     0
 62
     7
  6
Continuous
290
     0
370
    -3
390
1D
347
266
  0
LAYER
  5
3653
330
2
100
AcDbSymbolTableRecord
100
AcDbLayerTableRecord
  2
Standard
 70
     0
 62
     7
  6
Continuous
370
    -3
390
1D
347
266
  0
LAYER
  5
4CDA
330
2
100
AcDbSymbolTableRecord
100
AcDbLayerTableRecord
  2
_0-1_
 70
     0
 62
     7
  6
Continuous
370
    -3
390
1D
347
266
  0
LAYER
  5
5476
330
2
100
AcDbSymbolTableRecord
100
AcDbLayerTableRecord
  2
HIDDEN
 70
     0
 62
   252
  6
HIDDEN
370
    20
390
1D
347
266
1001
AcAecLayerStandard
1000

1000

  0
ENDTAB
  0
TABLE
  2
STYLE
  5
3
330
0
100
AcDbSymbolTable
 70
     2
  0
STYLE
  5
17
330
3
100
AcDbSymbolTableRecord
100
AcDbTextStyleTableRecord
  2
Standard
 70
     0
 40
0.0
 41
1.0
 50
0.0
 71
     0
 42
2.5
  3
txt
  4
BIGFONT.SHX
  0
STYLE
  5
39
330
3
100
AcDbSymbolTableRecord
100
AcDbTextStyleTableRecord
  2
ＭＳ ゴシック
 70
     0
 40
0.0
 41
1.0
 50
0.0
 71
     0
 42
2.5
  3
msgothic.ttc
  4
ＭＳ ゴシック
1001
ACAD
1000
ＭＳ ゴシック
1071
        0
  0
ENDTAB
  0
TABLE
  2
VIEW
  5
5
330
0
100
AcDbSymbolTable
 70
     0
  0
ENDTAB
  0
TABLE
  2
UCS
  5
6
330
0
100
AcDbSymbolTable
 70
     0
  0
ENDTAB
  0
TABLE
  2
APPID
  5
8
330
0
100
AcDbSymbolTable
 70
     3
  0
APPID
  5
16
330
8
100
AcDbSymbolTableRecord
100
AcDbRegAppTableRecord
  2
ACAD
 70
     0
  0
APPID
  5
7AC
330
8
100
AcDbSymbolTableRecord
100
AcDbRegAppTableRecord
  2
AcAecLayerStandard
 70
     0
  0
APPID
  5
E29
330
8
100
AcDbSymbolTableRecord
100
AcDbRegAppTableRecord
  2
ACAD_MLEADERVER
 70
     0
  0
ENDTAB
  0
TABLE
  2
DIMSTYLE
  5
9
330
0
100
AcDbSymbolTable
 70
     2
100
AcDbDimStyleTable
  0
DIMSTYLE
105
18
330
9
100
AcDbSymbolTableRecord
100
AcDbDimStyleTableRecord
  2
Standard
 70
     0
178
     0
340
17
  0
DIMSTYLE
105
57
102
{ACAD_REACTORS
330
53C8
330
53D5
330
53E4
330
53F3
330
5402
330
5420
330
542F
330
5559
330
5568
330
557C
330
558C
330
5632
102
}
330
9
100
AcDbSymbolTableRecord
100
AcDbDimStyleTableRecord
  2
tfrom線あり
 70
     0
  3
<>
  4
[]
 41
2.0
 42
5.0
 43
0.9999999999999999
 44
0.0
 73
     0
 74
     0
 77
     1
 78
    11
140
5.0
141
0.0
143
1.0
147
3.0
171
     1
174
     1
178
     0
179
     2
271
     0
272
     1
276
     2
284
    11
285
    11
286
    11
289
     0
340
39
341
4E
342
4E
  0
ENDTAB
  0
TABLE
  2
BLOCK_RECORD
  5
1
330
0
100
AcDbSymbolTable
 70
    22
  0
BLOCK_RECORD
  5
A
102
{ACAD_XDICTIONARY
360
3D3D
102
}
330
1
100
AcDbSymbolTableRecord
100
AcDbBlockTableRecord
  2
*MODEL_SPACE
340
20
 70
     0
280
     1
281
     0
  0
BLOCK_RECORD
  5
B
330
1
100
AcDbSymbolTableRecord
100
AcDbBlockTableRecord
  2
*PAPER_SPACE
340
21
 70
     0
280
     1
281
     0
  0
BLOCK_RECORD
  5
4E
330
1
100
AcDbSymbolTableRecord
100
AcDbBlockTableRecord
  2
_DOT
340
0
102
{BLKREFS
331
4EE1
331
4EE2
331
4EF0
331
4EF1
331
4EFD
331
4EFE
331
4F1D
331
4F1E
331
51F4
331
51F5
331
53CF
331
53D0
331
53DE
331
53DF
331
53ED
331
53EE
331
53FC
331
53FD
331
540B
331
540C
331
541A
331
541B
331
5429
331
542A
331
5438
331
5439
331
5562
331
5563
331
5571
331
5572
331
5585
331
5586
331
5595
331
5596
331
562C
331
562D
331
563B
331
563C
102
}
 70
     0
280
     1
281
     0
  0
BLOCK_RECORD
  5
68D
330
1
100
AcDbSymbolTableRecord
100
AcDbBlockTableRecord
  2
block 2
340
0
102
{BLKREFS
331
68C
331
1343
102
}
 70
     0
280
     1
281
     0
  0
BLOCK_RECORD
  5
4EDB
330
1
100
AcDbSymbolTableRecord
100
AcDbBlockTableRecord
  2
*D2
340
0
 70
     0
280
     1
281
     0
  0
BLOCK_RECORD
  5
4EEA
330
1
100
AcDbSymbolTableRecord
100
AcDbBlockTableRecord
  2
*D3
340
0
 70
     0
280
     1
281
     0
  0
BLOCK_RECORD
  5
4EF7
330
1
100
AcDbSymbolTableRecord
100
AcDbBlockTableRecord
  2
*D4
340
0
 70
     0
280
     1
281
     0
  0
BLOCK_RECORD
  5
4F17
330
1
100
AcDbSymbolTableRecord
100
AcDbBlockTableRecord
  2
*D5
340
0
 70
     0
280
     1
281
     0
  0
BLOCK_RECORD
  5
51EE
330
1
100
AcDbSymbolTableRecord
100
AcDbBlockTableRecord
  2
*D6
340
0
 70
     0
280
     1
281
     0
  0
BLOCK_RECORD
  5
53C9
330
1
100
AcDbSymbolTableRecord
100
AcDbBlockTableRecord
  2
*D7
340
0
 70
     0
280
     1
281
     0
  0
BLOCK_RECORD
  5
53D8
330
1
100
AcDbSymbolTableRecord
100
AcDbBlockTableRecord
  2
*D8
340
0
 70
     0
280
     1
281
     0
  0
BLOCK_RECORD
  5
53E7
330
1
100
AcDbSymbolTableRecord
100
AcDbBlockTableRecord
  2
*D9
340
0
 70
     0
280
     1
281
     0
  0
BLOCK_RECORD
  5
53F6
330
1
100
AcDbSymbolTableRecord
100
AcDbBlockTableRecord
  2
*D10
340
0
 70
     0
280
     1
281
     0
  0
BLOCK_RECORD
  5
5405
330
1
100
AcDbSymbolTableRecord
100
AcDbBlockTableRecord
  2
*D11
340
0
 70
     0
280
     1
281
     0
  0
BLOCK_RECORD
  5
5414
330
1
100
AcDbSymbolTableRecord
100
AcDbBlockTableRecord
  2
*D12
340
0
 70
     0
280
     1
281
     0
  0
BLOCK_RECORD
  5
5423
330
1
100
AcDbSymbolTableRecord
100
AcDbBlockTableRecord
  2
*D13
340
0
 70
     0
280
     1
281
     0
  0
BLOCK_RECORD
  5
5432
330
1
100
AcDbSymbolTableRecord
100
AcDbBlockTableRecord
  2
*D14
340
0
 70
     0
280
     1
281
     0
  0
BLOCK_RECORD
  5
555C
330
1
100
AcDbSymbolTableRecord
100
AcDbBlockTableRecord
  2
*D15
340
0
 70
     0
280
     1
281
     0
  0
BLOCK_RECORD
  5
556B
330
1
100
AcDbSymbolTableRecord
100
AcDbBlockTableRecord
  2
*D16
340
0
 70
     0
280
     1
281
     0
  0
BLOCK_RECORD
  5
557F
330
1
100
AcDbSymbolTableRecord
100
AcDbBlockTableRecord
  2
*D17
340
0
 70
     0
280
     1
281
     0
  0
BLOCK_RECORD
  5
558F
330
1
100
AcDbSymbolTableRecord
100
AcDbBlockTableRecord
  2
*D18
340
0
 70
     0
280
     1
281
     0
  0
BLOCK_RECORD
  5
5625
330
1
100
AcDbSymbolTableRecord
100
AcDbBlockTableRecord
  2
*D19
340
0
 70
     0
280
     1
281
     0
  0
BLOCK_RECORD
  5
5635
330
1
100
AcDbSymbolTableRecord
100
AcDbBlockTableRecord
  2
*D20
340
0
 70
     0
280
     1
281
     0
  0
ENDTAB
  0
ENDSEC
  0
SECTION
  2
BLOCKS
  0
BLOCK
  5
D
330
A
100
AcDbEntity
  8
0
390
1D
100
AcDbBlockBegin
  2
*MODEL_SPACE
 70
     0
 10
0.0
 20
0.0
 30
0.0
  3
*MODEL_SPACE
  1
*MODEL_SPACE
  0
ENDBLK
  5
E
330
A
100
AcDbEntity
  8
0
390
1D
100
AcDbBlockEnd
  0
BLOCK
  5
F
330
B
100
AcDbEntity
 67
     1
  8
0
390
1D
100
AcDbBlockBegin
  2
*PAPER_SPACE
 70
     0
 10
0.0
 20
0.0
 30
0.0
  3
*PAPER_SPACE
  1
*PAPER_SPACE
  0
ENDBLK
  5
10
330
B
100
AcDbEntity
 67
     1
  8
0
390
1D
100
AcDbBlockEnd
  0
BLOCK
  5
51D0
330
4E
100
AcDbEntity
  8
0
390
1D
100
AcDbBlockBegin
  2
_DOT
 70
     0
 10
0.0
 20
0.0
 30
0.0
  3
_DOT
  1
_DOT
  0
POLYLINE
  5
51D2
330
4E
100
AcDbEntity
  8
0
  6
ByBlock
 62
     0
370
    -2
390
1D
100
AcDb2dPolyline
 66
     1
 10
0.0
 20
0.0
 30
0.0
 70
     1
 40
0.5
 41
0.5
  0
VERTEX
  5
51D3
330
51D2
100
AcDbEntity
  8
0
  6
ByBlock
 62
     0
370
    -2
390
1D
100
AcDbVertex
100
AcDb2dVertex
 10
-0.25
 20
0.0
 30
0.0
 42
1.0
  0
VERTEX
  5
51D4
330
51D2
100
AcDbEntity
  8
0
  6
ByBlock
 62
     0
370
    -2
390
1D
100
AcDbVertex
100
AcDb2dVertex
 10
0.25
 20
0.0
 30
0.0
 42
1.0
  0
SEQEND
  5
51D5
330
51D2
100
AcDbEntity
  8
0
390
1D
  0
LINE
  5
51D6
330
4E
100
AcDbEntity
  8
0
  6
ByBlock
 62
     0
370
    -2
390
1D
100
AcDbLine
 10
-0.5
 20
0.0
 30
0.0
 11
-1.0
 21
0.0
 31
0.0
  0
ENDBLK
  5
51D7
330
4E
100
AcDbEntity
  8
0
390
1D
100
AcDbBlockEnd
  0
BLOCK
  5
68E
330
68D
100
AcDbEntity
  8
0
100
AcDbBlockBegin
  2
block 2
 70
     0
 10
0.0
 20
0.0
 30
0.0
  3
block 2
  1
block 2
  0
ENDBLK
  5
6B0
330
68D
100
AcDbEntity
  8
0
100
AcDbBlockEnd
  0
BLOCK
  5
4EDC
330
4EDB
100
AcDbEntity
  8
0
100
AcDbBlockBegin
  2
*D2
 70
     1
 10
0.0
 20
0.0
 30
0.0
  3
*D2
  1

  0
LINE
  5
4EDE
330
4EDB
100
AcDbEntity
  8
DIM
 62
     0
370
    -2
100
AcDbLine
 10
-348.0123864729061
 20
446.7685617946589
 30
0.0
 11
-348.0123864729061
 21
406.9624685840223
 31
0.0
  0
LINE
  5
4EDF
330
4EDB
100
AcDbEntity
  8
DIM
 62
     0
370
    -2
100
AcDbLine
 10
-178.012386472906
 20
446.7685617946591
 30
0.0
 11
-178.012386472906
 21
406.9624685840223
 31
0.0
  0
LINE
  5
4EE0
330
4EDB
100
AcDbEntity
  8
DIM
 62
     0
370
    -2
100
AcDbLine
 10
-346.0123864729061
 20
406.9624685840223
 30
0.0
 11
-180.012386472906
 21
406.9624685840223
 31
0.0
  0
INSERT
  5
4EE1
330
4EDB
100
AcDbEntity
  8
DIM
 62
     0
370
    -2
100
AcDbBlockReference
  2
_DOT
 10
-348.0123864729061
 20
406.9624685840223
 30
0.0
 41
2.0
 42
2.0
 43
2.0
 50
180.0
  0
INSERT
  5
4EE2
330
4EDB
100
AcDbEntity
  8
DIM
 62
     0
370
    -2
100
AcDbBlockReference
  2
_DOT
 10
-178.012386472906
 20
406.9624685840223
 30
0.0
 41
2.0
 42
2.0
 43
2.0
  0
MTEXT
  5
4EE3
330
4EDB
100
AcDbEntity
  8
DIM
 62
     0
100
AcDbMText
 10
-263.0123864729061
 20
412.4624685840223
 30
0.0
 40
5.0
 41
0.0
 46
0.0
 71
     5
 72
     1
  1
\A1;173
  7
ＭＳ ゴシック
 73
     1
 44
1.0
  0
POINT
  5
4EE4
330
4EDB
100
AcDbEntity
  8
Defpoints
 62
     0
100
AcDbPoint
 10
-348.0123864729061
 20
451.7685617946589
 30
0.0
  0
POINT
  5
4EE5
330
4EDB
100
AcDbEntity
  8
Defpoints
 62
     0
100
AcDbPoint
 10
-178.012386472906
 20
451.7685617946591
 30
0.0
  0
POINT
  5
4EE6
330
4EDB
100
AcDbEntity
  8
Defpoints
 62
     0
100
AcDbPoint
 10
-178.012386472906
 20
406.9624685840223
 30
0.0
  0
ENDBLK
  5
4EDD
330
4EDB
100
AcDbEntity
  8
0
100
AcDbBlockEnd
  0
BLOCK
  5
4EEB
330
4EEA
100
AcDbEntity
  8
0
100
AcDbBlockBegin
  2
*D3
 70
     1
 10
0.0
 20
0.0
 30
0.0
  3
*D3
  1

  0
LINE
  5
4EED
330
4EEA
100
AcDbEntity
  8
DIM
 62
     0
370
    -2
100
AcDbLine
 10
-258.0123864729061
 20
350.2453027052249
 30
0.0
 11
-149.6207992250091
 21
350.2453027052249
 31
0.0
  0
LINE
  5
4EEE
330
4EEA
100
AcDbEntity
  8
DIM
 62
     0
370
    -2
100
AcDbLine
 10
-258.0818084736058
 20
154.9776608800388
 30
0.0
 11
-149.6207992250091
 21
154.9776608800388
 31
0.0
  0
LINE
  5
4EEF
330
4EEA
100
AcDbEntity
  8
DIM
 62
     0
370
    -2
100
AcDbLine
 10
-149.6207992250091
 20
348.2453027052249
 30
0.0
 11
-149.6207992250091
 21
156.9776608800388
 31
0.0
  0
INSERT
  5
4EF0
330
4EEA
100
AcDbEntity
  8
DIM
 62
     0
370
    -2
100
AcDbBlockReference
  2
_DOT
 10
-149.6207992250091
 20
350.2453027052249
 30
0.0
 41
2.0
 42
2.0
 43
2.0
 50
90.0
  0
INSERT
  5
4EF1
330
4EEA
100
AcDbEntity
  8
DIM
 62
     0
370
    -2
100
AcDbBlockReference
  2
_DOT
 10
-149.6207992250091
 20
154.9776608800388
 30
0.0
 41
2.0
 42
2.0
 43
2.0
 50
270.0
  0
MTEXT
  5
4EF2
330
4EEA
100
AcDbEntity
  8
DIM
 62
     0
100
AcDbMText
 10
-155.1207992250091
 20
252.6114817926318
 30
0.0
 40
5.0
 41
0.0
 46
0.0
 71
     5
 72
     1
  1
\A1;200
  7
ＭＳ ゴシック
 11
0.0
 21
1.0
 31
0.0
 73
     1
 44
1.0
  0
POINT
  5
4EF3
330
4EEA
100
AcDbEntity
  8
Defpoints
 62
     0
100
AcDbPoint
 10
-263.0123864729061
 20
350.2453027052249
 30
0.0
  0
POINT
  5
4EF4
330
4EEA
100
AcDbEntity
  8
Defpoints
 62
     0
100
AcDbPoint
 10
-263.0818084736058
 20
154.9776608800388
 30
0.0
  0
POINT
  5
4EF5
330
4EEA
100
AcDbEntity
  8
Defpoints
 62
     0
100
AcDbPoint
 10
-149.6207992250091
 20
154.9776608800388
 30
0.0
  0
ENDBLK
  5
4EEC
330
4EEA
100
AcDbEntity
  8
0
100
AcDbBlockEnd
  0
BLOCK
  5
4EF8
330
4EF7
100
AcDbEntity
  8
0
100
AcDbBlockBegin
  2
*D4
 70
     1
 10
0.0
 20
0.0
 30
0.0
  3
*D4
  1

  0
LINE
  5
4EFA
330
4EF7
100
AcDbEntity
  8
DIM
 62
     0
370
    -2
100
AcDbLine
 10
-81.08776190099098
 20
363.200531285523
 30
0.0
 11
-81.08776190099098
 21
375.1241293579447
 31
0.0
  0
LINE
  5
4EFB
330
4EF7
100
AcDbEntity
  8
DIM
 62
     0
370
    -2
100
AcDbLine
 10
-44.0877619009915
 20
354.7453027039001
 30
0.0
 11
-44.0877619009915
 21
375.1241293579447
 31
0.0
  0
LINE
  5
4EFC
330
4EF7
100
AcDbEntity
  8
DIM
 62
     0
370
    -2
100
AcDbLine
 10
-79.08776190099098
 20
375.1241293579447
 30
0.0
 11
-46.0877619009915
 21
375.1241293579447
 31
0.0
  0
INSERT
  5
4EFD
330
4EF7
100
AcDbEntity
  8
DIM
 62
     0
370
    -2
100
AcDbBlockReference
  2
_DOT
 10
-81.08776190099098
 20
375.1241293579447
 30
0.0
 41
2.0
 42
2.0
 43
2.0
 50
180.0
  0
INSERT
  5
4EFE
330
4EF7
100
AcDbEntity
  8
DIM
 62
     0
370
    -2
100
AcDbBlockReference
  2
_DOT
 10
-44.0877619009915
 20
375.1241293579447
 30
0.0
 41
2.0
 42
2.0
 43
2.0
  0
MTEXT
  5
4EFF
330
4EF7
100
AcDbEntity
  8
DIM
 62
     0
100
AcDbMText
 10
-62.58776190099124
 20
380.6241293579447
 30
0.0
 40
5.0
 41
0.0
 46
0.0
 71
     5
 72
     1
  1
\A1;37
  7
ＭＳ ゴシック
 73
     1
 44
1.0
  0
POINT
  5
4F00
330
4EF7
100
AcDbEntity
  8
Defpoints
 62
     0
100
AcDbPoint
 10
-81.08776190099098
 20
358.200531285523
 30
0.0
  0
POINT
  5
4F01
330
4EF7
100
AcDbEntity
  8
Defpoints
 62
     0
100
AcDbPoint
 10
-44.0877619009915
 20
349.7453027039001
 30
0.0
  0
POINT
  5
4F02
330
4EF7
100
AcDbEntity
  8
Defpoints
 62
     0
100
AcDbPoint
 10
-44.0877619009915
 20
375.1241293579447
 30
0.0
  0
ENDBLK
  5
4EF9
330
4EF7
100
AcDbEntity
  8
0
100
AcDbBlockEnd
  0
BLOCK
  5
4F18
330
4F17
100
AcDbEntity
  8
0
100
AcDbBlockBegin
  2
*D5
 70
     1
 10
0.0
 20
0.0
 30
0.0
  3
*D5
  1

  0
LINE
  5
4F1A
330
4F17
100
AcDbEntity
  8
DIM
 62
     0
370
    -2
100
AcDbLine
 10
-175.1158307272525
 20
456.768561794659
 30
0.0
 11
-158.5461644183025
 21
456.768561794659
 31
0.0
  0
LINE
  5
4F1B
330
4F17
100
AcDbEntity
  8
DIM
 62
     0
370
    -2
100
AcDbLine
 10
-175.1158307272524
 20
446.768561794659
 30
0.0
 11
-158.5461644183025
 21
446.768561794659
 31
0.0
  0
LINE
  5
4F1C
330
4F17
100
AcDbEntity
  8
DIM
 62
     0
370
    -2
100
AcDbLine
 10
-158.5461644183025
 20
454.768561794659
 30
0.0
 11
-158.5461644183025
 21
448.768561794659
 31
0.0
  0
INSERT
  5
4F1D
330
4F17
100
AcDbEntity
  8
DIM
 62
     0
370
    -2
100
AcDbBlockReference
  2
_DOT
 10
-158.5461644183025
 20
456.768561794659
 30
0.0
 41
2.0
 42
2.0
 43
2.0
 50
90.0
  0
INSERT
  5
4F1E
330
4F17
100
AcDbEntity
  8
DIM
 62
     0
370
    -2
100
AcDbBlockReference
  2
_DOT
 10
-158.5461644183025
 20
446.768561794659
 30
0.0
 41
2.0
 42
2.0
 43
2.0
 50
270.0
  0
MTEXT
  5
4F1F
330
4F17
100
AcDbEntity
  8
DIM
 62
     0
100
AcDbMText
 10
-164.0461644183025
 20
451.768561794659
 30
0.0
 40
5.0
 41
0.0
 46
0.0
 71
     5
 72
     1
  1
\A1;10
  7
ＭＳ ゴシック
 11
0.0
 21
1.0
 31
0.0
 73
     1
 44
1.0
  0
POINT
  5
4F20
330
4F17
100
AcDbEntity
  8
Defpoints
 62
     0
100
AcDbPoint
 10
-180.1158307272525
 20
456.768561794659
 30
0.0
  0
POINT
  5
4F21
330
4F17
100
AcDbEntity
  8
Defpoints
 62
     0
100
AcDbPoint
 10
-180.1158307272524
 20
446.768561794659
 30
0.0
  0
POINT
  5
4F22
330
4F17
100
AcDbEntity
  8
Defpoints
 62
     0
100
AcDbPoint
 10
-158.5461644183025
 20
446.768561794659
 30
0.0
  0
ENDBLK
  5
4F19
330
4F17
100
AcDbEntity
  8
0
100
AcDbBlockEnd
  0
BLOCK
  5
51EF
330
51EE
100
AcDbEntity
  8
0
100
AcDbBlockBegin
  2
*D6
 70
     1
 10
0.0
 20
0.0
 30
0.0
  3
*D6
  1

  0
LINE
  5
51F1
330
51EE
100
AcDbEntity
  8
DIM
 62
     0
370
    -2
100
AcDbLine
 10
-85.5877619009915
 20
350.245302705225
 30
0.0
 11
-109.8450279427939
 21
350.245302705225
 31
0.0
  0
LINE
  5
51F2
330
51EE
100
AcDbEntity
  8
DIM
 62
     0
370
    -2
100
AcDbLine
 10
-85.5877619009915
 20
285.245302705225
 30
0.0
 11
-109.8450279427939
 21
285.245302705225
 31
0.0
  0
LINE
  5
51F3
330
51EE
100
AcDbEntity
  8
DIM
 62
     0
370
    -2
100
AcDbLine
 10
-109.8450279427939
 20
348.245302705225
 30
0.0
 11
-109.8450279427939
 21
287.245302705225
 31
0.0
  0
INSERT
  5
51F4
330
51EE
100
AcDbEntity
  8
DIM
 62
     0
370
    -2
100
AcDbBlockReference
  2
_DOT
 10
-109.8450279427939
 20
350.245302705225
 30
0.0
 41
2.0
 42
2.0
 43
2.0
 50
90.0
  0
INSERT
  5
51F5
330
51EE
100
AcDbEntity
  8
DIM
 62
     0
370
    -2
100
AcDbBlockReference
  2
_DOT
 10
-109.8450279427939
 20
285.245302705225
 30
0.0
 41
2.0
 42
2.0
 43
2.0
 50
270.0
  0
MTEXT
  5
51F6
330
51EE
100
AcDbEntity
  8
DIM
 62
     0
100
AcDbMText
 10
-115.3450279427939
 20
317.745302705225
 30
0.0
 40
5.0
 41
0.0
 46
0.0
 71
     5
 72
     1
  1
\A1;%%c65
  7
ＭＳ ゴシック
 11
0.0
 21
1.0
 31
0.0
 73
     1
 44
1.0
  0
POINT
  5
51F7
330
51EE
100
AcDbEntity
  8
Defpoints
 62
     0
100
AcDbPoint
 10
-80.5877619009915
 20
350.245302705225
 30
0.0
  0
POINT
  5
51F8
330
51EE
100
AcDbEntity
  8
Defpoints
 62
     0
100
AcDbPoint
 10
-80.5877619009915
 20
285.245302705225
 30
0.0
  0
POINT
  5
51F9
330
51EE
100
AcDbEntity
  8
Defpoints
 62
     0
100
AcDbPoint
 10
-109.8450279427939
 20
285.245302705225
 30
0.0
  0
ENDBLK
  5
51F0
330
51EE
100
AcDbEntity
  8
0
100
AcDbBlockEnd
  0
BLOCK
  5
53CA
330
53C9
100
AcDbEntity
  8
0
100
AcDbBlockBegin
  2
*D7
 70
     1
 10
0.0
 20
0.0
 30
0.0
  3
*D7
  1

  0
LINE
  5
53CC
330
53C9
100
AcDbEntity
  8
DIM
 62
     0
370
    -2
100
AcDbLine
 10
85.69148996121021
 20
498.5734452669432
 30
0.0
 11
45.10315014107068
 21
498.5734452669432
 31
0.0
  0
LINE
  5
53CD
330
53C9
100
AcDbEntity
  8
DIM
 62
     0
370
    -2
100
AcDbLine
 10
85.69148996121021
 20
378.4734454368165
 30
0.0
 11
45.10315014107067
 21
378.4734454368165
 31
0.0
  0
LINE
  5
53CE
330
53C9
100
AcDbEntity
  8
DIM
 62
     0
370
    -2
100
AcDbLine
 10
45.10315014107068
 20
496.5734452669432
 30
0.0
 11
45.10315014107067
 21
380.4734454368165
 31
0.0
  0
INSERT
  5
53CF
330
53C9
100
AcDbEntity
  8
DIM
 62
     0
370
    -2
100
AcDbBlockReference
  2
_DOT
 10
45.10315014107068
 20
498.5734452669432
 30
0.0
 41
2.0
 42
2.0
 43
2.0
 50
90.0
  0
INSERT
  5
53D0
330
53C9
100
AcDbEntity
  8
DIM
 62
     0
370
    -2
100
AcDbBlockReference
  2
_DOT
 10
45.10315014107067
 20
378.4734454368165
 30
0.0
 41
2.0
 42
2.0
 43
2.0
 50
270.0
  0
MTEXT
  5
53D1
330
53C9
100
AcDbEntity
  8
DIM
 62
     0
100
AcDbMText
 10
39.60315014107067
 20
438.5234453518799
 30
0.0
 40
5.0
 41
0.0
 46
0.0
 71
     5
 72
     1
  1
\A1;120
  7
ＭＳ ゴシック
 11
5.916259256995127E-17
 21
1.0
 31
0.0
 73
     1
 44
1.0
  0
POINT
  5
53D2
330
53C9
100
AcDbEntity
  8
Defpoints
 62
     0
100
AcDbPoint
 10
90.69148996121021
 20
498.5734452669432
 30
0.0
  0
POINT
  5
53D3
330
53C9
100
AcDbEntity
  8
Defpoints
 62
     0
100
AcDbPoint
 10
90.69148996121021
 20
378.4734454368165
 30
0.0
  0
POINT
  5
53D4
330
53C9
100
AcDbEntity
  8
Defpoints
 62
     0
100
AcDbPoint
 10
45.10315014107067
 20
378.4734454368165
 30
0.0
  0
ENDBLK
  5
53CB
330
53C9
100
AcDbEntity
  8
0
100
AcDbBlockEnd
  0
BLOCK
  5
53D9
330
53D8
100
AcDbEntity
  8
0
100
AcDbBlockBegin
  2
*D8
 70
     1
 10
0.0
 20
0.0
 30
0.0
  3
*D8
  1

  0
LINE
  5
53DB
330
53D8
100
AcDbEntity
  8
DIM
 62
     0
370
    -2
100
AcDbLine
 10
85.69148897567811
 20
498.5734451096679
 30
0.0
 11
61.82427950439803
 21
498.5734451096679
 31
0.0
  0
LINE
  5
53DC
330
53D8
100
AcDbEntity
  8
DIM
 62
     0
370
    -2
100
AcDbLine
 10
85.69148897567811
 20
398.5734451096679
 30
0.0
 11
61.82427950439802
 21
398.5734451096679
 31
0.0
  0
LINE
  5
53DD
330
53D8
100
AcDbEntity
  8
DIM
 62
     0
370
    -2
100
AcDbLine
 10
61.82427950439803
 20
496.5734451096679
 30
0.0
 11
61.82427950439802
 21
400.5734451096679
 31
0.0
  0
INSERT
  5
53DE
330
53D8
100
AcDbEntity
  8
DIM
 62
     0
370
    -2
100
AcDbBlockReference
  2
_DOT
 10
61.82427950439803
 20
498.5734451096679
 30
0.0
 41
2.0
 42
2.0
 43
2.0
 50
90.0
  0
INSERT
  5
53DF
330
53D8
100
AcDbEntity
  8
DIM
 62
     0
370
    -2
100
AcDbBlockReference
  2
_DOT
 10
61.82427950439802
 20
398.5734451096679
 30
0.0
 41
2.0
 42
2.0
 43
2.0
 50
270.0
  0
MTEXT
  5
53E0
330
53D8
100
AcDbEntity
  8
DIM
 62
     0
100
AcDbMText
 10
56.32427950439802
 20
448.5734451096679
 30
0.0
 40
5.0
 41
0.0
 46
0.0
 71
     5
 72
     1
  1
\A1;100
  7
ＭＳ ゴシック
 11
7.105427357601002E-17
 21
1.0
 31
0.0
 73
     1
 44
1.0
  0
POINT
  5
53E1
330
53D8
100
AcDbEntity
  8
Defpoints
 62
     0
100
AcDbPoint
 10
90.69148897567811
 20
498.5734451096679
 30
0.0
  0
POINT
  5
53E2
330
53D8
100
AcDbEntity
  8
Defpoints
 62
     0
100
AcDbPoint
 10
90.69148897567811
 20
398.5734451096679
 30
0.0
  0
POINT
  5
53E3
330
53D8
100
AcDbEntity
  8
Defpoints
 62
     0
100
AcDbPoint
 10
61.82427950439802
 20
398.5734451096679
 30
0.0
  0
ENDBLK
  5
53DA
330
53D8
100
AcDbEntity
  8
0
100
AcDbBlockEnd
  0
BLOCK
  5
53E8
330
53E7
100
AcDbEntity
  8
0
100
AcDbBlockBegin
  2
*D9
 70
     1
 10
0.0
 20
0.0
 30
0.0
  3
*D9
  1

  0
LINE
  5
53EA
330
53E7
100
AcDbEntity
  8
DIM
 62
     0
370
    -2
100
AcDbLine
 10
90.00303723034722
 20
387.5734451096679
 30
0.0
 11
90.00303723034722
 21
344.0844540746687
 31
0.0
  0
LINE
  5
53EB
330
53E7
100
AcDbEntity
  8
DIM
 62
     0
370
    -2
100
AcDbLine
 10
223.0030372303472
 20
387.5734451096679
 30
0.0
 11
223.0030372303472
 21
344.0844540746687
 31
0.0
  0
LINE
  5
53EC
330
53E7
100
AcDbEntity
  8
DIM
 62
     0
370
    -2
100
AcDbLine
 10
92.00303723034722
 20
344.0844540746687
 30
0.0
 11
221.0030372303472
 21
344.0844540746687
 31
0.0
  0
INSERT
  5
53ED
330
53E7
100
AcDbEntity
  8
DIM
 62
     0
370
    -2
100
AcDbBlockReference
  2
_DOT
 10
90.00303723034722
 20
344.0844540746687
 30
0.0
 41
2.0
 42
2.0
 43
2.0
 50
180.0
  0
INSERT
  5
53EE
330
53E7
100
AcDbEntity
  8
DIM
 62
     0
370
    -2
100
AcDbBlockReference
  2
_DOT
 10
223.0030372303472
 20
344.0844540746687
 30
0.0
 41
2.0
 42
2.0
 43
2.0
  0
MTEXT
  5
53EF
330
53E7
100
AcDbEntity
  8
DIM
 62
     0
100
AcDbMText
 10
156.5030372303472
 20
349.5844540746687
 30
0.0
 40
5.0
 41
0.0
 46
0.0
 71
     5
 72
     1
  1
\A1;133
  7
ＭＳ ゴシック
 73
     1
 44
1.0
  0
POINT
  5
53F0
330
53E7
100
AcDbEntity
  8
Defpoints
 62
     0
100
AcDbPoint
 10
90.00303723034722
 20
392.5734451096679
 30
0.0
  0
POINT
  5
53F1
330
53E7
100
AcDbEntity
  8
Defpoints
 62
     0
100
AcDbPoint
 10
223.0030372303472
 20
392.5734451096679
 30
0.0
  0
POINT
  5
53F2
330
53E7
100
AcDbEntity
  8
Defpoints
 62
     0
100
AcDbPoint
 10
223.0030372303472
 20
344.0844540746687
 30
0.0
  0
ENDBLK
  5
53E9
330
53E7
100
AcDbEntity
  8
0
100
AcDbBlockEnd
  0
BLOCK
  5
53F7
330
53F6
100
AcDbEntity
  8
0
100
AcDbBlockBegin
  2
*D10
 70
     1
 10
0.0
 20
0.0
 30
0.0
  3
*D10
  1

  0
LINE
  5
53F9
330
53F6
100
AcDbEntity
  8
DIM
 62
     0
370
    -2
100
AcDbLine
 10
218.0530372303472
 20
370.690754031148
 30
0.0
 11
218.0530372303472
 21
358.556587508005
 31
0.0
  0
LINE
  5
53FA
330
53F6
100
AcDbEntity
  8
DIM
 62
     0
370
    -2
100
AcDbLine
 10
94.95303723034726
 20
370.690754031148
 30
0.0
 11
94.95303723034726
 21
358.556587508005
 31
0.0
  0
LINE
  5
53FB
330
53F6
100
AcDbEntity
  8
DIM
 62
     0
370
    -2
100
AcDbLine
 10
216.0530372303472
 20
358.556587508005
 30
0.0
 11
96.95303723034726
 21
358.556587508005
 31
0.0
  0
INSERT
  5
53FC
330
53F6
100
AcDbEntity
  8
DIM
 62
     0
370
    -2
100
AcDbBlockReference
  2
_DOT
 10
218.0530372303472
 20
358.556587508005
 30
0.0
 41
2.0
 42
2.0
 43
2.0
  0
INSERT
  5
53FD
330
53F6
100
AcDbEntity
  8
DIM
 62
     0
370
    -2
100
AcDbBlockReference
  2
_DOT
 10
94.95303723034726
 20
358.556587508005
 30
0.0
 41
2.0
 42
2.0
 43
2.0
 50
180.0
  0
MTEXT
  5
53FE
330
53F6
100
AcDbEntity
  8
DIM
 62
     0
100
AcDbMText
 10
156.5030372303472
 20
364.056587508005
 30
0.0
 40
5.0
 41
0.0
 46
0.0
 71
     5
 72
     1
  1
\A1;123
  7
ＭＳ ゴシック
 73
     1
 44
1.0
  0
POINT
  5
53FF
330
53F6
100
AcDbEntity
  8
Defpoints
 62
     0
100
AcDbPoint
 10
218.0530372303472
 20
375.690754031148
 30
0.0
  0
POINT
  5
5400
330
53F6
100
AcDbEntity
  8
Defpoints
 62
     0
100
AcDbPoint
 10
94.95303723034726
 20
375.690754031148
 30
0.0
  0
POINT
  5
5401
330
53F6
100
AcDbEntity
  8
Defpoints
 62
     0
100
AcDbPoint
 10
94.95303723034726
 20
358.556587508005
 30
0.0
  0
ENDBLK
  5
53F8
330
53F6
100
AcDbEntity
  8
0
100
AcDbBlockEnd
  0
BLOCK
  5
5406
330
5405
100
AcDbEntity
  8
0
100
AcDbBlockBegin
  2
*D11
 70
     1
 10
0.0
 20
0.0
 30
0.0
  3
*D11
  1

  0
LINE
  5
5408
330
5405
100
AcDbEntity
  8
DIM
 62
     0
370
    -2
100
AcDbLine
 10
228.1324875841597
 20
398.5734451096679
 30
0.0
 11
243.0648108819862
 21
398.5734451096679
 31
0.0
  0
LINE
  5
5409
330
5405
100
AcDbEntity
  8
DIM
 62
     0
370
    -2
100
AcDbLine
 10
228.1324875841597
 20
426.773445109668
 30
0.0
 11
243.0648108819862
 21
426.773445109668
 31
0.0
  0
LINE
  5
540A
330
5405
100
AcDbEntity
  8
DIM
 62
     0
370
    -2
100
AcDbLine
 10
243.0648108819862
 20
400.5734451096679
 30
0.0
 11
243.0648108819862
 21
424.773445109668
 31
0.0
  0
INSERT
  5
540B
330
5405
100
AcDbEntity
  8
DIM
 62
     0
370
    -2
100
AcDbBlockReference
  2
_DOT
 10
243.0648108819862
 20
398.5734451096679
 30
0.0
 41
2.0
 42
2.0
 43
2.0
 50
270.0
  0
INSERT
  5
540C
330
5405
100
AcDbEntity
  8
DIM
 62
     0
370
    -2
100
AcDbBlockReference
  2
_DOT
 10
243.0648108819862
 20
426.773445109668
 30
0.0
 41
2.0
 42
2.0
 43
2.0
 50
90.0
  0
MTEXT
  5
540D
330
5405
100
AcDbEntity
  8
DIM
 62
     0
100
AcDbMText
 10
237.5648108819862
 20
412.673445109668
 30
0.0
 40
5.0
 41
0.0
 46
0.0
 71
     5
 72
     1
  1
\A1;28
  7
ＭＳ ゴシック
 11
0.0
 21
1.0
 31
0.0
 73
     1
 44
1.0
  0
POINT
  5
540E
330
5405
100
AcDbEntity
  8
Defpoints
 62
     0
100
AcDbPoint
 10
223.1324875841597
 20
398.5734451096679
 30
0.0
  0
POINT
  5
540F
330
5405
100
AcDbEntity
  8
Defpoints
 62
     0
100
AcDbPoint
 10
223.1324875841597
 20
426.773445109668
 30
0.0
  0
POINT
  5
5410
330
5405
100
AcDbEntity
  8
Defpoints
 62
     0
100
AcDbPoint
 10
243.0648108819862
 20
426.773445109668
 30
0.0
  0
ENDBLK
  5
5407
330
5405
100
AcDbEntity
  8
0
100
AcDbBlockEnd
  0
BLOCK
  5
5415
330
5414
100
AcDbEntity
  8
0
100
AcDbBlockBegin
  2
*D12
 70
     1
 10
0.0
 20
0.0
 30
0.0
  3
*D12
  1

  0
LINE
  5
5417
330
5414
100
AcDbEntity
  8
DIM
 62
     0
370
    -2
100
AcDbLine
 10
723.6634799265032
 20
365.4490777464217
 30
0.0
 11
678.6107839530702
 21
365.4490777464217
 31
0.0
  0
LINE
  5
5418
330
5414
100
AcDbEntity
  8
DIM
 62
     0
370
    -2
100
AcDbLine
 10
723.6634799265032
 20
348.0490777464219
 30
0.0
 11
678.6107839530702
 21
348.0490777464219
 31
0.0
  0
LINE
  5
5419
330
5414
100
AcDbEntity
  8
DIM
 62
     0
370
    -2
100
AcDbLine
 10
678.6107839530702
 20
363.4490777464217
 30
0.0
 11
678.6107839530702
 21
350.0490777464219
 31
0.0
  0
INSERT
  5
541A
330
5414
100
AcDbEntity
  8
DIM
 62
     0
370
    -2
100
AcDbBlockReference
  2
_DOT
 10
678.6107839530702
 20
365.4490777464217
 30
0.0
 41
2.0
 42
2.0
 43
2.0
 50
90.0
  0
INSERT
  5
541B
330
5414
100
AcDbEntity
  8
DIM
 62
     0
370
    -2
100
AcDbBlockReference
  2
_DOT
 10
678.6107839530702
 20
348.0490777464219
 30
0.0
 41
2.0
 42
2.0
 43
2.0
 50
270.0
  0
MTEXT
  5
541C
330
5414
100
AcDbEntity
  8
DIM
 62
     0
100
AcDbMText
 10
673.1107839530702
 20
356.7490777464218
 30
0.0
 40
5.0
 41
0.0
 46
0.0
 71
     5
 72
     1
  1
\A1;17
  7
ＭＳ ゴシック
 11
0.0
 21
1.0
 31
0.0
 73
     1
 44
1.0
  0
POINT
  5
541D
330
5414
100
AcDbEntity
  8
Defpoints
 62
     0
100
AcDbPoint
 10
728.6634799265032
 20
365.4490777464217
 30
0.0
  0
POINT
  5
541E
330
5414
100
AcDbEntity
  8
Defpoints
 62
     0
100
AcDbPoint
 10
728.6634799265032
 20
348.0490777464219
 30
0.0
  0
POINT
  5
541F
330
5414
100
AcDbEntity
  8
Defpoints
 62
     0
100
AcDbPoint
 10
678.6107839530702
 20
348.0490777464219
 30
0.0
  0
ENDBLK
  5
5416
330
5414
100
AcDbEntity
  8
0
100
AcDbBlockEnd
  0
BLOCK
  5
5424
330
5423
100
AcDbEntity
  8
0
100
AcDbBlockBegin
  2
*D13
 70
     1
 10
0.0
 20
0.0
 30
0.0
  3
*D13
  1

  0
LINE
  5
5426
330
5423
100
AcDbEntity
  8
DIM
 62
     0
370
    -2
100
AcDbLine
 10
340.4721407259145
 20
496.9724721624703
 30
0.0
 11
340.4721407259145
 21
512.7150809123332
 31
0.0
  0
LINE
  5
5427
330
5423
100
AcDbEntity
  8
DIM
 62
     0
370
    -2
100
AcDbLine
 10
358.6721407259147
 20
498.7336370563266
 30
0.0
 11
358.6721407259147
 21
512.7150809123332
 31
0.0
  0
LINE
  5
5428
330
5423
100
AcDbEntity
  8
DIM
 62
     0
370
    -2
100
AcDbLine
 10
342.4721407259145
 20
512.7150809123332
 30
0.0
 11
356.6721407259147
 21
512.7150809123332
 31
0.0
  0
INSERT
  5
5429
330
5423
100
AcDbEntity
  8
DIM
 62
     0
370
    -2
100
AcDbBlockReference
  2
_DOT
 10
340.4721407259145
 20
512.7150809123332
 30
0.0
 41
2.0
 42
2.0
 43
2.0
 50
180.0
  0
INSERT
  5
542A
330
5423
100
AcDbEntity
  8
DIM
 62
     0
370
    -2
100
AcDbBlockReference
  2
_DOT
 10
358.6721407259147
 20
512.7150809123332
 30
0.0
 41
2.0
 42
2.0
 43
2.0
  0
MTEXT
  5
542B
330
5423
100
AcDbEntity
  8
DIM
 62
     0
100
AcDbMText
 10
349.5721407259146
 20
518.2150809123332
 30
0.0
 40
5.0
 41
0.0
 46
0.0
 71
     5
 72
     1
  1
\A1;18
  7
ＭＳ ゴシック
 73
     1
 44
1.0
  0
POINT
  5
542C
330
5423
100
AcDbEntity
  8
Defpoints
 62
     0
100
AcDbPoint
 10
340.4721407259145
 20
491.9724721624703
 30
0.0
  0
POINT
  5
542D
330
5423
100
AcDbEntity
  8
Defpoints
 62
     0
100
AcDbPoint
 10
358.6721407259147
 20
493.7336370563266
 30
0.0
  0
POINT
  5
542E
330
5423
100
AcDbEntity
  8
Defpoints
 62
     0
100
AcDbPoint
 10
358.6721407259147
 20
512.7150809123332
 30
0.0
  0
ENDBLK
  5
5425
330
5423
100
AcDbEntity
  8
0
100
AcDbBlockEnd
  0
BLOCK
  5
5433
330
5432
100
AcDbEntity
  8
0
100
AcDbBlockBegin
  2
*D14
 70
     1
 10
0.0
 20
0.0
 30
0.0
  3
*D14
  1

  0
LINE
  5
5435
330
5432
100
AcDbEntity
  8
DIM
 62
     0
370
    -2
100
AcDbLine
 10
137.5030372303474
 20
237.8525749046527
 30
0.0
 11
137.5030372303474
 21
291.0986408692997
 31
0.0
  0
LINE
  5
5436
330
5432
100
AcDbEntity
  8
DIM
 62
     0
370
    -2
100
AcDbLine
 10
175.5030372303474
 20
237.8525749046527
 30
0.0
 11
175.5030372303474
 21
291.0986408692997
 31
0.0
  0
LINE
  5
5437
330
5432
100
AcDbEntity
  8
DIM
 62
     0
370
    -2
100
AcDbLine
 10
139.5030372303474
 20
291.0986408692997
 30
0.0
 11
173.5030372303474
 21
291.0986408692997
 31
0.0
  0
INSERT
  5
5438
330
5432
100
AcDbEntity
  8
DIM
 62
     0
370
    -2
100
AcDbBlockReference
  2
_DOT
 10
137.5030372303474
 20
291.0986408692997
 30
0.0
 41
2.0
 42
2.0
 43
2.0
 50
180.0
  0
INSERT
  5
5439
330
5432
100
AcDbEntity
  8
DIM
 62
     0
370
    -2
100
AcDbBlockReference
  2
_DOT
 10
175.5030372303474
 20
291.0986408692997
 30
0.0
 41
2.0
 42
2.0
 43
2.0
  0
MTEXT
  5
543A
330
5432
100
AcDbEntity
  8
DIM
 62
     0
100
AcDbMText
 10
156.5030372303474
 20
296.5986408692997
 30
0.0
 40
5.0
 41
0.0
 46
0.0
 71
     5
 72
     1
  1
\A1;38
  7
ＭＳ ゴシック
 73
     1
 44
1.0
  0
POINT
  5
543B
330
5432
100
AcDbEntity
  8
Defpoints
 62
     0
100
AcDbPoint
 10
137.5030372303474
 20
232.8525749046527
 30
0.0
  0
POINT
  5
543C
330
5432
100
AcDbEntity
  8
Defpoints
 62
     0
100
AcDbPoint
 10
175.5030372303474
 20
232.8525749046527
 30
0.0
  0
POINT
  5
543D
330
5432
100
AcDbEntity
  8
Defpoints
 62
     0
100
AcDbPoint
 10
175.5030372303474
 20
291.0986408692997
 30
0.0
  0
ENDBLK
  5
5434
330
5432
100
AcDbEntity
  8
0
100
AcDbBlockEnd
  0
BLOCK
  5
555D
330
555C
100
AcDbEntity
  8
0
100
AcDbBlockBegin
  2
*D15
 70
     1
 10
0.0
 20
0.0
 30
0.0
  3
*D15
  1

  0
LINE
  5
555F
330
555C
100
AcDbEntity
  8
DIM
 62
     0
370
    -2
100
AcDbLine
 10
318.5721407259143
 20
480.4734451096679
 30
0.0
 11
269.1752528486873
 21
480.4734451096679
 31
0.0
  0
LINE
  5
5560
330
555C
100
AcDbEntity
  8
DIM
 62
     0
370
    -2
100
AcDbLine
 10
318.5721407259143
 20
498.4734451096679
 30
0.0
 11
269.1752528486873
 21
498.4734451096679
 31
0.0
  0
LINE
  5
5561
330
555C
100
AcDbEntity
  8
DIM
 62
     0
370
    -2
100
AcDbLine
 10
269.1752528486873
 20
482.4734451096679
 30
0.0
 11
269.1752528486873
 21
496.4734451096679
 31
0.0
  0
INSERT
  5
5562
330
555C
100
AcDbEntity
  8
DIM
 62
     0
370
    -2
100
AcDbBlockReference
  2
_DOT
 10
269.1752528486873
 20
480.4734451096679
 30
0.0
 41
2.0
 42
2.0
 43
2.0
 50
270.0
  0
INSERT
  5
5563
330
555C
100
AcDbEntity
  8
DIM
 62
     0
370
    -2
100
AcDbBlockReference
  2
_DOT
 10
269.1752528486873
 20
498.4734451096679
 30
0.0
 41
2.0
 42
2.0
 43
2.0
 50
90.0
  0
MTEXT
  5
5564
330
555C
100
AcDbEntity
  8
DIM
 62
     0
100
AcDbMText
 10
263.6752528486873
 20
489.4734451096679
 30
0.0
 40
5.0
 41
0.0
 46
0.0
 71
     5
 72
     1
  1
\A1;18
  7
ＭＳ ゴシック
 11
0.0
 21
1.0
 31
0.0
 73
     1
 44
1.0
  0
POINT
  5
5565
330
555C
100
AcDbEntity
  8
Defpoints
 62
     0
100
AcDbPoint
 10
323.5721407259143
 20
480.4734451096679
 30
0.0
  0
POINT
  5
5566
330
555C
100
AcDbEntity
  8
Defpoints
 62
     0
100
AcDbPoint
 10
323.5721407259143
 20
498.4734451096679
 30
0.0
  0
POINT
  5
5567
330
555C
100
AcDbEntity
  8
Defpoints
 62
     0
100
AcDbPoint
 10
269.1752528486873
 20
498.4734451096679
 30
0.0
  0
ENDBLK
  5
555E
330
555C
100
AcDbEntity
  8
0
100
AcDbBlockEnd
  0
BLOCK
  5
556C
330
556B
100
AcDbEntity
  8
0
100
AcDbBlockBegin
  2
*D16
 70
     1
 10
0.0
 20
0.0
 30
0.0
  3
*D16
  1

  0
LINE
  5
556E
330
556B
100
AcDbEntity
  8
DIM
 62
     0
370
    -2
100
AcDbLine
 10
285.2935138664378
 20
489.4734451096679
 30
0.0
 11
279.9156973853708
 21
489.4734451096679
 31
0.0
  0
LINE
  5
556F
330
556B
100
AcDbEntity
  8
DIM
 62
     0
370
    -2
100
AcDbLine
 10
285.2935138664378
 20
480.4734451096679
 30
0.0
 11
279.9156973853708
 21
480.4734451096679
 31
0.0
  0
LINE
  5
5570
330
556B
100
AcDbEntity
  8
DIM
 62
     0
370
    -2
100
AcDbLine
 10
279.9156973853708
 20
487.4734451096679
 30
0.0
 11
279.9156973853708
 21
482.4734451096679
 31
0.0
  0
INSERT
  5
5571
330
556B
100
AcDbEntity
  8
DIM
 62
     0
370
    -2
100
AcDbBlockReference
  2
_DOT
 10
279.9156973853708
 20
489.4734451096679
 30
0.0
 41
2.0
 42
2.0
 43
2.0
 50
90.0
  0
INSERT
  5
5572
330
556B
100
AcDbEntity
  8
DIM
 62
     0
370
    -2
100
AcDbBlockReference
  2
_DOT
 10
279.9156973853708
 20
480.4734451096679
 30
0.0
 41
2.0
 42
2.0
 43
2.0
 50
270.0
  0
MTEXT
  5
5573
330
556B
100
AcDbEntity
  8
DIM
 62
     0
100
AcDbMText
 10
274.4156973853708
 20
484.9734451096679
 30
0.0
 40
5.0
 41
0.0
 46
0.0
 71
     5
 72
     1
  1
\A1;9
  7
ＭＳ ゴシック
 11
0.0
 21
1.0
 31
0.0
 73
     1
 44
1.0
  0
POINT
  5
5574
330
556B
100
AcDbEntity
  8
Defpoints
 62
     0
100
AcDbPoint
 10
290.2935138664378
 20
489.4734451096679
 30
0.0
  0
POINT
  5
5575
330
556B
100
AcDbEntity
  8
Defpoints
 62
     0
100
AcDbPoint
 10
290.2935138664378
 20
480.4734451096679
 30
0.0
  0
POINT
  5
5576
330
556B
100
AcDbEntity
  8
Defpoints
 62
     0
100
AcDbPoint
 10
279.9156973853708
 20
480.4734451096679
 30
0.0
  0
ENDBLK
  5
556D
330
556B
100
AcDbEntity
  8
0
100
AcDbBlockEnd
  0
BLOCK
  5
5580
330
557F
100
AcDbEntity
  8
0
100
AcDbBlockBegin
  2
*D17
 70
     1
 10
0.0
 20
0.0
 30
0.0
  3
*D17
  1

  0
LINE
  5
5582
330
557F
100
AcDbEntity
  8
DIM
 62
     0
370
    -2
100
AcDbLine
 10
323.5721407259143
 20
475.4734451096679
 30
0.0
 11
323.5721407259143
 21
461.1069538738888
 31
0.0
  0
LINE
  5
5583
330
557F
100
AcDbEntity
  8
DIM
 62
     0
370
    -2
100
AcDbLine
 10
333.5721407259143
 20
475.4734451096679
 30
0.0
 11
333.5721407259143
 21
461.1069538738888
 31
0.0
  0
LINE
  5
5584
330
557F
100
AcDbEntity
  8
DIM
 62
     0
370
    -2
100
AcDbLine
 10
325.5721407259143
 20
461.1069538738888
 30
0.0
 11
331.5721407259143
 21
461.1069538738888
 31
0.0
  0
INSERT
  5
5585
330
557F
100
AcDbEntity
  8
DIM
 62
     0
370
    -2
100
AcDbBlockReference
  2
_DOT
 10
323.5721407259143
 20
461.1069538738888
 30
0.0
 41
2.0
 42
2.0
 43
2.0
 50
180.0
  0
INSERT
  5
5586
330
557F
100
AcDbEntity
  8
DIM
 62
     0
370
    -2
100
AcDbBlockReference
  2
_DOT
 10
333.5721407259143
 20
461.1069538738888
 30
0.0
 41
2.0
 42
2.0
 43
2.0
  0
MTEXT
  5
5587
330
557F
100
AcDbEntity
  8
DIM
 62
     0
100
AcDbMText
 10
328.5721407259143
 20
466.6069538738888
 30
0.0
 40
5.0
 41
0.0
 46
0.0
 71
     5
 72
     1
  1
\A1;10
  7
ＭＳ ゴシック
 73
     1
 44
1.0
  0
POINT
  5
5588
330
557F
100
AcDbEntity
  8
Defpoints
 62
     0
100
AcDbPoint
 10
323.5721407259143
 20
480.4734451096679
 30
0.0
  0
POINT
  5
5589
330
557F
100
AcDbEntity
  8
Defpoints
 62
     0
100
AcDbPoint
 10
333.5721407259143
 20
480.4734451096679
 30
0.0
  0
POINT
  5
558A
330
557F
100
AcDbEntity
  8
Defpoints
 62
     0
100
AcDbPoint
 10
333.5721407259143
 20
461.1069538738888
 30
0.0
  0
ENDBLK
  5
5581
330
557F
100
AcDbEntity
  8
0
100
AcDbBlockEnd
  0
BLOCK
  5
5590
330
558F
100
AcDbEntity
  8
0
100
AcDbBlockBegin
  2
*D18
 70
     1
 10
0.0
 20
0.0
 30
0.0
  3
*D18
  1

  0
LINE
  5
5592
330
558F
100
AcDbEntity
  8
DIM
 62
     0
370
    -2
100
AcDbLine
 10
323.5721407259143
 20
470.4734451096679
 30
0.0
 11
323.5721407259143
 21
461.1069538738888
 31
0.0
  0
LINE
  5
5593
330
558F
100
AcDbEntity
  8
DIM
 62
     0
370
    -2
100
AcDbLine
 10
289.5721407259143
 20
483.2661716991727
 30
0.0
 11
289.5721407259143
 21
461.1069538738888
 31
0.0
  0
LINE
  5
5594
330
558F
100
AcDbEntity
  8
DIM
 62
     0
370
    -2
100
AcDbLine
 10
321.5721407259143
 20
461.1069538738888
 30
0.0
 11
291.5721407259143
 21
461.1069538738888
 31
0.0
  0
INSERT
  5
5595
330
558F
100
AcDbEntity
  8
DIM
 62
     0
370
    -2
100
AcDbBlockReference
  2
_DOT
 10
323.5721407259143
 20
461.1069538738888
 30
0.0
 41
2.0
 42
2.0
 43
2.0
  0
INSERT
  5
5596
330
558F
100
AcDbEntity
  8
DIM
 62
     0
370
    -2
100
AcDbBlockReference
  2
_DOT
 10
289.5721407259143
 20
461.1069538738888
 30
0.0
 41
2.0
 42
2.0
 43
2.0
 50
180.0
  0
MTEXT
  5
5597
330
558F
100
AcDbEntity
  8
DIM
 62
     0
100
AcDbMText
 10
306.5721407259143
 20
466.6069538738888
 30
0.0
 40
5.0
 41
0.0
 46
0.0
 71
     5
 72
     1
  1
\A1;34
  7
ＭＳ ゴシック
 73
     1
 44
1.0
  0
POINT
  5
5598
330
558F
100
AcDbEntity
  8
Defpoints
 62
     0
100
AcDbPoint
 10
323.5721407259143
 20
475.4734451096679
 30
0.0
  0
POINT
  5
5599
330
558F
100
AcDbEntity
  8
Defpoints
 62
     0
100
AcDbPoint
 10
289.5721407259143
 20
488.2661716991727
 30
0.0
  0
POINT
  5
559A
330
558F
100
AcDbEntity
  8
Defpoints
 62
     0
100
AcDbPoint
 10
289.5721407259143
 20
461.1069538738888
 30
0.0
  0
ENDBLK
  5
5591
330
558F
100
AcDbEntity
  8
0
100
AcDbBlockEnd
  0
BLOCK
  5
5626
330
5625
100
AcDbEntity
  8
0
100
AcDbBlockBegin
  2
*D19
 70
     1
 10
0.0
 20
0.0
 30
0.0
  3
*D19
  1

  0
LINE
  5
5628
330
5625
100
AcDbEntity
  8
DIM
 62
     0
370
    -2
100
AcDbLine
 10
584.8965890500891
 20
129.7575496549063
 30
0.0
 11
621.9776199431094
 21
129.7575496549063
 31
0.0
  0
LINE
  5
5629
330
5625
100
AcDbEntity
  8
DIM
 62
     0
370
    -2
100
AcDbLine
 10
584.8965890500892
 20
139.7575496549063
 30
0.0
 11
621.9776199431094
 21
139.7575496549063
 31
0.0
  0
LINE
  5
562A
330
5625
100
AcDbEntity
  8
DIM
 62
     0
370
    -2
100
AcDbLine
 10
621.9776199431094
 20
127.7575496549063
 30
0.0
 11
621.9776199431094
 21
125.7575496549063
 31
0.0
  0
LINE
  5
562B
330
5625
100
AcDbEntity
  8
DIM
 62
     0
370
    -2
100
AcDbLine
 10
621.9776199431094
 20
141.7575496549063
 30
0.0
 11
621.9776199431094
 21
143.7575496549063
 31
0.0
  0
INSERT
  5
562C
330
5625
100
AcDbEntity
  8
DIM
 62
     0
370
    -2
100
AcDbBlockReference
  2
_DOT
 10
621.9776199431094
 20
129.7575496549063
 30
0.0
 41
2.0
 42
2.0
 43
2.0
 50
90.0
  0
INSERT
  5
562D
330
5625
100
AcDbEntity
  8
DIM
 62
     0
370
    -2
100
AcDbBlockReference
  2
_DOT
 10
621.9776199431094
 20
139.7575496549063
 30
0.0
 41
2.0
 42
2.0
 43
2.0
 50
270.0
  0
MTEXT
  5
562E
330
5625
100
AcDbEntity
  8
DIM
 62
     0
100
AcDbMText
 10
616.4776199431094
 20
134.7575496549063
 30
0.0
 40
5.0
 41
0.0
 46
0.0
 71
     5
 72
     1
  1
\A1;10
  7
ＭＳ ゴシック
 11
0.0
 21
1.0
 31
0.0
 73
     1
 44
1.0
  0
POINT
  5
562F
330
5625
100
AcDbEntity
  8
Defpoints
 62
     0
100
AcDbPoint
 10
579.8965890500891
 20
129.7575496549063
 30
0.0
  0
POINT
  5
5630
330
5625
100
AcDbEntity
  8
Defpoints
 62
     0
100
AcDbPoint
 10
579.8965890500892
 20
139.7575496549063
 30
0.0
  0
POINT
  5
5631
330
5625
100
AcDbEntity
  8
Defpoints
 62
     0
100
AcDbPoint
 10
621.9776199431094
 20
139.7575496549063
 30
0.0
  0
ENDBLK
  5
5627
330
5625
100
AcDbEntity
  8
0
100
AcDbBlockEnd
  0
BLOCK
  5
5636
330
5635
100
AcDbEntity
  8
0
100
AcDbBlockBegin
  2
*D20
 70
     1
 10
0.0
 20
0.0
 30
0.0
  3
*D20
  1

  0
LINE
  5
5638
330
5635
100
AcDbEntity
  8
DIM
 62
     0
370
    -2
100
AcDbLine
 10
146.0247714789645
 20
272.4447982656884
 30
0.0
 11
146.0247714789645
 21
279.9445965415433
 31
0.0
  0
LINE
  5
5639
330
5635
100
AcDbEntity
  8
DIM
 62
     0
370
    -2
100
AcDbLine
 10
167.0247714789642
 20
272.4447982656884
 30
0.0
 11
167.0247714789642
 21
279.9445965415433
 31
0.0
  0
LINE
  5
563A
330
5635
100
AcDbEntity
  8
DIM
 62
     0
370
    -2
100
AcDbLine
 10
148.0247714789645
 20
279.9445965415433
 30
0.0
 11
165.0247714789642
 21
279.9445965415433
 31
0.0
  0
INSERT
  5
563B
330
5635
100
AcDbEntity
  8
DIM
 62
     0
370
    -2
100
AcDbBlockReference
  2
_DOT
 10
146.0247714789645
 20
279.9445965415433
 30
0.0
 41
2.0
 42
2.0
 43
2.0
 50
180.0
  0
INSERT
  5
563C
330
5635
100
AcDbEntity
  8
DIM
 62
     0
370
    -2
100
AcDbBlockReference
  2
_DOT
 10
167.0247714789642
 20
279.9445965415433
 30
0.0
 41
2.0
 42
2.0
 43
2.0
  0
MTEXT
  5
563D
330
5635
100
AcDbEntity
  8
DIM
 62
     0
100
AcDbMText
 10
156.5247714789643
 20
285.4445965415433
 30
0.0
 40
5.0
 41
0.0
 46
0.0
 71
     5
 72
     1
  1
\A1;21
  7
ＭＳ ゴシック
 73
     1
 44
1.0
  0
POINT
  5
563E
330
5635
100
AcDbEntity
  8
Defpoints
 62
     0
100
AcDbPoint
 10
146.0247714789645
 20
267.4447982656884
 30
0.0
  0
POINT
  5
563F
330
5635
100
AcDbEntity
  8
Defpoints
 62
     0
100
AcDbPoint
 10
167.0247714789642
 20
267.4447982656884
 30
0.0
  0
POINT
  5
5640
330
5635
100
AcDbEntity
  8
Defpoints
 62
     0
100
AcDbPoint
 10
167.0247714789642
 20
279.9445965415433
 30
0.0
  0
ENDBLK
  5
5637
330
5635
100
AcDbEntity
  8
0
100
AcDbBlockEnd
  0
ENDSEC
  0
SECTION
  2
ENTITIES
  0
MTEXT
  5
177
330
A
100
AcDbEntity
  8
TEMPLATE
390
1D
100
AcDbMText
 10
15.84042890954615
 20
68.74635032628565
 30
0.0
 40
3.257682291666665
 41
0.0
 46
0.0
 71
     1
 72
     1
  1
品名
  7
ＭＳ ゴシック
 73
     1
 44
0.7828267384257843
  0
MTEXT
  5
178
330
A
100
AcDbEntity
  8
TEMPLATE
390
1D
100
AcDbMText
 10
15.84042890954615
 20
51.7463503262856
 30
0.0
 40
3.257682291666665
 41
0.0
 46
0.0
 71
     1
 72
     1
  1
仕様
  7
ＭＳ ゴシック
 73
     1
 44
0.7828267384257843
  0
LINE
  5
179
330
A
100
AcDbEntity
  8
TEMPLATE
390
1D
100
AcDbLine
 10
404.4404289094496
 20
53.42933470128568
 30
0.0
 11
14.44042890944975
 21
53.42933470128568
 31
0.0
  0
LWPOLYLINE
  5
17A
330
A
100
AcDbEntity
  8
TEMPLATE
390
1D
100
AcDbPolyline
 90
        5
 70
   128
 43
0.0
 10
404.4404289094496
 20
579.4293347012853
 10
14.44042890944975
 20
579.4293347012853
 10
14.44042890944975
 20
19.42933470128565
 10
404.4404289094496
 20
19.42933470128565
 10
404.4404289094496
 20
579.4293347012853
  0
LINE
  5
17B
330
A
100
AcDbEntity
  8
TEMPLATE
390
1D
100
AcDbLine
 10
404.4404289094496
 20
70.42933470128564
 30
0.0
 11
14.44042890944975
 21
70.42933470128564
 31
0.0
  0
LINE
  5
17C
330
A
100
AcDbEntity
  8
TEMPLATE
390
1D
100
AcDbLine
 10
404.4404289095464
 20
36.42933470128565
 30
0.0
 11
253.840428909546
 21
36.42933470128565
 31
0.0
  0
MTEXT
  5
17E
330
A
100
AcDbEntity
  8
TEMPLATE
390
1D
100
AcDbMText
 10
259.8147101599982
 20
30.44725580662403
 30
0.0
 40
4.8865234375
 41
0.0
 46
0.0
 71
     1
 72
     1
  1
大洋金物株式会社 ティーフォルム事業部
  7
ＭＳ ゴシック
 73
     1
 44
0.7828267384257843
  0
MTEXT
  5
180
330
A
100
AcDbEntity
  8
TEMPLATE
390
1D
100
AcDbMText
 10
366.240428909598
 20
46.02985813878564
 30
0.0
 40
4.8865234375
 41
0.0
 46
4.8865234375
 71
     1
 72
     1
  1
{1:2}
  7
ＭＳ ゴシック
 73
     1
 44
0.7828267384257843
1001
ACAD
1000
ACAD_MTEXT_DEFINED_HEIGHT_BEGIN
1070
    46
1040
4.8865234375
1000
ACAD_MTEXT_DEFINED_HEIGHT_END
  0
MTEXT
  5
181
330
A
100
AcDbEntity
  8
TEMPLATE
390
1D
100
AcDbMText
 10
355.640428909598
 20
51.7463503262856
 30
0.0
 40
3.257682291666665
 41
0.0
 46
0.0
 71
     1
 72
     1
  1
縮尺
  7
ＭＳ ゴシック
 73
     1
 44
0.7828267384257843
  0
LINE
  5
182
330
A
100
AcDbEntity
  8
TEMPLATE
390
1D
100
AcDbLine
 10
354.240428909598
 20
36.42933470128565
 30
0.0
 11
354.240428909598
 21
53.42933470128568
 31
0.0
  0
MTEXT
  5
183
330
A
100
AcDbEntity
  8
TEMPLATE
390
1D
100
AcDbMText
 10
305.440428909598
 20
51.7463503262856
 30
0.0
 40
3.257682291666665
 41
0.0
 46
0.0
 71
     1
 72
     1
  1
容量
  7
ＭＳ ゴシック
 73
     1
 44
0.7828267384257843
  0
LINE
  5
184
330
A
100
AcDbEntity
  8
TEMPLATE
390
1D
100
AcDbLine
 10
304.040428909598
 20
36.42933470128565
 30
0.0
 11
304.040428909598
 21
53.42933470128568
 31
0.0
  0
MTEXT
  5
185
330
A
100
AcDbEntity
  8
TEMPLATE
390
1D
100
AcDbMText
 10
255.240428909598
 20
68.74635032628565
 30
0.0
 40
3.257682291666665
 41
0.0
 46
0.0
 71
     1
 72
     1
  1
品番
  7
ＭＳ ゴシック
 73
     1
 44
0.7828267384257843
  0
MTEXT
  5
186
330
A
100
AcDbEntity
  8
TEMPLATE
390
1D
100
AcDbMText
 10
255.240428909598
 20
51.7463503262856
 30
0.0
 40
3.257682291666665
 41
0.0
 46
0.0
 71
     1
 72
     1
  1
重量
  7
ＭＳ ゴシック
 73
     1
 44
0.7828267384257843
  0
MTEXT
  5
187
330
A
100
AcDbEntity
  8
TEMPLATE
390
1D
100
AcDbMText
 10
265.840428909598
 20
63.02985813878564
 30
0.0
 40
4.8865234375
 41
0.0
 46
4.8865234375
 71
     1
 72
     1
  1
{FRF74-1705}
  7
ＭＳ ゴシック
 73
     1
 44
0.7828267384257843
1001
ACAD
1000
ACAD_MTEXT_DEFINED_HEIGHT_BEGIN
1070
    46
1040
4.8865234375
1000
ACAD_MTEXT_DEFINED_HEIGHT_END
  0
LINE
  5
188
330
A
100
AcDbEntity
  8
TEMPLATE
390
1D
100
AcDbLine
 10
253.840428909598
 20
19.42933470128565
 30
0.0
 11
253.840428909598
 21
70.42933470128564
 31
0.0
  0
MTEXT
  5
189
330
A
100
AcDbEntity
  8
TEMPLATE
390
1D
100
AcDbMText
 10
26.44042890954615
 20
63.02985813878564
 30
0.0
 40
4.8865234375
 41
0.0
 46
5.3311970703125
 71
     1
 72
     1
  1
{ペーパーホルダー　-LANGBERGER-}
  7
ＭＳ ゴシック
 73
     1
 44
0.7828267384257843
1001
ACAD
1000
ACAD_MTEXT_DEFINED_HEIGHT_BEGIN
1070
    46
1040
5.3311970703125
1000
ACAD_MTEXT_DEFINED_HEIGHT_END
  0
INSERT
  5
68C
330
A
100
AcDbEntity
  8
TEMPLATE
100
AcDbBlockReference
  2
block 2
 10
367.7097207081031
 20
3.349230605734547
 30
0.0
 41
0.1524
 42
0.1524
 43
0.1524
  0
LWPOLYLINE
  5
D69
330
A
100
AcDbEntity
  8
BORDER
100
AcDbPolyline
 90
        4
 70
     1
 43
0.0
 10
0.0
 20
0.0
 10
0.0
 20
594.0
 10
420.0
 20
594.0
 10
420.0
 20
0.0
  0
INSERT
  5
1343
330
A
100
AcDbEntity
  8
TEMPLATE
100
AcDbBlockReference
  2
block 2
 10
838.6973883465873
 20
9.774128564918277
 30
0.0
 41
0.1524
 42
0.1524
 43
0.1524
  0
HATCH
  5
3C64
102
{ACAD_REACTORS
330
3C75
102
}
330
A
100
AcDbEntity
  8
TEMPLATE
100
AcDbHatch
 10
0.0
 20
0.0
 30
0.0
210
0.0
220
0.0
230
1.0
  2
SOLID
 70
     1
 71
     1
 91
        6
 92
        1
 93
        8
 72
     1
 10
386.9584116981973
 20
30.78695932253559
 11
386.9584116981973
 21
29.60507779640349
 72
     1
 10
386.9584116981973
 20
29.60507779640349
 11
385.086293388135
 21
29.60507779640349
 72
     1
 10
385.086293388135
 20
29.60507779640349
 11
385.086293388135
 21
24.78695932282479
 72
     1
 10
385.086293388135
 20
24.78695932282479
 11
383.4397707574798
 21
24.78695932282479
 72
     1
 10
383.4397707574798
 20
24.78695932282479
 11
383.4397707574798
 21
29.60507779640349
 72
     1
 10
383.4397707574798
 20
29.60507779640349
 11
381.6008304705712
 21
29.60507779640349
 72
     1
 10
381.6008304705712
 20
29.60507779640349
 11
381.6008304705712
 21
30.78695932253559
 72
     1
 10
381.6008304705712
 20
30.78695932253559
 11
386.9584116981973
 21
30.78695932253559
 97
        1
330
3C65
 92
        1
 93
        1
 72
     4
 94
        3
 73
     0
 74
     1
 95
       56
 96
       52
 40
0.0
 40
0.0
 40
0.0
 40
0.0
 40
1.0
 40
1.0
 40
1.0
 40
2.0
 40
2.0
 40
2.0
 40
3.0
 40
3.0
 40
3.0
 40
4.0
 40
4.0
 40
4.0
 40
5.0
 40
5.0
 40
5.0
 40
6.0
 40
6.0
 40
6.0
 40
7.0
 40
7.0
 40
7.0
 40
8.0
 40
8.0
 40
8.0
 40
9.0
 40
9.0
 40
9.0
 40
10.0
 40
10.0
 40
10.0
 40
11.0
 40
11.0
 40
11.0
 40
12.0
 40
12.0
 40
12.0
 40
13.0
 40
13.0
 40
13.0
 40
14.0
 40
14.0
 40
14.0
 40
15.0
 40
15.0
 40
15.0
 40
16.0
 40
16.0
 40
16.0
 40
17.0
 40
17.0
 40
17.0
 40
17.0
 10
389.4668487850558
 20
30.64408553045313
 10
389.6976220214394
 20
30.70904304125516
 10
389.9955398401064
 20
30.65470844907718
 10
389.9955398401064
 20
30.65470844907718
 10
389.9955398401064
 20
30.65470844907718
 10
389.85241312139
 20
30.22519439059248
 10
389.85241312139
 20
30.22519439059248
 10
389.85241312139
 20
30.22519439059248
 10
389.5599406643706
 20
30.29287458221835
 10
389.3343598630008
 20
30.1149927683958
 10
389.1590668276665
 20
29.97588311974736
 10
389.0455027690426
 20
29.60625316134929
 10
389.0019398758616
 20
29.46571522112114
 10
389.0019398758616
 20
29.46571522112114
 10
388.8077219770962
 20
28.86958202304137
 10
388.8077219770962
 20
28.86958202304137
 10
388.8077219770962
 20
28.86958202304137
 10
389.4445466071603
 20
28.86958202304137
 10
389.4445466071603
 20
28.86958202304137
 10
389.4445466071603
 20
28.86958202304137
 10
389.34550351293
 20
28.49438767869736
 10
389.34550351293
 20
28.49438767869736
 10
389.34550351293
 20
28.49438767869736
 10
388.7034864478522
 20
28.49438767869736
 10
388.7034864478522
 20
28.49438767869736
 10
388.7034864478522
 20
28.49438767869736
 10
387.5547978229109
 20
24.78695932282479
 10
387.5547978229109
 20
24.78695932282479
 10
387.5547978229109
 20
24.78695932282479
 10
387.1951510275336
 20
24.78695932282479
 10
387.1951510275336
 20
24.78695932282479
 10
387.1951510275336
 20
24.78695932282479
 10
388.3448811150849
 20
28.49438767869736
 10
388.3448811150849
 20
28.49438767869736
 10
388.3448811150849
 20
28.49438767869736
 10
387.8711346517413
 20
28.49438767869736
 10
387.8711346517413
 20
28.49438767869736
 10
387.8711346517413
 20
28.49438767869736
 10
387.9704455506427
 20
28.86958202304137
 10
387.9704455506427
 20
28.86958202304137
 10
387.9704455506427
 20
28.86958202304137
 10
388.4491166443289
 20
28.86958202304137
 10
388.4491166443289
 20
28.86958202304137
 10
388.4491166443289
 20
28.86958202304137
 10
388.6184287086733
 20
29.38948015805433
 10
388.6184287086733
 20
29.38948015805433
 10
388.7553364078029
 20
29.82536201649855
 10
388.8715041229524
 20
30.059378665011
 10
388.971082826525
 20
30.23581730921654
 10
389.0696051894502
 20
30.41240473379499
 10
389.2645967461546
 20
30.58586777054282
 10
389.4668487850558
 20
30.64408553045313
 97
        1
330
3C70
 92
        1
 93
        1
 72
     4
 94
        3
 73
     0
 74
     1
 95
       32
 96
       28
 40
0.0
 40
0.0
 40
0.0
 40
0.0
 40
1.0
 40
1.0
 40
1.0
 40
2.0
 40
2.0
 40
2.0
 40
3.0
 40
3.0
 40
3.0
 40
4.0
 40
4.0
 40
4.0
 40
5.0
 40
5.0
 40
5.0
 40
6.0
 40
6.0
 40
6.0
 40
7.0
 40
7.0
 40
7.0
 40
8.0
 40
8.0
 40
8.0
 40
9.0
 40
9.0
 40
9.0
 40
9.0
 10
390.3419600603343
 20
28.64284073476305
 10
390.1254548617105
 20
28.36279143887966
 10
389.9587315758544
 20
28.11075748721071
 10
389.6888142233646
 20
27.31860614785359
 10
389.4406634394279
 20
26.59401597582401
 10
389.2827479516467
 20
26.06685735861421
 10
389.2588984578731
 20
25.42484029353638
 10
389.240747252381
 20
24.94707676012474
 10
389.5316723935223
 20
24.78695932282479
 10
389.9582257225866
 20
24.78695932282479
 10
390.1420587513246
 20
24.78695932282479
 10
390.6059559539832
 20
24.79865346013363
 10
390.9363078939394
 20
25.20702582763122
 10
391.1675721055534
 20
25.49393389870466
 10
391.38071486775
 20
25.79134586410385
 10
391.6664624519149
 20
26.76695828126675
 10
391.9042432438614
 20
27.58257228542799
 10
392.068883604497
 20
28.10971602460051
 10
392.056713369995
 20
28.40985067082352
 10
392.056713369995
 20
28.40985067082352
 10
392.056713369995
 20
28.40985067082352
 10
392.056713369995
 20
28.40985067082352
 10
391.9791690396468
 20
28.91055613773418
 10
391.615639076537
 20
29.01635386089345
 10
391.4079416759881
 20
29.01635386089345
 10
391.2033686632698
 20
29.01635386089345
 10
390.6552022574085
 20
29.05174871160303
 10
390.3419600603343
 20
28.64284073476305
 97
        1
330
3C73
 92
        1
 93
        1
 72
     4
 94
        3
 73
     0
 74
     1
 95
       38
 96
       34
 40
0.0
 40
0.0
 40
0.0
 40
0.0
 40
1.0
 40
1.0
 40
1.0
 40
2.0
 40
2.0
 40
2.0
 40
3.0
 40
3.0
 40
3.0
 40
4.0
 40
4.0
 40
4.0
 40
5.0
 40
5.0
 40
5.0
 40
6.0
 40
6.0
 40
6.0
 40
7.0
 40
7.0
 40
7.0
 40
8.0
 40
8.0
 40
8.0
 40
9.0
 40
9.0
 40
9.0
 40
10.0
 40
10.0
 40
10.0
 40
11.0
 40
11.0
 40
11.0
 40
11.0
 10
393.3716045494872
 20
28.85519496098328
 10
393.3716045494872
 20
28.85519496098328
 10
393.7413535321836
 20
28.85519496098328
 10
393.7413535321836
 20
28.85519496098328
 10
393.7413535321836
 20
28.85519496098328
 10
393.5761775622055
 20
28.32635512555987
 10
393.5761775622055
 20
28.32635512555987
 10
393.7016886847722
 20
28.47480818162555
 10
393.8997748732327
 20
28.67252241915381
 10
394.0698903515905
 20
28.77222014702475
 10
394.3240072284799
 20
28.92067320309043
 10
394.4692168724166
 20
28.94025270016223
 10
394.6289177246725
 20
28.93635465439262
 10
394.6289177246725
 20
28.93635465439262
 10
394.4728471135151
 20
28.43630382112264
 10
394.4728471135151
 20
28.43630382112264
 10
394.3712003627593
 20
28.47934598299858
 10
394.057958165685
 20
28.39741263165024
 10
393.8782612313133
 20
28.26815224368685
 10
393.7162096491659
 20
28.15159769956793
 10
393.6041780283826
 20
28.0524207030021
 10
393.4714361796937
 20
27.80309455411968
 10
393.3397060375404
 20
27.55339645430504
 10
393.2357383129677
 20
27.15524529842472
 10
393.0568150365349
 20
26.57765013480655
 10
393.0568150365349
 20
26.57765013480655
 10
392.4980257120495
 20
24.78695932282479
 10
392.4980257120495
 20
24.78695932282479
 10
392.4980257120495
 20
24.78695932282479
 10
392.1391674526484
 20
24.78695932282479
 10
392.1391674526484
 20
24.78695932282479
 10
392.1391674526484
 20
24.78695932282479
 10
393.3716045494872
 20
28.85519496098328
 10
393.3716045494872
 20
28.85519496098328
 97
        1
330
3C71
 92
        1
 93
        1
 72
     4
 94
        3
 73
     0
 74
     1
 95
      104
 96
      100
 40
0.0
 40
0.0
 40
0.0
 40
0.0
 40
1.0
 40
1.0
 40
1.0
 40
2.0
 40
2.0
 40
2.0
 40
3.0
 40
3.0
 40
3.0
 40
4.0
 40
4.0
 40
4.0
 40
5.0
 40
5.0
 40
5.0
 40
6.0
 40
6.0
 40
6.0
 40
7.0
 40
7.0
 40
7.0
 40
8.0
 40
8.0
 40
8.0
 40
9.0
 40
9.0
 40
9.0
 40
10.0
 40
10.0
 40
10.0
 40
11.0
 40
11.0
 40
11.0
 40
12.0
 40
12.0
 40
12.0
 40
13.0
 40
13.0
 40
13.0
 40
14.0
 40
14.0
 40
14.0
 40
15.0
 40
15.0
 40
15.0
 40
16.0
 40
16.0
 40
16.0
 40
17.0
 40
17.0
 40
17.0
 40
18.0
 40
18.0
 40
18.0
 40
19.0
 40
19.0
 40
19.0
 40
20.0
 40
20.0
 40
20.0
 40
21.0
 40
21.0
 40
21.0
 40
22.0
 40
22.0
 40
22.0
 40
23.0
 40
23.0
 40
23.0
 40
24.0
 40
24.0
 40
24.0
 40
25.0
 40
25.0
 40
25.0
 40
26.0
 40
26.0
 40
26.0
 40
27.0
 40
27.0
 40
27.0
 40
28.0
 40
28.0
 40
28.0
 40
29.0
 40
29.0
 40
29.0
 40
30.0
 40
30.0
 40
30.0
 40
31.0
 40
31.0
 40
31.0
 40
32.0
 40
32.0
 40
32.0
 40
33.0
 40
33.0
 40
33.0
 40
33.0
 10
395.4068307823444
 20
28.857396910502
 10
395.4068307823444
 20
28.857396910502
 10
395.7296544354325
 20
28.857396910502
 10
395.7296544354325
 20
28.857396910502
 10
395.7296544354325
 20
28.857396910502
 10
395.5665613906749
 20
28.32805122181077
 10
395.5665613906749
 20
28.32805122181077
 10
395.7081110374387
 20
28.55000178208216
 10
395.8351694758834
 20
28.64892585201409
 10
396.0039756869598
 20
28.77675794839777
 10
396.1732877513042
 20
28.90277492423224
 10
396.3742602789986
 20
28.92845441659237
 10
396.5137567566165
 20
28.92845441659237
 10
396.6864610134627
 20
28.92845441659237
 10
396.8531842993187
 20
28.8943539551269
 10
396.9408159389486
 20
28.70506068670399
 10
397.0079753992694
 20
28.55662250867558
 10
397.0110997871
 20
28.5391110587869
 10
396.9919071189977
 20
28.24610299242514
 10
397.1674382029287
 20
28.54650544331934
 10
397.2970854198616
 20
28.67589973361832
 10
397.5174886642549
 20
28.80022061320189
 10
397.7487826319435
 20
28.92845441659237
 10
397.8836074058529
 20
28.93805075064353
 10
398.0402433824273
 20
28.9149600367716
 10
398.2710017407735
 20
28.88087445334342
 10
398.4182943099307
 20
28.79853939498828
 10
398.4953030309365
 20
28.54832056386854
 10
398.5725795566135
 20
28.29887539068781
 10
398.5308317839817
 20
28.16507720135141
 10
398.4354040528126
 20
27.76796750808128
 10
398.3918411596316
 20
27.58711008680102
 10
398.3288177936771
 20
27.36812025595006
 10
398.2463637110236
 20
27.10754631087745
 10
398.2463637110236
 20
27.10754631087745
 10
397.5174886642549
 20
24.78695932282479
 10
397.5174886642549
 20
24.78695932282479
 10
397.5174886642549
 20
24.78695932282479
 10
397.1383962741413
 20
24.78695932282479
 10
397.1383962741413
 20
24.78695932282479
 10
397.1383962741413
 20
24.78695932282479
 10
397.7765450495241
 20
26.81569873142421
 10
397.7765450495241
 20
26.81569873142421
 10
397.9098225075554
 20
27.24016913526807
 10
398.0000429256735
 20
27.55015304217612
 10
398.0467302066851
 20
27.74450484327716
 10
398.1053199175276
 20
27.98694246089495
 10
398.1286486799962
 20
28.06694166739577
 10
398.1009160184902
 20
28.24339518963862
 10
398.0755043308013
 20
28.4076487213048
 10
397.9925146388055
 20
28.51460693137258
 10
397.8504293826993
 20
28.51460693137258
 10
397.6990007191758
 20
28.51460693137258
 10
397.5763461797686
 20
28.49775011512458
 10
397.4047131416073
 20
28.32532854098695
 10
397.2330503473714
 20
28.15159769956793
 10
397.0912031398618
 20
27.94766444245305
 10
396.9799749330922
 20
27.71312706263549
 10
396.8689847749192
 20
27.47716139123824
 10
396.7564473008682
 20
27.17806820762544
 10
396.6423625109393
 20
26.81569873142421
 10
396.6423625109393
 20
26.81569873142421
 10
396.0039756869598
 20
24.78695932282479
 10
396.0039756869598
 20
24.78695932282479
 10
396.0039756869598
 20
24.78695932282479
 10
395.6474384013758
 20
24.78695932282479
 10
395.6474384013758
 20
24.78695932282479
 10
395.6474384013758
 20
24.78695932282479
 10
396.3773549107547
 20
27.10650484826726
 10
396.3773549107547
 20
27.10650484826726
 10
396.4543636317604
 20
27.35336124295977
 10
396.5122094407385
 20
27.55457181925085
 10
396.5503269722719
 20
27.71183267339138
 10
396.6151357027011
 20
27.98253856185753
 10
396.6332869081932
 20
28.1655979326565
 10
396.5842786533645
 20
28.32805122181077
 10
396.5360440564749
 20
28.48998377965993
 10
396.4512690000045
 20
28.53134472332225
 10
396.3096895971661
 20
28.53134472332225
 10
396.1909331035284
 20
28.53134472332225
 10
396.0750331930502
 20
28.48038744560878
 10
395.9427971976291
 20
28.37899362148695
 10
395.7763119603696
 20
28.25142932977446
 10
395.7096881093912
 20
28.1466730692254
 10
395.6280076846768
 20
28.02220340926895
 10
395.5177911844429
 20
27.85754817059597
 10
395.4661941511259
 20
27.74670679279587
 10
395.3731171498484
 20
27.50348063920177
 10
395.2800103924964
 20
27.25882619402798
 10
395.1918728995987
 20
26.97412007247326
 10
395.1303968495222
 20
26.77719437092129
 10
395.1303968495222
 20
26.77719437092129
 10
394.5042100161195
 20
24.78695932282479
 10
394.5042100161195
 20
24.78695932282479
 10
394.5042100161195
 20
24.78695932282479
 10
394.1308307923247
 20
24.78695932282479
 10
394.1308307923247
 20
24.78695932282479
 10
394.1308307923247
 20
24.78695932282479
 10
395.4068307823444
 20
28.857396910502
 10
395.4068307823444
 20
28.857396910502
 97
        1
330
3C72
 92
       16
 93
        1
 72
     4
 94
        3
 73
     0
 74
     1
 95
       29
 96
       25
 40
0.0
 40
0.0
 40
0.0
 40
0.0
 40
1.0
 40
1.0
 40
1.0
 40
2.0
 40
2.0
 40
2.0
 40
3.0
 40
3.0
 40
3.0
 40
4.0
 40
4.0
 40
4.0
 40
5.0
 40
5.0
 40
5.0
 40
6.0
 40
6.0
 40
6.0
 40
7.0
 40
7.0
 40
7.0
 40
8.0
 40
8.0
 40
8.0
 40
8.0
 10
389.6462927927937
 20
25.54487629838084
 10
389.6447157208412
 20
25.82830290872873
 10
389.7341922370948
 20
26.33186495879882
 10
389.9634032795631
 20
27.00563175545052
 10
390.2756040140271
 20
27.91796788002499
 10
390.4628292352669
 20
28.25142932977446
 10
390.6266661818889
 20
28.41374871659313
 10
390.866024045788
 20
28.65010121695988
 10
391.1878062362659
 20
28.66188462249246
 10
391.2827281141673
 20
28.65010121695988
 10
391.4178206927478
 20
28.6338841563153
 10
391.6086463990114
 20
28.54546398070914
 10
391.6200429755745
 20
28.24779908867604
 10
391.629148334395
 20
27.99304245618328
 10
391.5557400984131
 20
27.51593355641234
 10
391.2987963944389
 20
26.76695828126675
 10
391.0026639402465
 20
25.896622855958
 10
390.824782126424
 20
25.55448751046927
 10
390.6821910170501
 20
25.40537982076289
 10
390.413553175767
 20
25.1258512561846
 10
390.1254548617105
 20
25.15269123545324
 10
390.0829334311396
 20
25.15269123545324
 10
390.0277061567243
 20
25.15269123545324
 10
389.6470664507327
 20
25.21261996965174
 10
389.6462927927937
 20
25.54487629838084
 97
        1
330
3C74
 75
     0
 76
     1
 98
        1
 10
371.9300318427923
 20
14.61939790801677
1001
ACAD
1010
0.0
1020
0.0
1030
0.0
  0
POLYLINE
  5
3C65
102
{ACAD_REACTORS
330
3C64
330
3C75
102
}
330
A
100
AcDbEntity
  8
TEMPLATE
100
AcDb2dPolyline
 66
     1
 10
0.0
 20
0.0
 30
0.0
  0
VERTEX
  5
3C66
330
3C65
100
AcDbEntity
  8
TEMPLATE
100
AcDbVertex
100
AcDb2dVertex
 10
386.9584116981973
 20
30.78695932253559
 30
0.0
  0
VERTEX
  5
3C67
330
3C65
100
AcDbEntity
  8
TEMPLATE
100
AcDbVertex
100
AcDb2dVertex
 10
386.9584116981973
 20
29.60507779640349
 30
0.0
  0
VERTEX
  5
3C68
330
3C65
100
AcDbEntity
  8
TEMPLATE
100
AcDbVertex
100
AcDb2dVertex
 10
385.086293388135
 20
29.60507779640349
 30
0.0
  0
VERTEX
  5
3C69
330
3C65
100
AcDbEntity
  8
TEMPLATE
100
AcDbVertex
100
AcDb2dVertex
 10
385.086293388135
 20
24.78695932282479
 30
0.0
  0
VERTEX
  5
3C6A
330
3C65
100
AcDbEntity
  8
TEMPLATE
100
AcDbVertex
100
AcDb2dVertex
 10
383.4397707574798
 20
24.78695932282479
 30
0.0
  0
VERTEX
  5
3C6B
330
3C65
100
AcDbEntity
  8
TEMPLATE
100
AcDbVertex
100
AcDb2dVertex
 10
383.4397707574798
 20
29.60507779640349
 30
0.0
  0
VERTEX
  5
3C6C
330
3C65
100
AcDbEntity
  8
TEMPLATE
100
AcDbVertex
100
AcDb2dVertex
 10
381.6008304705712
 20
29.60507779640349
 30
0.0
  0
VERTEX
  5
3C6D
330
3C65
100
AcDbEntity
  8
TEMPLATE
100
AcDbVertex
100
AcDb2dVertex
 10
381.6008304705712
 20
30.78695932253559
 30
0.0
  0
VERTEX
  5
3C6E
330
3C65
100
AcDbEntity
  8
TEMPLATE
100
AcDbVertex
100
AcDb2dVertex
 10
386.9584116981973
 20
30.78695932253559
 30
0.0
  0
SEQEND
  5
3C6F
330
3C65
100
AcDbEntity
  8
TEMPLATE
  0
SPLINE
  5
3C70
102
{ACAD_REACTORS
330
3C64
330
3C75
102
}
330
A
100
AcDbEntity
  8
TEMPLATE
100
AcDbSpline
210
0.0
220
0.0
230
1.0
 70
    11
 71
     3
 72
    56
 73
    52
 74
     0
 42
0.000000001
 43
0.0000000001
 40
0.0
 40
0.0
 40
0.0
 40
0.0
 40
1.0
 40
1.0
 40
1.0
 40
2.0
 40
2.0
 40
2.0
 40
3.0
 40
3.0
 40
3.0
 40
4.0
 40
4.0
 40
4.0
 40
5.0
 40
5.0
 40
5.0
 40
6.0
 40
6.0
 40
6.0
 40
7.0
 40
7.0
 40
7.0
 40
8.0
 40
8.0
 40
8.0
 40
9.0
 40
9.0
 40
9.0
 40
10.0
 40
10.0
 40
10.0
 40
11.0
 40
11.0
 40
11.0
 40
12.0
 40
12.0
 40
12.0
 40
13.0
 40
13.0
 40
13.0
 40
14.0
 40
14.0
 40
14.0
 40
15.0
 40
15.0
 40
15.0
 40
16.0
 40
16.0
 40
16.0
 40
17.0
 40
17.0
 40
17.0
 40
17.0
 10
389.4668487850558
 20
30.64408553045313
 30
0.0
 10
389.6976220214394
 20
30.70904304125516
 30
0.0
 10
389.9955398401064
 20
30.65470844907718
 30
0.0
 10
389.9955398401064
 20
30.65470844907718
 30
0.0
 10
389.9955398401064
 20
30.65470844907718
 30
0.0
 10
389.85241312139
 20
30.22519439059248
 30
0.0
 10
389.85241312139
 20
30.22519439059248
 30
0.0
 10
389.85241312139
 20
30.22519439059248
 30
0.0
 10
389.5599406643706
 20
30.29287458221835
 30
0.0
 10
389.3343598630008
 20
30.1149927683958
 30
0.0
 10
389.1590668276665
 20
29.97588311974736
 30
0.0
 10
389.0455027690426
 20
29.60625316134929
 30
0.0
 10
389.0019398758616
 20
29.46571522112114
 30
0.0
 10
389.0019398758616
 20
29.46571522112114
 30
0.0
 10
388.8077219770962
 20
28.86958202304137
 30
0.0
 10
388.8077219770962
 20
28.86958202304137
 30
0.0
 10
388.8077219770962
 20
28.86958202304137
 30
0.0
 10
389.4445466071603
 20
28.86958202304137
 30
0.0
 10
389.4445466071603
 20
28.86958202304137
 30
0.0
 10
389.4445466071603
 20
28.86958202304137
 30
0.0
 10
389.34550351293
 20
28.49438767869736
 30
0.0
 10
389.34550351293
 20
28.49438767869736
 30
0.0
 10
389.34550351293
 20
28.49438767869736
 30
0.0
 10
388.7034864478522
 20
28.49438767869736
 30
0.0
 10
388.7034864478522
 20
28.49438767869736
 30
0.0
 10
388.7034864478522
 20
28.49438767869736
 30
0.0
 10
387.5547978229109
 20
24.78695932282479
 30
0.0
 10
387.5547978229109
 20
24.78695932282479
 30
0.0
 10
387.5547978229109
 20
24.78695932282479
 30
0.0
 10
387.1951510275336
 20
24.78695932282479
 30
0.0
 10
387.1951510275336
 20
24.78695932282479
 30
0.0
 10
387.1951510275336
 20
24.78695932282479
 30
0.0
 10
388.3448811150849
 20
28.49438767869736
 30
0.0
 10
388.3448811150849
 20
28.49438767869736
 30
0.0
 10
388.3448811150849
 20
28.49438767869736
 30
0.0
 10
387.8711346517413
 20
28.49438767869736
 30
0.0
 10
387.8711346517413
 20
28.49438767869736
 30
0.0
 10
387.8711346517413
 20
28.49438767869736
 30
0.0
 10
387.9704455506427
 20
28.86958202304137
 30
0.0
 10
387.9704455506427
 20
28.86958202304137
 30
0.0
 10
387.9704455506427
 20
28.86958202304137
 30
0.0
 10
388.4491166443289
 20
28.86958202304137
 30
0.0
 10
388.4491166443289
 20
28.86958202304137
 30
0.0
 10
388.4491166443289
 20
28.86958202304137
 30
0.0
 10
388.6184287086733
 20
29.38948015805433
 30
0.0
 10
388.6184287086733
 20
29.38948015805433
 30
0.0
 10
388.7553364078029
 20
29.82536201649855
 30
0.0
 10
388.8715041229524
 20
30.059378665011
 30
0.0
 10
388.971082826525
 20
30.23581730921654
 30
0.0
 10
389.0696051894502
 20
30.41240473379499
 30
0.0
 10
389.2645967461546
 20
30.58586777054282
 30
0.0
 10
389.4668487850558
 20
30.64408553045313
 30
0.0
  0
SPLINE
  5
3C71
102
{ACAD_REACTORS
330
3C64
330
3C75
102
}
330
A
100
AcDbEntity
  8
TEMPLATE
100
AcDbSpline
210
0.0
220
0.0
230
1.0
 70
    11
 71
     3
 72
    38
 73
    34
 74
     0
 42
0.000000001
 43
0.0000000001
 40
0.0
 40
0.0
 40
0.0
 40
0.0
 40
1.0
 40
1.0
 40
1.0
 40
2.0
 40
2.0
 40
2.0
 40
3.0
 40
3.0
 40
3.0
 40
4.0
 40
4.0
 40
4.0
 40
5.0
 40
5.0
 40
5.0
 40
6.0
 40
6.0
 40
6.0
 40
7.0
 40
7.0
 40
7.0
 40
8.0
 40
8.0
 40
8.0
 40
9.0
 40
9.0
 40
9.0
 40
10.0
 40
10.0
 40
10.0
 40
11.0
 40
11.0
 40
11.0
 40
11.0
 10
393.3716045494872
 20
28.85519496098328
 30
0.0
 10
393.3716045494872
 20
28.85519496098328
 30
0.0
 10
393.7413535321836
 20
28.85519496098328
 30
0.0
 10
393.7413535321836
 20
28.85519496098328
 30
0.0
 10
393.7413535321836
 20
28.85519496098328
 30
0.0
 10
393.5761775622055
 20
28.32635512555987
 30
0.0
 10
393.5761775622055
 20
28.32635512555987
 30
0.0
 10
393.7016886847722
 20
28.47480818162555
 30
0.0
 10
393.8997748732327
 20
28.67252241915381
 30
0.0
 10
394.0698903515905
 20
28.77222014702475
 30
0.0
 10
394.3240072284799
 20
28.92067320309043
 30
0.0
 10
394.4692168724166
 20
28.94025270016223
 30
0.0
 10
394.6289177246725
 20
28.93635465439262
 30
0.0
 10
394.6289177246725
 20
28.93635465439262
 30
0.0
 10
394.4728471135151
 20
28.43630382112264
 30
0.0
 10
394.4728471135151
 20
28.43630382112264
 30
0.0
 10
394.3712003627593
 20
28.47934598299858
 30
0.0
 10
394.057958165685
 20
28.39741263165024
 30
0.0
 10
393.8782612313133
 20
28.26815224368685
 30
0.0
 10
393.7162096491659
 20
28.15159769956793
 30
0.0
 10
393.6041780283826
 20
28.0524207030021
 30
0.0
 10
393.4714361796937
 20
27.80309455411968
 30
0.0
 10
393.3397060375404
 20
27.55339645430504
 30
0.0
 10
393.2357383129677
 20
27.15524529842472
 30
0.0
 10
393.0568150365349
 20
26.57765013480655
 30
0.0
 10
393.0568150365349
 20
26.57765013480655
 30
0.0
 10
392.4980257120495
 20
24.78695932282479
 30
0.0
 10
392.4980257120495
 20
24.78695932282479
 30
0.0
 10
392.4980257120495
 20
24.78695932282479
 30
0.0
 10
392.1391674526484
 20
24.78695932282479
 30
0.0
 10
392.1391674526484
 20
24.78695932282479
 30
0.0
 10
392.1391674526484
 20
24.78695932282479
 30
0.0
 10
393.3716045494872
 20
28.85519496098328
 30
0.0
 10
393.3716045494872
 20
28.85519496098328
 30
0.0
  0
SPLINE
  5
3C72
102
{ACAD_REACTORS
330
3C64
330
3C75
102
}
330
A
100
AcDbEntity
  8
TEMPLATE
100
AcDbSpline
210
0.0
220
0.0
230
1.0
 70
    11
 71
     3
 72
   104
 73
   100
 74
     0
 42
0.000000001
 43
0.0000000001
 40
0.0
 40
0.0
 40
0.0
 40
0.0
 40
1.0
 40
1.0
 40
1.0
 40
2.0
 40
2.0
 40
2.0
 40
3.0
 40
3.0
 40
3.0
 40
4.0
 40
4.0
 40
4.0
 40
5.0
 40
5.0
 40
5.0
 40
6.0
 40
6.0
 40
6.0
 40
7.0
 40
7.0
 40
7.0
 40
8.0
 40
8.0
 40
8.0
 40
9.0
 40
9.0
 40
9.0
 40
10.0
 40
10.0
 40
10.0
 40
11.0
 40
11.0
 40
11.0
 40
12.0
 40
12.0
 40
12.0
 40
13.0
 40
13.0
 40
13.0
 40
14.0
 40
14.0
 40
14.0
 40
15.0
 40
15.0
 40
15.0
 40
16.0
 40
16.0
 40
16.0
 40
17.0
 40
17.0
 40
17.0
 40
18.0
 40
18.0
 40
18.0
 40
19.0
 40
19.0
 40
19.0
 40
20.0
 40
20.0
 40
20.0
 40
21.0
 40
21.0
 40
21.0
 40
22.0
 40
22.0
 40
22.0
 40
23.0
 40
23.0
 40
23.0
 40
24.0
 40
24.0
 40
24.0
 40
25.0
 40
25.0
 40
25.0
 40
26.0
 40
26.0
 40
26.0
 40
27.0
 40
27.0
 40
27.0
 40
28.0
 40
28.0
 40
28.0
 40
29.0
 40
29.0
 40
29.0
 40
30.0
 40
30.0
 40
30.0
 40
31.0
 40
31.0
 40
31.0
 40
32.0
 40
32.0
 40
32.0
 40
33.0
 40
33.0
 40
33.0
 40
33.0
 10
395.4068307823444
 20
28.857396910502
 30
0.0
 10
395.4068307823444
 20
28.857396910502
 30
0.0
 10
395.7296544354325
 20
28.857396910502
 30
0.0
 10
395.7296544354325
 20
28.857396910502
 30
0.0
 10
395.7296544354325
 20
28.857396910502
 30
0.0
 10
395.5665613906749
 20
28.32805122181077
 30
0.0
 10
395.5665613906749
 20
28.32805122181077
 30
0.0
 10
395.7081110374387
 20
28.55000178208216
 30
0.0
 10
395.8351694758834
 20
28.64892585201409
 30
0.0
 10
396.0039756869598
 20
28.77675794839777
 30
0.0
 10
396.1732877513042
 20
28.90277492423224
 30
0.0
 10
396.3742602789986
 20
28.92845441659237
 30
0.0
 10
396.5137567566165
 20
28.92845441659237
 30
0.0
 10
396.6864610134627
 20
28.92845441659237
 30
0.0
 10
396.8531842993187
 20
28.8943539551269
 30
0.0
 10
396.9408159389486
 20
28.70506068670399
 30
0.0
 10
397.0079753992694
 20
28.55662250867558
 30
0.0
 10
397.0110997871
 20
28.5391110587869
 30
0.0
 10
396.9919071189977
 20
28.24610299242514
 30
0.0
 10
397.1674382029287
 20
28.54650544331934
 30
0.0
 10
397.2970854198616
 20
28.67589973361832
 30
0.0
 10
397.5174886642549
 20
28.80022061320189
 30
0.0
 10
397.7487826319435
 20
28.92845441659237
 30
0.0
 10
397.8836074058529
 20
28.93805075064353
 30
0.0
 10
398.0402433824273
 20
28.9149600367716
 30
0.0
 10
398.2710017407735
 20
28.88087445334342
 30
0.0
 10
398.4182943099307
 20
28.79853939498828
 30
0.0
 10
398.4953030309365
 20
28.54832056386854
 30
0.0
 10
398.5725795566135
 20
28.29887539068781
 30
0.0
 10
398.5308317839817
 20
28.16507720135141
 30
0.0
 10
398.4354040528126
 20
27.76796750808128
 30
0.0
 10
398.3918411596316
 20
27.58711008680102
 30
0.0
 10
398.3288177936771
 20
27.36812025595006
 30
0.0
 10
398.2463637110236
 20
27.10754631087745
 30
0.0
 10
398.2463637110236
 20
27.10754631087745
 30
0.0
 10
397.5174886642549
 20
24.78695932282479
 30
0.0
 10
397.5174886642549
 20
24.78695932282479
 30
0.0
 10
397.5174886642549
 20
24.78695932282479
 30
0.0
 10
397.1383962741413
 20
24.78695932282479
 30
0.0
 10
397.1383962741413
 20
24.78695932282479
 30
0.0
 10
397.1383962741413
 20
24.78695932282479
 30
0.0
 10
397.7765450495241
 20
26.81569873142421
 30
0.0
 10
397.7765450495241
 20
26.81569873142421
 30
0.0
 10
397.9098225075554
 20
27.24016913526807
 30
0.0
 10
398.0000429256735
 20
27.55015304217612
 30
0.0
 10
398.0467302066851
 20
27.74450484327716
 30
0.0
 10
398.1053199175276
 20
27.98694246089495
 30
0.0
 10
398.1286486799962
 20
28.06694166739577
 30
0.0
 10
398.1009160184902
 20
28.24339518963862
 30
0.0
 10
398.0755043308013
 20
28.4076487213048
 30
0.0
 10
397.9925146388055
 20
28.51460693137258
 30
0.0
 10
397.8504293826993
 20
28.51460693137258
 30
0.0
 10
397.6990007191758
 20
28.51460693137258
 30
0.0
 10
397.5763461797686
 20
28.49775011512458
 30
0.0
 10
397.4047131416073
 20
28.32532854098695
 30
0.0
 10
397.2330503473714
 20
28.15159769956793
 30
0.0
 10
397.0912031398618
 20
27.94766444245305
 30
0.0
 10
396.9799749330922
 20
27.71312706263549
 30
0.0
 10
396.8689847749192
 20
27.47716139123824
 30
0.0
 10
396.7564473008682
 20
27.17806820762544
 30
0.0
 10
396.6423625109393
 20
26.81569873142421
 30
0.0
 10
396.6423625109393
 20
26.81569873142421
 30
0.0
 10
396.0039756869598
 20
24.78695932282479
 30
0.0
 10
396.0039756869598
 20
24.78695932282479
 30
0.0
 10
396.0039756869598
 20
24.78695932282479
 30
0.0
 10
395.6474384013758
 20
24.78695932282479
 30
0.0
 10
395.6474384013758
 20
24.78695932282479
 30
0.0
 10
395.6474384013758
 20
24.78695932282479
 30
0.0
 10
396.3773549107547
 20
27.10650484826726
 30
0.0
 10
396.3773549107547
 20
27.10650484826726
 30
0.0
 10
396.4543636317604
 20
27.35336124295977
 30
0.0
 10
396.5122094407385
 20
27.55457181925085
 30
0.0
 10
396.5503269722719
 20
27.71183267339138
 30
0.0
 10
396.6151357027011
 20
27.98253856185753
 30
0.0
 10
396.6332869081932
 20
28.1655979326565
 30
0.0
 10
396.5842786533645
 20
28.32805122181077
 30
0.0
 10
396.5360440564749
 20
28.48998377965993
 30
0.0
 10
396.4512690000045
 20
28.53134472332225
 30
0.0
 10
396.3096895971661
 20
28.53134472332225
 30
0.0
 10
396.1909331035284
 20
28.53134472332225
 30
0.0
 10
396.0750331930502
 20
28.48038744560878
 30
0.0
 10
395.9427971976291
 20
28.37899362148695
 30
0.0
 10
395.7763119603696
 20
28.25142932977446
 30
0.0
 10
395.7096881093912
 20
28.1466730692254
 30
0.0
 10
395.6280076846768
 20
28.02220340926895
 30
0.0
 10
395.5177911844429
 20
27.85754817059597
 30
0.0
 10
395.4661941511259
 20
27.74670679279587
 30
0.0
 10
395.3731171498484
 20
27.50348063920177
 30
0.0
 10
395.2800103924964
 20
27.25882619402798
 30
0.0
 10
395.1918728995987
 20
26.97412007247326
 30
0.0
 10
395.1303968495222
 20
26.77719437092129
 30
0.0
 10
395.1303968495222
 20
26.77719437092129
 30
0.0
 10
394.5042100161195
 20
24.78695932282479
 30
0.0
 10
394.5042100161195
 20
24.78695932282479
 30
0.0
 10
394.5042100161195
 20
24.78695932282479
 30
0.0
 10
394.1308307923247
 20
24.78695932282479
 30
0.0
 10
394.1308307923247
 20
24.78695932282479
 30
0.0
 10
394.1308307923247
 20
24.78695932282479
 30
0.0
 10
395.4068307823444
 20
28.857396910502
 30
0.0
 10
395.4068307823444
 20
28.857396910502
 30
0.0
  0
SPLINE
  5
3C73
102
{ACAD_REACTORS
330
3C64
330
3C75
102
}
330
A
100
AcDbEntity
  8
TEMPLATE
100
AcDbSpline
210
0.0
220
0.0
230
1.0
 70
    11
 71
     3
 72
    32
 73
    28
 74
     0
 42
0.000000001
 43
0.0000000001
 40
0.0
 40
0.0
 40
0.0
 40
0.0
 40
1.0
 40
1.0
 40
1.0
 40
2.0
 40
2.0
 40
2.0
 40
3.0
 40
3.0
 40
3.0
 40
4.0
 40
4.0
 40
4.0
 40
5.0
 40
5.0
 40
5.0
 40
6.0
 40
6.0
 40
6.0
 40
7.0
 40
7.0
 40
7.0
 40
8.0
 40
8.0
 40
8.0
 40
9.0
 40
9.0
 40
9.0
 40
9.0
 10
390.3419600603343
 20
28.64284073476305
 30
0.0
 10
390.1254548617105
 20
28.36279143887966
 30
0.0
 10
389.9587315758544
 20
28.11075748721071
 30
0.0
 10
389.6888142233646
 20
27.31860614785359
 30
0.0
 10
389.4406634394279
 20
26.59401597582401
 30
0.0
 10
389.2827479516467
 20
26.06685735861421
 30
0.0
 10
389.2588984578731
 20
25.42484029353638
 30
0.0
 10
389.240747252381
 20
24.94707676012474
 30
0.0
 10
389.5316723935223
 20
24.78695932282479
 30
0.0
 10
389.9582257225866
 20
24.78695932282479
 30
0.0
 10
390.1420587513246
 20
24.78695932282479
 30
0.0
 10
390.6059559539832
 20
24.79865346013363
 30
0.0
 10
390.9363078939394
 20
25.20702582763122
 30
0.0
 10
391.1675721055534
 20
25.49393389870466
 30
0.0
 10
391.38071486775
 20
25.79134586410385
 30
0.0
 10
391.6664624519149
 20
26.76695828126675
 30
0.0
 10
391.9042432438614
 20
27.58257228542799
 30
0.0
 10
392.068883604497
 20
28.10971602460051
 30
0.0
 10
392.056713369995
 20
28.40985067082352
 30
0.0
 10
392.056713369995
 20
28.40985067082352
 30
0.0
 10
392.056713369995
 20
28.40985067082352
 30
0.0
 10
392.056713369995
 20
28.40985067082352
 30
0.0
 10
391.9791690396468
 20
28.91055613773418
 30
0.0
 10
391.615639076537
 20
29.01635386089345
 30
0.0
 10
391.4079416759881
 20
29.01635386089345
 30
0.0
 10
391.2033686632698
 20
29.01635386089345
 30
0.0
 10
390.6552022574085
 20
29.05174871160303
 30
0.0
 10
390.3419600603343
 20
28.64284073476305
 30
0.0
  0
SPLINE
  5
3C74
102
{ACAD_REACTORS
330
3C64
330
3C75
102
}
330
A
100
AcDbEntity
  8
TEMPLATE
100
AcDbSpline
210
0.0
220
0.0
230
1.0
 70
    11
 71
     3
 72
    29
 73
    25
 74
     0
 42
0.000000001
 43
0.0000000001
 40
0.0
 40
0.0
 40
0.0
 40
0.0
 40
1.0
 40
1.0
 40
1.0
 40
2.0
 40
2.0
 40
2.0
 40
3.0
 40
3.0
 40
3.0
 40
4.0
 40
4.0
 40
4.0
 40
5.0
 40
5.0
 40
5.0
 40
6.0
 40
6.0
 40
6.0
 40
7.0
 40
7.0
 40
7.0
 40
8.0
 40
8.0
 40
8.0
 40
8.0
 10
389.6462927927937
 20
25.54487629838084
 30
0.0
 10
389.6447157208412
 20
25.82830290872873
 30
0.0
 10
389.7341922370948
 20
26.33186495879882
 30
0.0
 10
389.9634032795631
 20
27.00563175545052
 30
0.0
 10
390.2756040140271
 20
27.91796788002499
 30
0.0
 10
390.4628292352669
 20
28.25142932977446
 30
0.0
 10
390.6266661818889
 20
28.41374871659313
 30
0.0
 10
390.866024045788
 20
28.65010121695988
 30
0.0
 10
391.1878062362659
 20
28.66188462249246
 30
0.0
 10
391.2827281141673
 20
28.65010121695988
 30
0.0
 10
391.4178206927478
 20
28.6338841563153
 30
0.0
 10
391.6086463990114
 20
28.54546398070914
 30
0.0
 10
391.6200429755745
 20
28.24779908867604
 30
0.0
 10
391.629148334395
 20
27.99304245618328
 30
0.0
 10
391.5557400984131
 20
27.51593355641234
 30
0.0
 10
391.2987963944389
 20
26.76695828126675
 30
0.0
 10
391.0026639402465
 20
25.896622855958
 30
0.0
 10
390.824782126424
 20
25.55448751046927
 30
0.0
 10
390.6821910170501
 20
25.40537982076289
 30
0.0
 10
390.413553175767
 20
25.1258512561846
 30
0.0
 10
390.1254548617105
 20
25.15269123545324
 30
0.0
 10
390.0829334311396
 20
25.15269123545324
 30
0.0
 10
390.0277061567243
 20
25.15269123545324
 30
0.0
 10
389.6470664507327
 20
25.21261996965174
 30
0.0
 10
389.6462927927937
 20
25.54487629838084
 30
0.0
  0
MTEXT
  5
3C9A
330
A
100
AcDbEntity
  8
TEMPLATE
390
1D
100
AcDbMText
 10
26.44042890954615
 20
46.02985813878568
 30
0.0
 40
4.8865234375
 41
0.0
 46
5.678140234375
 71
     1
 72
     1
  1
{タッピングビス 4x40、プラグ付属 / 耐加重: 3kgf}
  7
ＭＳ ゴシック
 73
     1
 44
0.7828267384257843
1001
ACAD
1000
ACAD_MTEXT_DEFINED_HEIGHT_BEGIN
1070
    46
1040
5.678140234375
1000
ACAD_MTEXT_DEFINED_HEIGHT_END
  0
MTEXT
  5
3CB5
102
{ACAD_XDICTIONARY
360
3CB7
102
}
330
A
100
AcDbEntity
  8
TEMPLATE
100
AcDbMText
 10
15.00779663219942
 20
17.57619761830519
 30
0.0
 40
4.0
 41
0.0
 46
4.0
 71
     1
 72
     1
  1
{20191202N}
  7
ＭＳ ゴシック
 73
     1
 44
1.0
1001
ACAD
1000
ACAD_MTEXT_DEFINED_HEIGHT_BEGIN
1070
    46
1040
4.0
1000
ACAD_MTEXT_DEFINED_HEIGHT_END
  0
POINT
  5
4DC6
330
A
100
AcDbEntity
  8
_0-1_
 62
     7
100
AcDbPoint
 10
747.1022537512462
 20
471.0990261094801
 30
0.0
  0
POINT
  5
4DC7
330
A
100
AcDbEntity
  8
_0-1_
 62
     7
100
AcDbPoint
 10
747.1022537512462
 20
406.0990261094801
 30
0.0
  0
POINT
  5
4DCB
330
A
100
AcDbEntity
  8
_0-1_
 62
     7
100
AcDbPoint
 10
812.1049650937399
 20
245.8313559347941
 30
0.0
  0
POINT
  5
4DCC
330
A
100
AcDbEntity
  8
_0-1_
 62
     7
100
AcDbPoint
 10
777.1022537512471
 20
245.8313559347941
 30
0.0
  0
POINT
  5
4DD1
330
A
100
AcDbEntity
  8
_0-1_
 62
     7
100
AcDbPoint
 10
807.1049650937397
 20
263.8831306737678
 30
0.0
  0
POINT
  5
4DD2
330
A
100
AcDbEntity
  8
_0-1_
 62
     7
100
AcDbPoint
 10
817.1049650937397
 20
263.8831306737678
 30
0.0
  0
POINT
  5
4DD8
330
A
100
AcDbEntity
  8
_0-1_
 62
     7
100
AcDbPoint
 10
692.148672804762
 20
471.0990261094801
 30
0.0
  0
POINT
  5
4DD9
330
A
100
AcDbEntity
  8
_0-1_
 62
     7
100
AcDbPoint
 10
692.148672804762
 20
276.0990261094801
 30
0.0
  0
POINT
  5
4DDC
330
A
100
AcDbEntity
  8
_0-1_
 62
     7
100
AcDbPoint
 10
491.7618237082069
 20
154.2775075987842
 30
0.0
  0
POINT
  5
4DDD
330
A
100
AcDbEntity
  8
_0-1_
 62
     7
100
AcDbPoint
 10
661.761823708207
 20
154.2775075987842
 30
0.0
  0
LINE
  5
52F9
330
A
100
AcDbEntity
  8
MODEL
100
AcDbLine
 10
218.0530376913584
 20
387.7963423492818
 30
0.0
 11
218.0530376913584
 21
380.4177343609242
 31
0.0
  0
ARC
  5
52FA
330
A
100
AcDbEntity
  8
MODEL
100
AcDbCircle
 10
216.1276976816387
 20
380.4986761862749
 30
0.0
 40
1.927040666960362
100
AcDbArc
 50
267.7796047031497
 51
357.5926871654288
  0
LINE
  5
52FB
330
A
100
AcDbEntity
  8
MODEL
100
AcDbLine
 10
216.0530373635329
 20
378.5730823638348
 30
0.0
 11
96.95303665423762
 21
378.5730823638348
 31
0.0
  0
ARC
  5
52FC
330
A
100
AcDbEntity
  8
MODEL
100
AcDbCircle
 10
96.87837431189041
 20
380.4986701033283
 30
0.0
 40
1.927034667008438
100
AcDbArc
 50
182.407139312666
 51
272.2204624448815
  0
LINE
  5
52FD
330
A
100
AcDbEntity
  8
MODEL
100
AcDbLine
 10
94.95304005170237
 20
387.7963423492818
 30
0.0
 11
94.95304005170237
 21
380.4177343609242
 31
0.0
  0
LINE
  5
52FE
330
A
100
AcDbEntity
  8
MODEL
100
AcDbLine
 10
218.0530376913584
 20
388.5657414557843
 30
0.0
 11
94.95304005170237
 21
388.5657414557843
 31
0.0
  0
LINE
  5
52FF
330
A
100
AcDbEntity
  8
MODEL
100
AcDbLine
 10
94.95304005170237
 20
387.7963423492818
 30
0.0
 11
94.95304005170237
 21
388.5657414557843
 31
0.0
  0
LINE
  5
5300
330
A
100
AcDbEntity
  8
MODEL
100
AcDbLine
 10
218.0530376913584
 20
388.5657414557843
 30
0.0
 11
218.0530376913584
 21
387.7963423492818
 31
0.0
  0
POINT
  5
5302
330
A
100
AcDbEntity
  8
_0-1_
 62
     7
100
AcDbPoint
 10
483.3965890500892
 20
365.8490777464218
 30
0.0
  0
POINT
  5
5303
330
A
100
AcDbEntity
  8
_0-1_
 62
     7
100
AcDbPoint
 10
483.3965890500892
 20
265.8490777464218
 30
0.0
  0
POINT
  5
5308
330
A
100
AcDbEntity
  8
_0-1_
 62
     7
100
AcDbPoint
 10
513.3965890500892
 20
217.1217366094085
 30
0.0
  0
POINT
  5
5309
330
A
100
AcDbEntity
  8
_0-1_
 62
     7
100
AcDbPoint
 10
646.3965890500892
 20
217.1217366094085
 30
0.0
  0
POINT
  5
530E
330
A
100
AcDbEntity
  8
_0-1_
 62
     7
100
AcDbPoint
 10
518.3465890500893
 20
229.0247586790146
 30
0.0
  0
POINT
  5
530F
330
A
100
AcDbEntity
  8
_0-1_
 62
     7
100
AcDbPoint
 10
641.4465890500892
 20
229.0247586790146
 30
0.0
  0
POINT
  5
5314
330
A
100
AcDbEntity
  8
_0-1_
 62
     7
100
AcDbPoint
 10
676.3965890500892
 20
294.0490777464219
 30
0.0
  0
POINT
  5
5315
330
A
100
AcDbEntity
  8
_0-1_
 62
     7
100
AcDbPoint
 10
676.3965890500892
 20
265.8490777464218
 30
0.0
  0
POINT
  5
531A
330
A
100
AcDbEntity
  8
_0-1_
 62
     7
100
AcDbPoint
 10
745.2037178098002
 20
395.4490777464217
 30
0.0
  0
POINT
  5
531B
330
A
100
AcDbEntity
  8
_0-1_
 62
     7
100
AcDbPoint
 10
763.4037178098002
 20
395.4490777464217
 30
0.0
  0
POINT
  5
5320
330
A
100
AcDbEntity
  8
_0-1_
 62
     7
100
AcDbPoint
 10
698.3037178098
 20
365.4490777464217
 30
0.0
  0
POINT
  5
5323
330
A
100
AcDbEntity
  8
_0-1_
 62
     7
100
AcDbPoint
 10
698.3037178098
 20
348.0490777464219
 30
0.0
  0
POINT
  5
5326
330
A
100
AcDbEntity
  8
_0-1_
 62
     7
100
AcDbPoint
 10
560.8965890500892
 20
169.7575496549062
 30
0.0
  0
POINT
  5
5327
330
A
100
AcDbEntity
  8
_0-1_
 62
     7
100
AcDbPoint
 10
598.8965890500892
 20
169.7575496549062
 30
0.0
  0
LINE
  5
532B
330
A
100
AcDbEntity
  8
MODEL
100
AcDbLine
 10
223.0530403735675
 20
498.4734454368165
 30
0.0
 11
219.0530359926261
 21
498.4734454368165
 31
0.0
  0
LINE
  5
532C
330
A
100
AcDbEntity
  8
MODEL
100
AcDbLine
 10
219.0530359926261
 20
480.4734452803543
 30
0.0
 11
223.0530403735675
 21
480.4734452803543
 31
0.0
  0
LINE
  5
532D
330
A
100
AcDbEntity
  8
MODEL
100
AcDbLine
 10
94.0030388715304
 20
480.573445110481
 30
0.0
 11
94.95304005170237
 21
480.573445110481
 31
0.0
  0
LINE
  5
532E
330
A
100
AcDbEntity
  8
MODEL
100
AcDbLine
 10
94.95304005170237
 20
498.3734446753671
 30
0.0
 11
94.0030388715304
 21
498.3734446753671
 31
0.0
  0
LINE
  5
532F
330
A
100
AcDbEntity
  8
MODEL
100
AcDbLine
 10
176.6530372383631
 20
498.3734446753671
 30
0.0
 11
175.6530370744504
 21
498.3734446753671
 31
0.0
  0
LINE
  5
5330
330
A
100
AcDbEntity
  8
MODEL
100
AcDbLine
 10
137.3530369433201
 20
498.3734446753671
 30
0.0
 11
136.3530367794074
 21
498.3734446753671
 31
0.0
  0
LINE
  5
5331
330
A
100
AcDbEntity
  8
MODEL
100
AcDbLine
 10
219.0530359926261
 20
498.3734446753671
 30
0.0
 11
218.0530376913584
 21
498.3734446753671
 31
0.0
  0
LINE
  5
5332
330
A
100
AcDbEntity
  8
MODEL
100
AcDbLine
 10
218.0530376913584
 20
480.573445110481
 30
0.0
 11
219.0530359926261
 21
480.573445110481
 31
0.0
  0
LINE
  5
5333
330
A
100
AcDbEntity
  8
MODEL
100
AcDbLine
 10
136.3530367794074
 20
498.4734454368165
 30
0.0
 11
94.95304005170237
 21
498.4734454368165
 31
0.0
  0
LINE
  5
5334
330
A
100
AcDbEntity
  8
MODEL
100
AcDbLine
 10
218.0530376913584
 20
498.4734454368165
 30
0.0
 11
176.6530372383631
 21
498.4734454368165
 31
0.0
  0
LINE
  5
5335
330
A
100
AcDbEntity
  8
MODEL
100
AcDbLine
 10
223.0030395271815
 20
426.773444301348
 30
0.0
 11
219.0030388715304
 21
426.773444301348
 31
0.0
  0
LINE
  5
5336
330
A
100
AcDbEntity
  8
MODEL
100
AcDbLine
 10
219.0030388715304
 20
398.5734437768271
 30
0.0
 11
223.0030395271815
 21
398.5734437768271
 31
0.0
  0
LINE
  5
5337
330
A
100
AcDbEntity
  8
MODEL
100
AcDbLine
 10
94.0030388715304
 20
398.673445469599
 30
0.0
 11
94.95304005170237
 21
398.673445469599
 31
0.0
  0
LINE
  5
5338
330
A
100
AcDbEntity
  8
MODEL
100
AcDbLine
 10
218.0530376913584
 20
398.673445469599
 30
0.0
 11
219.0030388715304
 21
398.673445469599
 31
0.0
  0
LINE
  5
5339
330
A
100
AcDbEntity
  8
MODEL
100
AcDbLine
 10
219.0030388715304
 20
416.6734446947386
 30
0.0
 11
218.0530376913584
 21
416.6734446947386
 31
0.0
  0
LINE
  5
533A
330
A
100
AcDbEntity
  8
MODEL
100
AcDbLine
 10
94.95304005170237
 20
416.6734446947386
 30
0.0
 11
94.0030388715304
 21
416.6734446947386
 31
0.0
  0
LINE
  5
533B
330
A
100
AcDbEntity
  8
MODEL
100
AcDbLine
 10
175.5030363979376
 20
485.4734451685956
 30
0.0
 11
175.6530370744504
 21
485.4734451685956
 31
0.0
  0
LINE
  5
533C
330
A
100
AcDbEntity
  8
MODEL
100
AcDbLine
 10
175.6530370744504
 20
493.4734450829139
 30
0.0
 11
175.5030363979376
 21
493.4734450829139
 31
0.0
  0
LINE
  5
533D
330
A
100
AcDbEntity
  8
MODEL
100
AcDbLine
 10
94.0030388715304
 20
498.5734452669432
 30
0.0
 11
90.00303821587931
 21
498.5734452669432
 31
0.0
  0
LINE
  5
533E
330
A
100
AcDbEntity
  8
MODEL
100
AcDbLine
 10
90.00303821587931
 20
398.5734437768271
 30
0.0
 11
94.0030388715304
 21
398.5734437768271
 31
0.0
  0
LINE
  5
533F
330
A
100
AcDbEntity
  8
MODEL
100
AcDbLine
 10
137.3530369433201
 20
484.4484450471511
 30
0.0
 11
137.5030376198329
 21
484.4484450471511
 31
0.0
  0
LINE
  5
5340
330
A
100
AcDbEntity
  8
MODEL
100
AcDbLine
 10
137.5030376198329
 20
494.4984452043583
 30
0.0
 11
137.3530369433201
 21
494.4984452043583
 31
0.0
  0
LINE
  5
5341
330
A
100
AcDbEntity
  8
MODEL
100
AcDbLine
 10
219.0530359926261
 20
498.4734454368165
 30
0.0
 11
219.0530359926261
 21
480.4734452803543
 31
0.0
  0
LINE
  5
5342
330
A
100
AcDbEntity
  8
MODEL
100
AcDbLine
 10
223.0530403735675
 20
498.4734454368165
 30
0.0
 11
223.0530403735675
 21
480.4734452803543
 31
0.0
  0
LINE
  5
5343
330
A
100
AcDbEntity
  8
MODEL
100
AcDbLine
 10
175.6530370744504
 20
489.6132208117207
 30
0.0
 11
175.6530370744504
 21
498.3734446753671
 31
0.0
  0
LINE
  5
5344
330
A
100
AcDbEntity
  8
MODEL
100
AcDbLine
 10
175.6530370744504
 20
482.9220902350655
 30
0.0
 11
175.6530370744504
 21
489.6132208117207
 31
0.0
  0
LINE
  5
5345
330
A
100
AcDbEntity
  8
MODEL
100
AcDbLine
 10
137.3530369433201
 20
498.3734446753671
 30
0.0
 11
137.3530369433201
 21
482.9220902350655
 31
0.0
  0
LINE
  5
5346
330
A
100
AcDbEntity
  8
MODEL
100
AcDbLine
 10
136.3530367794074
 20
490.6121312118059
 30
0.0
 11
136.3530367794074
 21
483.9140540164819
 31
0.0
  0
ARC
  5
5347
330
A
100
AcDbEntity
  8
MODEL
100
AcDbCircle
 10
137.3490359577057
 20
483.918089552755
 30
0.0
 40
0.9960073537499877
100
AcDbArc
 50
180.2321467088508
 51
270.2301591501918
  0
LINE
  5
5348
330
A
100
AcDbEntity
  8
MODEL
100
AcDbLine
 10
137.3530369433201
 20
482.9220902350655
 30
0.0
 11
175.6530370744504
 21
482.9220902350655
 31
0.0
  0
ARC
  5
5349
330
A
100
AcDbEntity
  8
MODEL
100
AcDbCircle
 10
175.6570388313961
 20
483.9180887751749
 30
0.0
 40
0.9960065792748499
100
AcDbArc
 50
269.7697962992667
 51
359.7678978416963
  0
LINE
  5
534A
330
A
100
AcDbEntity
  8
MODEL
100
AcDbLine
 10
176.6530372383631
 20
483.9140540164819
 30
0.0
 11
176.6530372383631
 21
490.6121312118059
 31
0.0
  0
LINE
  5
534B
330
A
100
AcDbEntity
  8
MODEL
100
AcDbLine
 10
136.3530367794074
 20
498.4734454368165
 30
0.0
 11
136.3530367794074
 21
490.6121312118059
 31
0.0
  0
LINE
  5
534C
330
A
100
AcDbEntity
  8
MODEL
100
AcDbLine
 10
94.95304005170237
 20
490.6121312118059
 30
0.0
 11
94.95304005170237
 21
498.4734454368165
 31
0.0
  0
LINE
  5
534D
330
A
100
AcDbEntity
  8
MODEL
100
AcDbLine
 10
218.0530376913584
 20
498.4734454368165
 30
0.0
 11
218.0530376913584
 21
490.6121312118059
 31
0.0
  0
LINE
  5
534E
330
A
100
AcDbEntity
  8
MODEL
100
AcDbLine
 10
176.6530372383631
 20
490.6121312118059
 30
0.0
 11
176.6530372383631
 21
498.4734454368165
 31
0.0
  0
LINE
  5
534F
330
A
100
AcDbEntity
  8
MODEL
100
AcDbLine
 10
219.0030388715304
 20
407.6734488074591
 30
0.0
 11
219.0030388715304
 21
417.6734467212966
 31
0.0
  0
LINE
  5
5350
330
A
100
AcDbEntity
  8
MODEL
100
AcDbLine
 10
223.0030395271815
 20
407.6734488074591
 30
0.0
 11
223.0030395271815
 21
417.6734467212966
 31
0.0
  0
LINE
  5
5351
330
A
100
AcDbEntity
  8
MODEL
100
AcDbLine
 10
219.0030388715304
 20
417.6734467212966
 30
0.0
 11
219.0030388715304
 21
426.773444301348
 31
0.0
  0
LINE
  5
5352
330
A
100
AcDbEntity
  8
MODEL
100
AcDbLine
 10
223.0030395271815
 20
417.6734467212966
 30
0.0
 11
223.0030395271815
 21
426.773444301348
 31
0.0
  0
LINE
  5
5353
330
A
100
AcDbEntity
  8
MODEL
100
AcDbLine
 10
219.0030388715304
 20
398.5734437768271
 30
0.0
 11
219.0030388715304
 21
407.6734488074591
 31
0.0
  0
LINE
  5
5354
330
A
100
AcDbEntity
  8
MODEL
100
AcDbLine
 10
223.0030395271815
 20
398.5734437768271
 30
0.0
 11
223.0030395271815
 21
407.6734488074591
 31
0.0
  0
LINE
  5
5355
330
A
100
AcDbEntity
  8
MODEL
100
AcDbLine
 10
90.00303821587931
 20
498.5734452669432
 30
0.0
 11
90.00303821587931
 21
489.4734450966509
 31
0.0
  0
LINE
  5
5356
330
A
100
AcDbEntity
  8
MODEL
100
AcDbLine
 10
94.0030388715304
 20
498.5734452669432
 30
0.0
 11
94.0030388715304
 21
489.4734450966509
 31
0.0
  0
LINE
  5
5357
330
A
100
AcDbEntity
  8
MODEL
100
AcDbLine
 10
90.00303821587931
 20
489.4734450966509
 30
0.0
 11
90.00303821587931
 21
407.6734488074591
 31
0.0
  0
LINE
  5
5358
330
A
100
AcDbEntity
  8
MODEL
100
AcDbLine
 10
94.0030388715304
 20
489.4734450966509
 30
0.0
 11
94.0030388715304
 21
407.6734488074591
 31
0.0
  0
LINE
  5
5359
330
A
100
AcDbEntity
  8
MODEL
100
AcDbLine
 10
90.00303821587931
 20
407.6734488074591
 30
0.0
 11
90.00303821587931
 21
398.5734437768271
 31
0.0
  0
LINE
  5
535A
330
A
100
AcDbEntity
  8
MODEL
100
AcDbLine
 10
94.0030388715304
 20
407.6734488074591
 30
0.0
 11
94.0030388715304
 21
398.5734437768271
 31
0.0
  0
LINE
  5
535B
330
A
100
AcDbEntity
  8
MODEL
100
AcDbLine
 10
175.5030363979376
 20
498.1734450151136
 30
0.0
 11
175.5030363979376
 21
482.9220902350655
 31
0.0
  0
ARC
  5
535C
330
A
100
AcDbEntity
  8
MODEL
100
AcDbCircle
 10
175.2030372303473
 20
498.173445109668
 30
0.0
 40
0.3000000000000114
100
AcDbArc
 50
0.0
 51
90.0
  0
LINE
  5
535D
330
A
100
AcDbEntity
  8
MODEL
100
AcDbLine
 10
175.2030369075574
 20
498.4734454368165
 30
0.0
 11
137.8030371102132
 21
498.4734454368165
 31
0.0
  0
LINE
  5
535E
330
A
100
AcDbEntity
  8
MODEL
100
AcDbLine
 10
137.5030376198329
 20
482.9220902350655
 30
0.0
 11
137.5030376198329
 21
498.1734450151136
 31
0.0
  0
ARC
  5
535F
330
A
100
AcDbEntity
  8
MODEL
100
AcDbCircle
 10
137.8030372303473
 20
498.173445109668
 30
0.0
 40
0.3000000000000114
100
AcDbArc
 50
90.0
 51
180.0
  0
LINE
  5
5360
330
A
100
AcDbEntity
  8
MODEL
100
AcDbLine
 10
358.6721407259143
 20
489.4734451096679
 30
0.0
 11
358.6721407259143
 21
407.6734451096679
 31
0.0
  0
LINE
  5
5361
330
A
100
AcDbEntity
  8
MODEL
100
AcDbLine
 10
340.4721407259143
 20
407.6734451096679
 30
0.0
 11
340.4721407259143
 21
489.4734451096679
 31
0.0
  0
ARC
  5
5362
330
A
100
AcDbEntity
  8
MODEL
100
AcDbCircle
 10
349.5721407259143
 20
407.6734451096679
 30
0.0
 40
9.10000000000008
100
AcDbArc
 50
180.0
 51
0.0
  0
ARC
  5
5363
330
A
100
AcDbEntity
  8
MODEL
100
AcDbCircle
 10
349.5721407259143
 20
489.4734451096679
 30
0.0
 40
9.10000000000008
100
AcDbArc
 50
0.0
 51
180.0
  0
LINE
  5
5364
102
{ACAD_REACTORS
330
555B
102
}
330
A
100
AcDbEntity
  8
MODEL
100
AcDbLine
 10
323.5721407259143
 20
498.4734451096679
 30
0.0
 11
348.226778321207
 21
498.4734451096679
 31
0.0
  0
LINE
  5
5365
330
A
100
AcDbEntity
  8
MODEL
100
AcDbLine
 10
323.5721407259143
 20
498.173445109668
 30
0.0
 11
323.5721407259143
 21
498.4734451096679
 31
0.0
  0
LINE
  5
5366
330
A
100
AcDbEntity
  8
MODEL
100
AcDbLine
 10
323.5721407259143
 20
480.773445109668
 30
0.0
 11
323.5721407259143
 21
498.173445109668
 31
0.0
  0
LINE
  5
5367
330
A
100
AcDbEntity
  8
MODEL
100
AcDbLine
 10
340.4721407259144
 20
480.4734451096679
 30
0.0
 11
323.5721407259143
 21
480.4734451096679
 31
0.0
  0
LINE
  5
5368
102
{ACAD_REACTORS
330
555B
330
557E
102
}
330
A
100
AcDbEntity
  8
MODEL
100
AcDbLine
 10
323.5721407259143
 20
480.4734451096679
 30
0.0
 11
323.5721407259143
 21
480.773445109668
 31
0.0
  0
LINE
  5
5369
330
A
100
AcDbEntity
  8
MODEL
100
AcDbLine
 10
223.0530372303474
 20
216.4447982656882
 30
0.0
 11
219.0530372303474
 21
216.4447982656882
 31
0.0
  0
LINE
  5
536A
330
A
100
AcDbEntity
  8
MODEL
100
AcDbLine
 10
219.0530372303474
 20
198.4447982656881
 30
0.0
 11
223.0530372303474
 21
198.4447982656881
 31
0.0
  0
LINE
  5
536B
330
A
100
AcDbEntity
  8
MODEL
100
AcDbLine
 10
94.00303723034745
 20
198.5447982656881
 30
0.0
 11
94.95303723034749
 21
198.5447982656881
 31
0.0
  0
LINE
  5
536C
330
A
100
AcDbEntity
  8
MODEL
100
AcDbLine
 10
94.95303723034749
 20
216.3447982656882
 30
0.0
 11
94.00303723034745
 21
216.3447982656882
 31
0.0
  0
LINE
  5
536D
330
A
100
AcDbEntity
  8
MODEL
100
AcDbLine
 10
175.6530372303474
 20
198.5447982656881
 30
0.0
 11
176.6530372303474
 21
198.5447982656881
 31
0.0
  0
LINE
  5
536E
330
A
100
AcDbEntity
  8
MODEL
100
AcDbLine
 10
176.6530372303474
 20
216.3447982656882
 30
0.0
 11
175.6530372303474
 21
216.3447982656882
 31
0.0
  0
LINE
  5
536F
330
A
100
AcDbEntity
  8
MODEL
100
AcDbLine
 10
137.3530372303475
 20
216.3447982656882
 30
0.0
 11
136.3530372303475
 21
216.3447982656882
 31
0.0
  0
LINE
  5
5370
330
A
100
AcDbEntity
  8
MODEL
100
AcDbLine
 10
136.3530372303475
 20
198.5447982656881
 30
0.0
 11
137.3530372303475
 21
198.5447982656881
 31
0.0
  0
LINE
  5
5371
330
A
100
AcDbEntity
  8
MODEL
100
AcDbLine
 10
219.0530372303474
 20
216.3447982656882
 30
0.0
 11
218.0530372303474
 21
216.3447982656882
 31
0.0
  0
LINE
  5
5372
330
A
100
AcDbEntity
  8
MODEL
100
AcDbLine
 10
218.0530372303474
 20
198.5447982656881
 30
0.0
 11
219.0530372303474
 21
198.5447982656881
 31
0.0
  0
LINE
  5
5373
330
A
100
AcDbEntity
  8
MODEL
100
AcDbLine
 10
218.0530372303474
 20
216.4447982656882
 30
0.0
 11
176.6530372303474
 21
216.4447982656882
 31
0.0
  0
LINE
  5
5374
330
A
100
AcDbEntity
  8
MODEL
100
AcDbLine
 10
136.3530372303475
 20
216.4447982656882
 30
0.0
 11
94.95303723034749
 21
216.4447982656882
 31
0.0
  0
LINE
  5
5375
330
A
100
AcDbEntity
  8
MODEL
100
AcDbLine
 10
94.95303723034749
 20
185.6518645828749
 30
0.0
 11
218.0530372303474
 21
185.6518645828749
 31
0.0
  0
LINE
  5
5376
330
A
100
AcDbEntity
  8
MODEL
100
AcDbLine
 10
94.00303723034745
 20
198.4447982656882
 30
0.0
 11
94.95303723034749
 21
198.4447982656882
 31
0.0
  0
LINE
  5
5377
330
A
100
AcDbEntity
  8
MODEL
100
AcDbLine
 10
218.0530372303474
 20
198.4447982656882
 30
0.0
 11
219.0030372303474
 21
198.4447982656882
 31
0.0
  0
LINE
  5
5378
330
A
100
AcDbEntity
  8
MODEL
100
AcDbLine
 10
219.0030372303474
 20
216.4447982656882
 30
0.0
 11
218.0530372303474
 21
216.4447982656882
 31
0.0
  0
LINE
  5
5379
330
A
100
AcDbEntity
  8
MODEL
100
AcDbLine
 10
176.6530372303474
 20
216.4447982656882
 30
0.0
 11
175.5030372303474
 21
216.4447982656882
 31
0.0
  0
LINE
  5
537A
330
A
100
AcDbEntity
  8
MODEL
100
AcDbLine
 10
137.5030372303474
 20
216.4447982656882
 30
0.0
 11
136.3530372303475
 21
216.4447982656882
 31
0.0
  0
LINE
  5
537B
330
A
100
AcDbEntity
  8
MODEL
100
AcDbLine
 10
94.95303723034749
 20
216.4447982656882
 30
0.0
 11
94.00303723034745
 21
216.4447982656882
 31
0.0
  0
LINE
  5
537C
330
A
100
AcDbEntity
  8
MODEL
100
AcDbLine
 10
175.5030372303476
 20
203.4447982656881
 30
0.0
 11
175.6530372303474
 21
203.4447982656881
 31
0.0
  0
LINE
  5
537D
330
A
100
AcDbEntity
  8
MODEL
100
AcDbLine
 10
175.6530372303474
 20
211.4447982656881
 30
0.0
 11
175.5030372303474
 21
211.4447982656881
 31
0.0
  0
LINE
  5
537E
330
A
100
AcDbEntity
  8
MODEL
100
AcDbLine
 10
137.3530372303475
 20
202.4197982656881
 30
0.0
 11
137.5030372303476
 21
202.4197982656881
 31
0.0
  0
LINE
  5
537F
330
A
100
AcDbEntity
  8
MODEL
100
AcDbLine
 10
137.5030372303476
 20
212.4697982656882
 30
0.0
 11
137.3530372303475
 21
212.4697982656882
 31
0.0
  0
ARC
  5
5380
330
A
100
AcDbEntity
  8
MODEL
100
AcDbCircle
 10
175.2030372303475
 20
198.7447982656881
 30
0.0
 40
0.3000000000000114
100
AcDbArc
 50
270.0
 51
0.0
  0
LINE
  5
5381
330
A
100
AcDbEntity
  8
MODEL
100
AcDbLine
 10
137.8030372303475
 20
198.4447982656881
 30
0.0
 11
175.2030372303475
 21
198.4447982656881
 31
0.0
  0
ARC
  5
5382
330
A
100
AcDbEntity
  8
MODEL
100
AcDbCircle
 10
137.8030372303475
 20
198.7447982656881
 30
0.0
 40
0.299999999999983
100
AcDbArc
 50
180.0
 51
270.0
  0
LINE
  5
5383
330
A
100
AcDbEntity
  8
MODEL
100
AcDbLine
 10
219.0530372303474
 20
209.6390669750821
 30
0.0
 11
219.0530372303474
 21
198.4447982656881
 31
0.0
  0
LINE
  5
5384
330
A
100
AcDbEntity
  8
MODEL
100
AcDbLine
 10
219.0530372303474
 20
216.4447982656882
 30
0.0
 11
219.0530372303474
 21
209.6390669750821
 31
0.0
  0
LINE
  5
5385
330
A
100
AcDbEntity
  8
MODEL
100
AcDbLine
 10
223.0530372303474
 20
209.6390669750821
 30
0.0
 11
223.0530372303474
 21
198.4447982656881
 31
0.0
  0
LINE
  5
5386
330
A
100
AcDbEntity
  8
MODEL
100
AcDbLine
 10
223.0530372303474
 20
216.4447982656882
 30
0.0
 11
223.0530372303474
 21
209.6390669750821
 31
0.0
  0
LINE
  5
5387
330
A
100
AcDbEntity
  8
MODEL
100
AcDbLine
 10
175.6530372303474
 20
198.5447982656881
 30
0.0
 11
175.6530372303474
 21
216.3447982656882
 31
0.0
  0
LINE
  5
5388
330
A
100
AcDbEntity
  8
MODEL
100
AcDbLine
 10
137.3530372303475
 20
216.3447982656882
 30
0.0
 11
137.3530372303475
 21
198.5447982656881
 31
0.0
  0
LINE
  5
5389
330
A
100
AcDbEntity
  8
MODEL
100
AcDbLine
 10
176.6530372303474
 20
198.5171225379152
 30
0.0
 11
176.6530372303474
 21
216.4447982656882
 31
0.0
  0
LINE
  5
538A
330
A
100
AcDbEntity
  8
MODEL
100
AcDbLine
 10
218.0530372303474
 20
216.4447982656882
 30
0.0
 11
218.0530372303474
 21
198.5171225379152
 31
0.0
  0
LINE
  5
538B
330
A
100
AcDbEntity
  8
MODEL
100
AcDbLine
 10
136.3530372303475
 20
216.4447982656882
 30
0.0
 11
136.3530372303475
 21
198.5171225379152
 31
0.0
  0
LINE
  5
538C
330
A
100
AcDbEntity
  8
MODEL
100
AcDbLine
 10
94.95303723034749
 20
198.5171225379152
 30
0.0
 11
94.95303723034749
 21
216.4447982656882
 31
0.0
  0
LINE
  5
538D
330
A
100
AcDbEntity
  8
MODEL
100
AcDbLine
 10
218.0530372303474
 20
185.6639186288174
 30
0.0
 11
94.95303723034749
 21
185.6639186993581
 31
0.0
  0
LINE
  5
538E
330
A
100
AcDbEntity
  8
MODEL
100
AcDbLine
 10
94.95303723034749
 20
198.5171225379152
 30
0.0
 11
94.95303723034749
 21
185.6639186993581
 31
0.0
  0
LINE
  5
538F
330
A
100
AcDbEntity
  8
MODEL
100
AcDbLine
 10
136.3530372303475
 20
198.5171225379152
 30
0.0
 11
136.3530372303475
 21
197.6628119915325
 31
0.0
  0
ARC
  5
5390
330
A
100
AcDbEntity
  8
MODEL
100
AcDbCircle
 10
137.1070391010257
 20
199.6071433643851
 30
0.0
 40
2.085412023664685
100
AcDbArc
 50
248.8039592658454
 51
276.7744639479176
  0
LINE
  5
5391
330
A
100
AcDbEntity
  8
MODEL
100
AcDbLine
 10
137.3530372303475
 20
197.5362913105639
 30
0.0
 11
175.6530372303475
 21
197.5362913105639
 31
0.0
  0
ARC
  5
5392
330
A
100
AcDbEntity
  8
MODEL
100
AcDbCircle
 10
175.8990353596693
 20
199.6071433643849
 30
0.0
 40
2.085412023664426
100
AcDbArc
 50
263.2255360520847
 51
291.1960407341606
  0
LINE
  5
5393
330
A
100
AcDbEntity
  8
MODEL
100
AcDbLine
 10
176.6530372303475
 20
197.6628119915325
 30
0.0
 11
176.6530372303474
 21
198.5171225379152
 31
0.0
  0
LINE
  5
5394
330
A
100
AcDbEntity
  8
MODEL
100
AcDbLine
 10
218.0530372303474
 20
198.5171225379152
 30
0.0
 11
218.0530372303474
 21
185.6639186288174
 31
0.0
  0
LINE
  5
5395
330
A
100
AcDbEntity
  8
MODEL
100
AcDbLine
 10
175.6530372303475
 20
197.5362913105639
 30
0.0
 11
175.6530372303475
 21
198.5282552803166
 31
0.0
  0
ARC
  5
5396
330
A
100
AcDbEntity
  8
MODEL
100
AcDbCircle
 10
175.6681264398615
 20
205.4727132181681
 30
0.0
 40
6.944474331065972
100
AcDbArc
 50
269.8755055227497
 51
273.957548961547
  0
LINE
  5
5397
330
A
100
AcDbEntity
  8
MODEL
100
AcDbLine
 10
137.3530372303475
 20
198.5282552803166
 30
0.0
 11
137.3530372303475
 21
197.5362913105639
 31
0.0
  0
ARC
  5
5398
330
A
100
AcDbEntity
  8
MODEL
100
AcDbCircle
 10
137.3379480208329
 20
205.4727132181521
 30
0.0
 40
6.944474331049935
100
AcDbArc
 50
266.0424510384514
 51
270.1244944772581
  0
LINE
  5
5399
330
A
100
AcDbEntity
  8
MODEL
100
AcDbLine
 10
137.3530372303475
 20
198.5282552803166
 30
0.0
 11
137.5954098345483
 21
198.5282552803166
 31
0.0
  0
LINE
  5
539A
330
A
100
AcDbEntity
  8
MODEL
100
AcDbLine
 10
175.4106646261467
 20
198.5282552803166
 30
0.0
 11
175.6530372303475
 21
198.5282552803166
 31
0.0
  0
LINE
  5
539B
330
A
100
AcDbEntity
  8
MODEL
100
AcDbLine
 10
218.0530372303474
 20
185.6639186288174
 30
0.0
 11
218.0530372303474
 21
185.6518645828749
 31
0.0
  0
LINE
  5
539C
330
A
100
AcDbEntity
  8
MODEL
100
AcDbLine
 10
94.95303723034749
 20
185.6518645828749
 30
0.0
 11
94.95303723034749
 21
185.6639186993581
 31
0.0
  0
LINE
  5
539D
330
A
100
AcDbEntity
  8
MODEL
100
AcDbLine
 10
219.0030372303474
 20
216.5447982656881
 30
0.0
 11
223.0030372303474
 21
216.5447982656881
 31
0.0
  0
LINE
  5
539E
330
A
100
AcDbEntity
  8
MODEL
100
AcDbLine
 10
223.0030372303474
 20
198.3447982656882
 30
0.0
 11
223.0030372303474
 21
198.4447982656878
 31
0.0
  0
LINE
  5
539F
330
A
100
AcDbEntity
  8
MODEL
100
AcDbLine
 10
223.0030372303474
 20
216.4447982656878
 30
0.0
 11
223.0030372303474
 21
216.5447982656881
 31
0.0
  0
LINE
  5
53A0
330
A
100
AcDbEntity
  8
MODEL
100
AcDbLine
 10
219.0030372303474
 20
198.3447982656882
 30
0.0
 11
223.0030372303474
 21
198.3447982656882
 31
0.0
  0
LINE
  5
53A1
330
A
100
AcDbEntity
  8
MODEL
100
AcDbLine
 10
219.0030372303474
 20
198.3447982656882
 30
0.0
 11
219.0030372303474
 21
198.5447982656879
 31
0.0
  0
LINE
  5
53A2
330
A
100
AcDbEntity
  8
MODEL
100
AcDbLine
 10
219.0030372303474
 20
216.3447982656878
 30
0.0
 11
219.0030372303474
 21
216.5447982656881
 31
0.0
  0
LINE
  5
53A3
330
A
100
AcDbEntity
  8
MODEL
100
AcDbLine
 10
94.00303723034745
 20
216.5447982656881
 30
0.0
 11
90.00303723034745
 21
216.5447982656881
 31
0.0
  0
LINE
  5
53A4
330
A
100
AcDbEntity
  8
MODEL
100
AcDbLine
 10
94.00303723034745
 20
198.344798265688
 30
0.0
 11
90.00303723034745
 21
198.344798265688
 31
0.0
  0
LINE
  5
53A5
330
A
100
AcDbEntity
  8
MODEL
100
AcDbLine
 10
94.00303723034745
 20
216.5447982656881
 30
0.0
 11
94.00303723034745
 21
198.344798265688
 31
0.0
  0
LINE
  5
53A6
330
A
100
AcDbEntity
  8
MODEL
100
AcDbLine
 10
90.00303723034745
 20
216.5447982656881
 30
0.0
 11
90.00303723034745
 21
198.344798265688
 31
0.0
  0
LINE
  5
53A7
330
A
100
AcDbEntity
  8
MODEL
100
AcDbLine
 10
175.2030372303475
 20
207.4447982656881
 30
0.0
 11
137.8030372303475
 21
207.4447982656881
 31
0.0
  0
LINE
  5
53A8
330
A
100
AcDbEntity
  8
MODEL
100
AcDbLine
 10
175.2030372303475
 20
233.4447982656882
 30
0.0
 11
137.8030372303475
 21
233.4447982656882
 31
0.0
  0
LINE
  5
53A9
330
A
100
AcDbEntity
  8
MODEL
100
AcDbLine
 10
137.8030372303475
 20
207.4447982656881
 30
0.0
 11
137.5030372303476
 21
207.4447982656881
 31
0.0
  0
LINE
  5
53AA
330
A
100
AcDbEntity
  8
MODEL
100
AcDbLine
 10
137.5030372303476
 20
207.4447982656881
 30
0.0
 11
137.5030372303476
 21
233.4447982656882
 31
0.0
  0
LINE
  5
53AB
330
A
100
AcDbEntity
  8
MODEL
100
AcDbLine
 10
137.5030372303476
 20
233.4447982656882
 30
0.0
 11
137.8030372303475
 21
233.4447982656882
 31
0.0
  0
LINE
  5
53AC
330
A
100
AcDbEntity
  8
MODEL
100
AcDbLine
 10
175.5030372303476
 20
233.4447982656882
 30
0.0
 11
175.5030372303476
 21
207.4447982656881
 31
0.0
  0
LINE
  5
53AD
330
A
100
AcDbEntity
  8
MODEL
100
AcDbLine
 10
175.5030372303476
 20
207.4447982656881
 30
0.0
 11
175.2030372303475
 21
207.4447982656881
 31
0.0
  0
LINE
  5
53AE
330
A
100
AcDbEntity
  8
MODEL
100
AcDbLine
 10
175.2030372303475
 20
233.4447982656882
 30
0.0
 11
175.5030372303476
 21
233.4447982656882
 31
0.0
  0
LINE
  5
53AF
330
A
100
AcDbEntity
  8
MODEL
100
AcDbLine
 10
175.5030372303476
 20
207.4447982656881
 30
0.0
 11
175.5030372303476
 21
198.7447982656881
 31
0.0
  0
LINE
  5
53B0
330
A
100
AcDbEntity
  8
MODEL
100
AcDbLine
 10
137.5030372303476
 20
198.7447982656881
 30
0.0
 11
137.5030372303476
 21
207.4447982656881
 31
0.0
  0
LINE
  5
53B1
330
A
100
AcDbEntity
  8
MODEL
100
AcDbLine
 10
94.95304005170237
 20
490.6121312118059
 30
0.0
 11
94.95304005170237
 21
388.5657414557843
 31
0.0
  0
LINE
  5
53B2
330
A
100
AcDbEntity
  8
MODEL
100
AcDbLine
 10
218.0530376913584
 20
490.6121312118059
 30
0.0
 11
218.0530376913584
 21
388.5657414557843
 31
0.0
  0
LINE
  5
53B4
330
A
100
AcDbEntity
  8
MODEL
100
AcDbLine
 10
371.4176749809742
 20
387.8505072344213
 30
0.0
 11
370.4953487086339
 21
388.2369190679962
 31
0.0
  0
LINE
  5
53B5
330
A
100
AcDbEntity
  8
MODEL
100
AcDbLine
 10
371.4176749809742
 20
387.8505072344213
 30
0.0
 11
368.326380092547
 21
380.4718965309904
 31
0.0
  0
LINE
  5
53B6
330
A
100
AcDbEntity
  8
MODEL
100
AcDbLine
 10
367.4040537546182
 20
380.8583083920438
 30
0.0
 11
368.326380092547
 21
380.4718965309904
 31
0.0
  0
LINE
  5
53B7
330
A
100
AcDbEntity
  8
MODEL
100
AcDbLine
 10
370.4953487086339
 20
388.2369190679962
 30
0.0
 11
367.4040537546182
 21
380.8583083920438
 31
0.0
  0
ARC
  5
53B8
330
A
100
AcDbEntity
  8
MODEL
100
AcDbCircle
 10
370.0341854740809
 20
388.4301250260014
 30
0.0
 40
1.500000000000032
100
AcDbArc
 50
337.2685816722148
 51
7.26858167221611
  0
ARC
  5
53B9
330
A
100
AcDbEntity
  8
MODEL
100
AcDbCircle
 10
370.0341854035401
 20
388.4301250170042
 30
0.0
 40
0.500000137460684
100
AcDbArc
 50
337.2685857466473
 51
7.268581672221042
  0
LINE
  5
53BA
330
A
100
AcDbEntity
  8
MODEL
100
AcDbLine
 10
368.326380092547
 20
380.4718965309904
 30
0.0
 11
367.5535563704402
 21
378.6272438551326
 31
0.0
  0
LINE
  5
53BB
330
A
100
AcDbEntity
  8
MODEL
100
AcDbLine
 10
367.5535563704402
 20
378.6272438551326
 30
0.0
 11
366.6312300325114
 21
379.013655716186
 31
0.0
  0
LINE
  5
53BC
330
A
100
AcDbEntity
  8
MODEL
100
AcDbLine
 10
366.6312300325114
 20
379.013655716186
 30
0.0
 11
367.4040537546182
 21
380.8583083920438
 31
0.0
  0
LINE
  5
53BD
330
A
100
AcDbEntity
  8
MODEL
100
AcDbLine
 10
371.1527380603004
 20
388.5727915332768
 30
0.0
 11
371.5221314287096
 21
388.6199060474542
 31
0.0
  0
LINE
  5
53BE
330
A
100
AcDbEntity
  8
MODEL
100
AcDbLine
 10
370.5301675247724
 20
388.4933853748802
 30
0.0
 11
371.0855612206767
 21
388.5642234201662
 31
0.0
  0
LINE
  5
53BF
330
A
100
AcDbEntity
  8
MODEL
100
AcDbLine
 10
371.0855612206767
 20
388.5642234201662
 30
0.0
 11
371.1527380603004
 21
388.5727915332768
 31
0.0
  0
LINE
  5
53C0
330
A
100
AcDbEntity
  8
MODEL
100
AcDbLine
 10
358.6721407259143
 20
481.3572058444589
 30
0.0
 11
370.5167348719249
 21
388.4916720985543
 31
0.0
  0
LINE
  5
53C1
330
A
100
AcDbEntity
  8
MODEL
100
AcDbLine
 10
358.6721407259143
 20
489.2610519693328
 30
0.0
 11
371.5086987750649
 21
388.6181927710267
 31
0.0
  0
POINT
  5
53C3
330
A
100
AcDbEntity
  8
_0-1_
 62
     7
100
AcDbPoint
 10
471.3965890500892
 20
245.7490780735704
 30
0.0
  0
POINT
  5
53C5
330
A
100
AcDbEntity
  8
_0-1_
 62
     7
100
AcDbPoint
 10
471.3965890500892
 20
365.8490779036971
 30
0.0
  0
DIMENSION
  5
53C8
330
A
100
AcDbEntity
  8
DIM
100
AcDbDimension
  2
*D7
 10
45.10315014107067
 20
378.4734454368165
 30
0.0
 11
39.60315014107067
 21
438.5234453518799
 31
0.0
 70
    32
 71
     5
 42
120.0999998301267
 73
     0
 74
     0
 75
     0
  3
tfrom線あり
100
AcDbAlignedDimension
 13
90.69148996121021
 23
498.5734452669432
 33
0.0
 14
90.69148996121021
 24
378.4734454368165
 34
0.0
 50
90.0
100
AcDbRotatedDimension
1001
ACAD
1000
DSTYLE
1002
{
1070
   144
1040
1.0
1002
}
  0
DIMENSION
  5
53D5
330
A
100
AcDbEntity
  8
DIM
100
AcDbDimension
  2
*D8
 10
61.82427950439802
 20
398.5734451096679
 30
0.0
 11
56.32427950439802
 21
448.5734451096679
 31
0.0
 70
    32
 71
     5
 42
100.0
 73
     0
 74
     0
 75
     0
  3
tfrom線あり
100
AcDbAlignedDimension
 13
90.69148897567811
 23
498.5734451096679
 33
0.0
 14
90.69148897567811
 24
398.5734451096679
 34
0.0
 50
90.0
100
AcDbRotatedDimension
1001
ACAD
1000
DSTYLE
1002
{
1070
   144
1040
1.0
1002
}
  0
DIMENSION
  5
53E4
330
A
100
AcDbEntity
  8
DIM
100
AcDbDimension
  2
*D9
 10
223.0030372303472
 20
344.0844540746687
 30
0.0
 11
156.5030372303472
 21
349.5844540746687
 31
0.0
 70
    32
 71
     5
 42
133.0
 73
     0
 74
     0
 75
     0
  3
tfrom線あり
100
AcDbAlignedDimension
 13
90.00303723034722
 23
392.5734451096679
 33
0.0
 14
223.0030372303472
 24
392.5734451096679
 34
0.0
100
AcDbRotatedDimension
1001
ACAD
1000
DSTYLE
1002
{
1070
   144
1040
1.0
1002
}
  0
DIMENSION
  5
53F3
330
A
100
AcDbEntity
  8
DIM
100
AcDbDimension
  2
*D10
 10
94.95303723034726
 20
358.556587508005
 30
0.0
 11
156.5030372303472
 21
364.056587508005
 31
0.0
 70
    32
 71
     5
 42
123.0999999999999
 73
     0
 74
     0
 75
     0
  3
tfrom線あり
100
AcDbAlignedDimension
 13
218.0530372303472
 23
375.690754031148
 33
0.0
 14
94.95303723034726
 24
375.690754031148
 34
0.0
100
AcDbRotatedDimension
1001
ACAD
1000
DSTYLE
1002
{
1070
   144
1040
1.0
1002
}
  0
DIMENSION
  5
5402
330
A
100
AcDbEntity
  8
DIM
100
AcDbDimension
  2
*D11
 10
243.0648108819862
 20
426.773445109668
 30
0.0
 11
237.5648108819862
 21
412.673445109668
 31
0.0
 70
    32
 71
     5
 42
28.20000000000005
 73
     0
 74
     0
 75
     0
  3
tfrom線あり
100
AcDbAlignedDimension
 13
223.1324875841597
 23
398.5734451096679
 33
0.0
 14
223.1324875841597
 24
426.773445109668
 34
0.0
 50
90.0
100
AcDbRotatedDimension
1001
ACAD
1000
DSTYLE
1002
{
1070
   144
1040
1.0
1002
}
  0
DIMENSION
  5
5420
330
A
100
AcDbEntity
  8
DIM
100
AcDbDimension
  2
*D13
 10
358.6721407259147
 20
512.7150809123332
 30
0.0
 11
349.5721407259146
 21
518.2150809123332
 31
0.0
 70
    32
 71
     5
 42
18.20000000000016
 73
     0
 74
     0
 75
     0
  3
tfrom線あり
100
AcDbAlignedDimension
 13
340.4721407259145
 23
491.9724721624703
 33
0.0
 14
358.6721407259147
 24
493.7336370563266
 34
0.0
100
AcDbRotatedDimension
1001
ACAD
1000
DSTYLE
1002
{
1070
   144
1040
1.0
1002
}
  0
DIMENSION
  5
542F
330
A
100
AcDbEntity
  8
DIM
100
AcDbDimension
  2
*D14
 10
175.5030372303474
 20
291.0986408692997
 30
0.0
 11
156.5030372303474
 21
296.5986408692997
 31
0.0
 70
    32
 71
     5
 42
38.0
 73
     0
 74
     0
 75
     0
  3
tfrom線あり
100
AcDbAlignedDimension
 13
137.5030372303474
 23
232.8525749046527
 33
0.0
 14
175.5030372303474
 24
232.8525749046527
 34
0.0
100
AcDbRotatedDimension
1001
ACAD
1000
DSTYLE
1002
{
1070
   144
1040
1.0
1002
}
  0
LINE
  5
552F
102
{ACAD_REACTORS
330
5556
102
}
330
A
100
AcDbEntity
  8
HIDDEN
 48
0.5
100
AcDbLine
 10
340.5721407259143
 20
483.473445109668
 30
0.0
 11
323.5721407259142
 21
483.473445109668
 31
0.0
  0
LINE
  5
5530
102
{ACAD_REACTORS
330
5556
330
5557
102
}
330
A
100
AcDbEntity
  8
HIDDEN
 48
0.5
100
AcDbLine
 10
323.5721407259142
 20
483.473445109668
 30
0.0
 11
323.5721407259143
 21
495.4734451096679
 31
0.0
  0
LINE
  5
5531
102
{ACAD_REACTORS
330
5556
330
5557
102
}
330
A
100
AcDbEntity
  8
HIDDEN
 48
0.5
100
AcDbLine
 10
323.5721407259143
 20
495.4734451096679
 30
0.0
 11
340.5721407259143
 21
495.4734451096679
 31
0.0
  0
LINE
  5
5532
102
{ACAD_REACTORS
330
5556
330
5557
102
}
330
A
100
AcDbEntity
  8
HIDDEN
 48
0.5
100
AcDbLine
 10
340.5721407259143
 20
495.4734451096679
 30
0.0
 11
340.5721407259143
 21
483.473445109668
 31
0.0
  0
LINE
  5
5533
102
{ACAD_REACTORS
330
5556
330
5557
330
5558
102
}
330
A
100
AcDbEntity
  8
HIDDEN
 48
0.5
100
AcDbLine
 10
328.5721407259143
 20
493.4734451096681
 30
0.0
 11
328.5721407259143
 21
485.4734451096679
 31
0.0
  0
LINE
  5
5534
102
{ACAD_REACTORS
330
5556
330
5557
330
5558
102
}
330
A
100
AcDbEntity
  8
HIDDEN
 48
0.5
100
AcDbLine
 10
328.5721407259143
 20
493.4734451096681
 30
0.0
 11
340.5721407259143
 21
493.4734451096681
 31
0.0
  0
LINE
  5
5535
102
{ACAD_REACTORS
330
5556
330
5557
330
5558
102
}
330
A
100
AcDbEntity
  8
HIDDEN
 48
0.5
100
AcDbLine
 10
328.5721407259143
 20
485.4734451096679
 30
0.0
 11
340.5721407259143
 21
485.4734451096679
 31
0.0
  0
LINE
  5
5536
102
{ACAD_REACTORS
330
5556
330
5557
330
5558
102
}
330
A
100
AcDbEntity
  8
HIDDEN
 48
0.5
100
AcDbLine
 10
323.5721407259143
 20
491.9734451096675
 30
0.0
 11
328.5721407259143
 21
491.9734451096675
 31
0.0
  0
LINE
  5
5537
102
{ACAD_REACTORS
330
5556
330
5557
330
5558
102
}
330
A
100
AcDbEntity
  8
HIDDEN
 48
0.5
100
AcDbLine
 10
323.5721407259142
 20
486.9734451096685
 30
0.0
 11
328.5721407259143
 21
486.9734451096685
 31
0.0
  0
LINE
  5
5538
102
{ACAD_REACTORS
330
5556
330
5557
330
5558
102
}
330
A
100
AcDbEntity
  8
HIDDEN
 48
0.5
100
AcDbLine
 10
331.5721407259143
 20
485.4734451096679
 30
0.0
 11
331.5721407259143
 21
480.4734451096679
 31
0.0
  0
LINE
  5
5539
102
{ACAD_REACTORS
330
5556
330
5557
330
5558
102
}
330
A
100
AcDbEntity
  8
HIDDEN
 48
0.5
100
AcDbLine
 10
335.5721407259143
 20
485.4734451096679
 30
0.0
 11
335.5721407259143
 21
480.4734451096679
 31
0.0
  0
LINE
  5
553A
102
{ACAD_REACTORS
330
5556
330
5557
330
5558
102
}
330
A
100
AcDbEntity
  8
HIDDEN
 48
0.5
100
AcDbLine
 10
328.913577854684
 20
491.9734451096675
 30
0.0
 11
328.913577854684
 21
486.9299766124347
 31
0.0
  0
ARC
  5
553B
102
{ACAD_REACTORS
330
5556
330
5557
330
5558
102
}
330
A
100
AcDbEntity
  8
HIDDEN
 48
0.5
100
AcDbCircle
 10
327.6473750036874
 20
489.451710861051
 30
0.0
 40
2.821774845822474
100
AcDbArc
 50
296.6619545850425
 51
63.33804541495758
  0
LINE
  5
553C
102
{ACAD_REACTORS
330
5556
330
5557
330
5558
102
}
330
A
100
AcDbEntity
  8
HIDDEN
 48
0.5
100
AcDbLine
 10
328.913577854684
 20
491.9734451096675
 30
0.0
 11
328.5721407259143
 21
491.9734451096675
 31
0.0
  0
LINE
  5
553D
102
{ACAD_REACTORS
330
5556
330
5557
330
5558
102
}
330
A
100
AcDbEntity
  8
HIDDEN
 48
0.5
100
AcDbLine
 10
328.913577854684
 20
486.9299766124347
 30
0.0
 11
328.5721407259143
 21
486.9299766124347
 31
0.0
  0
LINE
  5
553E
102
{ACAD_REACTORS
330
5556
330
5557
330
5558
102
}
330
A
100
AcDbEntity
  8
HIDDEN
 48
0.5
100
AcDbLine
 10
323.5721407259143
 20
490.9335073329203
 30
0.0
 11
328.5721407259143
 21
490.9335073329203
 31
0.0
  0
LINE
  5
553F
102
{ACAD_REACTORS
330
5556
330
5557
330
5558
102
}
330
A
100
AcDbEntity
  8
HIDDEN
 48
0.5
100
AcDbLine
 10
323.5721407259142
 20
488.0133828864155
 30
0.0
 11
328.5721407259143
 21
488.0133828864155
 31
0.0
  0
LINE
  5
5540
102
{ACAD_REACTORS
330
5555
102
}
330
A
100
AcDbEntity
  8
MODEL
100
AcDbLine
 10
289.5721407259141
 20
489.4734451096679
 30
0.0
 11
292.4609615051318
 21
488.0133828864155
 31
0.0
  0
LINE
  5
5541
102
{ACAD_REACTORS
330
5555
102
}
330
A
100
AcDbEntity
  8
MODEL
100
AcDbLine
 10
289.5721407259141
 20
489.4734451096679
 30
0.0
 11
292.4609615051318
 21
490.9335073329203
 31
0.0
  0
LINE
  5
5542
102
{ACAD_REACTORS
330
5555
102
}
330
A
100
AcDbEntity
  8
MODEL
100
AcDbLine
 10
292.3631849715867
 20
487.3749937200864
 30
0.0
 11
294.5390548111739
 21
491.5635431612915
 31
0.0
  0
LINE
  5
5543
102
{ACAD_REACTORS
330
5555
102
}
330
A
100
AcDbEntity
  8
MODEL
100
AcDbLine
 10
299.6688864326015
 20
487.366883638061
 30
0.0
 11
301.8575217277777
 21
491.580006581275
 31
0.0
  0
LINE
  5
5544
102
{ACAD_REACTORS
330
5555
102
}
330
A
100
AcDbEntity
  8
MODEL
100
AcDbLine
 10
319.8032123103252
 20
487.366883638061
 30
0.0
 11
321.9918476055013
 21
491.580006581275
 31
0.0
  0
LINE
  5
5545
102
{ACAD_REACTORS
330
5555
102
}
330
A
100
AcDbEntity
  8
MODEL
100
AcDbLine
 10
308.7100964604966
 20
487.366883638061
 30
0.0
 11
310.8987317556728
 21
491.580006581275
 31
0.0
  0
LINE
  5
5546
102
{ACAD_REACTORS
330
5555
102
}
330
A
100
AcDbEntity
  8
MODEL
100
AcDbLine
 10
294.282633650026
 20
487.366883638061
 30
0.0
 11
296.4712689452022
 21
491.580006581275
 31
0.0
  0
LINE
  5
5547
102
{ACAD_REACTORS
330
5555
102
}
330
A
100
AcDbEntity
  8
MODEL
100
AcDbLine
 10
305.1192612721127
 20
487.366883638061
 30
0.0
 11
307.3078965672888
 21
491.580006581275
 31
0.0
  0
LINE
  5
5548
102
{ACAD_REACTORS
330
5555
102
}
330
A
100
AcDbEntity
  8
MODEL
100
AcDbLine
 10
316.2123771219414
 20
487.366883638061
 30
0.0
 11
318.4010124171175
 21
491.580006581275
 31
0.0
  0
LINE
  5
5549
102
{ACAD_REACTORS
330
5555
102
}
330
A
100
AcDbEntity
  8
MODEL
100
AcDbLine
 10
296.0139291872824
 20
487.366883638061
 30
0.0
 11
298.2025644824586
 21
491.580006581275
 31
0.0
  0
LINE
  5
554A
102
{ACAD_REACTORS
330
5555
102
}
330
A
100
AcDbEntity
  8
MODEL
100
AcDbLine
 10
314.2887154138785
 20
487.366883638061
 30
0.0
 11
316.4773507090547
 21
491.580006581275
 31
0.0
  0
LINE
  5
554B
102
{ACAD_REACTORS
330
5555
102
}
330
A
100
AcDbEntity
  8
MODEL
100
AcDbLine
 10
310.6337581685594
 20
487.366883638061
 30
0.0
 11
312.8223934637356
 21
491.580006581275
 31
0.0
  0
LINE
  5
554C
102
{ACAD_REACTORS
330
5555
102
}
330
A
100
AcDbEntity
  8
MODEL
100
AcDbLine
 10
303.1955995640499
 20
487.366883638061
 30
0.0
 11
305.384234859226
 21
491.580006581275
 31
0.0
  0
LINE
  5
554D
102
{ACAD_REACTORS
330
5555
102
}
330
A
100
AcDbEntity
  8
MODEL
100
AcDbLine
 10
297.7452247245387
 20
487.366883638061
 30
0.0
 11
299.9338600197149
 21
491.580006581275
 31
0.0
  0
LINE
  5
554E
102
{ACAD_REACTORS
330
5555
102
}
330
A
100
AcDbEntity
  8
MODEL
100
AcDbLine
 10
301.400181969858
 20
487.366883638061
 30
0.0
 11
303.5888172650341
 21
491.580006581275
 31
0.0
  0
LINE
  5
554F
102
{ACAD_REACTORS
330
5555
102
}
330
A
100
AcDbEntity
  8
MODEL
100
AcDbLine
 10
312.3650537058159
 20
487.366883638061
 30
0.0
 11
314.553689000992
 21
491.580006581275
 31
0.0
  0
LINE
  5
5550
102
{ACAD_REACTORS
330
5555
102
}
330
A
100
AcDbEntity
  8
MODEL
100
AcDbLine
 10
317.9436726591978
 20
487.366883638061
 30
0.0
 11
320.1323079543739
 21
491.580006581275
 31
0.0
  0
LINE
  5
5551
102
{ACAD_REACTORS
330
5555
102
}
330
A
100
AcDbEntity
  8
MODEL
100
AcDbLine
 10
306.8505568093691
 20
487.366883638061
 30
0.0
 11
309.0391921045452
 21
491.580006581275
 31
0.0
  0
LINE
  5
5552
102
{ACAD_REACTORS
330
5555
102
}
330
A
100
AcDbEntity
  8
MODEL
100
AcDbLine
 10
321.726874018388
 20
487.366883638061
 30
0.0
 11
323.3884252634519
 21
490.9335073329203
 31
0.0
  0
LINE
  5
5553
102
{ACAD_REACTORS
330
5555
102
}
330
A
100
AcDbEntity
  8
MODEL
100
AcDbLine
 10
323.5721407259143
 20
490.9335073329203
 30
0.0
 11
292.4609615051318
 21
490.9335073329203
 31
0.0
  0
LINE
  5
5554
102
{ACAD_REACTORS
330
5555
102
}
330
A
100
AcDbEntity
  8
MODEL
100
AcDbLine
 10
323.5721407259142
 20
488.0133828864155
 30
0.0
 11
292.4609615051318
 21
488.0133828864155
 31
0.0
  0
DIMENSION
  5
5559
102
{ACAD_REACTORS
330
555B
102
}
102
{ACAD_XDICTIONARY
360
555A
102
}
330
A
100
AcDbEntity
  8
DIM
100
AcDbDimension
  2
*D15
 10
269.1752528486873
 20
498.4734451096679
 30
0.0
 11
263.6752528486873
 21
489.4734451096679
 31
0.0
 70
    32
 71
     5
 42
18.0
 73
     0
 74
     0
 75
     0
  3
tfrom線あり
100
AcDbAlignedDimension
 13
323.5721407259143
 23
480.4734451096679
 33
0.0
 14
323.5721407259143
 24
498.4734451096679
 34
0.0
 50
90.0
100
AcDbRotatedDimension
1001
ACAD
1000
DSTYLE
1002
{
1070
   144
1040
1.0
1002
}
  0
DIMENSION
  5
5568
330
A
100
AcDbEntity
  8
DIM
100
AcDbDimension
  2
*D16
 10
279.9156973853708
 20
480.4734451096679
 30
0.0
 11
279.9156973853708
 21
484.9734451096679
 31
0.0
 70
   160
 71
     5
 42
9.0
 73
     0
 74
     0
 75
     0
  3
tfrom線あり
100
AcDbAlignedDimension
 13
290.2935138664378
 23
489.4734451096679
 33
0.0
 14
290.2935138664378
 24
480.4734451096679
 34
0.0
 50
90.0
100
AcDbRotatedDimension
1001
ACAD
1000
DSTYLE
1002
{
1070
   144
1040
1.0
1002
}
  0
DIMENSION
  5
557C
102
{ACAD_REACTORS
330
557E
102
}
102
{ACAD_XDICTIONARY
360
557D
102
}
330
A
100
AcDbEntity
  8
DIM
100
AcDbDimension
  2
*D17
 10
333.5721407259143
 20
461.1069538738888
 30
0.0
 11
328.5721407259143
 21
461.1069538738888
 31
0.0
 70
   160
 71
     5
 42
10.0
 73
     0
 74
     0
 75
     0
  3
tfrom線あり
100
AcDbAlignedDimension
 13
323.5721407259143
 23
480.4734451096679
 33
0.0
 14
333.5721407259143
 24
480.4734451096679
 34
0.0
100
AcDbRotatedDimension
1001
ACAD
1000
DSTYLE
1002
{
1070
   144
1040
1.0
1002
}
  0
DIMENSION
  5
558C
330
A
100
AcDbEntity
  8
DIM
100
AcDbDimension
  2
*D18
 10
289.5721407259143
 20
461.1069538738888
 30
0.0
 11
306.5721407259143
 21
466.6069538738888
 31
0.0
 70
    32
 71
     5
 42
34.0
 73
     0
 74
     0
 75
     0
  3
tfrom線あり
100
AcDbAlignedDimension
 13
323.5721407259143
 23
475.4734451096679
 33
0.0
 14
289.5721407259143
 24
488.2661716991727
 34
0.0
100
AcDbRotatedDimension
1001
ACAD
1000
DSTYLE
1002
{
1070
   144
1040
1.0
1002
}
  0
LINE
  5
559D
330
A
100
AcDbEntity
  8
HIDDEN
 48
0.5
100
AcDbLine
 10
140.0030372303473
 20
216.4447982656882
 30
0.0
 11
140.0030372303474
 21
233.4447982656882
 31
0.0
  0
LINE
  5
559E
330
A
100
AcDbEntity
  8
HIDDEN
 48
0.5
100
AcDbLine
 10
140.0030372303474
 20
233.4447982656882
 30
0.0
 11
173.0030372303474
 21
233.4447982656882
 31
0.0
  0
LINE
  5
559F
330
A
100
AcDbEntity
  8
HIDDEN
 48
0.5
100
AcDbLine
 10
173.0030372303474
 20
233.4447982656882
 30
0.0
 11
173.0030372303474
 21
216.4447982656882
 31
0.0
  0
LINE
  5
55A0
330
A
100
AcDbEntity
  8
HIDDEN
 48
0.5
100
AcDbLine
 10
173.0030372303474
 20
216.4447982656882
 30
0.0
 11
140.0030372303473
 21
216.4447982656882
 31
0.0
  0
CIRCLE
  5
55A1
330
A
100
AcDbEntity
  8
HIDDEN
 48
0.5
100
AcDbCircle
 10
156.5030372303473
 20
223.4447982656882
 30
0.0
 40
2.0
  0
LINE
  5
55A2
330
A
100
AcDbEntity
  8
HIDDEN
 48
0.5
100
AcDbLine
 10
150.0030372303476
 20
228.4447982656882
 30
0.0
 11
142.0030372303476
 21
228.4447982656882
 31
0.0
  0
LINE
  5
55A3
330
A
100
AcDbEntity
  8
HIDDEN
 48
0.5
100
AcDbLine
 10
150.0030372303476
 20
228.4447982656882
 30
0.0
 11
150.0030372303476
 21
216.4447982656882
 31
0.0
  0
LINE
  5
55A4
330
A
100
AcDbEntity
  8
HIDDEN
 48
0.5
100
AcDbLine
 10
142.0030372303476
 20
228.4447982656882
 30
0.0
 11
142.0030372303476
 21
216.4447982656882
 31
0.0
  0
LINE
  5
55A7
330
A
100
AcDbEntity
  8
HIDDEN
 48
0.5
100
AcDbLine
 10
163.0030372303473
 20
228.4447982656882
 30
0.0
 11
171.0030372303473
 21
228.4447982656882
 31
0.0
  0
LINE
  5
55A8
330
A
100
AcDbEntity
  8
HIDDEN
 48
0.5
100
AcDbLine
 10
163.0030372303473
 20
228.4447982656882
 30
0.0
 11
163.0030372303473
 21
216.4447982656882
 31
0.0
  0
LINE
  5
55A9
330
A
100
AcDbEntity
  8
HIDDEN
 48
0.5
100
AcDbLine
 10
171.0030372303473
 20
228.4447982656882
 30
0.0
 11
171.0030372303473
 21
216.4447982656882
 31
0.0
  0
LINE
  5
55AB
330
A
100
AcDbEntity
  8
HIDDEN
 48
0.5
100
AcDbLine
 10
164.481302981731
 20
233.4447982656882
 30
0.0
 11
164.481302981731
 21
228.4447982656882
 31
0.0
  0
LINE
  5
55AD
102
{ACAD_REACTORS
330
55BE
102
}
330
A
100
AcDbEntity
  8
HIDDEN
 48
0.5
100
AcDbLine
 10
173.0030370088853
 20
483.4734451096679
 30
0.0
 11
173.0030370088853
 21
495.4734451096679
 31
0.0
  0
LINE
  5
55AE
102
{ACAD_REACTORS
330
55BE
102
}
330
A
100
AcDbEntity
  8
HIDDEN
 48
0.5
100
AcDbLine
 10
140.0030370088853
 20
483.4734451096679
 30
0.0
 11
140.0030370088854
 21
495.473445109668
 31
0.0
  0
LINE
  5
55AF
102
{ACAD_REACTORS
330
55BE
102
}
330
A
100
AcDbEntity
  8
HIDDEN
 48
0.5
100
AcDbLine
 10
173.0030370088853
 20
483.4734451096679
 30
0.0
 11
173.0030370088853
 21
495.4734451096679
 31
0.0
  0
LINE
  5
55B0
102
{ACAD_REACTORS
330
55BE
102
}
330
A
100
AcDbEntity
  8
HIDDEN
 48
0.5
100
AcDbLine
 10
160.0030370088851
 20
483.4734451096679
 30
0.0
 11
173.0030370088853
 21
483.4734451096679
 31
0.0
  0
LINE
  5
55B1
102
{ACAD_REACTORS
330
55BE
102
}
330
A
100
AcDbEntity
  8
HIDDEN
 48
0.5
100
AcDbLine
 10
140.0030370088853
 20
483.4734451096679
 30
0.0
 11
153.0030370088854
 21
483.4734451096679
 31
0.0
  0
LINE
  5
55B2
102
{ACAD_REACTORS
330
55BE
102
}
330
A
100
AcDbEntity
  8
HIDDEN
 48
0.5
100
AcDbLine
 10
153.0030370088854
 20
484.2749708213607
 30
0.0
 11
160.0030370088851
 21
484.2749708213607
 31
0.0
  0
LINE
  5
55B3
102
{ACAD_REACTORS
330
55BE
102
}
330
A
100
AcDbEntity
  8
HIDDEN
 48
0.5
100
AcDbLine
 10
153.0030370088854
 20
484.2749708213607
 30
0.0
 11
153.0030370088854
 21
483.4734451096679
 31
0.0
  0
LINE
  5
55B4
102
{ACAD_REACTORS
330
55BE
102
}
330
A
100
AcDbEntity
  8
HIDDEN
 48
0.5
100
AcDbLine
 10
160.0030370088851
 20
484.2749708213607
 30
0.0
 11
160.0030370088851
 21
483.4734451096679
 31
0.0
  0
LINE
  5
55B5
102
{ACAD_REACTORS
330
55BE
102
}
330
A
100
AcDbEntity
  8
HIDDEN
 48
0.5
100
AcDbLine
 10
160.0030370088851
 20
495.4734451096681
 30
0.0
 11
173.0030370088853
 21
495.4734451096681
 31
0.0
  0
LINE
  5
55B6
102
{ACAD_REACTORS
330
55BE
102
}
330
A
100
AcDbEntity
  8
HIDDEN
 48
0.5
100
AcDbLine
 10
140.0030370088853
 20
495.4734451096681
 30
0.0
 11
153.0030370088854
 21
495.4734451096681
 31
0.0
  0
LINE
  5
55B7
102
{ACAD_REACTORS
330
55BE
102
}
330
A
100
AcDbEntity
  8
HIDDEN
 48
0.5
100
AcDbLine
 10
153.0030370088854
 20
494.6719193979753
 30
0.0
 11
160.0030370088851
 21
494.6719193979753
 31
0.0
  0
LINE
  5
55B8
102
{ACAD_REACTORS
330
55BE
102
}
330
A
100
AcDbEntity
  8
HIDDEN
 48
0.5
100
AcDbLine
 10
153.0030370088854
 20
494.6719193979753
 30
0.0
 11
153.0030370088854
 21
495.4734451096681
 31
0.0
  0
LINE
  5
55B9
102
{ACAD_REACTORS
330
55BE
102
}
330
A
100
AcDbEntity
  8
HIDDEN
 48
0.5
100
AcDbLine
 10
160.0030370088851
 20
494.6719193979753
 30
0.0
 11
160.0030370088851
 21
495.4734451096681
 31
0.0
  0
CIRCLE
  5
55BA
102
{ACAD_REACTORS
330
55BE
102
}
330
A
100
AcDbEntity
  8
HIDDEN
 48
0.5
100
AcDbCircle
 10
146.0030370088854
 20
489.4734451096679
 30
0.0
 40
2.5
  0
CIRCLE
  5
55BB
102
{ACAD_REACTORS
330
55BE
102
}
330
A
100
AcDbEntity
  8
HIDDEN
 48
0.5
100
AcDbCircle
 10
167.0030370088853
 20
489.4734451096672
 30
0.0
 40
2.5
  0
CIRCLE
  5
55BC
102
{ACAD_REACTORS
330
55BE
102
}
330
A
100
AcDbEntity
  8
HIDDEN
 48
0.5
100
AcDbCircle
 10
146.0030370088854
 20
489.4734451096679
 30
0.0
 40
4.0
  0
CIRCLE
  5
55BD
102
{ACAD_REACTORS
330
55BE
102
}
330
A
100
AcDbEntity
  8
HIDDEN
 48
0.5
100
AcDbCircle
 10
167.0030370088851
 20
489.4734451096679
 30
0.0
 40
4.0
  0
LINE
  5
55E2
330
A
100
AcDbEntity
  8
HIDDEN
 48
0.5
100
AcDbLine
 10
169.5247714789637
 20
233.4447982656882
 30
0.0
 11
169.5247714789637
 21
228.4447982656882
 31
0.0
  0
LINE
  5
55E4
330
A
100
AcDbEntity
  8
HIDDEN
 48
0.5
100
AcDbLine
 10
169.5247714789637
 20
228.1033611369185
 30
0.0
 11
164.481302981731
 21
228.1033611369185
 31
0.0
  0
ARC
  5
55E5
330
A
100
AcDbEntity
  8
HIDDEN
 48
0.5
100
AcDbCircle
 10
167.0030372303473
 20
229.3695639879151
 30
0.0
 40
2.821774845822474
100
AcDbArc
 50
206.6619545850424
 51
333.3380454149575
  0
LINE
  5
55E6
330
A
100
AcDbEntity
  8
HIDDEN
 48
0.5
100
AcDbLine
 10
169.5247714789637
 20
228.1033611369185
 30
0.0
 11
169.5247714789637
 21
228.4447982656882
 31
0.0
  0
LINE
  5
55E7
330
A
100
AcDbEntity
  8
HIDDEN
 48
0.5
100
AcDbLine
 10
164.481302981731
 20
228.1033611369185
 30
0.0
 11
164.481302981731
 21
228.4447982656882
 31
0.0
  0
LINE
  5
55E8
102
{ACAD_REACTORS
330
5601
330
5634
102
}
330
A
100
AcDbEntity
  8
MODEL
100
AcDbLine
 10
167.0247714789642
 20
267.4447982656884
 30
0.0
 11
165.5647092557118
 21
264.5559774864707
 31
0.0
  0
LINE
  5
55E9
102
{ACAD_REACTORS
330
5601
102
}
330
A
100
AcDbEntity
  8
MODEL
100
AcDbLine
 10
167.0247714789642
 20
267.4447982656884
 30
0.0
 11
168.4848337022166
 21
264.5559774864707
 31
0.0
  0
LINE
  5
55EA
102
{ACAD_REACTORS
330
5601
102
}
330
A
100
AcDbEntity
  8
MODEL
100
AcDbLine
 10
164.9263200893827
 20
264.6537540200158
 30
0.0
 11
169.1148695305878
 21
262.4778841804286
 31
0.0
  0
LINE
  5
55EB
102
{ACAD_REACTORS
330
5601
102
}
330
A
100
AcDbEntity
  8
MODEL
100
AcDbLine
 10
164.9182100073573
 20
257.348052559001
 30
0.0
 11
169.1313329505713
 21
255.1594172638248
 31
0.0
  0
LINE
  5
55EC
102
{ACAD_REACTORS
330
5601
102
}
330
A
100
AcDbEntity
  8
MODEL
100
AcDbLine
 10
164.9182100073573
 20
237.2137266812773
 30
0.0
 11
169.1313329505713
 21
235.0250913861012
 31
0.0
  0
LINE
  5
55ED
102
{ACAD_REACTORS
330
5601
102
}
330
A
100
AcDbEntity
  8
MODEL
100
AcDbLine
 10
164.9182100073573
 20
248.3068425311059
 30
0.0
 11
169.1313329505713
 21
246.1182072359297
 31
0.0
  0
LINE
  5
55EE
102
{ACAD_REACTORS
330
5601
102
}
330
A
100
AcDbEntity
  8
MODEL
100
AcDbLine
 10
164.9182100073573
 20
262.7343053415765
 30
0.0
 11
169.1313329505713
 21
260.5456700464003
 31
0.0
  0
LINE
  5
55EF
102
{ACAD_REACTORS
330
5601
102
}
330
A
100
AcDbEntity
  8
MODEL
100
AcDbLine
 10
164.9182100073573
 20
251.8976777194898
 30
0.0
 11
169.1313329505713
 21
249.7090424243137
 31
0.0
  0
LINE
  5
55F0
102
{ACAD_REACTORS
330
5601
102
}
330
A
100
AcDbEntity
  8
MODEL
100
AcDbLine
 10
164.9182100073573
 20
240.8045618696611
 30
0.0
 11
169.1313329505713
 21
238.615926574485
 31
0.0
  0
LINE
  5
55F1
102
{ACAD_REACTORS
330
5601
102
}
330
A
100
AcDbEntity
  8
MODEL
100
AcDbLine
 10
164.9182100073573
 20
261.0030098043201
 30
0.0
 11
169.1313329505713
 21
258.8143745091439
 31
0.0
  0
LINE
  5
55F2
102
{ACAD_REACTORS
330
5601
102
}
330
A
100
AcDbEntity
  8
MODEL
100
AcDbLine
 10
164.9182100073573
 20
242.728223577724
 30
0.0
 11
169.1313329505713
 21
240.5395882825478
 31
0.0
  0
LINE
  5
55F3
102
{ACAD_REACTORS
330
5601
102
}
330
A
100
AcDbEntity
  8
MODEL
100
AcDbLine
 10
164.9182100073573
 20
246.3831808230431
 30
0.0
 11
169.1313329505713
 21
244.1945455278669
 31
0.0
  0
LINE
  5
55F4
102
{ACAD_REACTORS
330
5601
102
}
330
A
100
AcDbEntity
  8
MODEL
100
AcDbLine
 10
164.9182100073573
 20
253.8213394275526
 30
0.0
 11
169.1313329505713
 21
251.6327041323765
 31
0.0
  0
LINE
  5
55F5
102
{ACAD_REACTORS
330
5601
102
}
330
A
100
AcDbEntity
  8
MODEL
100
AcDbLine
 10
164.9182100073573
 20
259.2717142670638
 30
0.0
 11
169.1313329505713
 21
257.0830789718876
 31
0.0
  0
LINE
  5
55F6
102
{ACAD_REACTORS
330
5601
102
}
330
A
100
AcDbEntity
  8
MODEL
100
AcDbLine
 10
164.9182100073573
 20
255.6167570217445
 30
0.0
 11
169.1313329505713
 21
253.4281217265684
 31
0.0
  0
LINE
  5
55F7
102
{ACAD_REACTORS
330
5601
102
}
330
A
100
AcDbEntity
  8
MODEL
100
AcDbLine
 10
164.9182100073573
 20
244.6518852857866
 30
0.0
 11
169.1313329505713
 21
242.4632499906105
 31
0.0
  0
LINE
  5
55F8
102
{ACAD_REACTORS
330
5601
102
}
330
A
100
AcDbEntity
  8
MODEL
100
AcDbLine
 10
164.9182100073573
 20
239.0732663324047
 30
0.0
 11
169.1313329505713
 21
236.8846310372286
 31
0.0
  0
LINE
  5
55F9
102
{ACAD_REACTORS
330
5601
102
}
330
A
100
AcDbEntity
  8
MODEL
100
AcDbLine
 10
164.9182100073573
 20
250.1663821822334
 30
0.0
 11
169.1313329505713
 21
247.9777468870573
 31
0.0
  0
LINE
  5
55FA
102
{ACAD_REACTORS
330
5601
102
}
330
A
100
AcDbEntity
  8
MODEL
100
AcDbLine
 10
164.9182100073573
 20
235.2900649732145
 30
0.0
 11
168.4848337022166
 21
233.6285137281506
 31
0.0
  0
LINE
  5
55FB
102
{ACAD_REACTORS
330
5601
102
}
330
A
100
AcDbEntity
  8
MODEL
100
AcDbLine
 10
168.4848337022166
 20
233.4447982656882
 30
0.0
 11
168.4848337022166
 21
264.5559774864707
 31
0.0
  0
LINE
  5
55FC
102
{ACAD_REACTORS
330
5601
102
}
330
A
100
AcDbEntity
  8
MODEL
100
AcDbLine
 10
165.5647092557118
 20
233.4447982656883
 30
0.0
 11
165.5647092557118
 21
264.5559774864707
 31
0.0
  0
LINE
  5
55FD
330
A
100
AcDbEntity
  8
HIDDEN
 48
0.5
100
AcDbLine
 10
168.4848337022166
 20
233.4447982656882
 30
0.0
 11
168.4848337022166
 21
228.4447982656882
 31
0.0
  0
LINE
  5
55FE
330
A
100
AcDbEntity
  8
HIDDEN
 48
0.5
100
AcDbLine
 10
165.5647092557118
 20
233.4447982656883
 30
0.0
 11
165.5647092557118
 21
228.4447982656882
 31
0.0
  0
LINE
  5
5602
102
{ACAD_REACTORS
330
5620
102
}
330
A
100
AcDbEntity
  8
HIDDEN
 48
0.5
100
AcDbLine
 10
148.5247714789639
 20
233.4447982656882
 30
0.0
 11
148.5247714789639
 21
228.4447982656882
 31
0.0
  0
LINE
  5
5603
102
{ACAD_REACTORS
330
5620
102
}
330
A
100
AcDbEntity
  8
HIDDEN
 48
0.5
100
AcDbLine
 10
143.4813029817312
 20
233.4447982656883
 30
0.0
 11
143.4813029817312
 21
228.4447982656882
 31
0.0
  0
LINE
  5
5604
102
{ACAD_REACTORS
330
5620
102
}
330
A
100
AcDbEntity
  8
HIDDEN
 48
0.5
100
AcDbLine
 10
148.5247714789639
 20
228.1033611369185
 30
0.0
 11
143.4813029817312
 21
228.1033611369185
 31
0.0
  0
ARC
  5
5605
102
{ACAD_REACTORS
330
5620
102
}
330
A
100
AcDbEntity
  8
HIDDEN
 48
0.5
100
AcDbCircle
 10
146.0030372303476
 20
229.3695639879151
 30
0.0
 40
2.821774845822474
100
AcDbArc
 50
206.6619545850424
 51
333.3380454149575
  0
LINE
  5
5606
102
{ACAD_REACTORS
330
5620
102
}
330
A
100
AcDbEntity
  8
HIDDEN
 48
0.5
100
AcDbLine
 10
148.5247714789639
 20
228.1033611369185
 30
0.0
 11
148.5247714789639
 21
228.4447982656882
 31
0.0
  0
LINE
  5
5607
102
{ACAD_REACTORS
330
5620
102
}
330
A
100
AcDbEntity
  8
HIDDEN
 48
0.5
100
AcDbLine
 10
143.4813029817312
 20
228.1033611369185
 30
0.0
 11
143.4813029817312
 21
228.4447982656882
 31
0.0
  0
LINE
  5
5608
102
{ACAD_REACTORS
330
5620
330
5621
330
5634
102
}
330
A
100
AcDbEntity
  8
MODEL
100
AcDbLine
 10
146.0247714789645
 20
267.4447982656884
 30
0.0
 11
144.564709255712
 21
264.5559774864707
 31
0.0
  0
LINE
  5
5609
102
{ACAD_REACTORS
330
5620
330
5621
102
}
330
A
100
AcDbEntity
  8
MODEL
100
AcDbLine
 10
146.0247714789645
 20
267.4447982656884
 30
0.0
 11
147.4848337022169
 21
264.5559774864707
 31
0.0
  0
LINE
  5
560A
102
{ACAD_REACTORS
330
5620
330
5621
102
}
330
A
100
AcDbEntity
  8
MODEL
100
AcDbLine
 10
143.9263200893829
 20
264.6537540200158
 30
0.0
 11
148.1148695305881
 21
262.4778841804286
 31
0.0
  0
LINE
  5
560B
102
{ACAD_REACTORS
330
5620
330
5621
102
}
330
A
100
AcDbEntity
  8
MODEL
100
AcDbLine
 10
143.9182100073575
 20
257.348052559001
 30
0.0
 11
148.1313329505715
 21
255.1594172638248
 31
0.0
  0
LINE
  5
560C
102
{ACAD_REACTORS
330
5620
330
5621
102
}
330
A
100
AcDbEntity
  8
MODEL
100
AcDbLine
 10
143.9182100073575
 20
237.2137266812773
 30
0.0
 11
148.1313329505715
 21
235.0250913861012
 31
0.0
  0
LINE
  5
560D
102
{ACAD_REACTORS
330
5620
330
5621
102
}
330
A
100
AcDbEntity
  8
MODEL
100
AcDbLine
 10
143.9182100073575
 20
248.3068425311059
 30
0.0
 11
148.1313329505715
 21
246.1182072359297
 31
0.0
  0
LINE
  5
560E
102
{ACAD_REACTORS
330
5620
330
5621
102
}
330
A
100
AcDbEntity
  8
MODEL
100
AcDbLine
 10
143.9182100073575
 20
262.7343053415765
 30
0.0
 11
148.1313329505715
 21
260.5456700464003
 31
0.0
  0
LINE
  5
560F
102
{ACAD_REACTORS
330
5620
330
5621
102
}
330
A
100
AcDbEntity
  8
MODEL
100
AcDbLine
 10
143.9182100073575
 20
251.8976777194898
 30
0.0
 11
148.1313329505715
 21
249.7090424243137
 31
0.0
  0
LINE
  5
5610
102
{ACAD_REACTORS
330
5620
330
5621
102
}
330
A
100
AcDbEntity
  8
MODEL
100
AcDbLine
 10
143.9182100073575
 20
240.8045618696611
 30
0.0
 11
148.1313329505715
 21
238.615926574485
 31
0.0
  0
LINE
  5
5611
102
{ACAD_REACTORS
330
5620
330
5621
102
}
330
A
100
AcDbEntity
  8
MODEL
100
AcDbLine
 10
143.9182100073575
 20
261.0030098043201
 30
0.0
 11
148.1313329505715
 21
258.8143745091439
 31
0.0
  0
LINE
  5
5612
102
{ACAD_REACTORS
330
5620
330
5621
102
}
330
A
100
AcDbEntity
  8
MODEL
100
AcDbLine
 10
143.9182100073575
 20
242.728223577724
 30
0.0
 11
148.1313329505715
 21
240.5395882825478
 31
0.0
  0
LINE
  5
5613
102
{ACAD_REACTORS
330
5620
330
5621
102
}
330
A
100
AcDbEntity
  8
MODEL
100
AcDbLine
 10
143.9182100073575
 20
246.3831808230431
 30
0.0
 11
148.1313329505715
 21
244.1945455278669
 31
0.0
  0
LINE
  5
5614
102
{ACAD_REACTORS
330
5620
330
5621
102
}
330
A
100
AcDbEntity
  8
MODEL
100
AcDbLine
 10
143.9182100073575
 20
253.8213394275526
 30
0.0
 11
148.1313329505715
 21
251.6327041323765
 31
0.0
  0
LINE
  5
5615
102
{ACAD_REACTORS
330
5620
330
5621
102
}
330
A
100
AcDbEntity
  8
MODEL
100
AcDbLine
 10
143.9182100073575
 20
259.2717142670638
 30
0.0
 11
148.1313329505715
 21
257.0830789718876
 31
0.0
  0
LINE
  5
5616
102
{ACAD_REACTORS
330
5620
330
5621
102
}
330
A
100
AcDbEntity
  8
MODEL
100
AcDbLine
 10
143.9182100073575
 20
255.6167570217445
 30
0.0
 11
148.1313329505715
 21
253.4281217265684
 31
0.0
  0
LINE
  5
5617
102
{ACAD_REACTORS
330
5620
330
5621
102
}
330
A
100
AcDbEntity
  8
MODEL
100
AcDbLine
 10
143.9182100073575
 20
244.6518852857866
 30
0.0
 11
148.1313329505715
 21
242.4632499906105
 31
0.0
  0
LINE
  5
5618
102
{ACAD_REACTORS
330
5620
330
5621
102
}
330
A
100
AcDbEntity
  8
MODEL
100
AcDbLine
 10
143.9182100073575
 20
239.0732663324047
 30
0.0
 11
148.1313329505715
 21
236.8846310372286
 31
0.0
  0
LINE
  5
5619
102
{ACAD_REACTORS
330
5620
330
5621
102
}
330
A
100
AcDbEntity
  8
MODEL
100
AcDbLine
 10
143.9182100073575
 20
250.1663821822334
 30
0.0
 11
148.1313329505715
 21
247.9777468870573
 31
0.0
  0
LINE
  5
561A
102
{ACAD_REACTORS
330
5620
330
5621
102
}
330
A
100
AcDbEntity
  8
MODEL
100
AcDbLine
 10
143.9182100073575
 20
235.2900649732145
 30
0.0
 11
147.4848337022169
 21
233.6285137281506
 31
0.0
  0
LINE
  5
561B
102
{ACAD_REACTORS
330
5620
330
5621
102
}
330
A
100
AcDbEntity
  8
MODEL
100
AcDbLine
 10
147.4848337022169
 20
233.4447982656882
 30
0.0
 11
147.4848337022169
 21
264.5559774864707
 31
0.0
  0
LINE
  5
561C
102
{ACAD_REACTORS
330
5620
330
5621
102
}
330
A
100
AcDbEntity
  8
MODEL
100
AcDbLine
 10
144.564709255712
 20
233.4447982656883
 30
0.0
 11
144.564709255712
 21
264.5559774864707
 31
0.0
  0
LINE
  5
561D
102
{ACAD_REACTORS
330
5620
102
}
330
A
100
AcDbEntity
  8
HIDDEN
 48
0.5
100
AcDbLine
 10
147.4848337022169
 20
233.4447982656882
 30
0.0
 11
147.4848337022169
 21
228.4447982656882
 31
0.0
  0
LINE
  5
561E
102
{ACAD_REACTORS
330
5620
102
}
330
A
100
AcDbEntity
  8
HIDDEN
 48
0.5
100
AcDbLine
 10
144.564709255712
 20
233.4447982656883
 30
0.0
 11
144.564709255712
 21
228.4447982656882
 31
0.0
  0
DIMENSION
  5
5632
102
{ACAD_REACTORS
330
5634
102
}
102
{ACAD_XDICTIONARY
360
5633
102
}
330
A
100
AcDbEntity
  8
DIM
100
AcDbDimension
  2
*D20
 10
167.0247714789642
 20
279.9445965415433
 30
0.0
 11
156.5247714789643
 21
285.4445965415433
 31
0.0
 70
    32
 71
     5
 42
20.99999999999977
 73
     0
 74
     0
 75
     0
  3
tfrom線あり
100
AcDbAlignedDimension
 13
146.0247714789645
 23
267.4447982656884
 33
0.0
 14
167.0247714789642
 24
267.4447982656884
 34
0.0
100
AcDbRotatedDimension
1001
ACAD
1000
DSTYLE
1002
{
1070
   144
1040
1.0
1002
}
  0
MTEXT
  5
564C
330
A
100
AcDbEntity
  8
MODEL
100
AcDbMText
 10
90.24364383863787
 20
137.5140032104735
 30
0.0
 40
5.0
 41
271.5767999999999
 46
32.71
 71
     1
 72
     5
  1
{※壁には必ず補強下地が必要です。\P※軽量鉄骨下地の場合、補強木を入れてください。軽量鉄骨には直接取付できません。\P※モルタルやコンクリート下地の場合、付属のプラグを使用してください。\P※取付範囲の壁は合板か同等以上の圧縮に強い材料を使用してください。}
  7
ＭＳ ゴシック
 73
     1
 44
1.0
1001
ACAD
1000
ACAD_MTEXT_DEFINED_HEIGHT_BEGIN
1070
    46
1040
32.71
1000
ACAD_MTEXT_DEFINED_HEIGHT_END
  0
MTEXT
  5
56A7
330
A
100
AcDbEntity
  8
TEMPLATE
390
1D
100
AcDbMText
 10
265.840428909598
 20
79.75349190518565
 30
0.0
 40
4.8865234375
 41
0.0
 46
5.3556296875
 71
     1
 72
     1
  1
{FRF74-1705-025 マットブラック}
  7
ＭＳ ゴシック
 73
     1
 44
0.7828267384257843
1001
ACAD
1000
ACAD_MTEXT_DEFINED_HEIGHT_BEGIN
1070
    46
1040
5.3556296875
1000
ACAD_MTEXT_DEFINED_HEIGHT_END
  0
MTEXT
  5
56A8
330
A
100
AcDbEntity
  8
TEMPLATE
390
1D
100
AcDbMText
 10
265.840428909598
 20
87.46131193718566
 30
0.0
 40
4.8865234375
 41
0.0
 46
4.9598212890625
 71
     1
 72
     1
  1
{FRF74-1705-001 クローム}
  7
ＭＳ ゴシック
 73
     1
 44
0.7828267384257843
1001
ACAD
1000
ACAD_MTEXT_DEFINED_HEIGHT_BEGIN
1070
    46
1040
4.9598212890625
1000
ACAD_MTEXT_DEFINED_HEIGHT_END
  0
VIEWPORT
  5
349
330
B
100
AcDbEntity
 67
     1
  8
0
100
AcDbViewport
 10
202.5
 20
128.5
 30
0.0
 40
486.0
 41
308.4
 68
     1
 69
     1
 12
202.5
 22
128.5
 13
0.0
 23
0.0
 14
0.5
 24
0.5
 15
0.0
 25
0.0
 16
0.0
 26
0.0
 36
1.0
 17
0.0
 27
0.0
 37
0.0
 42
50.0
 43
0.0
 44
0.0
 45
308.4
 50
0.0
 51
0.0
 72
   100
 90
   557152
  1

281
     0
 71
     1
 74
     0
110
0.0
120
0.0
130
0.0
111
1.0
121
0.0
131
0.0
112
0.0
122
1.0
132
0.0
 79
     0
146
0.0
170
     0
 61
     5
348
26C
292
     1
282
     1
141
0.0
142
0.0
 63
   256
  0
VIEWPORT
  5
34A
330
B
100
AcDbEntity
 67
     1
  8
0
100
AcDbViewport
 10
202.5
 20
128.5
 30
0.0
 40
324.0
 41
205.6
 68
     2
 69
     2
 12
986.6781359294573
 22
1427.077061889956
 13
0.0
 23
0.0
 14
0.5
 24
0.5
 15
0.0
 25
0.0
 16
0.0
 26
0.0
 36
1.0
 17
0.0
 27
0.0
 37
0.0
 42
50.0
 43
0.0
 44
0.0
 45
2890.021615685494
 50
0.0
 51
0.0
 72
   100
 90
   557152
  1

281
     0
 71
     1
 74
     0
110
0.0
120
0.0
130
0.0
111
1.0
121
0.0
131
0.0
112
0.0
122
1.0
132
0.0
 79
     0
146
0.0
170
     0
 61
     5
348
26C
292
     1
282
     1
141
0.0
142
0.0
 63
   256
  0
ENDSEC
  0
SECTION
  2
OBJECTS
  0
DICTIONARY
  5
19
330
0
100
AcDbDictionary
281
     1
  3
ACAD_COLOR
350
674
  3
ACAD_DETAILVIEWSTYLE
350
BBF
  3
ACAD_FIELDLIST
350
3BE4
  3
ACAD_GROUP
350
1A
  3
ACAD_IMAGE_VARS
350
27B
  3
ACAD_LAYOUT
350
1E
  3
ACAD_MATERIAL
350
263
  3
ACAD_MLEADERSTYLE
350
336
  3
ACAD_MLINESTYLE
350
1B
  3
ACAD_PLOTSETTINGS
350
22
  3
ACAD_PLOTSTYLENAME
350
1F
  3
ACAD_SCALELIST
350
241
  3
ACAD_SECTIONVIEWSTYLE
350
BC0
  3
ACAD_TABLESTYLE
350
278
  3
ACAD_VISUALSTYLE
350
267
  3
ACDB_RECOMPOSE_DATA
350
56B6
  3
AcDbVariableDictionary
350
330
  3
APPDATA
350
27A
  3
DimOffsetDictionary
350
E38
  0
SUN
  5
904
330
15
100
AcDbSun
 90
        1
290
     0
 63
     7
421
 16777215
 40
1.0
291
     1
 91
  2455826
 92
 54000000
292
     0
 70
     2
 71
   256
280
     1
  0
DICTIONARY
  5
2E1
330
2
100
AcDbDictionary
280
     1
281
     1
  3
ACAD_LAYERSTATES
360
2E2
  3
ACLYDICTIONARY
360
54FC
  0
DICTIONARY
  5
3D3D
330
A
100
AcDbDictionary
280
     1
281
     1
  3
ACAD_SORTENTS
360
3D3E
  0
DICTIONARY
  5
3CB7
330
3CB5
100
AcDbDictionary
280
     1
281
     1
  3
ACAD_FIELD
360
56AD
  0
DICTIONARY
  5
555A
330
5559
100
AcDbDictionary
280
     1
281
     1
  3
ACAD_DIMASSOC
360
555B
  0
DICTIONARY
  5
557D
330
557C
100
AcDbDictionary
280
     1
281
     1
  3
ACAD_DIMASSOC
360
557E
  0
DICTIONARY
  5
5633
330
5632
100
AcDbDictionary
280
     1
281
     1
  3
ACAD_DIMASSOC
360
5634
  0
DICTIONARY
  5
674
102
{ACAD_REACTORS
330
19
102
}
330
19
100
AcDbDictionary
281
     1
  0
DICTIONARY
  5
BBF
102
{ACAD_REACTORS
330
19
102
}
330
19
100
AcDbDictionary
281
     1
  0
FIELDLIST
  5
3BE4
102
{ACAD_REACTORS
330
19
102
}
330
19
100
AcDbIdSet
 90
        2
330
3CB9
330
3CB6
100
AcDbFieldList
  0
DICTIONARY
  5
1A
102
{ACAD_REACTORS
330
19
102
}
330
19
100
AcDbDictionary
281
     1
  3
*A1
350
3C75
  3
*A2
350
5601
  3
*A3
350
5620
  3
*A4
350
5621
  3
*A5
350
5555
  3
*A6
350
5556
  3
*A7
350
5557
  3
*A8
350
5558
  3
*A9
350
55BE
  0
RASTERVARIABLES
  5
27B
102
{ACAD_REACTORS
330
19
102
}
330
19
100
AcDbRasterVariables
 90
        0
 70
     1
 71
     1
 72
     1
  0
DICTIONARY
  5
1E
102
{ACAD_REACTORS
330
19
102
}
330
19
100
AcDbDictionary
281
     1
  3
Layout1
350
21
  3
Model
350
20
  0
DICTIONARY
  5
263
102
{ACAD_REACTORS
330
19
102
}
330
19
100
AcDbDictionary
281
     1
  3
ByBlock
350
265
  3
ByLayer
350
264
  3
Global
350
266
  0
DICTIONARY
  5
336
102
{ACAD_REACTORS
330
19
102
}
330
19
100
AcDbDictionary
281
     1
  3
Standard
350
D59
  0
DICTIONARY
  5
1B
102
{ACAD_REACTORS
330
19
102
}
330
19
100
AcDbDictionary
281
     1
  3
Standard
350
1C
  0
DICTIONARY
  5
22
102
{ACAD_REACTORS
330
19
102
}
330
19
100
AcDbDictionary
281
     1
  0
ACDBDICTIONARYWDFLT
  5
1F
102
{ACAD_REACTORS
330
19
102
}
330
19
100
AcDbDictionary
281
     1
  3
Normal
350
1D
100
AcDbDictionaryWithDefault
340
1D
  0
DICTIONARY
  5
241
102
{ACAD_REACTORS
330
19
102
}
330
19
100
AcDbDictionary
281
     1
  3
A0
350
242
  3
A1
350
243
  3
A2
350
244
  3
A3
350
245
  3
A4
350
246
  3
A5
350
247
  3
A6
350
248
  3
A7
350
249
  3
A8
350
24A
  3
A9
350
24B
  3
B0
350
24C
  3
B1
350
24D
  3
B2
350
24E
  3
B3
350
24F
  3
B4
350
250
  3
B5
350
251
  3
B6
350
252
  3
B7
350
253
  3
B8
350
254
  3
B9
350
255
  3
C0
350
256
  3
C1
350
257
  3
C2
350
258
  3
C3
350
259
  3
C4
350
25A
  3
C5
350
25B
  3
C6
350
25C
  3
C7
350
25D
  3
C8
350
25E
  3
C9
350
25F
  3
D0
350
260
  3
D1
350
261
  3
D2
350
262
  0
DICTIONARY
  5
BC0
102
{ACAD_REACTORS
330
19
102
}
330
19
100
AcDbDictionary
281
     1
  0
DICTIONARY
  5
278
102
{ACAD_REACTORS
330
19
102
}
330
19
100
AcDbDictionary
281
     1
  3
Standard
350
279
  0
DICTIONARY
  5
267
102
{ACAD_REACTORS
330
19
102
}
330
19
100
AcDbDictionary
281
     1
  3
2dWireframe
350
26C
  3
3D Hidden
350
26E
  3
3dWireframe
350
26D
  3
Basic
350
26F
  3
Brighten
350
273
  3
ColorChange
350
277
  3
Conceptual
350
271
  3
Dim
350
272
  3
EdgeColorOff
350
8FE
  3
Facepattern
350
276
  3
Flat
350
268
  3
FlatWithEdges
350
269
  3
Gouraud
350
26A
  3
GouraudWithEdges
350
26B
  3
Hidden
350
8FB
  3
JitterOff
350
8FC
  3
Linepattern
350
275
  3
OverhangOff
350
8FD
  3
Realistic
350
270
  3
Shaded
350
903
  3
Shaded with edges
350
902
  3
Shades of Gray
350
8FF
  3
Sketchy
350
900
  3
Thicken
350
274
  3
Wireframe
350
8FA
  3
X-Ray
350
901
  0
XRECORD
  5
56B6
102
{ACAD_REACTORS
330
19
102
}
330
19
100
AcDbXrecord
280
     1
 90
        1
330
279
  0
DICTIONARY
  5
330
102
{ACAD_REACTORS
330
19
102
}
330
19
100
AcDbDictionary
281
     1
  3
CANNOSCALE
350
331
  3
CMLEADERSTYLE
350
D5E
  3
CTABLESTYLE
350
335
  3
HPTRANSPARENCY
350
D52
  3
XCLIPFRAME
350
896
  0
DICTIONARY
  5
27A
102
{ACAD_REACTORS
330
19
102
}
330
19
100
AcDbDictionary
281
     1
  0
DICTIONARY
  5
E38
102
{ACAD_REACTORS
330
19
102
}
330
19
100
AcDbDictionary
281
     1
  3
DIMRAILANGLE
350
246C
  3
DIMRAILFIRSTOFFSET
350
246A
  3
DIMRAILOFFSET
350
246B
  3
DIMRAILSENABLED
350
246D
  0
DICTIONARY
  5
2E2
102
{ACAD_REACTORS
330
2E1
102
}
330
2E1
100
AcDbDictionary
281
     1
  0
DICTIONARY
  5
54FC
102
{ACAD_REACTORS
330
2E1
102
}
330
2E1
100
AcDbDictionary
281
     1
1001
ACAD
1000
<All
  0
SORTENTSTABLE
  5
3D3E
102
{ACAD_REACTORS
330
3D3D
102
}
330
3D3D
100
AcDbSortentsTable
330
A
331
0
  5
3C1E
331
3C64
  5
3C1F
331
3C65
  5
3C63
331
3C70
  5
3C64
331
3C71
  5
3C65
331
3C72
  5
3C70
331
3C73
  5
3C71
331
3C74
  5
3C72
331
3C9A
  5
3C74
331
3CB5
  5
3C92
  0
DICTIONARY
  5
56AD
102
{ACAD_REACTORS
330
3CB7
102
}
330
3CB7
100
AcDbDictionary
280
     1
281
     1
  3
TEXT
360
3CB6
  0
DIMASSOC
  5
555B
102
{ACAD_REACTORS
330
555A
102
}
330
555A
100
AcDbDimAssoc
330
5559
 90
        3
 70
     0
 71
     1
  1
AcDbOsnapPointRef
 72
    13
331
5368
 73
     0
 91
        0
 40
0.0
 10
0.0
 20
0.0
 30
0.0
 75
     0
  1
AcDbOsnapPointRef
 72
    13
331
5364
 73
     0
 91
        0
 40
0.0
 10
0.0
 20
0.0
 30
0.0
 75
     0
  0
DIMASSOC
  5
557E
102
{ACAD_REACTORS
330
557D
102
}
330
557D
100
AcDbDimAssoc
330
557C
 90
        1
 70
     0
 71
     1
  1
AcDbOsnapPointRef
 72
    13
331
5368
 73
     0
 91
        0
 40
0.0
 10
0.0
 20
0.0
 30
0.0
 75
     0
  0
DIMASSOC
  5
5634
102
{ACAD_REACTORS
330
5633
102
}
330
5633
100
AcDbDimAssoc
330
5632
 90
        3
 70
     0
 71
     1
  1
AcDbOsnapPointRef
 72
    13
331
5608
 73
     0
 91
        0
 40
0.0
 10
0.0
 20
0.0
 30
0.0
 75
     0
  1
AcDbOsnapPointRef
 72
    13
331
55E8
 73
     0
 91
        0
 40
0.0
 10
0.0
 20
0.0
 30
0.0
 75
     0
  0
GROUP
  5
3C75
102
{ACAD_REACTORS
330
1A
102
}
330
1A
100
AcDbGroup
300

 70
     1
 71
     1
340
3C64
340
3C65
340
3C70
340
3C71
340
3C72
340
3C73
340
3C74
  0
GROUP
  5
5601
102
{ACAD_REACTORS
330
1A
102
}
330
1A
100
AcDbGroup
300

 70
     1
 71
     1
340
55E8
340
55E9
340
55EA
340
55EB
340
55EC
340
55ED
340
55EE
340
55EF
340
55F0
340
55F1
340
55F2
340
55F3
340
55F4
340
55F5
340
55F6
340
55F7
340
55F8
340
55F9
340
55FA
340
55FB
340
55FC
  0
GROUP
  5
5620
102
{ACAD_REACTORS
330
1A
102
}
330
1A
100
AcDbGroup
300

 70
     1
 71
     1
340
5602
340
5603
340
5604
340
5605
340
5606
340
5607
340
5608
340
5609
340
560A
340
560B
340
560C
340
560D
340
560E
340
560F
340
5610
340
5611
340
5612
340
5613
340
5614
340
5615
340
5616
340
5617
340
5618
340
5619
340
561A
340
561B
340
561C
340
561D
340
561E
  0
GROUP
  5
5621
102
{ACAD_REACTORS
330
1A
102
}
330
1A
100
AcDbGroup
300

 70
     1
 71
     1
340
5608
340
5609
340
560A
340
560B
340
560C
340
560D
340
560E
340
560F
340
5610
340
5611
340
5612
340
5613
340
5614
340
5615
340
5616
340
5617
340
5618
340
5619
340
561A
340
561B
340
561C
  0
GROUP
  5
5555
102
{ACAD_REACTORS
330
1A
102
}
330
1A
100
AcDbGroup
300

 70
     1
 71
     1
340
5540
340
5541
340
5542
340
5543
340
5544
340
5545
340
5546
340
5547
340
5548
340
5549
340
554A
340
554B
340
554C
340
554D
340
554E
340
554F
340
5550
340
5551
340
5552
340
5553
340
5554
  0
GROUP
  5
5556
102
{ACAD_REACTORS
330
1A
102
}
330
1A
100
AcDbGroup
300

 70
     1
 71
     1
340
552F
340
5530
340
5531
340
5532
340
5533
340
5534
340
5535
340
5536
340
5537
340
5538
340
5539
340
553A
340
553B
340
553C
340
553D
340
553E
340
553F
  0
GROUP
  5
5557
102
{ACAD_REACTORS
330
1A
102
}
330
1A
100
AcDbGroup
300

 70
     1
 71
     1
340
5530
340
5531
340
5532
340
5533
340
5534
340
5535
340
5536
340
5537
340
5538
340
5539
340
553A
340
553B
340
553C
340
553D
340
553E
340
553F
  0
GROUP
  5
5558
102
{ACAD_REACTORS
330
1A
102
}
330
1A
100
AcDbGroup
300

 70
     1
 71
     1
340
5533
340
5534
340
5535
340
5536
340
5537
340
5538
340
5539
340
553A
340
553B
340
553C
340
553D
340
553E
340
553F
  0
GROUP
  5
55BE
102
{ACAD_REACTORS
330
1A
102
}
330
1A
100
AcDbGroup
300

 70
     1
 71
     1
340
55AD
340
55AE
340
55AF
340
55B0
340
55B1
340
55B2
340
55B3
340
55B4
340
55B5
340
55B6
340
55B7
340
55B8
340
55B9
340
55BA
340
55BB
340
55BC
340
55BD
  0
LAYOUT
  5
21
102
{ACAD_REACTORS
330
1E
102
}
330
1E
100
AcDbPlotSettings
  1

  2
none_device
  4
ISO_A3_(420.00_x_297.00_MM)
  6

 40
7.5
 41
20.0
 42
7.5
 43
20.0
 44
420.0
 45
297.0
 46
0.0
 47
0.0
 48
0.0
 49
0.0
140
0.0
141
0.0
142
1.0
143
1.0
 70
     0
 72
     1
 73
     0
 74
     0
  7

 75
     0
 76
     0
 77
     2
 78
   300
147
1.0
148
0.0
149
0.0
100
AcDbLayout
  1
Layout1
 70
     0
 71
     0
 10
-7.5
 20
-20.0
 11
412.5
 21
277.0
 12
0.0
 22
0.0
 32
0.0
 14
0.0
 24
0.0
 34
0.0
 15
0.0
 25
0.0
 35
0.0
146
0.0
 13
0.0
 23
0.0
 33
0.0
 16
0.0
 26
0.0
 36
0.0
 17
0.0
 27
0.0
 37
0.0
 76
     0
330
B
331
349
  0
LAYOUT
  5
20
102
{ACAD_REACTORS
330
1E
102
}
330
1E
100
AcDbPlotSettings
  1

  2
none_device
  4
ISO_A3_(420.00_x_297.00_MM)
  6

 40
7.5
 41
20.0
 42
7.5
 43
20.0
 44
420.0
 45
297.0
 46
0.0
 47
0.0
 48
0.0
 49
0.0
140
0.0
141
0.0
142
1.0
143
1.0
 70
  1024
 72
     1
 73
     0
 74
     0
  7

 75
     0
 76
     0
 77
     2
 78
   300
147
1.0
148
0.0
149
0.0
100
AcDbLayout
  1
Model
 70
     0
 71
     1
 10
0.0
 20
0.0
 11
420.0
 21
594.0
 12
0.0
 22
0.0
 32
0.0
 14
0.0
 24
0.0
 34
-0.0000000000000071
 15
420.0
 25
594.0
 35
0.0000000000000071
146
0.0
 13
0.0
 23
0.0
 33
0.0
 16
0.0
 26
0.0
 36
0.0
 17
0.0
 27
0.0
 37
0.0
 76
     0
330
A
331
15
  0
MATERIAL
  5
265
102
{ACAD_REACTORS
330
263
102
}
330
263
100
AcDbMaterial
  1
ByBlock
 72
     1
 94
      127
  0
MATERIAL
  5
264
102
{ACAD_REACTORS
330
263
102
}
330
263
100
AcDbMaterial
  1
ByLayer
 72
     1
 94
      127
  0
MATERIAL
  5
266
102
{ACAD_REACTORS
330
263
102
}
330
263
100
AcDbMaterial
  1
Global
 72
     1
 94
      127
  0
MLEADERSTYLE
  5
D59
102
{ACAD_REACTORS
330
336
102
}
330
336
100
AcDbMLeaderStyle
170
     2
171
     1
172
     0
 90
        2
 40
0.0
 41
0.0
173
     1
 91
-1056964608
340
11
 92
       -2
290
     1
 42
2.0
291
     1
 43
8.0
  3
Standard
341
0
 44
4.0
300

342
17
174
     1
178
     6
175
     1
176
     0
 93
-1056964608
 45
4.0
292
     0
297
     0
 46
4.0
343
0
 94
-1056964608
 47
1.0
 49
1.0
140
1.0
293
     1
141
0.0
294
     1
177
     0
142
1.0
295
     0
296
     0
143
3.75
1001
ACAD_MLEADERVER
1070
     2
  0
MLINESTYLE
  5
1C
102
{ACAD_REACTORS
330
1B
102
}
330
1B
100
AcDbMlineStyle
  2
Standard
 70
     0
  3

 62
     0
 51
90.0
 52
90.0
 71
     2
 49
0.5
 62
   256
  6
BYLAYER
 49
-0.5
 62
   256
  6
BYLAYER
  0
ACDBPLACEHOLDER
  5
1D
102
{ACAD_REACTORS
330
1F
102
}
330
1F
  0
SCALE
  5
242
102
{ACAD_REACTORS
330
241
102
}
330
241
100
AcDbScale
 70
     0
300
1:1
140
1.0
141
1.0
290
     1
  0
SCALE
  5
243
102
{ACAD_REACTORS
330
241
102
}
330
241
100
AcDbScale
 70
     0
300
1:2
140
1.0
141
2.0
290
     0
  0
SCALE
  5
244
102
{ACAD_REACTORS
330
241
102
}
330
241
100
AcDbScale
 70
     0
300
1:4
140
1.0
141
4.0
290
     0
  0
SCALE
  5
245
102
{ACAD_REACTORS
330
241
102
}
330
241
100
AcDbScale
 70
     0
300
1:5
140
1.0
141
5.0
290
     0
  0
SCALE
  5
246
102
{ACAD_REACTORS
330
241
102
}
330
241
100
AcDbScale
 70
     0
300
1:8
140
1.0
141
8.0
290
     0
  0
SCALE
  5
247
102
{ACAD_REACTORS
330
241
102
}
330
241
100
AcDbScale
 70
     0
300
1:10
140
1.0
141
10.0
290
     0
  0
SCALE
  5
248
102
{ACAD_REACTORS
330
241
102
}
330
241
100
AcDbScale
 70
     0
300
1:16
140
1.0
141
16.0
290
     0
  0
SCALE
  5
249
102
{ACAD_REACTORS
330
241
102
}
330
241
100
AcDbScale
 70
     0
300
1:20
140
1.0
141
20.0
290
     0
  0
SCALE
  5
24A
102
{ACAD_REACTORS
330
241
102
}
330
241
100
AcDbScale
 70
     0
300
1:30
140
1.0
141
30.0
290
     0
  0
SCALE
  5
24B
102
{ACAD_REACTORS
330
241
102
}
330
241
100
AcDbScale
 70
     0
300
1:40
140
1.0
141
40.0
290
     0
  0
SCALE
  5
24C
102
{ACAD_REACTORS
330
241
102
}
330
241
100
AcDbScale
 70
     0
300
1:50
140
1.0
141
50.0
290
     0
  0
SCALE
  5
24D
102
{ACAD_REACTORS
330
241
102
}
330
241
100
AcDbScale
 70
     0
300
1:100
140
1.0
141
100.0
290
     0
  0
SCALE
  5
24E
102
{ACAD_REACTORS
330
241
102
}
330
241
100
AcDbScale
 70
     0
300
2:1
140
2.0
141
1.0
290
     0
  0
SCALE
  5
24F
102
{ACAD_REACTORS
330
241
102
}
330
241
100
AcDbScale
 70
     0
300
4:1
140
4.0
141
1.0
290
     0
  0
SCALE
  5
250
102
{ACAD_REACTORS
330
241
102
}
330
241
100
AcDbScale
 70
     0
300
8:1
140
8.0
141
1.0
290
     0
  0
SCALE
  5
251
102
{ACAD_REACTORS
330
241
102
}
330
241
100
AcDbScale
 70
     0
300
10:1
140
10.0
141
1.0
290
     0
  0
SCALE
  5
252
102
{ACAD_REACTORS
330
241
102
}
330
241
100
AcDbScale
 70
     0
300
100:1
140
100.0
141
1.0
290
     0
  0
SCALE
  5
253
102
{ACAD_REACTORS
330
241
102
}
330
241
100
AcDbScale
 70
     0
300
1/128" = 1'-0"
140
0.0078125
141
12.0
290
     0
  0
SCALE
  5
254
102
{ACAD_REACTORS
330
241
102
}
330
241
100
AcDbScale
 70
     0
300
1/64" = 1'-0"
140
0.015625
141
12.0
290
     0
  0
SCALE
  5
255
102
{ACAD_REACTORS
330
241
102
}
330
241
100
AcDbScale
 70
     0
300
1/32" = 1'-0"
140
0.03125
141
12.0
290
     0
  0
SCALE
  5
256
102
{ACAD_REACTORS
330
241
102
}
330
241
100
AcDbScale
 70
     0
300
1/16" = 1'-0"
140
0.0625
141
12.0
290
     0
  0
SCALE
  5
257
102
{ACAD_REACTORS
330
241
102
}
330
241
100
AcDbScale
 70
     0
300
3/32" = 1'-0"
140
0.09375
141
12.0
290
     0
  0
SCALE
  5
258
102
{ACAD_REACTORS
330
241
102
}
330
241
100
AcDbScale
 70
     0
300
1/8" = 1'-0"
140
0.125
141
12.0
290
     0
  0
SCALE
  5
259
102
{ACAD_REACTORS
330
241
102
}
330
241
100
AcDbScale
 70
     0
300
3/16" = 1'-0"
140
0.1875
141
12.0
290
     0
  0
SCALE
  5
25A
102
{ACAD_REACTORS
330
241
102
}
330
241
100
AcDbScale
 70
     0
300
1/4" = 1'-0"
140
0.25
141
12.0
290
     0
  0
SCALE
  5
25B
102
{ACAD_REACTORS
330
241
102
}
330
241
100
AcDbScale
 70
     0
300
3/8" = 1'-0"
140
0.375
141
12.0
290
     0
  0
SCALE
  5
25C
102
{ACAD_REACTORS
330
241
102
}
330
241
100
AcDbScale
 70
     0
300
1/2" = 1'-0"
140
0.5
141
12.0
290
     0
  0
SCALE
  5
25D
102
{ACAD_REACTORS
330
241
102
}
330
241
100
AcDbScale
 70
     0
300
3/4" = 1'-0"
140
0.75
141
12.0
290
     0
  0
SCALE
  5
25E
102
{ACAD_REACTORS
330
241
102
}
330
241
100
AcDbScale
 70
     0
300
1" = 1'-0"
140
1.0
141
12.0
290
     0
  0
SCALE
  5
25F
102
{ACAD_REACTORS
330
241
102
}
330
241
100
AcDbScale
 70
     0
300
1-1/2" = 1'-0"
140
1.5
141
12.0
290
     0
  0
SCALE
  5
260
102
{ACAD_REACTORS
330
241
102
}
330
241
100
AcDbScale
 70
     0
300
3" = 1'-0"
140
3.0
141
12.0
290
     0
  0
SCALE
  5
261
102
{ACAD_REACTORS
330
241
102
}
330
241
100
AcDbScale
 70
     0
300
6" = 1'-0"
140
6.0
141
12.0
290
     0
  0
SCALE
  5
262
102
{ACAD_REACTORS
330
241
102
}
330
241
100
AcDbScale
 70
     0
300
1'-0" = 1'-0"
140
12.0
141
12.0
290
     0
  0
TABLESTYLE
  5
279
102
{ACAD_REACTORS
330
278
102
}
102
{ACAD_XDICTIONARY
360
56B4
102
}
330
278
100
AcDbTableStyle
  3
Standard
 70
     0
 71
     0
 40
0.06
 41
0.06
280
     0
281
     0
  7
Standard
140
4.5
170
     2
 62
     0
 63
   257
283
     0
 90
        4
 91
        0
  1

274
    -2
284
     1
 64
     0
275
    -2
285
     1
 65
     0
276
    -2
286
     1
 66
     0
277
    -2
287
     1
 67
     0
278
    -2
288
     1
 68
     0
279
    -2
289
     1
 69
     0
  7
Standard
140
6.0
170
     5
 62
     0
 63
   257
283
     0
 90
        4
 91
        0
  1

274
    -2
284
     1
 64
     0
275
    -2
285
     1
 65
     0
276
    -2
286
     1
 66
     0
277
    -2
287
     1
 67
     0
278
    -2
288
     1
 68
     0
279
    -2
289
     1
 69
     0
  7
Standard
140
4.5
170
     5
 62
     0
 63
   257
283
     0
 90
        4
 91
        0
  1

274
    -2
284
     1
 64
     0
275
    -2
285
     1
 65
     0
276
    -2
286
     1
 66
     0
277
    -2
287
     1
 67
     0
278
    -2
288
     1
 68
     0
279
    -2
289
     1
 69
     0
  0
VISUALSTYLE
  5
26C
102
{ACAD_REACTORS
330
267
102
}
330
267
100
AcDbVisualStyle
  2
2dWireframe
 70
     4
 71
     0
 72
     2
 73
     0
 90
        0
 40
-0.6
 41
-30.0
 62
     5
 63
     7
421
 16777215
 74
     1
 91
        4
 64
     7
 65
   257
 75
     1
175
     1
 42
1.0
 92
        0
 66
   257
 43
1.0
 76
     1
 77
     6
 78
     2
 67
     7
 79
     5
170
     0
171
     0
290
     0
174
     0
 93
        1
 44
0.0
173
     0
291
     0
 45
0.0
  0
VISUALSTYLE
  5
26E
102
{ACAD_REACTORS
330
267
102
}
330
267
100
AcDbVisualStyle
  2
3D Hidden
 70
     6
 71
     1
 72
     2
 73
     2
 90
        0
 40
-0.6
 41
-30.0
 62
     5
 63
     7
421
 16777215
 74
     2
 91
        2
 64
     7
 65
   257
 75
     2
175
     1
 42
40.0
 92
        0
 66
   257
 43
1.0
 76
     1
 77
     6
 78
     2
 67
     7
 79
     3
170
     0
171
     0
290
     0
174
     0
 93
        1
 44
0.0
173
     0
291
     0
 45
0.0
  0
VISUALSTYLE
  5
26D
102
{ACAD_REACTORS
330
267
102
}
330
267
100
AcDbVisualStyle
  2
3dWireframe
 70
     5
 71
     0
 72
     2
 73
     0
 90
        0
 40
-0.6
 41
-30.0
 62
     5
 63
     7
421
 16777215
 74
     1
 91
        4
 64
     7
 65
   257
 75
     1
175
     1
 42
1.0
 92
        0
 66
   257
 43
1.0
 76
     1
 77
     6
 78
     2
 67
     7
 79
     5
170
     0
171
     0
290
     0
174
     0
 93
        1
 44
0.0
173
     0
291
     0
 45
0.0
  0
VISUALSTYLE
  5
26F
102
{ACAD_REACTORS
330
267
102
}
330
267
100
AcDbVisualStyle
  2
Basic
 70
     7
 71
     1
 72
     0
 73
     1
 90
        0
 40
-0.6
 41
-30.0
 62
     5
 63
     7
421
 16777215
 74
     0
 91
        4
 64
     7
 65
   257
 75
     1
175
     1
 42
1.0
 92
        8
 66
     7
 43
1.0
 76
     1
 77
     6
 78
     2
 67
     7
 79
     5
170
     0
171
     0
290
     0
174
     0
 93
        1
 44
0.0
173
     0
291
     1
 45
0.0
  0
VISUALSTYLE
  5
273
102
{ACAD_REACTORS
330
267
102
}
330
267
100
AcDbVisualStyle
  2
Brighten
 70
    12
 71
     2
 72
     2
 73
     0
 90
        0
 40
-0.6
 41
-30.0
 62
     5
 63
     7
421
 16777215
 74
     1
 91
        4
 64
     7
 65
   257
 75
     1
175
     1
 42
1.0
 92
        8
 66
     7
 43
1.0
 76
     1
 77
     6
 78
     2
 67
     7
 79
     5
170
     0
171
     0
290
     0
174
     0
 93
        1
 44
50.0
173
     0
291
     1
 45
0.0
  0
VISUALSTYLE
  5
277
102
{ACAD_REACTORS
330
267
102
}
330
267
100
AcDbVisualStyle
  2
ColorChange
 70
    16
 71
     2
 72
     2
 73
     3
 90
        0
 40
-0.6
 41
-30.0
 62
     5
 63
     8
421
  8421504
 74
     1
 91
        4
 64
     7
 65
   257
 75
     1
175
     1
 42
1.0
 92
        8
 66
     8
424
  8421504
 43
1.0
 76
     1
 77
     6
 78
     2
 67
     7
 79
     5
170
     0
171
     0
290
     0
174
     0
 93
        1
 44
0.0
173
     0
291
     1
 45
0.0
  0
VISUALSTYLE
  5
271
102
{ACAD_REACTORS
330
267
102
}
330
267
100
AcDbVisualStyle
  2
Conceptual
 70
     9
 71
     3
 72
     2
 73
     0
 90
        0
 40
-0.6
 41
-30.0
 62
     5
 63
     7
421
 16777215
 74
     2
 91
        2
 64
     7
 65
   257
 75
     1
175
     1
 42
40.0
 92
        8
 66
     7
 43
1.0
 76
     1
 77
     6
 78
     2
 67
     7
 79
     3
170
     0
171
     0
290
     0
174
     0
 93
        1
 44
0.0
173
     0
291
     0
 45
0.0
  0
VISUALSTYLE
  5
272
102
{ACAD_REACTORS
330
267
102
}
330
267
100
AcDbVisualStyle
  2
Dim
 70
    11
 71
     2
 72
     2
 73
     0
 90
        0
 40
-0.6
 41
-30.0
 62
     5
 63
     7
421
 16777215
 74
     1
 91
        4
 64
     7
 65
   257
 75
     1
175
     1
 42
1.0
 92
        8
 66
     7
 43
1.0
 76
     1
 77
     6
 78
     2
 67
     7
 79
     5
170
     0
171
     0
290
     0
174
     0
 93
        1
 44
-50.0
173
     0
291
     1
 45
0.0
  0
VISUALSTYLE
  5
8FE
102
{ACAD_REACTORS
330
267
102
}
330
267
100
AcDbVisualStyle
  2
EdgeColorOff
 70
    22
 71
     2
 72
     2
 73
     0
 90
        0
 40
0.6
 41
30.0
 62
     5
 63
     7
421
 16777215
 74
     1
 91
        4
 64
     7
 65
   257
 75
     1
175
     1
 42
1.0
 92
        8
 66
     7
 43
1.0
 76
     1
 77
     6
 78
     2
 67
     7
 79
     5
170
     0
171
     0
290
     0
174
     0
 93
        1
 44
0.0
173
     0
291
     1
 45
0.0
  0
VISUALSTYLE
  5
276
102
{ACAD_REACTORS
330
267
102
}
330
267
100
AcDbVisualStyle
  2
Facepattern
 70
    15
 71
     2
 72
     2
 73
     0
 90
        0
 40
-0.6
 41
-30.0
 62
     5
 63
     7
421
 16777215
 74
     1
 91
        4
 64
     7
 65
   257
 75
     1
175
     1
 42
1.0
 92
        8
 66
     7
 43
1.0
 76
     1
 77
     6
 78
     2
 67
     7
 79
     5
170
     0
171
     0
290
     0
174
     0
 93
        1
 44
0.0
173
     0
291
     1
 45
0.0
  0
VISUALSTYLE
  5
268
102
{ACAD_REACTORS
330
267
102
}
330
267
100
AcDbVisualStyle
  2
Flat
 70
     0
 71
     2
 72
     1
 73
     1
 90
        2
 40
-0.6
 41
30.0
 62
     5
 63
     7
421
 16777215
 74
     0
 91
        4
 64
     7
 65
   257
 75
     1
175
     1
 42
1.0
 92
        8
 66
     7
 43
1.0
 76
     1
 77
     6
 78
     2
 67
     7
 79
     5
170
     0
171
     0
290
     0
174
     0
 93
       13
 44
0.0
173
     0
291
     1
 45
0.0
  0
VISUALSTYLE
  5
269
102
{ACAD_REACTORS
330
267
102
}
330
267
100
AcDbVisualStyle
  2
FlatWithEdges
 70
     1
 71
     2
 72
     1
 73
     1
 90
        2
 40
-0.6
 41
30.0
 62
     5
 63
     7
421
 16777215
 74
     1
 91
        4
 64
     7
 65
   257
 75
     1
175
     1
 42
1.0
 92
        0
 66
   257
 43
1.0
 76
     1
 77
     6
 78
     2
 67
     7
 79
     5
170
     0
171
     0
290
     0
174
     0
 93
       13
 44
0.0
173
     0
291
     1
 45
0.0
  0
VISUALSTYLE
  5
26A
102
{ACAD_REACTORS
330
267
102
}
330
267
100
AcDbVisualStyle
  2
Gouraud
 70
     2
 71
     2
 72
     2
 73
     1
 90
        2
 40
-0.6
 41
30.0
 62
     5
 63
     7
421
 16777215
 74
     0
 91
        4
 64
     7
 65
   257
 75
     1
175
     1
 42
1.0
 92
        0
 66
     7
 43
1.0
 76
     1
 77
     6
 78
     2
 67
     7
 79
     5
170
     0
171
     0
290
     0
174
     0
 93
       13
 44
0.0
173
     0
291
     1
 45
0.0
  0
VISUALSTYLE
  5
26B
102
{ACAD_REACTORS
330
267
102
}
330
267
100
AcDbVisualStyle
  2
GouraudWithEdges
 70
     3
 71
     2
 72
     2
 73
     1
 90
        2
 40
-0.6
 41
30.0
 62
     5
 63
     7
421
 16777215
 74
     1
 91
        4
 64
     7
 65
   257
 75
     1
175
     1
 42
1.0
 92
        0
 66
   257
 43
1.0
 76
     1
 77
     6
 78
     2
 67
     7
 79
     5
170
     0
171
     0
290
     0
174
     0
 93
       13
 44
0.0
173
     0
291
     1
 45
0.0
  0
VISUALSTYLE
  5
8FB
102
{ACAD_REACTORS
330
267
102
}
330
267
100
AcDbVisualStyle
  2
Hidden
 70
     6
 71
     1
 72
     2
 73
     2
 90
        0
 40
0.6
 41
30.0
 62
     5
 63
     7
421
 16777215
 74
     2
 91
        2
 64
     7
 65
   257
 75
     2
175
     1
 42
40.0
 92
        0
 66
   257
 43
1.0
 76
     1
 77
     6
 78
     2
 67
     7
 79
     3
170
     0
171
     0
290
     0
174
     0
 93
        1
 44
0.0
173
     0
291
     0
 45
0.0
  0
VISUALSTYLE
  5
8FC
102
{ACAD_REACTORS
330
267
102
}
330
267
100
AcDbVisualStyle
  2
JitterOff
 70
    20
 71
     2
 72
     2
 73
     0
 90
        0
 40
0.6
 41
30.0
 62
     5
 63
     7
421
 16777215
 74
     1
 91
        4
 64
     7
 65
   257
 75
     1
175
     1
 42
1.0
 92
       10
 66
     7
 43
1.0
 76
     1
 77
     6
 78
     2
 67
     7
 79
     5
170
     0
171
     0
290
     0
174
     0
 93
        1
 44
0.0
173
     0
291
     1
 45
0.0
  0
VISUALSTYLE
  5
275
102
{ACAD_REACTORS
330
267
102
}
330
267
100
AcDbVisualStyle
  2
Linepattern
 70
    14
 71
     2
 72
     2
 73
     0
 90
        0
 40
-0.6
 41
-30.0
 62
     5
 63
     7
421
 16777215
 74
     1
 91
        4
 64
     7
 65
   257
 75
     7
175
     7
 42
1.0
 92
        8
 66
     7
 43
1.0
 76
     1
 77
     6
 78
     2
 67
     7
 79
     5
170
     0
171
     0
290
     0
174
     0
 93
        1
 44
0.0
173
     0
291
     1
 45
0.0
  0
VISUALSTYLE
  5
8FD
102
{ACAD_REACTORS
330
267
102
}
330
267
100
AcDbVisualStyle
  2
OverhangOff
 70
    21
 71
     2
 72
     2
 73
     0
 90
        0
 40
0.6
 41
30.0
 62
     5
 63
     7
421
 16777215
 74
     1
 91
        4
 64
     7
 65
   257
 75
     1
175
     1
 42
1.0
 92
        9
 66
     7
 43
1.0
 76
     1
 77
     6
 78
     2
 67
     7
 79
     5
170
     0
171
     0
290
     0
174
     0
 93
        1
 44
0.0
173
     0
291
     1
 45
0.0
  0
VISUALSTYLE
  5
270
102
{ACAD_REACTORS
330
267
102
}
330
267
100
AcDbVisualStyle
  2
Realistic
 70
     8
 71
     2
 72
     2
 73
     0
 90
        0
 40
-0.6
 41
-30.0
 62
     5
 63
     7
421
 16777215
 74
     1
 91
        0
 64
     7
 65
   257
 75
     1
175
     1
 42
1.0
 92
        8
 66
     8
424
  7895160
 43
1.0
 76
     1
 77
     6
 78
     2
 67
     7
 79
     5
170
     0
171
     0
290
     0
174
     0
 93
       13
 44
0.0
173
     0
291
     0
 45
0.0
  0
VISUALSTYLE
  5
903
102
{ACAD_REACTORS
330
267
102
}
330
267
100
AcDbVisualStyle
  2
Shaded
 70
    27
 71
     2
 72
     2
 73
     1
 90
        2
 40
0.6
 41
30.0
 62
     5
 63
     7
421
 16777215
 74
     0
 91
        4
 64
     7
 65
   257
 75
     1
175
     1
 42
1.0
 92
        8
 66
   257
 43
1.0
 76
     1
 77
     6
 78
     2
 67
     8
425
  7895160
 79
     3
170
     0
171
     0
290
     0
174
     0
 93
        5
 44
0.0
173
     0
291
     0
 45
0.0
  0
VISUALSTYLE
  5
902
102
{ACAD_REACTORS
330
267
102
}
330
267
100
AcDbVisualStyle
  2
Shaded with edges
 70
    26
 71
     2
 72
     2
 73
     1
 90
        2
 40
0.6
 41
30.0
 62
     5
 63
     7
421
 16777215
 74
     1
 91
       10
 64
     7
 65
   257
 75
     2
175
     1
 42
1.0
 92
        8
 66
   257
 43
1.0
 76
     1
 77
     6
 78
     2
 67
     7
 79
     3
170
     0
171
     0
290
     0
174
     0
 93
        5
 44
0.0
173
     0
291
     0
 45
0.0
  0
VISUALSTYLE
  5
8FF
102
{ACAD_REACTORS
330
267
102
}
330
267
100
AcDbVisualStyle
  2
Shades of Gray
 70
    23
 71
     2
 72
     2
 73
     3
 90
        0
 40
0.6
 41
30.0
 62
     5
 63
     7
421
 16777215
 74
     2
 91
        2
 64
     7
 65
     7
 75
     1
175
     1
 42
40.0
 92
        8
 66
     7
 43
1.0
 76
     1
 77
     6
 78
     2
 67
     7
 79
     3
170
     0
171
     0
290
     0
174
     0
 93
        1
 44
0.0
173
     0
291
     0
 45
0.0
  0
VISUALSTYLE
  5
900
102
{ACAD_REACTORS
330
267
102
}
330
267
100
AcDbVisualStyle
  2
Sketchy
 70
    24
 71
     1
 72
     2
 73
     2
 90
        0
 40
0.6
 41
30.0
 62
     5
 63
     7
421
 16777215
 74
     2
 91
        2
 64
     7
 65
     7
 75
     1
175
     1
 42
40.0
 92
       11
 66
     7
 43
1.0
 76
     1
 77
     6
 78
     2
 67
     7
 79
     6
170
     0
171
     0
290
     0
174
     0
 93
        1
 44
0.0
173
     0
291
     0
 45
0.0
  0
VISUALSTYLE
  5
274
102
{ACAD_REACTORS
330
267
102
}
330
267
100
AcDbVisualStyle
  2
Thicken
 70
    13
 71
     2
 72
     2
 73
     0
 90
        0
 40
-0.6
 41
-30.0
 62
     5
 63
     7
421
 16777215
 74
     1
 91
        4
 64
     7
 65
   257
 75
     1
175
     1
 42
1.0
 92
       12
 66
     7
 43
1.0
 76
     1
 77
     6
 78
     2
 67
     7
 79
     5
170
     0
171
     0
290
     0
174
     0
 93
        1
 44
0.0
173
     0
291
     1
 45
0.0
  0
VISUALSTYLE
  5
8FA
102
{ACAD_REACTORS
330
267
102
}
330
267
100
AcDbVisualStyle
  2
Wireframe
 70
     5
 71
     0
 72
     2
 73
     0
 90
        0
 40
0.6
 41
30.0
 62
     5
 63
     7
421
 16777215
 74
     1
 91
        4
 64
     7
 65
   257
 75
     1
175
     1
 42
1.0
 92
        0
 66
   257
 43
1.0
 76
     1
 77
     6
 78
     2
 67
     7
 79
     3
170
     0
171
     0
290
     0
174
     0
 93
        1
 44
0.0
173
     0
291
     0
 45
0.0
  0
VISUALSTYLE
  5
901
102
{ACAD_REACTORS
330
267
102
}
330
267
100
AcDbVisualStyle
  2
X-Ray
 70
    25
 71
     2
 72
     2
 73
     1
 90
        1
 40
0.5
 41
30.0
 62
     5
 63
     7
421
 16777215
 74
     1
 91
        0
 64
     7
 65
   257
 75
     1
175
     1
 42
1.0
 92
        8
 66
     7
 43
1.0
 76
     1
 77
     6
 78
     2
 67
     7
 79
     3
170
     0
171
     0
290
     0
174
     0
 93
       13
 44
0.0
173
     0
291
     0
 45
0.0
  0
DICTIONARYVAR
  5
331
102
{ACAD_REACTORS
330
330
102
}
330
330
100
DictionaryVariables
280
     0
  1
1:1
  0
DICTIONARYVAR
  5
D5E
102
{ACAD_REACTORS
330
330
102
}
330
330
100
DictionaryVariables
280
     0
  1
Standard
  0
DICTIONARYVAR
  5
335
102
{ACAD_REACTORS
330
330
102
}
330
330
100
DictionaryVariables
280
     0
  1
Standard
  0
DICTIONARYVAR
  5
D52
102
{ACAD_REACTORS
330
330
102
}
330
330
100
DictionaryVariables
280
     0
  1
ByLayer
  0
DICTIONARYVAR
  5
896
102
{ACAD_REACTORS
330
330
102
}
330
330
100
DictionaryVariables
280
     0
  1
0
  0
DICTIONARYVAR
  5
246C
102
{ACAD_REACTORS
330
E38
102
}
330
E38
100
DictionaryVariables
280
     0
  1
0.261799
  0
DICTIONARYVAR
  5
246A
102
{ACAD_REACTORS
330
E38
102
}
330
E38
100
DictionaryVariables
280
     0
  1
0.400000
  0
DICTIONARYVAR
  5
246B
102
{ACAD_REACTORS
330
E38
102
}
330
E38
100
DictionaryVariables
280
     0
  1
0.250000
  0
DICTIONARYVAR
  5
246D
102
{ACAD_REACTORS
330
E38
102
}
330
E38
100
DictionaryVariables
280
     0
  1
1
  0
FIELD
  5
3CB6
102
{ACAD_REACTORS
330
566B
330
56A9
330
56AD
102
}
330
56AD
100
AcDbField
  1
_text
  2
{%<\_FldIdx 0>%N}
 90
        1
360
3CB9
 97
        0
 91
       63
 92
        0
 94
       11
 95
        2
 96
        0
300

 93
        1
  6
ACFD_FIELDTEXT_CHECKSUM
 93
        2
 90
        2
140
4481.0
 94
        0
300

302

304
ACVALUE_END
  7
ACFD_FIELD_VALUE
 93
        6
 90
        4
  1
{20191202N}
 94
        0
300

302

304
ACVALUE_END
301
{20191202N}
 98
       11
  0
DICTIONARY
  5
56B4
330
279
100
AcDbDictionary
280
     1
281
     1
  3
ACAD_ROUNDTRIP_2008_TABLESTYLE_CELLSTYLEMAP
360
56B5
  0
FIELD
  5
3CB9
330
3CB6
100
AcDbField
  1
AcVar
  2
\AcVar CreateDate \f "yyyyMMdd"
 90
        0
 97
        0
 91
       63
 92
        0
 94
       11
 95
        2
 96
        0
300

 93
        1
  6
Variable
 93
        2
 90
        4
  1
CreateDate
 94
        0
300

302

304
ACVALUE_END
  7
ACFD_FIELD_VALUE
 93
        6
 90
        8
 92
       16
310
E3070C00000002000400360035000000
 94
        0
300
yyyyMMdd
302

304
ACVALUE_END
301
20191202
 98
        8
  0
CELLSTYLEMAP
  5
56B5
102
{ACAD_REACTORS
330
56B4
102
}
330
56B4
100
AcDbCellStyleMap
 90
        3
300
CELLSTYLE
  1
TABLEFORMAT_BEGIN
 90
        5
170
     1
 91
        0
 92
    32768
 62
   257
 93
        1
300
CONTENTFORMAT
  1
CONTENTFORMAT_BEGIN
 90
        0
 91
        0
 92
        4
 93
        0
300

 40
0.0
140
1.0
 94
        5
 62
     0
340
17
144
6.0
309
CONTENTFORMAT_END
171
     1
301
MARGIN
  1
CELLMARGIN_BEGIN
 40
0.06
 40
0.06
 40
0.06
 40
0.06
 40
0.18
 40
0.18
309
CELLMARGIN_END
 94
        6
 95
        1
302
GRIDFORMAT
  1
GRIDFORMAT_BEGIN
 90
        0
 91
        1
 62
     0
 92
       -2
340
0
 93
        0
 40
0.045
309
GRIDFORMAT_END
 95
        2
302
GRIDFORMAT
  1
GRIDFORMAT_BEGIN
 90
        0
 91
        1
 62
     0
 92
       -2
340
0
 93
        0
 40
0.045
309
GRIDFORMAT_END
 95
        4
302
GRIDFORMAT
  1
GRIDFORMAT_BEGIN
 90
        0
 91
        1
 62
     0
 92
       -2
340
0
 93
        0
 40
0.045
309
GRIDFORMAT_END
 95
        8
302
GRIDFORMAT
  1
GRIDFORMAT_BEGIN
 90
        0
 91
        1
 62
     0
 92
       -2
340
0
 93
        0
 40
0.045
309
GRIDFORMAT_END
 95
       16
302
GRIDFORMAT
  1
GRIDFORMAT_BEGIN
 90
        0
 91
        1
 62
     0
 92
       -2
340
0
 93
        0
 40
0.045
309
GRIDFORMAT_END
 95
       32
302
GRIDFORMAT
  1
GRIDFORMAT_BEGIN
 90
        0
 91
        1
 62
     0
 92
       -2
340
0
 93
        0
 40
0.045
309
GRIDFORMAT_END
309
TABLEFORMAT_END
  1
CELLSTYLE_BEGIN
 90
        1
 91
        1
300
_TITLE
309
CELLSTYLE_END
300
CELLSTYLE
  1
TABLEFORMAT_BEGIN
 90
        5
170
     1
 91
        0
 92
        0
 62
   257
 93
        1
300
CONTENTFORMAT
  1
CONTENTFORMAT_BEGIN
 90
        0
 91
        0
 92
        4
 93
        0
300

 40
0.0
140
1.0
 94
        5
 62
     0
340
17
144
4.5
309
CONTENTFORMAT_END
171
     1
301
MARGIN
  1
CELLMARGIN_BEGIN
 40
0.06
 40
0.06
 40
0.06
 40
0.06
 40
0.18
 40
0.18
309
CELLMARGIN_END
 94
        6
 95
        1
302
GRIDFORMAT
  1
GRIDFORMAT_BEGIN
 90
        0
 91
        1
 62
     0
 92
       -2
340
0
 93
        0
 40
0.045
309
GRIDFORMAT_END
 95
        2
302
GRIDFORMAT
  1
GRIDFORMAT_BEGIN
 90
        0
 91
        1
 62
     0
 92
       -2
340
0
 93
        0
 40
0.045
309
GRIDFORMAT_END
 95
        4
302
GRIDFORMAT
  1
GRIDFORMAT_BEGIN
 90
        0
 91
        1
 62
     0
 92
       -2
340
0
 93
        0
 40
0.045
309
GRIDFORMAT_END
 95
        8
302
GRIDFORMAT
  1
GRIDFORMAT_BEGIN
 90
        0
 91
        1
 62
     0
 92
       -2
340
0
 93
        0
 40
0.045
309
GRIDFORMAT_END
 95
       16
302
GRIDFORMAT
  1
GRIDFORMAT_BEGIN
 90
        0
 91
        1
 62
     0
 92
       -2
340
0
 93
        0
 40
0.045
309
GRIDFORMAT_END
 95
       32
302
GRIDFORMAT
  1
GRIDFORMAT_BEGIN
 90
        0
 91
        1
 62
     0
 92
       -2
340
0
 93
        0
 40
0.045
309
GRIDFORMAT_END
309
TABLEFORMAT_END
  1
CELLSTYLE_BEGIN
 90
        2
 91
        1
300
_HEADER
309
CELLSTYLE_END
300
CELLSTYLE
  1
TABLEFORMAT_BEGIN
 90
        5
170
     1
 91
        0
 92
        0
 62
   257
 93
        1
300
CONTENTFORMAT
  1
CONTENTFORMAT_BEGIN
 90
        0
 91
        0
 92
        4
 93
        0
300

 40
0.0
140
1.0
 94
        2
 62
     0
340
17
144
4.5
309
CONTENTFORMAT_END
171
     1
301
MARGIN
  1
CELLMARGIN_BEGIN
 40
0.06
 40
0.06
 40
0.06
 40
0.06
 40
0.18
 40
0.18
309
CELLMARGIN_END
 94
        6
 95
        1
302
GRIDFORMAT
  1
GRIDFORMAT_BEGIN
 90
        0
 91
        1
 62
     0
 92
       -2
340
0
 93
        0
 40
0.045
309
GRIDFORMAT_END
 95
        2
302
GRIDFORMAT
  1
GRIDFORMAT_BEGIN
 90
        0
 91
        1
 62
     0
 92
       -2
340
0
 93
        0
 40
0.045
309
GRIDFORMAT_END
 95
        4
302
GRIDFORMAT
  1
GRIDFORMAT_BEGIN
 90
        0
 91
        1
 62
     0
 92
       -2
340
0
 93
        0
 40
0.045
309
GRIDFORMAT_END
 95
        8
302
GRIDFORMAT
  1
GRIDFORMAT_BEGIN
 90
        0
 91
        1
 62
     0
 92
       -2
340
0
 93
        0
 40
0.045
309
GRIDFORMAT_END
 95
       16
302
GRIDFORMAT
  1
GRIDFORMAT_BEGIN
 90
        0
 91
        1
 62
     0
 92
       -2
340
0
 93
        0
 40
0.045
309
GRIDFORMAT_END
 95
       32
302
GRIDFORMAT
  1
GRIDFORMAT_BEGIN
 90
        0
 91
        1
 62
     0
 92
       -2
340
0
 93
        0
 40
0.045
309
GRIDFORMAT_END
309
TABLEFORMAT_END
  1
CELLSTYLE_BEGIN
 90
        3
 91
        2
300
_DATA
309
CELLSTYLE_END
  0
ENDSEC
  0
EOF
