  0
SECTION
  2
HEADER
  9
$ACADVER
  1
AC1021
  9
$ACADMAINTVER
 70
    25
  9
$DWGCODEPAGE
  3
ANSI_932
  9
$LASTSAVEDBY
  1
howeNelson
  9
$INSBASE
 10
0.0
 20
0.0
 30
0.0
  9
$EXTMIN
 10
0.0
 20
0.0
 30
-0.0000000000000071
  9
$EXTMAX
 10
840.0
 20
1188.0
 30
0.0000000000000071
  9
$LIMMIN
 10
0.0
 20
0.0
  9
$LIMMAX
 10
840.0
 20
1188.0
  9
$ORTHOMODE
 70
     0
  9
$REGENMODE
 70
     1
  9
$FILLMODE
 70
     1
  9
$QTEXTMODE
 70
     0
  9
$MIRRTEXT
 70
     1
  9
$LTSCALE
 40
2.0
  9
$ATTMODE
 70
     1
  9
$TEXTSIZE
 40
2.5
  9
$TRACEWID
 40
1.0
  9
$TEXTSTYLE
  7
ＭＳ ゴシック
  9
$CLAYER
  8
DIM
  9
$CELTYPE
  6
ByLayer
  9
$CECOLOR
 62
   256
  9
$CELTSCALE
 40
1.0
  9
$DISPSILH
 70
     0
  9
$DIMSCALE
 40
1.0
  9
$DIMASZ
 40
4.0
  9
$DIMEXO
 40
5.0
  9
$DIMDLI
 40
0.9999999999999999
  9
$DIMRND
 40
0.0
  9
$DIMDLE
 40
0.0
  9
$DIMEXE
 40
0.0
  9
$DIMTP
 40
0.0
  9
$DIMTM
 40
0.0
  9
$DIMTXT
 40
10.0
  9
$DIMCEN
 40
0.0
  9
$DIMTSZ
 40
0.0
  9
$DIMTOL
 70
     0
  9
$DIMLIM
 70
     0
  9
$DIMTIH
 70
     0
  9
$DIMTOH
 70
     0
  9
$DIMSE1
 70
     0
  9
$DIMSE2
 70
     0
  9
$DIMTAD
 70
     1
  9
$DIMZIN
 70
    11
  9
$DIMBLK
  1
DOT
  9
$DIMASO
 70
     1
  9
$DIMSHO
 70
     1
  9
$DIMPOST
  1
<>
  9
$DIMAPOST
  1
[]
  9
$DIMALT
 70
     0
  9
$DIMALTD
 70
     1
  9
$DIMALTF
 40
1.0
  9
$DIMLFAC
 40
1.0
  9
$DIMTOFL
 70
     0
  9
$DIMTVP
 40
0.0
  9
$DIMTIX
 70
     1
  9
$DIMSOXD
 70
     0
  9
$DIMSAH
 70
     0
  9
$DIMBLK1
  1

  9
$DIMBLK2
  1

  9
$DIMSTYLE
  2
tfrom線あり
  9
$DIMCLRD
 70
     0
  9
$DIMCLRE
 70
     0
  9
$DIMCLRT
 70
     0
  9
$DIMTFAC
 40
1.0
  9
$DIMGAP
 40
4.0
  9
$DIMJUST
 70
     0
  9
$DIMSD1
 70
     0
  9
$DIMSD2
 70
     0
  9
$DIMTOLJ
 70
     1
  9
$DIMTZIN
 70
    11
  9
$DIMALTZ
 70
    11
  9
$DIMALTTZ
 70
    11
  9
$DIMUPT
 70
     0
  9
$DIMDEC
 70
     0
  9
$DIMTDEC
 70
     1
  9
$DIMALTU
 70
     2
  9
$DIMALTTD
 70
     2
  9
$DIMTXSTY
  7
ＭＳ ゴシック
  9
$DIMAUNIT
 70
     0
  9
$DIMADEC
 70
     2
  9
$DIMALTRND
 40
0.0
  9
$DIMAZIN
 70
     0
  9
$DIMDSEP
 70
    46
  9
$DIMATFIT
 70
     0
  9
$DIMFRAC
 70
     2
  9
$DIMLDRBLK
  1
DOT
  9
$DIMLUNIT
 70
     2
  9
$DIMLWD
 70
    -2
  9
$DIMLWE
 70
    -2
  9
$DIMTMOVE
 70
     0
  9
$DIMFXL
 40
1.0
  9
$DIMFXLON
 70
     0
  9
$DIMJOGANG
 40
0.7853981633974483
  9
$DIMTFILL
 70
     0
  9
$DIMTFILLCLR
 70
     0
  9
$DIMARCSYM
 70
     0
  9
$DIMLTYPE
  6

  9
$DIMLTEX1
  6

  9
$DIMLTEX2
  6

  9
$LUNITS
 70
     2
  9
$LUPREC
 70
     0
  9
$SKETCHINC
 40
0.1
  9
$FILLETRAD
 40
0.0
  9
$AUNITS
 70
     0
  9
$AUPREC
 70
     0
  9
$MENU
  1
acad
  9
$ELEVATION
 40
0.0
  9
$PELEVATION
 40
0.0
  9
$THICKNESS
 40
0.0
  9
$LIMCHECK
 70
     0
  9
$CHAMFERA
 40
0.0
  9
$CHAMFERB
 40
0.0
  9
$CHAMFERC
 40
0.0
  9
$CHAMFERD
 40
0.0
  9
$SKPOLY
 70
     0
  9
$TDCREATE
 40
2447893.375
  9
$TDUCREATE
 40
0.0
  9
$TDUPDATE
 40
2458458.455771192
  9
$TDUUPDATE
 40
2458458.080771192
  9
$TDINDWG
 40
0.1484416319
  9
$TDUSRTIMER
 40
0.0015584954
  9
$USRTIMER
 70
     1
  9
$ANGBASE
 50
0.0
  9
$ANGDIR
 70
     0
  9
$PDMODE
 70
     1
  9
$PDSIZE
 40
-2.0
  9
$PLINEWID
 40
0.0
  9
$SPLFRAME
 70
     0
  9
$SPLINETYPE
 70
     6
  9
$SPLINESEGS
 70
     8
  9
$HANDSEED
  5
45BC
  9
$SURFTAB1
 70
     6
  9
$SURFTAB2
 70
     6
  9
$SURFTYPE
 70
     6
  9
$SURFU
 70
     6
  9
$SURFV
 70
     6
  9
$UCSBASE
  2

  9
$UCSNAME
  2

  9
$UCSORG
 10
0.0
 20
0.0
 30
0.0
  9
$UCSXDIR
 10
1.0
 20
0.0
 30
0.0
  9
$UCSYDIR
 10
0.0
 20
1.0
 30
0.0
  9
$UCSORTHOREF
  2

  9
$UCSORTHOVIEW
 70
     0
  9
$UCSORGTOP
 10
0.0
 20
0.0
 30
0.0
  9
$UCSORGBOTTOM
 10
0.0
 20
0.0
 30
0.0
  9
$UCSORGLEFT
 10
0.0
 20
0.0
 30
0.0
  9
$UCSORGRIGHT
 10
0.0
 20
0.0
 30
0.0
  9
$UCSORGFRONT
 10
0.0
 20
0.0
 30
0.0
  9
$UCSORGBACK
 10
0.0
 20
0.0
 30
0.0
  9
$PUCSBASE
  2

  9
$PUCSNAME
  2

  9
$PUCSORG
 10
0.0
 20
0.0
 30
0.0
  9
$PUCSXDIR
 10
1.0
 20
0.0
 30
0.0
  9
$PUCSYDIR
 10
0.0
 20
1.0
 30
0.0
  9
$PUCSORTHOREF
  2

  9
$PUCSORTHOVIEW
 70
     0
  9
$PUCSORGTOP
 10
0.0
 20
0.0
 30
0.0
  9
$PUCSORGBOTTOM
 10
0.0
 20
0.0
 30
0.0
  9
$PUCSORGLEFT
 10
0.0
 20
0.0
 30
0.0
  9
$PUCSORGRIGHT
 10
0.0
 20
0.0
 30
0.0
  9
$PUCSORGFRONT
 10
0.0
 20
0.0
 30
0.0
  9
$PUCSORGBACK
 10
0.0
 20
0.0
 30
0.0
  9
$USERI1
 70
     0
  9
$USERI2
 70
     0
  9
$USERI3
 70
     0
  9
$USERI4
 70
     0
  9
$USERI5
 70
     0
  9
$USERR1
 40
0.0
  9
$USERR2
 40
0.0
  9
$USERR3
 40
0.0
  9
$USERR4
 40
0.0
  9
$USERR5
 40
0.0
  9
$WORLDVIEW
 70
     1
  9
$SHADEDGE
 70
     3
  9
$SHADEDIF
 70
    70
  9
$TILEMODE
 70
     1
  9
$MAXACTVP
 70
    64
  9
$PINSBASE
 10
0.0
 20
0.0
 30
0.0
  9
$PLIMCHECK
 70
     0
  9
$PEXTMIN
 10
0.0
 20
0.0
 30
0.0
  9
$PEXTMAX
 10
0.0
 20
0.0
 30
0.0
  9
$PLIMMIN
 10
-7.5
 20
-20.0
  9
$PLIMMAX
 10
412.5
 20
277.0
  9
$UNITMODE
 70
     0
  9
$VISRETAIN
 70
     0
  9
$PLINEGEN
 70
     1
  9
$PSLTSCALE
 70
     0
  9
$TREEDEPTH
 70
  3020
  9
$CMLSTYLE
  2
Standard
  9
$CMLJUST
 70
     0
  9
$CMLSCALE
 40
1.0
  9
$PROXYGRAPHICS
 70
     0
  9
$MEASUREMENT
 70
     1
  9
$CELWEIGHT
370
    -1
  9
$ENDCAPS
280
     0
  9
$JOINSTYLE
280
     0
  9
$LWDISPLAY
290
     1
  9
$INSUNITS
 70
     4
  9
$HYPERLINKBASE
  1

  9
$STYLESHEET
  1

  9
$XEDIT
290
     1
  9
$CEPSNTYPE
380
     0
  9
$PSTYLEMODE
290
     1
  9
$FINGERPRINTGUID
  2

  9
$VERSIONGUID
  2

  9
$EXTNAMES
290
     1
  9
$PSVPSCALE
 40
0.0
  9
$OLESTARTUP
290
     0
  9
$SORTENTS
280
   127
  9
$INDEXCTL
280
     0
  9
$HIDETEXT
280
     1
  9
$XCLIPFRAME
290
     0
  9
$HALOGAP
280
     0
  9
$OBSCOLOR
 70
   257
  9
$OBSLTYPE
280
     0
  9
$INTERSECTIONDISPLAY
280
     0
  9
$INTERSECTIONCOLOR
 70
   257
  9
$DIMASSOC
280
     2
  9
$PROJECTNAME
  1

  9
$CAMERADISPLAY
290
     0
  9
$LENSLENGTH
 40
50.0
  9
$CAMERAHEIGHT
 40
0.0
  9
$STEPSPERSEC
 40
2.0
  9
$STEPSIZE
 40
6.0
  9
$3DDWFPREC
 40
2.0
  9
$PSOLWIDTH
 40
0.25
  9
$PSOLHEIGHT
 40
4.0
  9
$LOFTANG1
 40
1.570796326794897
  9
$LOFTANG2
 40
1.570796326794897
  9
$LOFTMAG1
 40
0.0
  9
$LOFTMAG2
 40
0.0
  9
$LOFTPARAM
 70
     7
  9
$LOFTNORMALS
280
     1
  9
$LATITUDE
 40
37.795
  9
$LONGITUDE
 40
-122.394
  9
$NORTHDIRECTION
 40
0.0
  9
$TIMEZONE
 70
 -8000
  9
$LIGHTGLYPHDISPLAY
280
     1
  9
$TILEMODELIGHTSYNCH
280
     1
  9
$SOLIDHIST
280
     1
  9
$SHOWHIST
280
     1
  9
$DWFFRAME
280
     2
  9
$DGNFRAME
280
     2
  9
$REALWORLDSCALE
290
     1
  9
$INTERFERECOLOR
 62
   256
  9
$CSHADOW
280
     0
  9
$SHADOWPLANELOCATION
 40
0.0
  0
ENDSEC
  0
SECTION
  2
CLASSES
  0
CLASS
  1
LWPOLYLINE
  2
AcDbPolyline
  3
ObjectDBX Classes
 90
        0
 91
        1
280
     0
281
     1
  0
CLASS
  1
IMAGE
  2
AcDbRasterImage
  3
ISM
 90
      127
 91
        7
280
     0
281
     1
  0
CLASS
  1
OLE2FRAME
  2
AcDbOle2Frame
  3
ObjectDBX Classes
 90
        0
 91
        1
280
     0
281
     1
  0
CLASS
  1
HATCH
  2
AcDbHatch
  3
ObjectDBX Classes
 90
        0
 91
        1
280
     0
281
     1
  0
CLASS
  1
DICTIONARYVAR
  2
AcDbDictionaryVar
  3
ObjectDBX Classes
 90
        0
 91
        6
280
     0
281
     0
  0
CLASS
  1
RASTERVARIABLES
  2
AcDbRasterVariables
  3
ISM
 90
        0
 91
        6
280
     0
281
     0
  0
CLASS
  1
IMAGEDEF
  2
AcDbRasterImageDef
  3
ISM
 90
        0
 91
        6
280
     0
281
     0
  0
CLASS
  1
IMAGEDEF_REACTOR
  2
AcDbRasterImageDefReactor
  3
ISM
 90
        1
 91
        6
280
     0
281
     0
  0
CLASS
  1
IDBUFFER
  2
AcDbIdBuffer
  3
ObjectDBX Classes
 90
        0
 91
        6
280
     0
281
     0
  0
CLASS
  1
SPATIAL_FILTER
  2
AcDbSpatialFilter
  3
ObjectDBX Classes
 90
        0
 91
        6
280
     0
281
     0
  0
CLASS
  1
XRECORD
  2
AcDbXrecord
  3
ObjectDBX Classes
 90
        0
 91
        1
280
     0
281
     0
  0
CLASS
  1
SORTENTSTABLE
  2
AcDbSortentsTable
  3
ObjectDBX Classes
 90
        0
 91
        6
280
     0
281
     0
  0
CLASS
  1
LAYER_INDEX
  2
AcDbLayerIndex
  3
ObjectDBX Classes
 90
        0
 91
        6
280
     0
281
     0
  0
CLASS
  1
SPATIAL_INDEX
  2
AcDbSpatialIndex
  3
AutoCAD 2000
 90
        0
 91
        6
280
     0
281
     0
  0
CLASS
  1
OBJECT_PTR
  2
CAseDLPNTableRecord
  3
ASE-LPNTableRecord
 90
        1
 91
        6
280
     0
281
     0
  0
CLASS
  1
LAYOUT
  2
AcDbLayout
  3
ObjectDBX Classes
 90
        0
 91
        1
280
     0
281
     0
  0
CLASS
  1
PLOTSETTINGS
  2
AcDbPlotSettings
  3
ObjectDBX Classes
 90
        0
 91
        6
280
     0
281
     0
  0
CLASS
  1
ACDBDICTIONARYWDFLT
  2
AcDbDictionaryWithDefault
  3
ObjectDBX Classes
 90
        0
 91
        6
280
     0
281
     0
  0
CLASS
  1
ACDBPLACEHOLDER
  2
AcDbPlaceHolder
  3
ObjectDBX Classes
 90
        0
 91
        1
280
     0
281
     0
  0
CLASS
  1
SCALE
  2
AcDbScale
  3
ObjectDBX Classes
 90
     1153
 91
        6
280
     0
281
     0
  0
CLASS
  1
MATERIAL
  2
AcDbMaterial
  3
ObjectDBX Classes
 90
     1153
 91
        6
280
     0
281
     0
  0
CLASS
  1
VISUALSTYLE
  2
AcDbVisualStyle
  3
ObjectDBX Classes
 90
     4095
 91
        6
280
     0
281
     0
  0
CLASS
  1
TABLESTYLE
  2
AcDbTableStyle
  3
ObjectDBX Classes
 90
     4095
 91
        6
280
     0
281
     0
  0
CLASS
  1
DIMASSOC
  2
AcDbDimAssoc
  3
"AcDbDimAssoc|Product Desc:     AcDim ARX App For Dimension|Company:          Autodesk, Inc.|WEB Address:      www.autodesk.com"
 90
        0
 91
        6
280
     0
281
     0
  0
CLASS
  1
CELLSTYLEMAP
  2
AcDbCellStyleMap
  3
ObjectDBX Classes
 90
     1152
 91
        6
280
     0
281
     0
  0
CLASS
  1
SUN
  2
AcDbSun
  3
SCENEOE
 90
     1153
 91
        6
280
     0
281
     0
  0
CLASS
  1
MLEADERSTYLE
  2
AcDbMLeaderStyle
  3
ACDB_MLEADERSTYLE_CLASS
 90
     4095
 91
        6
280
     0
281
     0
  0
CLASS
  1
FIELD
  2
AcDbField
  3
ObjectDBX Classes
 90
     1152
 91
        6
280
     0
281
     0
  0
CLASS
  1
FIELDLIST
  2
AcDbFieldList
  3
ObjectDBX Classes
 90
     1152
 91
        6
280
     0
281
     0
  0
ENDSEC
  0
SECTION
  2
TABLES
  0
TABLE
  2
VPORT
  5
7
330
0
100
AcDbSymbolTable
 70
     1
  0
VPORT
  5
15
330
7
100
AcDbSymbolTableRecord
100
AcDbViewportTableRecord
  2
*ACTIVE
 70
     0
 10
0.0
 20
0.0
 11
1.0
 21
1.0
 12
511.0201356709001
 22
520.401285469834
 13
0.0
 23
0.0
 14
1.0
 24
1.0
 15
0.0
 25
0.0
 16
0.0
 26
0.0
 36
1.0
 17
-91.02013567090012
 27
73.59871453016603
 37
-46.86809886248109
 40
1211.76
 41
2.419452887537994
 42
50.0
 43
0.0
 44
0.0
 50
0.0
 51
0.0
 71
    16
 72
  2000
 73
     1
 74
     1
 75
     0
 76
     0
 77
     0
 78
     0
281
     0
 65
     1
110
0.0
120
0.0
130
0.0
111
1.0
121
0.0
131
0.0
112
0.0
122
1.0
132
0.0
 79
     0
146
0.0
348
26C
 60
     3
 61
     5
292
     1
282
     1
141
0.0
142
0.0
 63
   256
361
904
  0
ENDTAB
  0
TABLE
  2
LTYPE
  5
4
330
0
100
AcDbSymbolTable
 70
     3
  0
LTYPE
  5
11
330
4
100
AcDbSymbolTableRecord
100
AcDbLinetypeTableRecord
  2
ByBlock
 70
     0
  3

 72
    65
 73
     0
 40
0.0
  0
LTYPE
  5
12
330
4
100
AcDbSymbolTableRecord
100
AcDbLinetypeTableRecord
  2
ByLayer
 70
     0
  3

 72
    65
 73
     0
 40
0.0
  0
LTYPE
  5
13
330
4
100
AcDbSymbolTableRecord
100
AcDbLinetypeTableRecord
  2
Continuous
 70
     0
  3
Solid line
 72
    65
 73
     0
 40
0.0
  0
LTYPE
  5
D6C
330
4
100
AcDbSymbolTableRecord
100
AcDbLinetypeTableRecord
  2
BORDER
 70
     0
  3
Border __  __  . __  __  . __  __  . __  __  . 
 72
    65
 73
     6
 40
44.45
 49
12.7
 74
     0
 49
-6.35
 74
     0
 49
12.7
 74
     0
 49
-6.35
 74
     0
 49
0.0
 74
     0
 49
-6.35
 74
     0
  0
LTYPE
  5
D6D
330
4
100
AcDbSymbolTableRecord
100
AcDbLinetypeTableRecord
  2
HIDDEN
 70
     0
  3
Hidden _ _ _ _ _ _ _ _ _ _ _ _ _ _ _ _ _ _ _ _ 
 72
    65
 73
     2
 40
9.524999999999999
 49
6.35
 74
     0
 49
-3.175
 74
     0
  0
ENDTAB
  0
TABLE
  2
LAYER
  5
2
102
{ACAD_XDICTIONARY
360
2E1
102
}
330
0
100
AcDbSymbolTable
 70
    10
  0
LAYER
  5
14
330
2
100
AcDbSymbolTableRecord
100
AcDbLayerTableRecord
  2
0
 70
     0
 62
     7
  6
Continuous
370
    -3
390
1D
347
266
  0
LAYER
  5
4B
330
2
100
AcDbSymbolTableRecord
100
AcDbLayerTableRecord
  2
TEMPLATE
 70
     0
 62
     7
  6
Continuous
370
    20
390
1D
347
266
  0
LAYER
  5
4C
330
2
100
AcDbSymbolTableRecord
100
AcDbLayerTableRecord
  2
DIM
 70
     0
 62
     3
  6
Continuous
370
    13
390
1D
347
266
  0
LAYER
  5
4D
330
2
100
AcDbSymbolTableRecord
100
AcDbLayerTableRecord
  2
MODEL
 70
     0
 62
     7
  6
Continuous
370
    20
390
1D
347
266
  0
LAYER
  5
88C
330
2
100
AcDbSymbolTableRecord
100
AcDbLayerTableRecord
  2
HIDDEN
 70
     0
 62
     8
  6
HIDDEN
370
    20
390
1D
347
266
1001
AcAecLayerStandard
1000

1000

  0
LAYER
  5
D6B
330
2
100
AcDbSymbolTableRecord
100
AcDbLayerTableRecord
  2
BORDER
 70
     0
 62
     4
  6
BORDER
290
     0
370
    20
390
1D
347
266
1001
AcAecLayerStandard
1000

1000

  0
LAYER
  5
D8C
330
2
100
AcDbSymbolTableRecord
100
AcDbLayerTableRecord
  2
Defpoints
 70
     0
 62
     7
  6
Continuous
290
     0
370
    -3
390
1D
347
266
  0
LAYER
  5
3653
330
2
100
AcDbSymbolTableRecord
100
AcDbLayerTableRecord
  2
Standard
 70
     0
 62
     7
  6
Continuous
370
    -3
390
1D
347
266
  0
LAYER
  5
3E5C
330
2
100
AcDbSymbolTableRecord
100
AcDbLayerTableRecord
  2
_0-0_FRF74-1709
 70
     0
 62
     7
  6
Continuous
370
    -3
390
1D
347
266
  0
LAYER
  5
3E5E
330
2
100
AcDbSymbolTableRecord
100
AcDbLayerTableRecord
  2
_0-1_
 70
     0
 62
     7
  6
Continuous
370
    -3
390
1D
347
266
  0
ENDTAB
  0
TABLE
  2
STYLE
  5
3
330
0
100
AcDbSymbolTable
 70
     2
  0
STYLE
  5
17
330
3
100
AcDbSymbolTableRecord
100
AcDbTextStyleTableRecord
  2
Standard
 70
     0
 40
0.0
 41
1.0
 50
0.0
 71
     0
 42
2.5
  3
txt
  4
BIGFONT.SHX
  0
STYLE
  5
39
330
3
100
AcDbSymbolTableRecord
100
AcDbTextStyleTableRecord
  2
ＭＳ ゴシック
 70
     0
 40
0.0
 41
1.0
 50
0.0
 71
     0
 42
2.5
  3
msgothic.ttc
  4
ＭＳ ゴシック
1001
ACAD
1000
ＭＳ ゴシック
1071
        0
  0
ENDTAB
  0
TABLE
  2
VIEW
  5
5
330
0
100
AcDbSymbolTable
 70
     0
  0
ENDTAB
  0
TABLE
  2
UCS
  5
6
330
0
100
AcDbSymbolTable
 70
     0
  0
ENDTAB
  0
TABLE
  2
APPID
  5
8
330
0
100
AcDbSymbolTable
 70
     3
  0
APPID
  5
16
330
8
100
AcDbSymbolTableRecord
100
AcDbRegAppTableRecord
  2
ACAD
 70
     0
  0
APPID
  5
7AC
330
8
100
AcDbSymbolTableRecord
100
AcDbRegAppTableRecord
  2
AcAecLayerStandard
 70
     0
  0
APPID
  5
E29
330
8
100
AcDbSymbolTableRecord
100
AcDbRegAppTableRecord
  2
ACAD_MLEADERVER
 70
     0
  0
ENDTAB
  0
TABLE
  2
DIMSTYLE
  5
9
330
0
100
AcDbSymbolTable
 70
     2
100
AcDbDimStyleTable
  0
DIMSTYLE
105
18
330
9
100
AcDbSymbolTableRecord
100
AcDbDimStyleTableRecord
  2
Standard
 70
     0
178
     0
340
17
  0
DIMSTYLE
105
57
102
{ACAD_REACTORS
330
43EC
330
43FB
330
440A
330
4419
330
4428
330
4437
330
4452
102
}
330
9
100
AcDbSymbolTableRecord
100
AcDbDimStyleTableRecord
  2
tfrom線あり
 70
     0
  3
<>
  4
[]
 41
4.0
 42
5.0
 43
0.9999999999999999
 44
0.0
 73
     0
 74
     0
 77
     1
 78
    11
140
10.0
141
0.0
143
1.0
147
4.0
171
     1
174
     1
178
     0
179
     2
271
     0
272
     1
276
     2
284
    11
285
    11
286
    11
289
     0
340
39
341
4E
342
4E
  0
ENDTAB
  0
TABLE
  2
BLOCK_RECORD
  5
1
330
0
100
AcDbSymbolTable
 70
    14
  0
BLOCK_RECORD
  5
A
102
{ACAD_XDICTIONARY
360
3E3E
102
}
330
1
100
AcDbSymbolTableRecord
100
AcDbBlockTableRecord
  2
*MODEL_SPACE
340
20
 70
     0
280
     1
281
     0
  0
BLOCK_RECORD
  5
B
330
1
100
AcDbSymbolTableRecord
100
AcDbBlockTableRecord
  2
*PAPER_SPACE
340
21
 70
     0
280
     1
281
     0
  0
BLOCK_RECORD
  5
4E
330
1
100
AcDbSymbolTableRecord
100
AcDbBlockTableRecord
  2
_DOT
340
0
102
{BLKREFS
331
3E2C
331
3E2D
331
3E38
331
3E39
331
43E5
331
43E6
331
43F5
331
43F6
331
4404
331
4405
331
4413
331
4414
331
4422
331
4423
331
4431
331
4432
331
4440
331
4441
331
4459
331
445A
331
44C7
331
44C8
331
44D4
331
44D5
102
}
 70
     0
280
     1
281
     0
  0
BLOCK_RECORD
  5
68D
330
1
100
AcDbSymbolTableRecord
100
AcDbBlockTableRecord
  2
block 2
340
0
102
{BLKREFS
331
68C
331
1343
102
}
 70
     0
280
     1
281
     0
  0
BLOCK_RECORD
  5
3E26
330
1
100
AcDbSymbolTableRecord
100
AcDbBlockTableRecord
  2
*D2
340
0
 70
     0
280
     1
281
     0
  0
BLOCK_RECORD
  5
3E32
330
1
100
AcDbSymbolTableRecord
100
AcDbBlockTableRecord
  2
*D3
340
0
 70
     0
280
     1
281
     0
  0
BLOCK_RECORD
  5
43DF
330
1
100
AcDbSymbolTableRecord
100
AcDbBlockTableRecord
  2
*D4
340
0
 70
     0
280
     1
281
     0
  0
BLOCK_RECORD
  5
43EF
330
1
100
AcDbSymbolTableRecord
100
AcDbBlockTableRecord
  2
*D5
340
0
 70
     0
280
     1
281
     0
  0
BLOCK_RECORD
  5
43FE
330
1
100
AcDbSymbolTableRecord
100
AcDbBlockTableRecord
  2
*D6
340
0
 70
     0
280
     1
281
     0
  0
BLOCK_RECORD
  5
440D
330
1
100
AcDbSymbolTableRecord
100
AcDbBlockTableRecord
  2
*D7
340
0
 70
     0
280
     1
281
     0
  0
BLOCK_RECORD
  5
441C
330
1
100
AcDbSymbolTableRecord
100
AcDbBlockTableRecord
  2
*D8
340
0
 70
     0
280
     1
281
     0
  0
BLOCK_RECORD
  5
442B
330
1
100
AcDbSymbolTableRecord
100
AcDbBlockTableRecord
  2
*D9
340
0
 70
     0
280
     1
281
     0
  0
BLOCK_RECORD
  5
443A
330
1
100
AcDbSymbolTableRecord
100
AcDbBlockTableRecord
  2
*D10
340
0
 70
     0
280
     1
281
     0
  0
BLOCK_RECORD
  5
4453
330
1
100
AcDbSymbolTableRecord
100
AcDbBlockTableRecord
  2
*D11
340
0
 70
     0
280
     1
281
     0
  0
BLOCK_RECORD
  5
44C1
330
1
100
AcDbSymbolTableRecord
100
AcDbBlockTableRecord
  2
*D12
340
0
 70
     0
280
     1
281
     0
  0
BLOCK_RECORD
  5
44D0
330
1
100
AcDbSymbolTableRecord
100
AcDbBlockTableRecord
  2
*D13
340
0
 70
     0
280
     1
281
     0
  0
ENDTAB
  0
ENDSEC
  0
SECTION
  2
BLOCKS
  0
BLOCK
  5
D
330
A
100
AcDbEntity
  8
0
390
1D
100
AcDbBlockBegin
  2
*MODEL_SPACE
 70
     0
 10
0.0
 20
0.0
 30
0.0
  3
*MODEL_SPACE
  1
*MODEL_SPACE
  0
ENDBLK
  5
E
330
A
100
AcDbEntity
  8
0
390
1D
100
AcDbBlockEnd
  0
BLOCK
  5
F
330
B
100
AcDbEntity
 67
     1
  8
0
390
1D
100
AcDbBlockBegin
  2
*PAPER_SPACE
 70
     0
 10
0.0
 20
0.0
 30
0.0
  3
*PAPER_SPACE
  1
*PAPER_SPACE
  0
ENDBLK
  5
10
330
B
100
AcDbEntity
 67
     1
  8
0
390
1D
100
AcDbBlockEnd
  0
BLOCK
  5
4463
330
4E
100
AcDbEntity
  8
0
390
1D
100
AcDbBlockBegin
  2
_DOT
 70
     0
 10
0.0
 20
0.0
 30
0.0
  3
_DOT
  1
_DOT
  0
POLYLINE
  5
4465
330
4E
100
AcDbEntity
  8
0
  6
ByBlock
 62
     0
370
    -2
390
1D
100
AcDb2dPolyline
 66
     1
 10
0.0
 20
0.0
 30
0.0
 70
     1
 40
0.5
 41
0.5
  0
VERTEX
  5
4466
330
4465
100
AcDbEntity
  8
0
  6
ByBlock
 62
     0
370
    -2
390
1D
100
AcDbVertex
100
AcDb2dVertex
 10
-0.25
 20
0.0
 30
0.0
 42
1.0
  0
VERTEX
  5
4467
330
4465
100
AcDbEntity
  8
0
  6
ByBlock
 62
     0
370
    -2
390
1D
100
AcDbVertex
100
AcDb2dVertex
 10
0.25
 20
0.0
 30
0.0
 42
1.0
  0
SEQEND
  5
4468
330
4465
100
AcDbEntity
  8
0
390
1D
  0
LINE
  5
4469
330
4E
100
AcDbEntity
  8
0
  6
ByBlock
 62
     0
370
    -2
390
1D
100
AcDbLine
 10
-0.5
 20
0.0
 30
0.0
 11
-1.0
 21
0.0
 31
0.0
  0
ENDBLK
  5
446A
330
4E
100
AcDbEntity
  8
0
390
1D
100
AcDbBlockEnd
  0
BLOCK
  5
68E
330
68D
100
AcDbEntity
  8
0
100
AcDbBlockBegin
  2
block 2
 70
     0
 10
0.0
 20
0.0
 30
0.0
  3
block 2
  1
block 2
  0
ENDBLK
  5
6B0
330
68D
100
AcDbEntity
  8
0
100
AcDbBlockEnd
  0
BLOCK
  5
3E27
330
3E26
100
AcDbEntity
  8
0
100
AcDbBlockBegin
  2
*D2
 70
     1
 10
0.0
 20
0.0
 30
0.0
  3
*D2
  1

  0
LINE
  5
3E29
330
3E26
100
AcDbEntity
  8
DIM
 62
     0
370
    -2
100
AcDbLine
 10
303.9804255319157
 20
657.9305775075987
 30
0.0
 11
303.9804255319157
 21
793.2230675452882
 31
0.0
  0
LINE
  5
3E2A
330
3E26
100
AcDbEntity
  8
DIM
 62
     0
370
    -2
100
AcDbLine
 10
532.3364133738603
 20
657.9305775075987
 30
0.0
 11
532.3364133738603
 21
793.2230675452882
 31
0.0
  0
LINE
  5
3E2B
330
3E26
100
AcDbEntity
  8
DIM
 62
     0
370
    -2
100
AcDbLine
 10
307.9804255319157
 20
793.2230675452882
 30
0.0
 11
528.3364133738603
 21
793.2230675452882
 31
0.0
  0
INSERT
  5
3E2C
330
3E26
100
AcDbEntity
  8
DIM
 62
     0
370
    -2
100
AcDbBlockReference
  2
_DOT
 10
303.9804255319157
 20
793.2230675452882
 30
0.0
 41
4.0
 42
4.0
 43
4.0
 50
180.0
  0
INSERT
  5
3E2D
330
3E26
100
AcDbEntity
  8
DIM
 62
     0
370
    -2
100
AcDbBlockReference
  2
_DOT
 10
532.3364133738603
 20
793.2230675452882
 30
0.0
 41
4.0
 42
4.0
 43
4.0
  0
MTEXT
  5
3E2E
330
3E26
100
AcDbEntity
  8
DIM
 62
     0
100
AcDbMText
 10
418.1584194528875
 20
802.2230675452882
 30
0.0
 40
10.0
 41
0.0
 46
0.0
 71
     5
 72
     1
  1
\A1;228
  7
ＭＳ ゴシック
 73
     1
 44
1.0
  0
POINT
  5
3E2F
330
3E26
100
AcDbEntity
  8
Defpoints
 62
     0
100
AcDbPoint
 10
303.9804255319157
 20
652.9305775075987
 30
0.0
  0
POINT
  5
3E30
330
3E26
100
AcDbEntity
  8
Defpoints
 62
     0
100
AcDbPoint
 10
532.3364133738603
 20
652.9305775075987
 30
0.0
  0
POINT
  5
3E31
330
3E26
100
AcDbEntity
  8
Defpoints
 62
     0
100
AcDbPoint
 10
532.3364133738603
 20
793.2230675452882
 30
0.0
  0
ENDBLK
  5
3E28
330
3E26
100
AcDbEntity
  8
0
100
AcDbBlockEnd
  0
BLOCK
  5
3E33
330
3E32
100
AcDbEntity
  8
0
100
AcDbBlockBegin
  2
*D3
 70
     1
 10
0.0
 20
0.0
 30
0.0
  3
*D3
  1

  0
LINE
  5
3E35
330
3E32
100
AcDbEntity
  8
DIM
 62
     0
370
    -2
100
AcDbLine
 10
342.3845966829192
 20
647.9305775075987
 30
0.0
 11
342.3845966829192
 21
479.5332462492401
 31
0.0
  0
LINE
  5
3E36
330
3E32
100
AcDbEntity
  8
DIM
 62
     0
370
    -2
100
AcDbLine
 10
493.9322422228568
 20
647.9305775075987
 30
0.0
 11
493.9322422228568
 21
479.5332462492401
 31
0.0
  0
LINE
  5
3E37
330
3E32
100
AcDbEntity
  8
DIM
 62
     0
370
    -2
100
AcDbLine
 10
346.3845966829192
 20
479.5332462492401
 30
0.0
 11
489.9322422228568
 21
479.5332462492401
 31
0.0
  0
INSERT
  5
3E38
330
3E32
100
AcDbEntity
  8
DIM
 62
     0
370
    -2
100
AcDbBlockReference
  2
_DOT
 10
342.3845966829192
 20
479.5332462492401
 30
0.0
 41
4.0
 42
4.0
 43
4.0
 50
180.0
  0
INSERT
  5
3E39
330
3E32
100
AcDbEntity
  8
DIM
 62
     0
370
    -2
100
AcDbBlockReference
  2
_DOT
 10
493.9322422228568
 20
479.5332462492401
 30
0.0
 41
4.0
 42
4.0
 43
4.0
  0
MTEXT
  5
3E3A
330
3E32
100
AcDbEntity
  8
DIM
 62
     0
100
AcDbMText
 10
418.158419452888
 20
488.5332462492401
 30
0.0
 40
10.0
 41
0.0
 46
0.0
 71
     5
 72
     1
  1
\A1;152
  7
ＭＳ ゴシック
 73
     1
 44
1.0
  0
POINT
  5
3E3B
330
3E32
100
AcDbEntity
  8
Defpoints
 62
     0
100
AcDbPoint
 10
342.3845966829192
 20
652.9305775075987
 30
0.0
  0
POINT
  5
3E3C
330
3E32
100
AcDbEntity
  8
Defpoints
 62
     0
100
AcDbPoint
 10
493.9322422228568
 20
652.9305775075987
 30
0.0
  0
POINT
  5
3E3D
330
3E32
100
AcDbEntity
  8
Defpoints
 62
     0
100
AcDbPoint
 10
493.9322422228568
 20
479.5332462492401
 30
0.0
  0
ENDBLK
  5
3E34
330
3E32
100
AcDbEntity
  8
0
100
AcDbBlockEnd
  0
BLOCK
  5
43E0
330
43DF
100
AcDbEntity
  8
0
100
AcDbBlockBegin
  2
*D4
 70
     1
 10
0.0
 20
0.0
 30
0.0
  3
*D4
  1

  0
LINE
  5
43E2
330
43DF
100
AcDbEntity
  8
0
 62
     0
370
    -2
100
AcDbLine
 10
1482.787298134534
 20
802.5609473556232
 30
0.0
 11
1482.787298134534
 21
852.2485232826748
 31
0.0
  0
LINE
  5
43E3
330
43DF
100
AcDbEntity
  8
0
 62
     0
370
    -2
100
AcDbLine
 10
1109.060855678289
 20
802.5609473556232
 30
0.0
 11
1109.060855678289
 21
852.2485232826748
 31
0.0
  0
LINE
  5
43E4
330
43DF
100
AcDbEntity
  8
0
 62
     0
370
    -2
100
AcDbLine
 10
1478.787298134534
 20
852.2485232826748
 30
0.0
 11
1113.060855678289
 21
852.2485232826748
 31
0.0
  0
INSERT
  5
43E5
330
43DF
100
AcDbEntity
  8
0
 62
     0
370
    -2
100
AcDbBlockReference
  2
_DOT
 10
1482.787298134534
 20
852.2485232826748
 30
0.0
 41
4.0
 42
4.0
 43
4.0
  0
INSERT
  5
43E6
330
43DF
100
AcDbEntity
  8
0
 62
     0
370
    -2
100
AcDbBlockReference
  2
_DOT
 10
1109.060855678289
 20
852.2485232826748
 30
0.0
 41
4.0
 42
4.0
 43
4.0
 50
180.0
  0
MTEXT
  5
43E7
330
43DF
100
AcDbEntity
  8
0
 62
     0
100
AcDbMText
 10
1295.924076906411
 20
865.2485232826748
 30
0.0
 40
10.0
 41
0.0
 46
0.0
 71
     5
 72
     1
  1
\A1;374
  7
ＭＳ ゴシック
 73
     1
 44
1.0
  0
POINT
  5
43E8
330
43DF
100
AcDbEntity
  8
Defpoints
 62
     0
100
AcDbPoint
 10
1482.787298134534
 20
797.5609473556232
 30
0.0
  0
POINT
  5
43E9
330
43DF
100
AcDbEntity
  8
Defpoints
 62
     0
100
AcDbPoint
 10
1109.060855678289
 20
797.5609473556232
 30
0.0
  0
POINT
  5
43EA
330
43DF
100
AcDbEntity
  8
Defpoints
 62
     0
100
AcDbPoint
 10
1109.060855678289
 20
852.2485232826748
 30
0.0
  0
ENDBLK
  5
43E1
330
43DF
100
AcDbEntity
  8
0
100
AcDbBlockEnd
  0
BLOCK
  5
43F0
330
43EF
100
AcDbEntity
  8
0
100
AcDbBlockBegin
  2
*D5
 70
     1
 10
0.0
 20
0.0
 30
0.0
  3
*D5
  1

  0
LINE
  5
43F2
330
43EF
100
AcDbEntity
  8
DIM
 62
     0
370
    -2
100
AcDbLine
 10
129.3400046144587
 20
841.243712843394
 30
0.0
 11
129.3400046144587
 21
869.1350802674774
 31
0.0
  0
LINE
  5
43F3
330
43EF
100
AcDbEntity
  8
DIM
 62
     0
370
    -2
100
AcDbLine
 10
503.0664470707042
 20
711.441150547003
 30
0.0
 11
503.0664470707042
 21
869.1350802674774
 31
0.0
  0
LINE
  5
43F4
330
43EF
100
AcDbEntity
  8
DIM
 62
     0
370
    -2
100
AcDbLine
 10
133.3400046144587
 20
869.1350802674774
 30
0.0
 11
499.0664470707042
 21
869.1350802674774
 31
0.0
  0
INSERT
  5
43F5
330
43EF
100
AcDbEntity
  8
DIM
 62
     0
370
    -2
100
AcDbBlockReference
  2
_DOT
 10
129.3400046144587
 20
869.1350802674774
 30
0.0
 41
4.0
 42
4.0
 43
4.0
 50
180.0
  0
INSERT
  5
43F6
330
43EF
100
AcDbEntity
  8
DIM
 62
     0
370
    -2
100
AcDbBlockReference
  2
_DOT
 10
503.0664470707042
 20
869.1350802674774
 30
0.0
 41
4.0
 42
4.0
 43
4.0
  0
MTEXT
  5
43F7
330
43EF
100
AcDbEntity
  8
DIM
 62
     0
100
AcDbMText
 10
316.2032258425814
 20
878.1350802674774
 30
0.0
 40
10.0
 41
0.0
 46
0.0
 71
     5
 72
     1
  1
\A1;374
  7
ＭＳ ゴシック
 73
     1
 44
1.0
  0
POINT
  5
43F8
330
43EF
100
AcDbEntity
  8
Defpoints
 62
     0
100
AcDbPoint
 10
129.3400046144587
 20
836.243712843394
 30
0.0
  0
POINT
  5
43F9
330
43EF
100
AcDbEntity
  8
Defpoints
 62
     0
100
AcDbPoint
 10
503.0664470707042
 20
706.441150547003
 30
0.0
  0
POINT
  5
43FA
330
43EF
100
AcDbEntity
  8
Defpoints
 62
     0
100
AcDbPoint
 10
503.0664470707042
 20
869.1350802674774
 30
0.0
  0
ENDBLK
  5
43F1
330
43EF
100
AcDbEntity
  8
0
100
AcDbBlockEnd
  0
BLOCK
  5
43FF
330
43FE
100
AcDbEntity
  8
0
100
AcDbBlockBegin
  2
*D6
 70
     1
 10
0.0
 20
0.0
 30
0.0
  3
*D6
  1

  0
LINE
  5
4401
330
43FE
100
AcDbEntity
  8
DIM
 62
     0
370
    -2
100
AcDbLine
 10
167.0176693712336
 20
838.9213776001689
 30
0.0
 11
559.0349115136781
 21
838.9213776001689
 31
0.0
  0
LINE
  5
4402
330
43FE
100
AcDbEntity
  8
DIM
 62
     0
370
    -2
100
AcDbLine
 10
513.0453327690416
 20
666.4411483118291
 30
0.0
 11
559.0349115136781
 21
666.4411483118291
 31
0.0
  0
LINE
  5
4403
330
43FE
100
AcDbEntity
  8
DIM
 62
     0
370
    -2
100
AcDbLine
 10
559.0349115136781
 20
834.9213776001689
 30
0.0
 11
559.0349115136781
 21
670.4411483118291
 31
0.0
  0
INSERT
  5
4404
330
43FE
100
AcDbEntity
  8
DIM
 62
     0
370
    -2
100
AcDbBlockReference
  2
_DOT
 10
559.0349115136781
 20
838.9213776001689
 30
0.0
 41
4.0
 42
4.0
 43
4.0
 50
90.0
  0
INSERT
  5
4405
330
43FE
100
AcDbEntity
  8
DIM
 62
     0
370
    -2
100
AcDbBlockReference
  2
_DOT
 10
559.0349115136781
 20
666.4411483118291
 30
0.0
 41
4.0
 42
4.0
 43
4.0
 50
270.0
  0
MTEXT
  5
4406
330
43FE
100
AcDbEntity
  8
DIM
 62
     0
100
AcDbMText
 10
550.0349115136781
 20
752.681262955999
 30
0.0
 40
10.0
 41
0.0
 46
0.0
 71
     5
 72
     1
  1
\A1;172
  7
ＭＳ ゴシック
 11
0.0
 21
1.0
 31
0.0
 73
     1
 44
1.0
  0
POINT
  5
4407
330
43FE
100
AcDbEntity
  8
Defpoints
 62
     0
100
AcDbPoint
 10
162.0176693712336
 20
838.9213776001689
 30
0.0
  0
POINT
  5
4408
330
43FE
100
AcDbEntity
  8
Defpoints
 62
     0
100
AcDbPoint
 10
508.0453327690416
 20
666.4411483118291
 30
0.0
  0
POINT
  5
4409
330
43FE
100
AcDbEntity
  8
Defpoints
 62
     0
100
AcDbPoint
 10
559.0349115136781
 20
666.4411483118291
 30
0.0
  0
ENDBLK
  5
4400
330
43FE
100
AcDbEntity
  8
0
100
AcDbBlockEnd
  0
BLOCK
  5
440E
330
440D
100
AcDbEntity
  8
0
100
AcDbBlockBegin
  2
*D7
 70
     1
 10
0.0
 20
0.0
 30
0.0
  3
*D7
  1

  0
LINE
  5
4410
330
440D
100
AcDbEntity
  8
DIM
 62
     0
370
    -2
100
AcDbLine
 10
311.0664454017741
 20
646.4411483118292
 30
0.0
 11
311.0664454017741
 21
616.4411483118292
 31
0.0
  0
LINE
  5
4411
330
440D
100
AcDbEntity
  8
DIM
 62
     0
370
    -2
100
AcDbLine
 10
503.0664470707042
 20
646.4411483118292
 30
0.0
 11
503.0664470707042
 21
616.4411483118292
 31
0.0
  0
LINE
  5
4412
330
440D
100
AcDbEntity
  8
DIM
 62
     0
370
    -2
100
AcDbLine
 10
315.0664454017741
 20
616.4411483118292
 30
0.0
 11
499.0664470707042
 21
616.4411483118292
 31
0.0
  0
INSERT
  5
4413
330
440D
100
AcDbEntity
  8
DIM
 62
     0
370
    -2
100
AcDbBlockReference
  2
_DOT
 10
311.0664454017741
 20
616.4411483118292
 30
0.0
 41
4.0
 42
4.0
 43
4.0
 50
180.0
  0
INSERT
  5
4414
330
440D
100
AcDbEntity
  8
DIM
 62
     0
370
    -2
100
AcDbBlockReference
  2
_DOT
 10
503.0664470707042
 20
616.4411483118292
 30
0.0
 41
4.0
 42
4.0
 43
4.0
  0
MTEXT
  5
4415
330
440D
100
AcDbEntity
  8
DIM
 62
     0
100
AcDbMText
 10
407.0664462362391
 20
625.4411483118292
 30
0.0
 40
10.0
 41
0.0
 46
0.0
 71
     5
 72
     1
  1
\A1;192
  7
ＭＳ ゴシック
 73
     1
 44
1.0
  0
POINT
  5
4416
330
440D
100
AcDbEntity
  8
Defpoints
 62
     0
100
AcDbPoint
 10
311.0664454017741
 20
651.4411483118292
 30
0.0
  0
POINT
  5
4417
330
440D
100
AcDbEntity
  8
Defpoints
 62
     0
100
AcDbPoint
 10
503.0664470707042
 20
651.4411483118292
 30
0.0
  0
POINT
  5
4418
330
440D
100
AcDbEntity
  8
Defpoints
 62
     0
100
AcDbPoint
 10
503.0664470707042
 20
616.4411483118292
 30
0.0
  0
ENDBLK
  5
440F
330
440D
100
AcDbEntity
  8
0
100
AcDbBlockEnd
  0
BLOCK
  5
441D
330
441C
100
AcDbEntity
  8
0
100
AcDbBlockBegin
  2
*D8
 70
     1
 10
0.0
 20
0.0
 30
0.0
  3
*D8
  1

  0
LINE
  5
441F
330
441C
100
AcDbEntity
  8
DIM
 62
     0
370
    -2
100
AcDbLine
 10
115.2036446430224
 20
807.095810987105
 30
0.0
 11
93.88506817831319
 21
785.7075253420232
 31
0.0
  0
LINE
  5
4420
330
441C
100
AcDbEntity
  8
DIM
 62
     0
370
    -2
100
AcDbLine
 10
251.1897492506045
 20
671.5529153422018
 30
0.0
 11
229.8711727858953
 21
650.1646296971201
 31
0.0
  0
LINE
  5
4421
330
441C
100
AcDbEntity
  8
DIM
 62
     0
370
    -2
100
AcDbLine
 10
96.71810828910566
 20
782.8837187391127
 30
0.0
 11
227.0381326751028
 21
652.9884363000306
 31
0.0
  0
INSERT
  5
4422
330
441C
100
AcDbEntity
  8
DIM
 62
     0
370
    -2
100
AcDbBlockReference
  2
_DOT
 10
93.88506817831319
 20
785.7075253420232
 30
0.0
 41
4.0
 42
4.0
 43
4.0
 50
135.0935221667955
  0
INSERT
  5
4423
330
441C
100
AcDbEntity
  8
DIM
 62
     0
370
    -2
100
AcDbBlockReference
  2
_DOT
 10
229.8711727858953
 20
650.1646296971201
 30
0.0
 41
4.0
 42
4.0
 43
4.0
 50
315.0935221667954
  0
MTEXT
  5
4424
330
441C
100
AcDbEntity
  8
DIM
 62
     0
100
AcDbMText
 10
168.2316853386529
 20
724.3104177688547
 30
0.0
 40
10.0
 41
0.0
 46
0.0
 71
     5
 72
     1
  1
\A1;192
  7
ＭＳ ゴシック
 11
0.7082600276981182
 21
-0.7059516507276266
 31
0.0
 73
     1
 44
1.0
  0
POINT
  5
4425
330
441C
100
AcDbEntity
  8
Defpoints
 62
     0
100
AcDbPoint
 10
118.7334028966606
 20
810.6371111255955
 30
0.0
  0
POINT
  5
4426
330
441C
100
AcDbEntity
  8
Defpoints
 62
     0
100
AcDbPoint
 10
254.7195075042426
 20
675.0942154806924
 30
0.0
  0
POINT
  5
4427
330
441C
100
AcDbEntity
  8
Defpoints
 62
     0
100
AcDbPoint
 10
229.8711727858953
 20
650.1646296971201
 30
0.0
  0
ENDBLK
  5
441E
330
441C
100
AcDbEntity
  8
0
100
AcDbBlockEnd
  0
BLOCK
  5
442C
330
442B
100
AcDbEntity
  8
0
100
AcDbBlockBegin
  2
*D9
 70
     1
 10
0.0
 20
0.0
 30
0.0
  3
*D9
  1

  0
LINE
  5
442E
330
442B
100
AcDbEntity
  8
DIM
 62
     0
370
    -2
100
AcDbLine
 10
523.2552502320101
 20
467.5276280447201
 30
0.0
 11
572.2968599979771
 21
467.5276280447201
 31
0.0
  0
LINE
  5
442F
330
442B
100
AcDbEntity
  8
DIM
 62
     0
370
    -2
100
AcDbLine
 10
532.6923974466832
 20
392.5276287897782
 30
0.0
 11
572.2968599979771
 21
392.5276287897782
 31
0.0
  0
LINE
  5
4430
330
442B
100
AcDbEntity
  8
DIM
 62
     0
370
    -2
100
AcDbLine
 10
572.2968599979771
 20
463.5276280447201
 30
0.0
 11
572.2968599979771
 21
396.5276287897782
 31
0.0
  0
INSERT
  5
4431
330
442B
100
AcDbEntity
  8
DIM
 62
     0
370
    -2
100
AcDbBlockReference
  2
_DOT
 10
572.2968599979771
 20
467.5276280447201
 30
0.0
 41
4.0
 42
4.0
 43
4.0
 50
90.0
  0
INSERT
  5
4432
330
442B
100
AcDbEntity
  8
DIM
 62
     0
370
    -2
100
AcDbBlockReference
  2
_DOT
 10
572.2968599979771
 20
392.5276287897782
 30
0.0
 41
4.0
 42
4.0
 43
4.0
 50
270.0
  0
MTEXT
  5
4433
330
442B
100
AcDbEntity
  8
DIM
 62
     0
100
AcDbMText
 10
563.2968599979771
 20
430.0276284172492
 30
0.0
 40
10.0
 41
0.0
 46
0.0
 71
     5
 72
     1
  1
\A1;75
  7
ＭＳ ゴシック
 11
0.0
 21
1.0
 31
0.0
 73
     1
 44
1.0
  0
POINT
  5
4434
330
442B
100
AcDbEntity
  8
Defpoints
 62
     0
100
AcDbPoint
 10
518.2552502320101
 20
467.5276280447201
 30
0.0
  0
POINT
  5
4435
330
442B
100
AcDbEntity
  8
Defpoints
 62
     0
100
AcDbPoint
 10
527.6923974466832
 20
392.5276287897782
 30
0.0
  0
POINT
  5
4436
330
442B
100
AcDbEntity
  8
Defpoints
 62
     0
100
AcDbPoint
 10
572.2968599979771
 20
392.5276287897782
 30
0.0
  0
ENDBLK
  5
442D
330
442B
100
AcDbEntity
  8
0
100
AcDbBlockEnd
  0
BLOCK
  5
443B
330
443A
100
AcDbEntity
  8
0
100
AcDbBlockBegin
  2
*D10
 70
     1
 10
0.0
 20
0.0
 30
0.0
  3
*D10
  1

  0
LINE
  5
443D
330
443A
100
AcDbEntity
  8
DIM
 62
     0
370
    -2
100
AcDbLine
 10
508.6897231599397
 20
417.5276300936298
 30
0.0
 11
541.4108562172338
 21
417.5276300936298
 31
0.0
  0
LINE
  5
443E
330
443A
100
AcDbEntity
  8
DIM
 62
     0
370
    -2
100
AcDbLine
 10
509.6897251864976
 20
392.5276287897782
 30
0.0
 11
541.4108562172338
 21
392.5276287897782
 31
0.0
  0
LINE
  5
443F
330
443A
100
AcDbEntity
  8
DIM
 62
     0
370
    -2
100
AcDbLine
 10
541.4108562172338
 20
413.5276300936298
 30
0.0
 11
541.4108562172338
 21
396.5276287897782
 31
0.0
  0
INSERT
  5
4440
330
443A
100
AcDbEntity
  8
DIM
 62
     0
370
    -2
100
AcDbBlockReference
  2
_DOT
 10
541.4108562172338
 20
417.5276300936298
 30
0.0
 41
4.0
 42
4.0
 43
4.0
 50
90.0
  0
INSERT
  5
4441
330
443A
100
AcDbEntity
  8
DIM
 62
     0
370
    -2
100
AcDbBlockReference
  2
_DOT
 10
541.4108562172338
 20
392.5276287897782
 30
0.0
 41
4.0
 42
4.0
 43
4.0
 50
270.0
  0
MTEXT
  5
4442
330
443A
100
AcDbEntity
  8
DIM
 62
     0
100
AcDbMText
 10
532.4108562172338
 20
405.027629441704
 30
0.0
 40
10.0
 41
0.0
 46
0.0
 71
     5
 72
     1
  1
\A1;%%c25
  7
ＭＳ ゴシック
 11
0.0
 21
1.0
 31
0.0
 73
     1
 44
1.0
  0
POINT
  5
4443
330
443A
100
AcDbEntity
  8
Defpoints
 62
     0
100
AcDbPoint
 10
503.6897231599397
 20
417.5276300936298
 30
0.0
  0
POINT
  5
4444
330
443A
100
AcDbEntity
  8
Defpoints
 62
     0
100
AcDbPoint
 10
504.6897251864976
 20
392.5276287897782
 30
0.0
  0
POINT
  5
4445
330
443A
100
AcDbEntity
  8
Defpoints
 62
     0
100
AcDbPoint
 10
541.4108562172338
 20
392.5276287897782
 30
0.0
  0
ENDBLK
  5
443C
330
443A
100
AcDbEntity
  8
0
100
AcDbBlockEnd
  0
BLOCK
  5
4454
330
4453
100
AcDbEntity
  8
0
100
AcDbBlockBegin
  2
*D11
 70
     1
 10
0.0
 20
0.0
 30
0.0
  3
*D11
  1

  0
LINE
  5
4456
330
4453
100
AcDbEntity
  8
DIM
 62
     0
370
    -2
100
AcDbLine
 10
466.8164445077044
 20
500.9914216856233
 30
0.0
 11
466.8164445077044
 21
518.0953892570541
 31
0.0
  0
LINE
  5
4457
330
4453
100
AcDbEntity
  8
DIM
 62
     0
370
    -2
100
AcDbLine
 10
485.3164445077044
 20
500.9914216856233
 30
0.0
 11
485.3164445077044
 21
518.0953892570541
 31
0.0
  0
LINE
  5
4458
330
4453
100
AcDbEntity
  8
DIM
 62
     0
370
    -2
100
AcDbLine
 10
470.8164445077044
 20
518.0953892570541
 30
0.0
 11
481.3164445077044
 21
518.0953892570541
 31
0.0
  0
INSERT
  5
4459
330
4453
100
AcDbEntity
  8
DIM
 62
     0
370
    -2
100
AcDbBlockReference
  2
_DOT
 10
466.8164445077044
 20
518.0953892570541
 30
0.0
 41
4.0
 42
4.0
 43
4.0
 50
180.0
  0
INSERT
  5
445A
330
4453
100
AcDbEntity
  8
DIM
 62
     0
370
    -2
100
AcDbBlockReference
  2
_DOT
 10
485.3164445077044
 20
518.0953892570541
 30
0.0
 41
4.0
 42
4.0
 43
4.0
  0
MTEXT
  5
445B
330
4453
100
AcDbEntity
  8
DIM
 62
     0
100
AcDbMText
 10
476.0664445077047
 20
527.0953892570541
 30
0.0
 40
10.0
 41
0.0
 46
0.0
 71
     5
 72
     1
  1
\A1;18.5
  7
ＭＳ ゴシック
 73
     1
 44
1.0
  0
POINT
  5
445C
330
4453
100
AcDbEntity
  8
Defpoints
 62
     0
100
AcDbPoint
 10
466.8164445077044
 20
495.9914216856233
 30
0.0
  0
POINT
  5
445D
330
4453
100
AcDbEntity
  8
Defpoints
 62
     0
100
AcDbPoint
 10
485.3164445077044
 20
495.9914216856233
 30
0.0
  0
POINT
  5
445E
330
4453
100
AcDbEntity
  8
Defpoints
 62
     0
100
AcDbPoint
 10
485.3164445077044
 20
518.0953892570541
 30
0.0
  0
ENDBLK
  5
4455
330
4453
100
AcDbEntity
  8
0
100
AcDbBlockEnd
  0
BLOCK
  5
44C2
330
44C1
100
AcDbEntity
  8
0
100
AcDbBlockBegin
  2
*D12
 70
     1
 10
0.0
 20
0.0
 30
0.0
  3
*D12
  1

  0
LINE
  5
44C4
330
44C1
100
AcDbEntity
  8
DIM
 62
     0
370
    -2
100
AcDbLine
 10
416.2775812371876
 20
317.5228547312159
 30
0.0
 11
416.2775812371876
 21
334.6268223026467
 31
0.0
  0
LINE
  5
44C5
330
44C1
100
AcDbEntity
  8
DIM
 62
     0
370
    -2
100
AcDbLine
 10
434.7775812371876
 20
317.5228547312159
 30
0.0
 11
434.7775812371876
 21
334.6268223026467
 31
0.0
  0
LINE
  5
44C6
330
44C1
100
AcDbEntity
  8
DIM
 62
     0
370
    -2
100
AcDbLine
 10
420.2775812371876
 20
334.6268223026467
 30
0.0
 11
430.7775812371876
 21
334.6268223026467
 31
0.0
  0
INSERT
  5
44C7
330
44C1
100
AcDbEntity
  8
DIM
 62
     0
370
    -2
100
AcDbBlockReference
  2
_DOT
 10
416.2775812371876
 20
334.6268223026467
 30
0.0
 41
4.0
 42
4.0
 43
4.0
 50
180.0
  0
INSERT
  5
44C8
330
44C1
100
AcDbEntity
  8
DIM
 62
     0
370
    -2
100
AcDbBlockReference
  2
_DOT
 10
434.7775812371876
 20
334.6268223026467
 30
0.0
 41
4.0
 42
4.0
 43
4.0
  0
MTEXT
  5
44C9
330
44C1
100
AcDbEntity
  8
DIM
 62
     0
100
AcDbMText
 10
425.5275812371879
 20
343.6268223026467
 30
0.0
 40
10.0
 41
0.0
 46
0.0
 71
     5
 72
     1
  1
\A1;18.5
  7
ＭＳ ゴシック
 73
     1
 44
1.0
  0
POINT
  5
44CA
330
44C1
100
AcDbEntity
  8
Defpoints
 62
     0
100
AcDbPoint
 10
416.2775812371876
 20
312.5228547312159
 30
0.0
  0
POINT
  5
44CB
330
44C1
100
AcDbEntity
  8
Defpoints
 62
     0
100
AcDbPoint
 10
434.7775812371876
 20
312.5228547312159
 30
0.0
  0
POINT
  5
44CC
330
44C1
100
AcDbEntity
  8
Defpoints
 62
     0
100
AcDbPoint
 10
434.7775812371876
 20
334.6268223026467
 30
0.0
  0
ENDBLK
  5
44C3
330
44C1
100
AcDbEntity
  8
0
100
AcDbBlockEnd
  0
BLOCK
  5
44D1
330
44D0
100
AcDbEntity
  8
0
100
AcDbBlockBegin
  2
*D13
 70
     1
 10
0.0
 20
0.0
 30
0.0
  3
*D13
  1

  0
ARC
  5
44D3
330
44D0
100
AcDbEntity
  8
DIM
 62
     0
370
    -2
100
AcDbCircle
 10
289.3202335977476
 20
748.9212096244756
 30
0.0
 40
57.05272995334398
100
AcDbArc
 50
4.017863539937627
 51
130.9821364600622
  0
INSERT
  5
44D4
330
44D0
100
AcDbEntity
  8
DIM
 62
     0
370
    -2
100
AcDbBlockReference
  2
_DOT
 10
346.3729635510916
 20
748.9212096244756
 30
0.0
 41
4.0
 42
4.0
 43
4.0
 50
272.008931769969
  0
INSERT
  5
44D5
330
44D0
100
AcDbEntity
  8
DIM
 62
     0
370
    -2
100
AcDbBlockReference
  2
_DOT
 10
248.9778613625333
 20
789.2635818596901
 30
0.0
 41
4.0
 42
4.0
 43
4.0
 50
222.991068230031
  0
MTEXT
  5
44D6
330
44D0
100
AcDbEntity
  8
DIM
 62
     0
100
AcDbMText
 10
314.6644886140417
 20
810.1076538130548
 30
0.0
 40
10.0
 41
0.0
 46
0.0
 71
     5
 72
     1
  1
\A1;135.00%%d
  7
ＭＳ ゴシック
 11
0.923879532511286
 21
-0.3826834323650916
 31
0.0
 73
     1
 44
1.0
  0
POINT
  5
44D7
330
44D0
100
AcDbEntity
  8
Defpoints
 62
     0
100
AcDbPoint
 10
329.6626058329621
 20
789.2635818596899
 30
0.0
  0
POINT
  5
44D8
330
44D0
100
AcDbEntity
  8
Defpoints
 62
     0
100
AcDbPoint
 10
311.0664456223352
 20
748.9212096244756
 30
0.0
  0
POINT
  5
44D9
330
44D0
100
AcDbEntity
  8
Defpoints
 62
     0
100
AcDbPoint
 10
136.7646240598518
 20
901.4768191623724
 30
0.0
  0
POINT
  5
44DA
330
44D0
100
AcDbEntity
  8
Defpoints
 62
     0
100
AcDbPoint
 10
273.9433396100416
 20
764.2981036121818
 30
0.0
  0
POINT
  5
44DB
330
44D0
100
AcDbEntity
  8
Defpoints
 62
     0
100
AcDbPoint
 10
505.0664456223352
 20
748.9212096244756
 30
0.0
  0
ENDBLK
  5
44D2
330
44D0
100
AcDbEntity
  8
0
100
AcDbBlockEnd
  0
ENDSEC
  0
SECTION
  2
ENTITIES
  0
MTEXT
  5
177
330
A
100
AcDbEntity
  8
TEMPLATE
390
1D
100
AcDbMText
 10
31.6808578190923
 20
137.4927006525713
 30
0.0
 40
6.51536458333333
 41
0.0
 46
0.0
 71
     1
 72
     1
  1
品名
  7
ＭＳ ゴシック
 73
     1
 44
0.7828267384257843
  0
MTEXT
  5
178
330
A
100
AcDbEntity
  8
TEMPLATE
390
1D
100
AcDbMText
 10
31.6808578190923
 20
103.4927006525712
 30
0.0
 40
6.51536458333333
 41
0.0
 46
0.0
 71
     1
 72
     1
  1
仕様
  7
ＭＳ ゴシック
 73
     1
 44
0.7828267384257843
  0
LINE
  5
179
330
A
100
AcDbEntity
  8
TEMPLATE
390
1D
100
AcDbLine
 10
808.8808578188992
 20
106.8586694025714
 30
0.0
 11
28.8808578188995
 21
106.8586694025714
 31
0.0
  0
LWPOLYLINE
  5
17A
330
A
100
AcDbEntity
  8
TEMPLATE
390
1D
100
AcDbPolyline
 90
        5
 70
   128
 43
0.0
 10
808.8808578188992
 20
1158.858669402571
 10
28.8808578188995
 20
1158.858669402571
 10
28.8808578188995
 20
38.8586694025713
 10
808.8808578188992
 20
38.8586694025713
 10
808.8808578188992
 20
1158.858669402571
  0
LINE
  5
17B
330
A
100
AcDbEntity
  8
TEMPLATE
390
1D
100
AcDbLine
 10
808.8808578188992
 20
140.8586694025713
 30
0.0
 11
28.8808578188995
 21
140.8586694025713
 31
0.0
  0
LINE
  5
17C
330
A
100
AcDbEntity
  8
TEMPLATE
390
1D
100
AcDbLine
 10
808.8808578190929
 20
72.8586694025713
 30
0.0
 11
507.680857819092
 21
72.8586694025713
 31
0.0
  0
MTEXT
  5
17E
330
A
100
AcDbEntity
  8
TEMPLATE
390
1D
100
AcDbMText
 10
519.6294203199964
 20
60.89451161324806
 30
0.0
 40
9.773046875
 41
0.0
 46
0.0
 71
     1
 72
     1
  1
大洋金物株式会社 ティーフォルム事業部
  7
ＭＳ ゴシック
 73
     1
 44
0.7828267384257843
  0
MTEXT
  5
180
330
A
100
AcDbEntity
  8
TEMPLATE
390
1D
100
AcDbMText
 10
732.480857819196
 20
92.05971627757128
 30
0.0
 40
9.773046875
 41
0.0
 46
9.773046875
 71
     1
 72
     1
  1
{1:4}
  7
ＭＳ ゴシック
 73
     1
 44
0.7828267384257843
1001
ACAD
1000
ACAD_MTEXT_DEFINED_HEIGHT_BEGIN
1070
    46
1040
9.773046875
1000
ACAD_MTEXT_DEFINED_HEIGHT_END
  0
MTEXT
  5
181
330
A
100
AcDbEntity
  8
TEMPLATE
390
1D
100
AcDbMText
 10
711.280857819196
 20
103.4927006525712
 30
0.0
 40
6.51536458333333
 41
0.0
 46
0.0
 71
     1
 72
     1
  1
縮尺
  7
ＭＳ ゴシック
 73
     1
 44
0.7828267384257843
  0
LINE
  5
182
330
A
100
AcDbEntity
  8
TEMPLATE
390
1D
100
AcDbLine
 10
708.480857819196
 20
72.8586694025713
 30
0.0
 11
708.480857819196
 21
106.8586694025714
 31
0.0
  0
MTEXT
  5
183
330
A
100
AcDbEntity
  8
TEMPLATE
390
1D
100
AcDbMText
 10
610.880857819196
 20
103.4927006525712
 30
0.0
 40
6.51536458333333
 41
0.0
 46
0.0
 71
     1
 72
     1
  1
容量
  7
ＭＳ ゴシック
 73
     1
 44
0.7828267384257843
  0
LINE
  5
184
330
A
100
AcDbEntity
  8
TEMPLATE
390
1D
100
AcDbLine
 10
608.080857819196
 20
72.8586694025713
 30
0.0
 11
608.080857819196
 21
106.8586694025714
 31
0.0
  0
MTEXT
  5
185
330
A
100
AcDbEntity
  8
TEMPLATE
390
1D
100
AcDbMText
 10
510.480857819196
 20
137.4927006525713
 30
0.0
 40
6.51536458333333
 41
0.0
 46
0.0
 71
     1
 72
     1
  1
品番
  7
ＭＳ ゴシック
 73
     1
 44
0.7828267384257843
  0
MTEXT
  5
186
330
A
100
AcDbEntity
  8
TEMPLATE
390
1D
100
AcDbMText
 10
510.480857819196
 20
103.4927006525712
 30
0.0
 40
6.51536458333333
 41
0.0
 46
0.0
 71
     1
 72
     1
  1
重量
  7
ＭＳ ゴシック
 73
     1
 44
0.7828267384257843
  0
MTEXT
  5
187
330
A
100
AcDbEntity
  8
TEMPLATE
390
1D
100
AcDbMText
 10
531.680857819196
 20
126.0597162775713
 30
0.0
 40
9.773046875
 41
0.0
 46
9.773046875
 71
     1
 72
     1
  1
{FRF74-1709}
  7
ＭＳ ゴシック
 73
     1
 44
0.7828267384257843
1001
ACAD
1000
ACAD_MTEXT_DEFINED_HEIGHT_BEGIN
1070
    46
1040
9.773046875
1000
ACAD_MTEXT_DEFINED_HEIGHT_END
  0
LINE
  5
188
330
A
100
AcDbEntity
  8
TEMPLATE
390
1D
100
AcDbLine
 10
507.680857819196
 20
38.8586694025713
 30
0.0
 11
507.680857819196
 21
140.8586694025713
 31
0.0
  0
MTEXT
  5
189
330
A
100
AcDbEntity
  8
TEMPLATE
390
1D
100
AcDbMText
 10
52.8808578190923
 20
126.0597162775713
 30
0.0
 40
9.773046875
 41
0.0
 46
11.014223828125
 71
     1
 72
     1
  1
{グラブレール　-LANGBERGER, Viola-}
  7
ＭＳ ゴシック
 73
     1
 44
0.7828267384257843
1001
ACAD
1000
ACAD_MTEXT_DEFINED_HEIGHT_BEGIN
1070
    46
1040
11.014223828125
1000
ACAD_MTEXT_DEFINED_HEIGHT_END
  0
INSERT
  5
68C
330
A
100
AcDbEntity
  8
TEMPLATE
100
AcDbBlockReference
  2
block 2
 10
367.7097207081031
 20
3.349230605734547
 30
0.0
 41
0.1524
 42
0.1524
 43
0.1524
  0
LWPOLYLINE
  5
D69
330
A
100
AcDbEntity
  8
BORDER
100
AcDbPolyline
 90
        4
 70
     1
 43
0.0
 10
0.0
 20
0.0
 10
0.0
 20
1188.0
 10
840.0
 20
1188.0
 10
840.0
 20
0.0
  0
INSERT
  5
1343
330
A
100
AcDbEntity
  8
TEMPLATE
100
AcDbBlockReference
  2
block 2
 10
838.6973883465873
 20
9.774128564918277
 30
0.0
 41
0.1524
 42
0.1524
 43
0.1524
  0
HATCH
  5
3CE3
102
{ACAD_REACTORS
330
3CF4
102
}
330
A
100
AcDbEntity
  8
TEMPLATE
100
AcDbHatch
 10
0.0
 20
0.0
 30
0.0
210
0.0
220
0.0
230
1.0
  2
SOLID
 70
     1
 71
     1
 91
        6
 92
        1
 93
        8
 72
     1
 10
773.8270902791126
 20
61.34344299952348
 11
773.8270902791126
 21
58.97967994725929
 72
     1
 10
773.8270902791126
 20
58.97967994725929
 11
770.0828536589879
 21
58.97967994725929
 72
     1
 10
770.0828536589879
 20
58.97967994725929
 11
770.0828536589879
 21
49.34344300010187
 72
     1
 10
770.0828536589879
 20
49.34344300010187
 11
766.7898083976775
 21
49.34344300010187
 72
     1
 10
766.7898083976775
 20
49.34344300010187
 11
766.7898083976775
 21
58.97967994725929
 72
     1
 10
766.7898083976775
 20
58.97967994725929
 11
763.1119278238602
 21
58.97967994725929
 72
     1
 10
763.1119278238602
 20
58.97967994725929
 11
763.1119278238602
 21
61.34344299952348
 72
     1
 10
763.1119278238602
 20
61.34344299952348
 11
773.8270902791126
 21
61.34344299952348
 97
        1
330
3CE4
 92
        1
 93
        1
 72
     4
 94
        3
 73
     0
 74
     1
 95
       56
 96
       52
 40
0.0
 40
0.0
 40
0.0
 40
0.0
 40
1.0
 40
1.0
 40
1.0
 40
2.0
 40
2.0
 40
2.0
 40
3.0
 40
3.0
 40
3.0
 40
4.0
 40
4.0
 40
4.0
 40
5.0
 40
5.0
 40
5.0
 40
6.0
 40
6.0
 40
6.0
 40
7.0
 40
7.0
 40
7.0
 40
8.0
 40
8.0
 40
8.0
 40
9.0
 40
9.0
 40
9.0
 40
10.0
 40
10.0
 40
10.0
 40
11.0
 40
11.0
 40
11.0
 40
12.0
 40
12.0
 40
12.0
 40
13.0
 40
13.0
 40
13.0
 40
14.0
 40
14.0
 40
14.0
 40
15.0
 40
15.0
 40
15.0
 40
16.0
 40
16.0
 40
16.0
 40
17.0
 40
17.0
 40
17.0
 40
17.0
 10
778.8439644528296
 20
61.05769541535855
 10
779.3055109255968
 20
61.18761043696263
 10
779.9013465629307
 20
61.07894125260667
 10
779.9013465629307
 20
61.07894125260667
 10
779.9013465629307
 20
61.07894125260667
 10
779.6150931254979
 20
60.21991313563727
 10
779.6150931254979
 20
60.21991313563727
 10
779.6150931254979
 20
60.21991313563727
 10
779.0301482114592
 20
60.35527351888899
 10
778.5789866087196
 20
59.9995098912439
 10
778.2284005380509
 20
59.72129059394702
 10
778.0012724208032
 20
58.98203067715087
 10
777.9141466344411
 20
58.70095479669457
 10
777.9141466344411
 20
58.70095479669457
 10
777.5257108369103
 20
57.50868840053504
 10
777.5257108369103
 20
57.50868840053504
 10
777.5257108369103
 20
57.50868840053504
 10
778.7993600970385
 20
57.50868840053504
 10
778.7993600970385
 20
57.50868840053504
 10
778.7993600970385
 20
57.50868840053504
 10
778.6012739085779
 20
56.75829971184702
 10
778.6012739085779
 20
56.75829971184702
 10
778.6012739085779
 20
56.75829971184702
 10
777.3172397784224
 20
56.75829971184702
 10
777.3172397784224
 20
56.75829971184702
 10
777.3172397784224
 20
56.75829971184702
 10
775.0198625285398
 20
49.34344300010187
 10
775.0198625285398
 20
49.34344300010187
 10
775.0198625285398
 20
49.34344300010187
 10
774.3005689377851
 20
49.34344300010187
 10
774.3005689377851
 20
49.34344300010187
 10
774.3005689377851
 20
49.34344300010187
 10
776.6000291128878
 20
56.75829971184702
 10
776.6000291128878
 20
56.75829971184702
 10
776.6000291128878
 20
56.75829971184702
 10
775.6525361862005
 20
56.75829971184702
 10
775.6525361862005
 20
56.75829971184702
 10
775.6525361862005
 20
56.75829971184702
 10
775.8511579840033
 20
57.50868840053504
 10
775.8511579840033
 20
57.50868840053504
 10
775.8511579840033
 20
57.50868840053504
 10
776.8085001713757
 20
57.50868840053504
 10
776.8085001713757
 20
57.50868840053504
 10
776.8085001713757
 20
57.50868840053504
 10
777.1471243000644
 20
58.54848467056097
 10
777.1471243000644
 20
58.54848467056097
 10
777.4209396983238
 20
59.4202483874494
 10
777.6532751286227
 20
59.88828168447431
 10
777.852432535768
 20
60.24115897288539
 10
778.0494772616182
 20
60.59433382204227
 10
778.439460375027
 20
60.94125989553794
 10
778.8439644528296
 20
61.05769541535855
 97
        1
330
3CEF
 92
        1
 93
        1
 72
     4
 94
        3
 73
     0
 74
     1
 95
       32
 96
       28
 40
0.0
 40
0.0
 40
0.0
 40
0.0
 40
1.0
 40
1.0
 40
1.0
 40
2.0
 40
2.0
 40
2.0
 40
3.0
 40
3.0
 40
3.0
 40
4.0
 40
4.0
 40
4.0
 40
5.0
 40
5.0
 40
5.0
 40
6.0
 40
6.0
 40
6.0
 40
7.0
 40
7.0
 40
7.0
 40
8.0
 40
8.0
 40
8.0
 40
9.0
 40
9.0
 40
9.0
 40
9.0
 10
780.5941870033864
 20
57.0552058239784
 10
780.161176606139
 20
56.49510723221162
 10
779.8277300344266
 20
55.99103932887373
 10
779.2878953294471
 20
54.40673665015949
 10
778.7915937615737
 20
52.95755630610032
 10
778.4757627860113
 20
51.90323907168072
 10
778.4280637984641
 20
50.61920494152507
 10
778.3917613874798
 20
49.66367787470179
 10
778.9736116697625
 20
49.34344300010187
 10
779.8267183278911
 20
49.34344300010187
 10
780.1943843853671
 20
49.34344300010187
 10
781.1221787906843
 20
49.36683127471956
 10
781.7828826705968
 20
50.18357600971474
 10
782.2454110938247
 20
50.75739215186162
 10
782.671696618218
 20
51.35221608265999
 10
783.2431917865476
 20
53.30344091698579
 10
783.7187533704407
 20
54.93466892530829
 10
784.048034091712
 20
55.98895640365332
 10
784.0236936227079
 20
56.58922569609933
 10
784.0236936227079
 20
56.58922569609933
 10
784.0236936227079
 20
56.58922569609933
 10
784.0236936227079
 20
56.58922569609933
 10
783.8686049620114
 20
57.59063662992067
 10
783.141545035792
 20
57.80223207623919
 10
782.7261502346942
 20
57.80223207623919
 10
782.3170042092574
 20
57.80223207623919
 10
781.2206713975349
 20
57.87302177765837
 10
780.5941870033864
 20
57.0552058239784
 97
        1
330
3CF2
 92
        1
 93
        1
 72
     4
 94
        3
 73
     0
 74
     1
 95
       38
 96
       34
 40
0.0
 40
0.0
 40
0.0
 40
0.0
 40
1.0
 40
1.0
 40
1.0
 40
2.0
 40
2.0
 40
2.0
 40
3.0
 40
3.0
 40
3.0
 40
4.0
 40
4.0
 40
4.0
 40
5.0
 40
5.0
 40
5.0
 40
6.0
 40
6.0
 40
6.0
 40
7.0
 40
7.0
 40
7.0
 40
8.0
 40
8.0
 40
8.0
 40
9.0
 40
9.0
 40
9.0
 40
10.0
 40
10.0
 40
10.0
 40
11.0
 40
11.0
 40
11.0
 40
11.0
 10
786.6534759816923
 20
57.47991427641887
 10
786.6534759816923
 20
57.47991427641887
 10
787.392973947085
 20
57.47991427641887
 10
787.392973947085
 20
57.47991427641887
 10
787.392973947085
 20
57.47991427641887
 10
787.062622007129
 20
56.42223460557204
 10
787.062622007129
 20
56.42223460557204
 10
787.3136442522623
 20
56.71914071770341
 10
787.7098166291833
 20
57.11456919275992
 10
788.0500475858989
 20
57.31396464850179
 10
788.5582813396777
 20
57.61087076063316
 10
788.8487006275511
 20
57.65002975477677
 10
789.168102332063
 20
57.64223366323755
 10
789.168102332063
 20
57.64223366323755
 10
788.855961109748
 20
56.64213199669759
 10
788.855961109748
 20
56.64213199669759
 10
788.6526676082365
 20
56.72821632044946
 10
788.026183214088
 20
56.56434961775278
 10
787.6667893453446
 20
56.305828841826
 10
787.3426861810497
 20
56.07271975358816
 10
787.1186229394832
 20
55.8743657604565
 10
786.8531392421053
 20
55.37571346269166
 10
786.5896789577987
 20
54.87631726306238
 10
786.3817435086532
 20
54.08001495130175
 10
786.0238969557877
 20
52.92482462406541
 10
786.0238969557877
 20
52.92482462406541
 10
784.906318306817
 20
49.34344300010187
 10
784.906318306817
 20
49.34344300010187
 10
784.906318306817
 20
49.34344300010187
 10
784.1886017880147
 20
49.34344300010187
 10
784.1886017880147
 20
49.34344300010187
 10
784.1886017880147
 20
49.34344300010187
 10
786.6534759816923
 20
57.47991427641887
 10
786.6534759816923
 20
57.47991427641887
 97
        1
330
3CF0
 92
        1
 93
        1
 72
     4
 94
        3
 73
     0
 74
     1
 95
      104
 96
      100
 40
0.0
 40
0.0
 40
0.0
 40
0.0
 40
1.0
 40
1.0
 40
1.0
 40
2.0
 40
2.0
 40
2.0
 40
3.0
 40
3.0
 40
3.0
 40
4.0
 40
4.0
 40
4.0
 40
5.0
 40
5.0
 40
5.0
 40
6.0
 40
6.0
 40
6.0
 40
7.0
 40
7.0
 40
7.0
 40
8.0
 40
8.0
 40
8.0
 40
9.0
 40
9.0
 40
9.0
 40
10.0
 40
10.0
 40
10.0
 40
11.0
 40
11.0
 40
11.0
 40
12.0
 40
12.0
 40
12.0
 40
13.0
 40
13.0
 40
13.0
 40
14.0
 40
14.0
 40
14.0
 40
15.0
 40
15.0
 40
15.0
 40
16.0
 40
16.0
 40
16.0
 40
17.0
 40
17.0
 40
17.0
 40
18.0
 40
18.0
 40
18.0
 40
19.0
 40
19.0
 40
19.0
 40
20.0
 40
20.0
 40
20.0
 40
21.0
 40
21.0
 40
21.0
 40
22.0
 40
22.0
 40
22.0
 40
23.0
 40
23.0
 40
23.0
 40
24.0
 40
24.0
 40
24.0
 40
25.0
 40
25.0
 40
25.0
 40
26.0
 40
26.0
 40
26.0
 40
27.0
 40
27.0
 40
27.0
 40
28.0
 40
28.0
 40
28.0
 40
29.0
 40
29.0
 40
29.0
 40
30.0
 40
30.0
 40
30.0
 40
31.0
 40
31.0
 40
31.0
 40
32.0
 40
32.0
 40
32.0
 40
33.0
 40
33.0
 40
33.0
 40
33.0
 10
790.7239284474067
 20
57.48431817545629
 10
790.7239284474067
 20
57.48431817545629
 10
791.3695757535829
 20
57.48431817545629
 10
791.3695757535829
 20
57.48431817545629
 10
791.3695757535829
 20
57.48431817545629
 10
791.0433896640677
 20
56.42562679807384
 10
791.0433896640677
 20
56.42562679807384
 10
791.3264889575953
 20
56.86952791861661
 10
791.5806058344847
 20
57.06737605848048
 10
791.9182182566376
 20
57.32304025124783
 10
792.2568423853263
 20
57.57507420291678
 10
792.6587874407151
 20
57.62643318763705
 10
792.937780395951
 20
57.62643318763705
 10
793.2831889096433
 20
57.62643318763705
 10
793.6166354813554
 20
57.55823226470609
 10
793.7918987606151
 20
57.17964572786029
 10
793.9262176812567
 20
56.88276937180346
 10
793.9324664569178
 20
56.8477464720261
 10
793.8940811207133
 20
56.26173033930257
 10
794.2451432885753
 20
56.86253524109098
 10
794.504437722441
 20
57.12132382168895
 10
794.9452442112276
 20
57.36996558085609
 10
795.407832146605
 20
57.62643318763705
 10
795.6774816944237
 20
57.64562585573935
 10
795.9907536475725
 20
57.59944442799551
 10
796.4522703642649
 20
57.53127326113913
 10
796.7468555025794
 20
57.36660314442886
 10
796.9008729445909
 20
56.86616548218939
 10
797.0554259959449
 20
56.36727513582792
 10
796.9719304506814
 20
56.09967875715512
 10
796.7810749883431
 20
55.30545937061487
 10
796.693949201981
 20
54.94374452805434
 10
796.5679024700721
 20
54.50576486635242
 10
796.4029943047651
 20
53.98461697620721
 10
796.4029943047651
 20
53.98461697620721
 10
794.9452442112276
 20
49.34344300010187
 10
794.9452442112276
 20
49.34344300010187
 10
794.9452442112276
 20
49.34344300010187
 10
794.1870594310005
 20
49.34344300010187
 10
794.1870594310005
 20
49.34344300010187
 10
794.1870594310005
 20
49.34344300010187
 10
795.4633569817661
 20
53.40092181730071
 10
795.4633569817661
 20
53.40092181730071
 10
795.7299118978287
 20
54.24986262498844
 10
795.9103527340649
 20
54.86983043880454
 10
796.0037272960881
 20
55.25853404100661
 10
796.1209067177731
 20
55.7434092762422
 10
796.1675642427103
 20
55.90340768924385
 10
796.1120989196984
 20
56.25631473372954
 10
796.0612755443206
 20
56.58482179706189
 10
795.8952961603288
 20
56.79873821719745
 10
795.6111256481165
 20
56.79873821719745
 10
795.3082683210696
 20
56.79873821719745
 10
795.0629592422551
 20
56.76502458470146
 10
794.7196931659325
 20
56.4201814364262
 10
794.3763675774608
 20
56.07271975358816
 10
794.0926731624415
 20
55.66485323935839
 10
793.8702167489023
 20
55.19577847972329
 10
793.6482364325564
 20
54.72384713692878
 10
793.4231614844543
 20
54.12566076970317
 10
793.1949919045965
 20
53.40092181730071
 10
793.1949919045965
 20
53.40092181730071
 10
791.9182182566376
 20
49.34344300010187
 10
791.9182182566376
 20
49.34344300010187
 10
791.9182182566376
 20
49.34344300010187
 10
791.2051436854695
 20
49.34344300010187
 10
791.2051436854695
 20
49.34344300010187
 10
791.2051436854695
 20
49.34344300010187
 10
792.6649767042272
 20
53.98253405098681
 10
792.6649767042272
 20
53.98253405098681
 10
792.8189941462388
 20
54.47624684037184
 10
792.9346857641949
 20
54.87866799295399
 10
793.0109208272618
 20
55.19318970123506
 10
793.1405382881201
 20
55.73460147816736
 10
793.1768406991043
 20
56.10072021976531
 10
793.078824189447
 20
56.42562679807384
 10
792.9823549956677
 20
56.74949191377216
 10
792.8128048827268
 20
56.8322138010968
 10
792.5296460770501
 20
56.8322138010968
 10
792.2921330897748
 20
56.8322138010968
 10
792.0603332688183
 20
56.73029924566987
 10
791.7958612779762
 20
56.5275115974262
 10
791.4628908034572
 20
56.27238301400122
 10
791.3296431015003
 20
56.0628704929031
 10
791.1662822520716
 20
55.81393117299019
 10
790.9458492516037
 20
55.48462069564424
 10
790.8426551849698
 20
55.26293794004404
 10
790.6565011824148
 20
54.77648563285584
 10
790.4702876677106
 20
54.28717674250827
 10
790.2940126819153
 20
53.71776449939881
 10
790.1710605817623
 20
53.32391309629489
 10
790.1710605817623
 20
53.32391309629489
 10
788.9186869149569
 20
49.34344300010187
 10
788.9186869149569
 20
49.34344300010187
 10
788.9186869149569
 20
49.34344300010187
 10
788.1719284673673
 20
49.34344300010187
 10
788.1719284673673
 20
49.34344300010187
 10
788.1719284673673
 20
49.34344300010187
 10
790.7239284474067
 20
57.48431817545629
 10
790.7239284474067
 20
57.48431817545629
 97
        1
330
3CF1
 92
       16
 93
        1
 72
     4
 94
        3
 73
     0
 74
     1
 95
       29
 96
       25
 40
0.0
 40
0.0
 40
0.0
 40
0.0
 40
1.0
 40
1.0
 40
1.0
 40
2.0
 40
2.0
 40
2.0
 40
3.0
 40
3.0
 40
3.0
 40
4.0
 40
4.0
 40
4.0
 40
5.0
 40
5.0
 40
5.0
 40
6.0
 40
6.0
 40
6.0
 40
7.0
 40
7.0
 40
7.0
 40
8.0
 40
8.0
 40
8.0
 40
8.0
 10
779.2028524683053
 20
50.85927695121397
 10
779.1996983244003
 20
51.42613017190976
 10
779.3786513569075
 20
52.43325427204994
 10
779.837073441844
 20
53.78078786535333
 10
780.461474910772
 20
55.60546011450228
 10
780.8359253532517
 20
56.27238301400122
 10
781.1635992464958
 20
56.59702178763855
 10
781.6423149742939
 20
57.06972678837207
 10
782.2858793552498
 20
57.09329359943722
 10
782.4757231110525
 20
57.06972678837207
 10
782.7459082682135
 20
57.03729266708291
 10
783.1275596807407
 20
56.86045231587057
 10
783.1503528338669
 20
56.26512253180438
 10
783.168563551508
 20
55.75560926681887
 10
783.0217470795442
 20
54.80139146727697
 10
782.5078596715957
 20
53.30344091698579
 10
781.915594763211
 20
51.5627700663683
 10
781.5598311355659
 20
50.87849937539085
 10
781.274648916818
 20
50.58028399597808
 10
780.7373732342519
 20
50.02122686682151
 10
780.161176606139
 20
50.07490682535878
 10
780.0761337449972
 20
50.07490682535878
 10
779.9656791961665
 20
50.07490682535878
 10
779.2043997841834
 20
50.19476429375578
 10
779.2028524683053
 20
50.85927695121397
 97
        1
330
3CF3
 75
     0
 76
     1
 98
        1
 10
743.7703305683026
 20
29.00832017048585
1001
ACAD
1010
0.0
1020
0.0
1030
0.0
  0
POLYLINE
  5
3CE4
102
{ACAD_REACTORS
330
3CE3
330
3CF4
102
}
330
A
100
AcDbEntity
  8
TEMPLATE
100
AcDb2dPolyline
 66
     1
 10
0.0
 20
0.0
 30
0.0
  0
VERTEX
  5
3CE5
330
3CE4
100
AcDbEntity
  8
TEMPLATE
100
AcDbVertex
100
AcDb2dVertex
 10
773.8270902791126
 20
61.34344299952348
 30
0.0
  0
VERTEX
  5
3CE6
330
3CE4
100
AcDbEntity
  8
TEMPLATE
100
AcDbVertex
100
AcDb2dVertex
 10
773.8270902791126
 20
58.97967994725929
 30
0.0
  0
VERTEX
  5
3CE7
330
3CE4
100
AcDbEntity
  8
TEMPLATE
100
AcDbVertex
100
AcDb2dVertex
 10
770.0828536589879
 20
58.97967994725929
 30
0.0
  0
VERTEX
  5
3CE8
330
3CE4
100
AcDbEntity
  8
TEMPLATE
100
AcDbVertex
100
AcDb2dVertex
 10
770.0828536589879
 20
49.34344300010187
 30
0.0
  0
VERTEX
  5
3CE9
330
3CE4
100
AcDbEntity
  8
TEMPLATE
100
AcDbVertex
100
AcDb2dVertex
 10
766.7898083976775
 20
49.34344300010187
 30
0.0
  0
VERTEX
  5
3CEA
330
3CE4
100
AcDbEntity
  8
TEMPLATE
100
AcDbVertex
100
AcDb2dVertex
 10
766.7898083976775
 20
58.97967994725929
 30
0.0
  0
VERTEX
  5
3CEB
330
3CE4
100
AcDbEntity
  8
TEMPLATE
100
AcDbVertex
100
AcDb2dVertex
 10
763.1119278238602
 20
58.97967994725929
 30
0.0
  0
VERTEX
  5
3CEC
330
3CE4
100
AcDbEntity
  8
TEMPLATE
100
AcDbVertex
100
AcDb2dVertex
 10
763.1119278238602
 20
61.34344299952348
 30
0.0
  0
VERTEX
  5
3CED
330
3CE4
100
AcDbEntity
  8
TEMPLATE
100
AcDbVertex
100
AcDb2dVertex
 10
773.8270902791126
 20
61.34344299952348
 30
0.0
  0
SEQEND
  5
3CEE
330
3CE4
100
AcDbEntity
  8
TEMPLATE
  0
SPLINE
  5
3CEF
102
{ACAD_REACTORS
330
3CE3
330
3CF4
102
}
330
A
100
AcDbEntity
  8
TEMPLATE
100
AcDbSpline
210
0.0
220
0.0
230
1.0
 70
    11
 71
     3
 72
    56
 73
    52
 74
     0
 42
0.000000001
 43
0.0000000001
 40
0.0
 40
0.0
 40
0.0
 40
0.0
 40
1.0
 40
1.0
 40
1.0
 40
2.0
 40
2.0
 40
2.0
 40
3.0
 40
3.0
 40
3.0
 40
4.0
 40
4.0
 40
4.0
 40
5.0
 40
5.0
 40
5.0
 40
6.0
 40
6.0
 40
6.0
 40
7.0
 40
7.0
 40
7.0
 40
8.0
 40
8.0
 40
8.0
 40
9.0
 40
9.0
 40
9.0
 40
10.0
 40
10.0
 40
10.0
 40
11.0
 40
11.0
 40
11.0
 40
12.0
 40
12.0
 40
12.0
 40
13.0
 40
13.0
 40
13.0
 40
14.0
 40
14.0
 40
14.0
 40
15.0
 40
15.0
 40
15.0
 40
16.0
 40
16.0
 40
16.0
 40
17.0
 40
17.0
 40
17.0
 40
17.0
 10
778.8439644528296
 20
61.05769541535855
 30
0.0
 10
779.3055109255968
 20
61.18761043696263
 30
0.0
 10
779.9013465629307
 20
61.07894125260667
 30
0.0
 10
779.9013465629307
 20
61.07894125260667
 30
0.0
 10
779.9013465629307
 20
61.07894125260667
 30
0.0
 10
779.6150931254979
 20
60.21991313563727
 30
0.0
 10
779.6150931254979
 20
60.21991313563727
 30
0.0
 10
779.6150931254979
 20
60.21991313563727
 30
0.0
 10
779.0301482114592
 20
60.35527351888899
 30
0.0
 10
778.5789866087196
 20
59.9995098912439
 30
0.0
 10
778.2284005380509
 20
59.72129059394702
 30
0.0
 10
778.0012724208032
 20
58.98203067715087
 30
0.0
 10
777.9141466344411
 20
58.70095479669457
 30
0.0
 10
777.9141466344411
 20
58.70095479669457
 30
0.0
 10
777.5257108369103
 20
57.50868840053504
 30
0.0
 10
777.5257108369103
 20
57.50868840053504
 30
0.0
 10
777.5257108369103
 20
57.50868840053504
 30
0.0
 10
778.7993600970385
 20
57.50868840053504
 30
0.0
 10
778.7993600970385
 20
57.50868840053504
 30
0.0
 10
778.7993600970385
 20
57.50868840053504
 30
0.0
 10
778.6012739085779
 20
56.75829971184702
 30
0.0
 10
778.6012739085779
 20
56.75829971184702
 30
0.0
 10
778.6012739085779
 20
56.75829971184702
 30
0.0
 10
777.3172397784224
 20
56.75829971184702
 30
0.0
 10
777.3172397784224
 20
56.75829971184702
 30
0.0
 10
777.3172397784224
 20
56.75829971184702
 30
0.0
 10
775.0198625285398
 20
49.34344300010187
 30
0.0
 10
775.0198625285398
 20
49.34344300010187
 30
0.0
 10
775.0198625285398
 20
49.34344300010187
 30
0.0
 10
774.3005689377851
 20
49.34344300010187
 30
0.0
 10
774.3005689377851
 20
49.34344300010187
 30
0.0
 10
774.3005689377851
 20
49.34344300010187
 30
0.0
 10
776.6000291128878
 20
56.75829971184702
 30
0.0
 10
776.6000291128878
 20
56.75829971184702
 30
0.0
 10
776.6000291128878
 20
56.75829971184702
 30
0.0
 10
775.6525361862005
 20
56.75829971184702
 30
0.0
 10
775.6525361862005
 20
56.75829971184702
 30
0.0
 10
775.6525361862005
 20
56.75829971184702
 30
0.0
 10
775.8511579840033
 20
57.50868840053504
 30
0.0
 10
775.8511579840033
 20
57.50868840053504
 30
0.0
 10
775.8511579840033
 20
57.50868840053504
 30
0.0
 10
776.8085001713757
 20
57.50868840053504
 30
0.0
 10
776.8085001713757
 20
57.50868840053504
 30
0.0
 10
776.8085001713757
 20
57.50868840053504
 30
0.0
 10
777.1471243000644
 20
58.54848467056097
 30
0.0
 10
777.1471243000644
 20
58.54848467056097
 30
0.0
 10
777.4209396983238
 20
59.4202483874494
 30
0.0
 10
777.6532751286227
 20
59.88828168447431
 30
0.0
 10
777.852432535768
 20
60.24115897288539
 30
0.0
 10
778.0494772616182
 20
60.59433382204227
 30
0.0
 10
778.439460375027
 20
60.94125989553794
 30
0.0
 10
778.8439644528296
 20
61.05769541535855
 30
0.0
  0
SPLINE
  5
3CF0
102
{ACAD_REACTORS
330
3CE3
330
3CF4
102
}
330
A
100
AcDbEntity
  8
TEMPLATE
100
AcDbSpline
210
0.0
220
0.0
230
1.0
 70
    11
 71
     3
 72
    38
 73
    34
 74
     0
 42
0.000000001
 43
0.0000000001
 40
0.0
 40
0.0
 40
0.0
 40
0.0
 40
1.0
 40
1.0
 40
1.0
 40
2.0
 40
2.0
 40
2.0
 40
3.0
 40
3.0
 40
3.0
 40
4.0
 40
4.0
 40
4.0
 40
5.0
 40
5.0
 40
5.0
 40
6.0
 40
6.0
 40
6.0
 40
7.0
 40
7.0
 40
7.0
 40
8.0
 40
8.0
 40
8.0
 40
9.0
 40
9.0
 40
9.0
 40
10.0
 40
10.0
 40
10.0
 40
11.0
 40
11.0
 40
11.0
 40
11.0
 10
786.6534759816923
 20
57.47991427641887
 30
0.0
 10
786.6534759816923
 20
57.47991427641887
 30
0.0
 10
787.392973947085
 20
57.47991427641887
 30
0.0
 10
787.392973947085
 20
57.47991427641887
 30
0.0
 10
787.392973947085
 20
57.47991427641887
 30
0.0
 10
787.062622007129
 20
56.42223460557204
 30
0.0
 10
787.062622007129
 20
56.42223460557204
 30
0.0
 10
787.3136442522623
 20
56.71914071770341
 30
0.0
 10
787.7098166291833
 20
57.11456919275992
 30
0.0
 10
788.0500475858989
 20
57.31396464850179
 30
0.0
 10
788.5582813396777
 20
57.61087076063316
 30
0.0
 10
788.8487006275511
 20
57.65002975477677
 30
0.0
 10
789.168102332063
 20
57.64223366323755
 30
0.0
 10
789.168102332063
 20
57.64223366323755
 30
0.0
 10
788.855961109748
 20
56.64213199669759
 30
0.0
 10
788.855961109748
 20
56.64213199669759
 30
0.0
 10
788.6526676082365
 20
56.72821632044946
 30
0.0
 10
788.026183214088
 20
56.56434961775278
 30
0.0
 10
787.6667893453446
 20
56.305828841826
 30
0.0
 10
787.3426861810497
 20
56.07271975358816
 30
0.0
 10
787.1186229394832
 20
55.8743657604565
 30
0.0
 10
786.8531392421053
 20
55.37571346269166
 30
0.0
 10
786.5896789577987
 20
54.87631726306238
 30
0.0
 10
786.3817435086532
 20
54.08001495130175
 30
0.0
 10
786.0238969557877
 20
52.92482462406541
 30
0.0
 10
786.0238969557877
 20
52.92482462406541
 30
0.0
 10
784.906318306817
 20
49.34344300010187
 30
0.0
 10
784.906318306817
 20
49.34344300010187
 30
0.0
 10
784.906318306817
 20
49.34344300010187
 30
0.0
 10
784.1886017880147
 20
49.34344300010187
 30
0.0
 10
784.1886017880147
 20
49.34344300010187
 30
0.0
 10
784.1886017880147
 20
49.34344300010187
 30
0.0
 10
786.6534759816923
 20
57.47991427641887
 30
0.0
 10
786.6534759816923
 20
57.47991427641887
 30
0.0
  0
SPLINE
  5
3CF1
102
{ACAD_REACTORS
330
3CE3
330
3CF4
102
}
330
A
100
AcDbEntity
  8
TEMPLATE
100
AcDbSpline
210
0.0
220
0.0
230
1.0
 70
    11
 71
     3
 72
   104
 73
   100
 74
     0
 42
0.000000001
 43
0.0000000001
 40
0.0
 40
0.0
 40
0.0
 40
0.0
 40
1.0
 40
1.0
 40
1.0
 40
2.0
 40
2.0
 40
2.0
 40
3.0
 40
3.0
 40
3.0
 40
4.0
 40
4.0
 40
4.0
 40
5.0
 40
5.0
 40
5.0
 40
6.0
 40
6.0
 40
6.0
 40
7.0
 40
7.0
 40
7.0
 40
8.0
 40
8.0
 40
8.0
 40
9.0
 40
9.0
 40
9.0
 40
10.0
 40
10.0
 40
10.0
 40
11.0
 40
11.0
 40
11.0
 40
12.0
 40
12.0
 40
12.0
 40
13.0
 40
13.0
 40
13.0
 40
14.0
 40
14.0
 40
14.0
 40
15.0
 40
15.0
 40
15.0
 40
16.0
 40
16.0
 40
16.0
 40
17.0
 40
17.0
 40
17.0
 40
18.0
 40
18.0
 40
18.0
 40
19.0
 40
19.0
 40
19.0
 40
20.0
 40
20.0
 40
20.0
 40
21.0
 40
21.0
 40
21.0
 40
22.0
 40
22.0
 40
22.0
 40
23.0
 40
23.0
 40
23.0
 40
24.0
 40
24.0
 40
24.0
 40
25.0
 40
25.0
 40
25.0
 40
26.0
 40
26.0
 40
26.0
 40
27.0
 40
27.0
 40
27.0
 40
28.0
 40
28.0
 40
28.0
 40
29.0
 40
29.0
 40
29.0
 40
30.0
 40
30.0
 40
30.0
 40
31.0
 40
31.0
 40
31.0
 40
32.0
 40
32.0
 40
32.0
 40
33.0
 40
33.0
 40
33.0
 40
33.0
 10
790.7239284474067
 20
57.48431817545629
 30
0.0
 10
790.7239284474067
 20
57.48431817545629
 30
0.0
 10
791.3695757535829
 20
57.48431817545629
 30
0.0
 10
791.3695757535829
 20
57.48431817545629
 30
0.0
 10
791.3695757535829
 20
57.48431817545629
 30
0.0
 10
791.0433896640677
 20
56.42562679807384
 30
0.0
 10
791.0433896640677
 20
56.42562679807384
 30
0.0
 10
791.3264889575953
 20
56.86952791861661
 30
0.0
 10
791.5806058344847
 20
57.06737605848048
 30
0.0
 10
791.9182182566376
 20
57.32304025124783
 30
0.0
 10
792.2568423853263
 20
57.57507420291678
 30
0.0
 10
792.6587874407151
 20
57.62643318763705
 30
0.0
 10
792.937780395951
 20
57.62643318763705
 30
0.0
 10
793.2831889096433
 20
57.62643318763705
 30
0.0
 10
793.6166354813554
 20
57.55823226470609
 30
0.0
 10
793.7918987606151
 20
57.17964572786029
 30
0.0
 10
793.9262176812567
 20
56.88276937180346
 30
0.0
 10
793.9324664569178
 20
56.8477464720261
 30
0.0
 10
793.8940811207133
 20
56.26173033930257
 30
0.0
 10
794.2451432885753
 20
56.86253524109098
 30
0.0
 10
794.504437722441
 20
57.12132382168895
 30
0.0
 10
794.9452442112276
 20
57.36996558085609
 30
0.0
 10
795.407832146605
 20
57.62643318763705
 30
0.0
 10
795.6774816944237
 20
57.64562585573935
 30
0.0
 10
795.9907536475725
 20
57.59944442799551
 30
0.0
 10
796.4522703642649
 20
57.53127326113913
 30
0.0
 10
796.7468555025794
 20
57.36660314442886
 30
0.0
 10
796.9008729445909
 20
56.86616548218939
 30
0.0
 10
797.0554259959449
 20
56.36727513582792
 30
0.0
 10
796.9719304506814
 20
56.09967875715512
 30
0.0
 10
796.7810749883431
 20
55.30545937061487
 30
0.0
 10
796.693949201981
 20
54.94374452805434
 30
0.0
 10
796.5679024700721
 20
54.50576486635242
 30
0.0
 10
796.4029943047651
 20
53.98461697620721
 30
0.0
 10
796.4029943047651
 20
53.98461697620721
 30
0.0
 10
794.9452442112276
 20
49.34344300010187
 30
0.0
 10
794.9452442112276
 20
49.34344300010187
 30
0.0
 10
794.9452442112276
 20
49.34344300010187
 30
0.0
 10
794.1870594310005
 20
49.34344300010187
 30
0.0
 10
794.1870594310005
 20
49.34344300010187
 30
0.0
 10
794.1870594310005
 20
49.34344300010187
 30
0.0
 10
795.4633569817661
 20
53.40092181730071
 30
0.0
 10
795.4633569817661
 20
53.40092181730071
 30
0.0
 10
795.7299118978287
 20
54.24986262498844
 30
0.0
 10
795.9103527340649
 20
54.86983043880454
 30
0.0
 10
796.0037272960881
 20
55.25853404100661
 30
0.0
 10
796.1209067177731
 20
55.7434092762422
 30
0.0
 10
796.1675642427103
 20
55.90340768924385
 30
0.0
 10
796.1120989196984
 20
56.25631473372954
 30
0.0
 10
796.0612755443206
 20
56.58482179706189
 30
0.0
 10
795.8952961603288
 20
56.79873821719745
 30
0.0
 10
795.6111256481165
 20
56.79873821719745
 30
0.0
 10
795.3082683210696
 20
56.79873821719745
 30
0.0
 10
795.0629592422551
 20
56.76502458470146
 30
0.0
 10
794.7196931659325
 20
56.4201814364262
 30
0.0
 10
794.3763675774608
 20
56.07271975358816
 30
0.0
 10
794.0926731624415
 20
55.66485323935839
 30
0.0
 10
793.8702167489023
 20
55.19577847972329
 30
0.0
 10
793.6482364325564
 20
54.72384713692878
 30
0.0
 10
793.4231614844543
 20
54.12566076970317
 30
0.0
 10
793.1949919045965
 20
53.40092181730071
 30
0.0
 10
793.1949919045965
 20
53.40092181730071
 30
0.0
 10
791.9182182566376
 20
49.34344300010187
 30
0.0
 10
791.9182182566376
 20
49.34344300010187
 30
0.0
 10
791.9182182566376
 20
49.34344300010187
 30
0.0
 10
791.2051436854695
 20
49.34344300010187
 30
0.0
 10
791.2051436854695
 20
49.34344300010187
 30
0.0
 10
791.2051436854695
 20
49.34344300010187
 30
0.0
 10
792.6649767042272
 20
53.98253405098681
 30
0.0
 10
792.6649767042272
 20
53.98253405098681
 30
0.0
 10
792.8189941462388
 20
54.47624684037184
 30
0.0
 10
792.9346857641949
 20
54.87866799295399
 30
0.0
 10
793.0109208272618
 20
55.19318970123506
 30
0.0
 10
793.1405382881201
 20
55.73460147816736
 30
0.0
 10
793.1768406991043
 20
56.10072021976531
 30
0.0
 10
793.078824189447
 20
56.42562679807384
 30
0.0
 10
792.9823549956677
 20
56.74949191377216
 30
0.0
 10
792.8128048827268
 20
56.8322138010968
 30
0.0
 10
792.5296460770501
 20
56.8322138010968
 30
0.0
 10
792.2921330897748
 20
56.8322138010968
 30
0.0
 10
792.0603332688183
 20
56.73029924566987
 30
0.0
 10
791.7958612779762
 20
56.5275115974262
 30
0.0
 10
791.4628908034572
 20
56.27238301400122
 30
0.0
 10
791.3296431015003
 20
56.0628704929031
 30
0.0
 10
791.1662822520716
 20
55.81393117299019
 30
0.0
 10
790.9458492516037
 20
55.48462069564424
 30
0.0
 10
790.8426551849698
 20
55.26293794004404
 30
0.0
 10
790.6565011824148
 20
54.77648563285584
 30
0.0
 10
790.4702876677106
 20
54.28717674250827
 30
0.0
 10
790.2940126819153
 20
53.71776449939881
 30
0.0
 10
790.1710605817623
 20
53.32391309629489
 30
0.0
 10
790.1710605817623
 20
53.32391309629489
 30
0.0
 10
788.9186869149569
 20
49.34344300010187
 30
0.0
 10
788.9186869149569
 20
49.34344300010187
 30
0.0
 10
788.9186869149569
 20
49.34344300010187
 30
0.0
 10
788.1719284673673
 20
49.34344300010187
 30
0.0
 10
788.1719284673673
 20
49.34344300010187
 30
0.0
 10
788.1719284673673
 20
49.34344300010187
 30
0.0
 10
790.7239284474067
 20
57.48431817545629
 30
0.0
 10
790.7239284474067
 20
57.48431817545629
 30
0.0
  0
SPLINE
  5
3CF2
102
{ACAD_REACTORS
330
3CE3
330
3CF4
102
}
330
A
100
AcDbEntity
  8
TEMPLATE
100
AcDbSpline
210
0.0
220
0.0
230
1.0
 70
    11
 71
     3
 72
    32
 73
    28
 74
     0
 42
0.000000001
 43
0.0000000001
 40
0.0
 40
0.0
 40
0.0
 40
0.0
 40
1.0
 40
1.0
 40
1.0
 40
2.0
 40
2.0
 40
2.0
 40
3.0
 40
3.0
 40
3.0
 40
4.0
 40
4.0
 40
4.0
 40
5.0
 40
5.0
 40
5.0
 40
6.0
 40
6.0
 40
6.0
 40
7.0
 40
7.0
 40
7.0
 40
8.0
 40
8.0
 40
8.0
 40
9.0
 40
9.0
 40
9.0
 40
9.0
 10
780.5941870033864
 20
57.0552058239784
 30
0.0
 10
780.161176606139
 20
56.49510723221162
 30
0.0
 10
779.8277300344266
 20
55.99103932887373
 30
0.0
 10
779.2878953294471
 20
54.40673665015949
 30
0.0
 10
778.7915937615737
 20
52.95755630610032
 30
0.0
 10
778.4757627860113
 20
51.90323907168072
 30
0.0
 10
778.4280637984641
 20
50.61920494152507
 30
0.0
 10
778.3917613874798
 20
49.66367787470179
 30
0.0
 10
778.9736116697625
 20
49.34344300010187
 30
0.0
 10
779.8267183278911
 20
49.34344300010187
 30
0.0
 10
780.1943843853671
 20
49.34344300010187
 30
0.0
 10
781.1221787906843
 20
49.36683127471956
 30
0.0
 10
781.7828826705968
 20
50.18357600971474
 30
0.0
 10
782.2454110938247
 20
50.75739215186162
 30
0.0
 10
782.671696618218
 20
51.35221608265999
 30
0.0
 10
783.2431917865476
 20
53.30344091698579
 30
0.0
 10
783.7187533704407
 20
54.93466892530829
 30
0.0
 10
784.048034091712
 20
55.98895640365332
 30
0.0
 10
784.0236936227079
 20
56.58922569609933
 30
0.0
 10
784.0236936227079
 20
56.58922569609933
 30
0.0
 10
784.0236936227079
 20
56.58922569609933
 30
0.0
 10
784.0236936227079
 20
56.58922569609933
 30
0.0
 10
783.8686049620114
 20
57.59063662992067
 30
0.0
 10
783.141545035792
 20
57.80223207623919
 30
0.0
 10
782.7261502346942
 20
57.80223207623919
 30
0.0
 10
782.3170042092574
 20
57.80223207623919
 30
0.0
 10
781.2206713975349
 20
57.87302177765837
 30
0.0
 10
780.5941870033864
 20
57.0552058239784
 30
0.0
  0
SPLINE
  5
3CF3
102
{ACAD_REACTORS
330
3CE3
330
3CF4
102
}
330
A
100
AcDbEntity
  8
TEMPLATE
100
AcDbSpline
210
0.0
220
0.0
230
1.0
 70
    11
 71
     3
 72
    29
 73
    25
 74
     0
 42
0.000000001
 43
0.0000000001
 40
0.0
 40
0.0
 40
0.0
 40
0.0
 40
1.0
 40
1.0
 40
1.0
 40
2.0
 40
2.0
 40
2.0
 40
3.0
 40
3.0
 40
3.0
 40
4.0
 40
4.0
 40
4.0
 40
5.0
 40
5.0
 40
5.0
 40
6.0
 40
6.0
 40
6.0
 40
7.0
 40
7.0
 40
7.0
 40
8.0
 40
8.0
 40
8.0
 40
8.0
 10
779.2028524683053
 20
50.85927695121397
 30
0.0
 10
779.1996983244003
 20
51.42613017190976
 30
0.0
 10
779.3786513569075
 20
52.43325427204994
 30
0.0
 10
779.837073441844
 20
53.78078786535333
 30
0.0
 10
780.461474910772
 20
55.60546011450228
 30
0.0
 10
780.8359253532517
 20
56.27238301400122
 30
0.0
 10
781.1635992464958
 20
56.59702178763855
 30
0.0
 10
781.6423149742939
 20
57.06972678837207
 30
0.0
 10
782.2858793552498
 20
57.09329359943722
 30
0.0
 10
782.4757231110525
 20
57.06972678837207
 30
0.0
 10
782.7459082682135
 20
57.03729266708291
 30
0.0
 10
783.1275596807407
 20
56.86045231587057
 30
0.0
 10
783.1503528338669
 20
56.26512253180438
 30
0.0
 10
783.168563551508
 20
55.75560926681887
 30
0.0
 10
783.0217470795442
 20
54.80139146727697
 30
0.0
 10
782.5078596715957
 20
53.30344091698579
 30
0.0
 10
781.915594763211
 20
51.5627700663683
 30
0.0
 10
781.5598311355659
 20
50.87849937539085
 30
0.0
 10
781.274648916818
 20
50.58028399597808
 30
0.0
 10
780.7373732342519
 20
50.02122686682151
 30
0.0
 10
780.161176606139
 20
50.07490682535878
 30
0.0
 10
780.0761337449972
 20
50.07490682535878
 30
0.0
 10
779.9656791961665
 20
50.07490682535878
 30
0.0
 10
779.2043997841834
 20
50.19476429375578
 30
0.0
 10
779.2028524683053
 20
50.85927695121397
 30
0.0
  0
MTEXT
  5
3D12
330
A
100
AcDbEntity
  8
TEMPLATE
390
1D
100
AcDbMText
 10
52.8808578190923
 20
92.05971627757138
 30
0.0
 40
9.773046875
 41
0.0
 46
10.916493359375
 71
     1
 72
     1
  1
{コーチボルト:5x80、プラグ: S8 下穴%%c8 付属}
  7
ＭＳ ゴシック
 73
     1
 44
0.7828267384257843
1001
ACAD
1000
ACAD_MTEXT_DEFINED_HEIGHT_BEGIN
1070
    46
1040
10.916493359375
1000
ACAD_MTEXT_DEFINED_HEIGHT_END
  0
MTEXT
  5
3DB7
102
{ACAD_XDICTIONARY
360
3DB8
102
}
330
A
100
AcDbEntity
  8
TEMPLATE
100
AcDbMText
 10
29.38137849384168
 20
35.9671265159328
 30
0.0
 40
8.0
 41
0.0
 46
8.0
 71
     1
 72
     1
  1
{20181205N}
  7
ＭＳ ゴシック
 73
     1
 44
1.0
1001
ACAD
1000
ACAD_MTEXT_DEFINED_HEIGHT_BEGIN
1070
    46
1040
8.0
1000
ACAD_MTEXT_DEFINED_HEIGHT_END
  0
LINE
  5
412F
330
A
100
AcDbEntity
  8
MODEL
100
AcDbLine
 10
138.1788369928462
 20
392.5276287897782
 30
0.0
 11
139.5930465971095
 21
392.5276287897782
 31
0.0
  0
LINE
  5
4130
330
A
100
AcDbEntity
  8
MODEL
100
AcDbLine
 10
139.5930465971095
 20
392.5276287897782
 30
0.0
 11
273.943338981734
 21
392.5276287897782
 31
0.0
  0
LINE
  5
4131
330
A
100
AcDbEntity
  8
MODEL
100
AcDbLine
 10
273.943338981734
 20
392.5276287897782
 30
0.0
 11
311.0664454017741
 21
392.5276287897782
 31
0.0
  0
LINE
  5
4132
330
A
100
AcDbEntity
  8
MODEL
100
AcDbLine
 10
311.0664454017741
 20
405.0276299073653
 30
0.0
 11
311.0664454017741
 21
392.5276287897782
 31
0.0
  0
POINT
  5
4134
330
A
100
AcDbEntity
  8
_0-1_
 62
     7
100
AcDbPoint
 10
1482.787298134534
 20
544.6195069744432
 30
0.0
  0
POINT
  5
4135
330
A
100
AcDbEntity
  8
_0-1_
 62
     7
100
AcDbPoint
 10
1290.787296465604
 20
544.6195069744432
 30
0.0
  0
POINT
  5
413A
330
A
100
AcDbEntity
  8
_0-1_
 62
     7
100
AcDbPoint
 10
1532.787298134534
 20
395.7059867073341
 30
0.0
  0
POINT
  5
413B
330
A
100
AcDbEntity
  8
_0-1_
 62
     7
100
AcDbPoint
 10
1532.787298134534
 20
320.7059883760004
 30
0.0
  0
POINT
  5
4140
330
A
100
AcDbEntity
  8
_0-1_
 62
     7
100
AcDbPoint
 10
1073.761094224924
 20
714.1223100526432
 30
0.0
  0
POINT
  5
4141
330
A
100
AcDbEntity
  8
_0-1_
 62
     7
100
AcDbPoint
 10
1209.525594351167
 20
578.3578099264006
 30
0.0
  0
LINE
  5
4143
102
{ACAD_REACTORS
330
441B
102
}
330
A
100
AcDbEntity
  8
MODEL
100
AcDbLine
 10
229.8047432873369
 20
650.1794512637866
 30
0.0
 11
254.7195075042426
 21
675.0942154806924
 31
0.0
  0
POINT
  5
4146
330
A
100
AcDbEntity
  8
_0-1_
 62
     7
100
AcDbPoint
 10
1508.110527333275
 20
345.7059887562438
 30
0.0
  0
POINT
  5
4147
330
A
100
AcDbEntity
  8
_0-1_
 62
     7
100
AcDbPoint
 10
1508.110527333275
 20
320.7059874523922
 30
0.0
  0
LINE
  5
414D
330
A
100
AcDbEntity
  8
MODEL
100
AcDbLine
 10
663.2697331882081
 20
810.5209937104937
 30
0.0
 11
664.269735214766
 21
810.5209937104937
 31
0.0
  0
LINE
  5
414E
330
A
100
AcDbEntity
  8
MODEL
100
AcDbLine
 10
664.269735214766
 20
826.4863511333224
 30
0.0
 11
663.2697331882081
 21
826.4863511333224
 31
0.0
  0
LINE
  5
414F
330
A
100
AcDbEntity
  8
MODEL
100
AcDbLine
 10
663.2697331882081
 20
795.4949756870028
 30
0.0
 11
664.269735214766
 21
795.4949756870028
 31
0.0
  0
LINE
  5
4150
330
A
100
AcDbEntity
  8
MODEL
100
AcDbLine
 10
671.8781787133775
 20
669.9411479542014
 30
0.0
 11
672.5197333074174
 21
669.2995933601615
 31
0.0
  0
LINE
  5
4151
330
A
100
AcDbEntity
  8
MODEL
100
AcDbLine
 10
677.0197349763474
 20
669.2995933601615
 30
0.0
 11
677.6612895703873
 21
669.9411479542014
 31
0.0
  0
LINE
  5
4152
330
A
100
AcDbEntity
  8
MODEL
100
AcDbLine
 10
714.2697331658563
 20
830.0825452217814
 30
0.0
 11
714.2697331658563
 21
828.6683281669375
 31
0.0
  0
LINE
  5
4153
330
A
100
AcDbEntity
  8
MODEL
100
AcDbLine
 10
739.2697344697079
 20
828.6683281669375
 30
0.0
 11
739.2697344697079
 21
830.0825452217814
 31
0.0
  0
LINE
  5
4154
330
A
100
AcDbEntity
  8
MODEL
100
AcDbLine
 10
714.2969398922286
 20
830.6653892407176
 30
0.0
 11
664.269735214766
 21
830.6653892407176
 31
0.0
  0
LINE
  5
4155
330
A
100
AcDbEntity
  8
MODEL
100
AcDbLine
 10
664.269735214766
 20
791.3159375796076
 30
0.0
 11
717.769733739551
 21
791.3159375796076
 31
0.0
  0
LINE
  5
4156
330
A
100
AcDbEntity
  8
MODEL
100
AcDbLine
 10
714.2697331658563
 20
791.3159375796076
 30
0.0
 11
714.2697331658563
 21
694.3180432328932
 31
0.0
  0
LINE
  5
4157
330
A
100
AcDbEntity
  8
MODEL
100
AcDbLine
 10
714.2697331658563
 20
828.6683281669375
 30
0.0
 11
714.2697331658563
 21
824.425691903567
 31
0.0
  0
LINE
  5
4158
330
A
100
AcDbEntity
  8
MODEL
100
AcDbLine
 10
739.2697344697079
 20
694.3180432328932
 30
0.0
 11
739.2697344697079
 21
828.6683281669375
 31
0.0
  0
LINE
  5
4159
330
A
100
AcDbEntity
  8
MODEL
100
AcDbLine
 10
714.2697331658563
 20
694.3180432328932
 30
0.0
 11
714.2697331658563
 21
678.9411475667712
 31
0.0
  0
LINE
  5
415A
330
A
100
AcDbEntity
  8
MODEL
100
AcDbLine
 10
739.2697344697079
 20
678.9411475667712
 30
0.0
 11
739.2697344697079
 21
694.3180432328932
 31
0.0
  0
LINE
  5
415B
330
A
100
AcDbEntity
  8
MODEL
100
AcDbLine
 10
663.2697331882081
 20
673.691148103213
 30
0.0
 11
664.269735214766
 21
673.691148103213
 31
0.0
  0
LINE
  5
415C
330
A
100
AcDbEntity
  8
MODEL
100
AcDbLine
 10
663.2697331882081
 20
673.691148103213
 30
0.0
 11
663.2697331882081
 21
684.1911470303294
 31
0.0
  0
LINE
  5
415D
330
A
100
AcDbEntity
  8
MODEL
100
AcDbLine
 10
664.269735214766
 20
684.1911470303294
 30
0.0
 11
663.2697331882081
 21
684.1911470303294
 31
0.0
  0
LINE
  5
415E
330
A
100
AcDbEntity
  8
MODEL
100
AcDbLine
 10
663.2697331882081
 20
685.1911490568873
 30
0.0
 11
664.269735214766
 21
685.1911490568873
 31
0.0
  0
LINE
  5
415F
330
A
100
AcDbEntity
  8
MODEL
100
AcDbLine
 10
663.2697331882081
 20
684.1911470303294
 30
0.0
 11
663.2697331882081
 21
685.1911490568873
 31
0.0
  0
LINE
  5
4160
330
A
100
AcDbEntity
  8
MODEL
100
AcDbLine
 10
664.269735214766
 20
672.6911498019454
 30
0.0
 11
663.2697331882081
 21
672.6911498019454
 31
0.0
  0
LINE
  5
4161
330
A
100
AcDbEntity
  8
MODEL
100
AcDbLine
 10
663.2697331882081
 20
672.6911498019454
 30
0.0
 11
663.2697331882081
 21
673.691148103213
 31
0.0
  0
LINE
  5
4162
330
A
100
AcDbEntity
  8
MODEL
100
AcDbLine
 10
663.2697331882081
 20
818.7688385853526
 30
0.0
 11
664.269735214766
 21
818.7688385853526
 31
0.0
  0
LINE
  5
4163
330
A
100
AcDbEntity
  8
MODEL
100
AcDbLine
 10
664.269735214766
 20
817.3546215305087
 30
0.0
 11
663.2697331882081
 21
817.3546215305087
 31
0.0
  0
LINE
  5
4164
330
A
100
AcDbEntity
  8
MODEL
100
AcDbLine
 10
663.2697331882081
 20
817.3546215305087
 30
0.0
 11
663.2697331882081
 21
818.7688385853526
 31
0.0
  0
LINE
  5
4165
330
A
100
AcDbEntity
  8
MODEL
100
AcDbLine
 10
663.2697331882081
 20
810.8138834843394
 30
0.0
 11
664.269735214766
 21
810.8138834843394
 31
0.0
  0
LINE
  5
4166
330
A
100
AcDbEntity
  8
MODEL
100
AcDbLine
 10
663.2697331882081
 20
810.8138834843394
 30
0.0
 11
663.2697331882081
 21
817.3546215305087
 31
0.0
  0
LINE
  5
4167
330
A
100
AcDbEntity
  8
MODEL
100
AcDbLine
 10
664.269735214766
 20
826.1934539088961
 30
0.0
 11
663.2697331882081
 21
826.1934539088961
 31
0.0
  0
LINE
  5
4168
330
A
100
AcDbEntity
  8
MODEL
100
AcDbLine
 10
663.2697331882081
 20
818.7688385853526
 30
0.0
 11
663.2697331882081
 21
826.1934539088961
 31
0.0
  0
LINE
  5
4169
330
A
100
AcDbEntity
  8
MODEL
100
AcDbLine
 10
663.2697331882081
 20
810.5209937104937
 30
0.0
 11
663.2697331882081
 21
810.8138834843394
 31
0.0
  0
LINE
  5
416A
330
A
100
AcDbEntity
  8
MODEL
100
AcDbLine
 10
663.2697331882081
 20
826.1934539088961
 30
0.0
 11
663.2697331882081
 21
826.4863511333224
 31
0.0
  0
LINE
  5
416B
330
A
100
AcDbEntity
  8
MODEL
100
AcDbLine
 10
663.2697331882081
 20
805.157030166125
 30
0.0
 11
664.269735214766
 21
805.157030166125
 31
0.0
  0
LINE
  5
416C
330
A
100
AcDbEntity
  8
MODEL
100
AcDbLine
 10
663.2697331882081
 20
805.157030166125
 30
0.0
 11
663.2697331882081
 21
810.5209937104937
 31
0.0
  0
LINE
  5
416D
330
A
100
AcDbEntity
  8
MODEL
100
AcDbLine
 10
664.269735214766
 20
803.7428205618617
 30
0.0
 11
663.2697331882081
 21
803.7428205618617
 31
0.0
  0
LINE
  5
416E
330
A
100
AcDbEntity
  8
MODEL
100
AcDbLine
 10
664.269735214766
 20
802.3286035070178
 30
0.0
 11
663.2697331882081
 21
802.3286035070178
 31
0.0
  0
LINE
  5
416F
330
A
100
AcDbEntity
  8
MODEL
100
AcDbLine
 10
663.2697331882081
 20
802.3286035070178
 30
0.0
 11
663.2697331882081
 21
803.7428205618617
 31
0.0
  0
LINE
  5
4170
330
A
100
AcDbEntity
  8
MODEL
100
AcDbLine
 10
663.2697331882081
 20
803.7428205618617
 30
0.0
 11
663.2697331882081
 21
805.157030166125
 31
0.0
  0
LINE
  5
4171
330
A
100
AcDbEntity
  8
MODEL
100
AcDbLine
 10
663.2697331882081
 20
795.7878654608485
 30
0.0
 11
664.269735214766
 21
795.7878654608485
 31
0.0
  0
LINE
  5
4172
330
A
100
AcDbEntity
  8
MODEL
100
AcDbLine
 10
663.2697331882081
 20
795.7878654608485
 30
0.0
 11
663.2697331882081
 21
802.3286035070178
 31
0.0
  0
LINE
  5
4173
330
A
100
AcDbEntity
  8
MODEL
100
AcDbLine
 10
663.2697331882081
 20
795.4949756870028
 30
0.0
 11
663.2697331882081
 21
795.7878654608485
 31
0.0
  0
LINE
  5
4174
330
A
100
AcDbEntity
  8
MODEL
100
AcDbLine
 10
671.7772941268048
 20
804.5254071960208
 30
0.0
 11
671.8088659620843
 21
805.0174435386416
 31
0.0
  0
LINE
  5
4175
330
A
100
AcDbEntity
  8
MODEL
100
AcDbLine
 10
671.8088659620843
 20
805.0174435386416
 30
0.0
 11
672.0000590360722
 21
805.4910620460269
 31
0.0
  0
LINE
  5
4176
330
A
100
AcDbEntity
  8
MODEL
100
AcDbLine
 10
672.0000590360722
 20
805.4910620460269
 30
0.0
 11
672.3405654705128
 21
805.920744479632
 31
0.0
  0
LINE
  5
4177
330
A
100
AcDbEntity
  8
MODEL
100
AcDbLine
 10
672.3405654705128
 20
805.920744479632
 30
0.0
 11
672.8120270348153
 21
806.2833120832202
 31
0.0
  0
LINE
  5
4178
330
A
100
AcDbEntity
  8
MODEL
100
AcDbLine
 10
672.8120270348153
 20
806.2833120832202
 30
0.0
 11
673.3890335238538
 21
806.559229434466
 31
0.0
  0
LINE
  5
4179
330
A
100
AcDbEntity
  8
MODEL
100
AcDbLine
 10
673.3890335238538
 20
806.559229434466
 30
0.0
 11
674.0404713130555
 21
806.7336177239176
 31
0.0
  0
LINE
  5
417A
330
A
100
AcDbEntity
  8
MODEL
100
AcDbLine
 10
674.0404713130555
 20
806.7336177239176
 30
0.0
 11
674.7312220907769
 21
806.797066868281
 31
0.0
  0
LINE
  5
417B
330
A
100
AcDbEntity
  8
MODEL
100
AcDbLine
 10
674.7312220907769
 20
806.797066868281
 30
0.0
 11
675.4240515804848
 21
806.7461719522234
 31
0.0
  0
LINE
  5
417C
330
A
100
AcDbEntity
  8
MODEL
100
AcDbLine
 10
675.4240515804848
 20
806.7461719522234
 30
0.0
 11
676.0816062963567
 21
806.583667338824
 31
0.0
  0
LINE
  5
417D
330
A
100
AcDbEntity
  8
MODEL
100
AcDbLine
 10
676.0816062963567
 20
806.583667338824
 30
0.0
 11
676.6684363759122
 21
806.3183223614451
 31
0.0
  0
LINE
  5
417E
330
A
100
AcDbEntity
  8
MODEL
100
AcDbLine
 10
676.6684363759122
 20
806.3183223614451
 30
0.0
 11
677.1529066539368
 21
805.9644272336718
 31
0.0
  0
LINE
  5
417F
330
A
100
AcDbEntity
  8
MODEL
100
AcDbLine
 10
677.1529066539368
 20
805.9644272336718
 30
0.0
 11
677.5089028454385
 21
805.5410703429934
 31
0.0
  0
LINE
  5
4180
330
A
100
AcDbEntity
  8
MODEL
100
AcDbLine
 10
677.5089028454385
 20
805.5410703429934
 30
0.0
 11
677.7172248042187
 21
805.0710728177783
 31
0.0
  0
LINE
  5
4181
330
A
100
AcDbEntity
  8
MODEL
100
AcDbLine
 10
677.7172248042187
 20
805.0710728177783
 30
0.0
 11
677.7666519558987
 21
804.5797740826365
 31
0.0
  0
LINE
  5
4182
330
A
100
AcDbEntity
  8
MODEL
100
AcDbLine
 10
677.7666519558987
 20
804.5797740826365
 30
0.0
 11
677.6545095420441
 21
804.0936609515902
 31
0.0
  0
LINE
  5
4183
330
A
100
AcDbEntity
  8
MODEL
100
AcDbLine
 10
677.6545095420441
 20
804.0936609515902
 30
0.0
 11
677.38685115939
 21
803.6389371165988
 31
0.0
  0
LINE
  5
4184
330
A
100
AcDbEntity
  8
MODEL
100
AcDbLine
 10
677.38685115939
 20
803.6389371165988
 30
0.0
 11
676.9781011319718
 21
803.240114987826
 31
0.0
  0
LINE
  5
4185
330
A
100
AcDbEntity
  8
MODEL
100
AcDbLine
 10
676.9781011319718
 20
803.240114987826
 30
0.0
 11
676.4502982771954
 21
802.9186969408747
 31
0.0
  0
LINE
  5
4186
330
A
100
AcDbEntity
  8
MODEL
100
AcDbLine
 10
676.4502982771954
 20
802.9186969408747
 30
0.0
 11
675.8318963623605
 21
802.6920130262133
 31
0.0
  0
LINE
  5
4187
330
A
100
AcDbEntity
  8
MODEL
100
AcDbLine
 10
675.8318963623605
 20
802.6920130262133
 30
0.0
 11
675.1562330103478
 21
802.5722821960208
 31
0.0
  0
LINE
  5
4188
330
A
100
AcDbEntity
  8
MODEL
100
AcDbLine
 10
675.1562330103478
 20
802.5722821960208
 30
0.0
 11
674.4597341096959
 21
802.565956653094
 31
0.0
  0
LINE
  5
4189
330
A
100
AcDbEntity
  8
MODEL
100
AcDbLine
 10
674.4597341096959
 20
802.565956653094
 30
0.0
 11
673.7799468613229
 21
802.673386574721
 31
0.0
  0
LINE
  5
418A
330
A
100
AcDbEntity
  8
MODEL
100
AcDbLine
 10
673.7799468613229
 20
802.673386574721
 30
0.0
 11
673.1535169458947
 21
802.8887679586169
 31
0.0
  0
LINE
  5
418B
330
A
100
AcDbEntity
  8
MODEL
100
AcDbLine
 10
673.1535169458947
 20
802.8887679586169
 30
0.0
 11
672.6142215705476
 21
803.2005002507922
 31
0.0
  0
LINE
  5
418C
330
A
100
AcDbEntity
  8
MODEL
100
AcDbLine
 10
672.6142215705476
 20
803.2005002507922
 30
0.0
 11
672.19112545019
 21
803.5917674908396
 31
0.0
  0
LINE
  5
418D
330
A
100
AcDbEntity
  8
MODEL
100
AcDbLine
 10
672.19112545019
 20
803.5917674908396
 30
0.0
 11
671.9070459879002
 21
804.04148453567
 31
0.0
  0
LINE
  5
418E
330
A
100
AcDbEntity
  8
MODEL
100
AcDbLine
 10
671.9070459879002
 20
804.04148453567
 30
0.0
 11
671.7772941268048
 21
804.5254071960208
 31
0.0
  0
LINE
  5
418F
330
A
100
AcDbEntity
  8
MODEL
100
AcDbLine
 10
672.5254031992516
 20
804.0327077517268
 30
0.0
 11
672.643196878489
 21
803.625809193587
 31
0.0
  0
LINE
  5
4190
330
A
100
AcDbEntity
  8
MODEL
100
AcDbLine
 10
672.643196878489
 20
803.625809193587
 30
0.0
 11
672.9059118009171
 21
803.2543381461855
 31
0.0
  0
LINE
  5
4191
330
A
100
AcDbEntity
  8
MODEL
100
AcDbLine
 10
672.9059118009171
 20
803.2543381461855
 30
0.0
 11
673.2956442213616
 21
802.9436042318102
 31
0.0
  0
LINE
  5
4192
330
A
100
AcDbEntity
  8
MODEL
100
AcDbLine
 10
673.2956442213616
 20
802.9436042318102
 30
0.0
 11
673.7858290947041
 21
802.7147820005175
 31
0.0
  0
LINE
  5
4193
330
A
100
AcDbEntity
  8
MODEL
100
AcDbLine
 10
673.7858290947041
 20
802.7147820005175
 30
0.0
 11
674.343069193419
 21
802.5834729680773
 31
0.0
  0
LINE
  5
4194
330
A
100
AcDbEntity
  8
MODEL
100
AcDbLine
 10
674.343069193419
 20
802.5834729680773
 30
0.0
 11
674.929381457623
 21
802.558617831206
 31
0.0
  0
LINE
  5
4195
330
A
100
AcDbEntity
  8
MODEL
100
AcDbLine
 10
674.929381457623
 20
802.558617831206
 30
0.0
 11
675.5048195994458
 21
802.641907871699
 31
0.0
  0
LINE
  5
4196
330
A
100
AcDbEntity
  8
MODEL
100
AcDbLine
 10
675.5048195994458
 20
802.641907871699
 30
0.0
 11
676.0301600373349
 21
802.8276731977221
 31
0.0
  0
LINE
  5
4197
330
A
100
AcDbEntity
  8
MODEL
100
AcDbLine
 10
676.0301600373349
 20
802.8276731977221
 30
0.0
 11
676.4696027315221
 21
803.1032552728411
 31
0.0
  0
LINE
  5
4198
330
A
100
AcDbEntity
  8
MODEL
100
AcDbLine
 10
676.4696027315221
 20
803.1032552728411
 30
0.0
 11
676.7932037985883
 21
803.4498711833712
 31
0.0
  0
LINE
  5
4199
330
A
100
AcDbEntity
  8
MODEL
100
AcDbLine
 10
676.7932037985883
 20
803.4498711833712
 30
0.0
 11
676.9789095199666
 21
803.8438951382395
 31
0.0
  0
LINE
  5
419A
330
A
100
AcDbEntity
  8
MODEL
100
AcDbLine
 10
676.9789095199666
 20
803.8438951382395
 30
0.0
 11
677.0140613592229
 21
804.2584826955554
 31
0.0
  0
LINE
  5
419B
330
A
100
AcDbEntity
  8
MODEL
100
AcDbLine
 10
677.0140613592229
 20
804.2584826955554
 30
0.0
 11
676.8962676799855
 21
804.6653738031146
 31
0.0
  0
LINE
  5
419C
330
A
100
AcDbEntity
  8
MODEL
100
AcDbLine
 10
676.8962676799855
 20
804.6653738031146
 30
0.0
 11
676.6335564828477
 21
805.0368523010966
 31
0.0
  0
LINE
  5
419D
330
A
100
AcDbEntity
  8
MODEL
100
AcDbLine
 10
676.6335564828477
 20
805.0368523010966
 30
0.0
 11
676.2438240624032
 21
805.3475862154719
 31
0.0
  0
LINE
  5
419E
330
A
100
AcDbEntity
  8
MODEL
100
AcDbLine
 10
676.2438240624032
 20
805.3475862154719
 30
0.0
 11
675.7536391890607
 21
805.576400996184
 31
0.0
  0
LINE
  5
419F
330
A
100
AcDbEntity
  8
MODEL
100
AcDbLine
 10
675.7536391890607
 20
805.576400996184
 30
0.0
 11
675.1963990903458
 21
805.7077174792048
 31
0.0
  0
LINE
  5
41A0
330
A
100
AcDbEntity
  8
MODEL
100
AcDbLine
 10
675.1963990903458
 20
805.7077174792048
 30
0.0
 11
674.6100831008515
 21
805.7325726160761
 31
0.0
  0
LINE
  5
41A1
330
A
100
AcDbEntity
  8
MODEL
100
AcDbLine
 10
674.6100831008515
 20
805.7325726160761
 30
0.0
 11
674.034648684319
 21
805.6492825755831
 31
0.0
  0
LINE
  5
41A2
330
A
100
AcDbEntity
  8
MODEL
100
AcDbLine
 10
674.034648684319
 20
805.6492825755831
 30
0.0
 11
673.5093082464299
 21
805.46351724956
 31
0.0
  0
LINE
  5
41A3
330
A
100
AcDbEntity
  8
MODEL
100
AcDbLine
 10
673.5093082464299
 20
805.46351724956
 30
0.0
 11
673.0698655522427
 21
805.187935174441
 31
0.0
  0
LINE
  5
41A4
330
A
100
AcDbEntity
  8
MODEL
100
AcDbLine
 10
673.0698655522427
 20
805.187935174441
 30
0.0
 11
672.7462644851765
 21
804.8413192639109
 31
0.0
  0
LINE
  5
41A5
330
A
100
AcDbEntity
  8
MODEL
100
AcDbLine
 10
672.7462644851765
 20
804.8413192639109
 30
0.0
 11
672.5605587637982
 21
804.4472953090426
 31
0.0
  0
LINE
  5
41A6
330
A
100
AcDbEntity
  8
MODEL
100
AcDbLine
 10
672.5605587637982
 20
804.4472953090426
 30
0.0
 11
672.5254031992516
 21
804.0327077517268
 31
0.0
  0
LINE
  5
41A7
330
A
100
AcDbEntity
  8
MODEL
100
AcDbLine
 10
675.5271415389142
 20
805.2470331797358
 30
0.0
 11
673.7994599319062
 21
805.1601296076533
 31
0.0
  0
LINE
  5
41A8
330
A
100
AcDbEntity
  8
MODEL
100
AcDbLine
 10
673.7994599319062
 20
805.1601296076533
 30
0.0
 11
673.0420488095841
 21
804.0586953768488
 31
0.0
  0
LINE
  5
41A9
330
A
100
AcDbEntity
  8
MODEL
100
AcDbLine
 10
673.0420488095841
 20
804.0586953768488
 30
0.0
 11
674.0123230195603
 21
803.0441572675463
 31
0.0
  0
LINE
  5
41AA
330
A
100
AcDbEntity
  8
MODEL
100
AcDbLine
 10
674.0123230195603
 20
803.0441572675463
 30
0.0
 11
675.7400083518586
 21
803.1310608396288
 31
0.0
  0
LINE
  5
41AB
330
A
100
AcDbEntity
  8
MODEL
100
AcDbLine
 10
675.7400083518586
 20
803.1310608396288
 30
0.0
 11
676.4974194741807
 21
804.2324950704333
 31
0.0
  0
LINE
  5
41AC
330
A
100
AcDbEntity
  8
MODEL
100
AcDbLine
 10
676.4974194741807
 20
804.2324950704333
 30
0.0
 11
675.5271415389142
 21
805.2470331797358
 31
0.0
  0
LINE
  5
41AD
330
A
100
AcDbEntity
  8
MODEL
100
AcDbLine
 10
675.7400083518586
 20
805.0244545349833
 30
0.0
 11
675.7400083518586
 21
803.1310608396288
 31
0.0
  0
LINE
  5
41AE
330
A
100
AcDbEntity
  8
MODEL
100
AcDbLine
 10
674.0123230195603
 20
805.1708360919711
 30
0.0
 11
674.0123230195603
 21
803.0441572675463
 31
0.0
  0
LINE
  5
41AF
330
A
100
AcDbEntity
  8
MODEL
100
AcDbLine
 10
675.12330889469
 20
669.2995933601615
 30
0.0
 11
672.5197333074174
 21
669.2995933601615
 31
0.0
  0
LINE
  5
41B0
330
A
100
AcDbEntity
  8
MODEL
100
AcDbLine
 10
677.0197349763474
 20
669.2995933601615
 30
0.0
 11
675.12330889469
 21
669.2995933601615
 31
0.0
  0
LINE
  5
41B1
330
A
100
AcDbEntity
  8
MODEL
100
AcDbLine
 10
739.2697344697079
 20
830.0825452217814
 30
0.0
 11
739.1911364323458
 21
831.072183490729
 31
0.0
  0
LINE
  5
41B2
330
A
100
AcDbEntity
  8
MODEL
100
AcDbLine
 10
739.1911364323458
 20
831.072183490729
 30
0.0
 11
738.9563332474789
 21
832.0493718394991
 31
0.0
  0
LINE
  5
41B3
330
A
100
AcDbEntity
  8
MODEL
100
AcDbLine
 10
738.9563332474789
 20
832.0493718394991
 30
0.0
 11
738.5682753450236
 21
833.0018242606875
 31
0.0
  0
LINE
  5
41B4
330
A
100
AcDbEntity
  8
MODEL
100
AcDbLine
 10
738.5682753450236
 20
833.0018242606875
 30
0.0
 11
738.031844717916
 21
833.9175751218554
 31
0.0
  0
LINE
  5
41B5
330
A
100
AcDbEntity
  8
MODEL
100
AcDbLine
 10
738.031844717916
 20
833.9175751218554
 30
0.0
 11
737.3537860042414
 21
834.7850909242388
 31
0.0
  0
LINE
  5
41B6
330
A
100
AcDbEntity
  8
MODEL
100
AcDbLine
 10
737.3537860042414
 20
834.7850909242388
 30
0.0
 11
736.5426273248157
 21
835.5934714684245
 31
0.0
  0
LINE
  5
41B7
330
A
100
AcDbEntity
  8
MODEL
100
AcDbLine
 10
736.5426273248157
 20
835.5934714684245
 30
0.0
 11
735.608568524476
 21
836.3325467118975
 31
0.0
  0
LINE
  5
41B8
330
A
100
AcDbEntity
  8
MODEL
100
AcDbLine
 10
735.608568524476
 20
836.3325467118975
 30
0.0
 11
734.563356374856
 21
836.9930257806536
 31
0.0
  0
LINE
  5
41B9
330
A
100
AcDbEntity
  8
MODEL
100
AcDbLine
 10
734.563356374856
 20
836.9930257806536
 30
0.0
 11
733.4201346314511
 21
837.5666012773272
 31
0.0
  0
LINE
  5
41BA
330
A
100
AcDbEntity
  8
MODEL
100
AcDbLine
 10
733.4201346314511
 20
837.5666012773272
 30
0.0
 11
732.1932801208458
 21
838.0460610399005
 31
0.0
  0
LINE
  5
41BB
330
A
100
AcDbEntity
  8
MODEL
100
AcDbLine
 10
732.1932801208458
 20
838.0460610399005
 30
0.0
 11
730.8982220641336
 21
838.4253700980898
 31
0.0
  0
LINE
  5
41BC
330
A
100
AcDbEntity
  8
MODEL
100
AcDbLine
 10
730.8982220641336
 20
838.4253700980898
 30
0.0
 11
729.5512451021931
 21
838.6997749814745
 31
0.0
  0
LINE
  5
41BD
330
A
100
AcDbEntity
  8
MODEL
100
AcDbLine
 10
729.5512451021931
 20
838.6997749814745
 30
0.0
 11
728.1692895269952
 21
838.8658037194964
 31
0.0
  0
LINE
  5
41BE
330
A
100
AcDbEntity
  8
MODEL
100
AcDbLine
 10
728.1692895269952
 20
838.8658037194964
 30
0.0
 11
726.7697333521209
 21
838.9213776001689
 31
0.0
  0
LINE
  5
41BF
330
A
100
AcDbEntity
  8
MODEL
100
AcDbLine
 10
726.7697333521209
 20
838.9213776001689
 30
0.0
 11
725.3701776429078
 21
838.8658037194964
 31
0.0
  0
LINE
  5
41C0
330
A
100
AcDbEntity
  8
MODEL
100
AcDbLine
 10
725.3701776429078
 20
838.8658037194964
 30
0.0
 11
723.9882218348793
 21
838.6997749814745
 31
0.0
  0
LINE
  5
41C1
330
A
100
AcDbEntity
  8
MODEL
100
AcDbLine
 10
723.9882218348793
 20
838.6997749814745
 30
0.0
 11
722.6412452731164
 21
838.4253700980898
 31
0.0
  0
LINE
  5
41C2
330
A
100
AcDbEntity
  8
MODEL
100
AcDbLine
 10
722.6412452731164
 20
838.4253700980898
 30
0.0
 11
721.3461868162266
 21
838.0460610399005
 31
0.0
  0
LINE
  5
41C3
330
A
100
AcDbEntity
  8
MODEL
100
AcDbLine
 10
721.3461868162266
 20
838.0460610399005
 30
0.0
 11
720.1193325384519
 21
837.5666012773272
 31
0.0
  0
LINE
  5
41C4
330
A
100
AcDbEntity
  8
MODEL
100
AcDbLine
 10
720.1193325384519
 20
837.5666012773272
 30
0.0
 11
718.9761110278777
 21
836.9930257806536
 31
0.0
  0
LINE
  5
41C5
330
A
100
AcDbEntity
  8
MODEL
100
AcDbLine
 10
718.9761110278777
 20
836.9930257806536
 30
0.0
 11
717.930898645427
 21
836.3325467118975
 31
0.0
  0
LINE
  5
41C6
330
A
100
AcDbEntity
  8
MODEL
100
AcDbLine
 10
717.930898645427
 20
836.3325467118975
 30
0.0
 11
716.9968398450873
 21
835.5934714684245
 31
0.0
  0
LINE
  5
41C7
330
A
100
AcDbEntity
  8
MODEL
100
AcDbLine
 10
716.9968398450873
 20
835.5934714684245
 30
0.0
 11
716.1856811656615
 21
834.7850909242388
 31
0.0
  0
LINE
  5
41C8
330
A
100
AcDbEntity
  8
MODEL
100
AcDbLine
 10
716.1856811656615
 20
834.7850909242388
 30
0.0
 11
715.5076229176483
 21
833.9175751218554
 31
0.0
  0
LINE
  5
41C9
330
A
100
AcDbEntity
  8
MODEL
100
AcDbLine
 10
715.5076229176483
 20
833.9175751218554
 30
0.0
 11
714.9711918248794
 21
833.0018242606875
 31
0.0
  0
LINE
  5
41CA
330
A
100
AcDbEntity
  8
MODEL
100
AcDbLine
 10
714.9711918248794
 20
833.0018242606875
 30
0.0
 11
714.5831343880853
 21
832.0493718394991
 31
0.0
  0
LINE
  5
41CB
330
A
100
AcDbEntity
  8
MODEL
100
AcDbLine
 10
714.5831343880853
 20
832.0493718394991
 30
0.0
 11
714.3483312032184
 21
831.072183490729
 31
0.0
  0
LINE
  5
41CC
330
A
100
AcDbEntity
  8
MODEL
100
AcDbLine
 10
714.3483312032184
 20
831.072183490729
 30
0.0
 11
714.2697331658563
 21
830.0825452217814
 31
0.0
  0
LINE
  5
41CD
330
A
100
AcDbEntity
  8
MODEL
100
AcDbLine
 10
714.2697331658563
 20
830.0825452217814
 30
0.0
 11
714.3483312032184
 21
829.0929069528338
 31
0.0
  0
LINE
  5
41CE
330
A
100
AcDbEntity
  8
MODEL
100
AcDbLine
 10
714.3483312032184
 20
829.0929069528338
 30
0.0
 11
714.5831343880853
 21
828.1157186040637
 31
0.0
  0
LINE
  5
41CF
330
A
100
AcDbEntity
  8
MODEL
100
AcDbLine
 10
714.5831343880853
 20
828.1157186040637
 30
0.0
 11
714.9711918248794
 21
827.1632661828753
 31
0.0
  0
LINE
  5
41D0
330
A
100
AcDbEntity
  8
MODEL
100
AcDbLine
 10
714.9711918248794
 20
827.1632661828753
 30
0.0
 11
715.5076229176483
 21
826.2475153217074
 31
0.0
  0
LINE
  5
41D1
330
A
100
AcDbEntity
  8
MODEL
100
AcDbLine
 10
715.5076229176483
 20
826.2475153217074
 30
0.0
 11
716.1856811656615
 21
825.379999519324
 31
0.0
  0
LINE
  5
41D2
330
A
100
AcDbEntity
  8
MODEL
100
AcDbLine
 10
716.1856811656615
 20
825.379999519324
 30
0.0
 11
716.9968398450873
 21
824.5716189751383
 31
0.0
  0
LINE
  5
41D3
330
A
100
AcDbEntity
  8
MODEL
100
AcDbLine
 10
716.9968398450873
 20
824.5716189751383
 30
0.0
 11
717.930898645427
 21
823.8325437316653
 31
0.0
  0
LINE
  5
41D4
330
A
100
AcDbEntity
  8
MODEL
100
AcDbLine
 10
717.930898645427
 20
823.8325437316653
 30
0.0
 11
718.9761110278777
 21
823.1720646629092
 31
0.0
  0
LINE
  5
41D5
330
A
100
AcDbEntity
  8
MODEL
100
AcDbLine
 10
718.9761110278777
 20
823.1720646629092
 30
0.0
 11
720.1193325384519
 21
822.5984891662356
 31
0.0
  0
LINE
  5
41D6
330
A
100
AcDbEntity
  8
MODEL
100
AcDbLine
 10
720.1193325384519
 20
822.5984891662356
 30
0.0
 11
721.3461868162266
 21
822.1190294036624
 31
0.0
  0
LINE
  5
41D7
330
A
100
AcDbEntity
  8
MODEL
100
AcDbLine
 10
721.3461868162266
 20
822.1190294036624
 30
0.0
 11
722.6412452731164
 21
821.7397128948924
 31
0.0
  0
LINE
  5
41D8
330
A
100
AcDbEntity
  8
MODEL
100
AcDbLine
 10
722.6412452731164
 20
821.7397128948924
 30
0.0
 11
723.9882218348793
 21
821.4653154620883
 31
0.0
  0
LINE
  5
41D9
330
A
100
AcDbEntity
  8
MODEL
100
AcDbLine
 10
723.9882218348793
 20
821.4653154620883
 30
0.0
 11
725.3701776429078
 21
821.2992867240664
 31
0.0
  0
LINE
  5
41DA
330
A
100
AcDbEntity
  8
MODEL
100
AcDbLine
 10
725.3701776429078
 20
821.2992867240664
 30
0.0
 11
726.7697333521209
 21
821.243712843394
 31
0.0
  0
LINE
  5
41DB
330
A
100
AcDbEntity
  8
MODEL
100
AcDbLine
 10
726.7697333521209
 20
821.243712843394
 30
0.0
 11
728.1692895269952
 21
821.2992867240664
 31
0.0
  0
LINE
  5
41DC
330
A
100
AcDbEntity
  8
MODEL
100
AcDbLine
 10
728.1692895269952
 20
821.2992867240664
 30
0.0
 11
729.5512451021931
 21
821.4653154620883
 31
0.0
  0
LINE
  5
41DD
330
A
100
AcDbEntity
  8
MODEL
100
AcDbLine
 10
729.5512451021931
 20
821.4653154620883
 30
0.0
 11
730.8982220641336
 21
821.7397128948924
 31
0.0
  0
LINE
  5
41DE
330
A
100
AcDbEntity
  8
MODEL
100
AcDbLine
 10
730.8982220641336
 20
821.7397128948924
 30
0.0
 11
732.1932801208458
 21
822.1190294036624
 31
0.0
  0
LINE
  5
41DF
330
A
100
AcDbEntity
  8
MODEL
100
AcDbLine
 10
732.1932801208458
 20
822.1190294036624
 30
0.0
 11
733.4201346314511
 21
822.5984891662356
 31
0.0
  0
LINE
  5
41E0
330
A
100
AcDbEntity
  8
MODEL
100
AcDbLine
 10
733.4201346314511
 20
822.5984891662356
 30
0.0
 11
734.563356374856
 21
823.1720646629092
 31
0.0
  0
LINE
  5
41E1
330
A
100
AcDbEntity
  8
MODEL
100
AcDbLine
 10
734.563356374856
 20
823.1720646629092
 30
0.0
 11
735.608568524476
 21
823.8325437316653
 31
0.0
  0
LINE
  5
41E2
330
A
100
AcDbEntity
  8
MODEL
100
AcDbLine
 10
735.608568524476
 20
823.8325437316653
 30
0.0
 11
736.5426273248157
 21
824.5716189751383
 31
0.0
  0
LINE
  5
41E3
330
A
100
AcDbEntity
  8
MODEL
100
AcDbLine
 10
736.5426273248157
 20
824.5716189751383
 30
0.0
 11
737.3537860042414
 21
825.379999519324
 31
0.0
  0
LINE
  5
41E4
330
A
100
AcDbEntity
  8
MODEL
100
AcDbLine
 10
737.3537860042414
 20
825.379999519324
 30
0.0
 11
738.031844717916
 21
826.2475153217074
 31
0.0
  0
LINE
  5
41E5
330
A
100
AcDbEntity
  8
MODEL
100
AcDbLine
 10
738.031844717916
 20
826.2475153217074
 30
0.0
 11
738.5682753450236
 21
827.1632661828753
 31
0.0
  0
LINE
  5
41E6
330
A
100
AcDbEntity
  8
MODEL
100
AcDbLine
 10
738.5682753450236
 20
827.1632661828753
 30
0.0
 11
738.9563332474789
 21
828.1157186040637
 31
0.0
  0
LINE
  5
41E7
330
A
100
AcDbEntity
  8
MODEL
100
AcDbLine
 10
738.9563332474789
 20
828.1157186040637
 30
0.0
 11
739.1911364323458
 21
829.0929069528338
 31
0.0
  0
LINE
  5
41E8
330
A
100
AcDbEntity
  8
MODEL
100
AcDbLine
 10
739.1911364323458
 20
829.0929069528338
 30
0.0
 11
739.2697344697079
 21
830.0825452217814
 31
0.0
  0
LINE
  5
41E9
330
A
100
AcDbEntity
  8
MODEL
100
AcDbLine
 10
714.2697331658563
 20
828.6683281669375
 30
0.0
 11
714.3483312032184
 21
827.6786973485705
 31
0.0
  0
LINE
  5
41EA
330
A
100
AcDbEntity
  8
MODEL
100
AcDbLine
 10
714.3483312032184
 20
827.6786973485705
 30
0.0
 11
714.5831343880853
 21
826.7015089998004
 31
0.0
  0
LINE
  5
41EB
330
A
100
AcDbEntity
  8
MODEL
100
AcDbLine
 10
714.5831343880853
 20
826.7015089998004
 30
0.0
 11
714.9711918248794
 21
825.7490491280314
 31
0.0
  0
LINE
  5
41EC
330
A
100
AcDbEntity
  8
MODEL
100
AcDbLine
 10
714.9711918248794
 20
825.7490491280314
 30
0.0
 11
715.5076229176483
 21
824.8333057174441
 31
0.0
  0
LINE
  5
41ED
330
A
100
AcDbEntity
  8
MODEL
100
AcDbLine
 10
715.5076229176483
 20
824.8333057174441
 30
0.0
 11
716.1856811656615
 21
823.9657899150607
 31
0.0
  0
LINE
  5
41EE
330
A
100
AcDbEntity
  8
MODEL
100
AcDbLine
 10
716.1856811656615
 20
823.9657899150607
 30
0.0
 11
716.9968398450873
 21
823.157409370875
 31
0.0
  0
LINE
  5
41EF
330
A
100
AcDbEntity
  8
MODEL
100
AcDbLine
 10
716.9968398450873
 20
823.157409370875
 30
0.0
 11
717.930898645427
 21
822.418334127402
 31
0.0
  0
LINE
  5
41F0
330
A
100
AcDbEntity
  8
MODEL
100
AcDbLine
 10
717.930898645427
 20
822.418334127402
 30
0.0
 11
718.9761110278777
 21
821.7578550586459
 31
0.0
  0
LINE
  5
41F1
330
A
100
AcDbEntity
  8
MODEL
100
AcDbLine
 10
718.9761110278777
 20
821.7578550586459
 30
0.0
 11
720.1193325384519
 21
821.1842795619723
 31
0.0
  0
LINE
  5
41F2
330
A
100
AcDbEntity
  8
MODEL
100
AcDbLine
 10
720.1193325384519
 20
821.1842795619723
 30
0.0
 11
721.3461868162266
 21
820.704819799399
 31
0.0
  0
LINE
  5
41F3
330
A
100
AcDbEntity
  8
MODEL
100
AcDbLine
 10
721.3461868162266
 20
820.704819799399
 30
0.0
 11
722.6412452731164
 21
820.3255032906291
 31
0.0
  0
LINE
  5
41F4
330
A
100
AcDbEntity
  8
MODEL
100
AcDbLine
 10
722.6412452731164
 20
820.3255032906291
 30
0.0
 11
723.9882218348793
 21
820.051105857825
 31
0.0
  0
LINE
  5
41F5
330
A
100
AcDbEntity
  8
MODEL
100
AcDbLine
 10
723.9882218348793
 20
820.051105857825
 30
0.0
 11
725.3701776429078
 21
819.8850696692225
 31
0.0
  0
LINE
  5
41F6
330
A
100
AcDbEntity
  8
MODEL
100
AcDbLine
 10
725.3701776429078
 20
819.8850696692225
 30
0.0
 11
726.7697333521209
 21
819.82949578855
 31
0.0
  0
LINE
  5
41F7
330
A
100
AcDbEntity
  8
MODEL
100
AcDbLine
 10
726.7697333521209
 20
819.82949578855
 30
0.0
 11
728.1692895269952
 21
819.8850696692225
 31
0.0
  0
LINE
  5
41F8
330
A
100
AcDbEntity
  8
MODEL
100
AcDbLine
 10
728.1692895269952
 20
819.8850696692225
 30
0.0
 11
729.5512451021931
 21
820.051105857825
 31
0.0
  0
LINE
  5
41F9
330
A
100
AcDbEntity
  8
MODEL
100
AcDbLine
 10
729.5512451021931
 20
820.051105857825
 30
0.0
 11
730.8982220641336
 21
820.3255032906291
 31
0.0
  0
LINE
  5
41FA
330
A
100
AcDbEntity
  8
MODEL
100
AcDbLine
 10
730.8982220641336
 20
820.3255032906291
 30
0.0
 11
732.1932801208458
 21
820.704819799399
 31
0.0
  0
LINE
  5
41FB
330
A
100
AcDbEntity
  8
MODEL
100
AcDbLine
 10
732.1932801208458
 20
820.704819799399
 30
0.0
 11
733.4201346314511
 21
821.1842795619723
 31
0.0
  0
LINE
  5
41FC
330
A
100
AcDbEntity
  8
MODEL
100
AcDbLine
 10
733.4201346314511
 20
821.1842795619723
 30
0.0
 11
734.563356374856
 21
821.7578550586459
 31
0.0
  0
LINE
  5
41FD
330
A
100
AcDbEntity
  8
MODEL
100
AcDbLine
 10
734.563356374856
 20
821.7578550586459
 30
0.0
 11
735.608568524476
 21
822.418334127402
 31
0.0
  0
LINE
  5
41FE
330
A
100
AcDbEntity
  8
MODEL
100
AcDbLine
 10
735.608568524476
 20
822.418334127402
 30
0.0
 11
736.5426273248157
 21
823.157409370875
 31
0.0
  0
LINE
  5
41FF
330
A
100
AcDbEntity
  8
MODEL
100
AcDbLine
 10
736.5426273248157
 20
823.157409370875
 30
0.0
 11
737.3537860042414
 21
823.9657899150607
 31
0.0
  0
LINE
  5
4200
330
A
100
AcDbEntity
  8
MODEL
100
AcDbLine
 10
737.3537860042414
 20
823.9657899150607
 30
0.0
 11
738.031844717916
 21
824.8333057174441
 31
0.0
  0
LINE
  5
4201
330
A
100
AcDbEntity
  8
MODEL
100
AcDbLine
 10
738.031844717916
 20
824.8333057174441
 30
0.0
 11
738.5682753450236
 21
825.7490491280314
 31
0.0
  0
LINE
  5
4202
330
A
100
AcDbEntity
  8
MODEL
100
AcDbLine
 10
738.5682753450236
 20
825.7490491280314
 30
0.0
 11
738.9563332474789
 21
826.7015089998004
 31
0.0
  0
LINE
  5
4203
330
A
100
AcDbEntity
  8
MODEL
100
AcDbLine
 10
738.9563332474789
 20
826.7015089998004
 30
0.0
 11
739.1911364323458
 21
827.6786973485705
 31
0.0
  0
LINE
  5
4204
330
A
100
AcDbEntity
  8
MODEL
100
AcDbLine
 10
739.1911364323458
 20
827.6786973485705
 30
0.0
 11
739.2697344697079
 21
828.6683281669375
 31
0.0
  0
LINE
  5
4205
330
A
100
AcDbEntity
  8
MODEL
100
AcDbLine
 10
664.269735214766
 20
670.2411493072268
 30
0.0
 11
717.769733739551
 21
670.2411493072268
 31
0.0
  0
LINE
  5
4206
330
A
100
AcDbEntity
  8
MODEL
100
AcDbLine
 10
664.269735214766
 20
687.6411495516058
 30
0.0
 11
664.269735214766
 21
670.2411493072268
 31
0.0
  0
LINE
  5
4207
330
A
100
AcDbEntity
  8
MODEL
100
AcDbLine
 10
717.769733739551
 20
670.2664738306757
 30
0.0
 11
717.769733739551
 21
670.2411493072268
 31
0.0
  0
LINE
  5
4208
330
A
100
AcDbEntity
  8
MODEL
100
AcDbLine
 10
717.769733739551
 20
669.9411479542014
 30
0.0
 11
664.269735214766
 21
669.9411479542014
 31
0.0
  0
LINE
  5
4209
330
A
100
AcDbEntity
  8
MODEL
100
AcDbLine
 10
664.269735214766
 20
669.9411479542014
 30
0.0
 11
664.269735214766
 21
670.2411493072268
 31
0.0
  0
LINE
  5
420A
330
A
100
AcDbEntity
  8
MODEL
100
AcDbLine
 10
717.769733739551
 20
670.2411493072268
 30
0.0
 11
717.769733739551
 21
669.9411479542014
 31
0.0
  0
LINE
  5
420B
330
A
100
AcDbEntity
  8
MODEL
100
AcDbLine
 10
664.269735214766
 20
687.6411495516058
 30
0.0
 11
664.269735214766
 21
687.941147179341
 31
0.0
  0
LINE
  5
420C
330
A
100
AcDbEntity
  8
MODEL
100
AcDbLine
 10
664.269735214766
 20
687.941147179341
 30
0.0
 11
714.2697331658563
 21
687.941147179341
 31
0.0
  0
LINE
  5
420D
330
A
100
AcDbEntity
  8
MODEL
100
AcDbLine
 10
717.769733739551
 20
817.8496008524653
 30
0.0
 11
664.269735214766
 21
817.8496008524653
 31
0.0
  0
LINE
  5
420E
330
A
100
AcDbEntity
  8
MODEL
100
AcDbLine
 10
664.269735214766
 20
818.2738592633959
 30
0.0
 11
717.769733739551
 21
818.2738592633959
 31
0.0
  0
LINE
  5
420F
330
A
100
AcDbEntity
  8
MODEL
100
AcDbLine
 10
717.769733739551
 20
818.2738592633959
 30
0.0
 11
717.769733739551
 21
817.8496008524653
 31
0.0
  0
LINE
  5
4210
330
A
100
AcDbEntity
  8
MODEL
100
AcDbLine
 10
664.269735214766
 20
817.8496008524653
 30
0.0
 11
664.269735214766
 21
818.2738592633959
 31
0.0
  0
ARC
  5
4211
330
A
100
AcDbEntity
  8
MODEL
100
AcDbCircle
 10
721.8677728536635
 20
824.6956081602743
 30
0.0
 40
7.602832490797724
100
AcDbArc
 50
182.0345460562845
 51
237.3834039080293
  0
LINE
  5
4212
330
A
100
AcDbEntity
  8
MODEL
100
AcDbLine
 10
717.769733739551
 20
818.2917704591509
 30
0.0
 11
717.769733739551
 21
818.2738592633959
 31
0.0
  0
LINE
  5
4213
330
A
100
AcDbEntity
  8
MODEL
100
AcDbLine
 10
664.269735214766
 20
830.5775170931574
 30
0.0
 11
664.269735214766
 21
818.2738592633959
 31
0.0
  0
LINE
  5
4214
330
A
100
AcDbEntity
  8
MODEL
100
AcDbLine
 10
671.7697317874989
 20
804.6266978392359
 30
0.0
 11
671.8506003892979
 21
804.1374927172419
 31
0.0
  0
LINE
  5
4215
330
A
100
AcDbEntity
  8
MODEL
100
AcDbLine
 10
671.8506003892979
 20
804.1374927172419
 30
0.0
 11
672.0888364291749
 21
803.6746551999804
 31
0.0
  0
LINE
  5
4216
330
A
100
AcDbEntity
  8
MODEL
100
AcDbLine
 10
672.0888364291749
 20
803.6746551999804
 30
0.0
 11
672.4715988314709
 21
803.2631447324511
 31
0.0
  0
LINE
  5
4217
330
A
100
AcDbEntity
  8
MODEL
100
AcDbLine
 10
672.4715988314709
 20
803.2631447324511
 30
0.0
 11
672.9782569385133
 21
802.9251416930911
 31
0.0
  0
LINE
  5
4218
330
A
100
AcDbEntity
  8
MODEL
100
AcDbLine
 10
672.9782569385133
 20
802.9251416930911
 30
0.0
 11
673.5814931965432
 21
802.6788702020403
 31
0.0
  0
LINE
  5
4219
330
A
100
AcDbEntity
  8
MODEL
100
AcDbLine
 10
673.5814931965432
 20
802.6788702020403
 30
0.0
 11
674.2487895465455
 21
802.5376071939227
 31
0.0
  0
LINE
  5
421A
330
A
100
AcDbEntity
  8
MODEL
100
AcDbLine
 10
674.2487895465455
 20
802.5376071939227
 30
0.0
 11
674.9441671348176
 21
802.5089671621081
 31
0.0
  0
LINE
  5
421B
330
A
100
AcDbEntity
  8
MODEL
100
AcDbLine
 10
674.9441671348176
 20
802.5089671621081
 30
0.0
 11
675.6301420903764
 21
802.5944998273608
 31
0.0
  0
LINE
  5
421C
330
A
100
AcDbEntity
  8
MODEL
100
AcDbLine
 10
675.6301420903764
 20
802.5944998273608
 30
0.0
 11
676.269733456429
 21
802.7895858297106
 31
0.0
  0
LINE
  5
421D
330
A
100
AcDbEntity
  8
MODEL
100
AcDbLine
 10
676.269733456429
 20
802.7895858297106
 30
0.0
 11
676.8284599459729
 21
803.0837049493548
 31
0.0
  0
LINE
  5
421E
330
A
100
AcDbEntity
  8
MODEL
100
AcDbLine
 10
676.8284599459729
 20
803.0837049493548
 30
0.0
 11
677.2761951363644
 21
803.4610172519442
 31
0.0
  0
LINE
  5
421F
330
A
100
AcDbEntity
  8
MODEL
100
AcDbLine
 10
677.2761951363644
 20
803.4610172519442
 30
0.0
 11
677.5888103223405
 21
803.9011677512881
 31
0.0
  0
LINE
  5
4220
330
A
100
AcDbEntity
  8
MODEL
100
AcDbLine
 10
677.5888103223405
 20
803.9011677512881
 30
0.0
 11
677.7494485653004
 21
804.3804337987658
 31
0.0
  0
LINE
  5
4221
330
A
100
AcDbEntity
  8
MODEL
100
AcDbLine
 10
677.7494485653004
 20
804.3804337987658
 30
0.0
 11
677.7494485653004
 21
804.8729693302867
 31
0.0
  0
LINE
  5
4222
330
A
100
AcDbEntity
  8
MODEL
100
AcDbLine
 10
677.7494485653004
 20
804.8729693302867
 30
0.0
 11
677.5888103223405
 21
805.3522353777644
 31
0.0
  0
LINE
  5
4223
330
A
100
AcDbEntity
  8
MODEL
100
AcDbLine
 10
677.5888103223405
 20
805.3522353777644
 30
0.0
 11
677.2761951363644
 21
805.7923858771082
 31
0.0
  0
LINE
  5
4224
330
A
100
AcDbEntity
  8
MODEL
100
AcDbLine
 10
677.2761951363644
 20
805.7923858771082
 30
0.0
 11
676.8284599459729
 21
806.1696907291171
 31
0.0
  0
LINE
  5
4225
330
A
100
AcDbEntity
  8
MODEL
100
AcDbLine
 10
676.8284599459729
 20
806.1696907291171
 30
0.0
 11
676.269733456429
 21
806.4638172993418
 31
0.0
  0
LINE
  5
4226
330
A
100
AcDbEntity
  8
MODEL
100
AcDbLine
 10
676.269733456429
 20
806.4638172993418
 30
0.0
 11
675.6301420903764
 21
806.6589033016917
 31
0.0
  0
LINE
  5
4227
330
A
100
AcDbEntity
  8
MODEL
100
AcDbLine
 10
675.6301420903764
 20
806.6589033016917
 30
0.0
 11
674.9441671348176
 21
806.7444285163638
 31
0.0
  0
LINE
  5
4228
330
A
100
AcDbEntity
  8
MODEL
100
AcDbLine
 10
674.9441671348176
 20
806.7444285163638
 30
0.0
 11
674.2487895465455
 21
806.7157959351298
 31
0.0
  0
LINE
  5
4229
330
A
100
AcDbEntity
  8
MODEL
100
AcDbLine
 10
674.2487895465455
 20
806.7157959351298
 30
0.0
 11
673.5814931965432
 21
806.5745329270121
 31
0.0
  0
LINE
  5
422A
330
A
100
AcDbEntity
  8
MODEL
100
AcDbLine
 10
673.5814931965432
 20
806.5745329270121
 30
0.0
 11
672.9782569385133
 21
806.3282614359614
 31
0.0
  0
LINE
  5
422B
330
A
100
AcDbEntity
  8
MODEL
100
AcDbLine
 10
672.9782569385133
 20
806.3282614359614
 30
0.0
 11
672.4715988314709
 21
805.9902583966013
 31
0.0
  0
LINE
  5
422C
330
A
100
AcDbEntity
  8
MODEL
100
AcDbLine
 10
672.4715988314709
 20
805.9902583966013
 30
0.0
 11
672.0888364291749
 21
805.578747929072
 31
0.0
  0
LINE
  5
422D
330
A
100
AcDbEntity
  8
MODEL
100
AcDbLine
 10
672.0888364291749
 20
805.578747929072
 30
0.0
 11
671.8506003892979
 21
805.1159104118105
 31
0.0
  0
LINE
  5
422E
330
A
100
AcDbEntity
  8
MODEL
100
AcDbLine
 10
671.8506003892979
 20
805.1159104118105
 30
0.0
 11
671.7697317874989
 21
804.6266978392359
 31
0.0
  0
LINE
  5
422F
330
A
100
AcDbEntity
  8
MODEL
100
AcDbLine
 10
664.269735214766
 20
791.4038022765872
 30
0.0
 11
717.769733739551
 21
791.4038022765872
 31
0.0
  0
LINE
  5
4230
330
A
100
AcDbEntity
  8
MODEL
100
AcDbLine
 10
717.769733739551
 20
817.8496008524653
 30
0.0
 11
717.769733739551
 21
791.4038022765872
 31
0.0
  0
LINE
  5
4231
330
A
100
AcDbEntity
  8
MODEL
100
AcDbLine
 10
664.269735214766
 20
817.8496008524653
 30
0.0
 11
664.269735214766
 21
791.4038022765872
 31
0.0
  0
LINE
  5
4232
330
A
100
AcDbEntity
  8
MODEL
100
AcDbLine
 10
664.269735214766
 20
830.5775170931574
 30
0.0
 11
664.269735214766
 21
830.6653892407176
 31
0.0
  0
LINE
  5
4233
330
A
100
AcDbEntity
  8
MODEL
100
AcDbLine
 10
717.769733739551
 20
791.4038022765872
 30
0.0
 11
717.769733739551
 21
791.3159375796076
 31
0.0
  0
LINE
  5
4234
330
A
100
AcDbEntity
  8
MODEL
100
AcDbLine
 10
664.269735214766
 20
791.3159375796076
 30
0.0
 11
664.269735214766
 21
791.4038022765872
 31
0.0
  0
LINE
  5
4235
330
A
100
AcDbEntity
  8
MODEL
100
AcDbLine
 10
739.2697344697079
 20
828.6683281669375
 30
0.0
 11
739.1911364323458
 21
827.6786973485705
 31
0.0
  0
LINE
  5
4236
330
A
100
AcDbEntity
  8
MODEL
100
AcDbLine
 10
739.1911364323458
 20
827.6786973485705
 30
0.0
 11
738.9563332474789
 21
826.7015089998004
 31
0.0
  0
LINE
  5
4237
330
A
100
AcDbEntity
  8
MODEL
100
AcDbLine
 10
738.9563332474789
 20
826.7015089998004
 30
0.0
 11
738.5682753450236
 21
825.7490491280314
 31
0.0
  0
LINE
  5
4238
330
A
100
AcDbEntity
  8
MODEL
100
AcDbLine
 10
738.5682753450236
 20
825.7490491280314
 30
0.0
 11
738.031844717916
 21
824.8333057174441
 31
0.0
  0
LINE
  5
4239
330
A
100
AcDbEntity
  8
MODEL
100
AcDbLine
 10
738.031844717916
 20
824.8333057174441
 30
0.0
 11
737.3537860042414
 21
823.9657899150607
 31
0.0
  0
LINE
  5
423A
330
A
100
AcDbEntity
  8
MODEL
100
AcDbLine
 10
737.3537860042414
 20
823.9657899150607
 30
0.0
 11
736.5426273248157
 21
823.157409370875
 31
0.0
  0
LINE
  5
423B
330
A
100
AcDbEntity
  8
MODEL
100
AcDbLine
 10
736.5426273248157
 20
823.157409370875
 30
0.0
 11
735.608568524476
 21
822.418334127402
 31
0.0
  0
LINE
  5
423C
330
A
100
AcDbEntity
  8
MODEL
100
AcDbLine
 10
735.608568524476
 20
822.418334127402
 30
0.0
 11
734.563356374856
 21
821.7578550586459
 31
0.0
  0
LINE
  5
423D
330
A
100
AcDbEntity
  8
MODEL
100
AcDbLine
 10
734.563356374856
 20
821.7578550586459
 30
0.0
 11
733.4201346314511
 21
821.1842795619723
 31
0.0
  0
LINE
  5
423E
330
A
100
AcDbEntity
  8
MODEL
100
AcDbLine
 10
733.4201346314511
 20
821.1842795619723
 30
0.0
 11
732.1932801208458
 21
820.704819799399
 31
0.0
  0
LINE
  5
423F
330
A
100
AcDbEntity
  8
MODEL
100
AcDbLine
 10
732.1932801208458
 20
820.704819799399
 30
0.0
 11
730.8982220641336
 21
820.3255032906291
 31
0.0
  0
LINE
  5
4240
330
A
100
AcDbEntity
  8
MODEL
100
AcDbLine
 10
730.8982220641336
 20
820.3255032906291
 30
0.0
 11
729.5512451021931
 21
820.051105857825
 31
0.0
  0
LINE
  5
4241
330
A
100
AcDbEntity
  8
MODEL
100
AcDbLine
 10
729.5512451021931
 20
820.051105857825
 30
0.0
 11
728.1692895269952
 21
819.8850696692225
 31
0.0
  0
LINE
  5
4242
330
A
100
AcDbEntity
  8
MODEL
100
AcDbLine
 10
728.1692895269952
 20
819.8850696692225
 30
0.0
 11
726.7697333521209
 21
819.82949578855
 31
0.0
  0
LINE
  5
4243
330
A
100
AcDbEntity
  8
MODEL
100
AcDbLine
 10
726.7697333521209
 20
819.82949578855
 30
0.0
 11
725.3701776429078
 21
819.8850696692225
 31
0.0
  0
LINE
  5
4244
330
A
100
AcDbEntity
  8
MODEL
100
AcDbLine
 10
725.3701776429078
 20
819.8850696692225
 30
0.0
 11
723.9882218348793
 21
820.051105857825
 31
0.0
  0
LINE
  5
4245
330
A
100
AcDbEntity
  8
MODEL
100
AcDbLine
 10
723.9882218348793
 20
820.051105857825
 30
0.0
 11
722.6412452731164
 21
820.3255032906291
 31
0.0
  0
LINE
  5
4246
330
A
100
AcDbEntity
  8
MODEL
100
AcDbLine
 10
722.6412452731164
 20
820.3255032906291
 30
0.0
 11
721.3461868162266
 21
820.704819799399
 31
0.0
  0
LINE
  5
4247
330
A
100
AcDbEntity
  8
MODEL
100
AcDbLine
 10
721.3461868162266
 20
820.704819799399
 30
0.0
 11
720.1193325384519
 21
821.1842795619723
 31
0.0
  0
LINE
  5
4248
330
A
100
AcDbEntity
  8
MODEL
100
AcDbLine
 10
720.1193325384519
 20
821.1842795619723
 30
0.0
 11
718.9761110278777
 21
821.7578550586459
 31
0.0
  0
LINE
  5
4249
330
A
100
AcDbEntity
  8
MODEL
100
AcDbLine
 10
718.9761110278777
 20
821.7578550586459
 30
0.0
 11
717.930898645427
 21
822.418334127402
 31
0.0
  0
LINE
  5
424A
330
A
100
AcDbEntity
  8
MODEL
100
AcDbLine
 10
717.930898645427
 20
822.418334127402
 30
0.0
 11
716.9968398450873
 21
823.157409370875
 31
0.0
  0
LINE
  5
424B
330
A
100
AcDbEntity
  8
MODEL
100
AcDbLine
 10
716.9968398450873
 20
823.157409370875
 30
0.0
 11
716.1856811656615
 21
823.9657899150607
 31
0.0
  0
LINE
  5
424C
330
A
100
AcDbEntity
  8
MODEL
100
AcDbLine
 10
716.1856811656615
 20
823.9657899150607
 30
0.0
 11
715.5076229176483
 21
824.8333057174441
 31
0.0
  0
LINE
  5
424D
330
A
100
AcDbEntity
  8
MODEL
100
AcDbLine
 10
715.5076229176483
 20
824.8333057174441
 30
0.0
 11
714.9711918248794
 21
825.7490491280314
 31
0.0
  0
LINE
  5
424E
330
A
100
AcDbEntity
  8
MODEL
100
AcDbLine
 10
714.9711918248794
 20
825.7490491280314
 30
0.0
 11
714.5831343880853
 21
826.7015089998004
 31
0.0
  0
LINE
  5
424F
330
A
100
AcDbEntity
  8
MODEL
100
AcDbLine
 10
714.5831343880853
 20
826.7015089998004
 30
0.0
 11
714.3483312032184
 21
827.6786973485705
 31
0.0
  0
LINE
  5
4250
330
A
100
AcDbEntity
  8
MODEL
100
AcDbLine
 10
714.3483312032184
 20
827.6786973485705
 30
0.0
 11
714.2697331658563
 21
828.6683281669375
 31
0.0
  0
ARC
  5
4251
330
A
100
AcDbEntity
  8
MODEL
100
AcDbCircle
 10
726.7697335460997
 20
678.9411488342021
 30
0.0
 40
12.50000000000012
100
AcDbArc
 50
180.0
 51
0.0
  0
LINE
  5
4252
330
A
100
AcDbEntity
  8
MODEL
100
AcDbLine
 10
714.2697331658563
 20
687.6411495516058
 30
0.0
 11
664.269735214766
 21
687.6411495516058
 31
0.0
  0
LINE
  5
4253
330
A
100
AcDbEntity
  8
MODEL
100
AcDbLine
 10
714.2893486819229
 20
830.5775170931574
 30
0.0
 11
664.269735214766
 21
830.5775170931574
 31
0.0
  0
LINE
  5
4254
330
A
100
AcDbEntity
  8
MODEL
100
AcDbLine
 10
739.2697344697079
 20
694.3180432328932
 30
0.0
 11
739.1911364323458
 21
693.3284068265907
 31
0.0
  0
LINE
  5
4255
330
A
100
AcDbEntity
  8
MODEL
100
AcDbLine
 10
739.1911364323458
 20
693.3284068265907
 30
0.0
 11
738.9563332474789
 21
692.3512166151754
 31
0.0
  0
LINE
  5
4256
330
A
100
AcDbEntity
  8
MODEL
100
AcDbLine
 10
738.9563332474789
 20
692.3512166151754
 30
0.0
 11
738.5682753450236
 21
691.3987604686968
 31
0.0
  0
LINE
  5
4257
330
A
100
AcDbEntity
  8
MODEL
100
AcDbLine
 10
738.5682753450236
 20
691.3987604686968
 30
0.0
 11
738.031844717916
 21
690.4830170581095
 31
0.0
  0
LINE
  5
4258
330
A
100
AcDbEntity
  8
MODEL
100
AcDbLine
 10
738.031844717916
 20
690.4830170581095
 30
0.0
 11
737.3537860042414
 21
689.6154975304362
 31
0.0
  0
LINE
  5
4259
330
A
100
AcDbEntity
  8
MODEL
100
AcDbLine
 10
737.3537860042414
 20
689.6154975304362
 30
0.0
 11
736.5426273248157
 21
688.8071207115408
 31
0.0
  0
LINE
  5
425A
330
A
100
AcDbEntity
  8
MODEL
100
AcDbLine
 10
736.5426273248157
 20
688.8071207115408
 30
0.0
 11
735.608568524476
 21
688.0680417427775
 31
0.0
  0
LINE
  5
425B
330
A
100
AcDbEntity
  8
MODEL
100
AcDbLine
 10
735.608568524476
 20
688.0680417427775
 30
0.0
 11
734.563356374856
 21
687.4075626740214
 31
0.0
  0
LINE
  5
425C
330
A
100
AcDbEntity
  8
MODEL
100
AcDbLine
 10
734.563356374856
 20
687.4075626740214
 30
0.0
 11
733.4201346314511
 21
686.8339871773478
 31
0.0
  0
LINE
  5
425D
330
A
100
AcDbEntity
  8
MODEL
100
AcDbLine
 10
733.4201346314511
 20
686.8339871773478
 30
0.0
 11
732.1932801208458
 21
686.3545274147746
 31
0.0
  0
LINE
  5
425E
330
A
100
AcDbEntity
  8
MODEL
100
AcDbLine
 10
732.1932801208458
 20
686.3545274147746
 30
0.0
 11
730.8982220641336
 21
685.9752146312949
 31
0.0
  0
LINE
  5
425F
330
A
100
AcDbEntity
  8
MODEL
100
AcDbLine
 10
730.8982220641336
 20
685.9752146312949
 30
0.0
 11
729.5512451021931
 21
685.7008171984908
 31
0.0
  0
LINE
  5
4260
330
A
100
AcDbEntity
  8
MODEL
100
AcDbLine
 10
729.5512451021931
 20
685.7008171984908
 30
0.0
 11
728.1692895269952
 21
685.5347847351786
 31
0.0
  0
LINE
  5
4261
330
A
100
AcDbEntity
  8
MODEL
100
AcDbLine
 10
728.1692895269952
 20
685.5347847351786
 30
0.0
 11
726.7697333521209
 21
685.4792071292159
 31
0.0
  0
LINE
  5
4262
330
A
100
AcDbEntity
  8
MODEL
100
AcDbLine
 10
726.7697333521209
 20
685.4792071292159
 30
0.0
 11
725.3701776429078
 21
685.5347847351786
 31
0.0
  0
LINE
  5
4263
330
A
100
AcDbEntity
  8
MODEL
100
AcDbLine
 10
725.3701776429078
 20
685.5347847351786
 30
0.0
 11
723.9882218348793
 21
685.7008171984908
 31
0.0
  0
LINE
  5
4264
330
A
100
AcDbEntity
  8
MODEL
100
AcDbLine
 10
723.9882218348793
 20
685.7008171984908
 30
0.0
 11
722.6412452731164
 21
685.9752146312949
 31
0.0
  0
LINE
  5
4265
330
A
100
AcDbEntity
  8
MODEL
100
AcDbLine
 10
722.6412452731164
 20
685.9752146312949
 30
0.0
 11
721.3461868162266
 21
686.3545274147746
 31
0.0
  0
LINE
  5
4266
330
A
100
AcDbEntity
  8
MODEL
100
AcDbLine
 10
721.3461868162266
 20
686.3545274147746
 30
0.0
 11
720.1193325384519
 21
686.8339871773478
 31
0.0
  0
LINE
  5
4267
330
A
100
AcDbEntity
  8
MODEL
100
AcDbLine
 10
720.1193325384519
 20
686.8339871773478
 30
0.0
 11
718.9761110278777
 21
687.4075626740214
 31
0.0
  0
LINE
  5
4268
330
A
100
AcDbEntity
  8
MODEL
100
AcDbLine
 10
718.9761110278777
 20
687.4075626740214
 30
0.0
 11
717.930898645427
 21
688.0680417427775
 31
0.0
  0
LINE
  5
4269
330
A
100
AcDbEntity
  8
MODEL
100
AcDbLine
 10
717.930898645427
 20
688.0680417427775
 30
0.0
 11
716.9968398450873
 21
688.8071207115408
 31
0.0
  0
LINE
  5
426A
330
A
100
AcDbEntity
  8
MODEL
100
AcDbLine
 10
716.9968398450873
 20
688.8071207115408
 30
0.0
 11
716.1856811656615
 21
689.6154975304362
 31
0.0
  0
LINE
  5
426B
330
A
100
AcDbEntity
  8
MODEL
100
AcDbLine
 10
716.1856811656615
 20
689.6154975304362
 30
0.0
 11
715.5076229176483
 21
690.4830170581095
 31
0.0
  0
LINE
  5
426C
330
A
100
AcDbEntity
  8
MODEL
100
AcDbLine
 10
715.5076229176483
 20
690.4830170581095
 30
0.0
 11
714.9711918248794
 21
691.3987604686968
 31
0.0
  0
LINE
  5
426D
330
A
100
AcDbEntity
  8
MODEL
100
AcDbLine
 10
714.9711918248794
 20
691.3987604686968
 30
0.0
 11
714.5831343880853
 21
692.3512166151754
 31
0.0
  0
LINE
  5
426E
330
A
100
AcDbEntity
  8
MODEL
100
AcDbLine
 10
714.5831343880853
 20
692.3512166151754
 30
0.0
 11
714.3483312032184
 21
693.3284068265907
 31
0.0
  0
LINE
  5
426F
330
A
100
AcDbEntity
  8
MODEL
100
AcDbLine
 10
714.3483312032184
 20
693.3284068265907
 30
0.0
 11
714.2697331658563
 21
694.3180432328932
 31
0.0
  0
LINE
  5
4270
330
A
100
AcDbEntity
  8
MODEL
100
AcDbLine
 10
129.3400046144587
 20
821.243712843394
 30
0.0
 11
130.754214218722
 21
819.82949578855
 31
0.0
  0
LINE
  5
4271
330
A
100
AcDbEntity
  8
MODEL
100
AcDbLine
 10
148.4318789754969
 20
837.5071679959055
 30
0.0
 11
147.0176693712336
 21
838.9213776001689
 31
0.0
  0
LINE
  5
4272
330
A
100
AcDbEntity
  8
MODEL
100
AcDbLine
 10
503.0664470707042
 20
691.441150547003
 30
0.0
 11
501.0664430175883
 21
691.441150547003
 31
0.0
  0
LINE
  5
4273
330
A
100
AcDbEntity
  8
MODEL
100
AcDbLine
 10
501.0664430175883
 20
666.4411483118292
 30
0.0
 11
503.0664470707042
 21
666.4411483118292
 31
0.0
  0
LINE
  5
4274
330
A
100
AcDbEntity
  8
MODEL
100
AcDbLine
 10
130.754214218722
 20
819.82949578855
 30
0.0
 11
265.1045066033465
 21
685.4792071292159
 31
0.0
  0
LINE
  5
4275
330
A
100
AcDbEntity
  8
MODEL
100
AcDbLine
 10
282.7821713601214
 20
703.1568774739258
 30
0.0
 11
148.4318789754969
 21
837.5071679959055
 31
0.0
  0
ARC
  5
4276
330
A
100
AcDbEntity
  8
MODEL
100
AcDbCircle
 10
311.0664456223352
 20
731.4411488342021
 30
0.0
 40
39.99999999999992
100
AcDbArc
 50
225.0000000000008
 51
270.0000000000007
  0
ARC
  5
4277
330
A
100
AcDbEntity
  8
MODEL
100
AcDbCircle
 10
311.0664456223352
 20
731.4411488342021
 30
0.0
 40
64.99999999999997
100
AcDbArc
 50
225.0000000000008
 51
270.0000000000007
  0
LINE
  5
4278
330
A
100
AcDbEntity
  8
MODEL
100
AcDbLine
 10
501.0664430175883
 20
691.441150547003
 30
0.0
 11
311.0664454017741
 21
691.441150547003
 31
0.0
  0
LINE
  5
4279
330
A
100
AcDbEntity
  8
MODEL
100
AcDbLine
 10
311.0664454017741
 20
666.4411483118292
 30
0.0
 11
501.0664430175883
 21
666.4411483118292
 31
0.0
  0
LINE
  5
427A
330
A
100
AcDbEntity
  8
MODEL
100
AcDbLine
 10
139.5930465971095
 20
828.6683281669375
 30
0.0
 11
140.5826923166377
 21
829.6579664358851
 31
0.0
  0
LINE
  5
427B
330
A
100
AcDbEntity
  8
MODEL
100
AcDbLine
 10
140.5826923166377
 20
829.6579664358851
 30
0.0
 11
141.5598806654078
 21
830.6351547846552
 31
0.0
  0
LINE
  5
427C
330
A
100
AcDbEntity
  8
MODEL
100
AcDbLine
 10
141.5598806654078
 20
830.6351547846552
 30
0.0
 11
142.5123330865962
 21
831.5876146564242
 31
0.0
  0
LINE
  5
427D
330
A
100
AcDbEntity
  8
MODEL
100
AcDbLine
 10
142.5123330865962
 20
831.5876146564242
 30
0.0
 11
143.4280839477641
 21
832.5033580670115
 31
0.0
  0
LINE
  5
427E
330
A
100
AcDbEntity
  8
MODEL
100
AcDbLine
 10
143.4280839477641
 20
832.5033580670115
 30
0.0
 11
144.2955997501475
 21
833.3708738693949
 31
0.0
  0
LINE
  5
427F
330
A
100
AcDbEntity
  8
MODEL
100
AcDbLine
 10
144.2955997501475
 20
833.3708738693949
 30
0.0
 11
145.1039728437526
 21
834.1792544135806
 31
0.0
  0
LINE
  5
4280
330
A
100
AcDbEntity
  8
MODEL
100
AcDbLine
 10
145.1039728437526
 20
834.1792544135806
 30
0.0
 11
145.8430555378062
 21
834.9183296570536
 31
0.0
  0
LINE
  5
4281
330
A
100
AcDbEntity
  8
MODEL
100
AcDbLine
 10
145.8430555378062
 20
834.9183296570536
 30
0.0
 11
146.5035346065623
 21
835.5788087258097
 31
0.0
  0
LINE
  5
4282
330
A
100
AcDbEntity
  8
MODEL
100
AcDbLine
 10
146.5035346065623
 20
835.5788087258097
 30
0.0
 11
147.0771101032359
 21
836.1523842224833
 31
0.0
  0
LINE
  5
4283
330
A
100
AcDbEntity
  8
MODEL
100
AcDbLine
 10
147.0771101032359
 20
836.1523842224833
 30
0.0
 11
147.5565698658091
 21
836.6318439850565
 31
0.0
  0
LINE
  5
4284
330
A
100
AcDbEntity
  8
MODEL
100
AcDbLine
 10
147.5565698658091
 20
836.6318439850565
 30
0.0
 11
147.9358789239985
 21
837.0111604938265
 31
0.0
  0
LINE
  5
4285
330
A
100
AcDbEntity
  8
MODEL
100
AcDbLine
 10
147.9358789239985
 20
837.0111604938265
 30
0.0
 11
148.2102838073832
 21
837.2855579266306
 31
0.0
  0
LINE
  5
4286
330
A
100
AcDbEntity
  8
MODEL
100
AcDbLine
 10
148.2102838073832
 20
837.2855579266306
 30
0.0
 11
148.3763125454051
 21
837.4515866646525
 31
0.0
  0
LINE
  5
4287
330
A
100
AcDbEntity
  8
MODEL
100
AcDbLine
 10
148.3763125454051
 20
837.4515866646525
 30
0.0
 11
148.4318789754969
 21
837.5071679959055
 31
0.0
  0
LINE
  5
4288
330
A
100
AcDbEntity
  8
MODEL
100
AcDbLine
 10
130.754214218722
 20
819.82949578855
 30
0.0
 11
130.8097955499751
 21
819.8850696692225
 31
0.0
  0
LINE
  5
4289
330
A
100
AcDbEntity
  8
MODEL
100
AcDbLine
 10
130.8097955499751
 20
819.8850696692225
 30
0.0
 11
130.9758242879969
 21
820.051105857825
 31
0.0
  0
LINE
  5
428A
330
A
100
AcDbEntity
  8
MODEL
100
AcDbLine
 10
130.9758242879969
 20
820.051105857825
 30
0.0
 11
131.2502291713816
 21
820.3255032906291
 31
0.0
  0
LINE
  5
428B
330
A
100
AcDbEntity
  8
MODEL
100
AcDbLine
 10
131.2502291713816
 20
820.3255032906291
 30
0.0
 11
131.629538229571
 21
820.704819799399
 31
0.0
  0
LINE
  5
428C
330
A
100
AcDbEntity
  8
MODEL
100
AcDbLine
 10
131.629538229571
 20
820.704819799399
 30
0.0
 11
132.1089979921443
 21
821.1842795619723
 31
0.0
  0
LINE
  5
428D
330
A
100
AcDbEntity
  8
MODEL
100
AcDbLine
 10
132.1089979921443
 20
821.1842795619723
 30
0.0
 11
132.6825734888179
 21
821.7578550586459
 31
0.0
  0
LINE
  5
428E
330
A
100
AcDbEntity
  8
MODEL
100
AcDbLine
 10
132.6825734888179
 20
821.7578550586459
 30
0.0
 11
133.343052557574
 21
822.418334127402
 31
0.0
  0
LINE
  5
428F
330
A
100
AcDbEntity
  8
MODEL
100
AcDbLine
 10
133.343052557574
 20
822.418334127402
 30
0.0
 11
134.0821352516276
 21
823.157409370875
 31
0.0
  0
LINE
  5
4290
330
A
100
AcDbEntity
  8
MODEL
100
AcDbLine
 10
134.0821352516276
 20
823.157409370875
 30
0.0
 11
134.8905083452327
 21
823.9657899150607
 31
0.0
  0
LINE
  5
4291
330
A
100
AcDbEntity
  8
MODEL
100
AcDbLine
 10
134.8905083452327
 20
823.9657899150607
 30
0.0
 11
135.7580241476161
 21
824.8333057174441
 31
0.0
  0
LINE
  5
4292
330
A
100
AcDbEntity
  8
MODEL
100
AcDbLine
 10
135.7580241476161
 20
824.8333057174441
 30
0.0
 11
136.673775008784
 21
825.7490491280314
 31
0.0
  0
LINE
  5
4293
330
A
100
AcDbEntity
  8
MODEL
100
AcDbLine
 10
136.673775008784
 20
825.7490491280314
 30
0.0
 11
137.6262274299723
 21
826.7015089998004
 31
0.0
  0
LINE
  5
4294
330
A
100
AcDbEntity
  8
MODEL
100
AcDbLine
 10
137.6262274299723
 20
826.7015089998004
 30
0.0
 11
138.6034157787425
 21
827.6786973485705
 31
0.0
  0
LINE
  5
4295
330
A
100
AcDbEntity
  8
MODEL
100
AcDbLine
 10
138.6034157787425
 20
827.6786973485705
 30
0.0
 11
139.5930465971095
 21
828.6683281669375
 31
0.0
  0
LINE
  5
4296
330
A
100
AcDbEntity
  8
MODEL
100
AcDbLine
 10
138.1788369928462
 20
830.0825452217814
 30
0.0
 11
139.1684678112132
 21
831.072183490729
 31
0.0
  0
LINE
  5
4297
330
A
100
AcDbEntity
  8
MODEL
100
AcDbLine
 10
139.1684678112132
 20
831.072183490729
 30
0.0
 11
140.1456561599833
 21
832.0493718394991
 31
0.0
  0
LINE
  5
4298
330
A
100
AcDbEntity
  8
MODEL
100
AcDbLine
 10
140.1456561599833
 20
832.0493718394991
 30
0.0
 11
141.0981234823329
 21
833.0018242606875
 31
0.0
  0
LINE
  5
4299
330
A
100
AcDbEntity
  8
MODEL
100
AcDbLine
 10
141.0981234823329
 20
833.0018242606875
 30
0.0
 11
142.0138594423396
 21
833.9175751218554
 31
0.0
  0
LINE
  5
429A
330
A
100
AcDbEntity
  8
MODEL
100
AcDbLine
 10
142.0138594423396
 20
833.9175751218554
 30
0.0
 11
142.881375244723
 21
834.7850909242388
 31
0.0
  0
LINE
  5
429B
330
A
100
AcDbEntity
  8
MODEL
100
AcDbLine
 10
142.881375244723
 20
834.7850909242388
 30
0.0
 11
143.6897632394893
 21
835.5934714684245
 31
0.0
  0
LINE
  5
429C
330
A
100
AcDbEntity
  8
MODEL
100
AcDbLine
 10
143.6897632394893
 20
835.5934714684245
 30
0.0
 11
144.4288310323817
 21
836.3325467118975
 31
0.0
  0
LINE
  5
429D
330
A
100
AcDbEntity
  8
MODEL
100
AcDbLine
 10
144.4288310323817
 20
836.3325467118975
 30
0.0
 11
145.0893101011378
 21
836.9930257806536
 31
0.0
  0
LINE
  5
429E
330
A
100
AcDbEntity
  8
MODEL
100
AcDbLine
 10
145.0893101011378
 20
836.9930257806536
 30
0.0
 11
145.6628855978114
 21
837.5666012773272
 31
0.0
  0
LINE
  5
429F
330
A
100
AcDbEntity
  8
MODEL
100
AcDbLine
 10
145.6628855978114
 20
837.5666012773272
 30
0.0
 11
146.1423453603846
 21
838.0460610399005
 31
0.0
  0
LINE
  5
42A0
330
A
100
AcDbEntity
  8
MODEL
100
AcDbLine
 10
146.1423453603846
 20
838.0460610399005
 30
0.0
 11
146.5216693197352
 21
838.4253700980898
 31
0.0
  0
LINE
  5
42A1
330
A
100
AcDbEntity
  8
MODEL
100
AcDbLine
 10
146.5216693197352
 20
838.4253700980898
 30
0.0
 11
146.7960593019587
 21
838.6997749814745
 31
0.0
  0
LINE
  5
42A2
330
A
100
AcDbEntity
  8
MODEL
100
AcDbLine
 10
146.7960593019587
 20
838.6997749814745
 30
0.0
 11
146.9621029411418
 21
838.8658037194964
 31
0.0
  0
LINE
  5
42A3
330
A
100
AcDbEntity
  8
MODEL
100
AcDbLine
 10
146.9621029411418
 20
838.8658037194964
 30
0.0
 11
147.0176693712336
 21
838.9213776001689
 31
0.0
  0
LINE
  5
42A4
330
A
100
AcDbEntity
  8
MODEL
100
AcDbLine
 10
129.3400046144587
 20
821.243712843394
 30
0.0
 11
129.3955859457118
 21
821.2992867240664
 31
0.0
  0
LINE
  5
42A5
330
A
100
AcDbEntity
  8
MODEL
100
AcDbLine
 10
129.3955859457118
 20
821.2992867240664
 30
0.0
 11
129.5616146837336
 21
821.4653154620883
 31
0.0
  0
LINE
  5
42A6
330
A
100
AcDbEntity
  8
MODEL
100
AcDbLine
 10
129.5616146837336
 20
821.4653154620883
 30
0.0
 11
129.8360046659571
 21
821.7397128948924
 31
0.0
  0
LINE
  5
42A7
330
A
100
AcDbEntity
  8
MODEL
100
AcDbLine
 10
129.8360046659571
 20
821.7397128948924
 30
0.0
 11
130.2153286253077
 21
822.1190294036624
 31
0.0
  0
LINE
  5
42A8
330
A
100
AcDbEntity
  8
MODEL
100
AcDbLine
 10
130.2153286253077
 20
822.1190294036624
 30
0.0
 11
130.694788387881
 21
822.5984891662356
 31
0.0
  0
LINE
  5
42A9
330
A
100
AcDbEntity
  8
MODEL
100
AcDbLine
 10
130.694788387881
 20
822.5984891662356
 30
0.0
 11
131.2683638845546
 21
823.1720646629092
 31
0.0
  0
LINE
  5
42AA
330
A
100
AcDbEntity
  8
MODEL
100
AcDbLine
 10
131.2683638845546
 20
823.1720646629092
 30
0.0
 11
131.9288429533107
 21
823.8325437316653
 31
0.0
  0
LINE
  5
42AB
330
A
100
AcDbEntity
  8
MODEL
100
AcDbLine
 10
131.9288429533107
 20
823.8325437316653
 30
0.0
 11
132.6679107462031
 21
824.5716189751383
 31
0.0
  0
LINE
  5
42AC
330
A
100
AcDbEntity
  8
MODEL
100
AcDbLine
 10
132.6679107462031
 20
824.5716189751383
 30
0.0
 11
133.4762987409694
 21
825.379999519324
 31
0.0
  0
LINE
  5
42AD
330
A
100
AcDbEntity
  8
MODEL
100
AcDbLine
 10
133.4762987409694
 20
825.379999519324
 30
0.0
 11
134.3438145433528
 21
826.2475153217074
 31
0.0
  0
LINE
  5
42AE
330
A
100
AcDbEntity
  8
MODEL
100
AcDbLine
 10
134.3438145433528
 20
826.2475153217074
 30
0.0
 11
135.2595505033595
 21
827.1632661828753
 31
0.0
  0
LINE
  5
42AF
330
A
100
AcDbEntity
  8
MODEL
100
AcDbLine
 10
135.2595505033595
 20
827.1632661828753
 30
0.0
 11
136.212017825709
 21
828.1157186040637
 31
0.0
  0
LINE
  5
42B0
330
A
100
AcDbEntity
  8
MODEL
100
AcDbLine
 10
136.212017825709
 20
828.1157186040637
 30
0.0
 11
137.1892061744792
 21
829.0929069528338
 31
0.0
  0
LINE
  5
42B1
330
A
100
AcDbEntity
  8
MODEL
100
AcDbLine
 10
137.1892061744792
 20
829.0929069528338
 30
0.0
 11
138.1788369928462
 21
830.0825452217814
 31
0.0
  0
LINE
  5
42B2
330
A
100
AcDbEntity
  8
MODEL
100
AcDbLine
 10
503.0664470707042
 20
678.9411475667712
 30
0.0
 11
503.0664470707042
 21
666.4411483118292
 31
0.0
  0
LINE
  5
42B3
330
A
100
AcDbEntity
  8
MODEL
100
AcDbLine
 10
503.0664470707042
 20
691.441150547003
 30
0.0
 11
503.0664470707042
 21
678.9411475667712
 31
0.0
  0
LINE
  5
42B4
330
A
100
AcDbEntity
  8
MODEL
100
AcDbLine
 10
501.0664430175883
 20
678.9411475667712
 30
0.0
 11
501.0664430175883
 21
666.4411483118292
 31
0.0
  0
LINE
  5
42B5
330
A
100
AcDbEntity
  8
MODEL
100
AcDbLine
 10
501.0664430175883
 20
691.441150547003
 30
0.0
 11
501.0664430175883
 21
678.9411475667712
 31
0.0
  0
LINE
  5
42B6
330
A
100
AcDbEntity
  8
MODEL
100
AcDbLine
 10
148.4318789754969
 20
837.5071679959055
 30
0.0
 11
148.3763125454051
 21
837.4515866646525
 31
0.0
  0
LINE
  5
42B7
330
A
100
AcDbEntity
  8
MODEL
100
AcDbLine
 10
148.3763125454051
 20
837.4515866646525
 30
0.0
 11
148.2102838073832
 21
837.2855579266306
 31
0.0
  0
LINE
  5
42B8
330
A
100
AcDbEntity
  8
MODEL
100
AcDbLine
 10
148.2102838073832
 20
837.2855579266306
 30
0.0
 11
147.9358789239985
 21
837.0111604938265
 31
0.0
  0
LINE
  5
42B9
330
A
100
AcDbEntity
  8
MODEL
100
AcDbLine
 10
147.9358789239985
 20
837.0111604938265
 30
0.0
 11
147.5565698658091
 21
836.6318439850565
 31
0.0
  0
LINE
  5
42BA
330
A
100
AcDbEntity
  8
MODEL
100
AcDbLine
 10
147.5565698658091
 20
836.6318439850565
 30
0.0
 11
147.0771101032359
 21
836.1523842224833
 31
0.0
  0
LINE
  5
42BB
330
A
100
AcDbEntity
  8
MODEL
100
AcDbLine
 10
147.0771101032359
 20
836.1523842224833
 30
0.0
 11
146.5035346065623
 21
835.5788087258097
 31
0.0
  0
LINE
  5
42BC
330
A
100
AcDbEntity
  8
MODEL
100
AcDbLine
 10
146.5035346065623
 20
835.5788087258097
 30
0.0
 11
145.8430555378062
 21
834.9183296570536
 31
0.0
  0
LINE
  5
42BD
330
A
100
AcDbEntity
  8
MODEL
100
AcDbLine
 10
145.8430555378062
 20
834.9183296570536
 30
0.0
 11
145.1039728437526
 21
834.1792544135806
 31
0.0
  0
LINE
  5
42BE
330
A
100
AcDbEntity
  8
MODEL
100
AcDbLine
 10
145.1039728437526
 20
834.1792544135806
 30
0.0
 11
144.2955997501475
 21
833.3708738693949
 31
0.0
  0
LINE
  5
42BF
330
A
100
AcDbEntity
  8
MODEL
100
AcDbLine
 10
144.2955997501475
 20
833.3708738693949
 30
0.0
 11
143.4280839477641
 21
832.5033580670115
 31
0.0
  0
LINE
  5
42C0
330
A
100
AcDbEntity
  8
MODEL
100
AcDbLine
 10
143.4280839477641
 20
832.5033580670115
 30
0.0
 11
142.5123330865962
 21
831.5876146564242
 31
0.0
  0
LINE
  5
42C1
330
A
100
AcDbEntity
  8
MODEL
100
AcDbLine
 10
142.5123330865962
 20
831.5876146564242
 30
0.0
 11
141.5598806654078
 21
830.6351547846552
 31
0.0
  0
LINE
  5
42C2
330
A
100
AcDbEntity
  8
MODEL
100
AcDbLine
 10
141.5598806654078
 20
830.6351547846552
 30
0.0
 11
140.5826923166377
 21
829.6579664358851
 31
0.0
  0
LINE
  5
42C3
330
A
100
AcDbEntity
  8
MODEL
100
AcDbLine
 10
140.5826923166377
 20
829.6579664358851
 30
0.0
 11
139.5930465971095
 21
828.6683281669375
 31
0.0
  0
LINE
  5
42C4
330
A
100
AcDbEntity
  8
MODEL
100
AcDbLine
 10
139.5930465971095
 20
828.6683281669375
 30
0.0
 11
138.6034157787425
 21
827.6786973485705
 31
0.0
  0
LINE
  5
42C5
330
A
100
AcDbEntity
  8
MODEL
100
AcDbLine
 10
138.6034157787425
 20
827.6786973485705
 30
0.0
 11
137.6262274299723
 21
826.7015089998004
 31
0.0
  0
LINE
  5
42C6
330
A
100
AcDbEntity
  8
MODEL
100
AcDbLine
 10
137.6262274299723
 20
826.7015089998004
 30
0.0
 11
136.673775008784
 21
825.7490491280314
 31
0.0
  0
LINE
  5
42C7
330
A
100
AcDbEntity
  8
MODEL
100
AcDbLine
 10
136.673775008784
 20
825.7490491280314
 30
0.0
 11
135.7580241476161
 21
824.8333057174441
 31
0.0
  0
LINE
  5
42C8
330
A
100
AcDbEntity
  8
MODEL
100
AcDbLine
 10
135.7580241476161
 20
824.8333057174441
 30
0.0
 11
134.8905083452327
 21
823.9657899150607
 31
0.0
  0
LINE
  5
42C9
330
A
100
AcDbEntity
  8
MODEL
100
AcDbLine
 10
134.8905083452327
 20
823.9657899150607
 30
0.0
 11
134.0821352516276
 21
823.157409370875
 31
0.0
  0
LINE
  5
42CA
330
A
100
AcDbEntity
  8
MODEL
100
AcDbLine
 10
134.0821352516276
 20
823.157409370875
 30
0.0
 11
133.343052557574
 21
822.418334127402
 31
0.0
  0
LINE
  5
42CB
330
A
100
AcDbEntity
  8
MODEL
100
AcDbLine
 10
133.343052557574
 20
822.418334127402
 30
0.0
 11
132.6825734888179
 21
821.7578550586459
 31
0.0
  0
LINE
  5
42CC
330
A
100
AcDbEntity
  8
MODEL
100
AcDbLine
 10
132.6825734888179
 20
821.7578550586459
 30
0.0
 11
132.1089979921443
 21
821.1842795619723
 31
0.0
  0
LINE
  5
42CD
330
A
100
AcDbEntity
  8
MODEL
100
AcDbLine
 10
132.1089979921443
 20
821.1842795619723
 30
0.0
 11
131.629538229571
 21
820.704819799399
 31
0.0
  0
LINE
  5
42CE
330
A
100
AcDbEntity
  8
MODEL
100
AcDbLine
 10
131.629538229571
 20
820.704819799399
 30
0.0
 11
131.2502291713816
 21
820.3255032906291
 31
0.0
  0
LINE
  5
42CF
330
A
100
AcDbEntity
  8
MODEL
100
AcDbLine
 10
131.2502291713816
 20
820.3255032906291
 30
0.0
 11
130.9758242879969
 21
820.051105857825
 31
0.0
  0
LINE
  5
42D0
330
A
100
AcDbEntity
  8
MODEL
100
AcDbLine
 10
130.9758242879969
 20
820.051105857825
 30
0.0
 11
130.8097955499751
 21
819.8850696692225
 31
0.0
  0
LINE
  5
42D1
330
A
100
AcDbEntity
  8
MODEL
100
AcDbLine
 10
130.8097955499751
 20
819.8850696692225
 30
0.0
 11
130.754214218722
 21
819.82949578855
 31
0.0
  0
LINE
  5
42D2
330
A
100
AcDbEntity
  8
MODEL
100
AcDbLine
 10
501.0664430175883
 20
691.441150547003
 30
0.0
 11
501.0664430175883
 21
666.4411483118292
 31
0.0
  0
LINE
  5
42D3
330
A
100
AcDbEntity
  8
MODEL
100
AcDbLine
 10
282.7821713601214
 20
703.1568774739258
 30
0.0
 11
282.726597479449
 21
703.1013017306082
 31
0.0
  0
LINE
  5
42D4
330
A
100
AcDbEntity
  8
MODEL
100
AcDbLine
 10
282.726597479449
 20
703.1013017306082
 30
0.0
 11
282.5605687414271
 21
702.935269267296
 31
0.0
  0
LINE
  5
42D5
330
A
100
AcDbEntity
  8
MODEL
100
AcDbLine
 10
282.5605687414271
 20
702.935269267296
 30
0.0
 11
282.286171308623
 21
702.6608718344919
 31
0.0
  0
LINE
  5
42D6
330
A
100
AcDbEntity
  8
MODEL
100
AcDbLine
 10
282.286171308623
 20
702.6608718344919
 30
0.0
 11
281.906854799853
 21
702.2815571883671
 31
0.0
  0
LINE
  5
42D7
330
A
100
AcDbEntity
  8
MODEL
100
AcDbLine
 10
281.906854799853
 20
702.2815571883671
 30
0.0
 11
281.4273950372798
 21
701.8020974257938
 31
0.0
  0
LINE
  5
42D8
330
A
100
AcDbEntity
  8
MODEL
100
AcDbLine
 10
281.4273950372798
 20
701.8020974257938
 30
0.0
 11
280.8538195406062
 21
701.2285219291202
 31
0.0
  0
LINE
  5
42D9
330
A
100
AcDbEntity
  8
MODEL
100
AcDbLine
 10
280.8538195406062
 20
701.2285219291202
 30
0.0
 11
280.1933404718501
 21
700.5680428603641
 31
0.0
  0
LINE
  5
42DA
330
A
100
AcDbEntity
  8
MODEL
100
AcDbLine
 10
280.1933404718501
 20
700.5680428603641
 30
0.0
 11
279.454265228377
 21
699.8289657542459
 31
0.0
  0
LINE
  5
42DB
330
A
100
AcDbEntity
  8
MODEL
100
AcDbLine
 10
279.454265228377
 20
699.8289657542459
 30
0.0
 11
278.6458846841914
 21
699.0205870727054
 31
0.0
  0
LINE
  5
42DC
330
A
100
AcDbEntity
  8
MODEL
100
AcDbLine
 10
278.6458846841914
 20
699.0205870727054
 30
0.0
 11
277.778368881808
 21
698.1530694076769
 31
0.0
  0
LINE
  5
42DD
330
A
100
AcDbEntity
  8
MODEL
100
AcDbLine
 10
277.778368881808
 20
698.1530694076769
 30
0.0
 11
276.8626180206401
 21
697.2373241344444
 31
0.0
  0
LINE
  5
42DE
330
A
100
AcDbEntity
  8
MODEL
100
AcDbLine
 10
276.8626180206401
 20
697.2373241344444
 30
0.0
 11
275.9101655994517
 21
696.2848679879658
 31
0.0
  0
LINE
  5
42DF
330
A
100
AcDbEntity
  8
MODEL
100
AcDbLine
 10
275.9101655994517
 20
696.2848679879658
 30
0.0
 11
274.9329772506816
 21
695.3076777765505
 31
0.0
  0
LINE
  5
42E0
330
A
100
AcDbEntity
  8
MODEL
100
AcDbLine
 10
274.9329772506816
 20
695.3076777765505
 30
0.0
 11
273.943338981734
 21
694.3180432328932
 31
0.0
  0
LINE
  5
42E1
330
A
100
AcDbEntity
  8
MODEL
100
AcDbLine
 10
273.943338981734
 20
694.3180432328932
 30
0.0
 11
272.9537007127864
 21
693.3284068265907
 31
0.0
  0
LINE
  5
42E2
330
A
100
AcDbEntity
  8
MODEL
100
AcDbLine
 10
272.9537007127864
 20
693.3284068265907
 30
0.0
 11
271.9765123640162
 21
692.3512166151754
 31
0.0
  0
LINE
  5
42E3
330
A
100
AcDbEntity
  8
MODEL
100
AcDbLine
 10
271.9765123640162
 20
692.3512166151754
 30
0.0
 11
271.0240599428279
 21
691.3987604686968
 31
0.0
  0
LINE
  5
42E4
330
A
100
AcDbEntity
  8
MODEL
100
AcDbLine
 10
271.0240599428279
 20
691.3987604686968
 30
0.0
 11
270.1083165322406
 21
690.4830170581095
 31
0.0
  0
LINE
  5
42E5
330
A
100
AcDbEntity
  8
MODEL
100
AcDbLine
 10
270.1083165322406
 20
690.4830170581095
 30
0.0
 11
269.2407932792765
 21
689.6154975304362
 31
0.0
  0
LINE
  5
42E6
330
A
100
AcDbEntity
  8
MODEL
100
AcDbLine
 10
269.2407932792765
 20
689.6154975304362
 30
0.0
 11
268.4324127350909
 21
688.8071207115408
 31
0.0
  0
LINE
  5
42E7
330
A
100
AcDbEntity
  8
MODEL
100
AcDbLine
 10
268.4324127350909
 20
688.8071207115408
 30
0.0
 11
267.6933374916179
 21
688.0680417427775
 31
0.0
  0
LINE
  5
42E8
330
A
100
AcDbEntity
  8
MODEL
100
AcDbLine
 10
267.6933374916179
 20
688.0680417427775
 30
0.0
 11
267.0328584228618
 21
687.4075626740214
 31
0.0
  0
LINE
  5
42E9
330
A
100
AcDbEntity
  8
MODEL
100
AcDbLine
 10
267.0328584228618
 20
687.4075626740214
 30
0.0
 11
266.4592829261882
 21
686.8339871773478
 31
0.0
  0
LINE
  5
42EA
330
A
100
AcDbEntity
  8
MODEL
100
AcDbLine
 10
266.4592829261882
 20
686.8339871773478
 30
0.0
 11
265.9798231636149
 21
686.3545274147746
 31
0.0
  0
LINE
  5
42EB
330
A
100
AcDbEntity
  8
MODEL
100
AcDbLine
 10
265.9798231636149
 20
686.3545274147746
 30
0.0
 11
265.6005141054255
 21
685.9752146312949
 31
0.0
  0
LINE
  5
42EC
330
A
100
AcDbEntity
  8
MODEL
100
AcDbLine
 10
265.6005141054255
 20
685.9752146312949
 30
0.0
 11
265.3261092220408
 21
685.7008171984908
 31
0.0
  0
LINE
  5
42ED
330
A
100
AcDbEntity
  8
MODEL
100
AcDbLine
 10
265.3261092220408
 20
685.7008171984908
 30
0.0
 11
265.160080484019
 21
685.5347847351786
 31
0.0
  0
LINE
  5
42EE
330
A
100
AcDbEntity
  8
MODEL
100
AcDbLine
 10
265.160080484019
 20
685.5347847351786
 30
0.0
 11
265.1045066033465
 21
685.4792071292159
 31
0.0
  0
LINE
  5
42EF
330
A
100
AcDbEntity
  8
MODEL
100
AcDbLine
 10
311.0664454017741
 20
691.441150547003
 30
0.0
 11
311.0664454017741
 21
666.4411483118292
 31
0.0
  0
LINE
  5
42F3
330
A
100
AcDbEntity
  8
MODEL
100
AcDbLine
 10
157.7403959547145
 20
467.5276280447201
 30
0.0
 11
157.7403959547145
 21
468.5276300712781
 31
0.0
  0
LINE
  5
42F4
330
A
100
AcDbEntity
  8
MODEL
100
AcDbLine
 10
141.7750385318858
 20
468.5276300712781
 30
0.0
 11
141.7750385318858
 21
467.5276280447201
 31
0.0
  0
LINE
  5
42F5
330
A
100
AcDbEntity
  8
MODEL
100
AcDbLine
 10
172.7664139782054
 20
467.5276280447201
 30
0.0
 11
172.7664139782054
 21
468.5276300712781
 31
0.0
  0
LINE
  5
42F6
330
A
100
AcDbEntity
  8
MODEL
100
AcDbLine
 10
139.5930465971095
 20
417.5276300936298
 30
0.0
 11
138.1788369928462
 21
417.5276300936298
 31
0.0
  0
LINE
  5
42F7
330
A
100
AcDbEntity
  8
MODEL
100
AcDbLine
 10
503.0664470707042
 20
417.5276300936298
 30
0.0
 11
501.0664430175883
 21
417.5276300936298
 31
0.0
  0
LINE
  5
42F8
330
A
100
AcDbEntity
  8
MODEL
100
AcDbLine
 10
501.0664430175883
 20
392.5276287897782
 30
0.0
 11
503.0664470707042
 21
392.5276287897782
 31
0.0
  0
LINE
  5
42F9
330
A
100
AcDbEntity
  8
MODEL
100
AcDbLine
 10
137.59599297391
 20
467.5276280447201
 30
0.0
 11
137.59599297391
 21
417.5004233672576
 31
0.0
  0
LINE
  5
42FA
330
A
100
AcDbEntity
  8
MODEL
100
AcDbLine
 10
176.94544463502
 20
414.0276295199351
 30
0.0
 11
176.94544463502
 21
467.5276280447201
 31
0.0
  0
LINE
  5
42FB
330
A
100
AcDbEntity
  8
MODEL
100
AcDbLine
 10
143.8356903110606
 20
417.5276300936298
 30
0.0
 11
139.5930465971095
 21
417.5276300936298
 31
0.0
  0
LINE
  5
42FC
330
A
100
AcDbEntity
  8
MODEL
100
AcDbLine
 10
273.943338981734
 20
417.5276300936298
 30
0.0
 11
176.94544463502
 21
417.5276300936298
 31
0.0
  0
LINE
  5
42FD
330
A
100
AcDbEntity
  8
MODEL
100
AcDbLine
 10
311.0664454017741
 20
417.5276300936298
 30
0.0
 11
273.943338981734
 21
417.5276300936298
 31
0.0
  0
LINE
  5
42FE
330
A
100
AcDbEntity
  8
MODEL
100
AcDbLine
 10
457.0664432560069
 20
417.5276300936298
 30
0.0
 11
311.0664454017741
 21
417.5276300936298
 31
0.0
  0
LINE
  5
42FF
330
A
100
AcDbEntity
  8
MODEL
100
AcDbLine
 10
501.0664430175883
 20
417.5276300936298
 30
0.0
 11
495.066445759402
 21
417.5276300936298
 31
0.0
  0
LINE
  5
4300
330
A
100
AcDbEntity
  8
MODEL
100
AcDbLine
 10
311.0664454017741
 20
392.5276287897782
 30
0.0
 11
501.0664430175883
 21
392.5276287897782
 31
0.0
  0
LINE
  5
4301
330
A
100
AcDbEntity
  8
MODEL
100
AcDbLine
 10
471.0664418254954
 20
467.5276280447201
 30
0.0
 11
471.0664418254954
 21
468.5276300712781
 31
0.0
  0
LINE
  5
4302
330
A
100
AcDbEntity
  8
MODEL
100
AcDbLine
 10
470.0664472495181
 20
467.5276280447201
 30
0.0
 11
470.0664472495181
 21
468.5276300712781
 31
0.0
  0
LINE
  5
4303
330
A
100
AcDbEntity
  8
MODEL
100
AcDbLine
 10
470.0664472495181
 20
468.5276300712781
 30
0.0
 11
471.0664418254954
 21
468.5276300712781
 31
0.0
  0
LINE
  5
4304
330
A
100
AcDbEntity
  8
MODEL
100
AcDbLine
 10
491.3164493356807
 20
467.5276280447201
 30
0.0
 11
491.3164493356807
 21
468.5276300712781
 31
0.0
  0
LINE
  5
4305
330
A
100
AcDbEntity
  8
MODEL
100
AcDbLine
 10
482.0664492164714
 20
468.5276300712781
 30
0.0
 11
482.0664492164714
 21
467.5276280447201
 31
0.0
  0
LINE
  5
4306
330
A
100
AcDbEntity
  8
MODEL
100
AcDbLine
 10
482.0664492164714
 20
468.5276300712781
 30
0.0
 11
491.3164493356807
 21
468.5276300712781
 31
0.0
  0
LINE
  5
4307
330
A
100
AcDbEntity
  8
MODEL
100
AcDbLine
 10
460.8164471303088
 20
468.5276300712781
 30
0.0
 11
460.8164471303088
 21
467.5276280447201
 31
0.0
  0
LINE
  5
4308
330
A
100
AcDbEntity
  8
MODEL
100
AcDbLine
 10
460.8164471303088
 20
468.5276300712781
 30
0.0
 11
470.0664472495181
 21
468.5276300712781
 31
0.0
  0
LINE
  5
4309
330
A
100
AcDbEntity
  8
MODEL
100
AcDbLine
 10
481.0664471899134
 20
468.5276300712781
 30
0.0
 11
481.0664471899134
 21
467.5276280447201
 31
0.0
  0
LINE
  5
430A
330
A
100
AcDbEntity
  8
MODEL
100
AcDbLine
 10
481.0664471899134
 20
468.5276300712781
 30
0.0
 11
482.0664492164714
 21
468.5276300712781
 31
0.0
  0
LINE
  5
430B
330
A
100
AcDbEntity
  8
MODEL
100
AcDbLine
 10
459.8164451037509
 20
467.5276280447201
 30
0.0
 11
459.8164451037509
 21
468.5276300712781
 31
0.0
  0
LINE
  5
430C
330
A
100
AcDbEntity
  8
MODEL
100
AcDbLine
 10
459.8164451037509
 20
468.5276300712781
 30
0.0
 11
460.8164471303088
 21
468.5276300712781
 31
0.0
  0
LINE
  5
430D
330
A
100
AcDbEntity
  8
MODEL
100
AcDbLine
 10
492.3164513622386
 20
468.5276300712781
 30
0.0
 11
492.3164513622386
 21
467.5276280447201
 31
0.0
  0
LINE
  5
430E
330
A
100
AcDbEntity
  8
MODEL
100
AcDbLine
 10
491.3164493356807
 20
468.5276300712781
 30
0.0
 11
492.3164513622386
 21
468.5276300712781
 31
0.0
  0
LINE
  5
430F
330
A
100
AcDbEntity
  8
MODEL
100
AcDbLine
 10
472.0664438520533
 20
468.5276300712781
 30
0.0
 11
472.0664438520533
 21
467.5276280447201
 31
0.0
  0
LINE
  5
4310
330
A
100
AcDbEntity
  8
MODEL
100
AcDbLine
 10
471.0664418254954
 20
468.5276300712781
 30
0.0
 11
472.0664438520533
 21
468.5276300712781
 31
0.0
  0
LINE
  5
4311
330
A
100
AcDbEntity
  8
MODEL
100
AcDbLine
 10
480.0664451633555
 20
467.5276280447201
 30
0.0
 11
480.0664451633555
 21
468.5276300712781
 31
0.0
  0
LINE
  5
4312
330
A
100
AcDbEntity
  8
MODEL
100
AcDbLine
 10
480.0664451633555
 20
468.5276300712781
 30
0.0
 11
481.0664471899134
 21
468.5276300712781
 31
0.0
  0
LINE
  5
4313
330
A
100
AcDbEntity
  8
MODEL
100
AcDbLine
 10
472.0664438520533
 20
468.5276300712781
 30
0.0
 11
480.0664451633555
 21
468.5276300712781
 31
0.0
  0
LINE
  5
4314
330
A
100
AcDbEntity
  8
MODEL
100
AcDbLine
 10
150.9067532335383
 20
468.5276300712781
 30
0.0
 11
150.9067532335383
 21
467.5276280447201
 31
0.0
  0
LINE
  5
4315
330
A
100
AcDbEntity
  8
MODEL
100
AcDbLine
 10
149.492543629275
 20
467.5276280447201
 30
0.0
 11
149.492543629275
 21
468.5276300712781
 31
0.0
  0
LINE
  5
4316
330
A
100
AcDbEntity
  8
MODEL
100
AcDbLine
 10
149.492543629275
 20
468.5276300712781
 30
0.0
 11
150.9067532335383
 21
468.5276300712781
 31
0.0
  0
LINE
  5
4317
330
A
100
AcDbEntity
  8
MODEL
100
AcDbLine
 10
157.4474987302882
 20
467.5276280447201
 30
0.0
 11
157.4474987302882
 21
468.5276300712781
 31
0.0
  0
LINE
  5
4318
330
A
100
AcDbEntity
  8
MODEL
100
AcDbLine
 10
150.9067532335383
 20
468.5276300712781
 30
0.0
 11
157.4474987302882
 21
468.5276300712781
 31
0.0
  0
LINE
  5
4319
330
A
100
AcDbEntity
  8
MODEL
100
AcDbLine
 10
142.0679208551509
 20
468.5276300712781
 30
0.0
 11
142.0679208551509
 21
467.5276280447201
 31
0.0
  0
LINE
  5
431A
330
A
100
AcDbEntity
  8
MODEL
100
AcDbLine
 10
142.0679208551509
 20
468.5276300712781
 30
0.0
 11
149.492543629275
 21
468.5276300712781
 31
0.0
  0
LINE
  5
431B
330
A
100
AcDbEntity
  8
MODEL
100
AcDbLine
 10
157.4474987302882
 20
468.5276300712781
 30
0.0
 11
157.7403959547145
 21
468.5276300712781
 31
0.0
  0
LINE
  5
431C
330
A
100
AcDbEntity
  8
MODEL
100
AcDbLine
 10
141.7750385318858
 20
468.5276300712781
 30
0.0
 11
142.0679208551509
 21
468.5276300712781
 31
0.0
  0
LINE
  5
431D
330
A
100
AcDbEntity
  8
MODEL
100
AcDbLine
 10
163.1043520485026
 20
467.5276280447201
 30
0.0
 11
163.1043520485026
 21
468.5276300712781
 31
0.0
  0
LINE
  5
431E
330
A
100
AcDbEntity
  8
MODEL
100
AcDbLine
 10
157.7403959547145
 20
468.5276300712781
 30
0.0
 11
163.1043520485026
 21
468.5276300712781
 31
0.0
  0
LINE
  5
431F
330
A
100
AcDbEntity
  8
MODEL
100
AcDbLine
 10
164.5185616527659
 20
468.5276300712781
 30
0.0
 11
164.5185616527659
 21
467.5276280447201
 31
0.0
  0
LINE
  5
4320
330
A
100
AcDbEntity
  8
MODEL
100
AcDbLine
 10
163.1043520485026
 20
468.5276300712781
 30
0.0
 11
164.5185616527659
 21
468.5276300712781
 31
0.0
  0
LINE
  5
4321
330
A
100
AcDbEntity
  8
MODEL
100
AcDbLine
 10
165.9327861581904
 20
468.5276300712781
 30
0.0
 11
165.9327861581904
 21
467.5276280447201
 31
0.0
  0
LINE
  5
4322
330
A
100
AcDbEntity
  8
MODEL
100
AcDbLine
 10
164.5185616527659
 20
468.5276300712781
 30
0.0
 11
165.9327861581904
 21
468.5276300712781
 31
0.0
  0
LINE
  5
4323
330
A
100
AcDbEntity
  8
MODEL
100
AcDbLine
 10
172.4735167537791
 20
467.5276280447201
 30
0.0
 11
172.4735167537791
 21
468.5276300712781
 31
0.0
  0
LINE
  5
4324
330
A
100
AcDbEntity
  8
MODEL
100
AcDbLine
 10
165.9327861581904
 20
468.5276300712781
 30
0.0
 11
172.4735167537791
 21
468.5276300712781
 31
0.0
  0
LINE
  5
4325
330
A
100
AcDbEntity
  8
MODEL
100
AcDbLine
 10
172.4735167537791
 20
468.5276300712781
 30
0.0
 11
172.7664139782054
 21
468.5276300712781
 31
0.0
  0
LINE
  5
4326
330
A
100
AcDbEntity
  8
MODEL
100
AcDbLine
 10
138.1788369928462
 20
392.5276287897782
 30
0.0
 11
139.1684678112132
 21
392.6062268271403
 31
0.0
  0
LINE
  5
4327
330
A
100
AcDbEntity
  8
MODEL
100
AcDbLine
 10
139.1684678112132
 20
392.6062268271403
 30
0.0
 11
140.1456561599833
 21
392.8410300120072
 31
0.0
  0
LINE
  5
4328
330
A
100
AcDbEntity
  8
MODEL
100
AcDbLine
 10
140.1456561599833
 20
392.8410300120072
 30
0.0
 11
141.0981234823329
 21
393.2290879144625
 31
0.0
  0
LINE
  5
4329
330
A
100
AcDbEntity
  8
MODEL
100
AcDbLine
 10
141.0981234823329
 20
393.2290879144625
 30
0.0
 11
142.0138594423396
 21
393.7655185415701
 31
0.0
  0
LINE
  5
432A
330
A
100
AcDbEntity
  8
MODEL
100
AcDbLine
 10
142.0138594423396
 20
393.7655185415701
 30
0.0
 11
142.881375244723
 21
394.4435772552447
 31
0.0
  0
LINE
  5
432B
330
A
100
AcDbEntity
  8
MODEL
100
AcDbLine
 10
142.881375244723
 20
394.4435772552447
 30
0.0
 11
143.6897632394893
 21
395.2547359346704
 31
0.0
  0
LINE
  5
432C
330
A
100
AcDbEntity
  8
MODEL
100
AcDbLine
 10
143.6897632394893
 20
395.2547359346704
 30
0.0
 11
144.4288310323817
 21
396.1887947350101
 31
0.0
  0
LINE
  5
432D
330
A
100
AcDbEntity
  8
MODEL
100
AcDbLine
 10
144.4288310323817
 20
396.1887947350101
 30
0.0
 11
145.0893101011378
 21
397.2340068846302
 31
0.0
  0
LINE
  5
432E
330
A
100
AcDbEntity
  8
MODEL
100
AcDbLine
 10
145.0893101011378
 20
397.2340068846302
 30
0.0
 11
145.6628855978114
 21
398.377228628035
 31
0.0
  0
LINE
  5
432F
330
A
100
AcDbEntity
  8
MODEL
100
AcDbLine
 10
145.6628855978114
 20
398.377228628035
 30
0.0
 11
146.1423453603846
 21
399.6040831386404
 31
0.0
  0
LINE
  5
4330
330
A
100
AcDbEntity
  8
MODEL
100
AcDbLine
 10
146.1423453603846
 20
399.6040831386404
 30
0.0
 11
146.5216693197352
 21
400.8991411953525
 31
0.0
  0
LINE
  5
4331
330
A
100
AcDbEntity
  8
MODEL
100
AcDbLine
 10
146.5216693197352
 20
400.8991411953525
 30
0.0
 11
146.7960593019587
 21
402.246118157293
 31
0.0
  0
LINE
  5
4332
330
A
100
AcDbEntity
  8
MODEL
100
AcDbLine
 10
146.7960593019587
 20
402.246118157293
 30
0.0
 11
146.9621029411418
 21
403.628073732491
 31
0.0
  0
LINE
  5
4333
330
A
100
AcDbEntity
  8
MODEL
100
AcDbLine
 10
146.9621029411418
 20
403.628073732491
 30
0.0
 11
147.0176693712336
 21
405.0276299073653
 31
0.0
  0
LINE
  5
4334
330
A
100
AcDbEntity
  8
MODEL
100
AcDbLine
 10
147.0176693712336
 20
405.0276299073653
 30
0.0
 11
146.9621029411418
 21
406.4271856165783
 31
0.0
  0
LINE
  5
4335
330
A
100
AcDbEntity
  8
MODEL
100
AcDbLine
 10
146.9621029411418
 20
406.4271856165783
 30
0.0
 11
146.7960593019587
 21
407.8091414246069
 31
0.0
  0
LINE
  5
4336
330
A
100
AcDbEntity
  8
MODEL
100
AcDbLine
 10
146.7960593019587
 20
407.8091414246069
 30
0.0
 11
146.5216693197352
 21
409.1561179863697
 31
0.0
  0
LINE
  5
4337
330
A
100
AcDbEntity
  8
MODEL
100
AcDbLine
 10
146.5216693197352
 20
409.1561179863697
 30
0.0
 11
146.1423453603846
 21
410.4511764432596
 31
0.0
  0
LINE
  5
4338
330
A
100
AcDbEntity
  8
MODEL
100
AcDbLine
 10
146.1423453603846
 20
410.4511764432596
 30
0.0
 11
145.6628855978114
 21
411.6780307210342
 31
0.0
  0
LINE
  5
4339
330
A
100
AcDbEntity
  8
MODEL
100
AcDbLine
 10
145.6628855978114
 20
411.6780307210342
 30
0.0
 11
145.0893101011378
 21
412.8212522316085
 31
0.0
  0
LINE
  5
433A
330
A
100
AcDbEntity
  8
MODEL
100
AcDbLine
 10
145.0893101011378
 20
412.8212522316085
 30
0.0
 11
144.4288310323817
 21
413.8664646140592
 31
0.0
  0
LINE
  5
433B
330
A
100
AcDbEntity
  8
MODEL
100
AcDbLine
 10
144.4288310323817
 20
413.8664646140592
 30
0.0
 11
143.6897632394893
 21
414.8005234143989
 31
0.0
  0
LINE
  5
433C
330
A
100
AcDbEntity
  8
MODEL
100
AcDbLine
 10
143.6897632394893
 20
414.8005234143989
 30
0.0
 11
142.881375244723
 21
415.6116820938246
 31
0.0
  0
LINE
  5
433D
330
A
100
AcDbEntity
  8
MODEL
100
AcDbLine
 10
142.881375244723
 20
415.6116820938246
 30
0.0
 11
142.0138594423396
 21
416.2897403418378
 31
0.0
  0
LINE
  5
433E
330
A
100
AcDbEntity
  8
MODEL
100
AcDbLine
 10
142.0138594423396
 20
416.2897403418378
 30
0.0
 11
141.0981234823329
 21
416.8261714346067
 31
0.0
  0
LINE
  5
433F
330
A
100
AcDbEntity
  8
MODEL
100
AcDbLine
 10
141.0981234823329
 20
416.8261714346067
 30
0.0
 11
140.1456561599833
 21
417.2142288714008
 31
0.0
  0
LINE
  5
4340
330
A
100
AcDbEntity
  8
MODEL
100
AcDbLine
 10
140.1456561599833
 20
417.2142288714008
 30
0.0
 11
139.1684678112132
 21
417.4490320562677
 31
0.0
  0
LINE
  5
4341
330
A
100
AcDbEntity
  8
MODEL
100
AcDbLine
 10
139.1684678112132
 20
417.4490320562677
 30
0.0
 11
138.1788369928462
 21
417.5276300936298
 31
0.0
  0
LINE
  5
4342
330
A
100
AcDbEntity
  8
MODEL
100
AcDbLine
 10
138.1788369928462
 20
417.5276300936298
 30
0.0
 11
137.1892061744792
 21
417.4490320562677
 31
0.0
  0
LINE
  5
4343
330
A
100
AcDbEntity
  8
MODEL
100
AcDbLine
 10
137.1892061744792
 20
417.4490320562677
 30
0.0
 11
136.212017825709
 21
417.2142288714008
 31
0.0
  0
LINE
  5
4344
330
A
100
AcDbEntity
  8
MODEL
100
AcDbLine
 10
136.212017825709
 20
417.2142288714008
 30
0.0
 11
135.2595505033595
 21
416.8261714346067
 31
0.0
  0
LINE
  5
4345
330
A
100
AcDbEntity
  8
MODEL
100
AcDbLine
 10
135.2595505033595
 20
416.8261714346067
 30
0.0
 11
134.3438145433528
 21
416.2897403418378
 31
0.0
  0
LINE
  5
4346
330
A
100
AcDbEntity
  8
MODEL
100
AcDbLine
 10
134.3438145433528
 20
416.2897403418378
 30
0.0
 11
133.4762987409694
 21
415.6116820938246
 31
0.0
  0
LINE
  5
4347
330
A
100
AcDbEntity
  8
MODEL
100
AcDbLine
 10
133.4762987409694
 20
415.6116820938246
 30
0.0
 11
132.6679107462031
 21
414.8005234143989
 31
0.0
  0
LINE
  5
4348
330
A
100
AcDbEntity
  8
MODEL
100
AcDbLine
 10
132.6679107462031
 20
414.8005234143989
 30
0.0
 11
131.9288429533107
 21
413.8664646140592
 31
0.0
  0
LINE
  5
4349
330
A
100
AcDbEntity
  8
MODEL
100
AcDbLine
 10
131.9288429533107
 20
413.8664646140592
 30
0.0
 11
131.2683638845546
 21
412.8212522316085
 31
0.0
  0
LINE
  5
434A
330
A
100
AcDbEntity
  8
MODEL
100
AcDbLine
 10
131.2683638845546
 20
412.8212522316085
 30
0.0
 11
130.694788387881
 21
411.6780307210342
 31
0.0
  0
LINE
  5
434B
330
A
100
AcDbEntity
  8
MODEL
100
AcDbLine
 10
130.694788387881
 20
411.6780307210342
 30
0.0
 11
130.2153286253077
 21
410.4511764432596
 31
0.0
  0
LINE
  5
434C
330
A
100
AcDbEntity
  8
MODEL
100
AcDbLine
 10
130.2153286253077
 20
410.4511764432596
 30
0.0
 11
129.8360046659571
 21
409.1561179863697
 31
0.0
  0
LINE
  5
434D
330
A
100
AcDbEntity
  8
MODEL
100
AcDbLine
 10
129.8360046659571
 20
409.1561179863697
 30
0.0
 11
129.5616146837336
 21
407.8091414246069
 31
0.0
  0
LINE
  5
434E
330
A
100
AcDbEntity
  8
MODEL
100
AcDbLine
 10
129.5616146837336
 20
407.8091414246069
 30
0.0
 11
129.3955859457118
 21
406.4271856165783
 31
0.0
  0
LINE
  5
434F
330
A
100
AcDbEntity
  8
MODEL
100
AcDbLine
 10
129.3955859457118
 20
406.4271856165783
 30
0.0
 11
129.3400046144587
 21
405.0276299073653
 31
0.0
  0
LINE
  5
4350
330
A
100
AcDbEntity
  8
MODEL
100
AcDbLine
 10
129.3400046144587
 20
405.0276299073653
 30
0.0
 11
129.3955859457118
 21
403.628073732491
 31
0.0
  0
LINE
  5
4351
330
A
100
AcDbEntity
  8
MODEL
100
AcDbLine
 10
129.3955859457118
 20
403.628073732491
 30
0.0
 11
129.5616146837336
 21
402.246118157293
 31
0.0
  0
LINE
  5
4352
330
A
100
AcDbEntity
  8
MODEL
100
AcDbLine
 10
129.5616146837336
 20
402.246118157293
 30
0.0
 11
129.8360046659571
 21
400.8991411953525
 31
0.0
  0
LINE
  5
4353
330
A
100
AcDbEntity
  8
MODEL
100
AcDbLine
 10
129.8360046659571
 20
400.8991411953525
 30
0.0
 11
130.2153286253077
 21
399.6040831386404
 31
0.0
  0
LINE
  5
4354
330
A
100
AcDbEntity
  8
MODEL
100
AcDbLine
 10
130.2153286253077
 20
399.6040831386404
 30
0.0
 11
130.694788387881
 21
398.377228628035
 31
0.0
  0
LINE
  5
4355
330
A
100
AcDbEntity
  8
MODEL
100
AcDbLine
 10
130.694788387881
 20
398.377228628035
 30
0.0
 11
131.2683638845546
 21
397.2340068846302
 31
0.0
  0
LINE
  5
4356
330
A
100
AcDbEntity
  8
MODEL
100
AcDbLine
 10
131.2683638845546
 20
397.2340068846302
 30
0.0
 11
131.9288429533107
 21
396.1887947350101
 31
0.0
  0
LINE
  5
4357
330
A
100
AcDbEntity
  8
MODEL
100
AcDbLine
 10
131.9288429533107
 20
396.1887947350101
 30
0.0
 11
132.6679107462031
 21
395.2547359346704
 31
0.0
  0
LINE
  5
4358
330
A
100
AcDbEntity
  8
MODEL
100
AcDbLine
 10
132.6679107462031
 20
395.2547359346704
 30
0.0
 11
133.4762987409694
 21
394.4435772552447
 31
0.0
  0
LINE
  5
4359
330
A
100
AcDbEntity
  8
MODEL
100
AcDbLine
 10
133.4762987409694
 20
394.4435772552447
 30
0.0
 11
134.3438145433528
 21
393.7655185415701
 31
0.0
  0
LINE
  5
435A
330
A
100
AcDbEntity
  8
MODEL
100
AcDbLine
 10
134.3438145433528
 20
393.7655185415701
 30
0.0
 11
135.2595505033595
 21
393.2290879144625
 31
0.0
  0
LINE
  5
435B
330
A
100
AcDbEntity
  8
MODEL
100
AcDbLine
 10
135.2595505033595
 20
393.2290879144625
 30
0.0
 11
136.212017825709
 21
392.8410300120072
 31
0.0
  0
LINE
  5
435C
330
A
100
AcDbEntity
  8
MODEL
100
AcDbLine
 10
136.212017825709
 20
392.8410300120072
 30
0.0
 11
137.1892061744792
 21
392.6062268271403
 31
0.0
  0
LINE
  5
435D
330
A
100
AcDbEntity
  8
MODEL
100
AcDbLine
 10
137.1892061744792
 20
392.6062268271403
 30
0.0
 11
138.1788369928462
 21
392.5276287897782
 31
0.0
  0
LINE
  5
435E
330
A
100
AcDbEntity
  8
MODEL
100
AcDbLine
 10
139.5930465971095
 20
392.5276287897782
 30
0.0
 11
140.5826923166377
 21
392.6062268271403
 31
0.0
  0
LINE
  5
435F
330
A
100
AcDbEntity
  8
MODEL
100
AcDbLine
 10
140.5826923166377
 20
392.6062268271403
 30
0.0
 11
141.5598806654078
 21
392.8410300120072
 31
0.0
  0
LINE
  5
4360
330
A
100
AcDbEntity
  8
MODEL
100
AcDbLine
 10
141.5598806654078
 20
392.8410300120072
 30
0.0
 11
142.5123330865962
 21
393.2290879144625
 31
0.0
  0
LINE
  5
4361
330
A
100
AcDbEntity
  8
MODEL
100
AcDbLine
 10
142.5123330865962
 20
393.2290879144625
 30
0.0
 11
143.4280839477641
 21
393.7655185415701
 31
0.0
  0
LINE
  5
4362
330
A
100
AcDbEntity
  8
MODEL
100
AcDbLine
 10
143.4280839477641
 20
393.7655185415701
 30
0.0
 11
144.2955997501475
 21
394.4435772552447
 31
0.0
  0
LINE
  5
4363
330
A
100
AcDbEntity
  8
MODEL
100
AcDbLine
 10
144.2955997501475
 20
394.4435772552447
 30
0.0
 11
145.1039728437526
 21
395.2547359346704
 31
0.0
  0
LINE
  5
4364
330
A
100
AcDbEntity
  8
MODEL
100
AcDbLine
 10
145.1039728437526
 20
395.2547359346704
 30
0.0
 11
145.8430555378062
 21
396.1887947350101
 31
0.0
  0
LINE
  5
4365
330
A
100
AcDbEntity
  8
MODEL
100
AcDbLine
 10
145.8430555378062
 20
396.1887947350101
 30
0.0
 11
146.5035346065623
 21
397.2340068846302
 31
0.0
  0
LINE
  5
4366
330
A
100
AcDbEntity
  8
MODEL
100
AcDbLine
 10
146.5035346065623
 20
397.2340068846302
 30
0.0
 11
147.0771101032359
 21
398.377228628035
 31
0.0
  0
LINE
  5
4367
330
A
100
AcDbEntity
  8
MODEL
100
AcDbLine
 10
147.0771101032359
 20
398.377228628035
 30
0.0
 11
147.5565698658091
 21
399.6040831386404
 31
0.0
  0
LINE
  5
4368
330
A
100
AcDbEntity
  8
MODEL
100
AcDbLine
 10
147.5565698658091
 20
399.6040831386404
 30
0.0
 11
147.9358789239985
 21
400.8991411953525
 31
0.0
  0
LINE
  5
4369
330
A
100
AcDbEntity
  8
MODEL
100
AcDbLine
 10
147.9358789239985
 20
400.8991411953525
 30
0.0
 11
148.2102838073832
 21
402.246118157293
 31
0.0
  0
LINE
  5
436A
330
A
100
AcDbEntity
  8
MODEL
100
AcDbLine
 10
148.2102838073832
 20
402.246118157293
 30
0.0
 11
148.3763125454051
 21
403.628073732491
 31
0.0
  0
LINE
  5
436B
330
A
100
AcDbEntity
  8
MODEL
100
AcDbLine
 10
148.3763125454051
 20
403.628073732491
 30
0.0
 11
148.4318789754969
 21
405.0276299073653
 31
0.0
  0
LINE
  5
436C
330
A
100
AcDbEntity
  8
MODEL
100
AcDbLine
 10
148.4318789754969
 20
405.0276299073653
 30
0.0
 11
148.3763125454051
 21
406.4271856165783
 31
0.0
  0
LINE
  5
436D
330
A
100
AcDbEntity
  8
MODEL
100
AcDbLine
 10
148.3763125454051
 20
406.4271856165783
 30
0.0
 11
148.2102838073832
 21
407.8091414246069
 31
0.0
  0
LINE
  5
436E
330
A
100
AcDbEntity
  8
MODEL
100
AcDbLine
 10
148.2102838073832
 20
407.8091414246069
 30
0.0
 11
147.9358789239985
 21
409.1561179863697
 31
0.0
  0
LINE
  5
436F
330
A
100
AcDbEntity
  8
MODEL
100
AcDbLine
 10
147.9358789239985
 20
409.1561179863697
 30
0.0
 11
147.5565698658091
 21
410.4511764432596
 31
0.0
  0
LINE
  5
4370
330
A
100
AcDbEntity
  8
MODEL
100
AcDbLine
 10
147.5565698658091
 20
410.4511764432596
 30
0.0
 11
147.0771101032359
 21
411.6780307210342
 31
0.0
  0
LINE
  5
4371
330
A
100
AcDbEntity
  8
MODEL
100
AcDbLine
 10
147.0771101032359
 20
411.6780307210342
 30
0.0
 11
146.5035346065623
 21
412.8212522316085
 31
0.0
  0
LINE
  5
4372
330
A
100
AcDbEntity
  8
MODEL
100
AcDbLine
 10
146.5035346065623
 20
412.8212522316085
 30
0.0
 11
145.8430555378062
 21
413.8664646140592
 31
0.0
  0
LINE
  5
4373
330
A
100
AcDbEntity
  8
MODEL
100
AcDbLine
 10
145.8430555378062
 20
413.8664646140592
 30
0.0
 11
145.1039728437526
 21
414.8005234143989
 31
0.0
  0
LINE
  5
4374
330
A
100
AcDbEntity
  8
MODEL
100
AcDbLine
 10
145.1039728437526
 20
414.8005234143989
 30
0.0
 11
144.2955997501475
 21
415.6116820938246
 31
0.0
  0
LINE
  5
4375
330
A
100
AcDbEntity
  8
MODEL
100
AcDbLine
 10
144.2955997501475
 20
415.6116820938246
 30
0.0
 11
143.4280839477641
 21
416.2897403418378
 31
0.0
  0
LINE
  5
4376
330
A
100
AcDbEntity
  8
MODEL
100
AcDbLine
 10
143.4280839477641
 20
416.2897403418378
 30
0.0
 11
142.5123330865962
 21
416.8261714346067
 31
0.0
  0
LINE
  5
4377
330
A
100
AcDbEntity
  8
MODEL
100
AcDbLine
 10
142.5123330865962
 20
416.8261714346067
 30
0.0
 11
141.5598806654078
 21
417.2142288714008
 31
0.0
  0
LINE
  5
4378
330
A
100
AcDbEntity
  8
MODEL
100
AcDbLine
 10
141.5598806654078
 20
417.2142288714008
 30
0.0
 11
140.5826923166377
 21
417.4490320562677
 31
0.0
  0
LINE
  5
4379
330
A
100
AcDbEntity
  8
MODEL
100
AcDbLine
 10
140.5826923166377
 20
417.4490320562677
 30
0.0
 11
139.5930465971095
 21
417.5276300936298
 31
0.0
  0
LINE
  5
437A
330
A
100
AcDbEntity
  8
MODEL
100
AcDbLine
 10
503.0664470707042
 20
417.5276300936298
 30
0.0
 11
503.0664470707042
 21
392.5276287897782
 31
0.0
  0
LINE
  5
437B
330
A
100
AcDbEntity
  8
MODEL
100
AcDbLine
 10
501.0664430175883
 20
417.5276300936298
 30
0.0
 11
501.0664430175883
 21
392.5276287897782
 31
0.0
  0
LINE
  5
437C
330
A
100
AcDbEntity
  8
MODEL
100
AcDbLine
 10
494.7664406810862
 20
414.0276295199351
 30
0.0
 11
494.7664406810862
 21
467.5276280447201
 31
0.0
  0
LINE
  5
437D
330
A
100
AcDbEntity
  8
MODEL
100
AcDbLine
 10
494.7664406810862
 20
467.5276280447201
 30
0.0
 11
495.066445759402
 21
467.5276280447201
 31
0.0
  0
LINE
  5
437E
330
A
100
AcDbEntity
  8
MODEL
100
AcDbLine
 10
495.066445759402
 20
467.5276280447201
 30
0.0
 11
495.066445759402
 21
414.0276295199351
 31
0.0
  0
LINE
  5
437F
330
A
100
AcDbEntity
  8
MODEL
100
AcDbLine
 10
495.066445759402
 20
414.0276295199351
 30
0.0
 11
494.7664406810862
 21
414.0276295199351
 31
0.0
  0
LINE
  5
4380
330
A
100
AcDbEntity
  8
MODEL
100
AcDbLine
 10
457.0664432560069
 20
414.0276295199351
 30
0.0
 11
457.0664432560069
 21
467.5276280447201
 31
0.0
  0
LINE
  5
4381
330
A
100
AcDbEntity
  8
MODEL
100
AcDbLine
 10
457.3664483343226
 20
467.5276280447201
 30
0.0
 11
457.3664483343226
 21
414.0276295199351
 31
0.0
  0
LINE
  5
4382
330
A
100
AcDbEntity
  8
MODEL
100
AcDbLine
 10
457.3664483343226
 20
414.0276295199351
 30
0.0
 11
457.0664432560069
 21
414.0276295199351
 31
0.0
  0
LINE
  5
4383
330
A
100
AcDbEntity
  8
MODEL
100
AcDbLine
 10
457.0664432560069
 20
467.5276280447201
 30
0.0
 11
457.3664483343226
 21
467.5276280447201
 31
0.0
  0
LINE
  5
4384
330
A
100
AcDbEntity
  8
MODEL
100
AcDbLine
 10
457.3664483343226
 20
414.0276295199351
 30
0.0
 11
494.7664406810862
 21
414.0276295199351
 31
0.0
  0
LINE
  5
4385
330
A
100
AcDbEntity
  8
MODEL
100
AcDbLine
 10
457.3664483343226
 20
467.5276280447201
 30
0.0
 11
494.7664406810862
 21
467.5276280447201
 31
0.0
  0
LINE
  5
4386
330
A
100
AcDbEntity
  8
MODEL
100
AcDbLine
 10
149.9875155006511
 20
414.0276295199351
 30
0.0
 11
149.9875155006511
 21
467.5276280447201
 31
0.0
  0
LINE
  5
4387
330
A
100
AcDbEntity
  8
MODEL
100
AcDbLine
 10
149.9875155006511
 20
467.5276280447201
 30
0.0
 11
150.4117813621623
 21
467.5276280447201
 31
0.0
  0
LINE
  5
4388
330
A
100
AcDbEntity
  8
MODEL
100
AcDbLine
 10
150.4117813621623
 20
467.5276280447201
 30
0.0
 11
150.4117813621623
 21
414.0276295199351
 31
0.0
  0
LINE
  5
4389
330
A
100
AcDbEntity
  8
MODEL
100
AcDbLine
 10
150.4117813621623
 20
414.0276295199351
 30
0.0
 11
149.9875155006511
 21
414.0276295199351
 31
0.0
  0
ARC
  5
438A
330
A
100
AcDbEntity
  8
MODEL
100
AcDbCircle
 10
143.4370471145015
 20
409.7039762690158
 30
0.0
 40
7.833803390790424
100
AcDbArc
 50
33.49901261351518
 51
87.08309733607027
  0
LINE
  5
438B
330
A
100
AcDbEntity
  8
MODEL
100
AcDbLine
 10
149.9875155006511
 20
467.5276280447201
 30
0.0
 11
137.6838651214701
 21
467.5276280447201
 31
0.0
  0
LINE
  5
438C
330
A
100
AcDbEntity
  8
MODEL
100
AcDbLine
 10
149.9875155006511
 20
414.0276295199351
 30
0.0
 11
149.9696192060572
 21
414.0276295199351
 31
0.0
  0
LINE
  5
438D
330
A
100
AcDbEntity
  8
MODEL
100
AcDbLine
 10
176.8575724874598
 20
414.0276295199351
 30
0.0
 11
176.8575724874598
 21
467.5276280447201
 31
0.0
  0
LINE
  5
438E
330
A
100
AcDbEntity
  8
MODEL
100
AcDbLine
 10
150.4117813621623
 20
467.5276280447201
 30
0.0
 11
176.8575724874598
 21
467.5276280447201
 31
0.0
  0
LINE
  5
438F
330
A
100
AcDbEntity
  8
MODEL
100
AcDbLine
 10
150.4117813621623
 20
414.0276295199351
 30
0.0
 11
176.8575724874598
 21
414.0276295199351
 31
0.0
  0
LINE
  5
4390
330
A
100
AcDbEntity
  8
MODEL
100
AcDbLine
 10
137.59599297391
 20
467.5276280447201
 30
0.0
 11
137.6838651214701
 21
467.5276280447201
 31
0.0
  0
LINE
  5
4391
330
A
100
AcDbEntity
  8
MODEL
100
AcDbLine
 10
176.8575724874598
 20
467.5276280447201
 30
0.0
 11
176.94544463502
 21
467.5276280447201
 31
0.0
  0
LINE
  5
4392
330
A
100
AcDbEntity
  8
MODEL
100
AcDbLine
 10
176.94544463502
 20
414.0276295199351
 30
0.0
 11
176.8575724874598
 21
414.0276295199351
 31
0.0
  0
LINE
  5
4393
330
A
100
AcDbEntity
  8
MODEL
100
AcDbLine
 10
148.4318789754969
 20
405.0276299073653
 30
0.0
 11
148.3763125454051
 21
403.628073732491
 31
0.0
  0
LINE
  5
4394
330
A
100
AcDbEntity
  8
MODEL
100
AcDbLine
 10
148.3763125454051
 20
403.628073732491
 30
0.0
 11
148.2102838073832
 21
402.246118157293
 31
0.0
  0
LINE
  5
4395
330
A
100
AcDbEntity
  8
MODEL
100
AcDbLine
 10
148.2102838073832
 20
402.246118157293
 30
0.0
 11
147.9358789239985
 21
400.8991411953525
 31
0.0
  0
LINE
  5
4396
330
A
100
AcDbEntity
  8
MODEL
100
AcDbLine
 10
147.9358789239985
 20
400.8991411953525
 30
0.0
 11
147.5565698658091
 21
399.6040831386404
 31
0.0
  0
LINE
  5
4397
330
A
100
AcDbEntity
  8
MODEL
100
AcDbLine
 10
147.5565698658091
 20
399.6040831386404
 30
0.0
 11
147.0771101032359
 21
398.377228628035
 31
0.0
  0
LINE
  5
4398
330
A
100
AcDbEntity
  8
MODEL
100
AcDbLine
 10
147.0771101032359
 20
398.377228628035
 30
0.0
 11
146.5035346065623
 21
397.2340068846302
 31
0.0
  0
LINE
  5
4399
330
A
100
AcDbEntity
  8
MODEL
100
AcDbLine
 10
146.5035346065623
 20
397.2340068846302
 30
0.0
 11
145.8430555378062
 21
396.1887947350101
 31
0.0
  0
LINE
  5
439A
330
A
100
AcDbEntity
  8
MODEL
100
AcDbLine
 10
145.8430555378062
 20
396.1887947350101
 30
0.0
 11
145.1039728437526
 21
395.2547359346704
 31
0.0
  0
LINE
  5
439B
330
A
100
AcDbEntity
  8
MODEL
100
AcDbLine
 10
145.1039728437526
 20
395.2547359346704
 30
0.0
 11
144.2955997501475
 21
394.4435772552447
 31
0.0
  0
LINE
  5
439C
330
A
100
AcDbEntity
  8
MODEL
100
AcDbLine
 10
144.2955997501475
 20
394.4435772552447
 30
0.0
 11
143.4280839477641
 21
393.7655185415701
 31
0.0
  0
LINE
  5
439D
330
A
100
AcDbEntity
  8
MODEL
100
AcDbLine
 10
143.4280839477641
 20
393.7655185415701
 30
0.0
 11
142.5123330865962
 21
393.2290879144625
 31
0.0
  0
LINE
  5
439E
330
A
100
AcDbEntity
  8
MODEL
100
AcDbLine
 10
142.5123330865962
 20
393.2290879144625
 30
0.0
 11
141.5598806654078
 21
392.8410300120072
 31
0.0
  0
LINE
  5
439F
330
A
100
AcDbEntity
  8
MODEL
100
AcDbLine
 10
141.5598806654078
 20
392.8410300120072
 30
0.0
 11
140.5826923166377
 21
392.6062268271403
 31
0.0
  0
LINE
  5
43A0
330
A
100
AcDbEntity
  8
MODEL
100
AcDbLine
 10
140.5826923166377
 20
392.6062268271403
 30
0.0
 11
139.5930465971095
 21
392.5276287897782
 31
0.0
  0
LINE
  5
43A1
330
A
100
AcDbEntity
  8
MODEL
100
AcDbLine
 10
139.5930465971095
 20
417.5276300936298
 30
0.0
 11
140.5826923166377
 21
417.4490320562677
 31
0.0
  0
LINE
  5
43A2
330
A
100
AcDbEntity
  8
MODEL
100
AcDbLine
 10
140.5826923166377
 20
417.4490320562677
 30
0.0
 11
141.5598806654078
 21
417.2142288714008
 31
0.0
  0
LINE
  5
43A3
330
A
100
AcDbEntity
  8
MODEL
100
AcDbLine
 10
141.5598806654078
 20
417.2142288714008
 30
0.0
 11
142.5123330865962
 21
416.8261714346067
 31
0.0
  0
LINE
  5
43A4
330
A
100
AcDbEntity
  8
MODEL
100
AcDbLine
 10
142.5123330865962
 20
416.8261714346067
 30
0.0
 11
143.4280839477641
 21
416.2897403418378
 31
0.0
  0
LINE
  5
43A5
330
A
100
AcDbEntity
  8
MODEL
100
AcDbLine
 10
143.4280839477641
 20
416.2897403418378
 30
0.0
 11
144.2955997501475
 21
415.6116820938246
 31
0.0
  0
LINE
  5
43A6
330
A
100
AcDbEntity
  8
MODEL
100
AcDbLine
 10
144.2955997501475
 20
415.6116820938246
 30
0.0
 11
145.1039728437526
 21
414.8005234143989
 31
0.0
  0
LINE
  5
43A7
330
A
100
AcDbEntity
  8
MODEL
100
AcDbLine
 10
145.1039728437526
 20
414.8005234143989
 30
0.0
 11
145.8430555378062
 21
413.8664646140592
 31
0.0
  0
LINE
  5
43A8
330
A
100
AcDbEntity
  8
MODEL
100
AcDbLine
 10
145.8430555378062
 20
413.8664646140592
 30
0.0
 11
146.5035346065623
 21
412.8212522316085
 31
0.0
  0
LINE
  5
43A9
330
A
100
AcDbEntity
  8
MODEL
100
AcDbLine
 10
146.5035346065623
 20
412.8212522316085
 30
0.0
 11
147.0771101032359
 21
411.6780307210342
 31
0.0
  0
LINE
  5
43AA
330
A
100
AcDbEntity
  8
MODEL
100
AcDbLine
 10
147.0771101032359
 20
411.6780307210342
 30
0.0
 11
147.5565698658091
 21
410.4511764432596
 31
0.0
  0
LINE
  5
43AB
330
A
100
AcDbEntity
  8
MODEL
100
AcDbLine
 10
147.5565698658091
 20
410.4511764432596
 30
0.0
 11
147.9358789239985
 21
409.1561179863697
 31
0.0
  0
LINE
  5
43AC
330
A
100
AcDbEntity
  8
MODEL
100
AcDbLine
 10
147.9358789239985
 20
409.1561179863697
 30
0.0
 11
148.2102838073832
 21
407.8091414246069
 31
0.0
  0
LINE
  5
43AD
330
A
100
AcDbEntity
  8
MODEL
100
AcDbLine
 10
148.2102838073832
 20
407.8091414246069
 30
0.0
 11
148.3763125454051
 21
406.4271856165783
 31
0.0
  0
LINE
  5
43AE
330
A
100
AcDbEntity
  8
MODEL
100
AcDbLine
 10
148.3763125454051
 20
406.4271856165783
 30
0.0
 11
148.4318789754969
 21
405.0276299073653
 31
0.0
  0
LINE
  5
43AF
330
A
100
AcDbEntity
  8
MODEL
100
AcDbLine
 10
501.0664430175883
 20
405.0276299073653
 30
0.0
 11
501.0664430175883
 21
392.5276287897782
 31
0.0
  0
LINE
  5
43B0
330
A
100
AcDbEntity
  8
MODEL
100
AcDbLine
 10
501.0664430175883
 20
417.5276300936298
 30
0.0
 11
501.0664430175883
 21
405.0276299073653
 31
0.0
  0
LINE
  5
43B1
330
A
100
AcDbEntity
  8
MODEL
100
AcDbLine
 10
137.6838651214701
 20
467.5276280447201
 30
0.0
 11
137.6838651214701
 21
417.5080145775632
 31
0.0
  0
LINE
  5
43B2
330
A
100
AcDbEntity
  8
MODEL
100
AcDbLine
 10
282.7821713601214
 20
405.0276299073653
 30
0.0
 11
282.726597479449
 21
403.628073732491
 31
0.0
  0
LINE
  5
43B3
330
A
100
AcDbEntity
  8
MODEL
100
AcDbLine
 10
282.726597479449
 20
403.628073732491
 30
0.0
 11
282.5605687414271
 21
402.246118157293
 31
0.0
  0
LINE
  5
43B4
330
A
100
AcDbEntity
  8
MODEL
100
AcDbLine
 10
282.5605687414271
 20
402.246118157293
 30
0.0
 11
282.286171308623
 21
400.8991411953525
 31
0.0
  0
LINE
  5
43B5
330
A
100
AcDbEntity
  8
MODEL
100
AcDbLine
 10
282.286171308623
 20
400.8991411953525
 30
0.0
 11
281.906854799853
 21
399.6040831386404
 31
0.0
  0
LINE
  5
43B6
330
A
100
AcDbEntity
  8
MODEL
100
AcDbLine
 10
281.906854799853
 20
399.6040831386404
 30
0.0
 11
281.4273950372798
 21
398.377228628035
 31
0.0
  0
LINE
  5
43B7
330
A
100
AcDbEntity
  8
MODEL
100
AcDbLine
 10
281.4273950372798
 20
398.377228628035
 30
0.0
 11
280.8538195406062
 21
397.2340068846302
 31
0.0
  0
LINE
  5
43B8
330
A
100
AcDbEntity
  8
MODEL
100
AcDbLine
 10
280.8538195406062
 20
397.2340068846302
 30
0.0
 11
280.1933404718501
 21
396.1887947350101
 31
0.0
  0
LINE
  5
43B9
330
A
100
AcDbEntity
  8
MODEL
100
AcDbLine
 10
280.1933404718501
 20
396.1887947350101
 30
0.0
 11
279.454265228377
 21
395.2547359346704
 31
0.0
  0
LINE
  5
43BA
330
A
100
AcDbEntity
  8
MODEL
100
AcDbLine
 10
279.454265228377
 20
395.2547359346704
 30
0.0
 11
278.6458846841914
 21
394.4435772552447
 31
0.0
  0
LINE
  5
43BB
330
A
100
AcDbEntity
  8
MODEL
100
AcDbLine
 10
278.6458846841914
 20
394.4435772552447
 30
0.0
 11
277.778368881808
 21
393.7655185415701
 31
0.0
  0
LINE
  5
43BC
330
A
100
AcDbEntity
  8
MODEL
100
AcDbLine
 10
277.778368881808
 20
393.7655185415701
 30
0.0
 11
276.8626180206401
 21
393.2290879144625
 31
0.0
  0
LINE
  5
43BD
330
A
100
AcDbEntity
  8
MODEL
100
AcDbLine
 10
276.8626180206401
 20
393.2290879144625
 30
0.0
 11
275.9101655994517
 21
392.8410300120072
 31
0.0
  0
LINE
  5
43BE
330
A
100
AcDbEntity
  8
MODEL
100
AcDbLine
 10
275.9101655994517
 20
392.8410300120072
 30
0.0
 11
274.9329772506816
 21
392.6062268271403
 31
0.0
  0
LINE
  5
43BF
330
A
100
AcDbEntity
  8
MODEL
100
AcDbLine
 10
274.9329772506816
 20
392.6062268271403
 30
0.0
 11
273.943338981734
 21
392.5276287897782
 31
0.0
  0
LINE
  5
43C0
330
A
100
AcDbEntity
  8
MODEL
100
AcDbLine
 10
273.943338981734
 20
417.5276300936298
 30
0.0
 11
274.9329772506816
 21
417.4490320562677
 31
0.0
  0
LINE
  5
43C1
330
A
100
AcDbEntity
  8
MODEL
100
AcDbLine
 10
274.9329772506816
 20
417.4490320562677
 30
0.0
 11
275.9101655994517
 21
417.2142288714008
 31
0.0
  0
LINE
  5
43C2
330
A
100
AcDbEntity
  8
MODEL
100
AcDbLine
 10
275.9101655994517
 20
417.2142288714008
 30
0.0
 11
276.8626180206401
 21
416.8261714346067
 31
0.0
  0
LINE
  5
43C3
330
A
100
AcDbEntity
  8
MODEL
100
AcDbLine
 10
276.8626180206401
 20
416.8261714346067
 30
0.0
 11
277.778368881808
 21
416.2897403418378
 31
0.0
  0
LINE
  5
43C4
330
A
100
AcDbEntity
  8
MODEL
100
AcDbLine
 10
277.778368881808
 20
416.2897403418378
 30
0.0
 11
278.6458846841914
 21
415.6116820938246
 31
0.0
  0
LINE
  5
43C5
330
A
100
AcDbEntity
  8
MODEL
100
AcDbLine
 10
278.6458846841914
 20
415.6116820938246
 30
0.0
 11
279.454265228377
 21
414.8005234143989
 31
0.0
  0
LINE
  5
43C6
330
A
100
AcDbEntity
  8
MODEL
100
AcDbLine
 10
279.454265228377
 20
414.8005234143989
 30
0.0
 11
280.1933404718501
 21
413.8664646140592
 31
0.0
  0
LINE
  5
43C7
330
A
100
AcDbEntity
  8
MODEL
100
AcDbLine
 10
280.1933404718501
 20
413.8664646140592
 30
0.0
 11
280.8538195406062
 21
412.8212522316085
 31
0.0
  0
LINE
  5
43C8
330
A
100
AcDbEntity
  8
MODEL
100
AcDbLine
 10
280.8538195406062
 20
412.8212522316085
 30
0.0
 11
281.4273950372798
 21
411.6780307210342
 31
0.0
  0
LINE
  5
43C9
330
A
100
AcDbEntity
  8
MODEL
100
AcDbLine
 10
281.4273950372798
 20
411.6780307210342
 30
0.0
 11
281.906854799853
 21
410.4511764432596
 31
0.0
  0
LINE
  5
43CA
330
A
100
AcDbEntity
  8
MODEL
100
AcDbLine
 10
281.906854799853
 20
410.4511764432596
 30
0.0
 11
282.286171308623
 21
409.1561179863697
 31
0.0
  0
LINE
  5
43CB
330
A
100
AcDbEntity
  8
MODEL
100
AcDbLine
 10
282.286171308623
 20
409.1561179863697
 30
0.0
 11
282.5605687414271
 21
407.8091414246069
 31
0.0
  0
LINE
  5
43CC
330
A
100
AcDbEntity
  8
MODEL
100
AcDbLine
 10
282.5605687414271
 20
407.8091414246069
 30
0.0
 11
282.726597479449
 21
406.4271856165783
 31
0.0
  0
LINE
  5
43CD
330
A
100
AcDbEntity
  8
MODEL
100
AcDbLine
 10
282.726597479449
 20
406.4271856165783
 30
0.0
 11
282.7821713601214
 21
405.0276299073653
 31
0.0
  0
LINE
  5
43CE
330
A
100
AcDbEntity
  8
MODEL
100
AcDbLine
 10
311.0664454017741
 20
417.5276300936298
 30
0.0
 11
311.0664454017741
 21
405.0276299073653
 31
0.0
  0
POINT
  5
43D1
330
A
100
AcDbEntity
  8
_0-0_FRF74-1709
 62
     7
100
AcDbPoint
 10
1482.787298134534
 20
817.0997362627828
 30
0.0
  0
POINT
  5
43D2
330
A
100
AcDbEntity
  8
_0-0_FRF74-1709
 62
     7
100
AcDbPoint
 10
1109.060855678289
 20
817.0997362627828
 30
0.0
  0
POINT
  5
43D7
330
A
100
AcDbEntity
  8
_0-0_FRF74-1709
 62
     7
100
AcDbPoint
 10
1532.787298134534
 20
594.6195069744432
 30
0.0
  0
POINT
  5
43D8
330
A
100
AcDbEntity
  8
_0-0_FRF74-1709
 62
     7
100
AcDbPoint
 10
1532.787298134534
 20
767.0997362627828
 30
0.0
  0
DIMENSION
  5
43EC
330
A
100
AcDbEntity
  8
DIM
100
AcDbDimension
  2
*D5
 10
503.0664470707042
 20
869.1350802674774
 30
0.0
 11
316.2032258425814
 21
878.1350802674774
 31
0.0
 70
    32
 71
     5
 42
373.7264424562454
 73
     0
 74
     0
 75
     0
  3
tfrom線あり
100
AcDbAlignedDimension
 13
129.3400046144587
 23
836.243712843394
 33
0.0
 14
503.0664470707042
 24
706.441150547003
 34
0.0
100
AcDbRotatedDimension
1001
ACAD
1000
DSTYLE
1002
{
1070
   144
1040
1.0
1002
}
  0
DIMENSION
  5
43FB
330
A
100
AcDbEntity
  8
DIM
100
AcDbDimension
  2
*D6
 10
559.0349115136781
 20
666.4411483118291
 30
0.0
 11
550.0349115136781
 21
752.681262955999
 31
0.0
 70
    32
 71
     5
 42
172.4802292883397
 73
     0
 74
     0
 75
     0
  3
tfrom線あり
100
AcDbAlignedDimension
 13
162.0176693712336
 23
838.9213776001689
 33
0.0
 14
508.0453327690416
 24
666.4411483118291
 34
0.0
 50
90.0
100
AcDbRotatedDimension
1001
ACAD
1000
DSTYLE
1002
{
1070
   144
1040
1.0
1002
}
  0
DIMENSION
  5
440A
330
A
100
AcDbEntity
  8
DIM
100
AcDbDimension
  2
*D7
 10
503.0664470707042
 20
616.4411483118292
 30
0.0
 11
407.0664462362391
 21
625.4411483118292
 31
0.0
 70
    32
 71
     5
 42
192.0000016689301
 73
     0
 74
     0
 75
     0
  3
tfrom線あり
100
AcDbAlignedDimension
 13
311.0664454017741
 23
651.4411483118292
 33
0.0
 14
503.0664470707042
 24
651.4411483118292
 34
0.0
100
AcDbRotatedDimension
1001
ACAD
1000
DSTYLE
1002
{
1070
   144
1040
1.0
1002
}
  0
DIMENSION
  5
4419
102
{ACAD_REACTORS
330
441B
102
}
102
{ACAD_XDICTIONARY
360
441A
102
}
330
A
100
AcDbEntity
  8
DIM
100
AcDbDimension
  2
*D8
 10
229.8711727858953
 20
650.1646296971201
 30
0.0
 11
168.2316853386529
 21
724.3104177688547
 31
0.0
 70
    33
 71
     5
 42
192.0002531408471
 73
     0
 74
     0
 75
     0
  3
tfrom線あり
100
AcDbAlignedDimension
 13
118.7334028966606
 23
810.6371111255955
 33
0.0
 14
254.7195075042426
 24
675.0942154806924
 34
0.0
1001
ACAD
1000
DSTYLE
1002
{
1070
   144
1040
1.0
1002
}
  0
DIMENSION
  5
4428
330
A
100
AcDbEntity
  8
DIM
100
AcDbDimension
  2
*D9
 10
572.2968599979771
 20
392.5276287897782
 30
0.0
 11
563.2968599979771
 21
430.0276284172492
 31
0.0
 70
    32
 71
     5
 42
74.99999925494194
 73
     0
 74
     0
 75
     0
  3
tfrom線あり
100
AcDbAlignedDimension
 13
518.2552502320101
 23
467.5276280447201
 33
0.0
 14
527.6923974466832
 24
392.5276287897782
 34
0.0
 50
90.0
100
AcDbRotatedDimension
1001
ACAD
1000
DSTYLE
1002
{
1070
   144
1040
1.0
1002
}
  0
DIMENSION
  5
4437
330
A
100
AcDbEntity
  8
DIM
100
AcDbDimension
  2
*D10
 10
541.4108562172338
 20
392.5276287897782
 30
0.0
 11
541.4108562172338
 21
405.027629441704
 31
0.0
 70
   160
 71
     5
 42
25.0000013038516
 73
     0
 74
     0
 75
     0
  3
tfrom線あり
100
AcDbAlignedDimension
 13
503.6897231599397
 23
417.5276300936298
 33
0.0
 14
504.6897251864976
 24
392.5276287897782
 34
0.0
 50
90.0
100
AcDbRotatedDimension
1001
ACAD
1000
DSTYLE
1002
{
1070
     3
1000
%%c<>
1070
   144
1040
1.0
1002
}
  0
LINE
  5
4447
102
{ACAD_REACTORS
330
449A
102
}
330
A
100
AcDbEntity
  8
MODEL
100
AcDbLine
 10
512.0777982504682
 20
467.5265384759379
 30
0.0
 11
434.7687253989762
 21
467.5265384759379
 31
0.0
  0
LINE
  5
4449
102
{ACAD_REACTORS
330
449A
102
}
330
A
100
AcDbEntity
  8
MODEL
100
AcDbLine
 10
438.4380822175705
 20
467.526538475938
 30
0.0
 11
451.6865419907566
 21
485.9702606345284
 31
0.0
  0
LINE
  5
444A
102
{ACAD_REACTORS
330
449A
102
}
330
A
100
AcDbEntity
  8
MODEL
100
AcDbLine
 10
448.3249924960677
 20
467.526538475938
 30
0.0
 11
461.5734522692538
 21
485.9702606345284
 31
0.0
  0
LINE
  5
444B
102
{ACAD_REACTORS
330
449A
102
}
330
A
100
AcDbEntity
  8
MODEL
100
AcDbLine
 10
458.2119027745649
 20
467.526538475938
 30
0.0
 11
471.4603625477511
 21
485.9702606345284
 31
0.0
  0
LINE
  5
444C
102
{ACAD_REACTORS
330
449A
102
}
330
A
100
AcDbEntity
  8
MODEL
100
AcDbLine
 10
467.7033366419226
 20
467.526538475938
 30
0.0
 11
480.9517964151088
 21
485.9702606345284
 31
0.0
  0
LINE
  5
444D
102
{ACAD_REACTORS
330
449A
102
}
330
A
100
AcDbEntity
  8
MODEL
100
AcDbLine
 10
477.5902469204199
 20
467.526538475938
 30
0.0
 11
490.838706693606
 21
485.9702606345284
 31
0.0
  0
LINE
  5
444E
102
{ACAD_REACTORS
330
449A
102
}
330
A
100
AcDbEntity
  8
MODEL
100
AcDbLine
 10
487.4771571989171
 20
467.526538475938
 30
0.0
 11
500.7256169721032
 21
485.9702606345284
 31
0.0
  0
LINE
  5
444F
102
{ACAD_REACTORS
330
449A
102
}
330
A
100
AcDbEntity
  8
MODEL
100
AcDbLine
 10
496.7708528607044
 20
467.526538475938
 30
0.0
 11
510.0193126338905
 21
485.9702606345284
 31
0.0
  0
LINE
  5
4450
102
{ACAD_REACTORS
330
449A
102
}
330
A
100
AcDbEntity
  8
MODEL
100
AcDbLine
 10
506.6577631392016
 20
467.526538475938
 30
0.0
 11
519.9062229123878
 21
485.9702606345284
 31
0.0
  0
DIMENSION
  5
4452
330
A
100
AcDbEntity
  8
DIM
100
AcDbDimension
  2
*D11
 10
485.3164445077044
 20
518.0953892570541
 30
0.0
 11
476.0664445077047
 21
518.0953892570541
 31
0.0
 70
   160
 71
     5
 42
18.5
 73
     0
 74
     0
 75
     0
  3
tfrom線あり
100
AcDbAlignedDimension
 13
466.8164445077044
 23
495.9914216856233
 33
0.0
 14
485.3164445077044
 24
495.9914216856233
 34
0.0
100
AcDbRotatedDimension
1001
ACAD
1000
DSTYLE
1002
{
1070
   271
1070
     1
1070
   144
1040
1.0
1002
}
  0
LINE
  5
446C
102
{ACAD_REACTORS
330
4479
102
}
330
A
100
AcDbEntity
  8
MODEL
100
AcDbLine
 10
466.8164445077044
 20
495.9914216856233
 30
0.0
 11
465.4436667893557
 21
492.1916843273913
 31
0.0
  0
LINE
  5
446D
102
{ACAD_REACTORS
330
4479
102
}
330
A
100
AcDbEntity
  8
MODEL
100
AcDbLine
 10
465.4436667893557
 20
492.1916843273913
 30
0.0
 11
465.4436667893557
 21
468.5276300712781
 31
0.0
  0
LINE
  5
446E
102
{ACAD_REACTORS
330
4479
102
}
330
A
100
AcDbEntity
  8
MODEL
100
AcDbLine
 10
466.8164445077044
 20
495.9914216856233
 30
0.0
 11
468.1892222260532
 21
492.1916843273913
 31
0.0
  0
LINE
  5
446F
102
{ACAD_REACTORS
330
4479
102
}
330
A
100
AcDbEntity
  8
MODEL
100
AcDbLine
 10
468.1892222260532
 20
492.1916843273913
 30
0.0
 11
468.1892222260532
 21
468.5276300712781
 31
0.0
  0
LINE
  5
4470
102
{ACAD_REACTORS
330
4479
102
}
330
A
100
AcDbEntity
  8
MODEL
100
AcDbLine
 10
468.8711837762397
 20
492.5584907935125
 30
0.0
 11
464.9834924641701
 21
490.4850554270755
 31
0.0
  0
LINE
  5
4471
102
{ACAD_REACTORS
330
4479
102
}
330
A
100
AcDbEntity
  8
MODEL
100
AcDbLine
 10
468.8711837762397
 20
490.070368353788
 30
0.0
 11
464.9834924641701
 21
487.996932987351
 31
0.0
  0
LINE
  5
4472
102
{ACAD_REACTORS
330
4479
102
}
330
A
100
AcDbEntity
  8
MODEL
100
AcDbLine
 10
468.8711837762397
 20
487.4267382615807
 30
0.0
 11
464.9834924641701
 21
485.3533028951437
 31
0.0
  0
LINE
  5
4473
102
{ACAD_REACTORS
330
4479
102
}
330
A
100
AcDbEntity
  8
MODEL
100
AcDbLine
 10
468.8711837762397
 20
484.9904517060171
 30
0.0
 11
464.9834924641701
 21
482.91701633958
 31
0.0
  0
LINE
  5
4474
102
{ACAD_REACTORS
330
4479
102
}
330
A
100
AcDbEntity
  8
MODEL
100
AcDbLine
 10
468.8711837762397
 20
482.5023292662926
 30
0.0
 11
464.9834924641701
 21
480.4288938998554
 31
0.0
  0
LINE
  5
4475
102
{ACAD_REACTORS
330
4479
102
}
330
A
100
AcDbEntity
  8
MODEL
100
AcDbLine
 10
468.8711837762397
 20
479.8586991740852
 30
0.0
 11
464.9834924641701
 21
477.7852638076481
 31
0.0
  0
LINE
  5
4476
102
{ACAD_REACTORS
330
4479
102
}
330
A
100
AcDbEntity
  8
MODEL
100
AcDbLine
 10
468.8711837762395
 20
477.3770562198807
 30
0.0
 11
464.9834924641699
 21
475.3036208534437
 31
0.0
  0
LINE
  5
4477
102
{ACAD_REACTORS
330
4479
102
}
330
A
100
AcDbEntity
  8
MODEL
100
AcDbLine
 10
468.8711837762395
 20
474.8889337801562
 30
0.0
 11
464.9834924641699
 21
472.8154984137192
 31
0.0
  0
LINE
  5
4478
102
{ACAD_REACTORS
330
4479
102
}
330
A
100
AcDbEntity
  8
MODEL
100
AcDbLine
 10
468.8711837762395
 20
472.2453036879489
 30
0.0
 11
464.9834924641699
 21
470.1718683215119
 31
0.0
  0
LINE
  5
4489
102
{ACAD_REACTORS
330
4496
102
}
330
A
100
AcDbEntity
  8
MODEL
100
AcDbLine
 10
485.3164445077044
 20
495.9914216856233
 30
0.0
 11
483.9436667893557
 21
492.1916843273913
 31
0.0
  0
LINE
  5
448A
102
{ACAD_REACTORS
330
4496
102
}
330
A
100
AcDbEntity
  8
MODEL
100
AcDbLine
 10
483.9436667893557
 20
492.1916843273913
 30
0.0
 11
483.9436667893557
 21
468.5276300712781
 31
0.0
  0
LINE
  5
448B
102
{ACAD_REACTORS
330
4496
102
}
330
A
100
AcDbEntity
  8
MODEL
100
AcDbLine
 10
485.3164445077044
 20
495.9914216856233
 30
0.0
 11
486.6892222260532
 21
492.1916843273913
 31
0.0
  0
LINE
  5
448C
102
{ACAD_REACTORS
330
4496
102
}
330
A
100
AcDbEntity
  8
MODEL
100
AcDbLine
 10
486.6892222260532
 20
492.1916843273913
 30
0.0
 11
486.6892222260532
 21
468.5276300712781
 31
0.0
  0
LINE
  5
448D
102
{ACAD_REACTORS
330
4496
102
}
330
A
100
AcDbEntity
  8
MODEL
100
AcDbLine
 10
487.3711837762397
 20
492.5584907935125
 30
0.0
 11
483.4834924641701
 21
490.4850554270755
 31
0.0
  0
LINE
  5
448E
102
{ACAD_REACTORS
330
4496
102
}
330
A
100
AcDbEntity
  8
MODEL
100
AcDbLine
 10
487.3711837762397
 20
490.070368353788
 30
0.0
 11
483.4834924641701
 21
487.996932987351
 31
0.0
  0
LINE
  5
448F
102
{ACAD_REACTORS
330
4496
102
}
330
A
100
AcDbEntity
  8
MODEL
100
AcDbLine
 10
487.3711837762397
 20
487.4267382615807
 30
0.0
 11
483.4834924641701
 21
485.3533028951437
 31
0.0
  0
LINE
  5
4490
102
{ACAD_REACTORS
330
4496
102
}
330
A
100
AcDbEntity
  8
MODEL
100
AcDbLine
 10
487.3711837762397
 20
484.9904517060171
 30
0.0
 11
483.4834924641701
 21
482.91701633958
 31
0.0
  0
LINE
  5
4491
102
{ACAD_REACTORS
330
4496
102
}
330
A
100
AcDbEntity
  8
MODEL
100
AcDbLine
 10
487.3711837762397
 20
482.5023292662926
 30
0.0
 11
483.4834924641701
 21
480.4288938998554
 31
0.0
  0
LINE
  5
4492
102
{ACAD_REACTORS
330
4496
102
}
330
A
100
AcDbEntity
  8
MODEL
100
AcDbLine
 10
487.3711837762397
 20
479.8586991740852
 30
0.0
 11
483.4834924641701
 21
477.7852638076481
 31
0.0
  0
LINE
  5
4493
102
{ACAD_REACTORS
330
4496
102
}
330
A
100
AcDbEntity
  8
MODEL
100
AcDbLine
 10
487.3711837762395
 20
477.3770562198807
 30
0.0
 11
483.4834924641699
 21
475.3036208534437
 31
0.0
  0
LINE
  5
4494
102
{ACAD_REACTORS
330
4496
102
}
330
A
100
AcDbEntity
  8
MODEL
100
AcDbLine
 10
487.3711837762395
 20
474.8889337801562
 30
0.0
 11
483.4834924641699
 21
472.8154984137192
 31
0.0
  0
LINE
  5
4495
102
{ACAD_REACTORS
330
4496
102
}
330
A
100
AcDbEntity
  8
MODEL
100
AcDbLine
 10
487.3711837762395
 20
472.2453036879489
 30
0.0
 11
483.4834924641699
 21
470.1718683215119
 31
0.0
  0
LINE
  5
4578
102
{ACAD_REACTORS
330
4585
102
}
330
A
100
AcDbEntity
  8
MODEL
100
AcDbLine
 10
151.1442040148104
 20
495.9914216856233
 30
0.0
 11
149.7714262964616
 21
492.1916843273913
 31
0.0
  0
LINE
  5
4579
102
{ACAD_REACTORS
330
4585
102
}
330
A
100
AcDbEntity
  8
MODEL
100
AcDbLine
 10
149.7714262964616
 20
492.1916843273913
 30
0.0
 11
149.7714262964616
 21
468.5276300712781
 31
0.0
  0
LINE
  5
457A
102
{ACAD_REACTORS
330
4585
102
}
330
A
100
AcDbEntity
  8
MODEL
100
AcDbLine
 10
151.1442040148104
 20
495.9914216856233
 30
0.0
 11
152.5169817331591
 21
492.1916843273913
 31
0.0
  0
LINE
  5
457B
102
{ACAD_REACTORS
330
4585
102
}
330
A
100
AcDbEntity
  8
MODEL
100
AcDbLine
 10
152.5169817331591
 20
492.1916843273913
 30
0.0
 11
152.5169817331591
 21
468.5276300712781
 31
0.0
  0
LINE
  5
457C
102
{ACAD_REACTORS
330
4585
102
}
330
A
100
AcDbEntity
  8
MODEL
100
AcDbLine
 10
153.1989432833457
 20
492.5584907935125
 30
0.0
 11
149.3112519712761
 21
490.4850554270755
 31
0.0
  0
LINE
  5
457D
102
{ACAD_REACTORS
330
4585
102
}
330
A
100
AcDbEntity
  8
MODEL
100
AcDbLine
 10
153.1989432833457
 20
490.070368353788
 30
0.0
 11
149.3112519712761
 21
487.996932987351
 31
0.0
  0
LINE
  5
457E
102
{ACAD_REACTORS
330
4585
102
}
330
A
100
AcDbEntity
  8
MODEL
100
AcDbLine
 10
153.1989432833457
 20
487.4267382615807
 30
0.0
 11
149.3112519712761
 21
485.3533028951437
 31
0.0
  0
LINE
  5
457F
102
{ACAD_REACTORS
330
4585
102
}
330
A
100
AcDbEntity
  8
MODEL
100
AcDbLine
 10
153.1989432833457
 20
484.9904517060171
 30
0.0
 11
149.3112519712761
 21
482.91701633958
 31
0.0
  0
LINE
  5
4580
102
{ACAD_REACTORS
330
4585
102
}
330
A
100
AcDbEntity
  8
MODEL
100
AcDbLine
 10
153.1989432833457
 20
482.5023292662926
 30
0.0
 11
149.3112519712761
 21
480.4288938998554
 31
0.0
  0
LINE
  5
4581
102
{ACAD_REACTORS
330
4585
102
}
330
A
100
AcDbEntity
  8
MODEL
100
AcDbLine
 10
153.1989432833457
 20
479.8586991740852
 30
0.0
 11
149.3112519712761
 21
477.7852638076481
 31
0.0
  0
LINE
  5
4582
102
{ACAD_REACTORS
330
4585
102
}
330
A
100
AcDbEntity
  8
MODEL
100
AcDbLine
 10
153.1989432833454
 20
477.3770562198807
 30
0.0
 11
149.3112519712759
 21
475.3036208534437
 31
0.0
  0
LINE
  5
4583
102
{ACAD_REACTORS
330
4585
102
}
330
A
100
AcDbEntity
  8
MODEL
100
AcDbLine
 10
153.1989432833454
 20
474.8889337801562
 30
0.0
 11
149.3112519712759
 21
472.8154984137192
 31
0.0
  0
LINE
  5
4584
102
{ACAD_REACTORS
330
4585
102
}
330
A
100
AcDbEntity
  8
MODEL
100
AcDbLine
 10
153.1989432833454
 20
472.2453036879489
 30
0.0
 11
149.3112519712759
 21
470.1718683215119
 31
0.0
  0
LINE
  5
4586
102
{ACAD_REACTORS
330
4593
102
}
330
A
100
AcDbEntity
  8
MODEL
100
AcDbLine
 10
164.2256794667614
 20
495.9914216856233
 30
0.0
 11
162.8529017484127
 21
492.1916843273913
 31
0.0
  0
LINE
  5
4587
102
{ACAD_REACTORS
330
4593
102
}
330
A
100
AcDbEntity
  8
MODEL
100
AcDbLine
 10
162.8529017484127
 20
492.1916843273913
 30
0.0
 11
162.8529017484127
 21
468.5276300712781
 31
0.0
  0
LINE
  5
4588
102
{ACAD_REACTORS
330
4593
102
}
330
A
100
AcDbEntity
  8
MODEL
100
AcDbLine
 10
164.2256794667614
 20
495.9914216856233
 30
0.0
 11
165.5984571851102
 21
492.1916843273913
 31
0.0
  0
LINE
  5
4589
102
{ACAD_REACTORS
330
4593
102
}
330
A
100
AcDbEntity
  8
MODEL
100
AcDbLine
 10
165.5984571851102
 20
492.1916843273913
 30
0.0
 11
165.5984571851102
 21
468.5276300712781
 31
0.0
  0
LINE
  5
458A
102
{ACAD_REACTORS
330
4593
102
}
330
A
100
AcDbEntity
  8
MODEL
100
AcDbLine
 10
166.2804187352967
 20
492.5584907935125
 30
0.0
 11
162.3927274232271
 21
490.4850554270755
 31
0.0
  0
LINE
  5
458B
102
{ACAD_REACTORS
330
4593
102
}
330
A
100
AcDbEntity
  8
MODEL
100
AcDbLine
 10
166.2804187352967
 20
490.070368353788
 30
0.0
 11
162.3927274232271
 21
487.996932987351
 31
0.0
  0
LINE
  5
458C
102
{ACAD_REACTORS
330
4593
102
}
330
A
100
AcDbEntity
  8
MODEL
100
AcDbLine
 10
166.2804187352967
 20
487.4267382615807
 30
0.0
 11
162.3927274232271
 21
485.3533028951437
 31
0.0
  0
LINE
  5
458D
102
{ACAD_REACTORS
330
4593
102
}
330
A
100
AcDbEntity
  8
MODEL
100
AcDbLine
 10
166.2804187352967
 20
484.9904517060171
 30
0.0
 11
162.3927274232271
 21
482.91701633958
 31
0.0
  0
LINE
  5
458E
102
{ACAD_REACTORS
330
4593
102
}
330
A
100
AcDbEntity
  8
MODEL
100
AcDbLine
 10
166.2804187352967
 20
482.5023292662926
 30
0.0
 11
162.3927274232271
 21
480.4288938998554
 31
0.0
  0
LINE
  5
458F
102
{ACAD_REACTORS
330
4593
102
}
330
A
100
AcDbEntity
  8
MODEL
100
AcDbLine
 10
166.2804187352967
 20
479.8586991740852
 30
0.0
 11
162.3927274232271
 21
477.7852638076481
 31
0.0
  0
LINE
  5
4590
102
{ACAD_REACTORS
330
4593
102
}
330
A
100
AcDbEntity
  8
MODEL
100
AcDbLine
 10
166.2804187352965
 20
477.3770562198807
 30
0.0
 11
162.3927274232269
 21
475.3036208534437
 31
0.0
  0
LINE
  5
4591
102
{ACAD_REACTORS
330
4593
102
}
330
A
100
AcDbEntity
  8
MODEL
100
AcDbLine
 10
166.2804187352965
 20
474.8889337801562
 30
0.0
 11
162.3927274232269
 21
472.8154984137192
 31
0.0
  0
LINE
  5
4592
102
{ACAD_REACTORS
330
4593
102
}
330
A
100
AcDbEntity
  8
MODEL
100
AcDbLine
 10
166.2804187352965
 20
472.2453036879489
 30
0.0
 11
162.3927274232269
 21
470.1718683215119
 31
0.0
  0
LINE
  5
4594
102
{ACAD_REACTORS
330
459D
102
}
330
A
100
AcDbEntity
  8
MODEL
100
AcDbLine
 10
191.89795402026
 20
467.5265384759379
 30
0.0
 11
114.5888811687681
 21
467.5265384759379
 31
0.0
  0
LINE
  5
4595
102
{ACAD_REACTORS
330
459D
102
}
330
A
100
AcDbEntity
  8
MODEL
100
AcDbLine
 10
118.2582379873623
 20
467.526538475938
 30
0.0
 11
131.5066977605484
 21
485.9702606345284
 31
0.0
  0
LINE
  5
4596
102
{ACAD_REACTORS
330
459D
102
}
330
A
100
AcDbEntity
  8
MODEL
100
AcDbLine
 10
128.1451482658595
 20
467.526538475938
 30
0.0
 11
141.3936080390457
 21
485.9702606345284
 31
0.0
  0
LINE
  5
4597
102
{ACAD_REACTORS
330
459D
102
}
330
A
100
AcDbEntity
  8
MODEL
100
AcDbLine
 10
138.0320585443567
 20
467.526538475938
 30
0.0
 11
151.2805183175429
 21
485.9702606345284
 31
0.0
  0
LINE
  5
4598
102
{ACAD_REACTORS
330
459D
102
}
330
A
100
AcDbEntity
  8
MODEL
100
AcDbLine
 10
147.5234924117145
 20
467.526538475938
 30
0.0
 11
160.7719521849006
 21
485.9702606345284
 31
0.0
  0
LINE
  5
4599
102
{ACAD_REACTORS
330
459D
102
}
330
A
100
AcDbEntity
  8
MODEL
100
AcDbLine
 10
157.4104026902117
 20
467.526538475938
 30
0.0
 11
170.6588624633978
 21
485.9702606345284
 31
0.0
  0
LINE
  5
459A
102
{ACAD_REACTORS
330
459D
102
}
330
A
100
AcDbEntity
  8
MODEL
100
AcDbLine
 10
167.2973129687089
 20
467.526538475938
 30
0.0
 11
180.5457727418951
 21
485.9702606345284
 31
0.0
  0
LINE
  5
459B
102
{ACAD_REACTORS
330
459D
102
}
330
A
100
AcDbEntity
  8
MODEL
100
AcDbLine
 10
176.5910086304962
 20
467.526538475938
 30
0.0
 11
189.8394684036824
 21
485.9702606345284
 31
0.0
  0
LINE
  5
459C
102
{ACAD_REACTORS
330
459D
102
}
330
A
100
AcDbEntity
  8
MODEL
100
AcDbLine
 10
186.4779189089934
 20
467.526538475938
 30
0.0
 11
199.7263786821796
 21
485.9702606345284
 31
0.0
  0
MTEXT
  5
45AF
330
A
100
AcDbEntity
  8
TEMPLATE
390
1D
100
AcDbMText
 10
52.8808578190923
 20
74.51045053323874
 30
0.0
 40
9.773046875
 41
0.0
 46
9.919642578125
 71
     1
 72
     1
  1
{クローム}
  7
ＭＳ ゴシック
 73
     1
 44
0.7828267384257843
1001
ACAD
1000
ACAD_MTEXT_DEFINED_HEIGHT_BEGIN
1070
    46
1040
9.919642578125
1000
ACAD_MTEXT_DEFINED_HEIGHT_END
  0
VIEWPORT
  5
349
330
B
100
AcDbEntity
 67
     1
  8
0
100
AcDbViewport
 10
202.5
 20
128.5
 30
0.0
 40
486.0
 41
308.4
 68
     1
 69
     1
 12
202.5
 22
128.5
 13
0.0
 23
0.0
 14
0.5
 24
0.5
 15
0.0
 25
0.0
 16
0.0
 26
0.0
 36
1.0
 17
0.0
 27
0.0
 37
0.0
 42
50.0
 43
0.0
 44
0.0
 45
308.4
 50
0.0
 51
0.0
 72
   100
 90
   557152
  1

281
     0
 71
     1
 74
     0
110
0.0
120
0.0
130
0.0
111
1.0
121
0.0
131
0.0
112
0.0
122
1.0
132
0.0
 79
     0
146
0.0
170
     0
 61
     5
348
26C
292
     1
282
     1
141
0.0
142
0.0
 63
   256
  0
VIEWPORT
  5
34A
330
B
100
AcDbEntity
 67
     1
  8
0
100
AcDbViewport
 10
202.5
 20
128.5
 30
0.0
 40
324.0
 41
205.6
 68
     2
 69
     2
 12
986.6781359294573
 22
1427.077061889956
 13
0.0
 23
0.0
 14
0.5
 24
0.5
 15
0.0
 25
0.0
 16
0.0
 26
0.0
 36
1.0
 17
0.0
 27
0.0
 37
0.0
 42
50.0
 43
0.0
 44
0.0
 45
2890.021615685494
 50
0.0
 51
0.0
 72
   100
 90
   557152
  1

281
     0
 71
     1
 74
     0
110
0.0
120
0.0
130
0.0
111
1.0
121
0.0
131
0.0
112
0.0
122
1.0
132
0.0
 79
     0
146
0.0
170
     0
 61
     5
348
26C
292
     1
282
     1
141
0.0
142
0.0
 63
   256
  0
ENDSEC
  0
SECTION
  2
OBJECTS
  0
DICTIONARY
  5
19
330
0
100
AcDbDictionary
281
     1
  3
ACAD_COLOR
350
674
  3
ACAD_DETAILVIEWSTYLE
350
BBF
  3
ACAD_FIELDLIST
350
3BE4
  3
ACAD_GROUP
350
1A
  3
ACAD_IMAGE_VARS
350
27B
  3
ACAD_LAYOUT
350
1E
  3
ACAD_MATERIAL
350
263
  3
ACAD_MLEADERSTYLE
350
336
  3
ACAD_MLINESTYLE
350
1B
  3
ACAD_PLOTSETTINGS
350
22
  3
ACAD_PLOTSTYLENAME
350
1F
  3
ACAD_SCALELIST
350
241
  3
ACAD_SECTIONVIEWSTYLE
350
BC0
  3
ACAD_TABLESTYLE
350
278
  3
ACAD_VISUALSTYLE
350
267
  3
ACDB_RECOMPOSE_DATA
350
45BB
  3
AcDbVariableDictionary
350
330
  3
APPDATA
350
27A
  3
DimOffsetDictionary
350
E38
  0
SUN
  5
904
330
15
100
AcDbSun
 90
        1
290
     0
 63
     7
421
 16777215
 40
1.0
291
     1
 91
  2455826
 92
 54000000
292
     0
 70
     2
 71
   256
280
     1
  0
DICTIONARY
  5
2E1
330
2
100
AcDbDictionary
280
     1
281
     1
  3
ACAD_LAYERSTATES
360
2E2
  3
ACLYDICTIONARY
360
DDE
  0
DICTIONARY
  5
3E3E
330
A
100
AcDbDictionary
280
     1
281
     1
  3
ACAD_SORTENTS
360
3E3F
  0
DICTIONARY
  5
3DB8
330
3DB7
100
AcDbDictionary
280
     1
281
     1
  3
ACAD_FIELD
360
45AE
  0
DICTIONARY
  5
441A
330
4419
100
AcDbDictionary
280
     1
281
     1
  3
ACAD_DIMASSOC
360
441B
  0
DICTIONARY
  5
674
102
{ACAD_REACTORS
330
19
102
}
330
19
100
AcDbDictionary
281
     1
  0
DICTIONARY
  5
BBF
102
{ACAD_REACTORS
330
19
102
}
330
19
100
AcDbDictionary
281
     1
  0
FIELDLIST
  5
3BE4
102
{ACAD_REACTORS
330
19
102
}
330
19
100
AcDbIdSet
 90
        2
330
3DBB
330
3DBA
100
AcDbFieldList
  0
DICTIONARY
  5
1A
102
{ACAD_REACTORS
330
19
102
}
330
19
100
AcDbDictionary
281
     1
  3
*A10
350
449A
  3
*A4
350
4585
  3
*A5
350
4593
  3
*A6
350
459D
  3
*A7
350
3CF4
  3
*A8
350
4479
  3
*A9
350
4496
  0
RASTERVARIABLES
  5
27B
102
{ACAD_REACTORS
330
19
102
}
330
19
100
AcDbRasterVariables
 90
        0
 70
     1
 71
     1
 72
     1
  0
DICTIONARY
  5
1E
102
{ACAD_REACTORS
330
19
102
}
330
19
100
AcDbDictionary
281
     1
  3
Layout1
350
21
  3
Model
350
20
  0
DICTIONARY
  5
263
102
{ACAD_REACTORS
330
19
102
}
330
19
100
AcDbDictionary
281
     1
  3
ByBlock
350
265
  3
ByLayer
350
264
  3
Global
350
266
  0
DICTIONARY
  5
336
102
{ACAD_REACTORS
330
19
102
}
330
19
100
AcDbDictionary
281
     1
  3
Standard
350
D59
  0
DICTIONARY
  5
1B
102
{ACAD_REACTORS
330
19
102
}
330
19
100
AcDbDictionary
281
     1
  3
Standard
350
1C
  0
DICTIONARY
  5
22
102
{ACAD_REACTORS
330
19
102
}
330
19
100
AcDbDictionary
281
     1
  0
ACDBDICTIONARYWDFLT
  5
1F
102
{ACAD_REACTORS
330
19
102
}
330
19
100
AcDbDictionary
281
     1
  3
Normal
350
1D
100
AcDbDictionaryWithDefault
340
1D
  0
DICTIONARY
  5
241
102
{ACAD_REACTORS
330
19
102
}
330
19
100
AcDbDictionary
281
     1
  3
A0
350
242
  3
A1
350
243
  3
A2
350
244
  3
A3
350
245
  3
A4
350
246
  3
A5
350
247
  3
A6
350
248
  3
A7
350
249
  3
A8
350
24A
  3
A9
350
24B
  3
B0
350
24C
  3
B1
350
24D
  3
B2
350
24E
  3
B3
350
24F
  3
B4
350
250
  3
B5
350
251
  3
B6
350
252
  3
B7
350
253
  3
B8
350
254
  3
B9
350
255
  3
C0
350
256
  3
C1
350
257
  3
C2
350
258
  3
C3
350
259
  3
C4
350
25A
  3
C5
350
25B
  3
C6
350
25C
  3
C7
350
25D
  3
C8
350
25E
  3
C9
350
25F
  3
D0
350
260
  3
D1
350
261
  3
D2
350
262
  0
DICTIONARY
  5
BC0
102
{ACAD_REACTORS
330
19
102
}
330
19
100
AcDbDictionary
281
     1
  0
DICTIONARY
  5
278
102
{ACAD_REACTORS
330
19
102
}
330
19
100
AcDbDictionary
281
     1
  3
Standard
350
279
  0
DICTIONARY
  5
267
102
{ACAD_REACTORS
330
19
102
}
330
19
100
AcDbDictionary
281
     1
  3
2dWireframe
350
26C
  3
3D Hidden
350
26E
  3
3dWireframe
350
26D
  3
Basic
350
26F
  3
Brighten
350
273
  3
ColorChange
350
277
  3
Conceptual
350
271
  3
Dim
350
272
  3
EdgeColorOff
350
8FE
  3
Facepattern
350
276
  3
Flat
350
268
  3
FlatWithEdges
350
269
  3
Gouraud
350
26A
  3
GouraudWithEdges
350
26B
  3
Hidden
350
8FB
  3
JitterOff
350
8FC
  3
Linepattern
350
275
  3
OverhangOff
350
8FD
  3
Realistic
350
270
  3
Shaded
350
903
  3
Shaded with edges
350
902
  3
Shades of Gray
350
8FF
  3
Sketchy
350
900
  3
Thicken
350
274
  3
Wireframe
350
8FA
  3
X-Ray
350
901
  0
XRECORD
  5
45BB
102
{ACAD_REACTORS
330
19
102
}
330
19
100
AcDbXrecord
280
     1
 90
        1
330
279
  0
DICTIONARY
  5
330
102
{ACAD_REACTORS
330
19
102
}
330
19
100
AcDbDictionary
281
     1
  3
CANNOSCALE
350
331
  3
CMLEADERSTYLE
350
D5E
  3
CTABLESTYLE
350
335
  3
HPTRANSPARENCY
350
D52
  3
XCLIPFRAME
350
896
  0
DICTIONARY
  5
27A
102
{ACAD_REACTORS
330
19
102
}
330
19
100
AcDbDictionary
281
     1
  0
DICTIONARY
  5
E38
102
{ACAD_REACTORS
330
19
102
}
330
19
100
AcDbDictionary
281
     1
  3
DIMRAILANGLE
350
246C
  3
DIMRAILFIRSTOFFSET
350
246A
  3
DIMRAILOFFSET
350
246B
  3
DIMRAILSENABLED
350
246D
  0
DICTIONARY
  5
2E2
102
{ACAD_REACTORS
330
2E1
102
}
330
2E1
100
AcDbDictionary
281
     1
  0
DICTIONARY
  5
DDE
102
{ACAD_REACTORS
330
2E1
102
}
330
2E1
100
AcDbDictionary
281
     1
1001
ACAD
1000
<All
  0
SORTENTSTABLE
  5
3E3F
102
{ACAD_REACTORS
330
3E3E
102
}
330
3E3E
100
AcDbSortentsTable
330
A
331
0
  5
3C4A
331
3CE3
  5
3C4B
331
3CE4
  5
3CE2
331
3CEF
  5
3CE3
331
3CF0
  5
3CE4
331
3CF1
  5
3CEF
331
3CF2
  5
3CF0
331
3CF3
  5
3CF1
331
3D12
  5
3CF3
331
3DB7
  5
3D2F
  0
DICTIONARY
  5
45AE
102
{ACAD_REACTORS
330
3DB8
102
}
330
3DB8
100
AcDbDictionary
280
     1
281
     1
  3
TEXT
360
3DBA
  0
DIMASSOC
  5
441B
102
{ACAD_REACTORS
330
441A
102
}
330
441A
100
AcDbDimAssoc
330
4419
 90
        2
 70
     0
 71
     1
  1
AcDbOsnapPointRef
 72
     1
331
4143
 73
     0
 91
        0
 40
0.0
 10
0.0
 20
0.0
 30
0.0
 75
     0
  0
GROUP
  5
449A
102
{ACAD_REACTORS
330
1A
102
}
330
1A
100
AcDbGroup
300

 70
     1
 71
     1
340
444F
340
444E
340
4450
340
444D
340
444C
340
444B
340
444A
340
4449
340
4447
  0
GROUP
  5
4585
102
{ACAD_REACTORS
330
1A
102
}
330
1A
100
AcDbGroup
300

 70
     1
 71
     1
340
4578
340
4579
340
457A
340
457B
340
457C
340
457D
340
457E
340
457F
340
4580
340
4581
340
4582
340
4583
340
4584
  0
GROUP
  5
4593
102
{ACAD_REACTORS
330
1A
102
}
330
1A
100
AcDbGroup
300

 70
     1
 71
     1
340
4586
340
4587
340
4588
340
4589
340
458A
340
458B
340
458C
340
458D
340
458E
340
458F
340
4590
340
4591
340
4592
  0
GROUP
  5
459D
102
{ACAD_REACTORS
330
1A
102
}
330
1A
100
AcDbGroup
300

 70
     1
 71
     1
340
4594
340
4595
340
4596
340
4597
340
4598
340
4599
340
459A
340
459B
340
459C
  0
GROUP
  5
3CF4
102
{ACAD_REACTORS
330
1A
102
}
330
1A
100
AcDbGroup
300

 70
     1
 71
     1
340
3CE3
340
3CE4
340
3CEF
340
3CF0
340
3CF1
340
3CF2
340
3CF3
  0
GROUP
  5
4479
102
{ACAD_REACTORS
330
1A
102
}
330
1A
100
AcDbGroup
300

 70
     1
 71
     1
340
446E
340
446F
340
4470
340
446C
340
446D
340
4471
340
4472
340
4473
340
4474
340
4475
340
4476
340
4477
340
4478
  0
GROUP
  5
4496
102
{ACAD_REACTORS
330
1A
102
}
330
1A
100
AcDbGroup
300

 70
     1
 71
     1
340
4489
340
448A
340
448B
340
448C
340
448D
340
448E
340
448F
340
4490
340
4491
340
4492
340
4493
340
4494
340
4495
  0
LAYOUT
  5
21
102
{ACAD_REACTORS
330
1E
102
}
330
1E
100
AcDbPlotSettings
  1

  2
none_device
  4
ISO_A3_(420.00_x_297.00_MM)
  6

 40
7.5
 41
20.0
 42
7.5
 43
20.0
 44
420.0
 45
297.0
 46
0.0
 47
0.0
 48
0.0
 49
0.0
140
0.0
141
0.0
142
1.0
143
1.0
 70
     0
 72
     1
 73
     0
 74
     0
  7

 75
     0
 76
     0
 77
     2
 78
   300
147
1.0
148
0.0
149
0.0
100
AcDbLayout
  1
Layout1
 70
     0
 71
     0
 10
-7.5
 20
-20.0
 11
412.5
 21
277.0
 12
0.0
 22
0.0
 32
0.0
 14
0.0
 24
0.0
 34
0.0
 15
0.0
 25
0.0
 35
0.0
146
0.0
 13
0.0
 23
0.0
 33
0.0
 16
0.0
 26
0.0
 36
0.0
 17
0.0
 27
0.0
 37
0.0
 76
     0
330
B
331
349
  0
LAYOUT
  5
20
102
{ACAD_REACTORS
330
1E
102
}
330
1E
100
AcDbPlotSettings
  1

  2
none_device
  4
ISO_A3_(420.00_x_297.00_MM)
  6

 40
7.5
 41
20.0
 42
7.5
 43
20.0
 44
420.0
 45
297.0
 46
0.0
 47
0.0
 48
0.0
 49
0.0
140
0.0
141
0.0
142
1.0
143
1.0
 70
  1024
 72
     1
 73
     0
 74
     0
  7

 75
     0
 76
     0
 77
     2
 78
   300
147
1.0
148
0.0
149
0.0
100
AcDbLayout
  1
Model
 70
     0
 71
     1
 10
0.0
 20
0.0
 11
840.0
 21
1188.0
 12
0.0
 22
0.0
 32
0.0
 14
0.0
 24
0.0
 34
-0.0000000000000071
 15
840.0
 25
1188.0
 35
0.0000000000000071
146
0.0
 13
0.0
 23
0.0
 33
0.0
 16
0.0
 26
0.0
 36
0.0
 17
0.0
 27
0.0
 37
0.0
 76
     0
330
A
331
15
  0
MATERIAL
  5
265
102
{ACAD_REACTORS
330
263
102
}
330
263
100
AcDbMaterial
  1
ByBlock
 72
     1
 94
      127
  0
MATERIAL
  5
264
102
{ACAD_REACTORS
330
263
102
}
330
263
100
AcDbMaterial
  1
ByLayer
 72
     1
 94
      127
  0
MATERIAL
  5
266
102
{ACAD_REACTORS
330
263
102
}
330
263
100
AcDbMaterial
  1
Global
 72
     1
 94
      127
  0
MLEADERSTYLE
  5
D59
102
{ACAD_REACTORS
330
336
102
}
330
336
100
AcDbMLeaderStyle
170
     2
171
     1
172
     0
 90
        2
 40
0.0
 41
0.0
173
     1
 91
-1056964608
340
11
 92
       -2
290
     1
 42
2.0
291
     1
 43
8.0
  3
Standard
341
0
 44
4.0
300

342
17
174
     1
178
     6
175
     1
176
     0
 93
-1056964608
 45
4.0
292
     0
297
     0
 46
4.0
343
0
 94
-1056964608
 47
1.0
 49
1.0
140
1.0
293
     1
141
0.0
294
     1
177
     0
142
1.0
295
     0
296
     0
143
3.75
1001
ACAD_MLEADERVER
1070
     2
  0
MLINESTYLE
  5
1C
102
{ACAD_REACTORS
330
1B
102
}
330
1B
100
AcDbMlineStyle
  2
Standard
 70
     0
  3

 62
     0
 51
90.0
 52
90.0
 71
     2
 49
0.5
 62
   256
  6
BYLAYER
 49
-0.5
 62
   256
  6
BYLAYER
  0
ACDBPLACEHOLDER
  5
1D
102
{ACAD_REACTORS
330
1F
102
}
330
1F
  0
SCALE
  5
242
102
{ACAD_REACTORS
330
241
102
}
330
241
100
AcDbScale
 70
     0
300
1:1
140
1.0
141
1.0
290
     1
  0
SCALE
  5
243
102
{ACAD_REACTORS
330
241
102
}
330
241
100
AcDbScale
 70
     0
300
1:2
140
1.0
141
2.0
290
     0
  0
SCALE
  5
244
102
{ACAD_REACTORS
330
241
102
}
330
241
100
AcDbScale
 70
     0
300
1:4
140
1.0
141
4.0
290
     0
  0
SCALE
  5
245
102
{ACAD_REACTORS
330
241
102
}
330
241
100
AcDbScale
 70
     0
300
1:5
140
1.0
141
5.0
290
     0
  0
SCALE
  5
246
102
{ACAD_REACTORS
330
241
102
}
330
241
100
AcDbScale
 70
     0
300
1:8
140
1.0
141
8.0
290
     0
  0
SCALE
  5
247
102
{ACAD_REACTORS
330
241
102
}
330
241
100
AcDbScale
 70
     0
300
1:10
140
1.0
141
10.0
290
     0
  0
SCALE
  5
248
102
{ACAD_REACTORS
330
241
102
}
330
241
100
AcDbScale
 70
     0
300
1:16
140
1.0
141
16.0
290
     0
  0
SCALE
  5
249
102
{ACAD_REACTORS
330
241
102
}
330
241
100
AcDbScale
 70
     0
300
1:20
140
1.0
141
20.0
290
     0
  0
SCALE
  5
24A
102
{ACAD_REACTORS
330
241
102
}
330
241
100
AcDbScale
 70
     0
300
1:30
140
1.0
141
30.0
290
     0
  0
SCALE
  5
24B
102
{ACAD_REACTORS
330
241
102
}
330
241
100
AcDbScale
 70
     0
300
1:40
140
1.0
141
40.0
290
     0
  0
SCALE
  5
24C
102
{ACAD_REACTORS
330
241
102
}
330
241
100
AcDbScale
 70
     0
300
1:50
140
1.0
141
50.0
290
     0
  0
SCALE
  5
24D
102
{ACAD_REACTORS
330
241
102
}
330
241
100
AcDbScale
 70
     0
300
1:100
140
1.0
141
100.0
290
     0
  0
SCALE
  5
24E
102
{ACAD_REACTORS
330
241
102
}
330
241
100
AcDbScale
 70
     0
300
2:1
140
2.0
141
1.0
290
     0
  0
SCALE
  5
24F
102
{ACAD_REACTORS
330
241
102
}
330
241
100
AcDbScale
 70
     0
300
4:1
140
4.0
141
1.0
290
     0
  0
SCALE
  5
250
102
{ACAD_REACTORS
330
241
102
}
330
241
100
AcDbScale
 70
     0
300
8:1
140
8.0
141
1.0
290
     0
  0
SCALE
  5
251
102
{ACAD_REACTORS
330
241
102
}
330
241
100
AcDbScale
 70
     0
300
10:1
140
10.0
141
1.0
290
     0
  0
SCALE
  5
252
102
{ACAD_REACTORS
330
241
102
}
330
241
100
AcDbScale
 70
     0
300
100:1
140
100.0
141
1.0
290
     0
  0
SCALE
  5
253
102
{ACAD_REACTORS
330
241
102
}
330
241
100
AcDbScale
 70
     0
300
1/128" = 1'-0"
140
0.0078125
141
12.0
290
     0
  0
SCALE
  5
254
102
{ACAD_REACTORS
330
241
102
}
330
241
100
AcDbScale
 70
     0
300
1/64" = 1'-0"
140
0.015625
141
12.0
290
     0
  0
SCALE
  5
255
102
{ACAD_REACTORS
330
241
102
}
330
241
100
AcDbScale
 70
     0
300
1/32" = 1'-0"
140
0.03125
141
12.0
290
     0
  0
SCALE
  5
256
102
{ACAD_REACTORS
330
241
102
}
330
241
100
AcDbScale
 70
     0
300
1/16" = 1'-0"
140
0.0625
141
12.0
290
     0
  0
SCALE
  5
257
102
{ACAD_REACTORS
330
241
102
}
330
241
100
AcDbScale
 70
     0
300
3/32" = 1'-0"
140
0.09375
141
12.0
290
     0
  0
SCALE
  5
258
102
{ACAD_REACTORS
330
241
102
}
330
241
100
AcDbScale
 70
     0
300
1/8" = 1'-0"
140
0.125
141
12.0
290
     0
  0
SCALE
  5
259
102
{ACAD_REACTORS
330
241
102
}
330
241
100
AcDbScale
 70
     0
300
3/16" = 1'-0"
140
0.1875
141
12.0
290
     0
  0
SCALE
  5
25A
102
{ACAD_REACTORS
330
241
102
}
330
241
100
AcDbScale
 70
     0
300
1/4" = 1'-0"
140
0.25
141
12.0
290
     0
  0
SCALE
  5
25B
102
{ACAD_REACTORS
330
241
102
}
330
241
100
AcDbScale
 70
     0
300
3/8" = 1'-0"
140
0.375
141
12.0
290
     0
  0
SCALE
  5
25C
102
{ACAD_REACTORS
330
241
102
}
330
241
100
AcDbScale
 70
     0
300
1/2" = 1'-0"
140
0.5
141
12.0
290
     0
  0
SCALE
  5
25D
102
{ACAD_REACTORS
330
241
102
}
330
241
100
AcDbScale
 70
     0
300
3/4" = 1'-0"
140
0.75
141
12.0
290
     0
  0
SCALE
  5
25E
102
{ACAD_REACTORS
330
241
102
}
330
241
100
AcDbScale
 70
     0
300
1" = 1'-0"
140
1.0
141
12.0
290
     0
  0
SCALE
  5
25F
102
{ACAD_REACTORS
330
241
102
}
330
241
100
AcDbScale
 70
     0
300
1-1/2" = 1'-0"
140
1.5
141
12.0
290
     0
  0
SCALE
  5
260
102
{ACAD_REACTORS
330
241
102
}
330
241
100
AcDbScale
 70
     0
300
3" = 1'-0"
140
3.0
141
12.0
290
     0
  0
SCALE
  5
261
102
{ACAD_REACTORS
330
241
102
}
330
241
100
AcDbScale
 70
     0
300
6" = 1'-0"
140
6.0
141
12.0
290
     0
  0
SCALE
  5
262
102
{ACAD_REACTORS
330
241
102
}
330
241
100
AcDbScale
 70
     0
300
1'-0" = 1'-0"
140
12.0
141
12.0
290
     0
  0
TABLESTYLE
  5
279
102
{ACAD_REACTORS
330
278
102
}
102
{ACAD_XDICTIONARY
360
45B9
102
}
330
278
100
AcDbTableStyle
  3
Standard
 70
     0
 71
     0
 40
0.06
 41
0.06
280
     0
281
     0
  7
Standard
140
4.5
170
     2
 62
     0
 63
   257
283
     0
 90
        4
 91
        0
  1

274
    -2
284
     1
 64
     0
275
    -2
285
     1
 65
     0
276
    -2
286
     1
 66
     0
277
    -2
287
     1
 67
     0
278
    -2
288
     1
 68
     0
279
    -2
289
     1
 69
     0
  7
Standard
140
6.0
170
     5
 62
     0
 63
   257
283
     0
 90
        4
 91
        0
  1

274
    -2
284
     1
 64
     0
275
    -2
285
     1
 65
     0
276
    -2
286
     1
 66
     0
277
    -2
287
     1
 67
     0
278
    -2
288
     1
 68
     0
279
    -2
289
     1
 69
     0
  7
Standard
140
4.5
170
     5
 62
     0
 63
   257
283
     0
 90
        4
 91
        0
  1

274
    -2
284
     1
 64
     0
275
    -2
285
     1
 65
     0
276
    -2
286
     1
 66
     0
277
    -2
287
     1
 67
     0
278
    -2
288
     1
 68
     0
279
    -2
289
     1
 69
     0
  0
VISUALSTYLE
  5
26C
102
{ACAD_REACTORS
330
267
102
}
330
267
100
AcDbVisualStyle
  2
2dWireframe
 70
     4
 71
     0
 72
     2
 73
     0
 90
        0
 40
-0.6
 41
-30.0
 62
     5
 63
     7
421
 16777215
 74
     1
 91
        4
 64
     7
 65
   257
 75
     1
175
     1
 42
1.0
 92
        0
 66
   257
 43
1.0
 76
     1
 77
     6
 78
     2
 67
     7
 79
     5
170
     0
171
     0
290
     0
174
     0
 93
        1
 44
0.0
173
     0
291
     0
 45
0.0
  0
VISUALSTYLE
  5
26E
102
{ACAD_REACTORS
330
267
102
}
330
267
100
AcDbVisualStyle
  2
3D Hidden
 70
     6
 71
     1
 72
     2
 73
     2
 90
        0
 40
-0.6
 41
-30.0
 62
     5
 63
     7
421
 16777215
 74
     2
 91
        2
 64
     7
 65
   257
 75
     2
175
     1
 42
40.0
 92
        0
 66
   257
 43
1.0
 76
     1
 77
     6
 78
     2
 67
     7
 79
     3
170
     0
171
     0
290
     0
174
     0
 93
        1
 44
0.0
173
     0
291
     0
 45
0.0
  0
VISUALSTYLE
  5
26D
102
{ACAD_REACTORS
330
267
102
}
330
267
100
AcDbVisualStyle
  2
3dWireframe
 70
     5
 71
     0
 72
     2
 73
     0
 90
        0
 40
-0.6
 41
-30.0
 62
     5
 63
     7
421
 16777215
 74
     1
 91
        4
 64
     7
 65
   257
 75
     1
175
     1
 42
1.0
 92
        0
 66
   257
 43
1.0
 76
     1
 77
     6
 78
     2
 67
     7
 79
     5
170
     0
171
     0
290
     0
174
     0
 93
        1
 44
0.0
173
     0
291
     0
 45
0.0
  0
VISUALSTYLE
  5
26F
102
{ACAD_REACTORS
330
267
102
}
330
267
100
AcDbVisualStyle
  2
Basic
 70
     7
 71
     1
 72
     0
 73
     1
 90
        0
 40
-0.6
 41
-30.0
 62
     5
 63
     7
421
 16777215
 74
     0
 91
        4
 64
     7
 65
   257
 75
     1
175
     1
 42
1.0
 92
        8
 66
     7
 43
1.0
 76
     1
 77
     6
 78
     2
 67
     7
 79
     5
170
     0
171
     0
290
     0
174
     0
 93
        1
 44
0.0
173
     0
291
     1
 45
0.0
  0
VISUALSTYLE
  5
273
102
{ACAD_REACTORS
330
267
102
}
330
267
100
AcDbVisualStyle
  2
Brighten
 70
    12
 71
     2
 72
     2
 73
     0
 90
        0
 40
-0.6
 41
-30.0
 62
     5
 63
     7
421
 16777215
 74
     1
 91
        4
 64
     7
 65
   257
 75
     1
175
     1
 42
1.0
 92
        8
 66
     7
 43
1.0
 76
     1
 77
     6
 78
     2
 67
     7
 79
     5
170
     0
171
     0
290
     0
174
     0
 93
        1
 44
50.0
173
     0
291
     1
 45
0.0
  0
VISUALSTYLE
  5
277
102
{ACAD_REACTORS
330
267
102
}
330
267
100
AcDbVisualStyle
  2
ColorChange
 70
    16
 71
     2
 72
     2
 73
     3
 90
        0
 40
-0.6
 41
-30.0
 62
     5
 63
     8
421
  8421504
 74
     1
 91
        4
 64
     7
 65
   257
 75
     1
175
     1
 42
1.0
 92
        8
 66
     8
424
  8421504
 43
1.0
 76
     1
 77
     6
 78
     2
 67
     7
 79
     5
170
     0
171
     0
290
     0
174
     0
 93
        1
 44
0.0
173
     0
291
     1
 45
0.0
  0
VISUALSTYLE
  5
271
102
{ACAD_REACTORS
330
267
102
}
330
267
100
AcDbVisualStyle
  2
Conceptual
 70
     9
 71
     3
 72
     2
 73
     0
 90
        0
 40
-0.6
 41
-30.0
 62
     5
 63
     7
421
 16777215
 74
     2
 91
        2
 64
     7
 65
   257
 75
     1
175
     1
 42
40.0
 92
        8
 66
     7
 43
1.0
 76
     1
 77
     6
 78
     2
 67
     7
 79
     3
170
     0
171
     0
290
     0
174
     0
 93
        1
 44
0.0
173
     0
291
     0
 45
0.0
  0
VISUALSTYLE
  5
272
102
{ACAD_REACTORS
330
267
102
}
330
267
100
AcDbVisualStyle
  2
Dim
 70
    11
 71
     2
 72
     2
 73
     0
 90
        0
 40
-0.6
 41
-30.0
 62
     5
 63
     7
421
 16777215
 74
     1
 91
        4
 64
     7
 65
   257
 75
     1
175
     1
 42
1.0
 92
        8
 66
     7
 43
1.0
 76
     1
 77
     6
 78
     2
 67
     7
 79
     5
170
     0
171
     0
290
     0
174
     0
 93
        1
 44
-50.0
173
     0
291
     1
 45
0.0
  0
VISUALSTYLE
  5
8FE
102
{ACAD_REACTORS
330
267
102
}
330
267
100
AcDbVisualStyle
  2
EdgeColorOff
 70
    22
 71
     2
 72
     2
 73
     0
 90
        0
 40
0.6
 41
30.0
 62
     5
 63
     7
421
 16777215
 74
     1
 91
        4
 64
     7
 65
   257
 75
     1
175
     1
 42
1.0
 92
        8
 66
     7
 43
1.0
 76
     1
 77
     6
 78
     2
 67
     7
 79
     5
170
     0
171
     0
290
     0
174
     0
 93
        1
 44
0.0
173
     0
291
     1
 45
0.0
  0
VISUALSTYLE
  5
276
102
{ACAD_REACTORS
330
267
102
}
330
267
100
AcDbVisualStyle
  2
Facepattern
 70
    15
 71
     2
 72
     2
 73
     0
 90
        0
 40
-0.6
 41
-30.0
 62
     5
 63
     7
421
 16777215
 74
     1
 91
        4
 64
     7
 65
   257
 75
     1
175
     1
 42
1.0
 92
        8
 66
     7
 43
1.0
 76
     1
 77
     6
 78
     2
 67
     7
 79
     5
170
     0
171
     0
290
     0
174
     0
 93
        1
 44
0.0
173
     0
291
     1
 45
0.0
  0
VISUALSTYLE
  5
268
102
{ACAD_REACTORS
330
267
102
}
330
267
100
AcDbVisualStyle
  2
Flat
 70
     0
 71
     2
 72
     1
 73
     1
 90
        2
 40
-0.6
 41
30.0
 62
     5
 63
     7
421
 16777215
 74
     0
 91
        4
 64
     7
 65
   257
 75
     1
175
     1
 42
1.0
 92
        8
 66
     7
 43
1.0
 76
     1
 77
     6
 78
     2
 67
     7
 79
     5
170
     0
171
     0
290
     0
174
     0
 93
       13
 44
0.0
173
     0
291
     1
 45
0.0
  0
VISUALSTYLE
  5
269
102
{ACAD_REACTORS
330
267
102
}
330
267
100
AcDbVisualStyle
  2
FlatWithEdges
 70
     1
 71
     2
 72
     1
 73
     1
 90
        2
 40
-0.6
 41
30.0
 62
     5
 63
     7
421
 16777215
 74
     1
 91
        4
 64
     7
 65
   257
 75
     1
175
     1
 42
1.0
 92
        0
 66
   257
 43
1.0
 76
     1
 77
     6
 78
     2
 67
     7
 79
     5
170
     0
171
     0
290
     0
174
     0
 93
       13
 44
0.0
173
     0
291
     1
 45
0.0
  0
VISUALSTYLE
  5
26A
102
{ACAD_REACTORS
330
267
102
}
330
267
100
AcDbVisualStyle
  2
Gouraud
 70
     2
 71
     2
 72
     2
 73
     1
 90
        2
 40
-0.6
 41
30.0
 62
     5
 63
     7
421
 16777215
 74
     0
 91
        4
 64
     7
 65
   257
 75
     1
175
     1
 42
1.0
 92
        0
 66
     7
 43
1.0
 76
     1
 77
     6
 78
     2
 67
     7
 79
     5
170
     0
171
     0
290
     0
174
     0
 93
       13
 44
0.0
173
     0
291
     1
 45
0.0
  0
VISUALSTYLE
  5
26B
102
{ACAD_REACTORS
330
267
102
}
330
267
100
AcDbVisualStyle
  2
GouraudWithEdges
 70
     3
 71
     2
 72
     2
 73
     1
 90
        2
 40
-0.6
 41
30.0
 62
     5
 63
     7
421
 16777215
 74
     1
 91
        4
 64
     7
 65
   257
 75
     1
175
     1
 42
1.0
 92
        0
 66
   257
 43
1.0
 76
     1
 77
     6
 78
     2
 67
     7
 79
     5
170
     0
171
     0
290
     0
174
     0
 93
       13
 44
0.0
173
     0
291
     1
 45
0.0
  0
VISUALSTYLE
  5
8FB
102
{ACAD_REACTORS
330
267
102
}
330
267
100
AcDbVisualStyle
  2
Hidden
 70
     6
 71
     1
 72
     2
 73
     2
 90
        0
 40
0.6
 41
30.0
 62
     5
 63
     7
421
 16777215
 74
     2
 91
        2
 64
     7
 65
   257
 75
     2
175
     1
 42
40.0
 92
        0
 66
   257
 43
1.0
 76
     1
 77
     6
 78
     2
 67
     7
 79
     3
170
     0
171
     0
290
     0
174
     0
 93
        1
 44
0.0
173
     0
291
     0
 45
0.0
  0
VISUALSTYLE
  5
8FC
102
{ACAD_REACTORS
330
267
102
}
330
267
100
AcDbVisualStyle
  2
JitterOff
 70
    20
 71
     2
 72
     2
 73
     0
 90
        0
 40
0.6
 41
30.0
 62
     5
 63
     7
421
 16777215
 74
     1
 91
        4
 64
     7
 65
   257
 75
     1
175
     1
 42
1.0
 92
       10
 66
     7
 43
1.0
 76
     1
 77
     6
 78
     2
 67
     7
 79
     5
170
     0
171
     0
290
     0
174
     0
 93
        1
 44
0.0
173
     0
291
     1
 45
0.0
  0
VISUALSTYLE
  5
275
102
{ACAD_REACTORS
330
267
102
}
330
267
100
AcDbVisualStyle
  2
Linepattern
 70
    14
 71
     2
 72
     2
 73
     0
 90
        0
 40
-0.6
 41
-30.0
 62
     5
 63
     7
421
 16777215
 74
     1
 91
        4
 64
     7
 65
   257
 75
     7
175
     7
 42
1.0
 92
        8
 66
     7
 43
1.0
 76
     1
 77
     6
 78
     2
 67
     7
 79
     5
170
     0
171
     0
290
     0
174
     0
 93
        1
 44
0.0
173
     0
291
     1
 45
0.0
  0
VISUALSTYLE
  5
8FD
102
{ACAD_REACTORS
330
267
102
}
330
267
100
AcDbVisualStyle
  2
OverhangOff
 70
    21
 71
     2
 72
     2
 73
     0
 90
        0
 40
0.6
 41
30.0
 62
     5
 63
     7
421
 16777215
 74
     1
 91
        4
 64
     7
 65
   257
 75
     1
175
     1
 42
1.0
 92
        9
 66
     7
 43
1.0
 76
     1
 77
     6
 78
     2
 67
     7
 79
     5
170
     0
171
     0
290
     0
174
     0
 93
        1
 44
0.0
173
     0
291
     1
 45
0.0
  0
VISUALSTYLE
  5
270
102
{ACAD_REACTORS
330
267
102
}
330
267
100
AcDbVisualStyle
  2
Realistic
 70
     8
 71
     2
 72
     2
 73
     0
 90
        0
 40
-0.6
 41
-30.0
 62
     5
 63
     7
421
 16777215
 74
     1
 91
        0
 64
     7
 65
   257
 75
     1
175
     1
 42
1.0
 92
        8
 66
     8
424
  7895160
 43
1.0
 76
     1
 77
     6
 78
     2
 67
     7
 79
     5
170
     0
171
     0
290
     0
174
     0
 93
       13
 44
0.0
173
     0
291
     0
 45
0.0
  0
VISUALSTYLE
  5
903
102
{ACAD_REACTORS
330
267
102
}
330
267
100
AcDbVisualStyle
  2
Shaded
 70
    27
 71
     2
 72
     2
 73
     1
 90
        2
 40
0.6
 41
30.0
 62
     5
 63
     7
421
 16777215
 74
     0
 91
        4
 64
     7
 65
   257
 75
     1
175
     1
 42
1.0
 92
        8
 66
   257
 43
1.0
 76
     1
 77
     6
 78
     2
 67
     8
425
  7895160
 79
     3
170
     0
171
     0
290
     0
174
     0
 93
        5
 44
0.0
173
     0
291
     0
 45
0.0
  0
VISUALSTYLE
  5
902
102
{ACAD_REACTORS
330
267
102
}
330
267
100
AcDbVisualStyle
  2
Shaded with edges
 70
    26
 71
     2
 72
     2
 73
     1
 90
        2
 40
0.6
 41
30.0
 62
     5
 63
     7
421
 16777215
 74
     1
 91
       10
 64
     7
 65
   257
 75
     2
175
     1
 42
1.0
 92
        8
 66
   257
 43
1.0
 76
     1
 77
     6
 78
     2
 67
     7
 79
     3
170
     0
171
     0
290
     0
174
     0
 93
        5
 44
0.0
173
     0
291
     0
 45
0.0
  0
VISUALSTYLE
  5
8FF
102
{ACAD_REACTORS
330
267
102
}
330
267
100
AcDbVisualStyle
  2
Shades of Gray
 70
    23
 71
     2
 72
     2
 73
     3
 90
        0
 40
0.6
 41
30.0
 62
     5
 63
     7
421
 16777215
 74
     2
 91
        2
 64
     7
 65
     7
 75
     1
175
     1
 42
40.0
 92
        8
 66
     7
 43
1.0
 76
     1
 77
     6
 78
     2
 67
     7
 79
     3
170
     0
171
     0
290
     0
174
     0
 93
        1
 44
0.0
173
     0
291
     0
 45
0.0
  0
VISUALSTYLE
  5
900
102
{ACAD_REACTORS
330
267
102
}
330
267
100
AcDbVisualStyle
  2
Sketchy
 70
    24
 71
     1
 72
     2
 73
     2
 90
        0
 40
0.6
 41
30.0
 62
     5
 63
     7
421
 16777215
 74
     2
 91
        2
 64
     7
 65
     7
 75
     1
175
     1
 42
40.0
 92
       11
 66
     7
 43
1.0
 76
     1
 77
     6
 78
     2
 67
     7
 79
     6
170
     0
171
     0
290
     0
174
     0
 93
        1
 44
0.0
173
     0
291
     0
 45
0.0
  0
VISUALSTYLE
  5
274
102
{ACAD_REACTORS
330
267
102
}
330
267
100
AcDbVisualStyle
  2
Thicken
 70
    13
 71
     2
 72
     2
 73
     0
 90
        0
 40
-0.6
 41
-30.0
 62
     5
 63
     7
421
 16777215
 74
     1
 91
        4
 64
     7
 65
   257
 75
     1
175
     1
 42
1.0
 92
       12
 66
     7
 43
1.0
 76
     1
 77
     6
 78
     2
 67
     7
 79
     5
170
     0
171
     0
290
     0
174
     0
 93
        1
 44
0.0
173
     0
291
     1
 45
0.0
  0
VISUALSTYLE
  5
8FA
102
{ACAD_REACTORS
330
267
102
}
330
267
100
AcDbVisualStyle
  2
Wireframe
 70
     5
 71
     0
 72
     2
 73
     0
 90
        0
 40
0.6
 41
30.0
 62
     5
 63
     7
421
 16777215
 74
     1
 91
        4
 64
     7
 65
   257
 75
     1
175
     1
 42
1.0
 92
        0
 66
   257
 43
1.0
 76
     1
 77
     6
 78
     2
 67
     7
 79
     3
170
     0
171
     0
290
     0
174
     0
 93
        1
 44
0.0
173
     0
291
     0
 45
0.0
  0
VISUALSTYLE
  5
901
102
{ACAD_REACTORS
330
267
102
}
330
267
100
AcDbVisualStyle
  2
X-Ray
 70
    25
 71
     2
 72
     2
 73
     1
 90
        1
 40
0.5
 41
30.0
 62
     5
 63
     7
421
 16777215
 74
     1
 91
        0
 64
     7
 65
   257
 75
     1
175
     1
 42
1.0
 92
        8
 66
     7
 43
1.0
 76
     1
 77
     6
 78
     2
 67
     7
 79
     3
170
     0
171
     0
290
     0
174
     0
 93
       13
 44
0.0
173
     0
291
     0
 45
0.0
  0
DICTIONARYVAR
  5
331
102
{ACAD_REACTORS
330
330
102
}
330
330
100
DictionaryVariables
280
     0
  1
1:1
  0
DICTIONARYVAR
  5
D5E
102
{ACAD_REACTORS
330
330
102
}
330
330
100
DictionaryVariables
280
     0
  1
Standard
  0
DICTIONARYVAR
  5
335
102
{ACAD_REACTORS
330
330
102
}
330
330
100
DictionaryVariables
280
     0
  1
Standard
  0
DICTIONARYVAR
  5
D52
102
{ACAD_REACTORS
330
330
102
}
330
330
100
DictionaryVariables
280
     0
  1
ByLayer
  0
DICTIONARYVAR
  5
896
102
{ACAD_REACTORS
330
330
102
}
330
330
100
DictionaryVariables
280
     0
  1
0
  0
DICTIONARYVAR
  5
246C
102
{ACAD_REACTORS
330
E38
102
}
330
E38
100
DictionaryVariables
280
     0
  1
0.261799
  0
DICTIONARYVAR
  5
246A
102
{ACAD_REACTORS
330
E38
102
}
330
E38
100
DictionaryVariables
280
     0
  1
0.400000
  0
DICTIONARYVAR
  5
246B
102
{ACAD_REACTORS
330
E38
102
}
330
E38
100
DictionaryVariables
280
     0
  1
0.250000
  0
DICTIONARYVAR
  5
246D
102
{ACAD_REACTORS
330
E38
102
}
330
E38
100
DictionaryVariables
280
     0
  1
1
  0
FIELD
  5
3DBA
102
{ACAD_REACTORS
330
45AE
102
}
330
45AE
100
AcDbField
  1
_text
  2
{%<\_FldIdx 0>%N}
 90
        1
360
3DBB
 97
        0
 91
       63
 92
        0
 94
       11
 95
        2
 96
        0
300

 93
        1
  6
ACFD_FIELDTEXT_CHECKSUM
 93
        2
 90
        2
140
4503.0
 94
        0
300

302

304
ACVALUE_END
  7
ACFD_FIELD_VALUE
 93
        6
 90
        4
  1
{20181205N}
 94
        0
300

302

304
ACVALUE_END
301
{20181205N}
 98
       11
  0
DICTIONARY
  5
45B9
330
279
100
AcDbDictionary
280
     1
281
     1
  3
ACAD_ROUNDTRIP_2008_TABLESTYLE_CELLSTYLEMAP
360
45BA
  0
FIELD
  5
3DBB
330
3DBA
100
AcDbField
  1
AcVar
  2
\AcVar CreateDate \f "yyyyMMdd"
 90
        0
 97
        0
 91
       63
 92
        0
 94
       11
 95
        2
 96
        0
300

 93
        1
  6
Variable
 93
        2
 90
        4
  1
CreateDate
 94
        0
300

302

304
ACVALUE_END
  7
ACFD_FIELD_VALUE
 93
        6
 90
        8
 92
       16
310
E2070C00000005000100340017000000
 94
        0
300
yyyyMMdd
302

304
ACVALUE_END
301
20181205
 98
        8
  0
CELLSTYLEMAP
  5
45BA
102
{ACAD_REACTORS
330
45B9
102
}
330
45B9
100
AcDbCellStyleMap
 90
        3
300
CELLSTYLE
  1
TABLEFORMAT_BEGIN
 90
        5
170
     1
 91
        0
 92
    32768
 62
   257
 93
        1
300
CONTENTFORMAT
  1
CONTENTFORMAT_BEGIN
 90
        0
 91
        0
 92
        4
 93
        0
300

 40
0.0
140
1.0
 94
        5
 62
     0
340
17
144
6.0
309
CONTENTFORMAT_END
171
     1
301
MARGIN
  1
CELLMARGIN_BEGIN
 40
0.06
 40
0.06
 40
0.06
 40
0.06
 40
0.18
 40
0.18
309
CELLMARGIN_END
 94
        6
 95
        1
302
GRIDFORMAT
  1
GRIDFORMAT_BEGIN
 90
        0
 91
        1
 62
     0
 92
       -2
340
0
 93
        0
 40
0.045
309
GRIDFORMAT_END
 95
        2
302
GRIDFORMAT
  1
GRIDFORMAT_BEGIN
 90
        0
 91
        1
 62
     0
 92
       -2
340
0
 93
        0
 40
0.045
309
GRIDFORMAT_END
 95
        4
302
GRIDFORMAT
  1
GRIDFORMAT_BEGIN
 90
        0
 91
        1
 62
     0
 92
       -2
340
0
 93
        0
 40
0.045
309
GRIDFORMAT_END
 95
        8
302
GRIDFORMAT
  1
GRIDFORMAT_BEGIN
 90
        0
 91
        1
 62
     0
 92
       -2
340
0
 93
        0
 40
0.045
309
GRIDFORMAT_END
 95
       16
302
GRIDFORMAT
  1
GRIDFORMAT_BEGIN
 90
        0
 91
        1
 62
     0
 92
       -2
340
0
 93
        0
 40
0.045
309
GRIDFORMAT_END
 95
       32
302
GRIDFORMAT
  1
GRIDFORMAT_BEGIN
 90
        0
 91
        1
 62
     0
 92
       -2
340
0
 93
        0
 40
0.045
309
GRIDFORMAT_END
309
TABLEFORMAT_END
  1
CELLSTYLE_BEGIN
 90
        1
 91
        1
300
_TITLE
309
CELLSTYLE_END
300
CELLSTYLE
  1
TABLEFORMAT_BEGIN
 90
        5
170
     1
 91
        0
 92
        0
 62
   257
 93
        1
300
CONTENTFORMAT
  1
CONTENTFORMAT_BEGIN
 90
        0
 91
        0
 92
        4
 93
        0
300

 40
0.0
140
1.0
 94
        5
 62
     0
340
17
144
4.5
309
CONTENTFORMAT_END
171
     1
301
MARGIN
  1
CELLMARGIN_BEGIN
 40
0.06
 40
0.06
 40
0.06
 40
0.06
 40
0.18
 40
0.18
309
CELLMARGIN_END
 94
        6
 95
        1
302
GRIDFORMAT
  1
GRIDFORMAT_BEGIN
 90
        0
 91
        1
 62
     0
 92
       -2
340
0
 93
        0
 40
0.045
309
GRIDFORMAT_END
 95
        2
302
GRIDFORMAT
  1
GRIDFORMAT_BEGIN
 90
        0
 91
        1
 62
     0
 92
       -2
340
0
 93
        0
 40
0.045
309
GRIDFORMAT_END
 95
        4
302
GRIDFORMAT
  1
GRIDFORMAT_BEGIN
 90
        0
 91
        1
 62
     0
 92
       -2
340
0
 93
        0
 40
0.045
309
GRIDFORMAT_END
 95
        8
302
GRIDFORMAT
  1
GRIDFORMAT_BEGIN
 90
        0
 91
        1
 62
     0
 92
       -2
340
0
 93
        0
 40
0.045
309
GRIDFORMAT_END
 95
       16
302
GRIDFORMAT
  1
GRIDFORMAT_BEGIN
 90
        0
 91
        1
 62
     0
 92
       -2
340
0
 93
        0
 40
0.045
309
GRIDFORMAT_END
 95
       32
302
GRIDFORMAT
  1
GRIDFORMAT_BEGIN
 90
        0
 91
        1
 62
     0
 92
       -2
340
0
 93
        0
 40
0.045
309
GRIDFORMAT_END
309
TABLEFORMAT_END
  1
CELLSTYLE_BEGIN
 90
        2
 91
        1
300
_HEADER
309
CELLSTYLE_END
300
CELLSTYLE
  1
TABLEFORMAT_BEGIN
 90
        5
170
     1
 91
        0
 92
        0
 62
   257
 93
        1
300
CONTENTFORMAT
  1
CONTENTFORMAT_BEGIN
 90
        0
 91
        0
 92
        4
 93
        0
300

 40
0.0
140
1.0
 94
        2
 62
     0
340
17
144
4.5
309
CONTENTFORMAT_END
171
     1
301
MARGIN
  1
CELLMARGIN_BEGIN
 40
0.06
 40
0.06
 40
0.06
 40
0.06
 40
0.18
 40
0.18
309
CELLMARGIN_END
 94
        6
 95
        1
302
GRIDFORMAT
  1
GRIDFORMAT_BEGIN
 90
        0
 91
        1
 62
     0
 92
       -2
340
0
 93
        0
 40
0.045
309
GRIDFORMAT_END
 95
        2
302
GRIDFORMAT
  1
GRIDFORMAT_BEGIN
 90
        0
 91
        1
 62
     0
 92
       -2
340
0
 93
        0
 40
0.045
309
GRIDFORMAT_END
 95
        4
302
GRIDFORMAT
  1
GRIDFORMAT_BEGIN
 90
        0
 91
        1
 62
     0
 92
       -2
340
0
 93
        0
 40
0.045
309
GRIDFORMAT_END
 95
        8
302
GRIDFORMAT
  1
GRIDFORMAT_BEGIN
 90
        0
 91
        1
 62
     0
 92
       -2
340
0
 93
        0
 40
0.045
309
GRIDFORMAT_END
 95
       16
302
GRIDFORMAT
  1
GRIDFORMAT_BEGIN
 90
        0
 91
        1
 62
     0
 92
       -2
340
0
 93
        0
 40
0.045
309
GRIDFORMAT_END
 95
       32
302
GRIDFORMAT
  1
GRIDFORMAT_BEGIN
 90
        0
 91
        1
 62
     0
 92
       -2
340
0
 93
        0
 40
0.045
309
GRIDFORMAT_END
309
TABLEFORMAT_END
  1
CELLSTYLE_BEGIN
 90
        3
 91
        2
300
_DATA
309
CELLSTYLE_END
  0
ENDSEC
  0
EOF
