  0
SECTION
  2
HEADER
  9
$ACADVER
  1
AC1021
  9
$ACADMAINTVER
 70
    25
  9
$DWGCODEPAGE
  3
ANSI_932
  9
$LASTSAVEDBY
  1
howeNelson
  9
$INSBASE
 10
0.0
 20
0.0
 30
0.0
  9
$EXTMIN
 10
0.0
 20
0.0
 30
-0.0000000000000142
  9
$EXTMAX
 10
1050.0
 20
1485.0
 30
0.0000000000000142
  9
$LIMMIN
 10
0.0
 20
0.0
  9
$LIMMAX
 10
1050.0
 20
1485.0
  9
$ORTHOMODE
 70
     0
  9
$REGENMODE
 70
     1
  9
$FILLMODE
 70
     1
  9
$QTEXTMODE
 70
     0
  9
$MIRRTEXT
 70
     1
  9
$LTSCALE
 40
2.5
  9
$ATTMODE
 70
     1
  9
$TEXTSIZE
 40
2.5
  9
$TRACEWID
 40
1.0
  9
$TEXTSTYLE
  7
ＭＳ ゴシック
  9
$CLAYER
  8
DIM
  9
$CELTYPE
  6
ByLayer
  9
$CECOLOR
 62
   256
  9
$CELTSCALE
 40
1.0
  9
$DISPSILH
 70
     0
  9
$DIMSCALE
 40
1.0
  9
$DIMASZ
 40
3.0
  9
$DIMEXO
 40
10.0
  9
$DIMDLI
 40
0.9999999999999999
  9
$DIMRND
 40
0.0
  9
$DIMDLE
 40
0.0
  9
$DIMEXE
 40
0.0
  9
$DIMTP
 40
0.0
  9
$DIMTM
 40
0.0
  9
$DIMTXT
 40
12.0
  9
$DIMCEN
 40
0.0
  9
$DIMTSZ
 40
0.0
  9
$DIMTOL
 70
     0
  9
$DIMLIM
 70
     0
  9
$DIMTIH
 70
     0
  9
$DIMTOH
 70
     0
  9
$DIMSE1
 70
     0
  9
$DIMSE2
 70
     0
  9
$DIMTAD
 70
     1
  9
$DIMZIN
 70
    11
  9
$DIMBLK
  1
DOT
  9
$DIMASO
 70
     1
  9
$DIMSHO
 70
     1
  9
$DIMPOST
  1
<>
  9
$DIMAPOST
  1
[]
  9
$DIMALT
 70
     0
  9
$DIMALTD
 70
     1
  9
$DIMALTF
 40
1.0
  9
$DIMLFAC
 40
1.0
  9
$DIMTOFL
 70
     0
  9
$DIMTVP
 40
0.0
  9
$DIMTIX
 70
     1
  9
$DIMSOXD
 70
     0
  9
$DIMSAH
 70
     0
  9
$DIMBLK1
  1

  9
$DIMBLK2
  1

  9
$DIMSTYLE
  2
tfrom線あり
  9
$DIMCLRD
 70
     0
  9
$DIMCLRE
 70
     0
  9
$DIMCLRT
 70
     0
  9
$DIMTFAC
 40
1.0
  9
$DIMGAP
 40
10.0
  9
$DIMJUST
 70
     0
  9
$DIMSD1
 70
     0
  9
$DIMSD2
 70
     0
  9
$DIMTOLJ
 70
     1
  9
$DIMTZIN
 70
    11
  9
$DIMALTZ
 70
    11
  9
$DIMALTTZ
 70
    11
  9
$DIMUPT
 70
     0
  9
$DIMDEC
 70
     0
  9
$DIMTDEC
 70
     1
  9
$DIMALTU
 70
     2
  9
$DIMALTTD
 70
     2
  9
$DIMTXSTY
  7
ＭＳ ゴシック
  9
$DIMAUNIT
 70
     0
  9
$DIMADEC
 70
     2
  9
$DIMALTRND
 40
0.0
  9
$DIMAZIN
 70
     0
  9
$DIMDSEP
 70
    46
  9
$DIMATFIT
 70
     0
  9
$DIMFRAC
 70
     2
  9
$DIMLDRBLK
  1
DOT
  9
$DIMLUNIT
 70
     2
  9
$DIMLWD
 70
    -2
  9
$DIMLWE
 70
    -2
  9
$DIMTMOVE
 70
     0
  9
$DIMFXL
 40
1.0
  9
$DIMFXLON
 70
     0
  9
$DIMJOGANG
 40
0.7853981633974483
  9
$DIMTFILL
 70
     0
  9
$DIMTFILLCLR
 70
     0
  9
$DIMARCSYM
 70
     0
  9
$DIMLTYPE
  6

  9
$DIMLTEX1
  6

  9
$DIMLTEX2
  6

  9
$LUNITS
 70
     2
  9
$LUPREC
 70
     0
  9
$SKETCHINC
 40
0.1
  9
$FILLETRAD
 40
0.0
  9
$AUNITS
 70
     0
  9
$AUPREC
 70
     0
  9
$MENU
  1
acad
  9
$ELEVATION
 40
0.0
  9
$PELEVATION
 40
0.0
  9
$THICKNESS
 40
0.0
  9
$LIMCHECK
 70
     0
  9
$CHAMFERA
 40
0.0
  9
$CHAMFERB
 40
0.0
  9
$CHAMFERC
 40
0.0
  9
$CHAMFERD
 40
0.0
  9
$SKPOLY
 70
     0
  9
$TDCREATE
 40
2447893.375
  9
$TDUCREATE
 40
0.0
  9
$TDUPDATE
 40
2457989.665114352
  9
$TDUUPDATE
 40
2457989.290114352
  9
$TDINDWG
 40
0.0
  9
$TDUSRTIMER
 40
0.0
  9
$USRTIMER
 70
     1
  9
$ANGBASE
 50
0.0
  9
$ANGDIR
 70
     0
  9
$PDMODE
 70
     1
  9
$PDSIZE
 40
-2.0
  9
$PLINEWID
 40
0.0
  9
$SPLFRAME
 70
     0
  9
$SPLINETYPE
 70
     6
  9
$SPLINESEGS
 70
     8
  9
$HANDSEED
  5
1ECF
  9
$SURFTAB1
 70
     6
  9
$SURFTAB2
 70
     6
  9
$SURFTYPE
 70
     6
  9
$SURFU
 70
     6
  9
$SURFV
 70
     6
  9
$UCSBASE
  2

  9
$UCSNAME
  2

  9
$UCSORG
 10
0.0
 20
0.0
 30
0.0
  9
$UCSXDIR
 10
1.0
 20
0.0
 30
0.0
  9
$UCSYDIR
 10
0.0
 20
1.0
 30
0.0
  9
$UCSORTHOREF
  2

  9
$UCSORTHOVIEW
 70
     0
  9
$UCSORGTOP
 10
0.0
 20
0.0
 30
0.0
  9
$UCSORGBOTTOM
 10
0.0
 20
0.0
 30
0.0
  9
$UCSORGLEFT
 10
0.0
 20
0.0
 30
0.0
  9
$UCSORGRIGHT
 10
0.0
 20
0.0
 30
0.0
  9
$UCSORGFRONT
 10
0.0
 20
0.0
 30
0.0
  9
$UCSORGBACK
 10
0.0
 20
0.0
 30
0.0
  9
$PUCSBASE
  2

  9
$PUCSNAME
  2

  9
$PUCSORG
 10
0.0
 20
0.0
 30
0.0
  9
$PUCSXDIR
 10
1.0
 20
0.0
 30
0.0
  9
$PUCSYDIR
 10
0.0
 20
1.0
 30
0.0
  9
$PUCSORTHOREF
  2

  9
$PUCSORTHOVIEW
 70
     0
  9
$PUCSORGTOP
 10
0.0
 20
0.0
 30
0.0
  9
$PUCSORGBOTTOM
 10
0.0
 20
0.0
 30
0.0
  9
$PUCSORGLEFT
 10
0.0
 20
0.0
 30
0.0
  9
$PUCSORGRIGHT
 10
0.0
 20
0.0
 30
0.0
  9
$PUCSORGFRONT
 10
0.0
 20
0.0
 30
0.0
  9
$PUCSORGBACK
 10
0.0
 20
0.0
 30
0.0
  9
$USERI1
 70
     0
  9
$USERI2
 70
     0
  9
$USERI3
 70
     0
  9
$USERI4
 70
     0
  9
$USERI5
 70
     0
  9
$USERR1
 40
0.0
  9
$USERR2
 40
0.0
  9
$USERR3
 40
0.0
  9
$USERR4
 40
0.0
  9
$USERR5
 40
0.0
  9
$WORLDVIEW
 70
     1
  9
$SHADEDGE
 70
     3
  9
$SHADEDIF
 70
    70
  9
$TILEMODE
 70
     1
  9
$MAXACTVP
 70
    64
  9
$PINSBASE
 10
0.0
 20
0.0
 30
0.0
  9
$PLIMCHECK
 70
     0
  9
$PEXTMIN
 10
0.0
 20
0.0
 30
0.0
  9
$PEXTMAX
 10
0.0
 20
0.0
 30
0.0
  9
$PLIMMIN
 10
-7.5
 20
-20.0
  9
$PLIMMAX
 10
412.5
 20
277.0
  9
$UNITMODE
 70
     0
  9
$VISRETAIN
 70
     0
  9
$PLINEGEN
 70
     1
  9
$PSLTSCALE
 70
     0
  9
$TREEDEPTH
 70
  3020
  9
$CMLSTYLE
  2
Standard
  9
$CMLJUST
 70
     0
  9
$CMLSCALE
 40
1.0
  9
$PROXYGRAPHICS
 70
     0
  9
$MEASUREMENT
 70
     1
  9
$CELWEIGHT
370
    -1
  9
$ENDCAPS
280
     0
  9
$JOINSTYLE
280
     0
  9
$LWDISPLAY
290
     1
  9
$INSUNITS
 70
     4
  9
$HYPERLINKBASE
  1

  9
$STYLESHEET
  1

  9
$XEDIT
290
     1
  9
$CEPSNTYPE
380
     0
  9
$PSTYLEMODE
290
     1
  9
$FINGERPRINTGUID
  2

  9
$VERSIONGUID
  2

  9
$EXTNAMES
290
     1
  9
$PSVPSCALE
 40
0.0
  9
$OLESTARTUP
290
     0
  9
$SORTENTS
280
   127
  9
$INDEXCTL
280
     0
  9
$HIDETEXT
280
     1
  9
$XCLIPFRAME
290
     0
  9
$HALOGAP
280
     0
  9
$OBSCOLOR
 70
   257
  9
$OBSLTYPE
280
     0
  9
$INTERSECTIONDISPLAY
280
     0
  9
$INTERSECTIONCOLOR
 70
   257
  9
$DIMASSOC
280
     2
  9
$PROJECTNAME
  1

  9
$CAMERADISPLAY
290
     0
  9
$LENSLENGTH
 40
50.0
  9
$CAMERAHEIGHT
 40
0.0
  9
$STEPSPERSEC
 40
2.0
  9
$STEPSIZE
 40
6.0
  9
$3DDWFPREC
 40
2.0
  9
$PSOLWIDTH
 40
0.25
  9
$PSOLHEIGHT
 40
4.0
  9
$LOFTANG1
 40
1.570796326794897
  9
$LOFTANG2
 40
1.570796326794897
  9
$LOFTMAG1
 40
0.0
  9
$LOFTMAG2
 40
0.0
  9
$LOFTPARAM
 70
     7
  9
$LOFTNORMALS
280
     1
  9
$LATITUDE
 40
37.795
  9
$LONGITUDE
 40
-122.394
  9
$NORTHDIRECTION
 40
0.0
  9
$TIMEZONE
 70
 -8000
  9
$LIGHTGLYPHDISPLAY
280
     1
  9
$TILEMODELIGHTSYNCH
280
     1
  9
$SOLIDHIST
280
     1
  9
$SHOWHIST
280
     1
  9
$DWFFRAME
280
     2
  9
$DGNFRAME
280
     2
  9
$REALWORLDSCALE
290
     1
  9
$INTERFERECOLOR
 62
   256
  9
$CSHADOW
280
     0
  9
$SHADOWPLANELOCATION
 40
0.0
  0
ENDSEC
  0
SECTION
  2
CLASSES
  0
CLASS
  1
LWPOLYLINE
  2
AcDbPolyline
  3
ObjectDBX Classes
 90
        0
 91
        1
280
     0
281
     1
  0
CLASS
  1
IMAGE
  2
AcDbRasterImage
  3
ISM
 90
      127
 91
       10
280
     0
281
     1
  0
CLASS
  1
OLE2FRAME
  2
AcDbOle2Frame
  3
ObjectDBX Classes
 90
        0
 91
        1
280
     0
281
     1
  0
CLASS
  1
HATCH
  2
AcDbHatch
  3
ObjectDBX Classes
 90
        0
 91
        1
280
     0
281
     1
  0
CLASS
  1
DICTIONARYVAR
  2
AcDbDictionaryVar
  3
ObjectDBX Classes
 90
        0
 91
        9
280
     0
281
     0
  0
CLASS
  1
RASTERVARIABLES
  2
AcDbRasterVariables
  3
ISM
 90
        0
 91
        9
280
     0
281
     0
  0
CLASS
  1
IMAGEDEF
  2
AcDbRasterImageDef
  3
ISM
 90
        0
 91
        9
280
     0
281
     0
  0
CLASS
  1
IMAGEDEF_REACTOR
  2
AcDbRasterImageDefReactor
  3
ISM
 90
        1
 91
        9
280
     0
281
     0
  0
CLASS
  1
IDBUFFER
  2
AcDbIdBuffer
  3
ObjectDBX Classes
 90
        0
 91
        9
280
     0
281
     0
  0
CLASS
  1
SPATIAL_FILTER
  2
AcDbSpatialFilter
  3
ObjectDBX Classes
 90
        0
 91
        9
280
     0
281
     0
  0
CLASS
  1
XRECORD
  2
AcDbXrecord
  3
ObjectDBX Classes
 90
        0
 91
        1
280
     0
281
     0
  0
CLASS
  1
SORTENTSTABLE
  2
AcDbSortentsTable
  3
ObjectDBX Classes
 90
        0
 91
        9
280
     0
281
     0
  0
CLASS
  1
LAYER_INDEX
  2
AcDbLayerIndex
  3
ObjectDBX Classes
 90
        0
 91
        9
280
     0
281
     0
  0
CLASS
  1
SPATIAL_INDEX
  2
AcDbSpatialIndex
  3
AutoCAD 2000
 90
        0
 91
        9
280
     0
281
     0
  0
CLASS
  1
OBJECT_PTR
  2
CAseDLPNTableRecord
  3
ASE-LPNTableRecord
 90
        1
 91
        9
280
     0
281
     0
  0
CLASS
  1
LAYOUT
  2
AcDbLayout
  3
ObjectDBX Classes
 90
        0
 91
        1
280
     0
281
     0
  0
CLASS
  1
PLOTSETTINGS
  2
AcDbPlotSettings
  3
ObjectDBX Classes
 90
        0
 91
        9
280
     0
281
     0
  0
CLASS
  1
ACDBDICTIONARYWDFLT
  2
AcDbDictionaryWithDefault
  3
ObjectDBX Classes
 90
        0
 91
        9
280
     0
281
     0
  0
CLASS
  1
ACDBPLACEHOLDER
  2
AcDbPlaceHolder
  3
ObjectDBX Classes
 90
        0
 91
        1
280
     0
281
     0
  0
CLASS
  1
SCALE
  2
AcDbScale
  3
ObjectDBX Classes
 90
     1153
 91
        9
280
     0
281
     0
  0
CLASS
  1
MATERIAL
  2
AcDbMaterial
  3
ObjectDBX Classes
 90
     1153
 91
        9
280
     0
281
     0
  0
CLASS
  1
VISUALSTYLE
  2
AcDbVisualStyle
  3
ObjectDBX Classes
 90
     4095
 91
        9
280
     0
281
     0
  0
CLASS
  1
TABLESTYLE
  2
AcDbTableStyle
  3
ObjectDBX Classes
 90
     4095
 91
        9
280
     0
281
     0
  0
CLASS
  1
DIMASSOC
  2
AcDbDimAssoc
  3
"AcDbDimAssoc|Product Desc:     AcDim ARX App For Dimension|Company:          Autodesk, Inc.|WEB Address:      www.autodesk.com"
 90
        0
 91
        9
280
     0
281
     0
  0
CLASS
  1
CELLSTYLEMAP
  2
AcDbCellStyleMap
  3
ObjectDBX Classes
 90
     1152
 91
        9
280
     0
281
     0
  0
CLASS
  1
SUN
  2
AcDbSun
  3
SCENEOE
 90
     1153
 91
        9
280
     0
281
     0
  0
CLASS
  1
MLEADERSTYLE
  2
AcDbMLeaderStyle
  3
ACDB_MLEADERSTYLE_CLASS
 90
     4095
 91
        9
280
     0
281
     0
  0
CLASS
  1
FIELD
  2
AcDbField
  3
ObjectDBX Classes
 90
     1152
 91
        9
280
     0
281
     0
  0
CLASS
  1
FIELDLIST
  2
AcDbFieldList
  3
ObjectDBX Classes
 90
     1152
 91
        9
280
     0
281
     0
  0
ENDSEC
  0
SECTION
  2
TABLES
  0
TABLE
  2
VPORT
  5
7
330
0
100
AcDbSymbolTable
 70
     1
  0
VPORT
  5
15
330
7
100
AcDbSymbolTableRecord
100
AcDbViewportTableRecord
  2
*ACTIVE
 70
     0
 10
0.0
 20
0.0
 11
1.0
 21
1.0
 12
616.0201356708977
 22
668.901285469834
 13
0.0
 23
0.0
 14
1.0
 24
1.0
 15
0.0
 25
0.0
 16
0.0
 26
0.0
 36
1.0
 17
-91.02013567089773
 27
73.59871453016603
 37
-46.86809886248109
 40
1514.7
 41
2.209859154929577
 42
50.0
 43
0.0
 44
0.0
 50
0.0
 51
0.0
 71
    16
 72
  2000
 73
     1
 74
     1
 75
     0
 76
     0
 77
     0
 78
     0
281
     0
 65
     1
110
0.0
120
0.0
130
0.0
111
1.0
121
0.0
131
0.0
112
0.0
122
1.0
132
0.0
 79
     0
146
0.0
348
1E0A
 60
     3
 61
     5
292
     1
282
     1
141
0.0
142
0.0
 63
   256
361
904
  0
ENDTAB
  0
TABLE
  2
LTYPE
  5
4
330
0
100
AcDbSymbolTable
 70
     4
  0
LTYPE
  5
11
330
4
100
AcDbSymbolTableRecord
100
AcDbLinetypeTableRecord
  2
ByBlock
 70
     0
  3

 72
    65
 73
     0
 40
0.0
  0
LTYPE
  5
12
330
4
100
AcDbSymbolTableRecord
100
AcDbLinetypeTableRecord
  2
ByLayer
 70
     0
  3

 72
    65
 73
     0
 40
0.0
  0
LTYPE
  5
13
330
4
100
AcDbSymbolTableRecord
100
AcDbLinetypeTableRecord
  2
Continuous
 70
     0
  3
Solid line
 72
    65
 73
     0
 40
0.0
  0
LTYPE
  5
D6C
330
4
100
AcDbSymbolTableRecord
100
AcDbLinetypeTableRecord
  2
BORDER
 70
     0
  3
Border __  __  . __  __  . __  __  . __  __  . 
 72
    65
 73
     6
 40
44.45
 49
12.7
 74
     0
 49
-6.35
 74
     0
 49
12.7
 74
     0
 49
-6.35
 74
     0
 49
0.0
 74
     0
 49
-6.35
 74
     0
  0
LTYPE
  5
1795
330
4
100
AcDbSymbolTableRecord
100
AcDbLinetypeTableRecord
  2
CENTERX2
 70
     0
  3
Center (2x) ________  __  ________  __  _____
 72
    65
 73
     4
 40
20.32
 49
12.7
 74
     0
 49
-2.54
 74
     0
 49
2.54
 74
     0
 49
-2.54
 74
     0
  0
LTYPE
  5
1DD6
330
4
100
AcDbSymbolTableRecord
100
AcDbLinetypeTableRecord
  2
CENTER
 70
     0
  3
 Center _____  _  _____  _  _____  _  _____  _ 
 72
    65
 73
     4
 40
50.8
 49
31.75
 74
     0
 49
-6.35
 74
     0
 49
6.35
 74
     0
 49
-6.35
 74
     0
  0
ENDTAB
  0
TABLE
  2
LAYER
  5
2
102
{ACAD_XDICTIONARY
360
2E1
102
}
330
0
100
AcDbSymbolTable
 70
     7
  0
LAYER
  5
14
330
2
100
AcDbSymbolTableRecord
100
AcDbLayerTableRecord
  2
0
 70
     0
 62
     7
  6
Continuous
370
    -3
390
1D
347
266
  0
LAYER
  5
4B
330
2
100
AcDbSymbolTableRecord
100
AcDbLayerTableRecord
  2
TEMPLATE
 70
     0
 62
     7
  6
Continuous
370
    20
390
1D
347
266
  0
LAYER
  5
4C
330
2
100
AcDbSymbolTableRecord
100
AcDbLayerTableRecord
  2
DIM
 70
     0
 62
     3
  6
Continuous
370
    13
390
1D
347
266
  0
LAYER
  5
4D
330
2
100
AcDbSymbolTableRecord
100
AcDbLayerTableRecord
  2
MODEL
 70
     0
 62
     7
  6
Continuous
370
    20
390
1D
347
266
  0
LAYER
  5
667
330
2
100
AcDbSymbolTableRecord
100
AcDbLayerTableRecord
  2
LOGO
 70
     0
 62
     7
  6
Continuous
370
    -3
390
1D
347
266
  0
LAYER
  5
D6B
330
2
100
AcDbSymbolTableRecord
100
AcDbLayerTableRecord
  2
BORDER
 70
     0
 62
     4
  6
BORDER
290
     0
370
    20
390
1D
347
266
1001
AcAecLayerStandard
1000

1000

  0
LAYER
  5
D8C
330
2
100
AcDbSymbolTableRecord
100
AcDbLayerTableRecord
  2
Defpoints
 70
     0
 62
     7
  6
Continuous
290
     0
370
    -3
390
1D
347
266
  0
ENDTAB
  0
TABLE
  2
STYLE
  5
3
330
0
100
AcDbSymbolTable
 70
     5
  0
STYLE
  5
17
330
3
100
AcDbSymbolTableRecord
100
AcDbTextStyleTableRecord
  2
Standard
 70
     0
 40
0.0
 41
1.0
 50
0.0
 71
     0
 42
2.5
  3
txt
  4
BIGFONT.SHX
  0
STYLE
  5
39
330
3
100
AcDbSymbolTableRecord
100
AcDbTextStyleTableRecord
  2
ＭＳ ゴシック
 70
     0
 40
0.0
 41
1.0
 50
0.0
 71
     0
 42
2.5
  3
msgothic.ttc
  4
ＭＳ ゴシック
1001
ACAD
1000
ＭＳ ゴシック
1071
        0
  0
STYLE
  5
384
330
3
100
AcDbSymbolTableRecord
100
AcDbTextStyleTableRecord
  2
ARIAL
 70
     0
 40
0.0
 41
1.0
 50
0.0
 71
     0
 42
12.0
  3
ARIAL.TTF
  4

1001
ACAD
1000
Arial
1071
       34
  0
STYLE
  5
385
330
3
100
AcDbSymbolTableRecord
100
AcDbTextStyleTableRecord
  2
ROMANS
 70
     0
 40
0.0
 41
1.0
 50
0.0
 71
     0
 42
5.0
  3
romans.shx
  4

  0
STYLE
  5
1799
330
3
100
AcDbSymbolTableRecord
100
AcDbTextStyleTableRecord
  2
SLDTEXTSTYLE0
 70
     0
 40
0.0
 41
0.75
 50
0.0
 71
     0
 42
2.5
  3
TXT
  4

  0
ENDTAB
  0
TABLE
  2
VIEW
  5
5
330
0
100
AcDbSymbolTable
 70
     0
  0
ENDTAB
  0
TABLE
  2
UCS
  5
6
330
0
100
AcDbSymbolTable
 70
     0
  0
ENDTAB
  0
TABLE
  2
APPID
  5
8
330
0
100
AcDbSymbolTable
 70
     3
  0
APPID
  5
16
330
8
100
AcDbSymbolTableRecord
100
AcDbRegAppTableRecord
  2
ACAD
 70
     0
  0
APPID
  5
7AC
330
8
100
AcDbSymbolTableRecord
100
AcDbRegAppTableRecord
  2
AcAecLayerStandard
 70
     0
  0
APPID
  5
E29
330
8
100
AcDbSymbolTableRecord
100
AcDbRegAppTableRecord
  2
ACAD_MLEADERVER
 70
     0
  0
ENDTAB
  0
TABLE
  2
DIMSTYLE
  5
9
330
0
100
AcDbSymbolTable
 70
     2
100
AcDbDimStyleTable
  0
DIMSTYLE
105
18
330
9
100
AcDbSymbolTableRecord
100
AcDbDimStyleTableRecord
  2
Standard
 70
     0
178
     0
340
17
  0
DIMSTYLE
105
57
102
{ACAD_REACTORS
330
1CAC
330
1CAD
330
1CF9
330
1CFA
330
1C8E
330
1E6C
330
1E8D
330
1E9A
102
}
330
9
100
AcDbSymbolTableRecord
100
AcDbDimStyleTableRecord
  2
tfrom線あり
 70
     0
  3
<>
  4
[]
 41
3.0
 42
10.0
 43
0.9999999999999999
 44
0.0
 73
     0
 74
     0
 77
     1
 78
    11
140
12.0
141
0.0
143
1.0
147
10.0
171
     1
174
     1
178
     0
179
     2
271
     0
272
     1
276
     2
284
    11
285
    11
286
    11
289
     0
340
39
341
4E
342
4E
  0
ENDTAB
  0
TABLE
  2
BLOCK_RECORD
  5
1
330
0
100
AcDbSymbolTable
 70
    16
  0
BLOCK_RECORD
  5
A
330
1
100
AcDbSymbolTableRecord
100
AcDbBlockTableRecord
  2
*MODEL_SPACE
340
20
 70
     0
280
     1
281
     0
  0
BLOCK_RECORD
  5
B
330
1
100
AcDbSymbolTableRecord
100
AcDbBlockTableRecord
  2
*PAPER_SPACE
340
21
 70
     0
280
     1
281
     0
  0
BLOCK_RECORD
  5
4E
330
1
100
AcDbSymbolTableRecord
100
AcDbBlockTableRecord
  2
_DOT
340
0
102
{BLKREFS
331
1D69
331
1D6A
331
1D75
331
1D76
331
1D81
331
1D82
331
1D8D
331
1D8E
331
1D99
331
1D9A
331
1E22
331
1E23
331
1E62
331
1E63
331
1E77
331
1E78
331
1E94
331
1E95
331
1EA1
331
1EA2
102
}
 70
     0
280
     1
281
     0
  0
BLOCK_RECORD
  5
68A
330
1
100
AcDbSymbolTableRecord
100
AcDbBlockTableRecord
  2
名称未設定-1
340
0
102
{BLKREFS
331
6B5
102
}
 70
     1
280
     1
281
     0
  0
BLOCK_RECORD
  5
68D
330
1
100
AcDbSymbolTableRecord
100
AcDbBlockTableRecord
  2
block 2
340
0
102
{BLKREFS
331
68C
331
1343
102
}
 70
     0
280
     1
281
     0
  0
BLOCK_RECORD
  5
690
330
1
100
AcDbSymbolTableRecord
100
AcDbBlockTableRecord
  2
block 3
340
0
102
{BLKREFS
331
68F
102
}
 70
     0
280
     1
281
     0
  0
BLOCK_RECORD
  5
693
330
1
100
AcDbSymbolTableRecord
100
AcDbBlockTableRecord
  2
block 4
340
0
102
{BLKREFS
331
692
102
}
 70
     0
280
     1
281
     0
  0
BLOCK_RECORD
  5
6A2
330
1
100
AcDbSymbolTableRecord
100
AcDbBlockTableRecord
  2
block 5
340
0
102
{BLKREFS
331
6A1
102
}
 70
     0
280
     1
281
     0
  0
BLOCK_RECORD
  5
1D63
330
1
100
AcDbSymbolTableRecord
100
AcDbBlockTableRecord
  2
*D6
340
0
 70
     0
280
     1
281
     0
  0
BLOCK_RECORD
  5
1D6F
330
1
100
AcDbSymbolTableRecord
100
AcDbBlockTableRecord
  2
*D7
340
0
 70
     0
280
     1
281
     0
  0
BLOCK_RECORD
  5
1D7B
330
1
100
AcDbSymbolTableRecord
100
AcDbBlockTableRecord
  2
*D8
340
0
 70
     0
280
     1
281
     0
  0
BLOCK_RECORD
  5
1D87
330
1
100
AcDbSymbolTableRecord
100
AcDbBlockTableRecord
  2
*D9
340
0
 70
     0
280
     1
281
     0
  0
BLOCK_RECORD
  5
1D93
330
1
100
AcDbSymbolTableRecord
100
AcDbBlockTableRecord
  2
*D10
340
0
 70
     0
280
     1
281
     0
  0
BLOCK_RECORD
  5
1E1C
330
1
100
AcDbSymbolTableRecord
100
AcDbBlockTableRecord
  2
*D11
340
0
 70
     0
280
     1
281
     0
  0
BLOCK_RECORD
  5
1E5C
330
1
100
AcDbSymbolTableRecord
100
AcDbBlockTableRecord
  2
*D12
340
0
 70
     0
280
     1
281
     0
  0
BLOCK_RECORD
  5
1E6F
330
1
100
AcDbSymbolTableRecord
100
AcDbBlockTableRecord
  2
*D13
340
0
 70
     0
280
     1
281
     0
  0
BLOCK_RECORD
  5
1E8E
330
1
100
AcDbSymbolTableRecord
100
AcDbBlockTableRecord
  2
*D14
340
0
 70
     0
280
     1
281
     0
  0
BLOCK_RECORD
  5
1E9B
330
1
100
AcDbSymbolTableRecord
100
AcDbBlockTableRecord
  2
*D15
340
0
 70
     0
280
     1
281
     0
  0
ENDTAB
  0
ENDSEC
  0
SECTION
  2
BLOCKS
  0
BLOCK
  5
D
330
A
100
AcDbEntity
  8
0
390
1D
100
AcDbBlockBegin
  2
*MODEL_SPACE
 70
     0
 10
0.0
 20
0.0
 30
0.0
  3
*MODEL_SPACE
  1
*MODEL_SPACE
  0
ENDBLK
  5
E
330
A
100
AcDbEntity
  8
0
390
1D
100
AcDbBlockEnd
  0
BLOCK
  5
F
330
B
100
AcDbEntity
 67
     1
  8
0
390
1D
100
AcDbBlockBegin
  2
*PAPER_SPACE
 70
     0
 10
0.0
 20
0.0
 30
0.0
  3
*PAPER_SPACE
  1
*PAPER_SPACE
  0
ENDBLK
  5
10
330
B
100
AcDbEntity
 67
     1
  8
0
390
1D
100
AcDbBlockEnd
  0
BLOCK
  5
E30
330
4E
100
AcDbEntity
  8
0
390
1D
100
AcDbBlockBegin
  2
_DOT
 70
     0
 10
0.0
 20
0.0
 30
0.0
  3
_DOT
  1
_DOT
  0
POLYLINE
  5
E32
330
4E
100
AcDbEntity
  8
0
  6
ByBlock
 62
     0
370
    -2
390
1D
100
AcDb2dPolyline
 66
     1
 10
0.0
 20
0.0
 30
0.0
 70
     1
 40
0.5
 41
0.5
  0
VERTEX
  5
E33
330
E32
100
AcDbEntity
  8
0
  6
ByBlock
 62
     0
370
    -2
390
1D
100
AcDbVertex
100
AcDb2dVertex
 10
-0.25
 20
0.0
 30
0.0
 42
1.0
  0
VERTEX
  5
E34
330
E32
100
AcDbEntity
  8
0
  6
ByBlock
 62
     0
370
    -2
390
1D
100
AcDbVertex
100
AcDb2dVertex
 10
0.25
 20
0.0
 30
0.0
 42
1.0
  0
SEQEND
  5
E35
330
E32
100
AcDbEntity
  8
0
390
1D
  0
LINE
  5
E36
330
4E
100
AcDbEntity
  8
0
  6
ByBlock
 62
     0
370
    -2
390
1D
100
AcDbLine
 10
-0.5
 20
0.0
 30
0.0
 11
-1.0
 21
0.0
 31
0.0
  0
ENDBLK
  5
E37
330
4E
100
AcDbEntity
  8
0
390
1D
100
AcDbBlockEnd
  0
BLOCK
  5
68B
330
68A
100
AcDbEntity
  8
0
100
AcDbBlockBegin
  2
名称未設定-1
 70
     0
 10
0.0
 20
0.0
 30
0.0
  3
名称未設定-1
  1
名称未設定-1
  0
INSERT
  5
68F
330
68A
100
AcDbEntity
  8
LOGO
100
AcDbBlockReference
  2
block 3
 10
0.0
 20
0.0
 30
0.0
  0
ENDBLK
  5
6B1
330
68A
100
AcDbEntity
  8
0
100
AcDbBlockEnd
  0
BLOCK
  5
68E
330
68D
100
AcDbEntity
  8
0
100
AcDbBlockBegin
  2
block 2
 70
     0
 10
0.0
 20
0.0
 30
0.0
  3
block 2
  1
block 2
  0
ENDBLK
  5
6B0
330
68D
100
AcDbEntity
  8
0
100
AcDbBlockEnd
  0
BLOCK
  5
691
330
690
100
AcDbEntity
  8
0
100
AcDbBlockBegin
  2
block 3
 70
     0
 10
0.0
 20
0.0
 30
0.0
  3
block 3
  1
block 3
  0
INSERT
  5
692
330
690
100
AcDbEntity
  8
LOGO
100
AcDbBlockReference
  2
block 4
 10
0.0
 20
0.0
 30
0.0
  0
INSERT
  5
6A1
330
690
100
AcDbEntity
  8
LOGO
100
AcDbBlockReference
  2
block 5
 10
0.0
 20
0.0
 30
0.0
  0
ENDBLK
  5
6AF
330
690
100
AcDbEntity
  8
0
100
AcDbBlockEnd
  0
BLOCK
  5
694
330
693
100
AcDbEntity
  8
0
100
AcDbBlockBegin
  2
block 4
 70
     0
 10
0.0
 20
0.0
 30
0.0
  3
block 4
  1
block 4
  0
POLYLINE
  5
695
330
693
100
AcDbEntity
  8
LOGO
370
     0
100
AcDb2dPolyline
 66
     1
 10
0.0
 20
0.0
 30
0.0
  0
VERTEX
  5
696
330
695
100
AcDbEntity
  8
LOGO
370
     0
100
AcDbVertex
100
AcDb2dVertex
 10
83.79545727667795
 20
167.6444858234922
 30
0.0
  0
VERTEX
  5
697
330
695
100
AcDbEntity
  8
LOGO
370
     0
100
AcDbVertex
100
AcDb2dVertex
 10
83.79545727667795
 20
159.7968976406313
 30
0.0
  0
VERTEX
  5
698
330
695
100
AcDbEntity
  8
LOGO
370
     0
100
AcDbVertex
100
AcDb2dVertex
 10
71.3631329975216
 20
159.7968976406313
 30
0.0
  0
VERTEX
  5
699
330
695
100
AcDbEntity
  8
LOGO
370
     0
100
AcDbVertex
100
AcDb2dVertex
 10
71.3631329975216
 20
127.8027915271048
 30
0.0
  0
VERTEX
  5
69A
330
695
100
AcDbEntity
  8
LOGO
370
     0
100
AcDbVertex
100
AcDb2dVertex
 10
60.43011526263018
 20
127.8027915271048
 30
0.0
  0
VERTEX
  5
69B
330
695
100
AcDbEntity
  8
LOGO
370
     0
100
AcDbVertex
100
AcDb2dVertex
 10
60.43011526263018
 20
159.7968976406313
 30
0.0
  0
VERTEX
  5
69C
330
695
100
AcDbEntity
  8
LOGO
370
     0
100
AcDbVertex
100
AcDb2dVertex
 10
48.21793273020759
 20
159.7968976406313
 30
0.0
  0
VERTEX
  5
69D
330
695
100
AcDbEntity
  8
LOGO
370
     0
100
AcDbVertex
100
AcDb2dVertex
 10
48.21793273020759
 20
167.6444858234922
 30
0.0
  0
VERTEX
  5
69E
330
695
100
AcDbEntity
  8
LOGO
370
     0
100
AcDbVertex
100
AcDb2dVertex
 10
83.79545727667795
 20
167.6444858234922
 30
0.0
  0
SEQEND
  5
69F
330
695
100
AcDbEntity
  8
LOGO
370
     0
  0
HATCH
  5
6A0
330
693
100
AcDbEntity
  8
LOGO
 62
   250
420
  2234388
100
AcDbHatch
 10
0.0
 20
0.0
 30
0.0
210
0.0
220
0.0
230
1.0
  2
SOLID
 70
     1
 71
     0
 91
        1
 92
        1
 93
        8
 72
     1
 10
83.79545727667795
 20
167.6444858234922
 11
83.79545727667795
 21
159.7968976406313
 72
     1
 10
83.79545727667795
 20
159.7968976406313
 11
71.3631329975216
 21
159.7968976406313
 72
     1
 10
71.3631329975216
 20
159.7968976406313
 11
71.3631329975216
 21
127.8027915271048
 72
     1
 10
71.3631329975216
 20
127.8027915271048
 11
60.43011526263018
 21
127.8027915271048
 72
     1
 10
60.43011526263018
 20
127.8027915271048
 11
60.43011526263018
 21
159.7968976406313
 72
     1
 10
60.43011526263018
 20
159.7968976406313
 11
48.21793273020759
 21
159.7968976406313
 72
     1
 10
48.21793273020759
 20
159.7968976406313
 11
48.21793273020759
 21
167.6444858234922
 72
     1
 10
48.21793273020759
 20
167.6444858234922
 11
83.79545727667795
 21
167.6444858234922
 97
        0
 75
     2
 76
     1
 98
        0
  0
ENDBLK
  5
6AE
330
693
100
AcDbEntity
  8
0
100
AcDbBlockEnd
  0
BLOCK
  5
6A3
330
6A2
100
AcDbEntity
  8
0
100
AcDbBlockBegin
  2
block 5
 70
     0
 10
0.0
 20
0.0
 30
0.0
  3
block 5
  1
block 5
  0
SPLINE
  5
6A4
330
6A2
100
AcDbEntity
  8
LOGO
370
     0
100
AcDbSpline
210
0.0
220
0.0
230
1.0
 70
    11
 71
     3
 72
    56
 73
    52
 74
     0
 42
0.000000001
 43
0.0000000001
 40
0.0
 40
0.0
 40
0.0
 40
0.0
 40
1.0
 40
1.0
 40
1.0
 40
2.0
 40
2.0
 40
2.0
 40
3.0
 40
3.0
 40
3.0
 40
4.0
 40
4.0
 40
4.0
 40
5.0
 40
5.0
 40
5.0
 40
6.0
 40
6.0
 40
6.0
 40
7.0
 40
7.0
 40
7.0
 40
8.0
 40
8.0
 40
8.0
 40
9.0
 40
9.0
 40
9.0
 40
10.0
 40
10.0
 40
10.0
 40
11.0
 40
11.0
 40
11.0
 40
12.0
 40
12.0
 40
12.0
 40
13.0
 40
13.0
 40
13.0
 40
14.0
 40
14.0
 40
14.0
 40
15.0
 40
15.0
 40
15.0
 40
16.0
 40
16.0
 40
16.0
 40
17.0
 40
17.0
 40
17.0
 40
17.0
 10
100.4504378777679
 20
166.69157178364
 30
0.0
 10
101.9848844191641
 20
167.1313385124438
 30
0.0
 10
103.9637485713373
 20
166.7649523658846
 30
0.0
 10
103.9637485713373
 20
166.7649523658846
 30
0.0
 10
103.9637485713373
 20
166.7649523658846
 30
0.0
 10
103.0132460999156
 20
163.911205638077
 30
0.0
 10
103.0132460999156
 20
163.911205638077
 30
0.0
 10
103.0132460999156
 20
163.911205638077
 30
0.0
 10
101.0674548862189
 20
164.3601018759394
 30
0.0
 10
99.57090442016032
 20
163.1805004036133
 30
0.0
 10
98.40508333886608
 20
162.258247733807
 30
0.0
 10
97.65301849830304
 20
159.804132345923
 30
0.0
 10
97.3598406791005
 20
158.8699940888517
 30
0.0
 10
97.3598406791005
 20
158.8699940888517
 30
0.0
 10
96.07137411762282
 20
154.9119212747295
 30
0.0
 10
96.07137411762282
 20
154.9119212747295
 30
0.0
 10
96.07137411762282
 20
154.9119212747295
 30
0.0
 10
100.3012651448482
 20
154.9119212747295
 30
0.0
 10
100.3012651448482
 20
154.9119212747295
 30
0.0
 10
100.3012651448482
 20
154.9119212747295
 30
0.0
 10
99.64152892419852
 20
152.4199098115079
 30
0.0
 10
99.64152892419852
 20
152.4199098115079
 30
0.0
 10
99.64152892419852
 20
152.4199098115079
 30
0.0
 10
95.38097652692731
 20
152.4199098115079
 30
0.0
 10
95.38097652692731
 20
152.4199098115079
 30
0.0
 10
95.38097652692731
 20
152.4199098115079
 30
0.0
 10
87.75353009080013
 20
127.8027915271048
 30
0.0
 10
87.75353009080013
 20
127.8027915271048
 30
0.0
 10
87.75353009080013
 20
127.8027915271048
 30
0.0
 10
85.36538832498108
 20
127.8027915271048
 30
0.0
 10
85.36538832498108
 20
127.8027915271048
 30
0.0
 10
85.36538832498108
 20
127.8027915271048
 30
0.0
 10
93.00006946639998
 20
152.4199098115079
 30
0.0
 10
93.00006946639998
 20
152.4199098115079
 30
0.0
 10
93.00006946639998
 20
152.4199098115079
 30
0.0
 10
89.85297266450198
 20
152.4199098115079
 30
0.0
 10
89.85297266450198
 20
152.4199098115079
 30
0.0
 10
89.85297266450198
 20
152.4199098115079
 30
0.0
 10
90.51270888515164
 20
154.9119212747295
 30
0.0
 10
90.51270888515164
 20
154.9119212747295
 30
0.0
 10
90.51270888515164
 20
154.9119212747295
 30
0.0
 10
93.6904670570955
 20
154.9119212747295
 30
0.0
 10
93.6904670570955
 20
154.9119212747295
 30
0.0
 10
93.6904670570955
 20
154.9119212747295
 30
0.0
 10
94.81598049462158
 20
158.3616699146644
 30
0.0
 10
94.81598049462158
 20
158.3616699146644
 30
0.0
 10
95.7237637538445
 20
161.2605474231013
 30
0.0
 10
96.4968436907311
 20
162.8139420021662
 30
0.0
 10
97.15657991138076
 20
163.9844139654337
 30
0.0
 10
97.81183750494507
 20
165.1523021053827
 30
0.0
 10
99.1047826935081
 20
166.3084769129547
 30
0.0
 10
100.4504378777679
 20
166.69157178364
 30
0.0
  0
HATCH
  5
6A5
330
6A2
100
AcDbEntity
  8
LOGO
 62
   250
420
  2234388
100
AcDbHatch
 10
0.0
 20
0.0
 30
0.0
210
0.0
220
0.0
230
1.0
  2
SOLID
 70
     1
 71
     0
 91
        1
 92
        1
 93
        1
 72
     4
 94
        3
 73
     0
 74
     1
 95
       56
 96
       52
 40
0.0
 40
0.0
 40
0.0
 40
0.0
 40
1.0
 40
1.0
 40
1.0
 40
2.0
 40
2.0
 40
2.0
 40
3.0
 40
3.0
 40
3.0
 40
4.0
 40
4.0
 40
4.0
 40
5.0
 40
5.0
 40
5.0
 40
6.0
 40
6.0
 40
6.0
 40
7.0
 40
7.0
 40
7.0
 40
8.0
 40
8.0
 40
8.0
 40
9.0
 40
9.0
 40
9.0
 40
10.0
 40
10.0
 40
10.0
 40
11.0
 40
11.0
 40
11.0
 40
12.0
 40
12.0
 40
12.0
 40
13.0
 40
13.0
 40
13.0
 40
14.0
 40
14.0
 40
14.0
 40
15.0
 40
15.0
 40
15.0
 40
16.0
 40
16.0
 40
16.0
 40
17.0
 40
17.0
 40
17.0
 40
17.0
 10
100.4504378777679
 20
166.69157178364
 10
101.9848844191641
 20
167.1313385124438
 10
103.9637485713373
 20
166.7649523658846
 10
103.9637485713373
 20
166.7649523658846
 10
103.9637485713373
 20
166.7649523658846
 10
103.0132460999156
 20
163.911205638077
 10
103.0132460999156
 20
163.911205638077
 10
103.0132460999156
 20
163.911205638077
 10
101.0674548862189
 20
164.3601018759394
 10
99.57090442016032
 20
163.1805004036133
 10
98.40508333886608
 20
162.258247733807
 10
97.65301849830304
 20
159.804132345923
 10
97.3598406791005
 20
158.8699940888517
 10
97.3598406791005
 20
158.8699940888517
 10
96.07137411762282
 20
154.9119212747295
 10
96.07137411762282
 20
154.9119212747295
 10
96.07137411762282
 20
154.9119212747295
 10
100.3012651448482
 20
154.9119212747295
 10
100.3012651448482
 20
154.9119212747295
 10
100.3012651448482
 20
154.9119212747295
 10
99.64152892419852
 20
152.4199098115079
 10
99.64152892419852
 20
152.4199098115079
 10
99.64152892419852
 20
152.4199098115079
 10
95.38097652692731
 20
152.4199098115079
 10
95.38097652692731
 20
152.4199098115079
 10
95.38097652692731
 20
152.4199098115079
 10
87.75353009080013
 20
127.8027915271048
 10
87.75353009080013
 20
127.8027915271048
 10
87.75353009080013
 20
127.8027915271048
 10
85.36538832498108
 20
127.8027915271048
 10
85.36538832498108
 20
127.8027915271048
 10
85.36538832498108
 20
127.8027915271048
 10
93.00006946639998
 20
152.4199098115079
 10
93.00006946639998
 20
152.4199098115079
 10
93.00006946639998
 20
152.4199098115079
 10
89.85297266450198
 20
152.4199098115079
 10
89.85297266450198
 20
152.4199098115079
 10
89.85297266450198
 20
152.4199098115079
 10
90.51270888515164
 20
154.9119212747295
 10
90.51270888515164
 20
154.9119212747295
 10
90.51270888515164
 20
154.9119212747295
 10
93.6904670570955
 20
154.9119212747295
 10
93.6904670570955
 20
154.9119212747295
 10
93.6904670570955
 20
154.9119212747295
 10
94.81598049462158
 20
158.3616699146644
 10
94.81598049462158
 20
158.3616699146644
 10
95.7237637538445
 20
161.2605474231013
 10
96.4968436907311
 20
162.8139420021662
 10
97.15657991138076
 20
163.9844139654337
 10
97.81183750494507
 20
165.1523021053827
 10
99.1047826935081
 20
166.3084769129547
 10
100.4504378777679
 20
166.69157178364
 97
        0
 75
     2
 76
     1
 98
        0
  0
SPLINE
  5
6A6
330
6A2
100
AcDbEntity
  8
LOGO
370
     0
100
AcDbSpline
210
0.0
220
0.0
230
1.0
 70
    11
 71
     3
 72
    38
 73
    34
 74
     0
 42
0.000000001
 43
0.0000000001
 40
0.0
 40
0.0
 40
0.0
 40
0.0
 40
1.0
 40
1.0
 40
1.0
 40
2.0
 40
2.0
 40
2.0
 40
3.0
 40
3.0
 40
3.0
 40
4.0
 40
4.0
 40
4.0
 40
5.0
 40
5.0
 40
5.0
 40
6.0
 40
6.0
 40
6.0
 40
7.0
 40
7.0
 40
7.0
 40
8.0
 40
8.0
 40
8.0
 40
9.0
 40
9.0
 40
9.0
 40
10.0
 40
10.0
 40
10.0
 40
11.0
 40
11.0
 40
11.0
 40
11.0
 10
126.377554584636
 20
154.8151140277308
 30
0.0
 10
126.377554584636
 20
154.8151140277308
 30
0.0
 10
128.8311532078563
 20
154.8151140277308
 30
0.0
 10
128.8311532078563
 20
154.8151140277308
 30
0.0
 10
128.8311532078563
 20
154.8151140277308
 30
0.0
 10
127.7345785914971
 20
151.3062819612468
 30
0.0
 10
127.7345785914971
 20
151.3062819612468
 30
0.0
 10
128.571392836906
 20
152.2922689395754
 30
0.0
 10
129.8860421413442
 20
153.604506675583
 30
0.0
 10
131.0163787157314
 20
154.2664822097754
 30
0.0
 10
132.7044766171327
 20
155.2500576196734
 30
0.0
 10
133.6642808525008
 20
155.3847609420097
 30
0.0
 10
134.7284715499351
 20
155.3565111403944
 30
0.0
 10
134.7284715499351
 20
155.3565111403944
 30
0.0
 10
133.6877075172549
 20
152.0345756272799
 30
0.0
 10
133.6877075172549
 20
152.0345756272799
 30
0.0
 10
133.011434827367
 20
152.3184516825359
 30
0.0
 10
130.930940291334
 20
151.7768823149844
 30
0.0
 10
129.739280976855
 20
150.9162968950455
 30
0.0
 10
128.66613302525
 20
150.1454562717016
 30
0.0
 10
127.9192358313239
 20
149.4857200510519
 30
0.0
 10
127.0393578639405
 20
147.8282835196966
 30
0.0
 10
126.164647543194
 20
146.1699857139017
 30
0.0
 10
125.4742499524985
 20
143.5262176944419
 30
0.0
 10
124.2822461282437
 20
139.6959580071401
 30
0.0
 10
124.2822461282437
 20
139.6959580071401
 30
0.0
 10
120.5753209406769
 20
127.8027915271048
 30
0.0
 10
120.5753209406769
 20
127.8027915271048
 30
0.0
 10
120.5753209406769
 20
127.8027915271048
 30
0.0
 10
118.1964809388044
 20
127.8027915271048
 30
0.0
 10
118.1964809388044
 20
127.8027915271048
 30
0.0
 10
118.1964809388044
 20
127.8027915271048
 30
0.0
 10
126.377554584636
 20
154.8151140277308
 30
0.0
 10
126.377554584636
 20
154.8151140277308
 30
0.0
  0
HATCH
  5
6A7
330
6A2
100
AcDbEntity
  8
LOGO
 62
   250
420
  2234388
100
AcDbHatch
 10
0.0
 20
0.0
 30
0.0
210
0.0
220
0.0
230
1.0
  2
SOLID
 70
     1
 71
     0
 91
        1
 92
        1
 93
        1
 72
     4
 94
        3
 73
     0
 74
     1
 95
       38
 96
       34
 40
0.0
 40
0.0
 40
0.0
 40
0.0
 40
1.0
 40
1.0
 40
1.0
 40
2.0
 40
2.0
 40
2.0
 40
3.0
 40
3.0
 40
3.0
 40
4.0
 40
4.0
 40
4.0
 40
5.0
 40
5.0
 40
5.0
 40
6.0
 40
6.0
 40
6.0
 40
7.0
 40
7.0
 40
7.0
 40
8.0
 40
8.0
 40
8.0
 40
9.0
 40
9.0
 40
9.0
 40
10.0
 40
10.0
 40
10.0
 40
11.0
 40
11.0
 40
11.0
 40
11.0
 10
126.377554584636
 20
154.8151140277308
 10
126.377554584636
 20
154.8151140277308
 10
128.8311532078563
 20
154.8151140277308
 10
128.8311532078563
 20
154.8151140277308
 10
128.8311532078563
 20
154.8151140277308
 10
127.7345785914971
 20
151.3062819612468
 10
127.7345785914971
 20
151.3062819612468
 10
128.571392836906
 20
152.2922689395754
 10
129.8860421413442
 20
153.604506675583
 10
131.0163787157314
 20
154.2664822097754
 10
132.7044766171327
 20
155.2500576196734
 10
133.6642808525008
 20
155.3847609420097
 10
134.7284715499351
 20
155.3565111403944
 10
134.7284715499351
 20
155.3565111403944
 10
133.6877075172549
 20
152.0345756272799
 10
133.6877075172549
 20
152.0345756272799
 10
133.011434827367
 20
152.3184516825359
 10
130.930940291334
 20
151.7768823149844
 10
129.739280976855
 20
150.9162968950455
 10
128.66613302525
 20
150.1454562717016
 10
127.9192358313239
 20
149.4857200510519
 10
127.0393578639405
 20
147.8282835196966
 10
126.164647543194
 20
146.1699857139017
 10
125.4742499524985
 20
143.5262176944419
 10
124.2822461282437
 20
139.6959580071401
 10
124.2822461282437
 20
139.6959580071401
 10
120.5753209406769
 20
127.8027915271048
 10
120.5753209406769
 20
127.8027915271048
 10
120.5753209406769
 20
127.8027915271048
 10
118.1964809388044
 20
127.8027915271048
 10
118.1964809388044
 20
127.8027915271048
 10
118.1964809388044
 20
127.8027915271048
 10
126.377554584636
 20
154.8151140277308
 10
126.377554584636
 20
154.8151140277308
 97
        0
 75
     2
 76
     1
 98
        0
  0
SPLINE
  5
6A8
330
6A2
100
AcDbEntity
  8
LOGO
370
     0
100
AcDbSpline
210
0.0
220
0.0
230
1.0
 70
    11
 71
     3
 72
   104
 73
   100
 74
     0
 42
0.000000001
 43
0.0000000001
 40
0.0
 40
0.0
 40
0.0
 40
0.0
 40
1.0
 40
1.0
 40
1.0
 40
2.0
 40
2.0
 40
2.0
 40
3.0
 40
3.0
 40
3.0
 40
4.0
 40
4.0
 40
4.0
 40
5.0
 40
5.0
 40
5.0
 40
6.0
 40
6.0
 40
6.0
 40
7.0
 40
7.0
 40
7.0
 40
8.0
 40
8.0
 40
8.0
 40
9.0
 40
9.0
 40
9.0
 40
10.0
 40
10.0
 40
10.0
 40
11.0
 40
11.0
 40
11.0
 40
12.0
 40
12.0
 40
12.0
 40
13.0
 40
13.0
 40
13.0
 40
14.0
 40
14.0
 40
14.0
 40
15.0
 40
15.0
 40
15.0
 40
16.0
 40
16.0
 40
16.0
 40
17.0
 40
17.0
 40
17.0
 40
18.0
 40
18.0
 40
18.0
 40
19.0
 40
19.0
 40
19.0
 40
20.0
 40
20.0
 40
20.0
 40
21.0
 40
21.0
 40
21.0
 40
22.0
 40
22.0
 40
22.0
 40
23.0
 40
23.0
 40
23.0
 40
24.0
 40
24.0
 40
24.0
 40
25.0
 40
25.0
 40
25.0
 40
26.0
 40
26.0
 40
26.0
 40
27.0
 40
27.0
 40
27.0
 40
28.0
 40
28.0
 40
28.0
 40
29.0
 40
29.0
 40
29.0
 40
30.0
 40
30.0
 40
30.0
 40
31.0
 40
31.0
 40
31.0
 40
32.0
 40
32.0
 40
32.0
 40
33.0
 40
33.0
 40
33.0
 40
33.0
 10
139.8926730891197
 20
154.8294111834263
 30
0.0
 10
139.8926730891197
 20
154.8294111834263
 30
0.0
 10
142.0344903652445
 20
154.8294111834263
 30
0.0
 10
142.0344903652445
 20
154.8294111834263
 30
0.0
 10
142.0344903652445
 20
154.8294111834263
 30
0.0
 10
140.9516961399171
 20
151.3157559800812
 30
0.0
 10
140.9516961399171
 20
151.3157559800812
 30
0.0
 10
141.8928968473923
 20
152.7887075264977
 30
0.0
 10
142.7341897198865
 20
153.4484437471474
 30
0.0
 10
143.8552245303272
 20
154.2926649527359
 30
0.0
 10
144.9803934580775
 20
155.1296514530327
 30
0.0
 10
146.3139908001845
 20
155.3044901642492
 30
0.0
 10
147.241066606852
 20
155.3044901642492
 30
0.0
 10
148.3855280820469
 20
155.3044901642492
 30
0.0
 10
149.4969166187653
 20
155.0752189084569
 30
0.0
 10
150.0784491203092
 20
153.8172414621372
 30
0.0
 10
150.5228667310863
 20
152.833838307127
 30
0.0
 10
150.5414702589793
 20
152.7201500811143
 30
0.0
 10
150.4140016419347
 20
150.7765981809602
 30
0.0
 10
151.5818897818837
 20
152.7699317437168
 30
0.0
 10
152.4424752018226
 20
153.6256940267945
 30
0.0
 10
153.9038856707499
 20
154.4507949398263
 30
0.0
 10
155.4455669174378
 20
155.3044901642492
 30
0.0
 10
156.339225275853
 20
155.3659851592288
 30
0.0
 10
157.3748216618963
 20
155.2147453676543
 30
0.0
 10
158.911679771723
 20
154.9877134254046
 30
0.0
 10
159.8859534176746
 20
154.4390816074493
 30
0.0
 10
160.3965169054045
 20
152.7816450760939
 30
0.0
 10
160.9070803931344
 20
151.1219692311958
 30
0.0
 10
160.6328506116007
 20
150.2303779314354
 30
0.0
 10
159.9992971339115
 20
147.597634224801
 30
0.0
 10
159.7105979417943
 20
146.4014962832367
 30
0.0
 10
159.2947746424084
 20
144.9400858143094
 30
0.0
 10
158.7463150793409
 20
143.2092687007094
 30
0.0
 10
158.7463150793409
 20
143.2092687007094
 30
0.0
 10
153.9038856707499
 20
127.8027915271048
 30
0.0
 10
153.9038856707499
 20
127.8027915271048
 30
0.0
 10
153.9038856707499
 20
127.8027915271048
 30
0.0
 10
151.3882752878863
 20
127.8027915271048
 30
0.0
 10
151.3882752878863
 20
127.8027915271048
 30
0.0
 10
151.3882752878863
 20
127.8027915271048
 30
0.0
 10
155.6250565106276
 20
141.2751908193897
 30
0.0
 10
155.6250565106276
 20
141.2751908193897
 30
0.0
 10
156.5094131050963
 20
144.0936252951782
 30
0.0
 10
157.109893644309
 20
146.1506931664571
 30
0.0
 10
157.4220195011804
 20
147.4415712963654
 30
0.0
 10
157.8095929989511
 20
149.0530157726519
 30
0.0
 10
157.9656559273867
 20
149.5826995529385
 30
0.0
 10
157.7816877071116
 20
150.7529992613181
 30
0.0
 10
157.6111553680925
 20
151.8430281919372
 30
0.0
 10
157.0582171779396
 20
152.5547853887321
 30
0.0
 10
156.1170164704645
 20
152.5547853887321
 30
0.0
 10
155.1096698860365
 20
152.5547853887321
 30
0.0
 10
154.2962823053817
 20
152.4412694176073
 30
0.0
 10
153.156643967048
 20
151.2945686288697
 30
0.0
 10
152.0170056287143
 20
150.1476955852443
 30
0.0
 10
151.076149431015
 20
148.7930831468137
 30
0.0
 10
150.3337308641742
 20
147.2290087646991
 30
0.0
 10
149.5957909244188
 20
145.6683794803425
 30
0.0
 10
148.8530278478023
 20
143.6822806228776
 30
0.0
 10
148.0964843801539
 20
141.2751908193897
 30
0.0
 10
148.0964843801539
 20
141.2751908193897
 30
0.0
 10
143.8552245303272
 20
127.8027915271048
 30
0.0
 10
143.8552245303272
 20
127.8027915271048
 30
0.0
 10
143.8552245303272
 20
127.8027915271048
 30
0.0
 10
141.486030802177
 20
127.8027915271048
 30
0.0
 10
141.486030802177
 20
127.8027915271048
 30
0.0
 10
141.486030802177
 20
127.8027915271048
 30
0.0
 10
146.3329388378533
 20
143.2092687007094
 30
0.0
 10
146.3329388378533
 20
143.2092687007094
 30
0.0
 10
146.8483254624444
 20
144.8408669988801
 30
0.0
 10
147.2314203331297
 20
146.1837661049335
 30
0.0
 10
147.4867020769946
 20
147.224185627838
 30
0.0
 10
147.9169947869641
 20
149.0197705792876
 30
0.0
 10
148.0306830129768
 20
150.2400242051577
 30
0.0
 10
147.709255392159
 20
151.3157559800812
 30
0.0
 10
147.3874832615654
 20
152.3916600098926
 30
0.0
 10
146.8245542879144
 20
152.6683013598569
 30
0.0
 10
145.8840425999909
 20
152.6683013598569
 30
0.0
 10
145.0989048209514
 20
152.6683013598569
 30
0.0
 10
144.3282364524954
 20
152.3275811915945
 30
0.0
 10
143.4531816219731
 20
151.6538923250251
 30
0.0
 10
142.34627171234
 20
150.8074318058939
 30
0.0
 10
141.901854101563
 20
150.1097995099067
 30
0.0
 10
141.3578731655808
 20
149.289521733736
 30
0.0
 10
140.6299240093235
 20
148.192602607601
 30
0.0
 10
140.2850697237515
 20
147.455696197173
 30
0.0
 10
139.6652966370942
 20
145.8385673095858
 30
0.0
 10
139.0506911970739
 20
144.2214384219986
 30
0.0
 10
138.463991048893
 20
142.3252566160164
 30
0.0
 10
138.0571250036777
 20
141.0154304484394
 30
0.0
 10
138.0571250036777
 20
141.0154304484394
 30
0.0
 10
133.9009590684727
 20
127.8027915271048
 30
0.0
 10
133.9009590684727
 20
127.8027915271048
 30
0.0
 10
133.9009590684727
 20
127.8027915271048
 30
0.0
 10
131.4180771143097
 20
127.8027915271048
 30
0.0
 10
131.4180771143097
 20
127.8027915271048
 30
0.0
 10
131.4180771143097
 20
127.8027915271048
 30
0.0
 10
139.8926730891197
 20
154.8294111834263
 30
0.0
 10
139.8926730891197
 20
154.8294111834263
 30
0.0
  0
HATCH
  5
6A9
330
6A2
100
AcDbEntity
  8
LOGO
 62
   250
420
  2234388
100
AcDbHatch
 10
0.0
 20
0.0
 30
0.0
210
0.0
220
0.0
230
1.0
  2
SOLID
 70
     1
 71
     0
 91
        1
 92
        1
 93
        1
 72
     4
 94
        3
 73
     0
 74
     1
 95
      104
 96
      100
 40
0.0
 40
0.0
 40
0.0
 40
0.0
 40
1.0
 40
1.0
 40
1.0
 40
2.0
 40
2.0
 40
2.0
 40
3.0
 40
3.0
 40
3.0
 40
4.0
 40
4.0
 40
4.0
 40
5.0
 40
5.0
 40
5.0
 40
6.0
 40
6.0
 40
6.0
 40
7.0
 40
7.0
 40
7.0
 40
8.0
 40
8.0
 40
8.0
 40
9.0
 40
9.0
 40
9.0
 40
10.0
 40
10.0
 40
10.0
 40
11.0
 40
11.0
 40
11.0
 40
12.0
 40
12.0
 40
12.0
 40
13.0
 40
13.0
 40
13.0
 40
14.0
 40
14.0
 40
14.0
 40
15.0
 40
15.0
 40
15.0
 40
16.0
 40
16.0
 40
16.0
 40
17.0
 40
17.0
 40
17.0
 40
18.0
 40
18.0
 40
18.0
 40
19.0
 40
19.0
 40
19.0
 40
20.0
 40
20.0
 40
20.0
 40
21.0
 40
21.0
 40
21.0
 40
22.0
 40
22.0
 40
22.0
 40
23.0
 40
23.0
 40
23.0
 40
24.0
 40
24.0
 40
24.0
 40
25.0
 40
25.0
 40
25.0
 40
26.0
 40
26.0
 40
26.0
 40
27.0
 40
27.0
 40
27.0
 40
28.0
 40
28.0
 40
28.0
 40
29.0
 40
29.0
 40
29.0
 40
30.0
 40
30.0
 40
30.0
 40
31.0
 40
31.0
 40
31.0
 40
32.0
 40
32.0
 40
32.0
 40
33.0
 40
33.0
 40
33.0
 40
33.0
 10
139.8926730891197
 20
154.8294111834263
 10
139.8926730891197
 20
154.8294111834263
 10
142.0344903652445
 20
154.8294111834263
 10
142.0344903652445
 20
154.8294111834263
 10
142.0344903652445
 20
154.8294111834263
 10
140.9516961399171
 20
151.3157559800812
 10
140.9516961399171
 20
151.3157559800812
 10
141.8928968473923
 20
152.7887075264977
 10
142.7341897198865
 20
153.4484437471474
 10
143.8552245303272
 20
154.2926649527359
 10
144.9803934580775
 20
155.1296514530327
 10
146.3139908001845
 20
155.3044901642492
 10
147.241066606852
 20
155.3044901642492
 10
148.3855280820469
 20
155.3044901642492
 10
149.4969166187653
 20
155.0752189084569
 10
150.0784491203092
 20
153.8172414621372
 10
150.5228667310863
 20
152.833838307127
 10
150.5414702589793
 20
152.7201500811143
 10
150.4140016419347
 20
150.7765981809602
 10
151.5818897818837
 20
152.7699317437168
 10
152.4424752018226
 20
153.6256940267945
 10
153.9038856707499
 20
154.4507949398263
 10
155.4455669174378
 20
155.3044901642492
 10
156.339225275853
 20
155.3659851592288
 10
157.3748216618963
 20
155.2147453676543
 10
158.911679771723
 20
154.9877134254046
 10
159.8859534176746
 20
154.4390816074493
 10
160.3965169054045
 20
152.7816450760939
 10
160.9070803931344
 20
151.1219692311958
 10
160.6328506116007
 20
150.2303779314354
 10
159.9992971339115
 20
147.597634224801
 10
159.7105979417943
 20
146.4014962832367
 10
159.2947746424084
 20
144.9400858143094
 10
158.7463150793409
 20
143.2092687007094
 10
158.7463150793409
 20
143.2092687007094
 10
153.9038856707499
 20
127.8027915271048
 10
153.9038856707499
 20
127.8027915271048
 10
153.9038856707499
 20
127.8027915271048
 10
151.3882752878863
 20
127.8027915271048
 10
151.3882752878863
 20
127.8027915271048
 10
151.3882752878863
 20
127.8027915271048
 10
155.6250565106276
 20
141.2751908193897
 10
155.6250565106276
 20
141.2751908193897
 10
156.5094131050963
 20
144.0936252951782
 10
157.109893644309
 20
146.1506931664571
 10
157.4220195011804
 20
147.4415712963654
 10
157.8095929989511
 20
149.0530157726519
 10
157.9656559273867
 20
149.5826995529385
 10
157.7816877071116
 20
150.7529992613181
 10
157.6111553680925
 20
151.8430281919372
 10
157.0582171779396
 20
152.5547853887321
 10
156.1170164704645
 20
152.5547853887321
 10
155.1096698860365
 20
152.5547853887321
 10
154.2962823053817
 20
152.4412694176073
 10
153.156643967048
 20
151.2945686288697
 10
152.0170056287143
 20
150.1476955852443
 10
151.076149431015
 20
148.7930831468137
 10
150.3337308641742
 20
147.2290087646991
 10
149.5957909244188
 20
145.6683794803425
 10
148.8530278478023
 20
143.6822806228776
 10
148.0964843801539
 20
141.2751908193897
 10
148.0964843801539
 20
141.2751908193897
 10
143.8552245303272
 20
127.8027915271048
 10
143.8552245303272
 20
127.8027915271048
 10
143.8552245303272
 20
127.8027915271048
 10
141.486030802177
 20
127.8027915271048
 10
141.486030802177
 20
127.8027915271048
 10
141.486030802177
 20
127.8027915271048
 10
146.3329388378533
 20
143.2092687007094
 10
146.3329388378533
 20
143.2092687007094
 10
146.8483254624444
 20
144.8408669988801
 10
147.2314203331297
 20
146.1837661049335
 10
147.4867020769946
 20
147.224185627838
 10
147.9169947869641
 20
149.0197705792876
 10
148.0306830129768
 20
150.2400242051577
 10
147.709255392159
 20
151.3157559800812
 10
147.3874832615654
 20
152.3916600098926
 10
146.8245542879144
 20
152.6683013598569
 10
145.8840425999909
 20
152.6683013598569
 10
145.0989048209514
 20
152.6683013598569
 10
144.3282364524954
 20
152.3275811915945
 10
143.4531816219731
 20
151.6538923250251
 10
142.34627171234
 20
150.8074318058939
 10
141.901854101563
 20
150.1097995099067
 10
141.3578731655808
 20
149.289521733736
 10
140.6299240093235
 20
148.192602607601
 10
140.2850697237515
 20
147.455696197173
 10
139.6652966370942
 20
145.8385673095858
 10
139.0506911970739
 20
144.2214384219986
 10
138.463991048893
 20
142.3252566160164
 10
138.0571250036777
 20
141.0154304484394
 10
138.0571250036777
 20
141.0154304484394
 10
133.9009590684727
 20
127.8027915271048
 10
133.9009590684727
 20
127.8027915271048
 10
133.9009590684727
 20
127.8027915271048
 10
131.4180771143097
 20
127.8027915271048
 10
131.4180771143097
 20
127.8027915271048
 10
131.4180771143097
 20
127.8027915271048
 10
139.8926730891197
 20
154.8294111834263
 10
139.8926730891197
 20
154.8294111834263
 97
        0
 75
     2
 76
     1
 98
        0
  0
SPLINE
  5
6AA
330
6A2
100
AcDbEntity
  8
LOGO
370
     0
100
AcDbSpline
210
0.0
220
0.0
230
1.0
 70
    11
 71
     3
 72
    29
 73
    25
 74
     0
 42
0.000000001
 43
0.0000000001
 40
0.0
 40
0.0
 40
0.0
 40
0.0
 40
1.0
 40
1.0
 40
1.0
 40
2.0
 40
2.0
 40
2.0
 40
3.0
 40
3.0
 40
3.0
 40
4.0
 40
4.0
 40
4.0
 40
5.0
 40
5.0
 40
5.0
 40
6.0
 40
6.0
 40
6.0
 40
7.0
 40
7.0
 40
7.0
 40
8.0
 40
8.0
 40
8.0
 40
8.0
 10
101.6420971922469
 20
132.8388354296931
 30
0.0
 10
101.630039350094
 20
134.7164137077823
 30
0.0
 10
102.2236296937908
 20
138.0598810818841
 30
0.0
 10
103.7487744712405
 20
142.5378191476827
 30
0.0
 10
105.819967243327
 20
148.5896501242061
 30
0.0
 10
107.0602024361932
 20
150.8074318058939
 30
0.0
 10
108.1522984254671
 20
151.8833358357054
 30
0.0
 10
109.741177511439
 20
153.4532668840085
 30
0.0
 10
111.8740375333931
 20
153.5290590346837
 30
0.0
 10
112.5075910110823
 20
153.4532668840085
 30
0.0
 10
113.4012493694975
 20
153.3490526768302
 30
0.0
 10
114.6683563248758
 20
152.7580461564518
 30
0.0
 10
114.7493161221879
 20
150.7838328862519
 30
0.0
 10
114.8106388622796
 20
149.0909118479895
 30
0.0
 10
114.3186789024427
 20
145.9191825971221
 30
0.0
 10
112.6164561002338
 20
140.9489400617108
 30
0.0
 10
110.6444821435766
 20
135.1746117095912
 30
0.0
 10
109.4669477299053
 20
132.8960240524753
 30
0.0
 10
108.5212683953448
 20
131.9072809959403
 30
0.0
 10
106.7346406980658
 20
130.0538184021569
 30
0.0
 10
104.8222669326213
 20
130.2336525051225
 30
0.0
 10
104.5408024457958
 20
130.2336525051225
 30
0.0
 10
104.1721769856939
 20
130.2336525051225
 30
0.0
 10
101.6465758193322
 20
130.6305277668397
 30
0.0
 10
101.6420971922469
 20
132.8388354296931
 30
0.0
  0
SPLINE
  5
6AB
330
6A2
100
AcDbEntity
  8
LOGO
370
     0
100
AcDbSpline
210
0.0
220
0.0
230
1.0
 70
    11
 71
     3
 72
    32
 73
    28
 74
     0
 42
0.000000001
 43
0.0000000001
 40
0.0
 40
0.0
 40
0.0
 40
0.0
 40
1.0
 40
1.0
 40
1.0
 40
2.0
 40
2.0
 40
2.0
 40
3.0
 40
3.0
 40
3.0
 40
4.0
 40
4.0
 40
4.0
 40
5.0
 40
5.0
 40
5.0
 40
6.0
 40
6.0
 40
6.0
 40
7.0
 40
7.0
 40
7.0
 40
8.0
 40
8.0
 40
8.0
 40
9.0
 40
9.0
 40
9.0
 40
9.0
 10
106.2595617172429
 20
153.4105476718098
 30
0.0
 10
104.8222669326213
 20
151.5474388043041
 30
0.0
 10
103.7177685914188
 20
149.8758773721411
 30
0.0
 10
101.9232171692965
 20
144.6141795664062
 30
0.0
 10
100.2754269116635
 20
139.7999999594306
 30
0.0
 10
99.22777268346732
 20
136.3052927937542
 30
0.0
 10
99.06964269637689
 20
132.039572749846
 30
0.0
 10
98.94665270641765
 20
128.8673267343149
 30
0.0
 10
100.8807305877373
 20
127.8027915271048
 30
0.0
 10
103.7129454545577
 20
127.8027915271048
 30
0.0
 10
104.9352661390825
 20
127.8027915271048
 30
0.0
 10
108.0151835347002
 20
127.8827177950895
 30
0.0
 10
110.2045431598849
 20
130.5926316915021
 30
0.0
 10
111.7417457794874
 20
132.4984597712065
 30
0.0
 10
113.155269389579
 20
134.475256864725
 30
0.0
 10
115.0562743324223
 20
140.9489400617108
 30
0.0
 10
116.6361961642235
 20
146.3680788349845
 30
0.0
 10
117.7282921534974
 20
149.8639917848761
 30
0.0
 10
117.6480213757369
 20
151.8595646611754
 30
0.0
 10
117.6480213757369
 20
151.8595646611754
 30
0.0
 10
117.6480213757369
 20
151.8595646611754
 30
0.0
 10
117.6480213757369
 20
151.8595646611754
 30
0.0
 10
117.13229024137
 20
155.18150017429
 30
0.0
 10
114.7162431837115
 20
155.886194920681
 30
0.0
 10
113.3351034925446
 20
155.886194920681
 30
0.0
 10
111.9829026225447
 20
155.886194920681
 30
0.0
 10
108.3414342923792
 20
156.1251124501957
 30
0.0
 10
106.2595617172429
 20
153.4105476718098
 30
0.0
  0
HATCH
  5
6AC
330
6A2
100
AcDbEntity
  8
LOGO
 62
   250
420
  2234388
100
AcDbHatch
 10
0.0
 20
0.0
 30
0.0
210
0.0
220
0.0
230
1.0
  2
SOLID
 70
     1
 71
     0
 91
        2
 92
        1
 93
        1
 72
     4
 94
        3
 73
     0
 74
     1
 95
       29
 96
       25
 40
0.0
 40
0.0
 40
0.0
 40
0.0
 40
1.0
 40
1.0
 40
1.0
 40
2.0
 40
2.0
 40
2.0
 40
3.0
 40
3.0
 40
3.0
 40
4.0
 40
4.0
 40
4.0
 40
5.0
 40
5.0
 40
5.0
 40
6.0
 40
6.0
 40
6.0
 40
7.0
 40
7.0
 40
7.0
 40
8.0
 40
8.0
 40
8.0
 40
8.0
 10
101.6420971922469
 20
132.8388354296931
 10
101.630039350094
 20
134.7164137077823
 10
102.2236296937908
 20
138.0598810818841
 10
103.7487744712405
 20
142.5378191476827
 10
105.819967243327
 20
148.5896501242061
 10
107.0602024361932
 20
150.8074318058939
 10
108.1522984254671
 20
151.8833358357054
 10
109.741177511439
 20
153.4532668840085
 10
111.8740375333931
 20
153.5290590346837
 10
112.5075910110823
 20
153.4532668840085
 10
113.4012493694975
 20
153.3490526768302
 10
114.6683563248758
 20
152.7580461564518
 10
114.7493161221879
 20
150.7838328862519
 10
114.8106388622796
 20
149.0909118479895
 10
114.3186789024427
 20
145.9191825971221
 10
112.6164561002338
 20
140.9489400617108
 10
110.6444821435766
 20
135.1746117095912
 10
109.4669477299053
 20
132.8960240524753
 10
108.5212683953448
 20
131.9072809959403
 10
106.7346406980658
 20
130.0538184021569
 10
104.8222669326213
 20
130.2336525051225
 10
104.5408024457958
 20
130.2336525051225
 10
104.1721769856939
 20
130.2336525051225
 10
101.6465758193322
 20
130.6305277668397
 10
101.6420971922469
 20
132.8388354296931
 97
        0
 92
        1
 93
        1
 72
     4
 94
        3
 73
     0
 74
     1
 95
       32
 96
       28
 40
0.0
 40
0.0
 40
0.0
 40
0.0
 40
1.0
 40
1.0
 40
1.0
 40
2.0
 40
2.0
 40
2.0
 40
3.0
 40
3.0
 40
3.0
 40
4.0
 40
4.0
 40
4.0
 40
5.0
 40
5.0
 40
5.0
 40
6.0
 40
6.0
 40
6.0
 40
7.0
 40
7.0
 40
7.0
 40
8.0
 40
8.0
 40
8.0
 40
9.0
 40
9.0
 40
9.0
 40
9.0
 10
106.2595617172429
 20
153.4105476718098
 10
104.8222669326213
 20
151.5474388043041
 10
103.7177685914188
 20
149.8758773721411
 10
101.9232171692965
 20
144.6141795664062
 10
100.2754269116635
 20
139.7999999594306
 10
99.22777268346732
 20
136.3052927937542
 10
99.06964269637689
 20
132.039572749846
 10
98.94665270641765
 20
128.8673267343149
 10
100.8807305877373
 20
127.8027915271048
 10
103.7129454545577
 20
127.8027915271048
 10
104.9352661390825
 20
127.8027915271048
 10
108.0151835347002
 20
127.8827177950895
 10
110.2045431598849
 20
130.5926316915021
 10
111.7417457794874
 20
132.4984597712065
 10
113.155269389579
 20
134.475256864725
 10
115.0562743324223
 20
140.9489400617108
 10
116.6361961642235
 20
146.3680788349845
 10
117.7282921534974
 20
149.8639917848761
 10
117.6480213757369
 20
151.8595646611754
 10
117.6480213757369
 20
151.8595646611754
 10
117.6480213757369
 20
151.8595646611754
 10
117.6480213757369
 20
151.8595646611754
 10
117.13229024137
 20
155.18150017429
 10
114.7162431837115
 20
155.886194920681
 10
113.3351034925446
 20
155.886194920681
 10
111.9829026225447
 20
155.886194920681
 10
108.3414342923792
 20
156.1251124501957
 10
106.2595617172429
 20
153.4105476718098
 97
        0
 75
     2
 76
     1
 98
        0
  0
ENDBLK
  5
6AD
330
6A2
100
AcDbEntity
  8
0
100
AcDbBlockEnd
  0
BLOCK
  5
1D64
330
1D63
100
AcDbEntity
  8
0
100
AcDbBlockBegin
  2
*D6
 70
     1
 10
0.0
 20
0.0
 30
0.0
  3
*D6
  1

  0
LINE
  5
1D66
330
1D63
100
AcDbEntity
  8
DIM
 62
     0
370
    -2
100
AcDbLine
 10
848.3980369950991
 20
1308.295984503953
 30
0.0
 11
882.8401361794363
 21
1308.295984503953
 31
0.0
  0
LINE
  5
1D67
330
1D63
100
AcDbEntity
  8
DIM
 62
     0
370
    -2
100
AcDbLine
 10
839.2980367082391
 20
1231.295984503955
 30
0.0
 11
882.8401361794363
 21
1231.295984503955
 31
0.0
  0
LINE
  5
1D68
330
1D63
100
AcDbEntity
  8
DIM
 62
     0
370
    -2
100
AcDbLine
 10
882.8401361794363
 20
1305.295984503953
 30
0.0
 11
882.8401361794363
 21
1234.295984503955
 31
0.0
  0
INSERT
  5
1D69
330
1D63
100
AcDbEntity
  8
DIM
 62
     0
370
    -2
100
AcDbBlockReference
  2
_DOT
 10
882.8401361794363
 20
1308.295984503953
 30
0.0
 41
3.0
 42
3.0
 43
3.0
 50
90.0
  0
INSERT
  5
1D6A
330
1D63
100
AcDbEntity
  8
DIM
 62
     0
370
    -2
100
AcDbBlockReference
  2
_DOT
 10
882.8401361794363
 20
1231.295984503955
 30
0.0
 41
3.0
 42
3.0
 43
3.0
 50
270.0
  0
MTEXT
  5
1D6B
330
1D63
100
AcDbEntity
  8
DIM
 62
     0
100
AcDbMText
 10
860.8401361794363
 20
1269.795984503954
 30
0.0
 40
12.0
 41
0.0
 46
0.0
 71
     2
 72
     1
  1
\A1;77
  7
ＭＳ ゴシック
 11
0.0
 21
1.0
 31
0.0
 73
     1
 44
1.0
  0
POINT
  5
1D6C
330
1D63
100
AcDbEntity
  8
Defpoints
 62
     0
100
AcDbPoint
 10
838.3980369950991
 20
1308.295984503953
 30
0.0
  0
POINT
  5
1D6D
330
1D63
100
AcDbEntity
  8
Defpoints
 62
     0
100
AcDbPoint
 10
829.2980367082391
 20
1231.295984503955
 30
0.0
  0
POINT
  5
1D6E
330
1D63
100
AcDbEntity
  8
Defpoints
 62
     0
100
AcDbPoint
 10
882.8401361794363
 20
1231.295984503955
 30
0.0
  0
ENDBLK
  5
1D65
330
1D63
100
AcDbEntity
  8
0
100
AcDbBlockEnd
  0
BLOCK
  5
1D70
330
1D6F
100
AcDbEntity
  8
0
100
AcDbBlockBegin
  2
*D7
 70
     1
 10
0.0
 20
0.0
 30
0.0
  3
*D7
  1

  0
LINE
  5
1D72
330
1D6F
100
AcDbEntity
  8
DIM
 62
     0
370
    -2
100
AcDbLine
 10
717.498036995099
 20
298.810702581868
 30
0.0
 11
668.2980173729187
 21
298.8107057182044
 31
0.0
  0
LINE
  5
1D73
330
1D6F
100
AcDbEntity
  8
DIM
 62
     0
370
    -2
100
AcDbLine
 10
717.4980566991899
 20
917.0107090712772
 30
0.0
 11
668.2980567810978
 21
917.0107122076124
 31
0.0
  0
LINE
  5
1D74
330
1D6F
100
AcDbEntity
  8
DIM
 62
     0
370
    -2
100
AcDbLine
 10
668.2980175641586
 20
301.8107057182044
 30
0.0
 11
668.2980565898579
 21
914.0107122076124
 31
0.0
  0
INSERT
  5
1D75
330
1D6F
100
AcDbEntity
  8
DIM
 62
     0
370
    -2
100
AcDbBlockReference
  2
_DOT
 10
668.2980173729187
 20
298.8107057182044
 30
0.0
 41
3.0
 42
3.0
 43
3.0
 50
269.9999963475859
  0
INSERT
  5
1D76
330
1D6F
100
AcDbEntity
  8
DIM
 62
     0
370
    -2
100
AcDbBlockReference
  2
_DOT
 10
668.2980567810978
 20
917.0107122076124
 30
0.0
 41
3.0
 42
3.0
 43
3.0
 50
89.99999634758603
  0
MTEXT
  5
1D77
330
1D6F
100
AcDbEntity
  8
DIM
 62
     0
100
AcDbMText
 10
646.2980370770083
 20
607.9107103653351
 30
0.0
 40
12.0
 41
0.0
 46
0.0
 71
     2
 72
     1
  1
\A1;618
  7
ＭＳ ゴシック
 11
6.374664940739080E-8
 21
0.999999999999998
 31
0.0
 73
     1
 44
1.0
  0
POINT
  5
1D78
330
1D6F
100
AcDbEntity
  8
Defpoints
 62
     0
100
AcDbPoint
 10
727.498036995099
 20
298.8107019444015
 30
0.0
  0
POINT
  5
1D79
330
1D6F
100
AcDbEntity
  8
Defpoints
 62
     0
100
AcDbPoint
 10
727.4980566991899
 20
917.0107084338107
 30
0.0
  0
POINT
  5
1D7A
330
1D6F
100
AcDbEntity
  8
Defpoints
 62
     0
100
AcDbPoint
 10
668.2980567810978
 20
917.0107122076123
 30
0.0
  0
ENDBLK
  5
1D71
330
1D6F
100
AcDbEntity
  8
0
100
AcDbBlockEnd
  0
BLOCK
  5
1D7C
330
1D7B
100
AcDbEntity
  8
0
100
AcDbBlockBegin
  2
*D8
 70
     1
 10
0.0
 20
0.0
 30
0.0
  3
*D8
  1

  0
LINE
  5
1D7E
330
1D7B
100
AcDbEntity
  8
DIM
 62
     0
370
    -2
100
AcDbLine
 10
838.298036676366
 20
297.9107016575418
 30
0.0
 11
838.2980354074042
 21
258.0980439120999
 31
0.0
  0
LINE
  5
1D7F
330
1D7B
100
AcDbEntity
  8
DIM
 62
     0
370
    -2
100
AcDbLine
 10
718.4980366763658
 20
297.9107022312665
 30
0.0
 11
718.4980354074041
 21
258.0980477305243
 31
0.0
  0
LINE
  5
1D80
330
1D7B
100
AcDbEntity
  8
DIM
 62
     0
370
    -2
100
AcDbLine
 10
835.2980354074042
 20
258.0980440077199
 30
0.0
 11
721.4980354074041
 21
258.0980476349043
 31
0.0
  0
INSERT
  5
1D81
330
1D7B
100
AcDbEntity
  8
DIM
 62
     0
370
    -2
100
AcDbBlockReference
  2
_DOT
 10
838.2980354074042
 20
258.0980439120999
 30
0.0
 41
3.0
 42
3.0
 43
3.0
 50
359.999998173793
  0
INSERT
  5
1D82
330
1D7B
100
AcDbEntity
  8
DIM
 62
     0
370
    -2
100
AcDbBlockReference
  2
_DOT
 10
718.4980354074041
 20
258.0980477305243
 30
0.0
 41
3.0
 42
3.0
 43
3.0
 50
179.999998173793
  0
MTEXT
  5
1D83
330
1D7B
100
AcDbEntity
  8
DIM
 62
     0
100
AcDbMText
 10
777.9378942375797
 20
280.0980458359783
 30
0.0
 40
12.0
 41
0.0
 46
0.0
 71
     2
 72
     1
  1
\A1;120
  7
ＭＳ ゴシック
 11
0.9999999999999996
 21
-3.187332533316245E-8
 31
0.0
 73
     1
 44
1.0
  0
POINT
  5
1D84
330
1D7B
100
AcDbEntity
  8
Defpoints
 62
     0
100
AcDbPoint
 10
838.2980369950992
 20
307.9107016575418
 30
0.0
  0
POINT
  5
1D85
330
1D7B
100
AcDbEntity
  8
Defpoints
 62
     0
100
AcDbPoint
 10
718.498036995099
 20
307.9107022312665
 30
0.0
  0
POINT
  5
1D86
330
1D7B
100
AcDbEntity
  8
Defpoints
 62
     0
100
AcDbPoint
 10
718.4980354074041
 20
258.0980477305243
 30
0.0
  0
ENDBLK
  5
1D7D
330
1D7B
100
AcDbEntity
  8
0
100
AcDbBlockEnd
  0
BLOCK
  5
1D88
330
1D87
100
AcDbEntity
  8
0
100
AcDbBlockBegin
  2
*D9
 70
     1
 10
0.0
 20
0.0
 30
0.0
  3
*D9
  1

  0
LINE
  5
1D8A
330
1D87
100
AcDbEntity
  8
DIM
 62
     0
370
    -2
100
AcDbLine
 10
225.282407806542
 20
288.8107019444015
 30
0.0
 11
225.2824078065421
 21
255.92114168517
 31
0.0
  0
LINE
  5
1D8B
330
1D87
100
AcDbEntity
  8
DIM
 62
     0
370
    -2
100
AcDbLine
 10
487.2824078065365
 20
288.9107019444065
 30
0.0
 11
487.2824078065366
 21
255.921141685171
 31
0.0
  0
LINE
  5
1D8C
330
1D87
100
AcDbEntity
  8
DIM
 62
     0
370
    -2
100
AcDbLine
 10
228.2824078065421
 20
255.92114168517
 30
0.0
 11
484.2824078065366
 21
255.921141685171
 31
0.0
  0
INSERT
  5
1D8D
330
1D87
100
AcDbEntity
  8
DIM
 62
     0
370
    -2
100
AcDbBlockReference
  2
_DOT
 10
225.2824078065421
 20
255.92114168517
 30
0.0
 41
3.0
 42
3.0
 43
3.0
 50
180.0000000000002
  0
INSERT
  5
1D8E
330
1D87
100
AcDbEntity
  8
DIM
 62
     0
370
    -2
100
AcDbBlockReference
  2
_DOT
 10
487.2824078065366
 20
255.921141685171
 30
0.0
 41
3.0
 42
3.0
 43
3.0
 50
0.0000000000002113
  0
MTEXT
  5
1D8F
330
1D87
100
AcDbEntity
  8
DIM
 62
     0
100
AcDbMText
 10
356.282407806539
 20
277.9211416851705
 30
0.0
 40
12.0
 41
0.0
 46
0.0
 71
     2
 72
     1
  1
\A1;262
  7
ＭＳ ゴシック
 73
     1
 44
1.0
  0
POINT
  5
1D90
330
1D87
100
AcDbEntity
  8
Defpoints
 62
     0
100
AcDbPoint
 10
225.2824078065419
 20
298.8107019444015
 30
0.0
  0
POINT
  5
1D91
330
1D87
100
AcDbEntity
  8
Defpoints
 62
     0
100
AcDbPoint
 10
487.2824078065364
 20
298.9107019444065
 30
0.0
  0
POINT
  5
1D92
330
1D87
100
AcDbEntity
  8
Defpoints
 62
     0
100
AcDbPoint
 10
487.2824078065366
 20
255.921141685171
 30
0.0
  0
ENDBLK
  5
1D89
330
1D87
100
AcDbEntity
  8
0
100
AcDbBlockEnd
  0
BLOCK
  5
1D94
330
1D93
100
AcDbEntity
  8
0
100
AcDbBlockBegin
  2
*D10
 70
     1
 10
0.0
 20
0.0
 30
0.0
  3
*D10
  1

  0
LINE
  5
1D96
330
1D93
100
AcDbEntity
  8
DIM
 62
     0
370
    -2
100
AcDbLine
 10
208.7824078065419
 20
307.9107019444019
 30
0.0
 11
196.115596247806
 21
307.9107019444019
 31
0.0
  0
LINE
  5
1D97
330
1D93
100
AcDbEntity
  8
DIM
 62
     0
370
    -2
100
AcDbLine
 10
208.7824078065421
 20
907.9107019444019
 30
0.0
 11
196.115596247806
 21
907.9107019444019
 31
0.0
  0
LINE
  5
1D98
330
1D93
100
AcDbEntity
  8
DIM
 62
     0
370
    -2
100
AcDbLine
 10
196.115596247806
 20
310.9107019444019
 30
0.0
 11
196.115596247806
 21
904.9107019444019
 31
0.0
  0
INSERT
  5
1D99
330
1D93
100
AcDbEntity
  8
DIM
 62
     0
370
    -2
100
AcDbBlockReference
  2
_DOT
 10
196.115596247806
 20
307.9107019444019
 30
0.0
 41
3.0
 42
3.0
 43
3.0
 50
270.0
  0
INSERT
  5
1D9A
330
1D93
100
AcDbEntity
  8
DIM
 62
     0
370
    -2
100
AcDbBlockReference
  2
_DOT
 10
196.115596247806
 20
907.9107019444019
 30
0.0
 41
3.0
 42
3.0
 43
3.0
 50
90.0
  0
MTEXT
  5
1D9B
330
1D93
100
AcDbEntity
  8
DIM
 62
     0
100
AcDbMText
 10
174.115596247806
 20
607.9107019444019
 30
0.0
 40
12.0
 41
0.0
 46
0.0
 71
     2
 72
     1
  1
\A1;600
  7
ＭＳ ゴシック
 11
4.736951571734002E-17
 21
1.0
 31
0.0
 73
     1
 44
1.0
  0
POINT
  5
1D9C
330
1D93
100
AcDbEntity
  8
Defpoints
 62
     0
100
AcDbPoint
 10
218.7824078065419
 20
307.9107019444019
 30
0.0
  0
POINT
  5
1D9D
330
1D93
100
AcDbEntity
  8
Defpoints
 62
     0
100
AcDbPoint
 10
218.7824078065421
 20
907.9107019444019
 30
0.0
  0
POINT
  5
1D9E
330
1D93
100
AcDbEntity
  8
Defpoints
 62
     0
100
AcDbPoint
 10
196.115596247806
 20
907.9107019444019
 30
0.0
  0
ENDBLK
  5
1D95
330
1D93
100
AcDbEntity
  8
0
100
AcDbBlockEnd
  0
BLOCK
  5
1E1D
330
1E1C
100
AcDbEntity
  8
0
100
AcDbBlockBegin
  2
*D11
 70
     1
 10
0.0
 20
0.0
 30
0.0
  3
*D11
  1

  0
LINE
  5
1E1F
330
1E1C
100
AcDbEntity
  8
DIM
 62
     0
370
    -2
100
AcDbLine
 10
718.3980363720361
 20
1352.430068523592
 30
0.0
 11
718.3980363720361
 21
1376.19367486542
 31
0.0
  0
LINE
  5
1E20
330
1E1C
100
AcDbEntity
  8
DIM
 62
     0
370
    -2
100
AcDbLine
 10
727.4980376773779
 20
1358.430378316849
 30
0.0
 11
727.4980376773779
 21
1376.19367486542
 31
0.0
  0
LINE
  5
1E21
330
1E1C
100
AcDbEntity
  8
DIM
 62
     0
370
    -2
100
AcDbLine
 10
721.3980363720361
 20
1376.19367486542
 30
0.0
 11
724.4980376773779
 21
1376.19367486542
 31
0.0
  0
INSERT
  5
1E22
330
1E1C
100
AcDbEntity
  8
DIM
 62
     0
370
    -2
100
AcDbBlockReference
  2
_DOT
 10
718.3980363720361
 20
1376.19367486542
 30
0.0
 41
3.0
 42
3.0
 43
3.0
 50
180.0
  0
INSERT
  5
1E23
330
1E1C
100
AcDbEntity
  8
DIM
 62
     0
370
    -2
100
AcDbBlockReference
  2
_DOT
 10
727.4980376773779
 20
1376.19367486542
 30
0.0
 41
3.0
 42
3.0
 43
3.0
  0
MTEXT
  5
1E24
330
1E1C
100
AcDbEntity
  8
DIM
 62
     0
100
AcDbMText
 10
722.5989919793029
 20
1392.19367486542
 30
0.0
 40
12.0
 41
0.0
 46
0.0
 71
     5
 72
     1
  1
\A1;9
  7
ＭＳ ゴシック
 73
     1
 44
1.0
  0
POINT
  5
1E25
330
1E1C
100
AcDbEntity
  8
Defpoints
 62
     0
100
AcDbPoint
 10
718.3980363720361
 20
1342.430068523592
 30
0.0
  0
POINT
  5
1E26
330
1E1C
100
AcDbEntity
  8
Defpoints
 62
     0
100
AcDbPoint
 10
727.4980376773779
 20
1348.430378316849
 30
0.0
  0
POINT
  5
1E27
330
1E1C
100
AcDbEntity
  8
Defpoints
 62
     0
100
AcDbPoint
 10
727.4980376773779
 20
1376.19367486542
 30
0.0
  0
ENDBLK
  5
1E1E
330
1E1C
100
AcDbEntity
  8
0
100
AcDbBlockEnd
  0
BLOCK
  5
1E5D
330
1E5C
100
AcDbEntity
  8
0
100
AcDbBlockBegin
  2
*D12
 70
     1
 10
0.0
 20
0.0
 30
0.0
  3
*D12
  1

  0
LINE
  5
1E5E
330
1E5C
100
AcDbEntity
  8
DIM
 62
     0
370
    -2
100
AcDbLine
 10
19.5
 20
27.15236858591538
 30
0.0
 11
19.5
 21
1.5
 31
0.0
  0
LINE
  5
1E5F
330
1E5C
100
AcDbEntity
  8
DIM
 62
     0
370
    -2
100
AcDbLine
 10
1.5
 20
27.15236858591538
 30
0.0
 11
1.5
 21
1.5
 31
0.0
  0
LINE
  5
1E60
330
1E5C
100
AcDbEntity
  8
DIM
 62
     0
370
    -2
100
AcDbLine
 10
22.5
 20
1.5
 30
0.0
 11
25.5
 21
1.5
 31
0.0
  0
LINE
  5
1E61
330
1E5C
100
AcDbEntity
  8
DIM
 62
     0
370
    -2
100
AcDbLine
 10
-1.5
 20
1.5
 30
0.0
 11
-4.5
 21
1.5
 31
0.0
  0
INSERT
  5
1E62
330
1E5C
100
AcDbEntity
  8
DIM
 62
     0
370
    -2
100
AcDbBlockReference
  2
_DOT
 10
19.5
 20
1.5
 30
0.0
 41
3.0
 42
3.0
 43
3.0
 50
180.0
  0
INSERT
  5
1E63
330
1E5C
100
AcDbEntity
  8
DIM
 62
     0
370
    -2
100
AcDbBlockReference
  2
_DOT
 10
1.5
 20
1.5
 30
0.0
 41
3.0
 42
3.0
 43
3.0
  0
MTEXT
  5
1E64
330
1E5C
100
AcDbEntity
  8
DIM
 62
     0
100
AcDbMText
 10
10.5
 20
17.5
 30
0.0
 40
12.0
 41
0.0
 46
0.0
 71
     5
 72
     1
  1
\A1;18
  7
ＭＳ ゴシック
 73
     1
 44
1.0
  0
POINT
  5
1E65
330
1E5C
100
AcDbEntity
  8
Defpoints
 62
     0
100
AcDbPoint
 10
19.5
 20
37.15236858591538
 30
0.0
  0
POINT
  5
1E66
330
1E5C
100
AcDbEntity
  8
Defpoints
 62
     0
100
AcDbPoint
 10
1.5
 20
37.15236858591538
 30
0.0
  0
POINT
  5
1E6A
330
1E5C
100
AcDbEntity
  8
Defpoints
 62
     0
100
AcDbPoint
 10
1.5
 20
1.5
 30
0.0
  0
ENDBLK
  5
1E67
330
1E5C
100
AcDbEntity
  8
0
100
AcDbBlockEnd
  0
BLOCK
  5
1E70
330
1E6F
100
AcDbEntity
  8
0
100
AcDbBlockBegin
  2
*D13
 70
     1
 10
0.0
 20
0.0
 30
0.0
  3
*D13
  1

  0
LINE
  5
1E72
330
1E6F
100
AcDbEntity
  8
DIM
 62
     0
370
    -2
100
AcDbLine
 10
736.4980370389734
 20
1045.314537695272
 30
0.0
 11
736.4980370389734
 21
1008.291329685634
 31
0.0
  0
LINE
  5
1E73
330
1E6F
100
AcDbEntity
  8
DIM
 62
     0
370
    -2
100
AcDbLine
 10
718.4980370389734
 20
1045.314537695272
 30
0.0
 11
718.4980370389734
 21
1008.291329685634
 31
0.0
  0
LINE
  5
1E74
330
1E6F
100
AcDbEntity
  8
DIM
 62
     0
370
    -2
100
AcDbLine
 10
736.4980370389734
 20
1008.291329685634
 30
0.0
 11
670.1900370389734
 21
1008.291329685634
 31
0.0
  0
LINE
  5
1E75
330
1E6F
100
AcDbEntity
  8
DIM
 62
     0
370
    -2
100
AcDbLine
 10
733.4980370389734
 20
1008.291329685634
 30
0.0
 11
721.4980370389734
 21
1008.291329685634
 31
0.0
  0
LINE
  5
1E76
330
1E6F
100
AcDbEntity
  8
DIM
 62
     0
370
    -2
100
AcDbLine
 10
721.4980370389734
 20
1008.291329685634
 30
0.0
 11
724.4980370389734
 21
1008.291329685634
 31
0.0
  0
INSERT
  5
1E77
330
1E6F
100
AcDbEntity
  8
DIM
 62
     0
370
    -2
100
AcDbBlockReference
  2
_DOT
 10
736.4980370389734
 20
1008.291329685634
 30
0.0
 41
3.0
 42
3.0
 43
3.0
  0
INSERT
  5
1E78
330
1E6F
100
AcDbEntity
  8
DIM
 62
     0
370
    -2
100
AcDbBlockReference
  2
_DOT
 10
718.4980370389734
 20
1008.291329685634
 30
0.0
 41
3.0
 42
3.0
 43
3.0
 50
180.0
  0
MTEXT
  5
1E79
330
1E6F
100
AcDbEntity
  8
DIM
 62
     0
100
AcDbMText
 10
691.3440370389734
 20
1024.291329685634
 30
0.0
 40
12.0
 41
0.0
 46
0.0
 71
     5
 72
     1
  1
\A1;%%c18
  7
ＭＳ ゴシック
 73
     1
 44
1.0
  0
POINT
  5
1E7A
330
1E6F
100
AcDbEntity
  8
Defpoints
 62
     0
100
AcDbPoint
 10
736.4980370389734
 20
1055.314537695272
 30
0.0
  0
POINT
  5
1E7C
330
1E6F
100
AcDbEntity
  8
Defpoints
 62
     0
100
AcDbPoint
 10
718.4980370389734
 20
1055.314537695272
 30
0.0
  0
POINT
  5
1E7D
330
1E6F
100
AcDbEntity
  8
Defpoints
 62
     0
100
AcDbPoint
 10
718.4980370389734
 20
1008.291329685634
 30
0.0
  0
ENDBLK
  5
1E71
330
1E6F
100
AcDbEntity
  8
0
100
AcDbBlockEnd
  0
BLOCK
  5
1E8F
330
1E8E
100
AcDbEntity
  8
0
100
AcDbBlockBegin
  2
*D14
 70
     1
 10
0.0
 20
0.0
 30
0.0
  3
*D14
  1

  0
LINE
  5
1E91
330
1E8E
100
AcDbEntity
  8
DIM
 62
     0
370
    -2
100
AcDbLine
 10
718.3980363720361
 20
1318.29598401655
 30
0.0
 11
718.3980363720361
 21
1336.250477646963
 31
0.0
  0
LINE
  5
1E92
330
1E8E
100
AcDbEntity
  8
DIM
 62
     0
370
    -2
100
AcDbLine
 10
753.3980363720361
 20
1318.29598401655
 30
0.0
 11
753.3980363720361
 21
1336.250477646963
 31
0.0
  0
LINE
  5
1E93
330
1E8E
100
AcDbEntity
  8
DIM
 62
     0
370
    -2
100
AcDbLine
 10
721.3980363720361
 20
1336.250477646963
 30
0.0
 11
750.3980363720361
 21
1336.250477646963
 31
0.0
  0
INSERT
  5
1E94
330
1E8E
100
AcDbEntity
  8
DIM
 62
     0
370
    -2
100
AcDbBlockReference
  2
_DOT
 10
718.3980363720361
 20
1336.250477646963
 30
0.0
 41
3.0
 42
3.0
 43
3.0
 50
180.0
  0
INSERT
  5
1E95
330
1E8E
100
AcDbEntity
  8
DIM
 62
     0
370
    -2
100
AcDbBlockReference
  2
_DOT
 10
753.3980363720361
 20
1336.250477646963
 30
0.0
 41
3.0
 42
3.0
 43
3.0
  0
MTEXT
  5
1E96
330
1E8E
100
AcDbEntity
  8
DIM
 62
     0
100
AcDbMText
 10
735.8980363720361
 20
1352.250477646963
 30
0.0
 40
12.0
 41
0.0
 46
0.0
 71
     5
 72
     1
  1
\A1;35
  7
ＭＳ ゴシック
 73
     1
 44
1.0
  0
POINT
  5
1E97
330
1E8E
100
AcDbEntity
  8
Defpoints
 62
     0
100
AcDbPoint
 10
718.3980363720361
 20
1308.29598401655
 30
0.0
  0
POINT
  5
1E98
330
1E8E
100
AcDbEntity
  8
Defpoints
 62
     0
100
AcDbPoint
 10
753.3980363720361
 20
1308.29598401655
 30
0.0
  0
POINT
  5
1E99
330
1E8E
100
AcDbEntity
  8
Defpoints
 62
     0
100
AcDbPoint
 10
753.3980363720361
 20
1336.250477646963
 30
0.0
  0
ENDBLK
  5
1E90
330
1E8E
100
AcDbEntity
  8
0
100
AcDbBlockEnd
  0
BLOCK
  5
1E9C
330
1E9B
100
AcDbEntity
  8
0
100
AcDbBlockBegin
  2
*D15
 70
     1
 10
0.0
 20
0.0
 30
0.0
  3
*D15
  1

  0
LINE
  5
1E9E
330
1E9B
100
AcDbEntity
  8
DIM
 62
     0
370
    -2
100
AcDbLine
 10
718.3980363720361
 20
1318.29598401655
 30
0.0
 11
718.3980363720361
 21
1367.389675809532
 31
0.0
  0
LINE
  5
1E9F
330
1E9B
100
AcDbEntity
  8
DIM
 62
     0
370
    -2
100
AcDbLine
 10
781.3980363720361
 20
1318.29598401655
 30
0.0
 11
781.3980363720361
 21
1367.389675809532
 31
0.0
  0
LINE
  5
1EA0
330
1E9B
100
AcDbEntity
  8
DIM
 62
     0
370
    -2
100
AcDbLine
 10
721.3980363720361
 20
1367.389675809532
 30
0.0
 11
778.3980363720361
 21
1367.389675809532
 31
0.0
  0
INSERT
  5
1EA1
330
1E9B
100
AcDbEntity
  8
DIM
 62
     0
370
    -2
100
AcDbBlockReference
  2
_DOT
 10
718.3980363720361
 20
1367.389675809532
 30
0.0
 41
3.0
 42
3.0
 43
3.0
 50
180.0
  0
INSERT
  5
1EA2
330
1E9B
100
AcDbEntity
  8
DIM
 62
     0
370
    -2
100
AcDbBlockReference
  2
_DOT
 10
781.3980363720361
 20
1367.389675809532
 30
0.0
 41
3.0
 42
3.0
 43
3.0
  0
MTEXT
  5
1EA3
330
1E9B
100
AcDbEntity
  8
DIM
 62
     0
100
AcDbMText
 10
749.8980363720361
 20
1383.389675809532
 30
0.0
 40
12.0
 41
0.0
 46
0.0
 71
     5
 72
     1
  1
\A1;63
  7
ＭＳ ゴシック
 73
     1
 44
1.0
  0
POINT
  5
1EA4
330
1E9B
100
AcDbEntity
  8
Defpoints
 62
     0
100
AcDbPoint
 10
718.3980363720361
 20
1308.29598401655
 30
0.0
  0
POINT
  5
1EA5
330
1E9B
100
AcDbEntity
  8
Defpoints
 62
     0
100
AcDbPoint
 10
781.3980363720361
 20
1308.29598401655
 30
0.0
  0
POINT
  5
1EA6
330
1E9B
100
AcDbEntity
  8
Defpoints
 62
     0
100
AcDbPoint
 10
781.3980363720361
 20
1367.389675809532
 30
0.0
  0
ENDBLK
  5
1E9D
330
1E9B
100
AcDbEntity
  8
0
100
AcDbBlockEnd
  0
ENDSEC
  0
SECTION
  2
ENTITIES
  0
MTEXT
  5
177
330
A
100
AcDbEntity
  8
TEMPLATE
390
1D
100
AcDbMText
 10
39.60107227386538
 20
171.8658758157141
 30
0.0
 40
8.144205729166663
 41
0.0
 46
0.0
 71
     1
 72
     1
  1
品名
  7
ＭＳ ゴシック
 73
     1
 44
0.7828267384257843
  0
MTEXT
  5
178
330
A
100
AcDbEntity
  8
TEMPLATE
390
1D
100
AcDbMText
 10
39.60107227386538
 20
129.365875815714
 30
0.0
 40
8.144205729166663
 41
0.0
 46
0.0
 71
     1
 72
     1
  1
仕様
  7
ＭＳ ゴシック
 73
     1
 44
0.7828267384257843
  0
LINE
  5
179
330
A
100
AcDbEntity
  8
TEMPLATE
390
1D
100
AcDbLine
 10
1011.101072273624
 20
133.5733367532142
 30
0.0
 11
36.10107227362437
 21
133.5733367532142
 31
0.0
  0
LWPOLYLINE
  5
17A
330
A
100
AcDbEntity
  8
TEMPLATE
390
1D
100
AcDbPolyline
 90
        5
 70
   128
 43
0.0
 10
1011.101072273624
 20
1448.573336753213
 10
36.10107227362437
 20
1448.573336753213
 10
36.10107227362437
 20
48.57333675321413
 10
1011.101072273624
 20
48.57333675321413
 10
1011.101072273624
 20
1448.573336753213
  0
LINE
  5
17B
330
A
100
AcDbEntity
  8
TEMPLATE
390
1D
100
AcDbLine
 10
1011.101072273624
 20
176.0733367532141
 30
0.0
 11
36.10107227362437
 21
176.0733367532141
 31
0.0
  0
LINE
  5
17C
330
A
100
AcDbEntity
  8
TEMPLATE
390
1D
100
AcDbLine
 10
1011.101072273866
 20
91.07333675321412
 30
0.0
 11
634.601072273865
 21
91.07333675321412
 31
0.0
  0
MTEXT
  5
17E
330
A
100
AcDbEntity
  8
TEMPLATE
390
1D
100
AcDbMText
 10
649.5367753999956
 20
76.11813951656006
 30
0.0
 40
12.21630859375
 41
0.0
 46
0.0
 71
     1
 72
     1
  1
大洋金物株式会社 ティーフォルム事業部
  7
ＭＳ ゴシック
 73
     1
 44
0.7828267384257843
  0
MTEXT
  5
180
330
A
100
AcDbEntity
  8
TEMPLATE
390
1D
100
AcDbMText
 10
915.601072273995
 20
115.0746453469641
 30
0.0
 40
12.21630859375
 41
0.0
 46
12.21630859375
 71
     1
 72
     1
  1
{1:5}
  7
ＭＳ ゴシック
 73
     1
 44
0.7828267384257843
1001
ACAD
1000
ACAD_MTEXT_DEFINED_HEIGHT_BEGIN
1070
    46
1040
12.21630859375
1000
ACAD_MTEXT_DEFINED_HEIGHT_END
  0
MTEXT
  5
181
330
A
100
AcDbEntity
  8
TEMPLATE
390
1D
100
AcDbMText
 10
889.101072273995
 20
129.365875815714
 30
0.0
 40
8.144205729166663
 41
0.0
 46
0.0
 71
     1
 72
     1
  1
縮尺
  7
ＭＳ ゴシック
 73
     1
 44
0.7828267384257843
  0
LINE
  5
182
330
A
100
AcDbEntity
  8
TEMPLATE
390
1D
100
AcDbLine
 10
885.601072273995
 20
91.07333675321412
 30
0.0
 11
885.601072273995
 21
133.5733367532142
 31
0.0
  0
MTEXT
  5
183
330
A
100
AcDbEntity
  8
TEMPLATE
390
1D
100
AcDbMText
 10
763.601072273995
 20
129.365875815714
 30
0.0
 40
8.144205729166663
 41
0.0
 46
0.0
 71
     1
 72
     1
  1
容量
  7
ＭＳ ゴシック
 73
     1
 44
0.7828267384257843
  0
LINE
  5
184
330
A
100
AcDbEntity
  8
TEMPLATE
390
1D
100
AcDbLine
 10
760.101072273995
 20
91.07333675321412
 30
0.0
 11
760.101072273995
 21
133.5733367532142
 31
0.0
  0
MTEXT
  5
185
330
A
100
AcDbEntity
  8
TEMPLATE
390
1D
100
AcDbMText
 10
638.101072273995
 20
171.8658758157141
 30
0.0
 40
8.144205729166663
 41
0.0
 46
0.0
 71
     1
 72
     1
  1
品番
  7
ＭＳ ゴシック
 73
     1
 44
0.7828267384257843
  0
MTEXT
  5
186
330
A
100
AcDbEntity
  8
TEMPLATE
390
1D
100
AcDbMText
 10
638.101072273995
 20
129.365875815714
 30
0.0
 40
8.144205729166663
 41
0.0
 46
0.0
 71
     1
 72
     1
  1
重量
  7
ＭＳ ゴシック
 73
     1
 44
0.7828267384257843
  0
LINE
  5
188
330
A
100
AcDbEntity
  8
TEMPLATE
390
1D
100
AcDbLine
 10
634.601072273995
 20
48.57333675321413
 30
0.0
 11
634.601072273995
 21
176.0733367532141
 31
0.0
  0
INSERT
  5
6B5
330
A
100
AcDbEntity
  8
TEMPLATE
100
AcDbBlockReference
  2
名称未設定-1
 10
935.3753740442249
 20
12.97338287832691
 30
0.0
 41
0.3809999999999999
 42
0.3809999999999999
 43
0.3809999999999999
  0
INSERT
  5
68C
330
A
100
AcDbEntity
  8
TEMPLATE
100
AcDbBlockReference
  2
block 2
 10
919.2743017702577
 20
8.373076514336368
 30
0.0
 41
0.3809999999999999
 42
0.3809999999999999
 43
0.3809999999999999
  0
LWPOLYLINE
  5
D69
330
A
100
AcDbEntity
  8
BORDER
100
AcDbPolyline
 90
        4
 70
     1
 43
0.0
 10
0.0
 20
0.0
 10
0.0
 20
1485.0
 10
1050.0
 20
1485.0
 10
1050.0
 20
0.0
  0
INSERT
  5
1343
330
A
100
AcDbEntity
  8
TEMPLATE
100
AcDbBlockReference
  2
block 2
 10
2096.743470866468
 20
24.43532141229569
 30
0.0
 41
0.3809999999999999
 42
0.3809999999999999
 43
0.3809999999999999
  0
MTEXT
  5
16ED
330
A
100
AcDbEntity
  8
TEMPLATE
390
1D
100
AcDbMText
 10
664.601072273995
 20
157.5746453469641
 30
0.0
 40
12.21630859375
 41
0.0
 46
12.21630859375
 71
     1
 72
     1
  1
{FRF74-1901}
  7
ＭＳ ゴシック
 73
     1
 44
0.7828267384257843
1001
ACAD
1000
ACAD_MTEXT_DEFINED_HEIGHT_BEGIN
1070
    46
1040
12.21630859375
1000
ACAD_MTEXT_DEFINED_HEIGHT_END
  0
MTEXT
  5
16EE
330
A
100
AcDbEntity
  8
TEMPLATE
390
1D
100
AcDbMText
 10
66.10107227386538
 20
157.5746453469641
 30
0.0
 40
12.21630859375
 41
0.0
 46
12.5827978515625
 71
     1
 72
     1
  1
{シェルフ　-LANGBERGER-}
  7
ＭＳ ゴシック
 73
     1
 44
0.7828267384257843
1001
ACAD
1000
ACAD_MTEXT_DEFINED_HEIGHT_BEGIN
1070
    46
1040
12.5827978515625
1000
ACAD_MTEXT_DEFINED_HEIGHT_END
  0
MTEXT
  5
16EF
330
A
100
AcDbEntity
  8
TEMPLATE
390
1D
100
AcDbMText
 10
62.62717263801801
 20
113.4059880146976
 30
0.0
 40
12.21630859375
 41
0.0
 46
13.64561669921875
 71
     1
 72
     1
  1
{タッピングネジ、プラグ付属}
  7
ＭＳ ゴシック
 73
     1
 44
0.9331787841240657
1001
ACAD
1000
ACAD_MTEXT_DEFINED_HEIGHT_BEGIN
1070
    46
1040
13.64561669921875
1000
ACAD_MTEXT_DEFINED_HEIGHT_END
  0
MTEXT
  5
16F0
102
{ACAD_XDICTIONARY
360
16F1
102
}
330
A
100
AcDbEntity
  8
TEMPLATE
100
AcDbMText
 10
37.3643282742853
 20
41.93086052571419
 30
0.0
 40
11.0
 41
0.0
 46
22.0
 71
     1
 72
     1
  1
{20170824N}
  7
ＭＳ ゴシック
 73
     1
 44
1.0
1001
ACAD
1000
ACAD_MTEXT_DEFINED_HEIGHT_BEGIN
1070
    46
1040
22.0
1000
ACAD_MTEXT_DEFINED_HEIGHT_END
  0
LINE
  5
1C73
330
A
100
AcDbEntity
  8
MODEL
  6
Continuous
100
AcDbLine
 10
718.6021226757471
 20
1300.8418997841
 30
0.0
 11
718.3980363720361
 21
1301.045984225166
 31
0.0
  0
LINE
  5
1C74
330
A
100
AcDbEntity
  8
MODEL
  6
Continuous
100
AcDbLine
 10
718.3980363720361
 20
1305.545984031451
 30
0.0
 11
718.6021822803918
 21
1305.750129939807
 31
0.0
  0
LINE
  5
1C75
330
A
100
AcDbEntity
  8
MODEL
  6
Continuous
100
AcDbLine
 10
838.2980357223455
 20
1296.295983912242
 30
0.0
 11
838.2980357223455
 21
1240.295982183708
 31
0.0
  0
LINE
  5
1C76
330
A
100
AcDbEntity
  8
MODEL
  6
Continuous
100
AcDbLine
 10
820.2980364972059
 20
1240.295982183708
 30
0.0
 11
820.2980364972059
 21
1296.295983912242
 31
0.0
  0
LINE
  5
1C77
330
A
100
AcDbEntity
  8
MODEL
  6
Continuous
100
AcDbLine
 10
736.4980372899477
 20
1296.295983912242
 30
0.0
 11
736.4980372899477
 21
1055.295994700683
 31
0.0
  0
LINE
  5
1C78
330
A
100
AcDbEntity
  8
MODEL
  6
Continuous
100
AcDbLine
 10
718.498038064808
 20
1055.295994700683
 30
0.0
 11
718.498038064808
 21
1296.295983912242
 31
0.0
  0
LINE
  5
1C79
330
A
100
AcDbEntity
  8
MODEL
  6
Continuous
100
AcDbLine
 10
838.3980374151174
 20
1308.29598401655
 30
0.0
 11
838.3980374151174
 21
1296.295983912242
 31
0.0
  0
LINE
  5
1C7A
330
A
100
AcDbEntity
  8
MODEL
  6
Continuous
100
AcDbLine
 10
718.3980363720361
 20
1306.371126519334
 30
0.0
 11
718.3980363720361
 21
1308.29598401655
 31
0.0
  0
LINE
  5
1C7B
330
A
100
AcDbEntity
  8
MODEL
  6
Continuous
100
AcDbLine
 10
718.3980363720361
 20
1296.295983912242
 30
0.0
 11
718.3980363720361
 21
1300.220599593413
 31
0.0
  0
LINE
  5
1C7C
330
A
100
AcDbEntity
  8
MODEL
  6
Continuous
100
AcDbLine
 10
718.3980363720361
 20
1305.545984031451
 30
0.0
 11
718.3980363720361
 21
1301.045984225166
 31
0.0
  0
ARC
  5
1C7D
330
A
100
AcDbEntity
  8
MODEL
  6
Continuous
100
AcDbCircle
 10
829.2980369950992
 20
1240.295984503956
 30
0.0
 40
9.00000000000006
100
AcDbArc
 50
180.000001826208
 51
0.0000018262138159
  0
ARC
  5
1C7E
330
A
100
AcDbEntity
  8
MODEL
  6
Continuous
100
AcDbCircle
 10
727.498036995099
 20
1055.295984503954
 30
0.0
 40
9.00000000000006
100
AcDbArc
 50
180.0000018262138
 51
0.0000018262080259
  0
ARC
  5
1C7F
330
A
100
AcDbEntity
  8
MODEL
  6
Continuous
100
AcDbCircle
 10
829.2980369950992
 20
1240.295984503955
 30
0.0
 40
9.00000000000006
100
AcDbArc
 50
180.000001826208
 51
269.9999981737948
  0
ARC
  5
1C80
330
A
100
AcDbEntity
  8
MODEL
  6
Continuous
100
AcDbCircle
 10
829.2980369950992
 20
1240.295984503955
 30
0.0
 40
9.00000000000006
100
AcDbArc
 50
269.999998173792
 51
359.2370570881267
  0
ARC
  5
1C81
330
A
100
AcDbEntity
  8
MODEL
  6
Continuous
100
AcDbCircle
 10
829.2980561190948
 20
1240.295984503955
 30
0.0
 40
9.00000002183682
100
AcDbArc
 50
355.6214104760825
 51
0.118113368200744
  0
ARC
  5
1C82
330
A
100
AcDbEntity
  8
MODEL
  6
Continuous
100
AcDbCircle
 10
727.498036995099
 20
1055.29598450396
 30
0.0
 40
9.000000000000203
100
AcDbArc
 50
180.000001826208
 51
269.999998173792
  0
ARC
  5
1C83
330
A
100
AcDbEntity
  8
MODEL
  6
Continuous
100
AcDbCircle
 10
727.498036995099
 20
1055.29598450396
 30
0.0
 40
9.000000000000203
100
AcDbArc
 50
269.999998173792
 51
0.0000018262022359
  0
ARC
  5
1C84
330
A
100
AcDbEntity
  8
MODEL
  6
Continuous
100
AcDbCircle
 10
727.4980561190946
 20
1055.29598450396
 30
0.0
 40
9.000000043282792
100
AcDbArc
 50
278.7819398192176
 51
0.1181133673866092
  0
LINE
  5
1C85
330
A
100
AcDbEntity
  8
MODEL
  6
Continuous
100
AcDbLine
 10
838.3980374151174
 20
1308.29598401655
 30
0.0
 11
829.2980361097757
 21
1308.29598401655
 31
0.0
  0
LINE
  5
1C86
330
A
100
AcDbEntity
  8
MODEL
  6
Continuous
100
AcDbLine
 10
829.2980361097757
 20
1308.29598401655
 30
0.0
 11
829.2980361097757
 21
1296.295983912242
 31
0.0
  0
LINE
  5
1C87
330
A
100
AcDbEntity
  8
MODEL
  6
Continuous
100
AcDbLine
 10
829.2980361097757
 20
1296.295983912242
 30
0.0
 11
838.3980374151174
 21
1296.295983912242
 31
0.0
  0
LINE
  5
1C88
330
A
100
AcDbEntity
  8
MODEL
  6
Continuous
100
AcDbLine
 10
718.3980363720361
 20
1296.295983912242
 30
0.0
 11
727.4980376773779
 21
1296.295983912242
 31
0.0
  0
LINE
  5
1C89
330
A
100
AcDbEntity
  8
MODEL
  6
Continuous
100
AcDbLine
 10
727.4980376773779
 20
1296.295983912242
 30
0.0
 11
727.4980376773779
 21
1308.29598401655
 31
0.0
  0
LINE
  5
1C8A
330
A
100
AcDbEntity
  8
MODEL
  6
Continuous
100
AcDbLine
 10
727.4980376773779
 20
1308.29598401655
 30
0.0
 11
718.3980363720361
 21
1308.29598401655
 31
0.0
  0
SPLINE
  5
1C8B
330
A
100
AcDbEntity
  8
MODEL
  6
Continuous
100
AcDbSpline
210
0.0
220
0.0
230
1.0
 70
     8
 71
     3
 72
    18
 73
    14
 74
     0
 42
0.000000001
 43
0.00000001
 40
0.0
 40
0.0
 40
0.0
 40
0.0
 40
0.1275300550260537
 40
0.2536133545191631
 40
0.37728191491589
 40
0.4393093565692093
 40
0.4998000191426135
 40
0.5602901013827256
 40
0.622562963996455
 40
0.7465204921413283
 40
0.8725016136458901
 40
0.9998700917167707
 40
0.9999999999999999
 40
0.9999999999999999
 40
0.9999999999999999
 40
0.9999999999999999
 10
718.3980363720361
 20
1300.220599593413
 30
0.0
 10
718.4159740393566
 20
1300.268849294017
 30
0.0
 10
718.4516458814214
 20
1300.364801329968
 30
0.0
 10
718.6885197950282
 20
1301.061992772103
 30
0.0
 10
718.8809104626475
 20
1301.910580909737
 30
0.0
 10
718.9737628062394
 20
1302.686607593177
 30
0.0
 10
718.99836809923
 20
1303.293740387381
 30
0.0
 10
718.9737034464824
 20
1303.90229752937
 30
0.0
 10
718.8815106584102
 20
1304.677675394427
 30
0.0
 10
718.6829035852597
 20
1305.546041175705
 30
0.0
 10
718.4727925061206
 20
1306.169124054527
 30
0.0
 10
718.3700356428753
 20
1306.450499614904
 30
0.0
 10
718.3980934655583
 20
1306.371207310375
 30
0.0
 10
718.398122053713
 20
1306.371126519334
 30
0.0
  0
LINE
  5
1C8C
330
A
100
AcDbEntity
  8
MODEL
  6
Continuous
100
AcDbLine
 10
727.4980376773779
 20
1296.295983912242
 30
0.0
 11
829.2980361097757
 21
1296.295983912242
 31
0.0
  0
LINE
  5
1C8D
330
A
100
AcDbEntity
  8
MODEL
  6
Continuous
100
AcDbLine
 10
727.4980376773779
 20
1308.29598401655
 30
0.0
 11
829.2980361097757
 21
1308.29598401655
 31
0.0
  0
DIMENSION
  5
1C8E
330
A
100
AcDbEntity
  8
DIM
100
AcDbDimension
  2
*D6
 10
882.8401361794363
 20
1231.295984503955
 30
0.0
 11
882.8401361794363
 21
1269.795984503954
 31
0.0
 70
   160
 71
     2
 42
76.99999999999818
 73
     0
 74
     0
 75
     0
 52
-90.0
  3
tfrom線あり
100
AcDbAlignedDimension
 13
838.3980369950991
 23
1308.295984503953
 33
0.0
 14
829.2980367082391
 24
1231.295984503955
 34
0.0
 50
-90.0
100
AcDbRotatedDimension
  0
LINE
  5
1C8F
330
A
100
AcDbEntity
  8
MODEL
  6
Continuous
100
AcDbLine
 10
718.79000769195
 20
910.5526643323648
 30
0.0
 11
718.3980549984876
 21
910.1607041883218
 31
0.0
  0
LINE
  5
1C90
330
A
100
AcDbEntity
  8
MODEL
  6
Continuous
100
AcDbLine
 10
718.3980549984876
 20
905.6607323217141
 30
0.0
 11
718.4980566912595
 21
905.560715727781
 31
0.0
  0
LINE
  5
1C91
330
A
100
AcDbEntity
  8
MODEL
  6
Continuous
100
AcDbLine
 10
718.4980380648076
 20
310.2607025283324
 30
0.0
 11
718.3980363720357
 21
310.1607026982057
 31
0.0
  0
LINE
  5
1C92
330
A
100
AcDbEntity
  8
MODEL
  6
Continuous
100
AcDbLine
 10
718.3980363720357
 20
305.6607010292756
 30
0.0
 11
718.789989065498
 21
305.2687483358132
 31
0.0
  0
LINE
  5
1C93
330
A
100
AcDbEntity
  8
MODEL
  6
Continuous
100
AcDbLine
 10
838.2980357223455
 20
307.9107018637406
 30
0.0
 11
838.298054348797
 21
907.9106884526956
 31
0.0
  0
LINE
  5
1C94
330
A
100
AcDbEntity
  8
MODEL
  6
Continuous
100
AcDbLine
 10
820.2980551236574
 20
907.9106884526956
 30
0.0
 11
820.2980364972059
 21
307.9107018637406
 31
0.0
  0
LINE
  5
1C95
330
A
100
AcDbEntity
  8
MODEL
  6
Continuous
100
AcDbLine
 10
736.4980372899472
 20
307.9107018637406
 30
0.0
 11
736.4980559163992
 21
907.9106884526956
 31
0.0
  0
LINE
  5
1C96
330
A
100
AcDbEntity
  8
MODEL
  6
Continuous
100
AcDbLine
 10
718.4980566912595
 20
907.9106884526956
 30
0.0
 11
718.4980380648076
 21
307.9107018637406
 31
0.0
  0
LINE
  5
1C97
330
A
100
AcDbEntity
  8
MODEL
  6
Continuous
100
AcDbLine
 10
718.3980549984876
 20
905.6607323217141
 30
0.0
 11
718.3980549984876
 21
910.1607041883218
 31
0.0
  0
LINE
  5
1C98
330
A
100
AcDbEntity
  8
MODEL
  6
Continuous
100
AcDbLine
 10
718.3980363720357
 20
309.0357022809732
 30
0.0
 11
718.3980363720357
 21
310.1607026982057
 31
0.0
  0
LINE
  5
1C99
330
A
100
AcDbEntity
  8
MODEL
  6
Continuous
100
AcDbLine
 10
718.3980363720357
 20
305.6607010292756
 30
0.0
 11
718.3980363720357
 21
309.0357022809732
 31
0.0
  0
ARC
  5
1C9A
330
A
100
AcDbEntity
  8
MODEL
  6
Continuous
100
AcDbCircle
 10
829.2980561190948
 20
907.9107019444019
 30
0.0
 40
9.00000000000006
100
AcDbArc
 50
359.999998173792
 51
179.999998173792
  0
ARC
  5
1C9B
330
A
100
AcDbEntity
  8
MODEL
  6
Continuous
100
AcDbCircle
 10
829.2980369950992
 20
307.9107019444019
 30
0.0
 40
9.00000000000006
100
AcDbArc
 50
179.999998173792
 51
359.9999981737978
  0
ARC
  5
1C9C
330
A
100
AcDbEntity
  8
MODEL
  6
Continuous
100
AcDbCircle
 10
727.4980561190941
 20
907.9107019444019
 30
0.0
 40
9.00000000000006
100
AcDbArc
 50
359.999998173792
 51
179.999998173792
  0
ARC
  5
1C9D
330
A
100
AcDbEntity
  8
MODEL
  6
Continuous
100
AcDbCircle
 10
727.498036995099
 20
307.9107019444019
 30
0.0
 40
9.00000000000006
100
AcDbArc
 50
179.999998173792
 51
359.9999981737978
  0
ARC
  5
1C9E
330
A
100
AcDbEntity
  8
MODEL
  6
Continuous
100
AcDbCircle
 10
829.2980369950992
 20
307.9107019444019
 30
0.0
 40
9.00000000000006
100
AcDbArc
 50
179.999998173792
 51
269.9999981737948
  0
ARC
  5
1C9F
330
A
100
AcDbEntity
  8
MODEL
  6
Continuous
100
AcDbCircle
 10
829.2980369950992
 20
307.9107019444019
 30
0.0
 40
8.999999999999954
100
AcDbArc
 50
269.999998173792
 51
359.9999981737978
  0
ARC
  5
1CA0
330
A
100
AcDbEntity
  8
MODEL
  6
Continuous
100
AcDbCircle
 10
727.498036995099
 20
307.9107019444065
 30
0.0
 40
9.00000000000006
100
AcDbArc
 50
179.999998173792
 51
269.999998173792
  0
ARC
  5
1CA1
330
A
100
AcDbEntity
  8
MODEL
  6
Continuous
100
AcDbCircle
 10
727.498036995099
 20
307.9107019444065
 30
0.0
 40
8.999999999999954
100
AcDbArc
 50
269.999998173792
 51
359.9999981737978
  0
ARC
  5
1CA2
330
A
100
AcDbEntity
  8
MODEL
  6
Continuous
100
AcDbCircle
 10
727.498056119095
 20
907.9107084338112
 30
0.0
 40
9.100000000000156
100
AcDbArc
 50
89.99999634758694
 51
188.501887423787
  0
LINE
  5
1CA3
330
A
100
AcDbEntity
  8
MODEL
  6
Continuous
100
AcDbLine
 10
727.4980563038293
 20
917.0107083844888
 30
0.0
 11
829.2980584615175
 21
917.0107083844888
 31
0.0
  0
LWPOLYLINE
  5
1CA4
330
A
100
AcDbEntity
  8
MODEL
  6
Continuous
100
AcDbPolyline
 90
        3
 70
   128
 43
0.0
 10
838.298054348797
 20
906.5653520154702
 10
838.3482042067949
 20
906.9595175313699
 10
838.3681568616335
 20
908.6477594899881
  0
LINE
  5
1CA5
330
A
100
AcDbEntity
  8
MODEL
  6
Continuous
100
AcDbLine
 10
830.379685323805
 20
916.9462161588418
 30
0.0
 11
829.2980584615175
 21
917.0107083844888
 31
0.0
  0
LINE
  5
1CA6
330
A
100
AcDbEntity
  8
MODEL
  6
Continuous
100
AcDbLine
 10
736.4980559163992
 20
898.8107281255471
 30
0.0
 11
820.2980551236574
 21
898.8107281255471
 31
0.0
  0
ARC
  5
1CA7
330
A
100
AcDbEntity
  8
MODEL
  6
Continuous
100
AcDbCircle
 10
727.498036995099
 20
307.9107019444019
 30
0.0
 40
9.100000000000069
100
AcDbArc
 50
171.4981089237911
 51
270.0
  0
LINE
  5
1CA8
330
A
100
AcDbEntity
  8
MODEL
  6
Continuous
100
AcDbLine
 10
736.4980372899472
 20
317.0107013064372
 30
0.0
 11
820.2980364972059
 21
317.0107013064372
 31
0.0
  0
LWPOLYLINE
  5
1CA9
330
A
100
AcDbEntity
  8
MODEL
  6
Continuous
100
AcDbPolyline
 90
        3
 70
   128
 43
0.0
 10
829.2980361097757
 20
298.8107005583989
 10
831.1900328212682
 20
299.0095602798211
 10
831.5789717548791
 20
299.101198695873
  0
ARC
  5
1CAA
330
A
100
AcDbEntity
  8
MODEL
  6
Continuous
100
AcDbCircle
 10
829.2980369950992
 20
307.9107019444019
 30
0.0
 40
9.099999999999973
100
AcDbArc
 50
348.1302405696439
 51
8.501887423793002
  0
LINE
  5
1CAB
330
A
100
AcDbEntity
  8
MODEL
  6
Continuous
100
AcDbLine
 10
727.4980376773774
 20
298.8107005583989
 30
0.0
 11
829.2980361097757
 21
298.8107005583989
 31
0.0
  0
DIMENSION
  5
1CAC
330
A
100
AcDbEntity
  8
DIM
100
AcDbDimension
  2
*D7
 10
668.2980567810978
 20
917.0107122076124
 30
0.0
 11
668.2980370770083
 21
607.9107089629089
 31
0.0
 70
   160
 71
     2
 42
618.2000064894091
 73
     0
 74
     0
 75
     0
  3
tfrom線あり
100
AcDbAlignedDimension
 13
727.498036995099
 23
298.8107019444015
 33
0.0
 14
727.4980566991899
 24
917.0107084338107
 34
0.0
 50
89.99999634758603
100
AcDbRotatedDimension
  0
DIMENSION
  5
1CAD
330
A
100
AcDbEntity
  8
DIM
100
AcDbDimension
  2
*D8
 10
718.4980354074041
 20
258.0980477305243
 30
0.0
 11
777.9378935363666
 21
258.0980458359783
 31
0.0
 70
   160
 71
     2
 42
119.8000000000001
 73
     0
 74
     0
 75
     0
 52
-270.0
  3
tfrom線あり
100
AcDbAlignedDimension
 13
838.2980369950992
 23
307.9107016575418
 33
0.0
 14
718.498036995099
 24
307.9107022312665
 34
0.0
 50
179.999998173793
100
AcDbRotatedDimension
  0
LINE
  5
1CAE
330
A
100
AcDbEntity
  8
MODEL
  6
Continuous
100
AcDbLine
 10
354.2824145375321
 20
316.9107014763105
 30
0.0
 11
354.2824145375323
 21
898.9106851148355
 31
0.0
  0
LINE
  5
1CAF
330
A
100
AcDbEntity
  8
MODEL
  6
Continuous
100
AcDbLine
 10
342.2824051199984
 20
898.9106851148355
 30
0.0
 11
342.2824051199982
 21
316.9107014763105
 31
0.0
  0
LINE
  5
1CB0
330
A
100
AcDbEntity
  8
MODEL
  6
Continuous
100
AcDbLine
 10
294.2824047027657
 20
316.9107014763105
 30
0.0
 11
294.2824047027659
 21
898.9106851148355
 31
0.0
  0
LINE
  5
1CB1
330
A
100
AcDbEntity
  8
MODEL
  6
Continuous
100
AcDbLine
 10
282.2824101863932
 20
898.9106851148355
 30
0.0
 11
282.282410186393
 21
316.9107014763105
 31
0.0
  0
LINE
  5
1CB2
330
A
100
AcDbEntity
  8
MODEL
  6
Continuous
100
AcDbLine
 10
414.2824020205567
 20
316.9107014763105
 30
0.0
 11
414.2824020205569
 21
898.9106851148355
 31
0.0
  0
LINE
  5
1CB3
330
A
100
AcDbEntity
  8
MODEL
  6
Continuous
100
AcDbLine
 10
402.2824075041842
 20
898.9106851148355
 30
0.0
 11
402.282407504184
 21
316.9107014763105
 31
0.0
  0
LINE
  5
1CB4
330
A
100
AcDbEntity
  8
MODEL
  6
Continuous
100
AcDbLine
 10
414.2824020205569
 20
898.9106851148355
 30
0.0
 11
469.2823942719533
 21
898.9106851148355
 31
0.0
  0
LINE
  5
1CB5
330
A
100
AcDbEntity
  8
MODEL
  6
Continuous
100
AcDbLine
 10
354.2824145375323
 20
898.9106851148355
 30
0.0
 11
402.2824075041842
 21
898.9106851148355
 31
0.0
  0
LINE
  5
1CB6
330
A
100
AcDbEntity
  8
MODEL
  6
Continuous
100
AcDbLine
 10
294.2824047027659
 20
898.9106851148355
 30
0.0
 11
342.2824051199984
 21
898.9106851148355
 31
0.0
  0
LINE
  5
1CB7
330
A
100
AcDbEntity
  8
MODEL
  6
Continuous
100
AcDbLine
 10
237.2824083982539
 20
898.9106851148355
 30
0.0
 11
282.2824101863932
 21
898.9106851148355
 31
0.0
  0
LINE
  5
1CB8
330
A
100
AcDbEntity
  8
MODEL
  6
Continuous
100
AcDbLine
 10
487.2824009476735
 20
916.9106917905557
 30
0.0
 11
237.2824083982539
 21
916.9106917905557
 31
0.0
  0
LINE
  5
1CB9
330
A
100
AcDbEntity
  8
MODEL
  6
Continuous
100
AcDbLine
 10
237.2824083982537
 20
298.9107022511708
 30
0.0
 11
487.2824009476731
 21
298.9107022511708
 31
0.0
  0
LINE
  5
1CBA
330
A
100
AcDbEntity
  8
MODEL
  6
Continuous
100
AcDbLine
 10
282.282410186393
 20
316.9107014763105
 30
0.0
 11
237.2824083982537
 21
316.9107014763105
 31
0.0
  0
LINE
  5
1CBB
330
A
100
AcDbEntity
  8
MODEL
  6
Continuous
100
AcDbLine
 10
342.2824051199982
 20
316.9107014763105
 30
0.0
 11
294.2824047027657
 21
316.9107014763105
 31
0.0
  0
LINE
  5
1CBC
330
A
100
AcDbEntity
  8
MODEL
  6
Continuous
100
AcDbLine
 10
402.282407504184
 20
316.9107014763105
 30
0.0
 11
354.2824145375321
 21
316.9107014763105
 31
0.0
  0
LINE
  5
1CBD
330
A
100
AcDbEntity
  8
MODEL
  6
Continuous
100
AcDbLine
 10
469.2823942719529
 20
316.9107014763105
 30
0.0
 11
414.2824020205567
 21
316.9107014763105
 31
0.0
  0
LINE
  5
1CBE
330
A
100
AcDbEntity
  8
MODEL
  6
Continuous
100
AcDbLine
 10
302.2824060140679
 20
316.9107014763105
 30
0.0
 11
302.2824060140681
 21
898.9106851148355
 31
0.0
  0
LINE
  5
1CBF
330
A
100
AcDbEntity
  8
MODEL
  6
Continuous
100
AcDbLine
 10
487.2824009476731
 20
298.9107022511708
 30
0.0
 11
487.2824009476735
 21
916.9106917905557
 31
0.0
  0
LINE
  5
1CC0
330
A
100
AcDbEntity
  8
MODEL
  6
Continuous
100
AcDbLine
 10
469.2823942719533
 20
898.9106851148355
 30
0.0
 11
469.2823942719529
 21
316.9107014763105
 31
0.0
  0
CIRCLE
  5
1CC1
330
A
100
AcDbEntity
  8
MODEL
  6
Continuous
100
AcDbCircle
 10
230.2824078065421
 20
907.9107025245058
 30
0.0
 40
2.24999999999999
  0
ARC
  5
1CC2
330
A
100
AcDbEntity
  8
MODEL
  6
Continuous
100
AcDbCircle
 10
230.2824078065421
 20
907.9107024766964
 30
0.0
 40
3.000000000000116
100
AcDbArc
 50
179.9999966476809
 51
150.0000000000216
  0
LINE
  5
1CC3
330
A
100
AcDbEntity
  8
MODEL
  6
Continuous
100
AcDbLine
 10
231.7824084280562
 20
908.776743941282
 30
0.0
 11
230.2824072508645
 21
909.6427398252237
 31
0.0
  0
LINE
  5
1CC4
330
A
100
AcDbEntity
  8
MODEL
  6
Continuous
100
AcDbLine
 10
230.2824072508645
 20
909.6427398252237
 30
0.0
 11
228.7824079363179
 21
908.776743941282
 31
0.0
  0
LINE
  5
1CC5
330
A
100
AcDbEntity
  8
MODEL
  6
Continuous
100
AcDbLine
 10
228.7824079363179
 20
908.776743941282
 30
0.0
 11
228.7824079363179
 21
907.0446925687539
 31
0.0
  0
LINE
  5
1CC6
330
A
100
AcDbEntity
  8
MODEL
  6
Continuous
100
AcDbLine
 10
228.7824079363179
 20
907.0446925687539
 30
0.0
 11
230.2824072508645
 21
906.1786370801675
 31
0.0
  0
LINE
  5
1CC7
330
A
100
AcDbEntity
  8
MODEL
  6
Continuous
100
AcDbLine
 10
230.2824072508645
 20
906.1786370801675
 30
0.0
 11
231.7824084280562
 21
907.0446925687539
 31
0.0
  0
LINE
  5
1CC8
330
A
100
AcDbEntity
  8
MODEL
  6
Continuous
100
AcDbLine
 10
231.7824084280562
 20
907.0446925687539
 30
0.0
 11
231.7824084280562
 21
908.776743941282
 31
0.0
  0
LINE
  5
1CC9
330
A
100
AcDbEntity
  8
MODEL
  6
Continuous
100
AcDbLine
 10
229.5324075935912
 20
909.2097120809304
 30
0.0
 11
228.7824079363179
 21
908.776743941282
 31
0.0
  0
LINE
  5
1CCA
330
A
100
AcDbEntity
  8
MODEL
  6
Continuous
100
AcDbLine
 10
230.2824072508645
 20
909.6427398252237
 30
0.0
 11
229.5324075935912
 21
909.2097120809304
 31
0.0
  0
LINE
  5
1CCB
330
A
100
AcDbEntity
  8
MODEL
  6
Continuous
100
AcDbLine
 10
231.0324069081378
 20
909.2097120809304
 30
0.0
 11
230.2824072508645
 21
909.6427398252237
 31
0.0
  0
LINE
  5
1CCC
330
A
100
AcDbEntity
  8
MODEL
  6
Continuous
100
AcDbLine
 10
231.7824084280562
 20
908.776743941282
 30
0.0
 11
231.0324069081378
 21
909.2097120809304
 31
0.0
  0
ARC
  5
1CCD
330
A
100
AcDbEntity
  8
MODEL
  6
Continuous
100
AcDbCircle
 10
230.2824078065421
 20
907.9107023013922
 30
0.0
 40
1.50000000000006
100
AcDbArc
 50
119.9999999999907
 51
180.0
  0
ARC
  5
1CCE
330
A
100
AcDbEntity
  8
MODEL
  6
Continuous
100
AcDbCircle
 10
230.2824078065421
 20
907.9107023013922
 30
0.0
 40
1.500000000000096
100
AcDbArc
 50
60.00000000002212
 51
119.9999999999973
  0
ARC
  5
1CCF
330
A
100
AcDbEntity
  8
MODEL
  6
Continuous
100
AcDbCircle
 10
230.2824078065421
 20
907.9107023013922
 30
0.0
 40
1.500000000000096
100
AcDbArc
 50
0.0
 51
60.00000000002212
  0
ARC
  5
1CD0
330
A
100
AcDbEntity
  8
MODEL
  6
Continuous
100
AcDbCircle
 10
230.2824078065421
 20
907.9107023013922
 30
0.0
 40
1.500000000000096
100
AcDbArc
 50
300.0000000000157
 51
0.0
  0
ARC
  5
1CD1
330
A
100
AcDbEntity
  8
MODEL
  6
Continuous
100
AcDbCircle
 10
230.2824078065421
 20
907.9107023013922
 30
0.0
 40
1.500000000000096
100
AcDbArc
 50
239.9999999999704
 51
300.0000000000157
  0
ARC
  5
1CD2
330
A
100
AcDbEntity
  8
MODEL
  6
Continuous
100
AcDbCircle
 10
230.2824078065421
 20
907.9107023013922
 30
0.0
 40
1.50000000000006
100
AcDbArc
 50
180.0
 51
239.9999999999714
  0
CIRCLE
  5
1CD3
330
A
100
AcDbEntity
  8
MODEL
  6
Continuous
100
AcDbCircle
 10
230.2824078065419
 20
307.9107019444019
 30
0.0
 40
2.249999999999979
  0
LINE
  5
1CD4
330
A
100
AcDbEntity
  8
MODEL
  6
Continuous
100
AcDbLine
 10
230.2824072508643
 20
306.1786504912126
 30
0.0
 11
231.782408428056
 21
307.0446761774766
 31
0.0
  0
LINE
  5
1CD5
330
A
100
AcDbEntity
  8
MODEL
  6
Continuous
100
AcDbLine
 10
231.782408428056
 20
307.0446761774766
 30
0.0
 11
231.782408428056
 21
308.7767275500047
 31
0.0
  0
LINE
  5
1CD6
330
A
100
AcDbEntity
  8
MODEL
  6
Continuous
100
AcDbLine
 10
231.782408428056
 20
308.7767275500047
 30
0.0
 11
230.2824072508643
 21
309.6427532362687
 31
0.0
  0
LINE
  5
1CD7
330
A
100
AcDbEntity
  8
MODEL
  6
Continuous
100
AcDbLine
 10
230.2824072508643
 20
309.6427532362687
 30
0.0
 11
228.7824079363177
 21
308.7767275500047
 31
0.0
  0
LINE
  5
1CD8
330
A
100
AcDbEntity
  8
MODEL
  6
Continuous
100
AcDbLine
 10
228.7824079363177
 20
307.0446761774766
 30
0.0
 11
230.2824072508643
 21
306.1786504912126
 31
0.0
  0
LINE
  5
1CD9
330
A
100
AcDbEntity
  8
MODEL
  6
Continuous
100
AcDbLine
 10
228.7824079363177
 20
308.7767275500047
 30
0.0
 11
228.7824079363177
 21
307.0446761774766
 31
0.0
  0
ARC
  5
1CDA
330
A
100
AcDbEntity
  8
MODEL
  6
Continuous
100
AcDbCircle
 10
230.2824078065419
 20
307.9107019444019
 30
0.0
 40
1.500000000000057
100
AcDbArc
 50
0.0
 51
60.00000000002197
  0
ARC
  5
1CDB
330
A
100
AcDbEntity
  8
MODEL
  6
Continuous
100
AcDbCircle
 10
230.2824078065419
 20
307.9107019444019
 30
0.0
 40
1.500000000000057
100
AcDbArc
 50
300.0000000000188
 51
0.0
  0
ARC
  5
1CDC
330
A
100
AcDbEntity
  8
MODEL
  6
Continuous
100
AcDbCircle
 10
230.2824078065419
 20
307.9107019444019
 30
0.0
 40
1.500000000000008
100
AcDbArc
 50
239.9999999999791
 51
300.0000000000209
  0
ARC
  5
1CDD
330
A
100
AcDbEntity
  8
MODEL
  6
Continuous
100
AcDbCircle
 10
230.2824078065419
 20
307.9107019444019
 30
0.0
 40
1.499999999999986
100
AcDbArc
 50
180.0
 51
239.9999999999781
  0
ARC
  5
1CDE
330
A
100
AcDbEntity
  8
MODEL
  6
Continuous
100
AcDbCircle
 10
230.2824078065419
 20
307.9107019444019
 30
0.0
 40
1.500000000000003
100
AcDbArc
 50
119.9999999999801
 51
180.0
  0
ARC
  5
1CDF
330
A
100
AcDbEntity
  8
MODEL
  6
Continuous
100
AcDbCircle
 10
230.2824078065419
 20
307.9107019444019
 30
0.0
 40
1.500000000000039
100
AcDbArc
 50
60.00000000002197
 51
119.999999999978
  0
SPLINE
  5
1CE0
330
A
100
AcDbEntity
  8
MODEL
  6
Continuous
100
AcDbSpline
210
0.0
220
0.0
230
1.0
 70
     8
 71
     3
 72
    18
 73
    14
 74
     0
 42
0.000000001
 43
0.00000001
 40
0.0
 40
0.0
 40
0.0
 40
0.0
 40
0.0926169300997113
 40
0.1849187679436758
 40
0.2851667617484084
 40
0.4010574904691614
 40
0.4833886705319224
 40
0.5659801901161214
 40
0.6450915034266793
 40
0.74037283826386
 40
0.8560421291123019
 40
0.948988744734966
 40
1.0
 40
1.0
 40
1.0
 40
1.0
 10
414.2824020205569
 20
898.9106851148355
 30
0.0
 10
414.2287561998958
 20
898.9468910845445
 30
0.0
 10
414.121647067135
 20
899.0191798475536
 30
0.0
 10
413.3025340878373
 20
899.5446002217133
 30
0.0
 10
412.032031412856
 20
900.2621933641796
 30
0.0
 10
410.4050340334159
 20
900.9478007858744
 30
0.0
 10
408.6126459058271
 20
901.2617131062617
 30
0.0
 10
407.0058560745231
 20
901.1382044358844
 30
0.0
 10
405.4796028165713
 20
900.6820646020261
 30
0.0
 10
404.0200578478077
 20
899.9921711746248
 30
0.0
 10
402.9077521790271
 20
899.3237186643565
 30
0.0
 10
402.3110418955155
 20
898.929988234565
 30
0.0
 10
402.3402245763684
 20
898.949183006329
 30
0.0
 10
402.3505654154849
 20
898.9559846448648
 30
0.0
  0
SPLINE
  5
1CE1
330
A
100
AcDbEntity
  8
MODEL
  6
Continuous
100
AcDbSpline
210
0.0
220
0.0
230
1.0
 70
     8
 71
     3
 72
    18
 73
    14
 74
     0
 42
0.000000001
 43
0.00000001
 40
0.0
 40
0.0
 40
0.0
 40
0.0
 40
0.0926170358409301
 40
0.1849185470578069
 40
0.285167018474471
 40
0.4010577369766518
 40
0.4833881653854932
 40
0.5659804402490569
 40
0.6450917465840381
 40
0.7403730730198634
 40
0.8560419204436422
 40
0.9489887602020689
 40
1.0
 40
1.0
 40
1.0
 40
1.0
 10
354.2824145375323
 20
898.9106851148355
 30
0.0
 10
354.2287609728767
 20
898.946890716794
 30
0.0
 10
354.1216366287374
 20
899.0191785766748
 30
0.0
 10
353.3025527449188
 20
899.5446035068491
 30
0.0
 10
352.032025623588
 20
900.2621907888462
 30
0.0
 10
350.4050366143053
 20
900.9477988660202
 30
0.0
 10
348.6126488998459
 20
901.2617139128726
 30
0.0
 10
347.0058579489948
 20
901.1382056028752
 30
0.0
 10
345.4796015598347
 20
900.68206449807
 30
0.0
 10
344.0200519469297
 20
899.9921730764873
 30
0.0
 10
342.9077758469168
 20
899.3237162488095
 30
0.0
 10
342.3110292612439
 20
898.9299885247821
 30
0.0
 10
342.3402305262232
 20
898.949183091063
 30
0.0
 10
342.3505779324603
 20
898.9559846448648
 30
0.0
  0
SPLINE
  5
1CE2
330
A
100
AcDbEntity
  8
MODEL
  6
Continuous
100
AcDbSpline
210
0.0
220
0.0
230
1.0
 70
     8
 71
     3
 72
    18
 73
    14
 74
     0
 42
0.000000001
 43
0.00000001
 40
0.0
 40
0.0
 40
0.0
 40
0.0
 40
0.0926170055806002
 40
0.1849187026444301
 40
0.2851669597288097
 40
0.4010573922837737
 40
0.483388588816719
 40
0.5659801249231827
 40
0.645091454059797
 40
0.740373103386775
 40
0.856041984148881
 40
0.9489887345302688
 40
1.0
 40
1.0
 40
1.0
 40
1.0
 10
294.2824047027659
 20
898.9106851148355
 30
0.0
 10
294.2287549979239
 20
898.9468908877162
 30
0.0
 10
294.1216382351388
 20
899.0191791732997
 30
0.0
 10
293.3025399907954
 20
899.5446020244718
 30
0.0
 10
292.0320255964104
 20
900.2621906309624
 30
0.0
 10
290.4050358946204
 20
900.9478019090212
 30
0.0
 10
288.6126484214367
 20
901.2617128805251
 30
0.0
 10
287.0058583690054
 20
901.1382046830132
 30
0.0
 10
285.4796055048203
 20
900.6820632761675
 30
0.0
 10
284.0200509625972
 20
899.9921746410201
 30
0.0
 10
282.9077675016881
 20
899.3237164593412
 30
0.0
 10
282.3110431150865
 20
898.9299884488101
 30
0.0
 10
282.340226882058
 20
898.9491830664357
 30
0.0
 10
282.3505680976939
 20
898.9559846448648
 30
0.0
  0
LWPOLYLINE
  5
1CE3
330
A
100
AcDbEntity
  8
MODEL
  6
Continuous
100
AcDbPolyline
 90
       38
 70
   128
 43
0.0
 10
469.2823942719533
 20
898.9106851148355
 10
469.4118555604055
 20
899.0401464032876
 10
469.7965141354634
 20
899.424834780668
 10
470.425283533199
 20
900.0536041784036
 10
471.2800737439229
 20
900.9083943891275
 10
472.3363276539876
 20
901.9646482991922
 10
473.5636468945577
 20
903.1919079351175
 10
474.9266859112813
 20
904.5550065564859
 10
476.3862844525411
 20
906.0146050977456
 10
477.9004510460927
 20
907.5287418889749
 10
479.4255550919606
 20
909.0538459348428
 10
480.9178169785573
 20
910.5461078214395
 10
482.3342319546773
 20
911.9625525998819
 10
483.6341198502614
 20
913.2624106931436
 10
484.7800191460683
 20
914.4083099889505
 10
485.7389982758596
 20
915.3672891187417
 10
486.4834602891042
 20
916.1117511319864
 10
486.9920071183278
 20
916.62029796121
 10
487.2499760209157
 20
916.8782668637979
 10
487.2499760209157
 20
916.8782668637979
 10
486.9920071183278
 20
916.62029796121
 10
486.4834602891042
 20
916.1117511319864
 10
485.7389982758596
 20
915.3672891187417
 10
484.7800191460683
 20
914.4083099889505
 10
483.6341198502614
 20
913.2624106931436
 10
482.3342319546773
 20
911.9625525998819
 10
480.9178169785573
 20
910.5461078214395
 10
479.4255550919606
 20
909.0538459348428
 10
477.9004510460927
 20
907.5287418889749
 10
476.3862844525411
 20
906.0146050977456
 10
474.9266859112813
 20
904.5550065564859
 10
473.5636468945577
 20
903.1919079351175
 10
472.3363276539876
 20
901.9646482991922
 10
471.2800737439229
 20
900.9083943891275
 10
470.425283533199
 20
900.0536041784036
 10
469.7965141354634
 20
899.4247751760232
 10
469.4118555604055
 20
899.0401464032876
 10
469.2823942719533
 20
898.9106851148355
  0
LWPOLYLINE
  5
1CE4
330
A
100
AcDbEntity
  8
MODEL
  6
Continuous
100
AcDbPolyline
 90
       19
 70
   128
 43
0.0
 10
486.4824172078206
 20
916.1106782483804
 10
486.3578435002401
 20
915.9861045407998
 10
485.9878774701192
 20
915.6161981153238
 10
485.383814197643
 20
915.0121050405252
 10
484.5639821110799
 20
914.1922431516397
 10
483.5532661496236
 20
913.1815867948281
 10
482.3824223099782
 20
912.0107131528604
 10
481.0869749604299
 20
910.715265803312
 10
479.7063227711751
 20
909.3346434163797
 10
478.2823976098134
 20
907.9106884526956
 10
476.8585022507741
 20
906.4867930936563
 10
475.4778500615193
 20
905.1061111020791
 10
474.182402711971
 20
903.8107233571756
 10
473.0115588723256
 20
902.6398497152078
 10
472.0008429108693
 20
901.6291337537515
 10
471.1810108243062
 20
900.809271864866
 10
470.5769177495076
 20
900.2052383947122
 10
470.2069815217092
 20
899.8352723645913
 10
470.0824078141286
 20
899.7106986570108
  0
SPLINE
  5
1CE5
330
A
100
AcDbEntity
  8
MODEL
  6
Continuous
100
AcDbSpline
210
0.0
220
0.0
230
1.0
 70
     8
 71
     3
 72
    18
 73
    14
 74
     0
 42
0.000000001
 43
0.00000001
 40
0.0
 40
0.0
 40
0.0
 40
0.0
 40
0.0422309621027849
 40
0.1290141650962736
 40
0.2211377662184798
 40
0.3278699344771643
 40
0.4254762673327807
 40
0.5053931904134458
 40
0.5853769970148457
 40
0.6868192175702206
 40
0.7902622126270744
 40
0.9082439033134964
 40
1.0
 40
1.0
 40
1.0
 40
1.0
 10
402.3505654154847
 20
316.8654093968618
 30
0.0
 10
402.3352570398115
 20
316.8755557233227
 30
0.0
 10
402.288490468366
 20
316.9065524085037
 30
0.0
 10
402.7551552653094
 20
316.5971516903893
 30
0.0
 10
403.6807532295729
 20
316.0279860292986
 30
0.0
 10
405.0636875984524
 20
315.3040281774121
 30
0.0
 10
406.7059482160957
 20
314.7360827268059
 30
0.0
 10
408.3873491910267
 20
314.5560375439019
 30
0.0
 10
410.0769883644498
 20
314.7894209317111
 30
0.0
 10
411.690577433224
 20
315.3934280449367
 30
0.0
 10
413.1269453198788
 20
316.163775324827
 30
0.0
 10
414.1069981220439
 20
316.7924887498176
 30
0.0
 10
414.2290199192203
 20
316.8747248315595
 30
0.0
 10
414.2824020205567
 20
316.9107014763105
 30
0.0
  0
SPLINE
  5
1CE6
330
A
100
AcDbEntity
  8
MODEL
  6
Continuous
100
AcDbSpline
210
0.0
220
0.0
230
1.0
 70
     8
 71
     3
 72
    18
 73
    14
 74
     0
 42
0.000000001
 43
0.00000001
 40
0.0
 40
0.0
 40
0.0
 40
0.0
 40
0.0422309693682804
 40
0.1290139814519043
 40
0.2211375984232312
 40
0.3278697850443223
 40
0.425476814070711
 40
0.5053929924503664
 40
0.5853768128123336
 40
0.6868190508200223
 40
0.790262063673407
 40
0.9082437746576248
 40
1.0
 40
1.0
 40
1.0
 40
1.0
 10
342.3505779324601
 20
316.8654093968618
 30
0.0
 10
342.3352700459131
 20
316.8755557633359
 30
0.0
 10
342.2885050433438
 20
316.9065525213001
 30
0.0
 10
342.7551476211279
 20
316.5971509588527
 30
0.0
 10
343.680753008025
 20
316.0279864602108
 30
0.0
 10
345.0636867934786
 20
315.3040250040122
 30
0.0
 10
346.7059531035366
 20
314.736086292579
 30
0.0
 10
348.3873512638147
 20
314.5560370316845
 30
0.0
 10
350.0769861990107
 20
314.7894213464661
 30
0.0
 10
351.6905746671341
 20
315.3934279218812
 30
0.0
 10
353.1269443008982
 20
316.1637753589804
 30
0.0
 10
354.10699081339
 20
316.7924889875895
 30
0.0
 10
354.2290263768004
 20
316.874724886604
 30
0.0
 10
354.2824145375321
 20
316.9107014763105
 30
0.0
  0
SPLINE
  5
1CE7
330
A
100
AcDbEntity
  8
MODEL
  6
Continuous
100
AcDbSpline
210
0.0
220
0.0
230
1.0
 70
     8
 71
     3
 72
    18
 73
    14
 74
     0
 42
0.000000001
 43
0.00000001
 40
0.0
 40
0.0
 40
0.0
 40
0.0
 40
0.0422309611959573
 40
0.1290140706763621
 40
0.2211376817853004
 40
0.3278698616143704
 40
0.4254762050510789
 40
0.5053931367952015
 40
0.5853769520673096
 40
0.686819183619609
 40
0.7902621898902829
 40
0.9082438933666037
 40
1.0
 40
1.0
 40
1.0
 40
1.0
 10
282.3505680976937
 20
316.8654093968618
 30
0.0
 10
282.3352628969474
 20
316.8755557406849
 30
0.0
 10
282.2885060580106
 20
316.9065524568824
 30
0.0
 10
282.7551537425697
 20
316.5971513655187
 30
0.0
 10
283.6807573842871
 20
316.0279860681641
 30
0.0
 10
285.0636898986504
 20
315.3040281673276
 30
0.0
 10
286.7059509770093
 20
314.7360827288832
 30
0.0
 10
288.3873518540836
 20
314.5560375433962
 30
0.0
 10
290.07699105334
 20
314.7894209318875
 30
0.0
 10
291.6905801134326
 20
315.3934280448849
 30
0.0
 10
293.1269480027154
 20
316.1637753248434
 30
0.0
 10
294.1070008041297
 20
316.792488749814
 30
0.0
 10
294.229022601392
 20
316.8747248315577
 30
0.0
 10
294.2824047027657
 20
316.9107014763105
 30
0.0
  0
LWPOLYLINE
  5
1CE8
330
A
100
AcDbEntity
  8
MODEL
  6
Continuous
100
AcDbPolyline
 90
       20
 70
   128
 43
0.0
 10
487.2824009476731
 20
298.9107022511708
 10
487.2499760209153
 20
298.9431234526383
 10
486.9920071183274
 20
299.2011072563874
 10
486.4834602891037
 20
299.7096466350305
 10
485.7389982758591
 20
300.4541160988557
 10
484.7800191460678
 20
301.4130989539373
 10
483.634119850261
 20
302.5590019750344
 10
482.3342319546769
 20
303.8588675188768
 10
480.9178169785569
 20
305.2752973961579
 10
479.4255550919602
 20
306.7675425189483
 10
477.9004510460923
 20
308.2926726418483
 10
476.3862844525406
 20
309.806815021013
 10
474.9266859112809
 20
311.2664098369825
 10
473.5636468945572
 20
312.6294674801576
 10
472.3363276539872
 20
313.8567755448567
 10
471.2800737439225
 20
314.913023866986
 10
470.4252835331986
 20
315.7678289788711
 10
469.796514135463
 20
316.3965983766067
 10
469.411855560405
 20
316.7812457757938
 10
469.2823942719529
 20
316.9107014763105
  0
LWPOLYLINE
  5
1CE9
330
A
100
AcDbEntity
  8
MODEL
  6
Continuous
100
AcDbPolyline
 90
       19
 70
   128
 43
0.0
 10
470.0824078141281
 20
316.1107028352964
 10
470.2069815217087
 20
315.9861254024255
 10
470.5769177495072
 20
315.6161817240464
 10
471.1810108243058
 20
315.0121110009896
 10
472.0008429108689
 20
314.1922658759105
 10
473.0115588723252
 20
313.1815592276799
 10
474.1824027119706
 20
312.0107023495185
 10
475.4778500615189
 20
310.7152661758411
 10
476.8585022507737
 20
309.3346158492314
 10
478.282397609813
 20
307.9107018637406
 10
479.7063227711747
 20
306.4867860156047
 10
481.0869749604294
 20
305.1061356889951
 10
482.3824223099778
 20
303.8107032406079
 10
483.5532661496231
 20
302.6398444998014
 10
484.5639821110794
 20
301.6291359889257
 10
485.3838141976426
 20
300.8092927264917
 10
485.9878774701187
 20
300.2052220034349
 10
486.3578435002396
 20
299.8352783250558
 10
486.4824172078202
 20
299.7107008921849
  0
LWPOLYLINE
  5
1CEA
330
A
100
AcDbEntity
  8
MODEL
  6
Continuous
100
AcDbPolyline
 90
       20
 70
   128
 43
0.0
 10
487.2824009476731
 20
298.9107022511708
 10
487.1529396592209
 20
299.0401598143327
 10
486.7683108864853
 20
299.4248034882295
 10
486.1395414887497
 20
300.0535766112554
 10
485.2847214757035
 20
300.9083817231404
 10
484.2284675656388
 20
301.9646281826245
 10
483.0011781273911
 20
303.1919362473237
 10
481.6381093083451
 20
304.5549938904988
 10
480.1785107670853
 20
306.0145887064683
 10
478.6643739758561
 20
307.528731085633
 10
477.1392401276657
 20
309.0538630711782
 10
475.6470080433915
 20
310.5461063313233
 10
474.2305632649491
 20
311.9625362086045
 10
472.9307051716874
 20
313.2623998898017
 10
471.7848058758805
 20
314.4083066361892
 10
470.8258267460892
 20
315.3672894912707
 10
470.0813647328446
 20
316.111758955096
 10
469.5728179036209
 20
316.620298333739
 10
469.3148191987107
 20
316.8782802748429
 10
469.2823942719529
 20
316.9107014763105
  0
LWPOLYLINE
  5
1CEB
330
A
100
AcDbEntity
  8
MODEL
  6
Continuous
100
AcDbPolyline
 90
       20
 70
   128
 43
0.0
 10
487.2824009476735
 20
916.9106917905557
 10
487.2499760209157
 20
916.8782668637979
 10
486.9920071183278
 20
916.62029796121
 10
486.4834602891042
 20
916.1117511319864
 10
485.7389982758596
 20
915.3672891187417
 10
484.7800191460683
 20
914.4083099889505
 10
483.6341198502614
 20
913.2624106931436
 10
482.3342319546773
 20
911.9625525998819
 10
480.9178169785573
 20
910.5461078214395
 10
479.4255550919606
 20
909.0538459348428
 10
477.9004510460927
 20
907.5287418889749
 10
476.3862844525411
 20
906.0146050977456
 10
474.9266859112813
 20
904.5550065564859
 10
473.5636468945577
 20
903.1919079351175
 10
472.3363276539876
 20
901.9646482991922
 10
471.2800737439229
 20
900.9083943891275
 10
470.425283533199
 20
900.0536041784036
 10
469.7965141354634
 20
899.424834780668
 10
469.4118555604055
 20
899.0401464032876
 10
469.2823942719533
 20
898.9106851148355
  0
LWPOLYLINE
  5
1CEC
330
A
100
AcDbEntity
  8
MODEL
  6
Continuous
100
AcDbPolyline
 90
       37
 70
   128
 43
0.0
 10
486.4824172078202
 20
299.7107008921849
 10
486.3578435002396
 20
299.8352783250558
 10
485.9878774701187
 20
300.2052220034349
 10
485.3838141976426
 20
300.8092927264917
 10
484.5639821110794
 20
301.6291359889257
 10
483.5532661496231
 20
302.6398444998014
 10
482.3824223099778
 20
303.8107032406079
 10
481.0869749604294
 20
305.1061356889951
 10
479.7063227711747
 20
306.4867878782498
 10
478.282397609813
 20
307.9107018637406
 10
476.8585022507737
 20
309.3346177118766
 10
475.4778500615189
 20
310.7152680384862
 10
474.1824027119706
 20
312.0107023495185
 10
473.0115588723252
 20
313.1815610903251
 10
472.0008429108689
 20
314.1922658759105
 10
471.1810108243058
 20
315.0121110009896
 10
470.5769177495072
 20
315.6161817240464
 10
470.2069815217087
 20
315.9861254024255
 10
470.0824078141281
 20
316.1107028352964
 10
470.2069815217087
 20
315.9861254024255
 10
470.5769177495072
 20
315.6161817240464
 10
471.1810108243058
 20
315.0121110009896
 10
472.0008429108689
 20
314.1922658759105
 10
473.0115588723252
 20
313.1815592276799
 10
474.1824027119706
 20
312.0107023495185
 10
475.4778500615189
 20
310.7152661758411
 10
476.8585022507737
 20
309.3346158492314
 10
478.282397609813
 20
307.9107018637406
 10
479.7063227711747
 20
306.4867860156047
 10
481.0869749604294
 20
305.1061356889951
 10
482.3824223099778
 20
303.8107032406079
 10
483.5532661496231
 20
302.6398444998014
 10
484.5639821110794
 20
301.6291359889257
 10
485.3838141976426
 20
300.8092927264917
 10
485.9878774701187
 20
300.2052220034349
 10
486.3578435002396
 20
299.8352783250558
 10
486.4824172078202
 20
299.7107008921849
  0
LWPOLYLINE
  5
1CED
330
A
100
AcDbEntity
  8
MODEL
  6
Continuous
100
AcDbPolyline
 90
       19
 70
   128
 43
0.0
 10
470.0824078141286
 20
899.7106986570108
 10
470.2069815217092
 20
899.8352723645913
 10
470.5769177495076
 20
900.2052383947122
 10
471.1810108243062
 20
900.809271864866
 10
472.0008429108693
 20
901.6291337537515
 10
473.0115588723256
 20
902.6398497152078
 10
474.182402711971
 20
903.8107233571756
 10
475.4778500615193
 20
905.1061111020791
 10
476.8585022507741
 20
906.4867930936563
 10
478.2823976098134
 20
907.9106884526956
 10
479.7063227711751
 20
909.3346434163797
 10
481.0869749604299
 20
910.715265803312
 10
482.3824223099782
 20
912.0107131528604
 10
483.5532661496236
 20
913.1815867948281
 10
484.5639821110799
 20
914.1922431516397
 10
485.383814197643
 20
915.0121050405252
 10
485.9878774701192
 20
915.6161981153238
 10
486.3578435002401
 20
915.9861045407998
 10
486.4824172078206
 20
916.1106782483804
  0
LINE
  5
1CEE
330
A
100
AcDbEntity
  8
MODEL
  6
Continuous
100
AcDbLine
 10
237.2824083982539
 20
917.0107083844888
 30
0.0
 11
237.2824083982539
 21
898.8107281255471
 31
0.0
  0
LINE
  5
1CEF
330
A
100
AcDbEntity
  8
MODEL
  6
Continuous
100
AcDbLine
 10
237.2824083982539
 20
898.8107281255471
 30
0.0
 11
225.2824082939458
 21
898.8107281255471
 31
0.0
  0
LINE
  5
1CF0
330
A
100
AcDbEntity
  8
MODEL
  6
Continuous
100
AcDbLine
 10
225.2824082939458
 20
898.8107281255471
 30
0.0
 11
225.2824082939458
 21
917.0107083844888
 31
0.0
  0
LINE
  5
1CF1
330
A
100
AcDbEntity
  8
MODEL
  6
Continuous
100
AcDbLine
 10
225.2824082939458
 20
917.0107083844888
 30
0.0
 11
237.2824083982539
 21
917.0107083844888
 31
0.0
  0
SPLINE
  5
1CF2
330
A
100
AcDbEntity
  8
MODEL
  6
Continuous
100
AcDbSpline
210
0.0
220
0.0
230
1.0
 70
    11
 71
     3
 72
    27
 73
    23
 74
     0
 42
0.000000001
 43
0.00000001
 40
0.0
 40
0.0
 40
0.0
 40
0.0
 40
0.0637659130040991
 40
0.1268072276567571
 40
0.1886432693644264
 40
0.2196570966520804
 40
0.2499029981957079
 40
0.2801484465177373
 40
0.3112859230891351
 40
0.3732646197443954
 40
0.4362578412820394
 40
0.4999420457894335
 40
0.5636903509801627
 40
0.6267587181712065
 40
0.6886743614554522
 40
0.7197062196010284
 40
0.7499682711647773
 40
0.7801906970219699
 40
0.8112837165898826
 40
0.8731980205719061
 40
0.9362438215829791
 40
1.0
 40
1.0
 40
1.0
 40
1.0
 10
233.3577927170825
 20
907.9106884526956
 30
0.0
 10
233.3095452503396
 20
907.4861932687783
 30
0.0
 10
233.2135985727052
 20
906.6420266146798
 30
0.0
 10
232.5163807430324
 20
905.5757595027645
 30
0.0
 10
231.6678181767536
 20
904.9772132373784
 30
0.0
 10
230.8917934395506
 20
904.7246188453884
 30
0.0
 10
230.2845976983592
 20
904.660447819234
 30
0.0
 10
229.676306402622
 20
904.7243918586247
 30
0.0
 10
228.8995313849143
 20
904.9775566597801
 30
0.0
 10
228.0420570527342
 20
905.5755517144972
 30
0.0
 10
227.3729331939219
 20
906.6422079188861
 30
0.0
 10
227.1236032198146
 20
907.9098655067338
 30
0.0
 10
227.373000770732
 20
909.1780111526579
 30
0.0
 10
228.0416666055187
 20
910.2454904365433
 30
0.0
 10
228.8983619417393
 20
910.8436535373677
 30
0.0
 10
229.6741784563239
 20
911.0963947438951
 30
0.0
 10
230.2815927389477
 20
911.1609449438366
 30
0.0
 10
230.8894026915016
 20
911.0976570556633
 30
0.0
 10
231.666413183267
 20
910.8450711433217
 30
0.0
 10
232.5163278441917
 20
910.2463123591025
 30
0.0
 10
233.2126809605049
 20
909.1789846315315
 30
0.0
 10
233.3092418119547
 20
908.3350298630977
 30
0.0
 10
233.3577927170825
 20
907.9106884526956
 30
0.0
  0
LINE
  5
1CF3
330
A
100
AcDbEntity
  8
MODEL
  6
Continuous
100
AcDbLine
 10
237.2824083982537
 20
317.0107013064372
 30
0.0
 11
237.2824083982537
 21
298.8107005583989
 31
0.0
  0
LINE
  5
1CF4
330
A
100
AcDbEntity
  8
MODEL
  6
Continuous
100
AcDbLine
 10
237.2824083982537
 20
298.8107005583989
 30
0.0
 11
225.2824082939455
 21
298.8107005583989
 31
0.0
  0
LINE
  5
1CF5
330
A
100
AcDbEntity
  8
MODEL
  6
Continuous
100
AcDbLine
 10
225.2824082939455
 20
298.8107005583989
 30
0.0
 11
225.2824082939455
 21
317.0107013064372
 31
0.0
  0
LINE
  5
1CF6
330
A
100
AcDbEntity
  8
MODEL
  6
Continuous
100
AcDbLine
 10
225.2824082939455
 20
317.0107013064372
 30
0.0
 11
237.2824083982537
 21
317.0107013064372
 31
0.0
  0
SPLINE
  5
1CF7
330
A
100
AcDbEntity
  8
MODEL
  6
Continuous
100
AcDbSpline
210
0.0
220
0.0
230
1.0
 70
    11
 71
     3
 72
    27
 73
    23
 74
     0
 42
0.000000001
 43
0.00000001
 40
0.0
 40
0.0
 40
0.0
 40
0.0
 40
0.0637661532210705
 40
0.126808915905155
 40
0.1886442877261416
 40
0.2196585560691493
 40
0.2499044213070475
 40
0.2801499963731771
 40
0.3112869773627212
 40
0.3732668356084998
 40
0.4362585083963851
 40
0.4999438717136291
 40
0.5636934275983475
 40
0.6267601983512249
 40
0.6886752780489392
 40
0.7197070984619276
 40
0.7499693199531621
 40
0.7801918183316033
 40
0.811284249057124
 40
0.873200001423262
 40
0.9362435813847099
 40
0.9999999999999999
 40
0.9999999999999999
 40
0.9999999999999999
 40
0.9999999999999999
 10
233.3577927170822
 20
307.9107018637406
 30
0.0
 10
233.3095427479475
 20
307.4862073110627
 30
0.0
 10
233.2135901779816
 20
306.6420338536146
 30
0.0
 10
232.5164026808879
 20
305.5757246633622
 30
0.0
 10
231.6678022869651
 20
304.9772278771744
 30
0.0
 10
230.8918004114812
 20
304.7245769123411
 30
0.0
 10
230.2845936942172
 20
304.6604084429847
 30
0.0
 10
229.6763153331535
 20
304.7244039184971
 30
0.0
 10
228.899509609791
 20
304.9774951453529
 30
0.0
 10
228.0420861184771
 20
305.5755688445162
 30
0.0
 10
227.3729150173403
 20
306.6421855720874
 30
0.0
 10
227.1236097595465
 20
307.9098624688278
 30
0.0
 10
227.372985694697
 20
309.1780177666516
 30
0.0
 10
228.04167546189
 20
310.2454762325525
 30
0.0
 10
228.8983650210753
 20
310.8436268561874
 30
0.0
 10
229.6741806591817
 20
311.0963449152178
 30
0.0
 10
230.2815925281129
 20
311.1609677248945
 30
0.0
 10
230.889393781591
 20
311.0976173743621
 30
0.0
 10
231.6664389693428
 20
310.8451234969717
 30
0.0
 10
232.5162903330543
 20
310.2462650917288
 30
0.0
 10
233.2126967888121
 20
309.1790005222357
 30
0.0
 10
233.3092464813872
 20
308.3350495786691
 30
0.0
 10
233.3577927170822
 20
307.9107018637406
 30
0.0
  0
SPLINE
  5
1CF8
330
A
100
AcDbEntity
  8
MODEL
  6
Continuous
100
AcDbSpline
210
0.0
220
0.0
230
1.0
 70
    11
 71
     3
 72
    31
 73
    27
 74
     0
 42
0.000000001
 43
0.00000001
 40
0.0
 40
0.0
 40
0.0
 40
0.0
 40
0.0547671369686414
 40
0.0879443781958869
 40
0.125010931624476
 40
0.1630856221071142
 40
0.1966010367382092
 40
0.2500282408042475
 40
0.3034721587802995
 40
0.3369836692735574
 40
0.3750453801262181
 40
0.4121322562304406
 40
0.4453169030931556
 40
0.5000601808498509
 40
0.5547133042817936
 40
0.587866295539139
 40
0.6249309007260259
 40
0.6630341022478671
 40
0.6965858422142996
 40
0.7501070406315937
 40
0.8034859251103291
 40
0.836963272228647
 40
0.8749902329819366
 40
0.9120896900974043
 40
0.9452773361308291
 40
1.0
 40
1.0
 40
1.0
 40
1.0
 10
232.7824085919688
 20
307.9107018637406
 30
0.0
 10
232.7535177473792
 20
308.2014278153657
 30
0.0
 10
232.7071251933107
 20
308.6682718838393
 30
0.0
 10
232.4105679568993
 20
309.2571973011182
 30
0.0
 10
232.0624777251023
 20
309.6988408383132
 30
0.0
 10
231.6173301122067
 20
310.0488407653348
 30
0.0
 10
231.0267142077828
 20
310.3307365920692
 30
0.0
 10
230.2818333398827
 20
310.4599366557996
 30
0.0
 10
229.5371543484189
 20
310.3304370383749
 30
0.0
 10
228.9464798849458
 20
310.0482813390191
 30
0.0
 10
228.502119645435
 20
309.6980862355186
 30
0.0
 10
228.1517203521889
 20
309.2562148162298
 30
0.0
 10
227.8652505322707
 20
308.6671092026373
 30
0.0
 10
227.730732608592
 20
307.9101707151132
 30
0.0
 10
227.8655858326133
 20
307.1535370642197
 30
0.0
 10
228.1517795331401
 20
306.5651596759291
 30
0.0
 10
228.5020917605889
 20
306.1233283603052
 30
0.0
 10
228.9466999925903
 20
305.7729280339764
 30
0.0
 10
229.5382093674425
 20
305.4905466073161
 30
0.0
 10
230.2834205030777
 20
305.3614426683408
 30
0.0
 10
231.028096683207
 20
305.4911591367073
 30
0.0
 10
231.6179365927592
 20
305.7730007080901
 30
0.0
 10
232.0627880077104
 20
306.1228896336771
 30
0.0
 10
232.4108163126775
 20
306.5645557429199
 30
0.0
 10
232.7072207285978
 20
307.1535429048073
 30
0.0
 10
232.7535619650948
 20
307.620209741831
 30
0.0
 10
232.7824085919688
 20
307.9107018637406
 30
0.0
  0
DIMENSION
  5
1CF9
330
A
100
AcDbEntity
  8
DIM
100
AcDbDimension
  2
*D9
 10
487.2824078065366
 20
255.921141685171
 30
0.0
 11
356.2824078065391
 21
255.9211416851705
 31
0.0
 70
   160
 71
     2
 42
261.9999999999945
 73
     0
 74
     0
 75
     0
  3
tfrom線あり
100
AcDbAlignedDimension
 13
225.2824078065419
 23
298.8107019444015
 33
0.0
 14
487.2824078065364
 24
298.9107019444065
 34
0.0
 50
-179.9999999999998
100
AcDbRotatedDimension
  0
DIMENSION
  5
1CFA
330
A
100
AcDbEntity
  8
DIM
100
AcDbDimension
  2
*D10
 10
196.115596247806
 20
907.9107019444019
 30
0.0
 11
196.115596247806
 21
607.9107019444019
 31
0.0
 70
   160
 71
     2
 42
600.0
 73
     0
 74
     0
 75
     0
  3
tfrom線あり
100
AcDbAlignedDimension
 13
218.7824078065419
 23
307.9107019444019
 33
0.0
 14
218.7824078065421
 24
907.9107019444019
 34
0.0
 50
90.0
100
AcDbRotatedDimension
  0
LINE
  5
1E07
330
A
100
AcDbEntity
  8
DIM
  6
CENTER
 48
0.09
100
AcDbLine
 10
219.2820985006887
 20
307.9107009324181
 30
0.0
 11
231.2827180872023
 21
307.9107009324181
 31
0.0
  0
LINE
  5
1E08
330
A
100
AcDbEntity
  8
DIM
  6
CENTER
 48
0.305
100
AcDbLine
 10
221.6759435416065
 20
305.5356525579386
 30
0.0
 11
228.8888730462845
 21
305.5356525579386
 31
0.0
  0
LINE
  5
1E09
330
A
100
AcDbEntity
  8
DIM
  6
CENTER
 48
0.305
100
AcDbLine
 10
221.6759435416065
 20
310.2857493068975
 30
0.0
 11
228.8888730462845
 21
310.2857493068975
 31
0.0
  0
LINE
  5
1E11
330
A
100
AcDbEntity
  8
DIM
  6
CENTER
 48
0.305
100
AcDbLine
 10
221.6759435416068
 20
910.2857666294974
 30
0.0
 11
228.8888730462848
 21
910.2857666294974
 31
0.0
  0
LINE
  5
1E12
330
A
100
AcDbEntity
  8
DIM
  6
CENTER
 48
0.09
100
AcDbLine
 10
219.282098500689
 20
907.910718255018
 30
0.0
 11
231.2827180872026
 21
907.910718255018
 31
0.0
  0
LINE
  5
1E13
330
A
100
AcDbEntity
  8
DIM
  6
CENTER
 48
0.305
100
AcDbLine
 10
221.6759435416068
 20
905.5356698805385
 30
0.0
 11
228.8888730462848
 21
905.5356698805385
 31
0.0
  0
LINE
  5
1E14
102
{ACAD_REACTORS
330
1EA8
102
}
330
A
100
AcDbEntity
  8
DIM
  6
CENTER
 48
0.305
100
AcDbLine
 10
755.7730847465157
 20
1311.902448768889
 30
0.0
 11
755.7730847465157
 21
1304.689519264211
 31
0.0
  0
LINE
  5
1E15
102
{ACAD_REACTORS
330
1EA8
102
}
330
A
100
AcDbEntity
  8
DIM
  6
CENTER
 48
0.09
100
AcDbLine
 10
753.3980363720361
 20
1314.296293809806
 30
0.0
 11
753.3980363720361
 21
1302.295674223293
 31
0.0
  0
LINE
  5
1E16
102
{ACAD_REACTORS
330
1EA8
102
}
330
A
100
AcDbEntity
  8
DIM
  6
CENTER
 48
0.305
100
AcDbLine
 10
751.0229879975566
 20
1311.902448768889
 30
0.0
 11
751.0229879975566
 21
1304.689519264211
 31
0.0
  0
DIMENSION
  5
1E6C
102
{ACAD_REACTORS
330
1E6E
102
}
102
{ACAD_XDICTIONARY
360
1E6D
102
}
330
A
100
AcDbEntity
  8
DIM
100
AcDbDimension
  2
*D13
 10
718.4980370389734
 20
1008.291329685634
 30
0.0
 11
691.3440370389734
 21
1008.291329685634
 31
0.0
 70
   160
 71
     5
 42
18.0
 73
     0
 74
     1
 75
     1
  3
tfrom線あり
100
AcDbAlignedDimension
 13
736.4980370389734
 23
1055.314537695272
 33
0.0
 14
718.4980370389734
 24
1055.314537695272
 34
0.0
100
AcDbRotatedDimension
1001
ACAD
1000
DSTYLE
1002
{
1070
   172
1070
     1
1070
     3
1000
%%c<>
1070
   144
1040
1.0
1002
}
  0
DIMENSION
  5
1E8D
330
A
100
AcDbEntity
  8
DIM
100
AcDbDimension
  2
*D14
 10
753.3980363720361
 20
1336.250477646963
 30
0.0
 11
735.8980363720361
 21
1352.250477646963
 31
0.0
 70
    32
 71
     5
 42
35.0
 73
     0
 74
     0
 75
     0
  3
tfrom線あり
100
AcDbAlignedDimension
 13
718.3980363720361
 23
1308.29598401655
 33
0.0
 14
753.3980363720361
 24
1308.29598401655
 34
0.0
100
AcDbRotatedDimension
1001
ACAD
1000
DSTYLE
1002
{
1070
   144
1040
1.0
1002
}
  0
DIMENSION
  5
1E9A
330
A
100
AcDbEntity
  8
DIM
100
AcDbDimension
  2
*D15
 10
781.3980363720361
 20
1367.389675809532
 30
0.0
 11
749.8980363720361
 21
1383.389675809532
 31
0.0
 70
    32
 71
     5
 42
63.0
 73
     0
 74
     0
 75
     0
  3
tfrom線あり
100
AcDbAlignedDimension
 13
718.3980363720361
 23
1308.29598401655
 33
0.0
 14
781.3980363720361
 24
1308.29598401655
 34
0.0
100
AcDbRotatedDimension
1001
ACAD
1000
DSTYLE
1002
{
1070
   144
1040
1.0
1002
}
  0
LINE
  5
1EA9
102
{ACAD_REACTORS
330
1EAC
102
}
330
A
100
AcDbEntity
  8
DIM
  6
CENTER
 48
0.305
100
AcDbLine
 10
783.7730847465157
 20
1311.902448768889
 30
0.0
 11
783.7730847465157
 21
1304.689519264211
 31
0.0
  0
LINE
  5
1EAA
102
{ACAD_REACTORS
330
1EAC
102
}
330
A
100
AcDbEntity
  8
DIM
  6
CENTER
 48
0.09
100
AcDbLine
 10
781.3980363720361
 20
1314.296293809806
 30
0.0
 11
781.3980363720361
 21
1302.295674223293
 31
0.0
  0
LINE
  5
1EAB
102
{ACAD_REACTORS
330
1EAC
102
}
330
A
100
AcDbEntity
  8
DIM
  6
CENTER
 48
0.305
100
AcDbLine
 10
779.0229879975566
 20
1311.902448768889
 30
0.0
 11
779.0229879975566
 21
1304.689519264211
 31
0.0
  0
MTEXT
  5
1EC5
330
A
100
AcDbEntity
  8
TEMPLATE
390
1D
100
AcDbMText
 10
62.62717263801801
 20
93.24783122715866
 30
0.0
 40
12.21630859375
 41
0.0
 46
12.39955322265625
 71
     1
 72
     1
  1
{クローム}
  7
ＭＳ ゴシック
 73
     1
 44
0.9331787841240657
1001
ACAD
1000
ACAD_MTEXT_DEFINED_HEIGHT_BEGIN
1070
    46
1040
12.39955322265625
1000
ACAD_MTEXT_DEFINED_HEIGHT_END
  0
VIEWPORT
  5
349
330
B
100
AcDbEntity
 67
     1
  8
0
100
AcDbViewport
 10
202.5
 20
128.5
 30
0.0
 40
486.0
 41
308.4
 68
     1
 69
     1
 12
202.5
 22
128.5
 13
0.0
 23
0.0
 14
0.5
 24
0.5
 15
0.0
 25
0.0
 16
0.0
 26
0.0
 36
1.0
 17
0.0
 27
0.0
 37
0.0
 42
50.0
 43
0.0
 44
0.0
 45
308.4
 50
0.0
 51
0.0
 72
   100
 90
   557152
  1

281
     0
 71
     1
 74
     0
110
0.0
120
0.0
130
0.0
111
1.0
121
0.0
131
0.0
112
0.0
122
1.0
132
0.0
 79
     0
146
0.0
170
     0
 61
     5
348
26C
292
     1
282
     1
141
0.0
142
0.0
 63
   256
  0
VIEWPORT
  5
34A
330
B
100
AcDbEntity
 67
     1
  8
0
100
AcDbViewport
 10
202.5
 20
128.5
 30
0.0
 40
324.0
 41
205.6
 68
     2
 69
     2
 12
986.6781359294573
 22
1427.077061889956
 13
0.0
 23
0.0
 14
0.5
 24
0.5
 15
0.0
 25
0.0
 16
0.0
 26
0.0
 36
1.0
 17
0.0
 27
0.0
 37
0.0
 42
50.0
 43
0.0
 44
0.0
 45
2890.021615685494
 50
0.0
 51
0.0
 72
   100
 90
   557152
  1

281
     0
 71
     1
 74
     0
110
0.0
120
0.0
130
0.0
111
1.0
121
0.0
131
0.0
112
0.0
122
1.0
132
0.0
 79
     0
146
0.0
170
     0
 61
     5
348
26C
292
     1
282
     1
141
0.0
142
0.0
 63
   256
  0
ENDSEC
  0
SECTION
  2
OBJECTS
  0
DICTIONARY
  5
19
330
0
100
AcDbDictionary
281
     1
  3
ACAD_COLOR
350
674
  3
ACAD_DETAILVIEWSTYLE
350
BBF
  3
ACAD_FIELDLIST
350
16CE
  3
ACAD_GROUP
350
1A
  3
ACAD_IMAGE_VARS
350
27B
  3
ACAD_LAYOUT
350
1E
  3
ACAD_MATERIAL
350
263
  3
ACAD_MLEADERSTYLE
350
336
  3
ACAD_MLINESTYLE
350
1B
  3
ACAD_PLOTSETTINGS
350
22
  3
ACAD_PLOTSTYLENAME
350
1F
  3
ACAD_SCALELIST
350
241
  3
ACAD_SECTIONVIEWSTYLE
350
BC0
  3
ACAD_TABLESTYLE
350
278
  3
ACAD_VISUALSTYLE
350
267
  3
ACDB_RECOMPOSE_DATA
350
1ECE
  3
AcDbVariableDictionary
350
330
  3
APPDATA
350
27A
  3
CENTERLINE
350
1E0F
  3
DimOffsetDictionary
350
E38
  0
SUN
  5
904
330
15
100
AcDbSun
 90
        1
290
     0
 63
     7
421
 16777215
 40
1.0
291
     1
 91
  2455826
 92
 54000000
292
     0
 70
     2
 71
   256
280
     1
  0
DICTIONARY
  5
2E1
330
2
100
AcDbDictionary
280
     1
281
     1
  3
ACAD_LAYERSTATES
360
2E2
  3
ACLYDICTIONARY
360
DDE
  0
DICTIONARY
  5
16F1
330
16F0
100
AcDbDictionary
280
     1
281
     1
  3
ACAD_FIELD
360
16F2
  0
DICTIONARY
  5
1E6D
330
1E6C
100
AcDbDictionary
280
     1
281
     1
  3
ACAD_DIMASSOC
360
1E6E
  0
DICTIONARY
  5
674
102
{ACAD_REACTORS
330
19
102
}
330
19
100
AcDbDictionary
281
     1
  0
DICTIONARY
  5
BBF
102
{ACAD_REACTORS
330
19
102
}
330
19
100
AcDbDictionary
281
     1
  0
FIELDLIST
  5
16CE
102
{ACAD_REACTORS
330
19
102
}
330
19
100
AcDbIdSet
 90
        1
330
16F3
100
AcDbFieldList
  0
DICTIONARY
  5
1A
102
{ACAD_REACTORS
330
19
102
}
330
19
100
AcDbDictionary
281
     1
  3
*A1
350
1EA8
  3
*A2
350
1EAC
  0
RASTERVARIABLES
  5
27B
102
{ACAD_REACTORS
330
19
102
}
330
19
100
AcDbRasterVariables
 90
        0
 70
     1
 71
     1
 72
     1
  0
DICTIONARY
  5
1E
102
{ACAD_REACTORS
330
19
102
}
330
19
100
AcDbDictionary
281
     1
  3
Layout1
350
21
  3
Model
350
20
  0
DICTIONARY
  5
263
102
{ACAD_REACTORS
330
19
102
}
330
19
100
AcDbDictionary
281
     1
  3
ByBlock
350
265
  3
ByLayer
350
264
  3
Global
350
266
  0
DICTIONARY
  5
336
102
{ACAD_REACTORS
330
19
102
}
330
19
100
AcDbDictionary
281
     1
  3
Standard
350
D59
  0
DICTIONARY
  5
1B
102
{ACAD_REACTORS
330
19
102
}
330
19
100
AcDbDictionary
281
     1
  3
Standard
350
1C
  0
DICTIONARY
  5
22
102
{ACAD_REACTORS
330
19
102
}
330
19
100
AcDbDictionary
281
     1
  0
ACDBDICTIONARYWDFLT
  5
1F
102
{ACAD_REACTORS
330
19
102
}
330
19
100
AcDbDictionary
281
     1
  3
Normal
350
1D
100
AcDbDictionaryWithDefault
340
1D
  0
DICTIONARY
  5
241
102
{ACAD_REACTORS
330
19
102
}
330
19
100
AcDbDictionary
281
     1
  3
A0
350
242
  3
A1
350
243
  3
A2
350
244
  3
A3
350
245
  3
A4
350
246
  3
A5
350
247
  3
A6
350
248
  3
A7
350
249
  3
A8
350
24A
  3
A9
350
24B
  3
B0
350
24C
  3
B1
350
24D
  3
B2
350
24E
  3
B3
350
24F
  3
B4
350
250
  3
B5
350
251
  3
B6
350
252
  3
B7
350
253
  3
B8
350
254
  3
B9
350
255
  3
C0
350
256
  3
C1
350
257
  3
C2
350
258
  3
C3
350
259
  3
C4
350
25A
  3
C5
350
25B
  3
C6
350
25C
  3
C7
350
25D
  3
C8
350
25E
  3
C9
350
25F
  3
D0
350
260
  3
D1
350
261
  3
D2
350
262
  0
DICTIONARY
  5
BC0
102
{ACAD_REACTORS
330
19
102
}
330
19
100
AcDbDictionary
281
     1
  0
DICTIONARY
  5
278
102
{ACAD_REACTORS
330
19
102
}
330
19
100
AcDbDictionary
281
     1
  3
Standard
350
279
  0
DICTIONARY
  5
267
102
{ACAD_REACTORS
330
19
102
}
330
19
100
AcDbDictionary
281
     1
  3
*A1
350
1E0A
  3
2dWireframe
350
26C
  3
3D Hidden
350
26E
  3
3dWireframe
350
26D
  3
Basic
350
26F
  3
Brighten
350
273
  3
ColorChange
350
277
  3
Conceptual
350
271
  3
Dim
350
272
  3
EdgeColorOff
350
8FE
  3
Facepattern
350
276
  3
Flat
350
268
  3
FlatWithEdges
350
269
  3
Gouraud
350
26A
  3
GouraudWithEdges
350
26B
  3
Hidden
350
8FB
  3
JitterOff
350
8FC
  3
Linepattern
350
275
  3
OverhangOff
350
8FD
  3
Realistic
350
270
  3
Shaded
350
903
  3
Shaded with edges
350
902
  3
Shades of Gray
350
8FF
  3
Sketchy
350
900
  3
Thicken
350
274
  3
Wireframe
350
8FA
  3
X-Ray
350
901
  0
XRECORD
  5
1ECE
102
{ACAD_REACTORS
330
19
102
}
330
19
100
AcDbXrecord
280
     1
 90
        1
330
279
  0
DICTIONARY
  5
330
102
{ACAD_REACTORS
330
19
102
}
330
19
100
AcDbDictionary
281
     1
  3
CANNOSCALE
350
331
  3
CMLEADERSTYLE
350
D5E
  3
CTABLESTYLE
350
335
  3
HPTRANSPARENCY
350
D52
  3
XCLIPFRAME
350
896
  0
DICTIONARY
  5
27A
102
{ACAD_REACTORS
330
19
102
}
330
19
100
AcDbDictionary
281
     1
  0
DICTIONARY
  5
1E0F
102
{ACAD_REACTORS
330
19
102
}
330
19
100
AcDbDictionary
281
     1
  3
CLEXTENSION
350
1E10
  0
DICTIONARY
  5
E38
102
{ACAD_REACTORS
330
19
102
}
330
19
100
AcDbDictionary
281
     1
  3
DIMRAILANGLE
350
1E0D
  3
DIMRAILFIRSTOFFSET
350
1E0B
  3
DIMRAILOFFSET
350
1E0C
  3
DIMRAILSENABLED
350
1E0E
  0
DICTIONARY
  5
2E2
102
{ACAD_REACTORS
330
2E1
102
}
330
2E1
100
AcDbDictionary
281
     1
  0
DICTIONARY
  5
DDE
102
{ACAD_REACTORS
330
2E1
102
}
330
2E1
100
AcDbDictionary
281
     1
1001
ACAD
1000
<All
  0
DICTIONARY
  5
16F2
102
{ACAD_REACTORS
330
16F1
102
}
330
16F1
100
AcDbDictionary
280
     1
281
     1
  3
TEXT
360
16F3
  0
DIMASSOC
  5
1E6E
102
{ACAD_REACTORS
330
1E6D
102
}
330
1E6D
100
AcDbDimAssoc
330
1E6C
 90
        0
 70
     0
 71
     1
  0
GROUP
  5
1EA8
102
{ACAD_REACTORS
330
1A
102
}
330
1A
100
AcDbGroup
300

 70
     1
 71
     1
340
1E14
340
1E15
340
1E16
  0
GROUP
  5
1EAC
102
{ACAD_REACTORS
330
1A
102
}
330
1A
100
AcDbGroup
300

 70
     1
 71
     1
340
1EA9
340
1EAA
340
1EAB
  0
LAYOUT
  5
21
102
{ACAD_REACTORS
330
1E
102
}
330
1E
100
AcDbPlotSettings
  1

  2
none_device
  4
ISO_A3_(420.00_x_297.00_MM)
  6

 40
7.5
 41
20.0
 42
7.5
 43
20.0
 44
420.0
 45
297.0
 46
0.0
 47
0.0
 48
0.0
 49
0.0
140
0.0
141
0.0
142
1.0
143
1.0
 70
     0
 72
     1
 73
     0
 74
     0
  7

 75
     0
 76
     0
 77
     2
 78
   300
147
1.0
148
0.0
149
0.0
100
AcDbLayout
  1
Layout1
 70
     0
 71
     0
 10
-7.5
 20
-20.0
 11
412.5
 21
277.0
 12
0.0
 22
0.0
 32
0.0
 14
0.0
 24
0.0
 34
0.0
 15
0.0
 25
0.0
 35
0.0
146
0.0
 13
0.0
 23
0.0
 33
0.0
 16
0.0
 26
0.0
 36
0.0
 17
0.0
 27
0.0
 37
0.0
 76
     0
330
B
331
349
  0
LAYOUT
  5
20
102
{ACAD_REACTORS
330
1E
102
}
330
1E
100
AcDbPlotSettings
  1

  2
none_device
  4
ISO_A3_(420.00_x_297.00_MM)
  6

 40
7.5
 41
20.0
 42
7.5
 43
20.0
 44
420.0
 45
297.0
 46
0.0
 47
0.0
 48
0.0
 49
0.0
140
0.0
141
0.0
142
1.0
143
1.0
 70
  1024
 72
     1
 73
     0
 74
     0
  7

 75
     0
 76
     0
 77
     2
 78
   300
147
1.0
148
0.0
149
0.0
100
AcDbLayout
  1
Model
 70
     0
 71
     1
 10
0.0
 20
0.0
 11
1050.0
 21
1485.0
 12
0.0
 22
0.0
 32
0.0
 14
0.0
 24
0.0
 34
-0.0000000000000142
 15
1050.0
 25
1485.0
 35
0.0000000000000142
146
0.0
 13
0.0
 23
0.0
 33
0.0
 16
0.0
 26
0.0
 36
0.0
 17
0.0
 27
0.0
 37
0.0
 76
     0
330
A
331
15
  0
MATERIAL
  5
265
102
{ACAD_REACTORS
330
263
102
}
330
263
100
AcDbMaterial
  1
ByBlock
 72
     1
 94
      127
  0
MATERIAL
  5
264
102
{ACAD_REACTORS
330
263
102
}
330
263
100
AcDbMaterial
  1
ByLayer
 72
     1
 94
      127
  0
MATERIAL
  5
266
102
{ACAD_REACTORS
330
263
102
}
330
263
100
AcDbMaterial
  1
Global
 72
     1
 94
      127
  0
MLEADERSTYLE
  5
D59
102
{ACAD_REACTORS
330
336
102
}
330
336
100
AcDbMLeaderStyle
170
     2
171
     1
172
     0
 90
        2
 40
0.0
 41
0.0
173
     1
 91
-1056964608
340
11
 92
       -2
290
     1
 42
2.0
291
     1
 43
8.0
  3
Standard
341
0
 44
4.0
300

342
17
174
     1
178
     6
175
     1
176
     0
 93
-1056964608
 45
4.0
292
     0
297
     0
 46
4.0
343
0
 94
-1056964608
 47
1.0
 49
1.0
140
1.0
293
     1
141
0.0
294
     1
177
     0
142
1.0
295
     0
296
     0
143
3.75
1001
ACAD_MLEADERVER
1070
     2
  0
MLINESTYLE
  5
1C
102
{ACAD_REACTORS
330
1B
102
}
330
1B
100
AcDbMlineStyle
  2
Standard
 70
     0
  3

 62
     0
 51
90.0
 52
90.0
 71
     2
 49
0.5
 62
   256
  6
BYLAYER
 49
-0.5
 62
   256
  6
BYLAYER
  0
ACDBPLACEHOLDER
  5
1D
102
{ACAD_REACTORS
330
1F
102
}
330
1F
  0
SCALE
  5
242
102
{ACAD_REACTORS
330
241
102
}
330
241
100
AcDbScale
 70
     0
300
1:1
140
1.0
141
1.0
290
     1
  0
SCALE
  5
243
102
{ACAD_REACTORS
330
241
102
}
330
241
100
AcDbScale
 70
     0
300
1:2
140
1.0
141
2.0
290
     0
  0
SCALE
  5
244
102
{ACAD_REACTORS
330
241
102
}
330
241
100
AcDbScale
 70
     0
300
1:4
140
1.0
141
4.0
290
     0
  0
SCALE
  5
245
102
{ACAD_REACTORS
330
241
102
}
330
241
100
AcDbScale
 70
     0
300
1:5
140
1.0
141
5.0
290
     0
  0
SCALE
  5
246
102
{ACAD_REACTORS
330
241
102
}
330
241
100
AcDbScale
 70
     0
300
1:8
140
1.0
141
8.0
290
     0
  0
SCALE
  5
247
102
{ACAD_REACTORS
330
241
102
}
330
241
100
AcDbScale
 70
     0
300
1:10
140
1.0
141
10.0
290
     0
  0
SCALE
  5
248
102
{ACAD_REACTORS
330
241
102
}
330
241
100
AcDbScale
 70
     0
300
1:16
140
1.0
141
16.0
290
     0
  0
SCALE
  5
249
102
{ACAD_REACTORS
330
241
102
}
330
241
100
AcDbScale
 70
     0
300
1:20
140
1.0
141
20.0
290
     0
  0
SCALE
  5
24A
102
{ACAD_REACTORS
330
241
102
}
330
241
100
AcDbScale
 70
     0
300
1:30
140
1.0
141
30.0
290
     0
  0
SCALE
  5
24B
102
{ACAD_REACTORS
330
241
102
}
330
241
100
AcDbScale
 70
     0
300
1:40
140
1.0
141
40.0
290
     0
  0
SCALE
  5
24C
102
{ACAD_REACTORS
330
241
102
}
330
241
100
AcDbScale
 70
     0
300
1:50
140
1.0
141
50.0
290
     0
  0
SCALE
  5
24D
102
{ACAD_REACTORS
330
241
102
}
330
241
100
AcDbScale
 70
     0
300
1:100
140
1.0
141
100.0
290
     0
  0
SCALE
  5
24E
102
{ACAD_REACTORS
330
241
102
}
330
241
100
AcDbScale
 70
     0
300
2:1
140
2.0
141
1.0
290
     0
  0
SCALE
  5
24F
102
{ACAD_REACTORS
330
241
102
}
330
241
100
AcDbScale
 70
     0
300
4:1
140
4.0
141
1.0
290
     0
  0
SCALE
  5
250
102
{ACAD_REACTORS
330
241
102
}
330
241
100
AcDbScale
 70
     0
300
8:1
140
8.0
141
1.0
290
     0
  0
SCALE
  5
251
102
{ACAD_REACTORS
330
241
102
}
330
241
100
AcDbScale
 70
     0
300
10:1
140
10.0
141
1.0
290
     0
  0
SCALE
  5
252
102
{ACAD_REACTORS
330
241
102
}
330
241
100
AcDbScale
 70
     0
300
100:1
140
100.0
141
1.0
290
     0
  0
SCALE
  5
253
102
{ACAD_REACTORS
330
241
102
}
330
241
100
AcDbScale
 70
     0
300
1/128" = 1'-0"
140
0.0078125
141
12.0
290
     0
  0
SCALE
  5
254
102
{ACAD_REACTORS
330
241
102
}
330
241
100
AcDbScale
 70
     0
300
1/64" = 1'-0"
140
0.015625
141
12.0
290
     0
  0
SCALE
  5
255
102
{ACAD_REACTORS
330
241
102
}
330
241
100
AcDbScale
 70
     0
300
1/32" = 1'-0"
140
0.03125
141
12.0
290
     0
  0
SCALE
  5
256
102
{ACAD_REACTORS
330
241
102
}
330
241
100
AcDbScale
 70
     0
300
1/16" = 1'-0"
140
0.0625
141
12.0
290
     0
  0
SCALE
  5
257
102
{ACAD_REACTORS
330
241
102
}
330
241
100
AcDbScale
 70
     0
300
3/32" = 1'-0"
140
0.09375
141
12.0
290
     0
  0
SCALE
  5
258
102
{ACAD_REACTORS
330
241
102
}
330
241
100
AcDbScale
 70
     0
300
1/8" = 1'-0"
140
0.125
141
12.0
290
     0
  0
SCALE
  5
259
102
{ACAD_REACTORS
330
241
102
}
330
241
100
AcDbScale
 70
     0
300
3/16" = 1'-0"
140
0.1875
141
12.0
290
     0
  0
SCALE
  5
25A
102
{ACAD_REACTORS
330
241
102
}
330
241
100
AcDbScale
 70
     0
300
1/4" = 1'-0"
140
0.25
141
12.0
290
     0
  0
SCALE
  5
25B
102
{ACAD_REACTORS
330
241
102
}
330
241
100
AcDbScale
 70
     0
300
3/8" = 1'-0"
140
0.375
141
12.0
290
     0
  0
SCALE
  5
25C
102
{ACAD_REACTORS
330
241
102
}
330
241
100
AcDbScale
 70
     0
300
1/2" = 1'-0"
140
0.5
141
12.0
290
     0
  0
SCALE
  5
25D
102
{ACAD_REACTORS
330
241
102
}
330
241
100
AcDbScale
 70
     0
300
3/4" = 1'-0"
140
0.75
141
12.0
290
     0
  0
SCALE
  5
25E
102
{ACAD_REACTORS
330
241
102
}
330
241
100
AcDbScale
 70
     0
300
1" = 1'-0"
140
1.0
141
12.0
290
     0
  0
SCALE
  5
25F
102
{ACAD_REACTORS
330
241
102
}
330
241
100
AcDbScale
 70
     0
300
1-1/2" = 1'-0"
140
1.5
141
12.0
290
     0
  0
SCALE
  5
260
102
{ACAD_REACTORS
330
241
102
}
330
241
100
AcDbScale
 70
     0
300
3" = 1'-0"
140
3.0
141
12.0
290
     0
  0
SCALE
  5
261
102
{ACAD_REACTORS
330
241
102
}
330
241
100
AcDbScale
 70
     0
300
6" = 1'-0"
140
6.0
141
12.0
290
     0
  0
SCALE
  5
262
102
{ACAD_REACTORS
330
241
102
}
330
241
100
AcDbScale
 70
     0
300
1'-0" = 1'-0"
140
12.0
141
12.0
290
     0
  0
TABLESTYLE
  5
279
102
{ACAD_REACTORS
330
278
102
}
102
{ACAD_XDICTIONARY
360
1ECC
102
}
330
278
100
AcDbTableStyle
  3
Standard
 70
     0
 71
     0
 40
0.06
 41
0.06
280
     0
281
     0
  7
Standard
140
4.5
170
     2
 62
     0
 63
   257
283
     0
 90
        4
 91
        0
  1

274
    -2
284
     1
 64
     0
275
    -2
285
     1
 65
     0
276
    -2
286
     1
 66
     0
277
    -2
287
     1
 67
     0
278
    -2
288
     1
 68
     0
279
    -2
289
     1
 69
     0
  7
Standard
140
6.0
170
     5
 62
     0
 63
   257
283
     0
 90
        4
 91
        0
  1

274
    -2
284
     1
 64
     0
275
    -2
285
     1
 65
     0
276
    -2
286
     1
 66
     0
277
    -2
287
     1
 67
     0
278
    -2
288
     1
 68
     0
279
    -2
289
     1
 69
     0
  7
Standard
140
4.5
170
     5
 62
     0
 63
   257
283
     0
 90
        4
 91
        0
  1

274
    -2
284
     1
 64
     0
275
    -2
285
     1
 65
     0
276
    -2
286
     1
 66
     0
277
    -2
287
     1
 67
     0
278
    -2
288
     1
 68
     0
279
    -2
289
     1
 69
     0
  0
VISUALSTYLE
  5
1E0A
102
{ACAD_REACTORS
330
267
102
}
330
267
100
AcDbVisualStyle
  2
*
 70
    10
 71
     0
 72
     2
 73
     0
 90
        0
 40
-0.6
 41
-30.0
 62
     5
 63
     7
421
 16777215
 74
     1
 91
        4
 64
     7
 65
   257
 75
     1
175
     1
 42
1.0
 92
        8
 66
     7
 43
1.0
 76
     1
 77
     6
 78
     2
 67
     7
 79
     5
170
     0
171
     0
290
     0
174
     0
 93
        1
 44
0.0
173
     0
291
     0
 45
0.0
  0
VISUALSTYLE
  5
26C
102
{ACAD_REACTORS
330
267
102
}
330
267
100
AcDbVisualStyle
  2
2dWireframe
 70
     4
 71
     0
 72
     2
 73
     0
 90
        0
 40
-0.6
 41
-30.0
 62
     5
 63
     7
421
 16777215
 74
     1
 91
        4
 64
     7
 65
   257
 75
     1
175
     1
 42
1.0
 92
        0
 66
   257
 43
1.0
 76
     1
 77
     6
 78
     2
 67
     7
 79
     5
170
     0
171
     0
290
     0
174
     0
 93
        1
 44
0.0
173
     0
291
     0
 45
0.0
  0
VISUALSTYLE
  5
26E
102
{ACAD_REACTORS
330
267
102
}
330
267
100
AcDbVisualStyle
  2
3D Hidden
 70
     6
 71
     1
 72
     2
 73
     2
 90
        0
 40
-0.6
 41
-30.0
 62
     5
 63
     7
421
 16777215
 74
     2
 91
        2
 64
     7
 65
   257
 75
     2
175
     1
 42
40.0
 92
        0
 66
   257
 43
1.0
 76
     1
 77
     6
 78
     2
 67
     7
 79
     3
170
     0
171
     0
290
     0
174
     0
 93
        1
 44
0.0
173
     0
291
     0
 45
0.0
  0
VISUALSTYLE
  5
26D
102
{ACAD_REACTORS
330
267
102
}
330
267
100
AcDbVisualStyle
  2
3dWireframe
 70
     5
 71
     0
 72
     2
 73
     0
 90
        0
 40
-0.6
 41
-30.0
 62
     5
 63
     7
421
 16777215
 74
     1
 91
        4
 64
     7
 65
   257
 75
     1
175
     1
 42
1.0
 92
        0
 66
   257
 43
1.0
 76
     1
 77
     6
 78
     2
 67
     7
 79
     5
170
     0
171
     0
290
     0
174
     0
 93
        1
 44
0.0
173
     0
291
     0
 45
0.0
  0
VISUALSTYLE
  5
26F
102
{ACAD_REACTORS
330
267
102
}
330
267
100
AcDbVisualStyle
  2
Basic
 70
     7
 71
     1
 72
     0
 73
     1
 90
        0
 40
-0.6
 41
-30.0
 62
     5
 63
     7
421
 16777215
 74
     0
 91
        4
 64
     7
 65
   257
 75
     1
175
     1
 42
1.0
 92
        8
 66
     7
 43
1.0
 76
     1
 77
     6
 78
     2
 67
     7
 79
     5
170
     0
171
     0
290
     0
174
     0
 93
        1
 44
0.0
173
     0
291
     1
 45
0.0
  0
VISUALSTYLE
  5
273
102
{ACAD_REACTORS
330
267
102
}
330
267
100
AcDbVisualStyle
  2
Brighten
 70
    12
 71
     2
 72
     2
 73
     0
 90
        0
 40
-0.6
 41
-30.0
 62
     5
 63
     7
421
 16777215
 74
     1
 91
        4
 64
     7
 65
   257
 75
     1
175
     1
 42
1.0
 92
        8
 66
     7
 43
1.0
 76
     1
 77
     6
 78
     2
 67
     7
 79
     5
170
     0
171
     0
290
     0
174
     0
 93
        1
 44
50.0
173
     0
291
     1
 45
0.0
  0
VISUALSTYLE
  5
277
102
{ACAD_REACTORS
330
267
102
}
330
267
100
AcDbVisualStyle
  2
ColorChange
 70
    16
 71
     2
 72
     2
 73
     3
 90
        0
 40
-0.6
 41
-30.0
 62
     5
 63
     8
421
  8421504
 74
     1
 91
        4
 64
     7
 65
   257
 75
     1
175
     1
 42
1.0
 92
        8
 66
     8
424
  8421504
 43
1.0
 76
     1
 77
     6
 78
     2
 67
     7
 79
     5
170
     0
171
     0
290
     0
174
     0
 93
        1
 44
0.0
173
     0
291
     1
 45
0.0
  0
VISUALSTYLE
  5
271
102
{ACAD_REACTORS
330
267
102
}
330
267
100
AcDbVisualStyle
  2
Conceptual
 70
     9
 71
     3
 72
     2
 73
     0
 90
        0
 40
-0.6
 41
-30.0
 62
     5
 63
     7
421
 16777215
 74
     2
 91
        2
 64
     7
 65
   257
 75
     1
175
     1
 42
40.0
 92
        8
 66
     7
 43
1.0
 76
     1
 77
     6
 78
     2
 67
     7
 79
     3
170
     0
171
     0
290
     0
174
     0
 93
        1
 44
0.0
173
     0
291
     0
 45
0.0
  0
VISUALSTYLE
  5
272
102
{ACAD_REACTORS
330
267
102
}
330
267
100
AcDbVisualStyle
  2
Dim
 70
    11
 71
     2
 72
     2
 73
     0
 90
        0
 40
-0.6
 41
-30.0
 62
     5
 63
     7
421
 16777215
 74
     1
 91
        4
 64
     7
 65
   257
 75
     1
175
     1
 42
1.0
 92
        8
 66
     7
 43
1.0
 76
     1
 77
     6
 78
     2
 67
     7
 79
     5
170
     0
171
     0
290
     0
174
     0
 93
        1
 44
-50.0
173
     0
291
     1
 45
0.0
  0
VISUALSTYLE
  5
8FE
102
{ACAD_REACTORS
330
267
102
}
330
267
100
AcDbVisualStyle
  2
EdgeColorOff
 70
    22
 71
     2
 72
     2
 73
     0
 90
        0
 40
0.6
 41
30.0
 62
     5
 63
     7
421
 16777215
 74
     1
 91
        4
 64
     7
 65
   257
 75
     1
175
     1
 42
1.0
 92
        8
 66
     7
 43
1.0
 76
     1
 77
     6
 78
     2
 67
     7
 79
     5
170
     0
171
     0
290
     0
174
     0
 93
        1
 44
0.0
173
     0
291
     1
 45
0.0
  0
VISUALSTYLE
  5
276
102
{ACAD_REACTORS
330
267
102
}
330
267
100
AcDbVisualStyle
  2
Facepattern
 70
    15
 71
     2
 72
     2
 73
     0
 90
        0
 40
-0.6
 41
-30.0
 62
     5
 63
     7
421
 16777215
 74
     1
 91
        4
 64
     7
 65
   257
 75
     1
175
     1
 42
1.0
 92
        8
 66
     7
 43
1.0
 76
     1
 77
     6
 78
     2
 67
     7
 79
     5
170
     0
171
     0
290
     0
174
     0
 93
        1
 44
0.0
173
     0
291
     1
 45
0.0
  0
VISUALSTYLE
  5
268
102
{ACAD_REACTORS
330
267
102
}
330
267
100
AcDbVisualStyle
  2
Flat
 70
     0
 71
     2
 72
     1
 73
     1
 90
        2
 40
-0.6
 41
30.0
 62
     5
 63
     7
421
 16777215
 74
     0
 91
        4
 64
     7
 65
   257
 75
     1
175
     1
 42
1.0
 92
        8
 66
     7
 43
1.0
 76
     1
 77
     6
 78
     2
 67
     7
 79
     5
170
     0
171
     0
290
     0
174
     0
 93
       13
 44
0.0
173
     0
291
     1
 45
0.0
  0
VISUALSTYLE
  5
269
102
{ACAD_REACTORS
330
267
102
}
330
267
100
AcDbVisualStyle
  2
FlatWithEdges
 70
     1
 71
     2
 72
     1
 73
     1
 90
        2
 40
-0.6
 41
30.0
 62
     5
 63
     7
421
 16777215
 74
     1
 91
        4
 64
     7
 65
   257
 75
     1
175
     1
 42
1.0
 92
        0
 66
   257
 43
1.0
 76
     1
 77
     6
 78
     2
 67
     7
 79
     5
170
     0
171
     0
290
     0
174
     0
 93
       13
 44
0.0
173
     0
291
     1
 45
0.0
  0
VISUALSTYLE
  5
26A
102
{ACAD_REACTORS
330
267
102
}
330
267
100
AcDbVisualStyle
  2
Gouraud
 70
     2
 71
     2
 72
     2
 73
     1
 90
        2
 40
-0.6
 41
30.0
 62
     5
 63
     7
421
 16777215
 74
     0
 91
        4
 64
     7
 65
   257
 75
     1
175
     1
 42
1.0
 92
        0
 66
     7
 43
1.0
 76
     1
 77
     6
 78
     2
 67
     7
 79
     5
170
     0
171
     0
290
     0
174
     0
 93
       13
 44
0.0
173
     0
291
     1
 45
0.0
  0
VISUALSTYLE
  5
26B
102
{ACAD_REACTORS
330
267
102
}
330
267
100
AcDbVisualStyle
  2
GouraudWithEdges
 70
     3
 71
     2
 72
     2
 73
     1
 90
        2
 40
-0.6
 41
30.0
 62
     5
 63
     7
421
 16777215
 74
     1
 91
        4
 64
     7
 65
   257
 75
     1
175
     1
 42
1.0
 92
        0
 66
   257
 43
1.0
 76
     1
 77
     6
 78
     2
 67
     7
 79
     5
170
     0
171
     0
290
     0
174
     0
 93
       13
 44
0.0
173
     0
291
     1
 45
0.0
  0
VISUALSTYLE
  5
8FB
102
{ACAD_REACTORS
330
267
102
}
330
267
100
AcDbVisualStyle
  2
Hidden
 70
     6
 71
     1
 72
     2
 73
     2
 90
        0
 40
0.6
 41
30.0
 62
     5
 63
     7
421
 16777215
 74
     2
 91
        2
 64
     7
 65
   257
 75
     2
175
     1
 42
40.0
 92
        0
 66
   257
 43
1.0
 76
     1
 77
     6
 78
     2
 67
     7
 79
     3
170
     0
171
     0
290
     0
174
     0
 93
        1
 44
0.0
173
     0
291
     0
 45
0.0
  0
VISUALSTYLE
  5
8FC
102
{ACAD_REACTORS
330
267
102
}
330
267
100
AcDbVisualStyle
  2
JitterOff
 70
    20
 71
     2
 72
     2
 73
     0
 90
        0
 40
0.6
 41
30.0
 62
     5
 63
     7
421
 16777215
 74
     1
 91
        4
 64
     7
 65
   257
 75
     1
175
     1
 42
1.0
 92
       10
 66
     7
 43
1.0
 76
     1
 77
     6
 78
     2
 67
     7
 79
     5
170
     0
171
     0
290
     0
174
     0
 93
        1
 44
0.0
173
     0
291
     1
 45
0.0
  0
VISUALSTYLE
  5
275
102
{ACAD_REACTORS
330
267
102
}
330
267
100
AcDbVisualStyle
  2
Linepattern
 70
    14
 71
     2
 72
     2
 73
     0
 90
        0
 40
-0.6
 41
-30.0
 62
     5
 63
     7
421
 16777215
 74
     1
 91
        4
 64
     7
 65
   257
 75
     7
175
     7
 42
1.0
 92
        8
 66
     7
 43
1.0
 76
     1
 77
     6
 78
     2
 67
     7
 79
     5
170
     0
171
     0
290
     0
174
     0
 93
        1
 44
0.0
173
     0
291
     1
 45
0.0
  0
VISUALSTYLE
  5
8FD
102
{ACAD_REACTORS
330
267
102
}
330
267
100
AcDbVisualStyle
  2
OverhangOff
 70
    21
 71
     2
 72
     2
 73
     0
 90
        0
 40
0.6
 41
30.0
 62
     5
 63
     7
421
 16777215
 74
     1
 91
        4
 64
     7
 65
   257
 75
     1
175
     1
 42
1.0
 92
        9
 66
     7
 43
1.0
 76
     1
 77
     6
 78
     2
 67
     7
 79
     5
170
     0
171
     0
290
     0
174
     0
 93
        1
 44
0.0
173
     0
291
     1
 45
0.0
  0
VISUALSTYLE
  5
270
102
{ACAD_REACTORS
330
267
102
}
330
267
100
AcDbVisualStyle
  2
Realistic
 70
     8
 71
     2
 72
     2
 73
     0
 90
        0
 40
-0.6
 41
-30.0
 62
     5
 63
     7
421
 16777215
 74
     1
 91
        0
 64
     7
 65
   257
 75
     1
175
     1
 42
1.0
 92
        8
 66
     8
424
  7895160
 43
1.0
 76
     1
 77
     6
 78
     2
 67
     7
 79
     5
170
     0
171
     0
290
     0
174
     0
 93
       13
 44
0.0
173
     0
291
     0
 45
0.0
  0
VISUALSTYLE
  5
903
102
{ACAD_REACTORS
330
267
102
}
330
267
100
AcDbVisualStyle
  2
Shaded
 70
    27
 71
     2
 72
     2
 73
     1
 90
        2
 40
0.6
 41
30.0
 62
     5
 63
     7
421
 16777215
 74
     0
 91
        4
 64
     7
 65
   257
 75
     1
175
     1
 42
1.0
 92
        8
 66
   257
 43
1.0
 76
     1
 77
     6
 78
     2
 67
     8
425
  7895160
 79
     3
170
     0
171
     0
290
     0
174
     0
 93
        5
 44
0.0
173
     0
291
     0
 45
0.0
  0
VISUALSTYLE
  5
902
102
{ACAD_REACTORS
330
267
102
}
330
267
100
AcDbVisualStyle
  2
Shaded with edges
 70
    26
 71
     2
 72
     2
 73
     1
 90
        2
 40
0.6
 41
30.0
 62
     5
 63
     7
421
 16777215
 74
     1
 91
       10
 64
     7
 65
   257
 75
     2
175
     1
 42
1.0
 92
        8
 66
   257
 43
1.0
 76
     1
 77
     6
 78
     2
 67
     7
 79
     3
170
     0
171
     0
290
     0
174
     0
 93
        5
 44
0.0
173
     0
291
     0
 45
0.0
  0
VISUALSTYLE
  5
8FF
102
{ACAD_REACTORS
330
267
102
}
330
267
100
AcDbVisualStyle
  2
Shades of Gray
 70
    23
 71
     2
 72
     2
 73
     3
 90
        0
 40
0.6
 41
30.0
 62
     5
 63
     7
421
 16777215
 74
     2
 91
        2
 64
     7
 65
     7
 75
     1
175
     1
 42
40.0
 92
        8
 66
     7
 43
1.0
 76
     1
 77
     6
 78
     2
 67
     7
 79
     3
170
     0
171
     0
290
     0
174
     0
 93
        1
 44
0.0
173
     0
291
     0
 45
0.0
  0
VISUALSTYLE
  5
900
102
{ACAD_REACTORS
330
267
102
}
330
267
100
AcDbVisualStyle
  2
Sketchy
 70
    24
 71
     1
 72
     2
 73
     2
 90
        0
 40
0.6
 41
30.0
 62
     5
 63
     7
421
 16777215
 74
     2
 91
        2
 64
     7
 65
     7
 75
     1
175
     1
 42
40.0
 92
       11
 66
     7
 43
1.0
 76
     1
 77
     6
 78
     2
 67
     7
 79
     6
170
     0
171
     0
290
     0
174
     0
 93
        1
 44
0.0
173
     0
291
     0
 45
0.0
  0
VISUALSTYLE
  5
274
102
{ACAD_REACTORS
330
267
102
}
330
267
100
AcDbVisualStyle
  2
Thicken
 70
    13
 71
     2
 72
     2
 73
     0
 90
        0
 40
-0.6
 41
-30.0
 62
     5
 63
     7
421
 16777215
 74
     1
 91
        4
 64
     7
 65
   257
 75
     1
175
     1
 42
1.0
 92
       12
 66
     7
 43
1.0
 76
     1
 77
     6
 78
     2
 67
     7
 79
     5
170
     0
171
     0
290
     0
174
     0
 93
        1
 44
0.0
173
     0
291
     1
 45
0.0
  0
VISUALSTYLE
  5
8FA
102
{ACAD_REACTORS
330
267
102
}
330
267
100
AcDbVisualStyle
  2
Wireframe
 70
     5
 71
     0
 72
     2
 73
     0
 90
        0
 40
0.6
 41
30.0
 62
     5
 63
     7
421
 16777215
 74
     1
 91
        4
 64
     7
 65
   257
 75
     1
175
     1
 42
1.0
 92
        0
 66
   257
 43
1.0
 76
     1
 77
     6
 78
     2
 67
     7
 79
     3
170
     0
171
     0
290
     0
174
     0
 93
        1
 44
0.0
173
     0
291
     0
 45
0.0
  0
VISUALSTYLE
  5
901
102
{ACAD_REACTORS
330
267
102
}
330
267
100
AcDbVisualStyle
  2
X-Ray
 70
    25
 71
     2
 72
     2
 73
     1
 90
        1
 40
0.5
 41
30.0
 62
     5
 63
     7
421
 16777215
 74
     1
 91
        0
 64
     7
 65
   257
 75
     1
175
     1
 42
1.0
 92
        8
 66
     7
 43
1.0
 76
     1
 77
     6
 78
     2
 67
     7
 79
     3
170
     0
171
     0
290
     0
174
     0
 93
       13
 44
0.0
173
     0
291
     0
 45
0.0
  0
DICTIONARYVAR
  5
331
102
{ACAD_REACTORS
330
330
102
}
330
330
100
DictionaryVariables
280
     0
  1
1:1
  0
DICTIONARYVAR
  5
D5E
102
{ACAD_REACTORS
330
330
102
}
330
330
100
DictionaryVariables
280
     0
  1
Standard
  0
DICTIONARYVAR
  5
335
102
{ACAD_REACTORS
330
330
102
}
330
330
100
DictionaryVariables
280
     0
  1
Standard
  0
DICTIONARYVAR
  5
D52
102
{ACAD_REACTORS
330
330
102
}
330
330
100
DictionaryVariables
280
     0
  1
ByLayer
  0
DICTIONARYVAR
  5
896
102
{ACAD_REACTORS
330
330
102
}
330
330
100
DictionaryVariables
280
     0
  1
0
  0
DICTIONARYVAR
  5
1E10
102
{ACAD_REACTORS
330
1E0F
102
}
330
1E0F
100
DictionaryVariables
280
     0
  1
0.250000
  0
DICTIONARYVAR
  5
1E0D
102
{ACAD_REACTORS
330
E38
102
}
330
E38
100
DictionaryVariables
280
     0
  1
0.261799
  0
DICTIONARYVAR
  5
1E0B
102
{ACAD_REACTORS
330
E38
102
}
330
E38
100
DictionaryVariables
280
     0
  1
0.400000
  0
DICTIONARYVAR
  5
1E0C
102
{ACAD_REACTORS
330
E38
102
}
330
E38
100
DictionaryVariables
280
     0
  1
0.250000
  0
DICTIONARYVAR
  5
1E0E
102
{ACAD_REACTORS
330
E38
102
}
330
E38
100
DictionaryVariables
280
     0
  1
1
  0
FIELD
  5
16F3
102
{ACAD_REACTORS
330
16F2
102
}
330
16F2
100
AcDbField
  1
_text
  2
{%<\_FldIdx 0>%N}
 90
        1
360
16F4
 97
        0
 91
       63
 92
        0
 94
        8
 95
        2
 96
        0
300

 93
        1
  6
ACFD_FIELDTEXT_CHECKSUM
 93
        2
 90
        2
140
4541.0
 94
        0
300

302

304
ACVALUE_END
  7
ACFD_FIELD_VALUE
 93
        6
 90
        4
  1
{20170824N}
 94
        0
300

302

304
ACVALUE_END
301
{20170824N}
 98
       11
  0
DICTIONARY
  5
1ECC
330
279
100
AcDbDictionary
280
     1
281
     1
  3
ACAD_ROUNDTRIP_2008_TABLESTYLE_CELLSTYLEMAP
360
1ECD
  0
FIELD
  5
16F4
330
16F3
100
AcDbField
  1
AcVar
  2
\AcVar Date \f "yyyyMMdd"
 90
        0
 97
        0
 91
       63
 92
        0
 94
        8
 95
        2
 96
        0
300

 93
        1
  6
Variable
 93
        2
 90
        4
  1
Date
 94
        0
300

302

304
ACVALUE_END
  7
ACFD_FIELD_VALUE
 93
        6
 90
        8
 92
       16
310
E1070800000017000F00390011000000
 94
        0
300
yyyyMMdd
302

304
ACVALUE_END
301
20170824
 98
        8
  0
CELLSTYLEMAP
  5
1ECD
102
{ACAD_REACTORS
330
1ECC
102
}
330
1ECC
100
AcDbCellStyleMap
 90
        3
300
CELLSTYLE
  1
TABLEFORMAT_BEGIN
 90
        5
170
     1
 91
        0
 92
    32768
 62
   257
 93
        1
300
CONTENTFORMAT
  1
CONTENTFORMAT_BEGIN
 90
        0
 91
        0
 92
        4
 93
        0
300

 40
0.0
140
1.0
 94
        5
 62
     0
340
17
144
6.0
309
CONTENTFORMAT_END
171
     1
301
MARGIN
  1
CELLMARGIN_BEGIN
 40
0.06
 40
0.06
 40
0.06
 40
0.06
 40
0.18
 40
0.18
309
CELLMARGIN_END
 94
        6
 95
        1
302
GRIDFORMAT
  1
GRIDFORMAT_BEGIN
 90
        0
 91
        1
 62
     0
 92
       -2
340
0
 93
        0
 40
0.045
309
GRIDFORMAT_END
 95
        2
302
GRIDFORMAT
  1
GRIDFORMAT_BEGIN
 90
        0
 91
        1
 62
     0
 92
       -2
340
0
 93
        0
 40
0.045
309
GRIDFORMAT_END
 95
        4
302
GRIDFORMAT
  1
GRIDFORMAT_BEGIN
 90
        0
 91
        1
 62
     0
 92
       -2
340
0
 93
        0
 40
0.045
309
GRIDFORMAT_END
 95
        8
302
GRIDFORMAT
  1
GRIDFORMAT_BEGIN
 90
        0
 91
        1
 62
     0
 92
       -2
340
0
 93
        0
 40
0.045
309
GRIDFORMAT_END
 95
       16
302
GRIDFORMAT
  1
GRIDFORMAT_BEGIN
 90
        0
 91
        1
 62
     0
 92
       -2
340
0
 93
        0
 40
0.045
309
GRIDFORMAT_END
 95
       32
302
GRIDFORMAT
  1
GRIDFORMAT_BEGIN
 90
        0
 91
        1
 62
     0
 92
       -2
340
0
 93
        0
 40
0.045
309
GRIDFORMAT_END
309
TABLEFORMAT_END
  1
CELLSTYLE_BEGIN
 90
        1
 91
        1
300
_TITLE
309
CELLSTYLE_END
300
CELLSTYLE
  1
TABLEFORMAT_BEGIN
 90
        5
170
     1
 91
        0
 92
        0
 62
   257
 93
        1
300
CONTENTFORMAT
  1
CONTENTFORMAT_BEGIN
 90
        0
 91
        0
 92
        4
 93
        0
300

 40
0.0
140
1.0
 94
        5
 62
     0
340
17
144
4.5
309
CONTENTFORMAT_END
171
     1
301
MARGIN
  1
CELLMARGIN_BEGIN
 40
0.06
 40
0.06
 40
0.06
 40
0.06
 40
0.18
 40
0.18
309
CELLMARGIN_END
 94
        6
 95
        1
302
GRIDFORMAT
  1
GRIDFORMAT_BEGIN
 90
        0
 91
        1
 62
     0
 92
       -2
340
0
 93
        0
 40
0.045
309
GRIDFORMAT_END
 95
        2
302
GRIDFORMAT
  1
GRIDFORMAT_BEGIN
 90
        0
 91
        1
 62
     0
 92
       -2
340
0
 93
        0
 40
0.045
309
GRIDFORMAT_END
 95
        4
302
GRIDFORMAT
  1
GRIDFORMAT_BEGIN
 90
        0
 91
        1
 62
     0
 92
       -2
340
0
 93
        0
 40
0.045
309
GRIDFORMAT_END
 95
        8
302
GRIDFORMAT
  1
GRIDFORMAT_BEGIN
 90
        0
 91
        1
 62
     0
 92
       -2
340
0
 93
        0
 40
0.045
309
GRIDFORMAT_END
 95
       16
302
GRIDFORMAT
  1
GRIDFORMAT_BEGIN
 90
        0
 91
        1
 62
     0
 92
       -2
340
0
 93
        0
 40
0.045
309
GRIDFORMAT_END
 95
       32
302
GRIDFORMAT
  1
GRIDFORMAT_BEGIN
 90
        0
 91
        1
 62
     0
 92
       -2
340
0
 93
        0
 40
0.045
309
GRIDFORMAT_END
309
TABLEFORMAT_END
  1
CELLSTYLE_BEGIN
 90
        2
 91
        1
300
_HEADER
309
CELLSTYLE_END
300
CELLSTYLE
  1
TABLEFORMAT_BEGIN
 90
        5
170
     1
 91
        0
 92
        0
 62
   257
 93
        1
300
CONTENTFORMAT
  1
CONTENTFORMAT_BEGIN
 90
        0
 91
        0
 92
        4
 93
        0
300

 40
0.0
140
1.0
 94
        2
 62
     0
340
17
144
4.5
309
CONTENTFORMAT_END
171
     1
301
MARGIN
  1
CELLMARGIN_BEGIN
 40
0.06
 40
0.06
 40
0.06
 40
0.06
 40
0.18
 40
0.18
309
CELLMARGIN_END
 94
        6
 95
        1
302
GRIDFORMAT
  1
GRIDFORMAT_BEGIN
 90
        0
 91
        1
 62
     0
 92
       -2
340
0
 93
        0
 40
0.045
309
GRIDFORMAT_END
 95
        2
302
GRIDFORMAT
  1
GRIDFORMAT_BEGIN
 90
        0
 91
        1
 62
     0
 92
       -2
340
0
 93
        0
 40
0.045
309
GRIDFORMAT_END
 95
        4
302
GRIDFORMAT
  1
GRIDFORMAT_BEGIN
 90
        0
 91
        1
 62
     0
 92
       -2
340
0
 93
        0
 40
0.045
309
GRIDFORMAT_END
 95
        8
302
GRIDFORMAT
  1
GRIDFORMAT_BEGIN
 90
        0
 91
        1
 62
     0
 92
       -2
340
0
 93
        0
 40
0.045
309
GRIDFORMAT_END
 95
       16
302
GRIDFORMAT
  1
GRIDFORMAT_BEGIN
 90
        0
 91
        1
 62
     0
 92
       -2
340
0
 93
        0
 40
0.045
309
GRIDFORMAT_END
 95
       32
302
GRIDFORMAT
  1
GRIDFORMAT_BEGIN
 90
        0
 91
        1
 62
     0
 92
       -2
340
0
 93
        0
 40
0.045
309
GRIDFORMAT_END
309
TABLEFORMAT_END
  1
CELLSTYLE_BEGIN
 90
        3
 91
        2
300
_DATA
309
CELLSTYLE_END
  0
ENDSEC
  0
EOF
