  0
SECTION
  2
HEADER
  9
$ACADVER
  1
AC1021
  9
$ACADMAINTVER
 70
    25
  9
$DWGCODEPAGE
  3
ANSI_932
  9
$LASTSAVEDBY
  1
howeNelson
  9
$INSBASE
 10
0.0
 20
0.0
 30
0.0
  9
$EXTMIN
 10
14.44042890944979
 20
11.37005132361048
 30
-0.0000000000000142
  9
$EXTMAX
 10
404.4404289095462
 20
579.4293347012853
 30
0.0000000000000142
  9
$LIMMIN
 10
0.0
 20
0.0
  9
$LIMMAX
 10
420.0000000000001
 20
594.0000000000001
  9
$ORTHOMODE
 70
     0
  9
$REGENMODE
 70
     1
  9
$FILLMODE
 70
     1
  9
$QTEXTMODE
 70
     0
  9
$MIRRTEXT
 70
     1
  9
$LTSCALE
 40
1.0
  9
$ATTMODE
 70
     1
  9
$TEXTSIZE
 40
2.5
  9
$TRACEWID
 40
1.0
  9
$TEXTSTYLE
  7
ＭＳ ゴシック
  9
$CLAYER
  8
DIM
  9
$CELTYPE
  6
ByLayer
  9
$CECOLOR
 62
   256
  9
$CELTSCALE
 40
1.0
  9
$DISPSILH
 70
     0
  9
$DIMSCALE
 40
1.0
  9
$DIMASZ
 40
2.0
  9
$DIMEXO
 40
5.0
  9
$DIMDLI
 40
0.0
  9
$DIMRND
 40
0.0
  9
$DIMDLE
 40
0.0
  9
$DIMEXE
 40
0.0
  9
$DIMTP
 40
0.0
  9
$DIMTM
 40
0.0
  9
$DIMTXT
 40
6.0
  9
$DIMCEN
 40
0.0
  9
$DIMTSZ
 40
0.0
  9
$DIMTOL
 70
     0
  9
$DIMLIM
 70
     0
  9
$DIMTIH
 70
     0
  9
$DIMTOH
 70
     0
  9
$DIMSE1
 70
     0
  9
$DIMSE2
 70
     0
  9
$DIMTAD
 70
     1
  9
$DIMZIN
 70
    11
  9
$DIMBLK
  1
DOT
  9
$DIMASO
 70
     1
  9
$DIMSHO
 70
     1
  9
$DIMPOST
  1
<>
  9
$DIMAPOST
  1
[]
  9
$DIMALT
 70
     0
  9
$DIMALTD
 70
     1
  9
$DIMALTF
 40
1.0
  9
$DIMLFAC
 40
1.0
  9
$DIMTOFL
 70
     0
  9
$DIMTVP
 40
0.0
  9
$DIMTIX
 70
     1
  9
$DIMSOXD
 70
     0
  9
$DIMSAH
 70
     0
  9
$DIMBLK1
  1

  9
$DIMBLK2
  1

  9
$DIMSTYLE
  2
tfrom線あり
  9
$DIMCLRD
 70
     0
  9
$DIMCLRE
 70
     0
  9
$DIMCLRT
 70
     0
  9
$DIMTFAC
 40
1.0
  9
$DIMGAP
 40
5.0
  9
$DIMJUST
 70
     0
  9
$DIMSD1
 70
     0
  9
$DIMSD2
 70
     0
  9
$DIMTOLJ
 70
     1
  9
$DIMTZIN
 70
    11
  9
$DIMALTZ
 70
    11
  9
$DIMALTTZ
 70
    11
  9
$DIMUPT
 70
     0
  9
$DIMDEC
 70
     0
  9
$DIMTDEC
 70
     1
  9
$DIMALTU
 70
     2
  9
$DIMALTTD
 70
     2
  9
$DIMTXSTY
  7
ＭＳ ゴシック
  9
$DIMAUNIT
 70
     0
  9
$DIMADEC
 70
     2
  9
$DIMALTRND
 40
0.0
  9
$DIMAZIN
 70
     0
  9
$DIMDSEP
 70
    46
  9
$DIMATFIT
 70
     0
  9
$DIMFRAC
 70
     2
  9
$DIMLDRBLK
  1
DOT
  9
$DIMLUNIT
 70
     2
  9
$DIMLWD
 70
    -2
  9
$DIMLWE
 70
    -2
  9
$DIMTMOVE
 70
     0
  9
$DIMFXL
 40
1.0
  9
$DIMFXLON
 70
     0
  9
$DIMJOGANG
 40
0.7853981633974483
  9
$DIMTFILL
 70
     0
  9
$DIMTFILLCLR
 70
     0
  9
$DIMARCSYM
 70
     0
  9
$DIMLTYPE
  6

  9
$DIMLTEX1
  6

  9
$DIMLTEX2
  6

  9
$LUNITS
 70
     2
  9
$LUPREC
 70
     0
  9
$SKETCHINC
 40
0.1
  9
$FILLETRAD
 40
0.0
  9
$AUNITS
 70
     0
  9
$AUPREC
 70
     0
  9
$MENU
  1
acad
  9
$ELEVATION
 40
0.0
  9
$PELEVATION
 40
0.0
  9
$THICKNESS
 40
0.0
  9
$LIMCHECK
 70
     0
  9
$CHAMFERA
 40
0.0
  9
$CHAMFERB
 40
0.0
  9
$CHAMFERC
 40
0.0
  9
$CHAMFERD
 40
0.0
  9
$SKPOLY
 70
     0
  9
$TDCREATE
 40
2447893.375
  9
$TDUCREATE
 40
0.0
  9
$TDUPDATE
 40
2457633.619923831
  9
$TDUUPDATE
 40
2457633.244923831
  9
$TDINDWG
 40
0.1191120602
  9
$TDUSRTIMER
 40
2457633.24491794
  9
$USRTIMER
 70
     1
  9
$ANGBASE
 50
0.0
  9
$ANGDIR
 70
     0
  9
$PDMODE
 70
     1
  9
$PDSIZE
 40
-2.0
  9
$PLINEWID
 40
0.0
  9
$SPLFRAME
 70
     0
  9
$SPLINETYPE
 70
     6
  9
$SPLINESEGS
 70
     8
  9
$HANDSEED
  5
1265
  9
$SURFTAB1
 70
     6
  9
$SURFTAB2
 70
     6
  9
$SURFTYPE
 70
     6
  9
$SURFU
 70
     6
  9
$SURFV
 70
     6
  9
$UCSBASE
  2

  9
$UCSNAME
  2

  9
$UCSORG
 10
0.0
 20
0.0
 30
0.0
  9
$UCSXDIR
 10
1.0
 20
0.0
 30
0.0
  9
$UCSYDIR
 10
0.0
 20
1.0
 30
0.0
  9
$UCSORTHOREF
  2

  9
$UCSORTHOVIEW
 70
     0
  9
$UCSORGTOP
 10
0.0
 20
0.0
 30
0.0
  9
$UCSORGBOTTOM
 10
0.0
 20
0.0
 30
0.0
  9
$UCSORGLEFT
 10
0.0
 20
0.0
 30
0.0
  9
$UCSORGRIGHT
 10
0.0
 20
0.0
 30
0.0
  9
$UCSORGFRONT
 10
0.0
 20
0.0
 30
0.0
  9
$UCSORGBACK
 10
0.0
 20
0.0
 30
0.0
  9
$PUCSBASE
  2

  9
$PUCSNAME
  2

  9
$PUCSORG
 10
0.0
 20
0.0
 30
0.0
  9
$PUCSXDIR
 10
1.0
 20
0.0
 30
0.0
  9
$PUCSYDIR
 10
0.0
 20
1.0
 30
0.0
  9
$PUCSORTHOREF
  2

  9
$PUCSORTHOVIEW
 70
     0
  9
$PUCSORGTOP
 10
0.0
 20
0.0
 30
0.0
  9
$PUCSORGBOTTOM
 10
0.0
 20
0.0
 30
0.0
  9
$PUCSORGLEFT
 10
0.0
 20
0.0
 30
0.0
  9
$PUCSORGRIGHT
 10
0.0
 20
0.0
 30
0.0
  9
$PUCSORGFRONT
 10
0.0
 20
0.0
 30
0.0
  9
$PUCSORGBACK
 10
0.0
 20
0.0
 30
0.0
  9
$USERI1
 70
     0
  9
$USERI2
 70
     0
  9
$USERI3
 70
     0
  9
$USERI4
 70
     0
  9
$USERI5
 70
     0
  9
$USERR1
 40
0.0
  9
$USERR2
 40
0.0
  9
$USERR3
 40
0.0
  9
$USERR4
 40
0.0
  9
$USERR5
 40
0.0
  9
$WORLDVIEW
 70
     1
  9
$SHADEDGE
 70
     3
  9
$SHADEDIF
 70
    70
  9
$TILEMODE
 70
     1
  9
$MAXACTVP
 70
    64
  9
$PINSBASE
 10
0.0
 20
0.0
 30
0.0
  9
$PLIMCHECK
 70
     0
  9
$PEXTMIN
 10
0.0
 20
0.0
 30
0.0
  9
$PEXTMAX
 10
0.0
 20
0.0
 30
0.0
  9
$PLIMMIN
 10
-95.87226993865028
 20
-25.69999999999999
  9
$PLIMMAX
 10
201.1277300613497
 20
184.3
  9
$UNITMODE
 70
     0
  9
$VISRETAIN
 70
     0
  9
$PLINEGEN
 70
     1
  9
$PSLTSCALE
 70
     0
  9
$TREEDEPTH
 70
  3020
  9
$CMLSTYLE
  2
Standard
  9
$CMLJUST
 70
     0
  9
$CMLSCALE
 40
1.0
  9
$PROXYGRAPHICS
 70
     0
  9
$MEASUREMENT
 70
     1
  9
$CELWEIGHT
370
    -1
  9
$ENDCAPS
280
     0
  9
$JOINSTYLE
280
     0
  9
$LWDISPLAY
290
     1
  9
$INSUNITS
 70
     4
  9
$HYPERLINKBASE
  1

  9
$STYLESHEET
  1

  9
$XEDIT
290
     1
  9
$CEPSNTYPE
380
     0
  9
$PSTYLEMODE
290
     1
  9
$FINGERPRINTGUID
  2

  9
$VERSIONGUID
  2

  9
$EXTNAMES
290
     1
  9
$PSVPSCALE
 40
0.0
  9
$OLESTARTUP
290
     0
  9
$SORTENTS
280
   127
  9
$INDEXCTL
280
     0
  9
$HIDETEXT
280
     1
  9
$XCLIPFRAME
290
     0
  9
$HALOGAP
280
     0
  9
$OBSCOLOR
 70
   257
  9
$OBSLTYPE
280
     0
  9
$INTERSECTIONDISPLAY
280
     0
  9
$INTERSECTIONCOLOR
 70
   257
  9
$DIMASSOC
280
     2
  9
$PROJECTNAME
  1

  9
$CAMERADISPLAY
290
     0
  9
$LENSLENGTH
 40
50.0
  9
$CAMERAHEIGHT
 40
0.0
  9
$STEPSPERSEC
 40
2.0
  9
$STEPSIZE
 40
6.0
  9
$3DDWFPREC
 40
2.0
  9
$PSOLWIDTH
 40
0.25
  9
$PSOLHEIGHT
 40
4.0
  9
$LOFTANG1
 40
1.570796326794897
  9
$LOFTANG2
 40
1.570796326794897
  9
$LOFTMAG1
 40
0.0
  9
$LOFTMAG2
 40
0.0
  9
$LOFTPARAM
 70
     7
  9
$LOFTNORMALS
280
     1
  9
$LATITUDE
 40
37.795
  9
$LONGITUDE
 40
-122.394
  9
$NORTHDIRECTION
 40
0.0
  9
$TIMEZONE
 70
 -8000
  9
$LIGHTGLYPHDISPLAY
280
     1
  9
$TILEMODELIGHTSYNCH
280
     1
  9
$SOLIDHIST
280
     1
  9
$SHOWHIST
280
     1
  9
$DWFFRAME
280
     2
  9
$DGNFRAME
280
     2
  9
$REALWORLDSCALE
290
     1
  9
$INTERFERECOLOR
 62
   256
  9
$CSHADOW
280
     0
  9
$SHADOWPLANELOCATION
 40
0.0
  0
ENDSEC
  0
SECTION
  2
CLASSES
  0
CLASS
  1
LWPOLYLINE
  2
AcDbPolyline
  3
ObjectDBX Classes
 90
        0
 91
        1
280
     0
281
     1
  0
CLASS
  1
IMAGE
  2
AcDbRasterImage
  3
ISM
 90
      127
 91
        7
280
     0
281
     1
  0
CLASS
  1
OLE2FRAME
  2
AcDbOle2Frame
  3
ObjectDBX Classes
 90
        0
 91
        1
280
     0
281
     1
  0
CLASS
  1
HATCH
  2
AcDbHatch
  3
ObjectDBX Classes
 90
        0
 91
        1
280
     0
281
     1
  0
CLASS
  1
DICTIONARYVAR
  2
AcDbDictionaryVar
  3
ObjectDBX Classes
 90
        0
 91
        6
280
     0
281
     0
  0
CLASS
  1
RASTERVARIABLES
  2
AcDbRasterVariables
  3
ISM
 90
        0
 91
        6
280
     0
281
     0
  0
CLASS
  1
IMAGEDEF
  2
AcDbRasterImageDef
  3
ISM
 90
        0
 91
        6
280
     0
281
     0
  0
CLASS
  1
IMAGEDEF_REACTOR
  2
AcDbRasterImageDefReactor
  3
ISM
 90
        1
 91
        6
280
     0
281
     0
  0
CLASS
  1
IDBUFFER
  2
AcDbIdBuffer
  3
ObjectDBX Classes
 90
        0
 91
        6
280
     0
281
     0
  0
CLASS
  1
SPATIAL_FILTER
  2
AcDbSpatialFilter
  3
ObjectDBX Classes
 90
        0
 91
        6
280
     0
281
     0
  0
CLASS
  1
XRECORD
  2
AcDbXrecord
  3
ObjectDBX Classes
 90
        0
 91
        1
280
     0
281
     0
  0
CLASS
  1
SORTENTSTABLE
  2
AcDbSortentsTable
  3
ObjectDBX Classes
 90
        0
 91
        6
280
     0
281
     0
  0
CLASS
  1
LAYER_INDEX
  2
AcDbLayerIndex
  3
ObjectDBX Classes
 90
        0
 91
        6
280
     0
281
     0
  0
CLASS
  1
SPATIAL_INDEX
  2
AcDbSpatialIndex
  3
AutoCAD 2000
 90
        0
 91
        6
280
     0
281
     0
  0
CLASS
  1
OBJECT_PTR
  2
CAseDLPNTableRecord
  3
ASE-LPNTableRecord
 90
        1
 91
        6
280
     0
281
     0
  0
CLASS
  1
LAYOUT
  2
AcDbLayout
  3
ObjectDBX Classes
 90
        0
 91
        1
280
     0
281
     0
  0
CLASS
  1
PLOTSETTINGS
  2
AcDbPlotSettings
  3
ObjectDBX Classes
 90
        0
 91
        6
280
     0
281
     0
  0
CLASS
  1
ACDBDICTIONARYWDFLT
  2
AcDbDictionaryWithDefault
  3
ObjectDBX Classes
 90
        0
 91
        6
280
     0
281
     0
  0
CLASS
  1
ACDBPLACEHOLDER
  2
AcDbPlaceHolder
  3
ObjectDBX Classes
 90
        0
 91
        1
280
     0
281
     0
  0
CLASS
  1
SCALE
  2
AcDbScale
  3
ObjectDBX Classes
 90
     1153
 91
        6
280
     0
281
     0
  0
CLASS
  1
MATERIAL
  2
AcDbMaterial
  3
ObjectDBX Classes
 90
     1153
 91
        6
280
     0
281
     0
  0
CLASS
  1
VISUALSTYLE
  2
AcDbVisualStyle
  3
ObjectDBX Classes
 90
     4095
 91
        6
280
     0
281
     0
  0
CLASS
  1
TABLESTYLE
  2
AcDbTableStyle
  3
ObjectDBX Classes
 90
     4095
 91
        6
280
     0
281
     0
  0
CLASS
  1
DIMASSOC
  2
AcDbDimAssoc
  3
"AcDbDimAssoc|Product Desc:     AcDim ARX App For Dimension|Company:          Autodesk, Inc.|WEB Address:      www.autodesk.com"
 90
        0
 91
        6
280
     0
281
     0
  0
CLASS
  1
CELLSTYLEMAP
  2
AcDbCellStyleMap
  3
ObjectDBX Classes
 90
     1152
 91
        6
280
     0
281
     0
  0
CLASS
  1
SUN
  2
AcDbSun
  3
SCENEOE
 90
     1153
 91
        6
280
     0
281
     0
  0
CLASS
  1
MLEADERSTYLE
  2
AcDbMLeaderStyle
  3
ACDB_MLEADERSTYLE_CLASS
 90
     4095
 91
        6
280
     0
281
     0
  0
CLASS
  1
FIELD
  2
AcDbField
  3
ObjectDBX Classes
 90
     1152
 91
        6
280
     0
281
     0
  0
CLASS
  1
FIELDLIST
  2
AcDbFieldList
  3
ObjectDBX Classes
 90
     1152
 91
        6
280
     0
281
     0
  0
ENDSEC
  0
SECTION
  2
TABLES
  0
TABLE
  2
VPORT
  5
7
330
0
100
AcDbSymbolTable
 70
     1
  0
VPORT
  5
15
330
7
100
AcDbSymbolTableRecord
100
AcDbViewportTableRecord
  2
*ACTIVE
 70
     0
 10
0.0
 20
0.0
 11
1.0
 21
1.0
 12
300.4605645803989
 22
221.8009784822818
 13
0.0
 23
0.0
 14
1.0
 24
1.0
 15
0.0
 25
0.0
 16
0.0
 26
0.0
 36
1.0
 17
-91.02013567090094
 27
73.59871453016603
 37
-46.86809886248109
 40
579.4204690452283
 41
2.476261127596439
 42
50.0
 43
0.0
 44
0.0
 50
0.0
 51
0.0
 71
    16
 72
  2000
 73
     1
 74
     1
 75
     0
 76
     0
 77
     0
 78
     0
281
     0
 65
     1
110
0.0
120
0.0
130
0.0
111
1.0
121
0.0
131
0.0
112
0.0
122
1.0
132
0.0
 79
     0
146
0.0
348
26C
 60
     3
 61
     5
292
     1
282
     1
141
0.0
142
0.0
 63
   256
361
904
  0
ENDTAB
  0
TABLE
  2
LTYPE
  5
4
330
0
100
AcDbSymbolTable
 70
     2
  0
LTYPE
  5
11
330
4
100
AcDbSymbolTableRecord
100
AcDbLinetypeTableRecord
  2
ByBlock
 70
     0
  3

 72
    65
 73
     0
 40
0.0
  0
LTYPE
  5
12
330
4
100
AcDbSymbolTableRecord
100
AcDbLinetypeTableRecord
  2
ByLayer
 70
     0
  3

 72
    65
 73
     0
 40
0.0
  0
LTYPE
  5
13
330
4
100
AcDbSymbolTableRecord
100
AcDbLinetypeTableRecord
  2
Continuous
 70
     0
  3
Solid line
 72
    65
 73
     0
 40
0.0
  0
LTYPE
  5
11A5
330
4
100
AcDbSymbolTableRecord
100
AcDbLinetypeTableRecord
  2
HIDDEN
 70
     0
  3
Hidden _ _ _ _ _ _ _ _ _ _ _ _ _ _ _ _ _ _ _ _ 
 72
    65
 73
     2
 40
9.524999999999999
 49
6.35
 74
     0
 49
-3.175
 74
     0
  0
ENDTAB
  0
TABLE
  2
LAYER
  5
2
102
{ACAD_XDICTIONARY
360
2E1
102
}
330
0
100
AcDbSymbolTable
 70
     6
  0
LAYER
  5
14
330
2
100
AcDbSymbolTableRecord
100
AcDbLayerTableRecord
  2
0
 70
     0
 62
     7
  6
Continuous
370
    -3
390
1D
347
266
  0
LAYER
  5
4B
330
2
100
AcDbSymbolTableRecord
100
AcDbLayerTableRecord
  2
TEMPLATE
 70
     0
 62
     7
  6
Continuous
370
    20
390
1D
347
266
  0
LAYER
  5
4C
330
2
100
AcDbSymbolTableRecord
100
AcDbLayerTableRecord
  2
DIM
 70
     0
 62
     3
  6
Continuous
370
    13
390
1D
347
266
  0
LAYER
  5
4D
330
2
100
AcDbSymbolTableRecord
100
AcDbLayerTableRecord
  2
MODEL
 70
     0
 62
     7
  6
Continuous
370
    20
390
1D
347
266
  0
LAYER
  5
667
330
2
100
AcDbSymbolTableRecord
100
AcDbLayerTableRecord
  2
LOGO
 70
     0
 62
     7
  6
Continuous
370
    -3
390
1D
347
266
  0
LAYER
  5
DDE
330
2
100
AcDbSymbolTableRecord
100
AcDbLayerTableRecord
  2
Defpoints
 70
     0
 62
     7
  6
Continuous
290
     0
370
    -3
390
1D
347
266
  0
ENDTAB
  0
TABLE
  2
STYLE
  5
3
330
0
100
AcDbSymbolTable
 70
     2
  0
STYLE
  5
17
330
3
100
AcDbSymbolTableRecord
100
AcDbTextStyleTableRecord
  2
Standard
 70
     0
 40
0.0
 41
1.0
 50
0.0
 71
     0
 42
2.5
  3
txt
  4
BIGFONT.SHX
  0
STYLE
  5
39
330
3
100
AcDbSymbolTableRecord
100
AcDbTextStyleTableRecord
  2
ＭＳ ゴシック
 70
     0
 40
0.0
 41
1.0
 50
0.0
 71
     0
 42
2.5
  3
msgothic.ttc
  4
ＭＳ ゴシック
1001
ACAD
1000
ＭＳ ゴシック
1071
        0
  0
ENDTAB
  0
TABLE
  2
VIEW
  5
5
330
0
100
AcDbSymbolTable
 70
     0
  0
ENDTAB
  0
TABLE
  2
UCS
  5
6
330
0
100
AcDbSymbolTable
 70
     0
  0
ENDTAB
  0
TABLE
  2
APPID
  5
8
330
0
100
AcDbSymbolTable
 70
     3
  0
APPID
  5
16
330
8
100
AcDbSymbolTableRecord
100
AcDbRegAppTableRecord
  2
ACAD
 70
     0
  0
APPID
  5
7AC
330
8
100
AcDbSymbolTableRecord
100
AcDbRegAppTableRecord
  2
AcAecLayerStandard
 70
     0
  0
APPID
  5
1171
330
8
100
AcDbSymbolTableRecord
100
AcDbRegAppTableRecord
  2
ACAD_MLEADERVER
 70
     0
  0
ENDTAB
  0
TABLE
  2
DIMSTYLE
  5
9
330
0
100
AcDbSymbolTable
 70
     2
100
AcDbDimStyleTable
  0
DIMSTYLE
105
18
330
9
100
AcDbSymbolTableRecord
100
AcDbDimStyleTableRecord
  2
Standard
 70
     0
178
     0
340
17
  0
DIMSTYLE
105
57
102
{ACAD_REACTORS
330
10C2
330
1113
330
1133
330
1134
330
117C
330
11C5
330
11E2
330
1201
330
1214
102
}
330
9
100
AcDbSymbolTableRecord
100
AcDbDimStyleTableRecord
  2
tfrom線あり
 70
     0
  3
<>
  4
[]
 41
2.0
 42
5.0
 43
0.0
 44
0.0
 73
     0
 74
     0
 77
     1
 78
    11
140
6.0
141
0.0
143
1.0
147
5.0
171
     1
174
     1
178
     0
179
     2
271
     0
272
     1
276
     2
284
    11
285
    11
286
    11
289
     0
340
39
341
4E
342
4E
  0
ENDTAB
  0
TABLE
  2
BLOCK_RECORD
  5
1
330
0
100
AcDbSymbolTable
 70
    17
  0
BLOCK_RECORD
  5
A
330
1
100
AcDbSymbolTableRecord
100
AcDbBlockTableRecord
  2
*MODEL_SPACE
340
20
 70
     0
280
     1
281
     0
  0
BLOCK_RECORD
  5
B
330
1
100
AcDbSymbolTableRecord
100
AcDbBlockTableRecord
  2
*PAPER_SPACE
340
21
 70
     0
280
     1
281
     0
  0
BLOCK_RECORD
  5
4E
330
1
100
AcDbSymbolTableRecord
100
AcDbBlockTableRecord
  2
_DOT
340
0
102
{BLKREFS
331
1146
331
114F
331
1150
331
115B
331
115C
331
1168
331
1169
331
1183
331
1184
331
11BB
331
11BC
331
11CC
331
11CD
331
11DC
331
11DD
331
11E9
331
11EA
331
1208
331
1209
331
121D
331
121E
102
}
 70
     0
280
     1
281
     0
  0
BLOCK_RECORD
  5
68A
330
1
100
AcDbSymbolTableRecord
100
AcDbBlockTableRecord
  2
名称未設定-1
340
0
102
{BLKREFS
331
6B5
102
}
 70
     1
280
     1
281
     0
  0
BLOCK_RECORD
  5
68D
330
1
100
AcDbSymbolTableRecord
100
AcDbBlockTableRecord
  2
block 2
340
0
102
{BLKREFS
331
68C
102
}
 70
     0
280
     1
281
     0
  0
BLOCK_RECORD
  5
690
330
1
100
AcDbSymbolTableRecord
100
AcDbBlockTableRecord
  2
block 3
340
0
102
{BLKREFS
331
68F
102
}
 70
     0
280
     1
281
     0
  0
BLOCK_RECORD
  5
693
330
1
100
AcDbSymbolTableRecord
100
AcDbBlockTableRecord
  2
block 4
340
0
102
{BLKREFS
331
692
102
}
 70
     0
280
     1
281
     0
  0
BLOCK_RECORD
  5
6A2
330
1
100
AcDbSymbolTableRecord
100
AcDbBlockTableRecord
  2
block 5
340
0
102
{BLKREFS
331
6A1
102
}
 70
     0
280
     1
281
     0
  0
BLOCK_RECORD
  5
1141
330
1
100
AcDbSymbolTableRecord
100
AcDbBlockTableRecord
  2
*D6
340
0
 70
     0
280
     1
281
     0
  0
BLOCK_RECORD
  5
1149
330
1
100
AcDbSymbolTableRecord
100
AcDbBlockTableRecord
  2
*D7
340
0
 70
     0
280
     1
281
     0
  0
BLOCK_RECORD
  5
1155
330
1
100
AcDbSymbolTableRecord
100
AcDbBlockTableRecord
  2
*D8
340
0
 70
     0
280
     1
281
     0
  0
BLOCK_RECORD
  5
1161
330
1
100
AcDbSymbolTableRecord
100
AcDbBlockTableRecord
  2
*D9
340
0
 70
     0
280
     1
281
     0
  0
BLOCK_RECORD
  5
117D
330
1
100
AcDbSymbolTableRecord
100
AcDbBlockTableRecord
  2
*D10
340
0
 70
     0
280
     1
281
     0
  0
BLOCK_RECORD
  5
11B5
330
1
100
AcDbSymbolTableRecord
100
AcDbBlockTableRecord
  2
*D11
340
0
 70
     0
280
     1
281
     0
  0
BLOCK_RECORD
  5
11C6
330
1
100
AcDbSymbolTableRecord
100
AcDbBlockTableRecord
  2
*D12
340
0
 70
     0
280
     1
281
     0
  0
BLOCK_RECORD
  5
11D6
330
1
100
AcDbSymbolTableRecord
100
AcDbBlockTableRecord
  2
*D13
340
0
 70
     0
280
     1
281
     0
  0
BLOCK_RECORD
  5
11E3
330
1
100
AcDbSymbolTableRecord
100
AcDbBlockTableRecord
  2
*D14
340
0
 70
     0
280
     1
281
     0
  0
BLOCK_RECORD
  5
1202
330
1
100
AcDbSymbolTableRecord
100
AcDbBlockTableRecord
  2
*D15
340
0
 70
     0
280
     1
281
     0
  0
BLOCK_RECORD
  5
1217
330
1
100
AcDbSymbolTableRecord
100
AcDbBlockTableRecord
  2
*D16
340
0
 70
     0
280
     1
281
     0
  0
ENDTAB
  0
ENDSEC
  0
SECTION
  2
BLOCKS
  0
BLOCK
  5
D
330
A
100
AcDbEntity
  8
0
390
1D
100
AcDbBlockBegin
  2
*MODEL_SPACE
 70
     0
 10
0.0
 20
0.0
 30
0.0
  3
*MODEL_SPACE
  1
*MODEL_SPACE
  0
ENDBLK
  5
E
330
A
100
AcDbEntity
  8
0
390
1D
100
AcDbBlockEnd
  0
BLOCK
  5
F
330
B
100
AcDbEntity
 67
     1
  8
0
390
1D
100
AcDbBlockBegin
  2
*PAPER_SPACE
 70
     0
 10
0.0
 20
0.0
 30
0.0
  3
*PAPER_SPACE
  1
*PAPER_SPACE
  0
ENDBLK
  5
10
330
B
100
AcDbEntity
 67
     1
  8
0
390
1D
100
AcDbBlockEnd
  0
BLOCK
  5
E24
330
4E
100
AcDbEntity
  8
0
390
1D
100
AcDbBlockBegin
  2
_DOT
 70
     0
 10
0.0
 20
0.0
 30
0.0
  3
_DOT
  1
_DOT
  0
POLYLINE
  5
E26
330
4E
100
AcDbEntity
  8
0
  6
ByBlock
 62
     0
370
    -2
390
1D
100
AcDb2dPolyline
 66
     1
 10
0.0
 20
0.0
 30
0.0
 70
     1
 40
0.5
 41
0.5
  0
VERTEX
  5
E27
330
E26
100
AcDbEntity
  8
0
  6
ByBlock
 62
     0
370
    -2
390
1D
100
AcDbVertex
100
AcDb2dVertex
 10
-0.25
 20
0.0
 30
0.0
 42
1.0
  0
VERTEX
  5
E28
330
E26
100
AcDbEntity
  8
0
  6
ByBlock
 62
     0
370
    -2
390
1D
100
AcDbVertex
100
AcDb2dVertex
 10
0.25
 20
0.0
 30
0.0
 42
1.0
  0
SEQEND
  5
E29
330
E26
100
AcDbEntity
  8
0
390
1D
  0
LINE
  5
E2A
330
4E
100
AcDbEntity
  8
0
  6
ByBlock
 62
     0
370
    -2
390
1D
100
AcDbLine
 10
-0.5
 20
0.0
 30
0.0
 11
-1.0
 21
0.0
 31
0.0
  0
ENDBLK
  5
E2B
330
4E
100
AcDbEntity
  8
0
390
1D
100
AcDbBlockEnd
  0
BLOCK
  5
68B
330
68A
100
AcDbEntity
  8
0
100
AcDbBlockBegin
  2
名称未設定-1
 70
     0
 10
0.0
 20
0.0
 30
0.0
  3
名称未設定-1
  1
名称未設定-1
  0
INSERT
  5
68F
330
68A
100
AcDbEntity
  8
LOGO
100
AcDbBlockReference
  2
block 3
 10
0.0
 20
0.0
 30
0.0
  0
ENDBLK
  5
6B1
330
68A
100
AcDbEntity
  8
0
100
AcDbBlockEnd
  0
BLOCK
  5
68E
330
68D
100
AcDbEntity
  8
0
100
AcDbBlockBegin
  2
block 2
 70
     0
 10
0.0
 20
0.0
 30
0.0
  3
block 2
  1
block 2
  0
ENDBLK
  5
6B0
330
68D
100
AcDbEntity
  8
0
100
AcDbBlockEnd
  0
BLOCK
  5
691
330
690
100
AcDbEntity
  8
0
100
AcDbBlockBegin
  2
block 3
 70
     0
 10
0.0
 20
0.0
 30
0.0
  3
block 3
  1
block 3
  0
INSERT
  5
692
330
690
100
AcDbEntity
  8
LOGO
100
AcDbBlockReference
  2
block 4
 10
0.0
 20
0.0
 30
0.0
  0
INSERT
  5
6A1
330
690
100
AcDbEntity
  8
LOGO
100
AcDbBlockReference
  2
block 5
 10
0.0
 20
0.0
 30
0.0
  0
ENDBLK
  5
6AF
330
690
100
AcDbEntity
  8
0
100
AcDbBlockEnd
  0
BLOCK
  5
694
330
693
100
AcDbEntity
  8
0
100
AcDbBlockBegin
  2
block 4
 70
     0
 10
0.0
 20
0.0
 30
0.0
  3
block 4
  1
block 4
  0
POLYLINE
  5
695
330
693
100
AcDbEntity
  8
LOGO
370
     0
100
AcDb2dPolyline
 66
     1
 10
0.0
 20
0.0
 30
0.0
  0
VERTEX
  5
696
330
695
100
AcDbEntity
  8
LOGO
370
     0
100
AcDbVertex
100
AcDb2dVertex
 10
83.79545727667795
 20
167.6444858234922
 30
0.0
  0
VERTEX
  5
697
330
695
100
AcDbEntity
  8
LOGO
370
     0
100
AcDbVertex
100
AcDb2dVertex
 10
83.79545727667795
 20
159.7968976406313
 30
0.0
  0
VERTEX
  5
698
330
695
100
AcDbEntity
  8
LOGO
370
     0
100
AcDbVertex
100
AcDb2dVertex
 10
71.3631329975216
 20
159.7968976406313
 30
0.0
  0
VERTEX
  5
699
330
695
100
AcDbEntity
  8
LOGO
370
     0
100
AcDbVertex
100
AcDb2dVertex
 10
71.3631329975216
 20
127.8027915271048
 30
0.0
  0
VERTEX
  5
69A
330
695
100
AcDbEntity
  8
LOGO
370
     0
100
AcDbVertex
100
AcDb2dVertex
 10
60.43011526263018
 20
127.8027915271048
 30
0.0
  0
VERTEX
  5
69B
330
695
100
AcDbEntity
  8
LOGO
370
     0
100
AcDbVertex
100
AcDb2dVertex
 10
60.43011526263018
 20
159.7968976406313
 30
0.0
  0
VERTEX
  5
69C
330
695
100
AcDbEntity
  8
LOGO
370
     0
100
AcDbVertex
100
AcDb2dVertex
 10
48.21793273020759
 20
159.7968976406313
 30
0.0
  0
VERTEX
  5
69D
330
695
100
AcDbEntity
  8
LOGO
370
     0
100
AcDbVertex
100
AcDb2dVertex
 10
48.21793273020759
 20
167.6444858234922
 30
0.0
  0
VERTEX
  5
69E
330
695
100
AcDbEntity
  8
LOGO
370
     0
100
AcDbVertex
100
AcDb2dVertex
 10
83.79545727667795
 20
167.6444858234922
 30
0.0
  0
SEQEND
  5
69F
330
695
100
AcDbEntity
  8
LOGO
370
     0
  0
HATCH
  5
6A0
330
693
100
AcDbEntity
  8
LOGO
 62
   250
420
  2234388
100
AcDbHatch
 10
0.0
 20
0.0
 30
0.0
210
0.0
220
0.0
230
1.0
  2
SOLID
 70
     1
 71
     0
 91
        1
 92
        1
 93
        8
 72
     1
 10
83.79545727667795
 20
167.6444858234922
 11
83.79545727667795
 21
159.7968976406313
 72
     1
 10
83.79545727667795
 20
159.7968976406313
 11
71.3631329975216
 21
159.7968976406313
 72
     1
 10
71.3631329975216
 20
159.7968976406313
 11
71.3631329975216
 21
127.8027915271048
 72
     1
 10
71.3631329975216
 20
127.8027915271048
 11
60.43011526263018
 21
127.8027915271048
 72
     1
 10
60.43011526263018
 20
127.8027915271048
 11
60.43011526263018
 21
159.7968976406313
 72
     1
 10
60.43011526263018
 20
159.7968976406313
 11
48.21793273020759
 21
159.7968976406313
 72
     1
 10
48.21793273020759
 20
159.7968976406313
 11
48.21793273020759
 21
167.6444858234922
 72
     1
 10
48.21793273020759
 20
167.6444858234922
 11
83.79545727667795
 21
167.6444858234922
 97
        0
 75
     2
 76
     1
 98
        0
  0
ENDBLK
  5
6AE
330
693
100
AcDbEntity
  8
0
100
AcDbBlockEnd
  0
BLOCK
  5
6A3
330
6A2
100
AcDbEntity
  8
0
100
AcDbBlockBegin
  2
block 5
 70
     0
 10
0.0
 20
0.0
 30
0.0
  3
block 5
  1
block 5
  0
SPLINE
  5
6A4
330
6A2
100
AcDbEntity
  8
LOGO
370
     0
100
AcDbSpline
210
0.0
220
0.0
230
1.0
 70
    11
 71
     3
 72
    56
 73
    52
 74
     0
 42
0.000000001
 43
0.0000000001
 40
0.0
 40
0.0
 40
0.0
 40
0.0
 40
1.0
 40
1.0
 40
1.0
 40
2.0
 40
2.0
 40
2.0
 40
3.0
 40
3.0
 40
3.0
 40
4.0
 40
4.0
 40
4.0
 40
5.0
 40
5.0
 40
5.0
 40
6.0
 40
6.0
 40
6.0
 40
7.0
 40
7.0
 40
7.0
 40
8.0
 40
8.0
 40
8.0
 40
9.0
 40
9.0
 40
9.0
 40
10.0
 40
10.0
 40
10.0
 40
11.0
 40
11.0
 40
11.0
 40
12.0
 40
12.0
 40
12.0
 40
13.0
 40
13.0
 40
13.0
 40
14.0
 40
14.0
 40
14.0
 40
15.0
 40
15.0
 40
15.0
 40
16.0
 40
16.0
 40
16.0
 40
17.0
 40
17.0
 40
17.0
 40
17.0
 10
100.4504378777679
 20
166.69157178364
 30
0.0
 10
101.9848844191641
 20
167.1313385124438
 30
0.0
 10
103.9637485713373
 20
166.7649523658846
 30
0.0
 10
103.9637485713373
 20
166.7649523658846
 30
0.0
 10
103.9637485713373
 20
166.7649523658846
 30
0.0
 10
103.0132460999156
 20
163.911205638077
 30
0.0
 10
103.0132460999156
 20
163.911205638077
 30
0.0
 10
103.0132460999156
 20
163.911205638077
 30
0.0
 10
101.0674548862189
 20
164.3601018759394
 30
0.0
 10
99.57090442016032
 20
163.1805004036133
 30
0.0
 10
98.40508333886608
 20
162.258247733807
 30
0.0
 10
97.65301849830304
 20
159.804132345923
 30
0.0
 10
97.3598406791005
 20
158.8699940888517
 30
0.0
 10
97.3598406791005
 20
158.8699940888517
 30
0.0
 10
96.07137411762282
 20
154.9119212747295
 30
0.0
 10
96.07137411762282
 20
154.9119212747295
 30
0.0
 10
96.07137411762282
 20
154.9119212747295
 30
0.0
 10
100.3012651448482
 20
154.9119212747295
 30
0.0
 10
100.3012651448482
 20
154.9119212747295
 30
0.0
 10
100.3012651448482
 20
154.9119212747295
 30
0.0
 10
99.64152892419852
 20
152.4199098115079
 30
0.0
 10
99.64152892419852
 20
152.4199098115079
 30
0.0
 10
99.64152892419852
 20
152.4199098115079
 30
0.0
 10
95.38097652692731
 20
152.4199098115079
 30
0.0
 10
95.38097652692731
 20
152.4199098115079
 30
0.0
 10
95.38097652692731
 20
152.4199098115079
 30
0.0
 10
87.75353009080013
 20
127.8027915271048
 30
0.0
 10
87.75353009080013
 20
127.8027915271048
 30
0.0
 10
87.75353009080013
 20
127.8027915271048
 30
0.0
 10
85.36538832498108
 20
127.8027915271048
 30
0.0
 10
85.36538832498108
 20
127.8027915271048
 30
0.0
 10
85.36538832498108
 20
127.8027915271048
 30
0.0
 10
93.00006946639998
 20
152.4199098115079
 30
0.0
 10
93.00006946639998
 20
152.4199098115079
 30
0.0
 10
93.00006946639998
 20
152.4199098115079
 30
0.0
 10
89.85297266450198
 20
152.4199098115079
 30
0.0
 10
89.85297266450198
 20
152.4199098115079
 30
0.0
 10
89.85297266450198
 20
152.4199098115079
 30
0.0
 10
90.51270888515164
 20
154.9119212747295
 30
0.0
 10
90.51270888515164
 20
154.9119212747295
 30
0.0
 10
90.51270888515164
 20
154.9119212747295
 30
0.0
 10
93.6904670570955
 20
154.9119212747295
 30
0.0
 10
93.6904670570955
 20
154.9119212747295
 30
0.0
 10
93.6904670570955
 20
154.9119212747295
 30
0.0
 10
94.81598049462158
 20
158.3616699146644
 30
0.0
 10
94.81598049462158
 20
158.3616699146644
 30
0.0
 10
95.7237637538445
 20
161.2605474231013
 30
0.0
 10
96.4968436907311
 20
162.8139420021662
 30
0.0
 10
97.15657991138076
 20
163.9844139654337
 30
0.0
 10
97.81183750494507
 20
165.1523021053827
 30
0.0
 10
99.1047826935081
 20
166.3084769129547
 30
0.0
 10
100.4504378777679
 20
166.69157178364
 30
0.0
  0
HATCH
  5
6A5
330
6A2
100
AcDbEntity
  8
LOGO
 62
   250
420
  2234388
100
AcDbHatch
 10
0.0
 20
0.0
 30
0.0
210
0.0
220
0.0
230
1.0
  2
SOLID
 70
     1
 71
     0
 91
        1
 92
        1
 93
        1
 72
     4
 94
        3
 73
     0
 74
     1
 95
       56
 96
       52
 40
0.0
 40
0.0
 40
0.0
 40
0.0
 40
1.0
 40
1.0
 40
1.0
 40
2.0
 40
2.0
 40
2.0
 40
3.0
 40
3.0
 40
3.0
 40
4.0
 40
4.0
 40
4.0
 40
5.0
 40
5.0
 40
5.0
 40
6.0
 40
6.0
 40
6.0
 40
7.0
 40
7.0
 40
7.0
 40
8.0
 40
8.0
 40
8.0
 40
9.0
 40
9.0
 40
9.0
 40
10.0
 40
10.0
 40
10.0
 40
11.0
 40
11.0
 40
11.0
 40
12.0
 40
12.0
 40
12.0
 40
13.0
 40
13.0
 40
13.0
 40
14.0
 40
14.0
 40
14.0
 40
15.0
 40
15.0
 40
15.0
 40
16.0
 40
16.0
 40
16.0
 40
17.0
 40
17.0
 40
17.0
 40
17.0
 10
100.4504378777679
 20
166.69157178364
 10
101.9848844191641
 20
167.1313385124438
 10
103.9637485713373
 20
166.7649523658846
 10
103.9637485713373
 20
166.7649523658846
 10
103.9637485713373
 20
166.7649523658846
 10
103.0132460999156
 20
163.911205638077
 10
103.0132460999156
 20
163.911205638077
 10
103.0132460999156
 20
163.911205638077
 10
101.0674548862189
 20
164.3601018759394
 10
99.57090442016032
 20
163.1805004036133
 10
98.40508333886608
 20
162.258247733807
 10
97.65301849830304
 20
159.804132345923
 10
97.3598406791005
 20
158.8699940888517
 10
97.3598406791005
 20
158.8699940888517
 10
96.07137411762282
 20
154.9119212747295
 10
96.07137411762282
 20
154.9119212747295
 10
96.07137411762282
 20
154.9119212747295
 10
100.3012651448482
 20
154.9119212747295
 10
100.3012651448482
 20
154.9119212747295
 10
100.3012651448482
 20
154.9119212747295
 10
99.64152892419852
 20
152.4199098115079
 10
99.64152892419852
 20
152.4199098115079
 10
99.64152892419852
 20
152.4199098115079
 10
95.38097652692731
 20
152.4199098115079
 10
95.38097652692731
 20
152.4199098115079
 10
95.38097652692731
 20
152.4199098115079
 10
87.75353009080013
 20
127.8027915271048
 10
87.75353009080013
 20
127.8027915271048
 10
87.75353009080013
 20
127.8027915271048
 10
85.36538832498108
 20
127.8027915271048
 10
85.36538832498108
 20
127.8027915271048
 10
85.36538832498108
 20
127.8027915271048
 10
93.00006946639998
 20
152.4199098115079
 10
93.00006946639998
 20
152.4199098115079
 10
93.00006946639998
 20
152.4199098115079
 10
89.85297266450198
 20
152.4199098115079
 10
89.85297266450198
 20
152.4199098115079
 10
89.85297266450198
 20
152.4199098115079
 10
90.51270888515164
 20
154.9119212747295
 10
90.51270888515164
 20
154.9119212747295
 10
90.51270888515164
 20
154.9119212747295
 10
93.6904670570955
 20
154.9119212747295
 10
93.6904670570955
 20
154.9119212747295
 10
93.6904670570955
 20
154.9119212747295
 10
94.81598049462158
 20
158.3616699146644
 10
94.81598049462158
 20
158.3616699146644
 10
95.7237637538445
 20
161.2605474231013
 10
96.4968436907311
 20
162.8139420021662
 10
97.15657991138076
 20
163.9844139654337
 10
97.81183750494507
 20
165.1523021053827
 10
99.1047826935081
 20
166.3084769129547
 10
100.4504378777679
 20
166.69157178364
 97
        0
 75
     2
 76
     1
 98
        0
  0
SPLINE
  5
6A6
330
6A2
100
AcDbEntity
  8
LOGO
370
     0
100
AcDbSpline
210
0.0
220
0.0
230
1.0
 70
    11
 71
     3
 72
    38
 73
    34
 74
     0
 42
0.000000001
 43
0.0000000001
 40
0.0
 40
0.0
 40
0.0
 40
0.0
 40
1.0
 40
1.0
 40
1.0
 40
2.0
 40
2.0
 40
2.0
 40
3.0
 40
3.0
 40
3.0
 40
4.0
 40
4.0
 40
4.0
 40
5.0
 40
5.0
 40
5.0
 40
6.0
 40
6.0
 40
6.0
 40
7.0
 40
7.0
 40
7.0
 40
8.0
 40
8.0
 40
8.0
 40
9.0
 40
9.0
 40
9.0
 40
10.0
 40
10.0
 40
10.0
 40
11.0
 40
11.0
 40
11.0
 40
11.0
 10
126.377554584636
 20
154.8151140277308
 30
0.0
 10
126.377554584636
 20
154.8151140277308
 30
0.0
 10
128.8311532078563
 20
154.8151140277308
 30
0.0
 10
128.8311532078563
 20
154.8151140277308
 30
0.0
 10
128.8311532078563
 20
154.8151140277308
 30
0.0
 10
127.7345785914971
 20
151.3062819612468
 30
0.0
 10
127.7345785914971
 20
151.3062819612468
 30
0.0
 10
128.571392836906
 20
152.2922689395754
 30
0.0
 10
129.8860421413442
 20
153.604506675583
 30
0.0
 10
131.0163787157314
 20
154.2664822097754
 30
0.0
 10
132.7044766171327
 20
155.2500576196734
 30
0.0
 10
133.6642808525008
 20
155.3847609420097
 30
0.0
 10
134.7284715499351
 20
155.3565111403944
 30
0.0
 10
134.7284715499351
 20
155.3565111403944
 30
0.0
 10
133.6877075172549
 20
152.0345756272799
 30
0.0
 10
133.6877075172549
 20
152.0345756272799
 30
0.0
 10
133.011434827367
 20
152.3184516825359
 30
0.0
 10
130.930940291334
 20
151.7768823149844
 30
0.0
 10
129.739280976855
 20
150.9162968950455
 30
0.0
 10
128.66613302525
 20
150.1454562717016
 30
0.0
 10
127.9192358313239
 20
149.4857200510519
 30
0.0
 10
127.0393578639405
 20
147.8282835196966
 30
0.0
 10
126.164647543194
 20
146.1699857139017
 30
0.0
 10
125.4742499524985
 20
143.5262176944419
 30
0.0
 10
124.2822461282437
 20
139.6959580071401
 30
0.0
 10
124.2822461282437
 20
139.6959580071401
 30
0.0
 10
120.5753209406769
 20
127.8027915271048
 30
0.0
 10
120.5753209406769
 20
127.8027915271048
 30
0.0
 10
120.5753209406769
 20
127.8027915271048
 30
0.0
 10
118.1964809388044
 20
127.8027915271048
 30
0.0
 10
118.1964809388044
 20
127.8027915271048
 30
0.0
 10
118.1964809388044
 20
127.8027915271048
 30
0.0
 10
126.377554584636
 20
154.8151140277308
 30
0.0
 10
126.377554584636
 20
154.8151140277308
 30
0.0
  0
HATCH
  5
6A7
330
6A2
100
AcDbEntity
  8
LOGO
 62
   250
420
  2234388
100
AcDbHatch
 10
0.0
 20
0.0
 30
0.0
210
0.0
220
0.0
230
1.0
  2
SOLID
 70
     1
 71
     0
 91
        1
 92
        1
 93
        1
 72
     4
 94
        3
 73
     0
 74
     1
 95
       38
 96
       34
 40
0.0
 40
0.0
 40
0.0
 40
0.0
 40
1.0
 40
1.0
 40
1.0
 40
2.0
 40
2.0
 40
2.0
 40
3.0
 40
3.0
 40
3.0
 40
4.0
 40
4.0
 40
4.0
 40
5.0
 40
5.0
 40
5.0
 40
6.0
 40
6.0
 40
6.0
 40
7.0
 40
7.0
 40
7.0
 40
8.0
 40
8.0
 40
8.0
 40
9.0
 40
9.0
 40
9.0
 40
10.0
 40
10.0
 40
10.0
 40
11.0
 40
11.0
 40
11.0
 40
11.0
 10
126.377554584636
 20
154.8151140277308
 10
126.377554584636
 20
154.8151140277308
 10
128.8311532078563
 20
154.8151140277308
 10
128.8311532078563
 20
154.8151140277308
 10
128.8311532078563
 20
154.8151140277308
 10
127.7345785914971
 20
151.3062819612468
 10
127.7345785914971
 20
151.3062819612468
 10
128.571392836906
 20
152.2922689395754
 10
129.8860421413442
 20
153.604506675583
 10
131.0163787157314
 20
154.2664822097754
 10
132.7044766171327
 20
155.2500576196734
 10
133.6642808525008
 20
155.3847609420097
 10
134.7284715499351
 20
155.3565111403944
 10
134.7284715499351
 20
155.3565111403944
 10
133.6877075172549
 20
152.0345756272799
 10
133.6877075172549
 20
152.0345756272799
 10
133.011434827367
 20
152.3184516825359
 10
130.930940291334
 20
151.7768823149844
 10
129.739280976855
 20
150.9162968950455
 10
128.66613302525
 20
150.1454562717016
 10
127.9192358313239
 20
149.4857200510519
 10
127.0393578639405
 20
147.8282835196966
 10
126.164647543194
 20
146.1699857139017
 10
125.4742499524985
 20
143.5262176944419
 10
124.2822461282437
 20
139.6959580071401
 10
124.2822461282437
 20
139.6959580071401
 10
120.5753209406769
 20
127.8027915271048
 10
120.5753209406769
 20
127.8027915271048
 10
120.5753209406769
 20
127.8027915271048
 10
118.1964809388044
 20
127.8027915271048
 10
118.1964809388044
 20
127.8027915271048
 10
118.1964809388044
 20
127.8027915271048
 10
126.377554584636
 20
154.8151140277308
 10
126.377554584636
 20
154.8151140277308
 97
        0
 75
     2
 76
     1
 98
        0
  0
SPLINE
  5
6A8
330
6A2
100
AcDbEntity
  8
LOGO
370
     0
100
AcDbSpline
210
0.0
220
0.0
230
1.0
 70
    11
 71
     3
 72
   104
 73
   100
 74
     0
 42
0.000000001
 43
0.0000000001
 40
0.0
 40
0.0
 40
0.0
 40
0.0
 40
1.0
 40
1.0
 40
1.0
 40
2.0
 40
2.0
 40
2.0
 40
3.0
 40
3.0
 40
3.0
 40
4.0
 40
4.0
 40
4.0
 40
5.0
 40
5.0
 40
5.0
 40
6.0
 40
6.0
 40
6.0
 40
7.0
 40
7.0
 40
7.0
 40
8.0
 40
8.0
 40
8.0
 40
9.0
 40
9.0
 40
9.0
 40
10.0
 40
10.0
 40
10.0
 40
11.0
 40
11.0
 40
11.0
 40
12.0
 40
12.0
 40
12.0
 40
13.0
 40
13.0
 40
13.0
 40
14.0
 40
14.0
 40
14.0
 40
15.0
 40
15.0
 40
15.0
 40
16.0
 40
16.0
 40
16.0
 40
17.0
 40
17.0
 40
17.0
 40
18.0
 40
18.0
 40
18.0
 40
19.0
 40
19.0
 40
19.0
 40
20.0
 40
20.0
 40
20.0
 40
21.0
 40
21.0
 40
21.0
 40
22.0
 40
22.0
 40
22.0
 40
23.0
 40
23.0
 40
23.0
 40
24.0
 40
24.0
 40
24.0
 40
25.0
 40
25.0
 40
25.0
 40
26.0
 40
26.0
 40
26.0
 40
27.0
 40
27.0
 40
27.0
 40
28.0
 40
28.0
 40
28.0
 40
29.0
 40
29.0
 40
29.0
 40
30.0
 40
30.0
 40
30.0
 40
31.0
 40
31.0
 40
31.0
 40
32.0
 40
32.0
 40
32.0
 40
33.0
 40
33.0
 40
33.0
 40
33.0
 10
139.8926730891197
 20
154.8294111834263
 30
0.0
 10
139.8926730891197
 20
154.8294111834263
 30
0.0
 10
142.0344903652445
 20
154.8294111834263
 30
0.0
 10
142.0344903652445
 20
154.8294111834263
 30
0.0
 10
142.0344903652445
 20
154.8294111834263
 30
0.0
 10
140.9516961399171
 20
151.3157559800812
 30
0.0
 10
140.9516961399171
 20
151.3157559800812
 30
0.0
 10
141.8928968473923
 20
152.7887075264977
 30
0.0
 10
142.7341897198865
 20
153.4484437471474
 30
0.0
 10
143.8552245303272
 20
154.2926649527359
 30
0.0
 10
144.9803934580775
 20
155.1296514530327
 30
0.0
 10
146.3139908001845
 20
155.3044901642492
 30
0.0
 10
147.241066606852
 20
155.3044901642492
 30
0.0
 10
148.3855280820469
 20
155.3044901642492
 30
0.0
 10
149.4969166187653
 20
155.0752189084569
 30
0.0
 10
150.0784491203092
 20
153.8172414621372
 30
0.0
 10
150.5228667310863
 20
152.833838307127
 30
0.0
 10
150.5414702589793
 20
152.7201500811143
 30
0.0
 10
150.4140016419347
 20
150.7765981809602
 30
0.0
 10
151.5818897818837
 20
152.7699317437168
 30
0.0
 10
152.4424752018226
 20
153.6256940267945
 30
0.0
 10
153.9038856707499
 20
154.4507949398263
 30
0.0
 10
155.4455669174378
 20
155.3044901642492
 30
0.0
 10
156.339225275853
 20
155.3659851592288
 30
0.0
 10
157.3748216618963
 20
155.2147453676543
 30
0.0
 10
158.911679771723
 20
154.9877134254046
 30
0.0
 10
159.8859534176746
 20
154.4390816074493
 30
0.0
 10
160.3965169054045
 20
152.7816450760939
 30
0.0
 10
160.9070803931344
 20
151.1219692311958
 30
0.0
 10
160.6328506116007
 20
150.2303779314354
 30
0.0
 10
159.9992971339115
 20
147.597634224801
 30
0.0
 10
159.7105979417943
 20
146.4014962832367
 30
0.0
 10
159.2947746424084
 20
144.9400858143094
 30
0.0
 10
158.7463150793409
 20
143.2092687007094
 30
0.0
 10
158.7463150793409
 20
143.2092687007094
 30
0.0
 10
153.9038856707499
 20
127.8027915271048
 30
0.0
 10
153.9038856707499
 20
127.8027915271048
 30
0.0
 10
153.9038856707499
 20
127.8027915271048
 30
0.0
 10
151.3882752878863
 20
127.8027915271048
 30
0.0
 10
151.3882752878863
 20
127.8027915271048
 30
0.0
 10
151.3882752878863
 20
127.8027915271048
 30
0.0
 10
155.6250565106276
 20
141.2751908193897
 30
0.0
 10
155.6250565106276
 20
141.2751908193897
 30
0.0
 10
156.5094131050963
 20
144.0936252951782
 30
0.0
 10
157.109893644309
 20
146.1506931664571
 30
0.0
 10
157.4220195011804
 20
147.4415712963654
 30
0.0
 10
157.8095929989511
 20
149.0530157726519
 30
0.0
 10
157.9656559273867
 20
149.5826995529385
 30
0.0
 10
157.7816877071116
 20
150.7529992613181
 30
0.0
 10
157.6111553680925
 20
151.8430281919372
 30
0.0
 10
157.0582171779396
 20
152.5547853887321
 30
0.0
 10
156.1170164704645
 20
152.5547853887321
 30
0.0
 10
155.1096698860365
 20
152.5547853887321
 30
0.0
 10
154.2962823053817
 20
152.4412694176073
 30
0.0
 10
153.156643967048
 20
151.2945686288697
 30
0.0
 10
152.0170056287143
 20
150.1476955852443
 30
0.0
 10
151.076149431015
 20
148.7930831468137
 30
0.0
 10
150.3337308641742
 20
147.2290087646991
 30
0.0
 10
149.5957909244188
 20
145.6683794803425
 30
0.0
 10
148.8530278478023
 20
143.6822806228776
 30
0.0
 10
148.0964843801539
 20
141.2751908193897
 30
0.0
 10
148.0964843801539
 20
141.2751908193897
 30
0.0
 10
143.8552245303272
 20
127.8027915271048
 30
0.0
 10
143.8552245303272
 20
127.8027915271048
 30
0.0
 10
143.8552245303272
 20
127.8027915271048
 30
0.0
 10
141.486030802177
 20
127.8027915271048
 30
0.0
 10
141.486030802177
 20
127.8027915271048
 30
0.0
 10
141.486030802177
 20
127.8027915271048
 30
0.0
 10
146.3329388378533
 20
143.2092687007094
 30
0.0
 10
146.3329388378533
 20
143.2092687007094
 30
0.0
 10
146.8483254624444
 20
144.8408669988801
 30
0.0
 10
147.2314203331297
 20
146.1837661049335
 30
0.0
 10
147.4867020769946
 20
147.224185627838
 30
0.0
 10
147.9169947869641
 20
149.0197705792876
 30
0.0
 10
148.0306830129768
 20
150.2400242051577
 30
0.0
 10
147.709255392159
 20
151.3157559800812
 30
0.0
 10
147.3874832615654
 20
152.3916600098926
 30
0.0
 10
146.8245542879144
 20
152.6683013598569
 30
0.0
 10
145.8840425999909
 20
152.6683013598569
 30
0.0
 10
145.0989048209514
 20
152.6683013598569
 30
0.0
 10
144.3282364524954
 20
152.3275811915945
 30
0.0
 10
143.4531816219731
 20
151.6538923250251
 30
0.0
 10
142.34627171234
 20
150.8074318058939
 30
0.0
 10
141.901854101563
 20
150.1097995099067
 30
0.0
 10
141.3578731655808
 20
149.289521733736
 30
0.0
 10
140.6299240093235
 20
148.192602607601
 30
0.0
 10
140.2850697237515
 20
147.455696197173
 30
0.0
 10
139.6652966370942
 20
145.8385673095858
 30
0.0
 10
139.0506911970739
 20
144.2214384219986
 30
0.0
 10
138.463991048893
 20
142.3252566160164
 30
0.0
 10
138.0571250036777
 20
141.0154304484394
 30
0.0
 10
138.0571250036777
 20
141.0154304484394
 30
0.0
 10
133.9009590684727
 20
127.8027915271048
 30
0.0
 10
133.9009590684727
 20
127.8027915271048
 30
0.0
 10
133.9009590684727
 20
127.8027915271048
 30
0.0
 10
131.4180771143097
 20
127.8027915271048
 30
0.0
 10
131.4180771143097
 20
127.8027915271048
 30
0.0
 10
131.4180771143097
 20
127.8027915271048
 30
0.0
 10
139.8926730891197
 20
154.8294111834263
 30
0.0
 10
139.8926730891197
 20
154.8294111834263
 30
0.0
  0
HATCH
  5
6A9
330
6A2
100
AcDbEntity
  8
LOGO
 62
   250
420
  2234388
100
AcDbHatch
 10
0.0
 20
0.0
 30
0.0
210
0.0
220
0.0
230
1.0
  2
SOLID
 70
     1
 71
     0
 91
        1
 92
        1
 93
        1
 72
     4
 94
        3
 73
     0
 74
     1
 95
      104
 96
      100
 40
0.0
 40
0.0
 40
0.0
 40
0.0
 40
1.0
 40
1.0
 40
1.0
 40
2.0
 40
2.0
 40
2.0
 40
3.0
 40
3.0
 40
3.0
 40
4.0
 40
4.0
 40
4.0
 40
5.0
 40
5.0
 40
5.0
 40
6.0
 40
6.0
 40
6.0
 40
7.0
 40
7.0
 40
7.0
 40
8.0
 40
8.0
 40
8.0
 40
9.0
 40
9.0
 40
9.0
 40
10.0
 40
10.0
 40
10.0
 40
11.0
 40
11.0
 40
11.0
 40
12.0
 40
12.0
 40
12.0
 40
13.0
 40
13.0
 40
13.0
 40
14.0
 40
14.0
 40
14.0
 40
15.0
 40
15.0
 40
15.0
 40
16.0
 40
16.0
 40
16.0
 40
17.0
 40
17.0
 40
17.0
 40
18.0
 40
18.0
 40
18.0
 40
19.0
 40
19.0
 40
19.0
 40
20.0
 40
20.0
 40
20.0
 40
21.0
 40
21.0
 40
21.0
 40
22.0
 40
22.0
 40
22.0
 40
23.0
 40
23.0
 40
23.0
 40
24.0
 40
24.0
 40
24.0
 40
25.0
 40
25.0
 40
25.0
 40
26.0
 40
26.0
 40
26.0
 40
27.0
 40
27.0
 40
27.0
 40
28.0
 40
28.0
 40
28.0
 40
29.0
 40
29.0
 40
29.0
 40
30.0
 40
30.0
 40
30.0
 40
31.0
 40
31.0
 40
31.0
 40
32.0
 40
32.0
 40
32.0
 40
33.0
 40
33.0
 40
33.0
 40
33.0
 10
139.8926730891197
 20
154.8294111834263
 10
139.8926730891197
 20
154.8294111834263
 10
142.0344903652445
 20
154.8294111834263
 10
142.0344903652445
 20
154.8294111834263
 10
142.0344903652445
 20
154.8294111834263
 10
140.9516961399171
 20
151.3157559800812
 10
140.9516961399171
 20
151.3157559800812
 10
141.8928968473923
 20
152.7887075264977
 10
142.7341897198865
 20
153.4484437471474
 10
143.8552245303272
 20
154.2926649527359
 10
144.9803934580775
 20
155.1296514530327
 10
146.3139908001845
 20
155.3044901642492
 10
147.241066606852
 20
155.3044901642492
 10
148.3855280820469
 20
155.3044901642492
 10
149.4969166187653
 20
155.0752189084569
 10
150.0784491203092
 20
153.8172414621372
 10
150.5228667310863
 20
152.833838307127
 10
150.5414702589793
 20
152.7201500811143
 10
150.4140016419347
 20
150.7765981809602
 10
151.5818897818837
 20
152.7699317437168
 10
152.4424752018226
 20
153.6256940267945
 10
153.9038856707499
 20
154.4507949398263
 10
155.4455669174378
 20
155.3044901642492
 10
156.339225275853
 20
155.3659851592288
 10
157.3748216618963
 20
155.2147453676543
 10
158.911679771723
 20
154.9877134254046
 10
159.8859534176746
 20
154.4390816074493
 10
160.3965169054045
 20
152.7816450760939
 10
160.9070803931344
 20
151.1219692311958
 10
160.6328506116007
 20
150.2303779314354
 10
159.9992971339115
 20
147.597634224801
 10
159.7105979417943
 20
146.4014962832367
 10
159.2947746424084
 20
144.9400858143094
 10
158.7463150793409
 20
143.2092687007094
 10
158.7463150793409
 20
143.2092687007094
 10
153.9038856707499
 20
127.8027915271048
 10
153.9038856707499
 20
127.8027915271048
 10
153.9038856707499
 20
127.8027915271048
 10
151.3882752878863
 20
127.8027915271048
 10
151.3882752878863
 20
127.8027915271048
 10
151.3882752878863
 20
127.8027915271048
 10
155.6250565106276
 20
141.2751908193897
 10
155.6250565106276
 20
141.2751908193897
 10
156.5094131050963
 20
144.0936252951782
 10
157.109893644309
 20
146.1506931664571
 10
157.4220195011804
 20
147.4415712963654
 10
157.8095929989511
 20
149.0530157726519
 10
157.9656559273867
 20
149.5826995529385
 10
157.7816877071116
 20
150.7529992613181
 10
157.6111553680925
 20
151.8430281919372
 10
157.0582171779396
 20
152.5547853887321
 10
156.1170164704645
 20
152.5547853887321
 10
155.1096698860365
 20
152.5547853887321
 10
154.2962823053817
 20
152.4412694176073
 10
153.156643967048
 20
151.2945686288697
 10
152.0170056287143
 20
150.1476955852443
 10
151.076149431015
 20
148.7930831468137
 10
150.3337308641742
 20
147.2290087646991
 10
149.5957909244188
 20
145.6683794803425
 10
148.8530278478023
 20
143.6822806228776
 10
148.0964843801539
 20
141.2751908193897
 10
148.0964843801539
 20
141.2751908193897
 10
143.8552245303272
 20
127.8027915271048
 10
143.8552245303272
 20
127.8027915271048
 10
143.8552245303272
 20
127.8027915271048
 10
141.486030802177
 20
127.8027915271048
 10
141.486030802177
 20
127.8027915271048
 10
141.486030802177
 20
127.8027915271048
 10
146.3329388378533
 20
143.2092687007094
 10
146.3329388378533
 20
143.2092687007094
 10
146.8483254624444
 20
144.8408669988801
 10
147.2314203331297
 20
146.1837661049335
 10
147.4867020769946
 20
147.224185627838
 10
147.9169947869641
 20
149.0197705792876
 10
148.0306830129768
 20
150.2400242051577
 10
147.709255392159
 20
151.3157559800812
 10
147.3874832615654
 20
152.3916600098926
 10
146.8245542879144
 20
152.6683013598569
 10
145.8840425999909
 20
152.6683013598569
 10
145.0989048209514
 20
152.6683013598569
 10
144.3282364524954
 20
152.3275811915945
 10
143.4531816219731
 20
151.6538923250251
 10
142.34627171234
 20
150.8074318058939
 10
141.901854101563
 20
150.1097995099067
 10
141.3578731655808
 20
149.289521733736
 10
140.6299240093235
 20
148.192602607601
 10
140.2850697237515
 20
147.455696197173
 10
139.6652966370942
 20
145.8385673095858
 10
139.0506911970739
 20
144.2214384219986
 10
138.463991048893
 20
142.3252566160164
 10
138.0571250036777
 20
141.0154304484394
 10
138.0571250036777
 20
141.0154304484394
 10
133.9009590684727
 20
127.8027915271048
 10
133.9009590684727
 20
127.8027915271048
 10
133.9009590684727
 20
127.8027915271048
 10
131.4180771143097
 20
127.8027915271048
 10
131.4180771143097
 20
127.8027915271048
 10
131.4180771143097
 20
127.8027915271048
 10
139.8926730891197
 20
154.8294111834263
 10
139.8926730891197
 20
154.8294111834263
 97
        0
 75
     2
 76
     1
 98
        0
  0
SPLINE
  5
6AA
330
6A2
100
AcDbEntity
  8
LOGO
370
     0
100
AcDbSpline
210
0.0
220
0.0
230
1.0
 70
    11
 71
     3
 72
    29
 73
    25
 74
     0
 42
0.000000001
 43
0.0000000001
 40
0.0
 40
0.0
 40
0.0
 40
0.0
 40
1.0
 40
1.0
 40
1.0
 40
2.0
 40
2.0
 40
2.0
 40
3.0
 40
3.0
 40
3.0
 40
4.0
 40
4.0
 40
4.0
 40
5.0
 40
5.0
 40
5.0
 40
6.0
 40
6.0
 40
6.0
 40
7.0
 40
7.0
 40
7.0
 40
8.0
 40
8.0
 40
8.0
 40
8.0
 10
101.6420971922469
 20
132.8388354296931
 30
0.0
 10
101.630039350094
 20
134.7164137077823
 30
0.0
 10
102.2236296937908
 20
138.0598810818841
 30
0.0
 10
103.7487744712405
 20
142.5378191476827
 30
0.0
 10
105.819967243327
 20
148.5896501242061
 30
0.0
 10
107.0602024361932
 20
150.8074318058939
 30
0.0
 10
108.1522984254671
 20
151.8833358357054
 30
0.0
 10
109.741177511439
 20
153.4532668840085
 30
0.0
 10
111.8740375333931
 20
153.5290590346837
 30
0.0
 10
112.5075910110823
 20
153.4532668840085
 30
0.0
 10
113.4012493694975
 20
153.3490526768302
 30
0.0
 10
114.6683563248758
 20
152.7580461564518
 30
0.0
 10
114.7493161221879
 20
150.7838328862519
 30
0.0
 10
114.8106388622796
 20
149.0909118479895
 30
0.0
 10
114.3186789024427
 20
145.9191825971221
 30
0.0
 10
112.6164561002338
 20
140.9489400617108
 30
0.0
 10
110.6444821435766
 20
135.1746117095912
 30
0.0
 10
109.4669477299053
 20
132.8960240524753
 30
0.0
 10
108.5212683953448
 20
131.9072809959403
 30
0.0
 10
106.7346406980658
 20
130.0538184021569
 30
0.0
 10
104.8222669326213
 20
130.2336525051225
 30
0.0
 10
104.5408024457958
 20
130.2336525051225
 30
0.0
 10
104.1721769856939
 20
130.2336525051225
 30
0.0
 10
101.6465758193322
 20
130.6305277668397
 30
0.0
 10
101.6420971922469
 20
132.8388354296931
 30
0.0
  0
SPLINE
  5
6AB
330
6A2
100
AcDbEntity
  8
LOGO
370
     0
100
AcDbSpline
210
0.0
220
0.0
230
1.0
 70
    11
 71
     3
 72
    32
 73
    28
 74
     0
 42
0.000000001
 43
0.0000000001
 40
0.0
 40
0.0
 40
0.0
 40
0.0
 40
1.0
 40
1.0
 40
1.0
 40
2.0
 40
2.0
 40
2.0
 40
3.0
 40
3.0
 40
3.0
 40
4.0
 40
4.0
 40
4.0
 40
5.0
 40
5.0
 40
5.0
 40
6.0
 40
6.0
 40
6.0
 40
7.0
 40
7.0
 40
7.0
 40
8.0
 40
8.0
 40
8.0
 40
9.0
 40
9.0
 40
9.0
 40
9.0
 10
106.2595617172429
 20
153.4105476718098
 30
0.0
 10
104.8222669326213
 20
151.5474388043041
 30
0.0
 10
103.7177685914188
 20
149.8758773721411
 30
0.0
 10
101.9232171692965
 20
144.6141795664062
 30
0.0
 10
100.2754269116635
 20
139.7999999594306
 30
0.0
 10
99.22777268346732
 20
136.3052927937542
 30
0.0
 10
99.06964269637689
 20
132.039572749846
 30
0.0
 10
98.94665270641765
 20
128.8673267343149
 30
0.0
 10
100.8807305877373
 20
127.8027915271048
 30
0.0
 10
103.7129454545577
 20
127.8027915271048
 30
0.0
 10
104.9352661390825
 20
127.8027915271048
 30
0.0
 10
108.0151835347002
 20
127.8827177950895
 30
0.0
 10
110.2045431598849
 20
130.5926316915021
 30
0.0
 10
111.7417457794874
 20
132.4984597712065
 30
0.0
 10
113.155269389579
 20
134.475256864725
 30
0.0
 10
115.0562743324223
 20
140.9489400617108
 30
0.0
 10
116.6361961642235
 20
146.3680788349845
 30
0.0
 10
117.7282921534974
 20
149.8639917848761
 30
0.0
 10
117.6480213757369
 20
151.8595646611754
 30
0.0
 10
117.6480213757369
 20
151.8595646611754
 30
0.0
 10
117.6480213757369
 20
151.8595646611754
 30
0.0
 10
117.6480213757369
 20
151.8595646611754
 30
0.0
 10
117.13229024137
 20
155.18150017429
 30
0.0
 10
114.7162431837115
 20
155.886194920681
 30
0.0
 10
113.3351034925446
 20
155.886194920681
 30
0.0
 10
111.9829026225447
 20
155.886194920681
 30
0.0
 10
108.3414342923792
 20
156.1251124501957
 30
0.0
 10
106.2595617172429
 20
153.4105476718098
 30
0.0
  0
HATCH
  5
6AC
330
6A2
100
AcDbEntity
  8
LOGO
 62
   250
420
  2234388
100
AcDbHatch
 10
0.0
 20
0.0
 30
0.0
210
0.0
220
0.0
230
1.0
  2
SOLID
 70
     1
 71
     0
 91
        2
 92
        1
 93
        1
 72
     4
 94
        3
 73
     0
 74
     1
 95
       29
 96
       25
 40
0.0
 40
0.0
 40
0.0
 40
0.0
 40
1.0
 40
1.0
 40
1.0
 40
2.0
 40
2.0
 40
2.0
 40
3.0
 40
3.0
 40
3.0
 40
4.0
 40
4.0
 40
4.0
 40
5.0
 40
5.0
 40
5.0
 40
6.0
 40
6.0
 40
6.0
 40
7.0
 40
7.0
 40
7.0
 40
8.0
 40
8.0
 40
8.0
 40
8.0
 10
101.6420971922469
 20
132.8388354296931
 10
101.630039350094
 20
134.7164137077823
 10
102.2236296937908
 20
138.0598810818841
 10
103.7487744712405
 20
142.5378191476827
 10
105.819967243327
 20
148.5896501242061
 10
107.0602024361932
 20
150.8074318058939
 10
108.1522984254671
 20
151.8833358357054
 10
109.741177511439
 20
153.4532668840085
 10
111.8740375333931
 20
153.5290590346837
 10
112.5075910110823
 20
153.4532668840085
 10
113.4012493694975
 20
153.3490526768302
 10
114.6683563248758
 20
152.7580461564518
 10
114.7493161221879
 20
150.7838328862519
 10
114.8106388622796
 20
149.0909118479895
 10
114.3186789024427
 20
145.9191825971221
 10
112.6164561002338
 20
140.9489400617108
 10
110.6444821435766
 20
135.1746117095912
 10
109.4669477299053
 20
132.8960240524753
 10
108.5212683953448
 20
131.9072809959403
 10
106.7346406980658
 20
130.0538184021569
 10
104.8222669326213
 20
130.2336525051225
 10
104.5408024457958
 20
130.2336525051225
 10
104.1721769856939
 20
130.2336525051225
 10
101.6465758193322
 20
130.6305277668397
 10
101.6420971922469
 20
132.8388354296931
 97
        0
 92
        1
 93
        1
 72
     4
 94
        3
 73
     0
 74
     1
 95
       32
 96
       28
 40
0.0
 40
0.0
 40
0.0
 40
0.0
 40
1.0
 40
1.0
 40
1.0
 40
2.0
 40
2.0
 40
2.0
 40
3.0
 40
3.0
 40
3.0
 40
4.0
 40
4.0
 40
4.0
 40
5.0
 40
5.0
 40
5.0
 40
6.0
 40
6.0
 40
6.0
 40
7.0
 40
7.0
 40
7.0
 40
8.0
 40
8.0
 40
8.0
 40
9.0
 40
9.0
 40
9.0
 40
9.0
 10
106.2595617172429
 20
153.4105476718098
 10
104.8222669326213
 20
151.5474388043041
 10
103.7177685914188
 20
149.8758773721411
 10
101.9232171692965
 20
144.6141795664062
 10
100.2754269116635
 20
139.7999999594306
 10
99.22777268346732
 20
136.3052927937542
 10
99.06964269637689
 20
132.039572749846
 10
98.94665270641765
 20
128.8673267343149
 10
100.8807305877373
 20
127.8027915271048
 10
103.7129454545577
 20
127.8027915271048
 10
104.9352661390825
 20
127.8027915271048
 10
108.0151835347002
 20
127.8827177950895
 10
110.2045431598849
 20
130.5926316915021
 10
111.7417457794874
 20
132.4984597712065
 10
113.155269389579
 20
134.475256864725
 10
115.0562743324223
 20
140.9489400617108
 10
116.6361961642235
 20
146.3680788349845
 10
117.7282921534974
 20
149.8639917848761
 10
117.6480213757369
 20
151.8595646611754
 10
117.6480213757369
 20
151.8595646611754
 10
117.6480213757369
 20
151.8595646611754
 10
117.6480213757369
 20
151.8595646611754
 10
117.13229024137
 20
155.18150017429
 10
114.7162431837115
 20
155.886194920681
 10
113.3351034925446
 20
155.886194920681
 10
111.9829026225447
 20
155.886194920681
 10
108.3414342923792
 20
156.1251124501957
 10
106.2595617172429
 20
153.4105476718098
 97
        0
 75
     2
 76
     1
 98
        0
  0
ENDBLK
  5
6AD
330
6A2
100
AcDbEntity
  8
0
100
AcDbBlockEnd
  0
BLOCK
  5
1142
330
1141
100
AcDbEntity
  8
0
100
AcDbBlockBegin
  2
*D6
 70
     1
 10
0.0
 20
0.0
 30
0.0
  3
*D6
  1
*D19
  0
LINE
  5
1144
330
1141
100
AcDbEntity
  8
DIM
 62
     0
370
    -2
100
AcDbLine
 10
281.9952608903362
 20
481.570083544168
 30
0.0
 11
313.4298770904538
 21
512.9788701070281
 31
0.0
  0
MTEXT
  5
1145
330
1141
100
AcDbEntity
  8
DIM
 62
     0
100
AcDbMText
 10
288.9736207046667
 20
505.4667194434267
 30
0.0
 40
6.0
 41
0.0
 46
0.0
 71
     1
 72
     1
  1
\A1;φ180
  7
ＭＳ ゴシック
 11
0.7073973535593684
 21
0.7068160893593198
 31
0.0
 73
     1
 44
1.0
  0
INSERT
  5
1146
330
1141
100
AcDbEntity
  8
DIM
 62
     0
370
    -2
100
AcDbBlockReference
  2
_DOT
 10
280.5804661832175
 20
480.1564513654494
 30
0.0
 41
2.0
 42
2.0
 43
2.0
 50
224.9764505253884
  0
POINT
  5
1147
330
1141
100
AcDbEntity
  8
Defpoints
 62
     0
100
AcDbPoint
 10
280.5804661832175
 20
480.1564513654494
 30
0.0
  0
POINT
  5
1148
330
1141
100
AcDbEntity
  8
Defpoints
 62
     0
100
AcDbPoint
 10
153.2489425425305
 20
352.9295552807712
 30
0.0
  0
ENDBLK
  5
1143
330
1141
100
AcDbEntity
  8
0
100
AcDbBlockEnd
  0
BLOCK
  5
114A
330
1149
100
AcDbEntity
  8
0
100
AcDbBlockBegin
  2
*D7
 70
     1
 10
0.0
 20
0.0
 30
0.0
  3
*D7
  1
*D20
  0
LINE
  5
114C
330
1149
100
AcDbEntity
  8
DIM
 62
     0
370
    -2
100
AcDbLine
 10
341.6961390915027
 20
267.4915549631037
 30
0.0
 11
341.6961390915027
 21
226.5108390579637
 31
0.0
  0
LINE
  5
114D
330
1149
100
AcDbEntity
  8
DIM
 62
     0
370
    -2
100
AcDbLine
 10
388.6961390915027
 20
279.9915549631037
 30
0.0
 11
388.6961390915027
 21
226.5108390579637
 31
0.0
  0
LINE
  5
114E
330
1149
100
AcDbEntity
  8
DIM
 62
     0
370
    -2
100
AcDbLine
 10
343.6961390915027
 20
226.5108390579637
 30
0.0
 11
386.6961390915027
 21
226.5108390579637
 31
0.0
  0
INSERT
  5
114F
330
1149
100
AcDbEntity
  8
DIM
 62
     0
370
    -2
100
AcDbBlockReference
  2
_DOT
 10
341.6961390915027
 20
226.5108390579637
 30
0.0
 41
2.0
 42
2.0
 43
2.0
 50
180.0
  0
INSERT
  5
1150
330
1149
100
AcDbEntity
  8
DIM
 62
     0
370
    -2
100
AcDbBlockReference
  2
_DOT
 10
388.6961390915027
 20
226.5108390579637
 30
0.0
 41
2.0
 42
2.0
 43
2.0
  0
MTEXT
  5
1151
330
1149
100
AcDbEntity
  8
DIM
 62
     0
100
AcDbMText
 10
366.3348366661863
 20
237.5108390579637
 30
0.0
 40
6.0
 41
0.0
 46
0.0
 71
     2
 72
     1
  1
\A1;47
  7
ＭＳ ゴシック
 73
     1
 44
1.0
  0
POINT
  5
1152
330
1149
100
AcDbEntity
  8
Defpoints
 62
     0
100
AcDbPoint
 10
341.6961390915027
 20
272.4915549631037
 30
0.0
  0
POINT
  5
1153
330
1149
100
AcDbEntity
  8
Defpoints
 62
     0
100
AcDbPoint
 10
388.6961390915027
 20
284.9915549631037
 30
0.0
  0
POINT
  5
1154
330
1149
100
AcDbEntity
  8
Defpoints
 62
     0
100
AcDbPoint
 10
388.6961390915027
 20
226.5108390579637
 30
0.0
  0
ENDBLK
  5
114B
330
1149
100
AcDbEntity
  8
0
100
AcDbBlockEnd
  0
BLOCK
  5
1156
330
1155
100
AcDbEntity
  8
0
100
AcDbBlockBegin
  2
*D8
 70
     1
 10
0.0
 20
0.0
 30
0.0
  3
*D8
  1
*D21
  0
LINE
  5
1158
330
1155
100
AcDbEntity
  8
DIM
 62
     0
370
    -2
100
AcDbLine
 10
217.914704371737
 20
191.1933038456341
 30
0.0
 11
217.914704371737
 21
204.7189895159609
 31
0.0
  0
LINE
  5
1159
330
1155
100
AcDbEntity
  8
DIM
 62
     0
370
    -2
100
AcDbLine
 10
275.914704371737
 20
191.1933038456341
 30
0.0
 11
275.914704371737
 21
204.7189895159609
 31
0.0
  0
LINE
  5
115A
330
1155
100
AcDbEntity
  8
DIM
 62
     0
370
    -2
100
AcDbLine
 10
219.914704371737
 20
204.7189895159609
 30
0.0
 11
273.914704371737
 21
204.7189895159609
 31
0.0
  0
INSERT
  5
115B
330
1155
100
AcDbEntity
  8
DIM
 62
     0
370
    -2
100
AcDbBlockReference
  2
_DOT
 10
217.914704371737
 20
204.7189895159609
 30
0.0
 41
2.0
 42
2.0
 43
2.0
 50
180.0
  0
INSERT
  5
115C
330
1155
100
AcDbEntity
  8
DIM
 62
     0
370
    -2
100
AcDbBlockReference
  2
_DOT
 10
275.914704371737
 20
204.7189895159609
 30
0.0
 41
2.0
 42
2.0
 43
2.0
  0
MTEXT
  5
115D
330
1155
100
AcDbEntity
  8
DIM
 62
     0
100
AcDbMText
 10
246.3201937745747
 20
216.1689895159608
 30
0.0
 40
6.0
 41
0.0
 46
0.0
 71
     2
 72
     1
  1
\A1;%%c58
  7
ＭＳ ゴシック
 73
     1
 44
1.0
  0
POINT
  5
115E
330
1155
100
AcDbEntity
  8
Defpoints
 62
     0
100
AcDbPoint
 10
217.914704371737
 20
186.1933038456341
 30
0.0
  0
POINT
  5
115F
330
1155
100
AcDbEntity
  8
Defpoints
 62
     0
100
AcDbPoint
 10
275.914704371737
 20
186.1933038456341
 30
0.0
  0
POINT
  5
1160
330
1155
100
AcDbEntity
  8
Defpoints
 62
     0
100
AcDbPoint
 10
275.914704371737
 20
204.7189895159609
 30
0.0
  0
ENDBLK
  5
1157
330
1155
100
AcDbEntity
  8
0
100
AcDbBlockEnd
  0
BLOCK
  5
1162
330
1161
100
AcDbEntity
  8
0
100
AcDbBlockBegin
  2
*D9
 70
     1
 10
0.0
 20
0.0
 30
0.0
  3
*D9
  1
*D22
  0
LINE
  5
1164
330
1161
100
AcDbEntity
  8
DIM
 62
     0
370
    -2
100
AcDbLine
 10
279.914704371737
 20
176.1933038456341
 30
0.0
 11
316.0354357770034
 21
176.1933038456342
 31
0.0
  0
LINE
  5
1165
330
1161
100
AcDbEntity
  8
DIM
 62
     0
370
    -2
100
AcDbLine
 10
280.914704371737
 20
186.1933038456341
 30
0.0
 11
316.0354357770033
 21
186.1933038456342
 31
0.0
  0
LINE
  5
1166
330
1161
100
AcDbEntity
  8
DIM
 62
     0
370
    -2
100
AcDbLine
 10
316.0354357770033
 20
186.1933038456342
 30
0.0
 11
316.0354357770032
 21
206.9253038456342
 31
0.0
  0
LINE
  5
1167
330
1161
100
AcDbEntity
  8
DIM
 62
     0
370
    -2
100
AcDbLine
 10
316.0354357770034
 20
178.1933038456342
 30
0.0
 11
316.0354357770033
 21
184.1933038456342
 31
0.0
  0
INSERT
  5
1168
330
1161
100
AcDbEntity
  8
DIM
 62
     0
370
    -2
100
AcDbBlockReference
  2
_DOT
 10
316.0354357770034
 20
176.1933038456342
 30
0.0
 41
2.0
 42
2.0
 43
2.0
 50
270.0000000000002
  0
INSERT
  5
1169
330
1161
100
AcDbEntity
  8
DIM
 62
     0
370
    -2
100
AcDbBlockReference
  2
_DOT
 10
316.0354357770033
 20
186.1933038456342
 30
0.0
 41
2.0
 42
2.0
 43
2.0
 50
90.00000000000034
  0
MTEXT
  5
116A
330
1161
100
AcDbEntity
  8
DIM
 62
     0
100
AcDbMText
 10
305.0354357770033
 20
198.5593038456341
 30
0.0
 40
6.0
 41
0.0
 46
0.0
 71
     2
 72
     1
  1
\A1;10
  7
ＭＳ ゴシック
 11
-5.684341886080802E-15
 21
1.0
 31
0.0
 73
     1
 44
1.0
  0
POINT
  5
116B
330
1161
100
AcDbEntity
  8
Defpoints
 62
     0
100
AcDbPoint
 10
274.914704371737
 20
176.1933038456341
 30
0.0
  0
POINT
  5
116C
330
1161
100
AcDbEntity
  8
Defpoints
 62
     0
100
AcDbPoint
 10
275.914704371737
 20
186.1933038456341
 30
0.0
  0
POINT
  5
1226
330
1161
100
AcDbEntity
  8
Defpoints
 62
     0
100
AcDbPoint
 10
316.0354357770033
 20
186.1933038456342
 30
0.0
  0
ENDBLK
  5
1163
330
1161
100
AcDbEntity
  8
0
100
AcDbBlockEnd
  0
BLOCK
  5
117E
330
117D
100
AcDbEntity
  8
0
100
AcDbBlockBegin
  2
*D10
 70
     1
 10
0.0
 20
0.0
 30
0.0
  3
*D10
  1
*D22
  0
LINE
  5
1180
330
117D
100
AcDbEntity
  8
DIM
 62
     0
370
    -2
100
AcDbLine
 10
211.9147043629131
 20
506.5430001957089
 30
0.0
 11
36.5925482891216
 21
506.5430001957089
 31
0.0
  0
LINE
  5
1181
330
117D
100
AcDbEntity
  8
DIM
 62
     0
370
    -2
100
AcDbLine
 10
51.414704371737
 20
268.0430001957089
 30
0.0
 11
36.59254828912159
 21
268.0430001957089
 31
0.0
  0
LINE
  5
1182
330
117D
100
AcDbEntity
  8
DIM
 62
     0
370
    -2
100
AcDbLine
 10
36.5925482891216
 20
504.5430001957089
 30
0.0
 11
36.59254828912159
 21
270.0430001957089
 31
0.0
  0
INSERT
  5
1183
330
117D
100
AcDbEntity
  8
DIM
 62
     0
370
    -2
100
AcDbBlockReference
  2
_DOT
 10
36.5925482891216
 20
506.5430001957089
 30
0.0
 41
2.0
 42
2.0
 43
2.0
 50
90.0
  0
INSERT
  5
1184
330
117D
100
AcDbEntity
  8
DIM
 62
     0
370
    -2
100
AcDbBlockReference
  2
_DOT
 10
36.59254828912159
 20
268.0430001957089
 30
0.0
 41
2.0
 42
2.0
 43
2.0
 50
270.0
  0
MTEXT
  5
1185
330
117D
100
AcDbEntity
  8
DIM
 62
     0
100
AcDbMText
 10
28.59254828912159
 20
387.2930001957089
 30
0.0
 40
6.0
 41
0.0
 46
0.0
 71
     5
 72
     1
  1
\A1;238.5
  7
ＭＳ ゴシック
 11
5.958429649979876E-17
 21
1.0
 31
0.0
 73
     1
 44
1.0
  0
POINT
  5
1186
330
117D
100
AcDbEntity
  8
Defpoints
 62
     0
100
AcDbPoint
 10
216.9147043629131
 20
506.5430001957089
 30
0.0
  0
POINT
  5
1187
330
117D
100
AcDbEntity
  8
Defpoints
 62
     0
100
AcDbPoint
 10
56.414704371737
 20
268.0430001957089
 30
0.0
  0
POINT
  5
1188
330
117D
100
AcDbEntity
  8
Defpoints
 62
     0
100
AcDbPoint
 10
36.59254828912159
 20
268.0430001957089
 30
0.0
  0
ENDBLK
  5
117F
330
117D
100
AcDbEntity
  8
0
100
AcDbBlockEnd
  0
BLOCK
  5
11B6
330
11B5
100
AcDbEntity
  8
0
100
AcDbBlockBegin
  2
*D11
 70
     1
 10
0.0
 20
0.0
 30
0.0
  3
*D11
  1
*D11
  0
LINE
  5
11B8
330
11B5
100
AcDbEntity
  8
MODEL
 62
     0
370
    -2
100
AcDbLine
 10
341.6961390297753
 20
267.4915540529873
 30
0.0
 11
341.6961390297753
 21
247.4179517752545
 31
0.0
  0
LINE
  5
11B9
330
11B5
100
AcDbEntity
  8
MODEL
 62
     0
370
    -2
100
AcDbLine
 10
377.6961393426997
 20
263.1415549232152
 30
0.0
 11
377.6961393426997
 21
247.4179517752545
 31
0.0
  0
LINE
  5
11BA
330
11B5
100
AcDbEntity
  8
MODEL
 62
     0
370
    -2
100
AcDbLine
 10
343.6961390297753
 20
247.4179517752545
 30
0.0
 11
375.6961393426997
 21
247.4179517752545
 31
0.0
  0
INSERT
  5
11BB
330
11B5
100
AcDbEntity
  8
MODEL
 62
     0
370
    -2
100
AcDbBlockReference
  2
_DOT
 10
341.6961390297753
 20
247.4179517752545
 30
0.0
 41
2.0
 42
2.0
 43
2.0
 50
180.0
  0
INSERT
  5
11BC
330
11B5
100
AcDbEntity
  8
MODEL
 62
     0
370
    -2
100
AcDbBlockReference
  2
_DOT
 10
377.6961393426997
 20
247.4179517752545
 30
0.0
 41
2.0
 42
2.0
 43
2.0
  0
MTEXT
  5
11BD
330
11B5
100
AcDbEntity
  8
MODEL
 62
     0
100
AcDbMText
 10
359.6961391862375
 20
255.4179517752545
 30
0.0
 40
6.0
 41
0.0
 46
0.0
 71
     5
 72
     1
  1
\A1;36
  7
ＭＳ ゴシック
 73
     1
 44
1.0
  0
POINT
  5
11BE
330
11B5
100
AcDbEntity
  8
Defpoints
 62
     0
100
AcDbPoint
 10
341.6961390297753
 20
272.4915540529873
 30
0.0
  0
POINT
  5
11BF
330
11B5
100
AcDbEntity
  8
Defpoints
 62
     0
100
AcDbPoint
 10
377.6961393426997
 20
268.1415549232152
 30
0.0
  0
POINT
  5
11C0
330
11B5
100
AcDbEntity
  8
Defpoints
 62
     0
100
AcDbPoint
 10
377.6961393426997
 20
247.4179517752545
 30
0.0
  0
ENDBLK
  5
11B7
330
11B5
100
AcDbEntity
  8
0
100
AcDbBlockEnd
  0
BLOCK
  5
11C7
330
11C6
100
AcDbEntity
  8
0
100
AcDbBlockBegin
  2
*D12
 70
     1
 10
0.0
 20
0.0
 30
0.0
  3
*D12
  1
*D12
  0
LINE
  5
11C9
330
11C6
100
AcDbEntity
  8
DIM
 62
     0
370
    -2
100
AcDbLine
 10
341.6961390297753
 20
267.4915540529873
 30
0.0
 11
341.6961390297753
 21
244.9450674753599
 31
0.0
  0
LINE
  5
11CA
330
11C6
100
AcDbEntity
  8
DIM
 62
     0
370
    -2
100
AcDbLine
 10
377.6961390297753
 20
267.4915540529873
 30
0.0
 11
377.6961390297753
 21
244.9450674753599
 31
0.0
  0
LINE
  5
11CB
330
11C6
100
AcDbEntity
  8
DIM
 62
     0
370
    -2
100
AcDbLine
 10
343.6961390297753
 20
244.9450674753599
 30
0.0
 11
375.6961390297753
 21
244.9450674753599
 31
0.0
  0
INSERT
  5
11CC
330
11C6
100
AcDbEntity
  8
DIM
 62
     0
370
    -2
100
AcDbBlockReference
  2
_DOT
 10
341.6961390297753
 20
244.9450674753599
 30
0.0
 41
2.0
 42
2.0
 43
2.0
 50
180.0
  0
INSERT
  5
11CD
330
11C6
100
AcDbEntity
  8
DIM
 62
     0
370
    -2
100
AcDbBlockReference
  2
_DOT
 10
377.6961390297753
 20
244.9450674753599
 30
0.0
 41
2.0
 42
2.0
 43
2.0
  0
MTEXT
  5
11CE
330
11C6
100
AcDbEntity
  8
DIM
 62
     0
100
AcDbMText
 10
359.6961390297753
 20
252.9450674753599
 30
0.0
 40
6.0
 41
0.0
 46
0.0
 71
     5
 72
     1
  1
\A1;36
  7
ＭＳ ゴシック
 73
     1
 44
1.0
  0
POINT
  5
11CF
330
11C6
100
AcDbEntity
  8
Defpoints
 62
     0
100
AcDbPoint
 10
341.6961390297753
 20
272.4915540529873
 30
0.0
  0
POINT
  5
11D0
330
11C6
100
AcDbEntity
  8
Defpoints
 62
     0
100
AcDbPoint
 10
377.6961390297753
 20
272.4915540529873
 30
0.0
  0
POINT
  5
11D1
330
11C6
100
AcDbEntity
  8
Defpoints
 62
     0
100
AcDbPoint
 10
377.6961390297753
 20
244.9450674753599
 30
0.0
  0
ENDBLK
  5
11C8
330
11C6
100
AcDbEntity
  8
0
100
AcDbBlockEnd
  0
BLOCK
  5
11D7
330
11D6
100
AcDbEntity
  8
0
100
AcDbBlockBegin
  2
*D13
 70
     1
 10
0.0
 20
0.0
 30
0.0
  3
*D13
  1
*D13
  0
LINE
  5
11D9
330
11D6
100
AcDbEntity
  8
DIM
 62
     0
370
    -2
100
AcDbLine
 10
246.914704757078
 20
314.4915545298245
 30
0.0
 11
246.914704757078
 21
331.5943713245077
 31
0.0
  0
LINE
  5
11DA
330
11D6
100
AcDbEntity
  8
DIM
 62
     0
370
    -2
100
AcDbLine
 10
96.91470475707803
 20
314.4915545298245
 30
0.0
 11
96.91470475707803
 21
331.5943713245077
 31
0.0
  0
LINE
  5
11DB
330
11D6
100
AcDbEntity
  8
DIM
 62
     0
370
    -2
100
AcDbLine
 10
244.914704757078
 20
331.5943713245077
 30
0.0
 11
98.91470475707803
 21
331.5943713245077
 31
0.0
  0
INSERT
  5
11DC
330
11D6
100
AcDbEntity
  8
DIM
 62
     0
370
    -2
100
AcDbBlockReference
  2
_DOT
 10
246.914704757078
 20
331.5943713245077
 30
0.0
 41
2.0
 42
2.0
 43
2.0
  0
INSERT
  5
11DD
330
11D6
100
AcDbEntity
  8
DIM
 62
     0
370
    -2
100
AcDbBlockReference
  2
_DOT
 10
96.91470475707803
 20
331.5943713245077
 30
0.0
 41
2.0
 42
2.0
 43
2.0
 50
180.0
  0
MTEXT
  5
11DE
330
11D6
100
AcDbEntity
  8
DIM
 62
     0
100
AcDbMText
 10
171.914704757078
 20
339.5943713245077
 30
0.0
 40
6.0
 41
0.0
 46
0.0
 71
     5
 72
     1
  1
\A1;150
  7
ＭＳ ゴシック
 73
     1
 44
1.0
  0
POINT
  5
11DF
330
11D6
100
AcDbEntity
  8
Defpoints
 62
     0
100
AcDbPoint
 10
246.914704757078
 20
309.4915545298245
 30
0.0
  0
POINT
  5
11E0
330
11D6
100
AcDbEntity
  8
Defpoints
 62
     0
100
AcDbPoint
 10
96.91470475707803
 20
309.4915545298245
 30
0.0
  0
POINT
  5
11E1
330
11D6
100
AcDbEntity
  8
Defpoints
 62
     0
100
AcDbPoint
 10
96.91470475707803
 20
331.5943713245077
 30
0.0
  0
ENDBLK
  5
11D8
330
11D6
100
AcDbEntity
  8
0
100
AcDbBlockEnd
  0
BLOCK
  5
11E4
330
11E3
100
AcDbEntity
  8
0
100
AcDbBlockBegin
  2
*D14
 70
     1
 10
0.0
 20
0.0
 30
0.0
  3
*D14
  1
*D14
  0
LINE
  5
11E6
330
11E3
100
AcDbEntity
  8
DIM
 62
     0
370
    -2
100
AcDbLine
 10
216.9147035649852
 20
321.4915556772139
 30
0.0
 11
216.9147035649852
 21
337.2235552217222
 31
0.0
  0
LINE
  5
11E7
330
11E3
100
AcDbEntity
  8
DIM
 62
     0
370
    -2
100
AcDbLine
 10
66.91470784906903
 20
313.9915553791907
 30
0.0
 11
66.91470784906903
 21
337.2235552217222
 31
0.0
  0
LINE
  5
11E8
330
11E3
100
AcDbEntity
  8
DIM
 62
     0
370
    -2
100
AcDbLine
 10
214.9147035649852
 20
337.2235552217222
 30
0.0
 11
68.91470784906903
 21
337.2235552217222
 31
0.0
  0
INSERT
  5
11E9
330
11E3
100
AcDbEntity
  8
DIM
 62
     0
370
    -2
100
AcDbBlockReference
  2
_DOT
 10
216.9147035649852
 20
337.2235552217222
 30
0.0
 41
2.0
 42
2.0
 43
2.0
  0
INSERT
  5
11EA
330
11E3
100
AcDbEntity
  8
DIM
 62
     0
370
    -2
100
AcDbBlockReference
  2
_DOT
 10
66.91470784906903
 20
337.2235552217222
 30
0.0
 41
2.0
 42
2.0
 43
2.0
 50
180.0
  0
MTEXT
  5
11EB
330
11E3
100
AcDbEntity
  8
DIM
 62
     0
100
AcDbMText
 10
141.9147057070271
 20
345.2235552217222
 30
0.0
 40
6.0
 41
0.0
 46
0.0
 71
     5
 72
     1
  1
\A1;150
  7
ＭＳ ゴシック
 73
     1
 44
1.0
  0
POINT
  5
11EC
330
11E3
100
AcDbEntity
  8
Defpoints
 62
     0
100
AcDbPoint
 10
216.9147035649852
 20
316.4915556772139
 30
0.0
  0
POINT
  5
11ED
330
11E3
100
AcDbEntity
  8
Defpoints
 62
     0
100
AcDbPoint
 10
66.91470784906903
 20
308.9915553791907
 30
0.0
  0
POINT
  5
11EE
330
11E3
100
AcDbEntity
  8
Defpoints
 62
     0
100
AcDbPoint
 10
66.91470784906903
 20
337.2235552217222
 30
0.0
  0
ENDBLK
  5
11E5
330
11E3
100
AcDbEntity
  8
0
100
AcDbBlockEnd
  0
BLOCK
  5
1203
330
1202
100
AcDbEntity
  8
0
100
AcDbBlockBegin
  2
*D15
 70
     1
 10
0.0
 20
0.0
 30
0.0
  3
*D15
  1
*D15
  0
LINE
  5
1205
330
1202
100
AcDbEntity
  8
DIM
 62
     0
370
    -2
100
AcDbLine
 10
66.91470784906903
 20
263.1415549232152
 30
0.0
 11
66.91470784906903
 21
244.9450674753599
 31
0.0
  0
LINE
  5
1206
330
1202
100
AcDbEntity
  8
DIM
 62
     0
370
    -2
100
AcDbLine
 10
246.914707849069
 20
263.1415549232152
 30
0.0
 11
246.914707849069
 21
244.9450674753599
 31
0.0
  0
LINE
  5
1207
330
1202
100
AcDbEntity
  8
DIM
 62
     0
370
    -2
100
AcDbLine
 10
68.91470784906903
 20
244.9450674753599
 30
0.0
 11
244.914707849069
 21
244.9450674753599
 31
0.0
  0
INSERT
  5
1208
330
1202
100
AcDbEntity
  8
DIM
 62
     0
370
    -2
100
AcDbBlockReference
  2
_DOT
 10
66.91470784906903
 20
244.9450674753599
 30
0.0
 41
2.0
 42
2.0
 43
2.0
 50
180.0
  0
INSERT
  5
1209
330
1202
100
AcDbEntity
  8
DIM
 62
     0
370
    -2
100
AcDbBlockReference
  2
_DOT
 10
246.914707849069
 20
244.9450674753599
 30
0.0
 41
2.0
 42
2.0
 43
2.0
  0
MTEXT
  5
120A
330
1202
100
AcDbEntity
  8
DIM
 62
     0
100
AcDbMText
 10
156.914707849069
 20
252.9450674753599
 30
0.0
 40
6.0
 41
0.0
 46
0.0
 71
     5
 72
     1
  1
\A1;180
  7
ＭＳ ゴシック
 73
     1
 44
1.0
  0
POINT
  5
120B
330
1202
100
AcDbEntity
  8
Defpoints
 62
     0
100
AcDbPoint
 10
66.91470784906903
 20
268.1415549232152
 30
0.0
  0
POINT
  5
120C
330
1202
100
AcDbEntity
  8
Defpoints
 62
     0
100
AcDbPoint
 10
246.914707849069
 20
268.1415549232152
 30
0.0
  0
POINT
  5
120D
330
1202
100
AcDbEntity
  8
Defpoints
 62
     0
100
AcDbPoint
 10
246.914707849069
 20
244.9450674753599
 30
0.0
  0
ENDBLK
  5
1204
330
1202
100
AcDbEntity
  8
0
100
AcDbBlockEnd
  0
BLOCK
  5
1218
330
1217
100
AcDbEntity
  8
0
100
AcDbBlockBegin
  2
*D16
 70
     1
 10
0.0
 20
0.0
 30
0.0
  3
*D16
  1
*D16
  0
LINE
  5
121A
330
1217
100
AcDbEntity
  8
DIM
 62
     0
370
    -2
100
AcDbLine
 10
55.91470437173699
 20
155.1933038456341
 30
0.0
 11
55.91470437173699
 21
166.6880567607535
 31
0.0
  0
LINE
  5
121B
330
1217
100
AcDbEntity
  8
DIM
 62
     0
370
    -2
100
AcDbLine
 10
77.91470437173702
 20
155.1933038456341
 30
0.0
 11
77.91470437173702
 21
166.6880567607535
 31
0.0
  0
LINE
  5
121C
330
1217
100
AcDbEntity
  8
DIM
 62
     0
370
    -2
100
AcDbLine
 10
57.91470437173699
 20
166.6880567607535
 30
0.0
 11
75.91470437173702
 21
166.6880567607535
 31
0.0
  0
INSERT
  5
121D
330
1217
100
AcDbEntity
  8
DIM
 62
     0
370
    -2
100
AcDbBlockReference
  2
_DOT
 10
55.91470437173699
 20
166.6880567607535
 30
0.0
 41
2.0
 42
2.0
 43
2.0
 50
180.0
  0
INSERT
  5
121E
330
1217
100
AcDbEntity
  8
DIM
 62
     0
370
    -2
100
AcDbBlockReference
  2
_DOT
 10
77.91470437173702
 20
166.6880567607535
 30
0.0
 41
2.0
 42
2.0
 43
2.0
  0
MTEXT
  5
121F
330
1217
100
AcDbEntity
  8
DIM
 62
     0
100
AcDbMText
 10
66.914704371737
 20
174.9130567607535
 30
0.0
 40
6.0
 41
0.0
 46
0.0
 71
     5
 72
     1
  1
\A1;%%c22
  7
ＭＳ ゴシック
 73
     1
 44
1.0
  0
POINT
  5
1220
330
1217
100
AcDbEntity
  8
Defpoints
 62
     0
100
AcDbPoint
 10
55.91470437173699
 20
150.1933038456341
 30
0.0
  0
POINT
  5
1221
330
1217
100
AcDbEntity
  8
Defpoints
 62
     0
100
AcDbPoint
 10
77.91470437173702
 20
150.1933038456341
 30
0.0
  0
POINT
  5
1222
330
1217
100
AcDbEntity
  8
Defpoints
 62
     0
100
AcDbPoint
 10
77.91470437173702
 20
166.6880567607535
 30
0.0
  0
ENDBLK
  5
1219
330
1217
100
AcDbEntity
  8
0
100
AcDbBlockEnd
  0
ENDSEC
  0
SECTION
  2
ENTITIES
  0
MTEXT
  5
177
330
A
100
AcDbEntity
  8
TEMPLATE
390
1D
100
AcDbMText
 10
15.84042890954615
 20
68.74635032628566
 30
0.0
 40
3.257682291666666
 41
0.0
 46
0.0
 71
     1
 72
     1
  1
品名
  7
ＭＳ ゴシック
 73
     1
 44
0.7828267384257843
  0
MTEXT
  5
178
330
A
100
AcDbEntity
  8
TEMPLATE
390
1D
100
AcDbMText
 10
15.84042890954615
 20
51.74635032628562
 30
0.0
 40
3.257682291666666
 41
0.0
 46
0.0
 71
     1
 72
     1
  1
仕様
  7
ＭＳ ゴシック
 73
     1
 44
0.7828267384257843
  0
LINE
  5
179
330
A
100
AcDbEntity
  8
TEMPLATE
390
1D
100
AcDbLine
 10
404.4404289094498
 20
53.4293347012857
 30
0.0
 11
14.44042890944975
 21
53.4293347012857
 31
0.0
  0
LWPOLYLINE
  5
17A
330
A
100
AcDbEntity
  8
TEMPLATE
390
1D
100
AcDbPolyline
 90
        5
 70
   128
 43
0.0
 10
404.4404289094498
 20
579.4293347012853
 10
14.44042890944975
 20
579.4293347012853
 10
14.44042890944975
 20
19.42933470128565
 10
404.4404289094498
 20
19.42933470128565
 10
404.4404289094498
 20
579.4293347012853
  0
LINE
  5
17B
330
A
100
AcDbEntity
  8
TEMPLATE
390
1D
100
AcDbLine
 10
404.4404289094498
 20
70.42933470128563
 30
0.0
 11
14.44042890944975
 21
70.42933470128563
 31
0.0
  0
LINE
  5
17C
330
A
100
AcDbEntity
  8
TEMPLATE
390
1D
100
AcDbLine
 10
404.4404289095462
 20
36.42933470128564
 30
0.0
 11
253.840428909546
 21
36.42933470128564
 31
0.0
  0
MTEXT
  5
17E
330
A
100
AcDbEntity
  8
TEMPLATE
390
1D
100
AcDbMText
 10
259.8147101599982
 20
30.44725580662402
 30
0.0
 40
4.8865234375
 41
0.0
 46
0.0
 71
     1
 72
     1
  1
大洋金物株式会社 ティーフォルム事業部
  7
ＭＳ ゴシック
 73
     1
 44
0.7828267384257843
  0
MTEXT
  5
180
330
A
100
AcDbEntity
  8
TEMPLATE
390
1D
100
AcDbMText
 10
366.240428909598
 20
46.02985813878562
 30
0.0
 40
4.8865234375
 41
0.0
 46
4.8865234375
 71
     1
 72
     1
  1
{1:2}
  7
ＭＳ ゴシック
 73
     1
 44
0.7828267384257843
1001
ACAD
1000
ACAD_MTEXT_DEFINED_HEIGHT_BEGIN
1070
    46
1040
4.8865234375
1000
ACAD_MTEXT_DEFINED_HEIGHT_END
  0
MTEXT
  5
181
330
A
100
AcDbEntity
  8
TEMPLATE
390
1D
100
AcDbMText
 10
355.640428909598
 20
51.74635032628562
 30
0.0
 40
3.257682291666666
 41
0.0
 46
0.0
 71
     1
 72
     1
  1
縮尺
  7
ＭＳ ゴシック
 73
     1
 44
0.7828267384257843
  0
LINE
  5
182
330
A
100
AcDbEntity
  8
TEMPLATE
390
1D
100
AcDbLine
 10
354.240428909598
 20
36.42933470128564
 30
0.0
 11
354.240428909598
 21
53.4293347012857
 31
0.0
  0
MTEXT
  5
183
330
A
100
AcDbEntity
  8
TEMPLATE
390
1D
100
AcDbMText
 10
305.440428909598
 20
51.74635032628562
 30
0.0
 40
3.257682291666666
 41
0.0
 46
0.0
 71
     1
 72
     1
  1
容量
  7
ＭＳ ゴシック
 73
     1
 44
0.7828267384257843
  0
LINE
  5
184
330
A
100
AcDbEntity
  8
TEMPLATE
390
1D
100
AcDbLine
 10
304.040428909598
 20
36.42933470128564
 30
0.0
 11
304.040428909598
 21
53.4293347012857
 31
0.0
  0
MTEXT
  5
185
330
A
100
AcDbEntity
  8
TEMPLATE
390
1D
100
AcDbMText
 10
255.240428909598
 20
68.74635032628566
 30
0.0
 40
3.257682291666666
 41
0.0
 46
0.0
 71
     1
 72
     1
  1
品番
  7
ＭＳ ゴシック
 73
     1
 44
0.7828267384257843
  0
MTEXT
  5
186
330
A
100
AcDbEntity
  8
TEMPLATE
390
1D
100
AcDbMText
 10
255.240428909598
 20
51.74635032628562
 30
0.0
 40
3.257682291666666
 41
0.0
 46
0.0
 71
     1
 72
     1
  1
重量
  7
ＭＳ ゴシック
 73
     1
 44
0.7828267384257843
  0
MTEXT
  5
187
330
A
100
AcDbEntity
  8
TEMPLATE
390
1D
100
AcDbMText
 10
265.840428909598
 20
63.02985813878564
 30
0.0
 40
4.8865234375
 41
0.0
 46
4.8865234375
 71
     1
 72
     1
  1
{FRF74-2006}
  7
ＭＳ ゴシック
 73
     1
 44
0.7828267384257843
1001
ACAD
1000
ACAD_MTEXT_DEFINED_HEIGHT_BEGIN
1070
    46
1040
4.8865234375
1000
ACAD_MTEXT_DEFINED_HEIGHT_END
  0
LINE
  5
188
330
A
100
AcDbEntity
  8
TEMPLATE
390
1D
100
AcDbLine
 10
253.840428909598
 20
19.42933470128565
 30
0.0
 11
253.840428909598
 21
70.42933470128563
 31
0.0
  0
MTEXT
  5
189
330
A
100
AcDbEntity
  8
TEMPLATE
390
1D
100
AcDbMText
 10
26.44042890954614
 20
63.02985813878564
 30
0.0
 40
4.8865234375
 41
0.0
 46
5.5071119140625
 71
     1
 72
     1
  1
{ミラー　-LANGBERGER,Nero-}
  7
ＭＳ ゴシック
 73
     1
 44
0.7828267384257843
1001
ACAD
1000
ACAD_MTEXT_DEFINED_HEIGHT_BEGIN
1070
    46
1040
5.5071119140625
1000
ACAD_MTEXT_DEFINED_HEIGHT_END
  0
INSERT
  5
6B5
330
A
100
AcDbEntity
  8
TEMPLATE
100
AcDbBlockReference
  2
名称未設定-1
 10
374.15014961769
 20
5.189353151330762
 30
0.0
 41
0.1524
 42
0.1524
 43
0.1524
  0
MTEXT
  5
7D9
330
A
100
AcDbEntity
  8
TEMPLATE
390
1D
100
AcDbMText
 10
25.05086905520728
 20
45.36239520587904
 30
0.0
 40
4.8865234375
 41
0.0
 46
5.580409765625
 71
     1
 72
     1
  1
{両面ミラー、反対面:拡大鏡}
  7
ＭＳ ゴシック
 73
     1
 44
0.7828267384257843
1001
ACAD
1000
ACAD_MTEXT_DEFINED_HEIGHT_BEGIN
1070
    46
1040
5.580409765625
1000
ACAD_MTEXT_DEFINED_HEIGHT_END
  0
INSERT
  5
68C
330
A
100
AcDbEntity
  8
TEMPLATE
100
AcDbBlockReference
  2
block 2
 10
1838.548603540515
 20
16.74615302867274
 30
0.0
 41
0.7619999999999998
 42
0.7619999999999998
 43
0.7619999999999998
  0
LINE
  5
1007
330
A
100
AcDbEntity
  8
MODEL
  6
Continuous
100
AcDbLine
 10
214.4098844922022
 20
326.5764194293406
 30
0.0
 11
214.4098844922022
 21
326.5415544374373
 31
0.0
  0
LINE
  5
1008
330
A
100
AcDbEntity
  8
MODEL
  6
Continuous
100
AcDbLine
 10
219.4217317349152
 20
326.5415544374373
 30
0.0
 11
219.4217317349152
 21
326.5764808966305
 31
0.0
  0
LINE
  5
1009
330
A
100
AcDbEntity
  8
MODEL
  6
Continuous
100
AcDbLine
 10
214.4158077037767
 20
326.5762611045029
 30
0.0
 11
214.4158077037767
 21
326.5415544374373
 31
0.0
  0
LINE
  5
100A
330
A
100
AcDbEntity
  8
MODEL
  6
Continuous
100
AcDbLine
 10
219.4158085233406
 20
326.5415544374373
 30
0.0
 11
219.4158085233406
 21
326.5763169838574
 31
0.0
  0
LINE
  5
100B
330
A
100
AcDbEntity
  8
MODEL
  6
Continuous
100
AcDbLine
 10
126.9147027826742
 20
416.5424502207429
 30
0.0
 11
126.9147027826742
 21
416.5392911745694
 31
0.0
  0
LINE
  5
100C
330
A
100
AcDbEntity
  8
MODEL
  6
Continuous
100
AcDbLine
 10
306.9147062099413
 20
416.5403938604982
 30
0.0
 11
306.9147062099413
 21
416.5435529066708
 31
0.0
  0
LINE
  5
100D
330
A
100
AcDbEntity
  8
MODEL
  6
Continuous
100
AcDbLine
 10
212.4147046900229
 20
317.612432198086
 30
0.0
 11
211.8548121846155
 21
316.9915548278477
 31
0.0
  0
LWPOLYLINE
  5
100E
330
A
100
AcDbEntity
  8
MODEL
  6
Continuous
100
AcDbPolyline
 90
        3
 70
   128
 43
0.0
 10
221.9745949453549
 20
316.9915548278477
 10
221.8528412825302
 20
317.1409296555903
 10
221.4147043025927
 20
317.612432198086
  0
LINE
  5
100F
330
A
100
AcDbEntity
  8
MODEL
  6
Continuous
100
AcDbLine
 10
221.4147043025927
 20
317.612432198086
 30
0.0
 11
221.4147043025927
 21
326.5415544374373
 31
0.0
  0
LINE
  5
1010
330
A
100
AcDbEntity
  8
MODEL
  6
Continuous
100
AcDbLine
 10
212.4147046900229
 20
326.5415544374373
 30
0.0
 11
212.4147046900229
 21
317.612432198086
 31
0.0
  0
LINE
  5
1011
330
A
100
AcDbEntity
  8
MODEL
  6
Continuous
100
AcDbLine
 10
77.80437214140454
 20
286.8812151937273
 30
0.0
 11
77.91470033888379
 21
286.9915545670774
 31
0.0
  0
LINE
  5
1012
330
A
100
AcDbEntity
  8
MODEL
  6
Continuous
100
AcDbLine
 10
77.91470033888379
 20
290.9915547570672
 30
0.0
 11
77.80192835096875
 21
291.1043253479984
 31
0.0
  0
LINE
  5
1013
330
A
100
AcDbEntity
  8
MODEL
  6
Continuous
100
AcDbLine
 10
236.0274749419526
 20
291.1043253479984
 30
0.0
 11
235.9147048166827
 21
290.9915547570672
 31
0.0
  0
LINE
  5
1014
330
A
100
AcDbEntity
  8
MODEL
  6
Continuous
100
AcDbLine
 10
235.9147048166827
 20
286.9915545670774
 30
0.0
 11
236.0250441900329
 21
286.8812151937273
 31
0.0
  0
LINE
  5
1015
330
A
100
AcDbEntity
  8
MODEL
  6
Continuous
100
AcDbLine
 10
227.9147044367031
 20
292.9915550848928
 30
0.0
 11
227.9147044367031
 21
316.4915556772139
 31
0.0
  0
LINE
  5
1016
330
A
100
AcDbEntity
  8
MODEL
  6
Continuous
100
AcDbLine
 10
205.9147026932673
 20
294.4915548651006
 30
0.0
 11
205.9147026932673
 21
292.9915550848928
 31
0.0
  0
LINE
  5
1017
330
A
100
AcDbEntity
  8
MODEL
  6
Continuous
100
AcDbLine
 10
205.9147026932673
 20
316.4915556772139
 30
0.0
 11
205.9147026932673
 21
307.4915551333215
 31
0.0
  0
ARC
  5
1018
330
A
100
AcDbEntity
  8
MODEL
  6
Continuous
100
AcDbCircle
 10
206.414704371737
 20
316.4915549631037
 30
0.0
 40
0.5000000000000142
100
AcDbArc
 50
90.0
 51
180.0
  0
ARC
  5
1019
330
A
100
AcDbEntity
  8
MODEL
  6
Continuous
100
AcDbCircle
 10
227.414704371737
 20
316.4915549631037
 30
0.0
 40
0.5000000000000142
100
AcDbArc
 50
0.0
 51
90.0
  0
LINE
  5
101A
330
A
100
AcDbEntity
  8
MODEL
  6
Continuous
100
AcDbLine
 10
55.91470045809308
 20
308.4915552972343
 30
0.0
 11
55.91470045809308
 21
284.9915551705744
 31
0.0
  0
LINE
  5
101B
330
A
100
AcDbEntity
  8
MODEL
  6
Continuous
100
AcDbLine
 10
77.91470033888379
 20
307.4915551333215
 30
0.0
 11
77.91470033888379
 21
308.4915552972343
 31
0.0
  0
LINE
  5
101C
330
A
100
AcDbEntity
  8
MODEL
  6
Continuous
100
AcDbLine
 10
77.91470033888379
 20
291.7219356386449
 30
0.0
 11
77.91470033888379
 21
294.4915548651006
 31
0.0
  0
LINE
  5
101D
330
A
100
AcDbEntity
  8
MODEL
  6
Continuous
100
AcDbLine
 10
77.91470033888379
 20
284.9915551705744
 30
0.0
 11
77.91470033888379
 21
286.2753544686821
 31
0.0
  0
ARC
  5
101E
330
A
100
AcDbEntity
  8
MODEL
  6
Continuous
100
AcDbCircle
 10
56.414704371737
 20
308.4915549631037
 30
0.0
 40
0.5000000000000142
100
AcDbArc
 50
90.0
 51
180.0
  0
ARC
  5
101F
330
A
100
AcDbEntity
  8
MODEL
  6
Continuous
100
AcDbCircle
 10
77.414704371737
 20
308.4915549631037
 30
0.0
 40
0.5000000000000142
100
AcDbArc
 50
0.0
 51
90.0
  0
LINE
  5
1020
330
A
100
AcDbEntity
  8
MODEL
  6
Continuous
100
AcDbLine
 10
77.91470033888379
 20
294.4915548651006
 30
0.0
 11
205.9147026932673
 21
294.4915548651006
 31
0.0
  0
LINE
  5
1021
330
A
100
AcDbEntity
  8
MODEL
  6
Continuous
100
AcDbLine
 10
205.9147026932673
 20
307.4915551333215
 30
0.0
 11
77.91470033888379
 21
307.4915551333215
 31
0.0
  0
LINE
  5
1022
330
A
100
AcDbEntity
  8
MODEL
  6
Continuous
100
AcDbLine
 10
77.91470033888379
 20
282.6415545059826
 30
0.0
 11
77.91470033888379
 21
284.1415547518518
 31
0.0
  0
LINE
  5
1023
330
A
100
AcDbEntity
  8
MODEL
  6
Continuous
100
AcDbLine
 10
77.91470033888379
 20
268.641554073849
 30
0.0
 11
77.91470033888379
 21
269.6415542377617
 31
0.0
  0
LINE
  5
1024
330
A
100
AcDbEntity
  8
MODEL
  6
Continuous
100
AcDbLine
 10
55.91470045809308
 20
284.1415547518518
 30
0.0
 11
55.91470045809308
 21
268.641554073849
 31
0.0
  0
ARC
  5
1025
330
A
100
AcDbEntity
  8
MODEL
  6
Continuous
100
AcDbCircle
 10
77.414704371737
 20
268.6415549631033
 30
0.0
 40
0.5000000000000142
100
AcDbArc
 50
270.0
 51
0.0
  0
ARC
  5
1026
330
A
100
AcDbEntity
  8
MODEL
  6
Continuous
100
AcDbCircle
 10
56.414704371737
 20
268.6415549631033
 30
0.0
 40
0.5000000000000142
100
AcDbArc
 50
180.0
 51
270.0
  0
LINE
  5
1027
330
A
100
AcDbEntity
  8
MODEL
  6
Continuous
100
AcDbLine
 10
257.9147046974734
 20
268.641554073849
 30
0.0
 11
257.9147046974734
 21
284.1415547518518
 31
0.0
  0
LINE
  5
1028
330
A
100
AcDbEntity
  8
MODEL
  6
Continuous
100
AcDbLine
 10
235.9147048166827
 20
269.6415542377617
 30
0.0
 11
235.9147048166827
 21
268.641554073849
 31
0.0
  0
LINE
  5
1029
330
A
100
AcDbEntity
  8
MODEL
  6
Continuous
100
AcDbLine
 10
235.9147048166827
 20
284.1415547518518
 30
0.0
 11
235.9147048166827
 21
282.6415545059826
 31
0.0
  0
ARC
  5
102A
330
A
100
AcDbEntity
  8
MODEL
  6
Continuous
100
AcDbCircle
 10
257.414704371737
 20
268.6415549631033
 30
0.0
 40
0.5000000000000142
100
AcDbArc
 50
270.0
 51
0.0
  0
ARC
  5
102B
330
A
100
AcDbEntity
  8
MODEL
  6
Continuous
100
AcDbCircle
 10
236.414704371737
 20
268.6415549631033
 30
0.0
 40
0.5000000000000142
100
AcDbArc
 50
180.0
 51
270.0
  0
LINE
  5
102C
330
A
100
AcDbEntity
  8
MODEL
  6
Continuous
100
AcDbLine
 10
77.91470033888379
 20
269.6415542377617
 30
0.0
 11
235.9147048166827
 21
269.6415542377617
 31
0.0
  0
LINE
  5
102D
330
A
100
AcDbEntity
  8
MODEL
  6
Continuous
100
AcDbLine
 10
235.9147048166827
 20
282.6415545059826
 30
0.0
 11
77.91470033888379
 21
282.6415545059826
 31
0.0
  0
ARC
  5
102E
330
A
100
AcDbEntity
  8
MODEL
  6
Continuous
100
AcDbCircle
 10
56.31470437173664
 20
284.7915549631039
 30
0.0
 40
0.2000000000001378
100
AcDbArc
 50
90.0
 51
180.0
  0
ARC
  5
102F
330
A
100
AcDbEntity
  8
MODEL
  6
Continuous
100
AcDbCircle
 10
77.51470437173646
 20
284.7915549631039
 30
0.0
 40
0.2000000000001592
100
AcDbArc
 50
0.0
 51
90.0
  0
LINE
  5
1030
330
A
100
AcDbEntity
  8
MODEL
  6
Continuous
100
AcDbLine
 10
77.71469695333997
 20
284.3415553434279
 30
0.0
 11
77.71469695333997
 21
284.7915545789983
 31
0.0
  0
LINE
  5
1031
330
A
100
AcDbEntity
  8
MODEL
  6
Continuous
100
AcDbLine
 10
56.1147038436369
 20
284.7915545789983
 30
0.0
 11
56.1147038436369
 21
284.3415553434279
 31
0.0
  0
ARC
  5
1032
330
A
100
AcDbEntity
  8
MODEL
  6
Continuous
100
AcDbCircle
 10
77.51470437173646
 20
284.3415549631036
 30
0.0
 40
0.2000000000001592
100
AcDbArc
 50
270.0
 51
0.0
  0
ARC
  5
1033
330
A
100
AcDbEntity
  8
MODEL
  6
Continuous
100
AcDbCircle
 10
56.31470437173664
 20
284.3415549631036
 30
0.0
 40
0.2000000000001378
100
AcDbArc
 50
180.0
 51
270.0
  0
ARC
  5
1034
330
A
100
AcDbEntity
  8
MODEL
  6
Continuous
100
AcDbCircle
 10
236.3147043717366
 20
284.7915549631039
 30
0.0
 40
0.2000000000001165
100
AcDbArc
 50
90.0
 51
180.0
  0
ARC
  5
1035
330
A
100
AcDbEntity
  8
MODEL
  6
Continuous
100
AcDbCircle
 10
257.5147043717365
 20
284.7915549631039
 30
0.0
 40
0.2000000000001165
100
AcDbArc
 50
0.0
 51
90.0
  0
ARC
  5
1036
330
A
100
AcDbEntity
  8
MODEL
  6
Continuous
100
AcDbCircle
 10
257.5147043717365
 20
284.3415549631036
 30
0.0
 40
0.2000000000001165
100
AcDbArc
 50
270.0
 51
0.0
  0
ARC
  5
1037
330
A
100
AcDbEntity
  8
MODEL
  6
Continuous
100
AcDbCircle
 10
236.3147043717366
 20
284.3415549631036
 30
0.0
 40
0.2000000000001165
100
AcDbArc
 50
180.0
 51
270.0
  0
LINE
  5
1038
330
A
100
AcDbEntity
  8
MODEL
  6
Continuous
100
AcDbLine
 10
257.7147041058973
 20
284.3415553434279
 30
0.0
 11
257.7147041058973
 21
284.7915545789983
 31
0.0
  0
LINE
  5
1039
330
A
100
AcDbEntity
  8
MODEL
  6
Continuous
100
AcDbLine
 10
236.1147044769363
 20
284.7915545789983
 30
0.0
 11
236.1147044769363
 21
284.3415553434279
 31
0.0
  0
LINE
  5
103A
330
A
100
AcDbEntity
  8
MODEL
  6
Continuous
100
AcDbLine
 10
235.9147048166827
 20
286.2753544686821
 30
0.0
 11
235.9147048166827
 21
284.9915551705744
 31
0.0
  0
LINE
  5
103B
330
A
100
AcDbEntity
  8
MODEL
  6
Continuous
100
AcDbLine
 10
235.9147048166827
 20
309.4915545298245
 30
0.0
 11
235.9147048166827
 21
291.7219356386449
 31
0.0
  0
LINE
  5
103C
330
A
100
AcDbEntity
  8
MODEL
  6
Continuous
100
AcDbLine
 10
257.9147046974734
 20
284.9915551705744
 30
0.0
 11
257.9147046974734
 21
309.4915545298245
 31
0.0
  0
SPLINE
  5
103D
330
A
100
AcDbEntity
  8
MODEL
  6
Continuous
100
AcDbSpline
210
0.0
220
0.0
230
1.0
 70
     8
 71
     3
 72
    12
 73
     8
 74
     0
 42
0.000000001
 43
0.00000001
 40
0.0
 40
0.0
 40
0.0
 40
0.0
 40
0.21789451427934
 40
0.435926296081354
 40
0.6514064588876992
 40
0.8660079530957187
 40
1.0
 40
1.0
 40
1.0
 40
1.0
 10
249.8217707809866
 20
332.7717727734234
 30
0.0
 10
249.9814007223653
 20
332.834800425519
 30
0.0
 10
250.3007611675752
 20
332.960895435388
 30
0.0
 10
250.722751749949
 20
333.1311258253959
 30
0.0
 10
251.0376577232095
 20
333.2596947005054
 30
0.0
 10
251.1984720010208
 20
333.3260205152292
 30
0.0
 10
251.2149989188596
 20
333.3329100243614
 30
0.0
 10
251.2213515194939
 20
333.3355582071927
 30
0.0
  0
ARC
  5
103E
330
A
100
AcDbEntity
  8
MODEL
  6
Continuous
100
AcDbCircle
 10
216.9145649589312
 20
416.5407177867337
 30
0.0
 40
90.00066814774226
100
AcDbArc
 50
271.5963066003561
 51
291.446537199515
  0
ARC
  5
103F
330
A
100
AcDbEntity
  8
MODEL
  6
Continuous
100
AcDbCircle
 10
216.9147167613913
 20
416.5401111190831
 30
0.0
 40
90.00005815600156
100
AcDbArc
 50
248.5548026080945
 51
268.4051693462773
  0
SPLINE
  5
1040
330
A
100
AcDbEntity
  8
MODEL
  6
Continuous
100
AcDbSpline
210
0.0
220
0.0
230
1.0
 70
     8
 71
     3
 72
    12
 73
     8
 74
     0
 42
0.000000001
 43
0.00000001
 40
0.0
 40
0.0
 40
0.0
 40
0.0
 40
0.2146769367093736
 40
0.4294538676514491
 40
0.6429794529485793
 40
0.8579458646100785
 40
0.9999999999999999
 40
0.9999999999999999
 40
0.9999999999999999
 40
0.9999999999999999
 10
182.6100949740843
 20
333.3347162915857
 30
0.0
 10
182.6257110670944
 20
333.3282254075625
 30
0.0
 10
182.6569505269239
 20
333.315240616133
 30
0.0
 10
182.8981839148076
 20
333.2160521362744
 30
0.0
 10
183.2523482206619
 20
333.0721297374589
 30
0.0
 10
183.6452042975501
 20
332.9146150850916
 30
0.0
 10
183.9059474566378
 20
332.8118524061133
 30
0.0
 10
184.009693989797
 20
332.7709643854287
 30
0.0
  0
LINE
  5
1041
330
A
100
AcDbEntity
  8
MODEL
  6
Continuous
100
AcDbLine
 10
182.6104302502112
 20
333.3345784558442
 30
0.0
 11
182.6104302502112
 21
333.3350180400998
 31
0.0
  0
SPLINE
  5
1042
330
A
100
AcDbEntity
  8
MODEL
  6
Continuous
100
AcDbSpline
210
0.0
220
0.0
230
1.0
 70
     8
 71
     3
 72
    10
 73
     6
 74
     0
 42
0.000000001
 43
0.00000001
 40
0.0
 40
0.0
 40
0.0
 40
0.0
 40
0.3333247861787003
 40
0.6666489276066119
 40
1.0
 40
1.0
 40
1.0
 40
1.0
 10
182.6107580757574
 20
333.3348839296491
 30
0.0
 10
182.7926023036383
 20
333.26038493653
 30
0.0
 10
183.1562904076558
 20
333.1113870943968
 30
0.0
 10
183.5499685649305
 20
332.9539692425747
 30
0.0
 10
183.6530201412683
 20
332.9131306958766
 30
0.0
 10
183.7045480108694
 20
332.8927105976732
 30
0.0
  0
SPLINE
  5
1043
330
A
100
AcDbEntity
  8
MODEL
  6
Continuous
100
AcDbSpline
210
0.0
220
0.0
230
1.0
 70
     8
 71
     3
 72
    11
 73
     7
 74
     0
 42
0.000000001
 43
0.00000001
 40
0.0
 40
0.0
 40
0.0
 40
0.0
 40
0.163076111588624
 40
0.4536887536992452
 40
0.7443128003306677
 40
1.0
 40
1.0
 40
1.0
 40
1.0
 10
183.6989526248411
 20
332.8950091017869
 30
0.0
 10
183.7026905859133
 20
332.8935561001922
 30
0.0
 10
183.7130898460113
 20
332.889513751647
 30
0.0
 10
183.4969349550805
 20
332.9756020117043
 30
0.0
 10
183.1180149907863
 20
333.1277687149236
 30
0.0
 10
182.772447513876
 20
333.2695229240544
 30
0.0
 10
182.6107133722738
 20
333.3358674062879
 30
0.0
  0
LINE
  5
1044
330
A
100
AcDbEntity
  8
MODEL
  6
Continuous
100
AcDbLine
 10
182.6104302502112
 20
333.335986615577
 30
0.0
 11
182.6104302502112
 21
333.3364261998327
 31
0.0
  0
SPLINE
  5
1045
330
A
100
AcDbEntity
  8
MODEL
  6
Continuous
100
AcDbSpline
210
0.0
220
0.0
230
1.0
 70
     8
 71
     3
 72
    12
 73
     8
 74
     0
 42
0.000000001
 43
0.00000001
 40
0.0
 40
0.0
 40
0.0
 40
0.0
 40
0.217896027532456
 40
0.435926311531673
 40
0.6514067634688507
 40
0.8660083604701756
 40
1.0
 40
1.0
 40
1.0
 40
1.0
 10
184.009693989797
 20
332.77360189096
 30
0.0
 10
183.8500615664738
 20
332.836617315972
 30
0.0
 10
183.5306983624345
 20
332.9626869929007
 30
0.0
 10
183.1087061648963
 20
333.1327650307603
 30
0.0
 10
182.7937963365242
 20
333.2611213527466
 30
0.0
 10
182.6329742903148
 20
333.327225528436
 30
0.0
 10
182.6164475086229
 20
333.3339684704092
 30
0.0
 10
182.6100949740843
 20
333.3365603102834
 30
0.0
  0
ARC
  5
1046
330
A
100
AcDbEntity
  8
MODEL
  6
Continuous
100
AcDbCircle
 10
216.914707358132
 20
416.5426938506744
 30
0.0
 40
90.00000373625198
100
AcDbArc
 50
248.5547954310267
 51
291.4466056424635
  0
SPLINE
  5
1047
330
A
100
AcDbEntity
  8
MODEL
  6
Continuous
100
AcDbSpline
210
0.0
220
0.0
230
1.0
 70
     8
 71
     3
 72
    12
 73
     8
 74
     0
 42
0.000000001
 43
0.00000001
 40
0.0
 40
0.0
 40
0.0
 40
0.0
 40
0.2146752842785611
 40
0.4294527815764108
 40
0.6429788854316675
 40
0.8579463549282986
 40
1.0
 40
1.0
 40
1.0
 40
1.0
 10
251.2213515194939
 20
333.3374022258904
 30
0.0
 10
251.2057359995637
 20
333.3310001415316
 30
0.0
 10
251.1744975247105
 20
333.3181929245998
 30
0.0
 10
250.9332738288298
 20
333.2192355974016
 30
0.0
 10
250.5791093459596
 20
333.0754845471524
 30
0.0
 10
250.1862574685523
 20
332.9180525400629
 30
0.0
 10
249.9255160014894
 20
332.8152957502848
 30
0.0
 10
249.8217706645713
 20
332.7744102789547
 30
0.0
  0
LINE
  5
1048
330
A
100
AcDbEntity
  8
MODEL
  6
Continuous
100
AcDbLine
 10
251.2210199686573
 20
333.3372681154397
 30
0.0
 11
251.2210199686573
 21
333.3368285311849
 31
0.0
  0
SPLINE
  5
1049
330
A
100
AcDbEntity
  8
MODEL
  6
Continuous
100
AcDbSpline
210
0.0
220
0.0
230
1.0
 70
     8
 71
     3
 72
    11
 73
     7
 74
     0
 42
0.000000001
 43
0.00000001
 40
0.0
 40
0.0
 40
0.0
 40
0.0
 40
0.2907340230730523
 40
0.5814667742313998
 40
0.872223035986285
 40
1.0
 40
1.0
 40
1.0
 40
1.0
 10
251.2206909789578
 20
333.3366906954434
 30
0.0
 10
251.0374245428542
 20
333.2615644276202
 30
0.0
 10
250.6708924724084
 20
333.1113122206393
 30
0.0
 10
250.2985706933654
 20
332.9620744899435
 30
0.0
 10
250.1069012208203
 20
332.8857649454881
 30
0.0
 10
250.1265251059971
 20
332.8934748534166
 30
0.0
 10
250.1325162204788
 20
332.895828665653
 30
0.0
  0
SPLINE
  5
104A
330
A
100
AcDbEntity
  8
MODEL
  6
Continuous
100
AcDbSpline
210
0.0
220
0.0
230
1.0
 70
     8
 71
     3
 72
    10
 73
     6
 74
     0
 42
0.000000001
 43
0.00000001
 40
0.0
 40
0.0
 40
0.0
 40
0.0
 40
0.3472390976608323
 40
0.6944899796318242
 40
1.0
 40
1.0
 40
1.0
 40
1.0
 10
250.1396620257632
 20
332.8985667540223
 30
0.0
 10
250.1994082290988
 20
332.9222683198204
 30
0.0
 10
250.3189026633867
 20
332.9696722557815
 30
0.0
 10
250.7168022879254
 20
333.1291212005503
 30
0.0
 10
251.0600745896776
 20
333.2698701158401
 30
0.0
 10
251.2207354496107
 20
333.335744471708
 30
0.0
  0
LINE
  5
104B
330
A
100
AcDbEntity
  8
MODEL
  6
Continuous
100
AcDbLine
 10
251.2210199686573
 20
333.3358599557068
 30
0.0
 11
251.2210199686573
 21
333.3354203714521
 31
0.0
  0
SPLINE
  5
104C
330
A
100
AcDbEntity
  8
MODEL
  6
Continuous
100
AcDbSpline
210
0.0
220
0.0
230
1.0
 70
     8
 71
     3
 72
    11
 73
     7
 74
     0
 42
0.000000001
 43
0.00000001
 40
0.0
 40
0.0
 40
0.0
 40
0.0
 40
0.2503218370669624
 40
0.5006293996391409
 40
0.752005540946088
 40
1.0
 40
1.0
 40
1.0
 40
1.0
 10
198.9370029962496
 20
328.3547966493752
 30
0.0
 10
199.1038955799507
 20
328.3210765341159
 30
0.0
 10
199.4376712303741
 20
328.253638226473
 30
0.0
 10
199.8805432798121
 20
328.167490962393
 30
0.0
 10
200.2272119195262
 20
328.1016274518465
 30
0.0
 10
200.3312362499149
 20
328.0822670988255
 30
0.0
 10
200.3828961945013
 20
328.0726524753959
 30
0.0
  0
LWPOLYLINE
  5
104D
330
A
100
AcDbEntity
  8
MODEL
  6
Continuous
100
AcDbPolyline
 90
       17
 70
   128
 43
0.0
 10
200.3984120285944
 20
328.0698398812201
 10
200.4069280422167
 20
328.0682976110365
 10
200.2658252215818
 20
328.0948682440903
 10
199.9771748280958
 20
328.1497976495411
 10
199.5730441606478
 20
328.2282708896787
 10
199.0933050013022
 20
328.3238655640271
 10
198.596597144647
 20
328.4256572587874
 10
198.1375482476191
 20
328.5222838385489
 10
197.7701601183848
 20
328.6013698889401
 10
197.5378882682757
 20
328.6521418704178
 10
197.4617656863169
 20
328.6688255830195
 10
197.550986388965
 20
328.6489940001156
 10
197.7956113017038
 20
328.595340506592
 10
198.1678497589068
 20
328.5151554955632
 10
198.6256581342653
 20
328.418849290767
 10
198.9370029962496
 20
328.3547966493752
 10
198.9370029962496
 20
328.3547966493752
  0
SPLINE
  5
104E
330
A
100
AcDbEntity
  8
MODEL
  6
Continuous
100
AcDbSpline
210
0.0
220
0.0
230
1.0
 70
     8
 71
     3
 72
    11
 73
     7
 74
     0
 42
0.000000001
 43
0.00000001
 40
0.0
 40
0.0
 40
0.0
 40
0.0
 40
0.250321834501129
 40
0.5006292355252213
 40
0.7520051637099517
 40
1.0
 40
1.0
 40
1.0
 40
1.0
 10
234.8945685273842
 20
328.3552380962756
 30
0.0
 10
235.0613439583207
 20
328.3895435571612
 30
0.0
 10
235.3948852039761
 20
328.4581525008903
 30
0.0
 10
235.8361594116562
 20
328.5522606493219
 30
0.0
 10
236.1809875585371
 20
328.6273727431426
 30
0.0
 10
236.2843207154032
 20
328.6502888339783
 30
0.0
 10
236.3356374746994
 20
328.6616693003562
 30
0.0
  0
LWPOLYLINE
  5
104F
330
A
100
AcDbEntity
  8
MODEL
  6
Continuous
100
AcDbPolyline
 90
       17
 70
   128
 43
0.0
 10
236.3510573825673
 20
328.6651636226566
 10
236.359509134932
 20
328.6670802845151
 10
236.2193152851299
 20
328.6363019360692
 10
235.9322406894402
 20
328.5738567574413
 10
235.5296727812723
 20
328.4878658814814
 10
235.0508127904371
 20
328.3880262388375
 10
234.5538972488479
 20
328.287244097748
 10
234.0936385637955
 20
328.1964494599488
 10
233.7245768478946
 20
328.1253932727959
 10
233.490920121117
 20
328.081172214308
 10
233.4142881057099
 20
328.0667143626597
 10
233.5041029921607
 20
328.0833831741002
 10
233.7501621416644
 20
328.1297686262515
 10
234.124049971147
 20
328.2016983939793
 10
234.5830020106272
 20
328.2922955913928
 10
234.8945685273842
 20
328.3552380962756
 10
234.8945685273842
 20
328.3552380962756
  0
SPLINE
  5
1050
330
A
100
AcDbEntity
  8
MODEL
  6
Continuous
100
AcDbSpline
210
0.0
220
0.0
230
1.0
 70
     8
 71
     3
 72
    17
 73
    13
 74
     0
 42
0.000000001
 43
0.00000001
 40
0.0
 40
0.0
 40
0.0
 40
0.0
 40
0.0368074635961729
 40
0.1441561518829513
 40
0.2515200686045816
 40
0.3589203592799626
 40
0.4663210891903252
 40
0.5736854880578715
 40
0.681033888250366
 40
0.788411143615294
 40
0.8958176200065818
 40
1.0
 40
1.0
 40
1.0
 40
1.0
 10
219.3897072768644
 20
326.5755980028298
 30
0.0
 10
219.3984219175003
 20
326.575863695009
 30
0.0
 10
219.4325527414234
 20
326.5769042764123
 30
0.0
 10
219.1998379011478
 20
326.5705979542972
 30
0.0
 10
218.7158769002712
 20
326.5594046967026
 30
0.0
 10
218.0098258154143
 20
326.5476957440824
 30
0.0
 10
217.185385951458
 20
326.541282475499
 30
0.0
 10
216.3297211951943
 20
326.5428060149679
 30
0.0
 10
215.5390265276186
 20
326.551682812832
 30
0.0
 10
214.9091418345482
 20
326.5637896313497
 30
0.0
 10
214.4878354732731
 20
326.5744068633417
 30
0.0
 10
214.4383486795654
 20
326.5756805374272
 30
0.0
 10
214.4139823115305
 20
326.5763076706316
 30
0.0
  0
CIRCLE
  5
1051
330
A
100
AcDbEntity
  8
MODEL
  6
Continuous
100
AcDbCircle
 10
216.9147063853856
 20
416.5432882735854
 30
0.0
 40
88.87812865760705
  0
CIRCLE
  5
1052
330
A
100
AcDbEntity
  8
MODEL
  6
Continuous
100
AcDbCircle
 10
216.9147055439201
 20
416.5430156686575
 30
0.0
 40
90.00000067260487
  0
CIRCLE
  5
1053
330
A
100
AcDbEntity
  8
MODEL
  6
Continuous
100
AcDbCircle
 10
216.9147072786994
 20
416.5431297285254
 30
0.0
 40
83.99999795376928
  0
ARC
  5
1054
330
A
100
AcDbEntity
  8
MODEL
  6
Continuous
100
AcDbCircle
 10
216.9147056434171
 20
416.5398433896321
 30
0.0
 40
90.00000056820788
100
AcDbArc
 50
271.5962288468104
 51
0.0003504406352446
  0
ARC
  5
1055
330
A
100
AcDbEntity
  8
MODEL
  6
Continuous
100
AcDbCircle
 10
216.914668992143
 20
416.5396510007731
 30
0.0
 40
89.99980728381789
100
AcDbArc
 50
248.3392198687956
 51
268.4051953222764
  0
ARC
  5
1056
330
A
100
AcDbEntity
  8
MODEL
  6
Continuous
100
AcDbCircle
 10
216.9147122253638
 20
416.539850433719
 30
0.0
 40
90.00000944963378
100
AcDbArc
 50
180.0007117743776
 51
247.5927851256686
  0
SPLINE
  5
1057
330
A
100
AcDbEntity
  8
MODEL
  6
Continuous
100
AcDbSpline
210
0.0
220
0.0
230
1.0
 70
     8
 71
     3
 72
    12
 73
     8
 74
     0
 42
0.000000001
 43
0.00000001
 40
0.0
 40
0.0
 40
0.0
 40
0.0
 40
0.2146884554885852
 40
0.4293744312419131
 40
0.6441132998827027
 40
0.8588858507782836
 40
1.0
 40
1.0
 40
1.0
 40
1.0
 10
216.9158071822361
 20
326.5422156764653
 30
0.0
 10
216.6349026746433
 20
326.5429900348713
 30
0.0
 10
216.0730969040145
 20
326.5445387427399
 30
0.0
 10
215.3226103840137
 20
326.5554546850894
 30
0.0
 10
214.7625825590015
 20
326.5672311275007
 30
0.0
 10
214.4450199999904
 20
326.5756060196868
 30
0.0
 10
214.4469790157185
 20
326.5754402252637
 30
0.0
 10
214.4477557933764
 20
326.5753744854119
 30
0.0
  0
SPLINE
  5
1058
330
A
100
AcDbEntity
  8
MODEL
  6
Continuous
100
AcDbSpline
210
0.0
220
0.0
230
1.0
 70
     8
 71
     3
 72
    13
 73
     9
 74
     0
 42
0.000000001
 43
0.00000001
 40
0.0
 40
0.0
 40
0.0
 40
0.0
 40
0.0064145838605738
 40
0.2210421688135414
 40
0.4356698836305691
 40
0.6503696126324495
 40
0.8651010095149855
 40
1.0
 40
1.0
 40
1.0
 40
1.0
 10
219.4117200172381
 20
326.5762052251484
 30
0.0
 10
219.4130765899384
 20
326.5762441263591
 30
0.0
 10
219.4598231565682
 20
326.5775846354572
 30
0.0
 10
219.2907743805421
 20
326.5730128953069
 30
0.0
 10
218.894868236864
 20
326.5632473770734
 30
0.0
 10
218.2435950472922
 20
326.5509993263436
 30
0.0
 10
217.5483450310243
 20
326.5433324369396
 30
0.0
 10
217.0919135674125
 20
326.5425265964373
 30
0.0
 10
216.9158071822361
 20
326.5422156764653
 30
0.0
  0
LINE
  5
108F
330
A
100
AcDbEntity
  8
MODEL
  6
Continuous
100
AcDbLine
 10
221.4147043025927
 20
317.612432198086
 30
0.0
 11
212.4147046900229
 21
317.612432198086
 31
0.0
  0
LINE
  5
1090
330
A
100
AcDbEntity
  8
MODEL
  6
Continuous
100
AcDbLine
 10
221.4147043025927
 20
326.5415544374373
 30
0.0
 11
212.4147046900229
 21
326.5415544374373
 31
0.0
  0
LINE
  5
1091
330
A
100
AcDbEntity
  8
MODEL
  6
Continuous
100
AcDbLine
 10
77.91470033888379
 20
290.9915547570672
 30
0.0
 11
77.91470033888379
 21
286.9916439740446
 31
0.0
  0
LINE
  5
1092
330
A
100
AcDbEntity
  8
MODEL
  6
Continuous
100
AcDbLine
 10
235.9147048166827
 20
288.2453000857022
 30
0.0
 11
235.9147048166827
 21
290.9915547570672
 31
0.0
  0
LINE
  5
1093
330
A
100
AcDbEntity
  8
MODEL
  6
Continuous
100
AcDbLine
 10
235.9147048166827
 20
286.9915545670774
 30
0.0
 11
235.9147048166827
 21
288.2453000857022
 31
0.0
  0
SPLINE
  5
1094
330
A
100
AcDbEntity
  8
MODEL
  6
Continuous
100
AcDbSpline
210
0.0
220
0.0
230
1.0
 70
     8
 71
     3
 72
    18
 73
    14
 74
     0
 42
0.000000001
 43
0.00000001
 40
0.0
 40
0.0
 40
0.0
 40
0.0
 40
0.011938496622352
 40
0.1038123126910888
 40
0.1963947358286067
 40
0.2999305353440628
 40
0.4147364787530797
 40
0.501715704089041
 40
0.5887789948724657
 40
0.6762874589252251
 40
0.7792391608154292
 40
0.8943874044410967
 40
1.0
 40
1.0
 40
1.0
 40
1.0
 10
205.9361901677088
 20
307.4547222568181
 30
0.0
 10
205.9291478297486
 20
307.4668008044364
 30
0.0
 10
205.8679105221112
 20
307.5718309436456
 30
0.0
 10
206.1001666867909
 20
307.1795884952066
 30
0.0
 10
206.5777779653821
 20
306.3199659754273
 30
0.0
 10
207.2863611936785
 20
304.8408932303178
 30
0.0
 10
207.8955940762611
 20
302.9756467975776
 30
0.0
 10
208.1061538472899
 20
300.9567769715259
 30
0.0
 10
207.9022699429937
 20
299.1338898148865
 30
0.0
 10
207.3856721179731
 20
297.4131302505466
 30
0.0
 10
206.7002179460136
 20
295.8829273188994
 30
0.0
 10
206.0535542066913
 20
294.7224381524197
 30
0.0
 10
205.9604935111751
 20
294.5677458866389
 30
0.0
 10
205.915973017259
 20
294.4937406791832
 30
0.0
  0
LINE
  5
1095
330
A
100
AcDbEntity
  8
MODEL
  6
Continuous
100
AcDbLine
 10
216.9147044963078
 20
292.9915550848928
 30
0.0
 11
205.9147026932673
 21
292.9915550848928
 31
0.0
  0
LINE
  5
1096
330
A
100
AcDbEntity
  8
MODEL
  6
Continuous
100
AcDbLine
 10
227.9147044367031
 20
292.9915550848928
 30
0.0
 11
216.9147044963078
 21
292.9915550848928
 31
0.0
  0
LINE
  5
1097
330
A
100
AcDbEntity
  8
MODEL
  6
Continuous
100
AcDbLine
 10
206.4147037065462
 20
316.9915548278477
 30
0.0
 11
227.4147052860693
 21
316.9915548278477
 31
0.0
  0
SPLINE
  5
1098
330
A
100
AcDbEntity
  8
MODEL
  6
Continuous
100
AcDbSpline
210
0.0
220
0.0
230
1.0
 70
     8
 71
     3
 72
    18
 73
    14
 74
     0
 42
0.000000001
 43
0.00000001
 40
0.0
 40
0.0
 40
0.0
 40
0.0
 40
0.0119385190722745
 40
0.1038123447031354
 40
0.1963947488358453
 40
0.2999304892782345
 40
0.4147364489765907
 40
0.5017156634672172
 40
0.5887789307085877
 40
0.6762873832333879
 40
0.7792392493768509
 40
0.8943874386183279
 40
0.9999999999999999
 40
0.9999999999999999
 40
0.9999999999999999
 40
0.9999999999999999
 10
77.89321286444226
 20
294.5283872759428
 30
0.0
 10
77.9002578620233
 20
294.5163088891295
 30
0.0
 10
77.96151820033936
 20
294.4112803133294
 30
0.0
 10
77.7292311872028
 20
294.8035213699295
 30
0.0
 10
77.25163026457119
 20
295.6631434452302
 30
0.0
 10
76.54305100111776
 20
297.1422180104769
 30
0.0
 10
75.93381120928768
 20
299.0074624665676
 30
0.0
 10
75.72325429586488
 20
301.0263326897857
 30
0.0
 10
75.92713248323287
 20
302.8492200947289
 30
0.0
 10
76.44372849354147
 20
304.5699813554247
 30
0.0
 10
77.12920076416083
 20
306.1001808256374
 30
0.0
 10
77.77585530195063
 20
307.2606728691076
 30
0.0
 10
77.86891413420324
 20
307.4153644389717
 30
0.0
 10
77.91343374018231
 20
307.4893693192389
 30
0.0
  0
SPLINE
  5
1099
330
A
100
AcDbEntity
  8
MODEL
  6
Continuous
100
AcDbSpline
210
0.0
220
0.0
230
1.0
 70
     8
 71
     3
 72
    14
 73
    10
 74
     0
 42
0.000000001
 43
0.00000001
 40
0.0
 40
0.0
 40
0.0
 40
0.0
 40
0.1552141753443418
 40
0.3111268541483965
 40
0.4736078165097964
 40
0.6366456552107348
 40
0.7946504655033052
 40
0.9381497272872554
 40
1.0
 40
1.0
 40
1.0
 40
1.0
 10
77.76236576799909
 20
290.8407517461565
 30
0.0
 10
77.72990396351031
 20
290.5772035560835
 30
0.0
 10
77.6648342681168
 20
290.0489211417234
 30
0.0
 10
77.62205565072179
 20
289.0782294834385
 30
0.0
 10
77.65244753444892
 20
288.0968703118438
 30
0.0
 10
77.74710042874847
 20
287.2008050719646
 30
0.0
 10
77.85127389306615
 20
286.5620178524882
 30
0.0
 10
77.91354356814225
 20
286.2472057195878
 30
0.0
 10
77.90926776586309
 20
286.2688387161966
 30
0.0
 10
77.90797991518536
 20
286.2753544686821
 30
0.0
  0
SPLINE
  5
109A
330
A
100
AcDbEntity
  8
MODEL
  6
Continuous
100
AcDbSpline
210
0.0
220
0.0
230
1.0
 70
     8
 71
     3
 72
    11
 73
     7
 74
     0
 42
0.000000001
 43
0.00000001
 40
0.0
 40
0.0
 40
0.0
 40
0.0
 40
0.0608991203021467
 40
0.4091932958275258
 40
0.7613051509583617
 40
1.0
 40
1.0
 40
1.0
 40
1.0
 10
77.91084093813458
 20
291.7219356386449
 30
0.0
 10
77.91208467303602
 20
291.7282622217258
 30
0.0
 10
77.92044157508951
 20
291.770771791148
 30
0.0
 10
77.88542653597176
 20
291.5946519443496
 30
0.0
 10
77.82540814457968
 20
291.2712199628818
 30
0.0
 10
77.78050665092212
 20
290.9646219735364
 30
0.0
 10
77.76236576799909
 20
290.8407517461565
 30
0.0
  0
LINE
  5
109B
330
A
100
AcDbEntity
  8
MODEL
  6
Continuous
100
AcDbLine
 10
66.91470784906903
 20
284.9915551705744
 30
0.0
 11
77.91470033888379
 21
284.9915551705744
 31
0.0
  0
LINE
  5
109C
330
A
100
AcDbEntity
  8
MODEL
  6
Continuous
100
AcDbLine
 10
55.91470045809308
 20
284.9915551705744
 30
0.0
 11
66.91470784906903
 21
284.9915551705744
 31
0.0
  0
LINE
  5
109D
330
A
100
AcDbEntity
  8
MODEL
  6
Continuous
100
AcDbLine
 10
66.91470784906903
 20
308.9915553791907
 30
0.0
 11
77.41470677618543
 21
308.9915553791907
 31
0.0
  0
LINE
  5
109E
330
A
100
AcDbEntity
  8
MODEL
  6
Continuous
100
AcDbLine
 10
56.41470892195264
 20
308.9915553791907
 30
0.0
 11
66.91470784906903
 21
308.9915553791907
 31
0.0
  0
SPLINE
  5
109F
330
A
100
AcDbEntity
  8
MODEL
  6
Continuous
100
AcDbSpline
210
0.0
220
0.0
230
1.0
 70
     8
 71
     3
 72
    12
 73
     8
 74
     0
 42
0.000000001
 43
0.00000001
 40
0.0
 40
0.0
 40
0.0
 40
0.0
 40
0.1880189412163702
 40
0.37510580850508
 40
0.5843887735460855
 40
0.8150090864154423
 40
1.0
 40
1.0
 40
1.0
 40
1.0
 10
75.78882617716351
 20
276.1415543718722
 30
0.0
 10
75.83325542719683
 20
276.7973821355304
 30
0.0
 10
75.92189367633762
 20
278.1057865012576
 30
0.0
 10
76.51553797584927
 20
279.8914111156946
 30
0.0
 10
77.20846405077316
 20
281.4063369088549
 30
0.0
 10
77.81006141075193
 20
282.4663529489658
 30
0.0
 10
77.86760146155427
 20
282.5621034637334
 30
0.0
 10
77.89321286444226
 20
282.6047225608017
 30
0.0
  0
SPLINE
  5
10A0
330
A
100
AcDbEntity
  8
MODEL
  6
Continuous
100
AcDbSpline
210
0.0
220
0.0
230
1.0
 70
     8
 71
     3
 72
    13
 73
     9
 74
     0
 42
0.000000001
 43
0.00000001
 40
0.0
 40
0.0
 40
0.0
 40
0.0
 40
0.0012484630767117
 40
0.1866709290035909
 40
0.3704093003638861
 40
0.5744028938541983
 40
0.8026425937355472
 40
1.0
 40
1.0
 40
1.0
 40
1.0
 10
77.91343374018231
 20
269.6437409831669
 30
0.0
 10
77.91385847136587
 20
269.6430121067856
 30
0.0
 10
77.97736452609149
 20
269.5340300842113
 30
0.0
 10
77.7664594350075
 20
269.8910299596146
 30
0.0
 10
77.32205899139296
 20
270.6780836480198
 30
0.0
 10
76.63484114838991
 20
272.0954317927435
 30
0.0
 10
75.94690621059124
 20
273.9658953839744
 30
0.0
 10
75.83890730629571
 20
275.4522866866505
 30
0.0
 10
75.78882617716351
 20
276.1415543718722
 30
0.0
  0
LINE
  5
10A1
330
A
100
AcDbEntity
  8
MODEL
  6
Continuous
100
AcDbLine
 10
77.91470033888379
 20
284.1415547518518
 30
0.0
 11
55.91470045809308
 21
284.1415547518518
 31
0.0
  0
LINE
  5
10A2
330
A
100
AcDbEntity
  8
MODEL
  6
Continuous
100
AcDbLine
 10
77.41470677618543
 20
268.1415549232152
 30
0.0
 11
56.41470892195264
 21
268.1415549232152
 31
0.0
  0
SPLINE
  5
10A3
330
A
100
AcDbEntity
  8
MODEL
  6
Continuous
100
AcDbSpline
210
0.0
220
0.0
230
1.0
 70
     8
 71
     3
 72
    18
 73
    14
 74
     0
 42
0.000000001
 43
0.00000001
 40
0.0
 40
0.0
 40
0.0
 40
0.0
 40
0.0119384865358288
 40
0.1038123057838518
 40
0.1963946980043857
 40
0.2999305108767844
 40
0.4147364655565703
 40
0.501715668628381
 40
0.5887789756520977
 40
0.6762874920780555
 40
0.7792391764595813
 40
0.8943873923666408
 40
1.0
 40
1.0
 40
1.0
 40
1.0
 10
235.936188565834
 20
282.6047225608017
 30
0.0
 10
235.9291472233657
 20
282.6168011106133
 30
0.0
 10
235.8679185244613
 20
282.7218313506432
 30
0.0
 10
236.1001639503432
 20
282.329587281266
 30
0.0
 10
236.5777778595924
 20
281.4699664609711
 30
0.0
 10
237.2863612738678
 20
279.990893432042
 30
0.0
 10
237.8955955090436
 20
278.1256473636654
 30
0.0
 10
238.1061547473104
 20
276.1067775173142
 30
0.0
 10
237.9022720580273
 20
274.2838897826127
 30
0.0
 10
237.3856693940264
 20
272.5631309159803
 30
0.0
 10
236.7002176114078
 20
271.0329271272644
 30
0.0
 10
236.0535550509106
 20
269.872439143478
 30
0.0
 10
235.9604927064196
 20
269.7177464222264
 30
0.0
 10
235.9159714153842
 20
269.6437409831669
 30
0.0
  0
LINE
  5
10A4
330
A
100
AcDbEntity
  8
MODEL
  6
Continuous
100
AcDbLine
 10
246.9147044078321
 20
284.1415547518518
 30
0.0
 11
235.9147048166827
 21
284.1415547518518
 31
0.0
  0
LINE
  5
10A5
330
A
100
AcDbEntity
  8
MODEL
  6
Continuous
100
AcDbLine
 10
257.9147046974734
 20
284.1415547518518
 30
0.0
 11
246.9147044078321
 21
284.1415547518518
 31
0.0
  0
LINE
  5
10A6
330
A
100
AcDbEntity
  8
MODEL
  6
Continuous
100
AcDbLine
 10
246.9147044078321
 20
268.1415549232152
 30
0.0
 11
236.4147039673165
 21
268.1415549232152
 31
0.0
  0
LINE
  5
10A7
330
A
100
AcDbEntity
  8
MODEL
  6
Continuous
100
AcDbLine
 10
257.4147046155171
 20
268.1415549232152
 30
0.0
 11
246.9147044078321
 21
268.1415549232152
 31
0.0
  0
SPLINE
  5
10A8
330
A
100
AcDbEntity
  8
MODEL
  6
Continuous
100
AcDbSpline
210
0.0
220
0.0
230
1.0
 70
     8
 71
     3
 72
    14
 73
    10
 74
     0
 42
0.000000001
 43
0.00000001
 40
0.0
 40
0.0
 40
0.0
 40
0.0
 40
0.1552142162593639
 40
0.3111268722749546
 40
0.4736078443610408
 40
0.6366456659534863
 40
0.7946503643723722
 40
0.9381497334302032
 40
1.0
 40
1.0
 40
1.0
 40
1.0
 10
236.0670459068255
 20
290.8407517461565
 30
0.0
 10
236.0995092505394
 20
290.5772035959108
 30
0.0
 10
236.1645820179477
 20
290.0489213698625
 30
0.0
 10
236.2073598766495
 20
289.0782293353009
 30
0.0
 10
236.1769604793047
 20
288.096870388094
 30
0.0
 10
236.0823051972051
 20
287.2008053926907
 30
0.0
 10
235.9781479307234
 20
286.562017367482
 30
0.0
 10
235.9158562407741
 20
286.2472057696496
 30
0.0
 10
235.9201368684147
 20
286.268838730748
 30
0.0
 10
235.9214261717037
 20
286.2753544686821
 30
0.0
  0
SPLINE
  5
10A9
330
A
100
AcDbEntity
  8
MODEL
  6
Continuous
100
AcDbSpline
210
0.0
220
0.0
230
1.0
 70
     8
 71
     3
 72
    11
 73
     7
 74
     0
 42
0.000000001
 43
0.00000001
 40
0.0
 40
0.0
 40
0.0
 40
0.0
 40
0.0608991221359696
 40
0.4091930322964541
 40
0.7613048528850068
 40
1.0
 40
1.0
 40
1.0
 40
1.0
 10
235.91857073669
 20
291.7219356386449
 30
0.0
 10
235.917326373676
 20
291.7282622228636
 30
0.0
 10
235.9089652568513
 20
291.7707717712733
 30
0.0
 10
235.9439742169947
 20
291.5946518982878
 30
0.0
 10
236.0039937598088
 20
291.2712196413881
 30
0.0
 10
236.0489022020187
 20
290.964621951844
 30
0.0
 10
236.0670459068255
 20
290.8407517461565
 30
0.0
  0
LINE
  5
10AA
330
A
100
AcDbEntity
  8
MODEL
  6
Continuous
100
AcDbLine
 10
257.9147046974734
 20
284.9915551705744
 30
0.0
 11
235.9147048166827
 21
284.9915551705744
 31
0.0
  0
LINE
  5
10AB
330
A
100
AcDbEntity
  8
MODEL
  6
Continuous
100
AcDbLine
 10
257.9147046974734
 20
309.4915545298245
 30
0.0
 11
235.9147048166827
 21
309.4915545298245
 31
0.0
  0
LWPOLYLINE
  5
10AC
330
A
100
AcDbEntity
  8
MODEL
  6
Continuous
100
AcDbPolyline
 90
        3
 70
   128
 43
0.0
 10
220.2966962552504
 20
289.9814883931067
 10
219.2966849154667
 20
292.6459338268724
 10
219.1883627868132
 20
292.9915550848928
  0
ARC
  5
10AD
330
A
100
AcDbEntity
  8
MODEL
  6
Continuous
100
AcDbCircle
 10
246.914704371737
 20
301.4915549631037
 30
0.0
 40
29.00000000000001
100
AcDbArc
 50
108.8451419989158
 51
147.6911598244601
  0
ARC
  5
10AE
330
A
100
AcDbEntity
  8
MODEL
  6
Continuous
100
AcDbCircle
 10
246.914704371737
 20
301.4915549631037
 30
0.0
 40
29.00000000000009
100
AcDbArc
 50
292.290970374759
 51
100.3848062105723
  0
ARC
  5
10AF
330
A
100
AcDbEntity
  8
MODEL
  6
Continuous
100
AcDbCircle
 10
246.914704371737
 20
301.4915549631037
 30
0.0
 40
29.00000000000001
100
AcDbArc
 50
203.3844526049979
 51
220.5416018735056
  0
ARC
  5
10B0
330
A
100
AcDbEntity
  8
MODEL
  6
Continuous
100
AcDbCircle
 10
246.914704371737
 20
301.4915549631037
 30
0.0
 40
17.0
100
AcDbArc
 50
310.3202150699707
 51
203.3844526049974
  0
ARC
  5
10B1
330
A
100
AcDbEntity
  8
MODEL
  6
Continuous
100
AcDbCircle
 10
246.914704371737
 20
301.4915549631037
 30
0.0
 40
17.0
100
AcDbArc
 50
203.3844526049974
 51
229.6797849300303
  0
ARC
  5
10B2
330
A
100
AcDbEntity
  8
MODEL
  6
Continuous
100
AcDbCircle
 10
246.914704371737
 20
301.4915549631037
 30
0.0
 40
16.90000000000001
100
AcDbArc
 50
0.0
 51
229.3914453819384
  0
ARC
  5
10B3
330
A
100
AcDbEntity
  8
MODEL
  6
Continuous
100
AcDbCircle
 10
246.914704371737
 20
301.4915549631037
 30
0.0
 40
16.89999999999998
100
AcDbArc
 50
310.6085546180616
 51
0.0
  0
LINE
  5
10B4
330
A
100
AcDbEntity
  8
MODEL
  6
Continuous
100
AcDbLine
 10
227.9147044367031
 20
316.4915556772139
 30
0.0
 11
205.9147026932673
 21
316.4915556772139
 31
0.0
  0
LINE
  5
10B5
330
A
100
AcDbEntity
  8
MODEL
  6
Continuous
100
AcDbLine
 10
66.91470784906903
 20
308.4915552972343
 30
0.0
 11
55.91470045809308
 21
308.4915552972343
 31
0.0
  0
LINE
  5
10B6
330
A
100
AcDbEntity
  8
MODEL
  6
Continuous
100
AcDbLine
 10
77.91470033888379
 20
308.4915552972343
 30
0.0
 11
66.91470784906903
 21
308.4915552972343
 31
0.0
  0
LINE
  5
10B7
330
A
100
AcDbEntity
  8
MODEL
  6
Continuous
100
AcDbLine
 10
55.91470045809308
 20
268.641554073849
 30
0.0
 11
77.91470033888379
 21
268.641554073849
 31
0.0
  0
LINE
  5
10B8
330
A
100
AcDbEntity
  8
MODEL
  6
Continuous
100
AcDbLine
 10
246.9147044078321
 20
268.641554073849
 30
0.0
 11
257.9147046974734
 21
268.641554073849
 31
0.0
  0
LINE
  5
10B9
330
A
100
AcDbEntity
  8
MODEL
  6
Continuous
100
AcDbLine
 10
235.9147048166827
 20
268.641554073849
 30
0.0
 11
246.9147044078321
 21
268.641554073849
 31
0.0
  0
LINE
  5
10BA
330
A
100
AcDbEntity
  8
MODEL
  6
Continuous
100
AcDbLine
 10
77.71469695333997
 20
284.7915545789983
 30
0.0
 11
56.1147038436369
 21
284.7915545789983
 31
0.0
  0
LINE
  5
10BB
330
A
100
AcDbEntity
  8
MODEL
  6
Continuous
100
AcDbLine
 10
56.1147038436369
 20
284.3415553434279
 30
0.0
 11
77.71469695333997
 21
284.3415553434279
 31
0.0
  0
LINE
  5
10BC
330
A
100
AcDbEntity
  8
MODEL
  6
Continuous
100
AcDbLine
 10
257.7147041058973
 20
284.7915545789983
 30
0.0
 11
236.1147044769363
 21
284.7915545789983
 31
0.0
  0
LINE
  5
10BD
330
A
100
AcDbEntity
  8
MODEL
  6
Continuous
100
AcDbLine
 10
236.1147044769363
 20
284.3415553434279
 30
0.0
 11
257.7147041058973
 21
284.3415553434279
 31
0.0
  0
ARC
  5
10BE
330
A
100
AcDbEntity
  8
MODEL
  6
Continuous
100
AcDbCircle
 10
246.914704371737
 20
301.4915549631037
 30
0.0
 40
28.0
100
AcDbArc
 50
203.3844526049984
 51
222.3156322944993
  0
ARC
  5
10BF
330
A
100
AcDbEntity
  8
MODEL
  6
Continuous
100
AcDbCircle
 10
246.914704371737
 20
301.4915549631037
 30
0.0
 40
27.99999999999999
100
AcDbArc
 50
293.1323963992979
 51
146.3876254015342
  0
LINE
  5
10C0
330
A
100
AcDbEntity
  8
MODEL
  6
Continuous
100
AcDbLine
 10
220.2360615677075
 20
292.9915550848928
 30
0.0
 11
221.2145574933724
 21
290.3783873407629
 31
0.0
  0
DIMENSION
  5
10C2
330
A
100
AcDbEntity
  8
DIM
100
AcDbDimension
  2
*D6
 10
153.2489425425305
 20
352.9295552807712
 30
0.0
 11
303.6642566245667
 21
503.2212739934228
 31
0.0
 70
   163
  1
<>
 71
     1
 42
180.0000000000009
 73
     0
 74
     0
 75
     0
  3
tfrom線あり
100
AcDbDiametricDimension
 15
280.5804661832175
 25
480.1564513654494
 35
0.0
 40
0.0
1001
ACAD
1000
DSTYLE
1002
{
1070
     3
1000
φ<>
1002
}
  0
LINE
  5
10C3
330
A
100
AcDbEntity
  8
MODEL
  6
Continuous
100
AcDbLine
 10
380.2024895097953
 20
326.5422156764653
 30
0.0
 11
382.0029819156867
 21
326.5426906509783
 31
0.0
  0
LINE
  5
10C4
330
A
100
AcDbEntity
  8
MODEL
  6
Continuous
100
AcDbLine
 10
372.0029840018493
 20
326.540053145447
 30
0.0
 11
373.1961386050922
 21
326.5403679324777
 31
0.0
  0
LINE
  5
10C5
330
A
100
AcDbEntity
  8
MODEL
  6
Continuous
100
AcDbLine
 10
380.2084127213699
 20
326.5415544374373
 30
0.0
 11
380.2084127213699
 21
326.5422175391109
 31
0.0
  0
LINE
  5
10C6
330
A
100
AcDbEntity
  8
MODEL
  6
Continuous
100
AcDbLine
 10
380.2024895097953
 20
326.5415544374373
 30
0.0
 11
380.2024895097953
 21
326.5422156764653
 31
0.0
  0
ARC
  5
10C7
330
A
100
AcDbEntity
  8
MODEL
  6
Continuous
100
AcDbCircle
 10
383.1552997305458
 20
505.5430002304579
 30
0.0
 40
1.000000000000071
100
AcDbArc
 50
0.0151045644644657
 51
90.01510456446447
  0
ARC
  5
10C8
330
A
100
AcDbEntity
  8
MODEL
  6
Continuous
100
AcDbCircle
 10
383.2022248699838
 20
327.5430064157631
 30
0.0
 40
1.000000000000071
100
AcDbArc
 50
270.0151045644645
 51
0.0151045644644657
  0
LWPOLYLINE
  5
10C9
330
A
100
AcDbEntity
  8
MODEL
  6
Continuous
100
AcDbPolyline
 90
       57
 70
   128
 43
0.0
 10
384.2022256698352
 20
327.5432700975325
 10
384.2021884169322
 20
327.6832832707551
 10
384.2020766582233
 20
328.1028832061679
 10
384.2018941189987
 20
328.8007511510041
 10
384.2016370739681
 20
329.7746873213441
 10
384.2013092484218
 20
331.0216276659157
 10
384.2009069170696
 20
332.5376531793268
 10
384.200437530492
 20
334.3179917647035
 10
384.199901088689
 20
336.3570405854375
 10
384.1992975916606
 20
338.6483846916349
 10
384.1986270394069
 20
341.184815646568
 10
384.1978968825084
 20
343.9583538784177
 10
384.1971071209651
 20
346.9602673067238
 10
384.1962577547771
 20
350.181116045871
 10
384.1953525092346
 20
353.610767306247
 10
384.1943951096279
 20
357.2384251965668
 10
384.1933892812473
 20
361.0526791526463
 10
384.1923387493831
 20
365.0415262891438
 10
384.1912435140354
 20
369.1924161030438
 10
384.1901110257846
 20
373.4922877265599
 10
384.1889412846309
 20
377.9276183559086
 10
384.1877417411548
 20
382.4844456030514
 10
384.1865123953563
 20
387.1484345509202
 10
384.1852569725257
 20
391.9049075557382
 10
384.1839829232437
 20
396.7389038516667
 10
384.1826939728004
 20
401.6352168037083
 10
384.1813901211959
 20
406.5784311606076
 10
384.1800788190109
 20
411.5529975606587
 10
384.1787637915355
 20
416.5432697846081
 10
384.1774450387699
 20
421.533534557977
 10
384.1761337365848
 20
426.5081009580281
 10
384.1748336102706
 20
431.4513227655079
 10
384.1735409345371
 20
436.34763571755
 10
384.172266885255
 20
441.1816320134785
 10
384.1710114624244
 20
445.9380975677163
 10
384.1697821166259
 20
450.6020865155842
 10
384.1685825731498
 20
455.1589212133076
 10
384.1674128319961
 20
459.5942518426568
 10
384.1662803437454
 20
463.8941160155919
 10
384.1651851083976
 20
468.0450132800725
 10
384.1641345765335
 20
472.03386041657
 10
384.1631287481529
 20
475.8481106473591
 10
384.1621713485462
 20
479.4757685376794
 10
384.1612661030036
 20
482.9054197980554
 10
384.1604167368156
 20
486.126261086622
 10
384.1596269752723
 20
489.1281745149281
 10
384.1588968183738
 20
491.9017127467778
 10
384.1582262661201
 20
494.4381437017109
 10
384.1576227690917
 20
496.7294952584889
 10
384.1570863272888
 20
498.7685403539331
 10
384.1566169407112
 20
500.54888638989
 10
384.1562183346492
 20
502.0649007274296
 10
384.1558867838127
 20
503.3118447972925
 10
384.1556297387821
 20
504.2857846929219
 10
384.1554471995574
 20
504.9836507751133
 10
384.1553354408485
 20
505.4032525731714
 10
384.1552981879455
 20
505.5432638837488
  0
LWPOLYLINE
  5
10CA
330
A
100
AcDbEntity
  8
MODEL
  6
Continuous
100
AcDbPolyline
 90
       57
 70
   128
 43
0.0
 10
384.2022256698352
 20
327.5432700975325
 10
384.2021884169322
 20
327.6832832707551
 10
384.2020766582233
 20
328.1028832061679
 10
384.2018941189987
 20
328.8007511510041
 10
384.2016370739681
 20
329.7746873213441
 10
384.2013092484218
 20
331.0216276659157
 10
384.2009069170696
 20
332.5376531793268
 10
384.200437530492
 20
334.3179917647035
 10
384.199901088689
 20
336.3570405854375
 10
384.1992975916606
 20
338.6483846916349
 10
384.1986270394069
 20
341.184815646568
 10
384.1978968825084
 20
343.9583538784177
 10
384.1971071209651
 20
346.9602673067238
 10
384.1962577547771
 20
350.181116045871
 10
384.1953525092346
 20
353.610767306247
 10
384.1943951096279
 20
357.2384251965668
 10
384.1933892812473
 20
361.0526791526463
 10
384.1923387493831
 20
365.0415262891438
 10
384.1912435140354
 20
369.1924161030438
 10
384.1901110257846
 20
373.4922877265599
 10
384.1889412846309
 20
377.9276183559086
 10
384.1877417411548
 20
382.4844456030514
 10
384.1865123953563
 20
387.1484345509202
 10
384.1852569725257
 20
391.9049075557382
 10
384.1839829232437
 20
396.7389038516667
 10
384.1826939728004
 20
401.6352168037083
 10
384.1813901211959
 20
406.5784311606076
 10
384.1800788190109
 20
411.5529975606587
 10
384.1787637915355
 20
416.5432697846081
 10
384.1774450387699
 20
421.533534557977
 10
384.1761337365848
 20
426.5081009580281
 10
384.1748336102706
 20
431.4513227655079
 10
384.1735409345371
 20
436.34763571755
 10
384.172266885255
 20
441.1816320134785
 10
384.1710114624244
 20
445.9380975677163
 10
384.1697821166259
 20
450.6020865155842
 10
384.1685825731498
 20
455.1589212133076
 10
384.1674128319961
 20
459.5942518426568
 10
384.1662803437454
 20
463.8941160155919
 10
384.1651851083976
 20
468.0450132800725
 10
384.1641345765335
 20
472.03386041657
 10
384.1631287481529
 20
475.8481106473591
 10
384.1621713485462
 20
479.4757685376794
 10
384.1612661030036
 20
482.9054197980554
 10
384.1604167368156
 20
486.126261086622
 10
384.1596269752723
 20
489.1281745149281
 10
384.1588968183738
 20
491.9017127467778
 10
384.1582262661201
 20
494.4381437017109
 10
384.1576227690917
 20
496.7294952584889
 10
384.1570863272888
 20
498.7685403539331
 10
384.1566169407112
 20
500.54888638989
 10
384.1562183346492
 20
502.0649007274296
 10
384.1558867838127
 20
503.3118447972925
 10
384.1556297387821
 20
504.2857846929219
 10
384.1554471995574
 20
504.9836507751133
 10
384.1553354408485
 20
505.4032525731714
 10
384.1552981879455
 20
505.5432638837488
  0
LINE
  5
10CB
330
A
100
AcDbEntity
  8
MODEL
  6
Continuous
100
AcDbLine
 10
383.1550353910667
 20
506.5429976894048
 30
0.0
 11
371.1550371494037
 21
506.5398386432321
 31
0.0
  0
LINE
  5
10CC
330
A
100
AcDbEntity
  8
MODEL
  6
Continuous
100
AcDbLine
 10
380.2026049937946
 20
326.5422156764653
 30
0.0
 11
383.2024881388885
 21
326.5430073006537
 31
0.0
  0
LINE
  5
10CD
330
A
100
AcDbEntity
  8
MODEL
  6
Continuous
100
AcDbLine
 10
371.2024880345804
 20
326.5398426665456
 30
0.0
 11
373.1961386050922
 21
326.5403679324777
 31
0.0
  0
ARC
  5
10CE
330
A
100
AcDbEntity
  8
MODEL
  6
Continuous
100
AcDbCircle
 10
371.2019616625918
 20
328.5398428884678
 30
0.0
 40
2.000000000000056
100
AcDbArc
 50
180.0151045644514
 51
270.0151045644645
  0
ARC
  5
10CF
330
A
100
AcDbEntity
  8
MODEL
  6
Continuous
100
AcDbCircle
 10
371.1555637719108
 20
504.5398367726598
 30
0.0
 40
2.000000000000056
100
AcDbArc
 50
90.01510456446447
 51
180.0151045644514
  0
LWPOLYLINE
  5
10D0
330
A
100
AcDbEntity
  8
MODEL
  6
Continuous
100
AcDbPolyline
 90
       57
 70
   128
 43
0.0
 10
369.1555639501554
 20
504.5393130494745
 10
369.1556012030584
 20
504.4008663608224
 10
369.155709236477
 20
503.9859882308629
 10
369.1558917757017
 20
503.2959601594594
 10
369.156145095442
 20
502.3329726173074
 10
369.1564710583431
 20
501.1000356389668
 10
369.1568659391147
 20
499.6010384275105
 10
369.1573297377569
 20
497.8407046510365
 10
369.1578605916244
 20
495.8245775415089
 10
369.1584585007173
 20
493.5589751912744
 10
369.1591197397453
 20
491.0510352565434
 10
369.1598424460632
 20
488.3086702539113
 10
369.1606247570259
 20
485.3404781533864
 10
369.1614648099882
 20
482.1558168841984
 10
369.1623588796598
 20
478.7647000266697
 10
369.1633032407505
 20
475.1778117133763
 10
369.1642978932601
 20
471.4064172221806
 10
369.1653372492534
 20
467.4623778773935
 10
369.1664194460851
 20
463.3581361486104
 10
369.167540758465
 20
459.1065666391041
 10
369.1686974611026
 20
454.7210803939493
 10
369.1698839660627
 20
450.2154460860875
 10
369.1711002733451
 20
445.6038645221379
 10
369.1723407950145
 20
440.9008345319417
 10
369.1735999431354
 20
436.1211529685643
 10
369.1748758550626
 20
431.2798551036503
 10
369.1761648055059
 20
426.3921848251011
 10
369.1774612065298
 20
421.4735126806886
 10
369.1787631954891
 20
416.5393135263112
 10
369.1800633218032
 20
411.6051143719342
 10
369.1813597228271
 20
406.6864422275212
 10
369.1826486732704
 20
401.7987644983914
 10
369.1839245851976
 20
396.9574740840585
 10
369.1851855959636
 20
392.1777850701001
 10
369.1864242549879
 20
387.4747550799038
 10
369.1876405622703
 20
382.8631735159543
 10
369.1888289298755
 20
378.3575466586735
 10
369.189983769868
 20
373.9720529629376
 10
369.1911050822479
 20
369.7204909040124
 10
369.1921872790796
 20
365.6162417246492
 10
369.1932266350728
 20
361.6722098304422
 10
369.1942212875825
 20
357.900815339246
 10
369.1951675113183
 20
354.313919575372
 10
369.19606158099
 20
350.9228027178433
 10
369.1968997713071
 20
347.7381451739461
 10
369.1976820822698
 20
344.7699567987115
 10
369.1984066512329
 20
342.0275843454983
 10
369.1990678902608
 20
339.5196555866391
 10
369.1996639367086
 20
337.2540532364037
 10
369.2001966532213
 20
335.2379149510052
 10
369.2006604518634
 20
333.4775811745312
 10
369.2010553326351
 20
331.978591413656
 10
369.201379432891
 20
330.7456581606061
 10
369.2016346152765
 20
329.7826668931634
 10
369.201815291856
 20
329.0926425470498
 10
369.2019251879198
 20
328.6777551038649
 10
369.2019624408227
 20
328.5393158657935
  0
LWPOLYLINE
  5
10D1
330
A
100
AcDbEntity
  8
MODEL
  6
Continuous
100
AcDbPolyline
 90
       57
 70
   128
 43
0.0
 10
369.1555639501554
 20
504.5393130494745
 10
369.1556012030584
 20
504.4008663608224
 10
369.155709236477
 20
503.9859882308629
 10
369.1558917757017
 20
503.2959601594594
 10
369.156145095442
 20
502.3329726173074
 10
369.1564710583431
 20
501.1000356389668
 10
369.1568659391147
 20
499.6010384275105
 10
369.1573297377569
 20
497.8407046510365
 10
369.1578605916244
 20
495.8245775415089
 10
369.1584585007173
 20
493.5589751912744
 10
369.1591197397453
 20
491.0510352565434
 10
369.1598424460632
 20
488.3086702539113
 10
369.1606247570259
 20
485.3404781533864
 10
369.1614648099882
 20
482.1558168841984
 10
369.1623588796598
 20
478.7647000266697
 10
369.1633051033956
 20
475.1778117133763
 10
369.1642978932601
 20
471.4064172221806
 10
369.1653391118986
 20
467.4623778773935
 10
369.1664194460851
 20
463.3581361486104
 10
369.167540758465
 20
459.1065666391041
 10
369.1686974611026
 20
454.7210803939493
 10
369.1698858287078
 20
450.2154460860875
 10
369.1711002733451
 20
445.6038645221379
 10
369.1723407950145
 20
440.9008345319417
 10
369.1735999431354
 20
436.1211529685643
 10
369.1748777177078
 20
431.2798551036503
 10
369.1761648055059
 20
426.3921848251011
 10
369.1774630691749
 20
421.4735126806886
 10
369.1787631954891
 20
416.5393135263112
 10
369.1800633218032
 20
411.6051143719342
 10
369.1813597228271
 20
406.6864422275212
 10
369.1826486732704
 20
401.7987644983914
 10
369.1839245851976
 20
396.9574740840585
 10
369.1851855959636
 20
392.1777850701001
 10
369.1864242549879
 20
387.4747550799038
 10
369.1876405622703
 20
382.8631735159543
 10
369.1888289298755
 20
378.3575466586735
 10
369.189983769868
 20
373.9720529629376
 10
369.1911050822479
 20
369.7204909040124
 10
369.1921872790796
 20
365.6162417246492
 10
369.1932266350728
 20
361.6722098304422
 10
369.1942212875825
 20
357.900815339246
 10
369.1951675113183
 20
354.313919575372
 10
369.19606158099
 20
350.9228027178433
 10
369.1968997713071
 20
347.7381451739461
 10
369.197683944915
 20
344.7699567987115
 10
369.1984066512329
 20
342.0275843454983
 10
369.1990678902608
 20
339.5196555866391
 10
369.1996639367086
 20
337.2540532364037
 10
369.2001966532213
 20
335.2379149510052
 10
369.2006604518634
 20
333.4775811745312
 10
369.2010553326351
 20
331.978591413656
 10
369.201379432891
 20
330.7456581606061
 10
369.2016346152765
 20
329.7826668931634
 10
369.201815291856
 20
329.0926425470498
 10
369.2019251879198
 20
328.6777551038649
 10
369.2019624408227
 20
328.5393158657935
  0
LINE
  5
10D2
330
A
100
AcDbEntity
  8
MODEL
  6
Continuous
100
AcDbLine
 10
373.1961386050922
 20
317.612432198086
 30
0.0
 11
372.63624796233
 21
316.9915548278477
 31
0.0
  0
LWPOLYLINE
  5
10D3
330
A
100
AcDbEntity
  8
MODEL
  6
Continuous
100
AcDbPolyline
 90
        3
 70
   128
 43
0.0
 10
382.7560307230693
 20
316.9915548278477
 10
382.6342770602447
 20
317.1409296555903
 10
382.196138217662
 20
317.612432198086
  0
LINE
  5
10D4
330
A
100
AcDbEntity
  8
MODEL
  6
Continuous
100
AcDbLine
 10
382.196138217662
 20
317.612432198086
 30
0.0
 11
382.196138217662
 21
326.5415544374373
 31
0.0
  0
LINE
  5
10D5
330
A
100
AcDbEntity
  8
MODEL
  6
Continuous
100
AcDbLine
 10
373.1961386050922
 20
326.5403679324777
 30
0.0
 11
373.1961386050922
 21
317.612432198086
 31
0.0
  0
LINE
  5
10D6
330
A
100
AcDbEntity
  8
MODEL
  6
Continuous
100
AcDbLine
 10
388.6961402144176
 20
308.4915552972343
 30
0.0
 11
388.6961402144176
 21
316.4915556772139
 31
0.0
  0
LINE
  5
10D7
330
A
100
AcDbEntity
  8
MODEL
  6
Continuous
100
AcDbLine
 10
366.6961384709817
 20
316.4915556772139
 30
0.0
 11
366.6961384709817
 21
308.4915552972343
 31
0.0
  0
ARC
  5
10D8
330
A
100
AcDbEntity
  8
MODEL
  6
Continuous
100
AcDbCircle
 10
367.1961390915027
 20
316.4915549631037
 30
0.0
 40
0.5000000000000568
100
AcDbArc
 50
90.0
 51
180.0
  0
ARC
  5
10D9
330
A
100
AcDbEntity
  8
MODEL
  6
Continuous
100
AcDbCircle
 10
388.1961390915027
 20
316.4915549631037
 30
0.0
 40
0.5000000000000142
100
AcDbArc
 50
0.0
 51
90.0
  0
ARC
  5
10DA
330
A
100
AcDbEntity
  8
MODEL
  6
Continuous
100
AcDbCircle
 10
367.1961390915027
 20
308.4915549631037
 30
0.0
 40
0.5000000000000568
100
AcDbArc
 50
90.0
 51
180.0
  0
ARC
  5
10DB
330
A
100
AcDbEntity
  8
MODEL
  6
Continuous
100
AcDbCircle
 10
388.1961390915027
 20
308.4915549631037
 30
0.0
 40
0.5000000000000142
100
AcDbArc
 50
0.0
 51
90.0
  0
LINE
  5
10DC
330
A
100
AcDbEntity
  8
MODEL
  6
Continuous
100
AcDbLine
 10
366.6961384709817
 20
308.4915552972343
 30
0.0
 11
366.6961384709817
 21
284.9915551705744
 31
0.0
  0
LINE
  5
10DD
330
A
100
AcDbEntity
  8
MODEL
  6
Continuous
100
AcDbLine
 10
388.6961402144176
 20
284.9915551705744
 30
0.0
 11
388.6961402144176
 21
308.4915552972343
 31
0.0
  0
LINE
  5
10DE
330
A
100
AcDbEntity
  8
MODEL
  6
Continuous
100
AcDbLine
 10
388.6961402144176
 20
268.641554073849
 30
0.0
 11
388.6961402144176
 21
284.1415547518518
 31
0.0
  0
LINE
  5
10DF
330
A
100
AcDbEntity
  8
MODEL
  6
Continuous
100
AcDbLine
 10
366.6961384709817
 20
284.1415547518518
 30
0.0
 11
366.6961384709817
 21
268.641554073849
 31
0.0
  0
ARC
  5
10E0
330
A
100
AcDbEntity
  8
MODEL
  6
Continuous
100
AcDbCircle
 10
388.1961390915027
 20
268.6415549631033
 30
0.0
 40
0.5000000000000568
100
AcDbArc
 50
270.0
 51
0.0
  0
ARC
  5
10E1
330
A
100
AcDbEntity
  8
MODEL
  6
Continuous
100
AcDbCircle
 10
367.1961390915027
 20
268.6415549631033
 30
0.0
 40
0.5000000000000568
100
AcDbArc
 50
180.0
 51
270.0
  0
ARC
  5
10E2
330
A
100
AcDbEntity
  8
MODEL
  6
Continuous
100
AcDbCircle
 10
388.2961390915021
 20
284.3415549631036
 30
0.0
 40
0.2000000000001592
100
AcDbArc
 50
270.0000000002606
 51
0.0
  0
ARC
  5
10E3
330
A
100
AcDbEntity
  8
MODEL
  6
Continuous
100
AcDbCircle
 10
367.0961390915023
 20
284.3415549631036
 30
0.0
 40
0.2000000000001592
100
AcDbArc
 50
180.0
 51
270.0
  0
ARC
  5
10E4
330
A
100
AcDbEntity
  8
MODEL
  6
Continuous
100
AcDbCircle
 10
367.0961390915023
 20
284.7915549631039
 30
0.0
 40
0.2000000000001592
100
AcDbArc
 50
90.0
 51
180.0
  0
ARC
  5
10E5
330
A
100
AcDbEntity
  8
MODEL
  6
Continuous
100
AcDbCircle
 10
388.2961390915021
 20
284.7915549631039
 30
0.0
 40
0.2000000000001592
100
AcDbArc
 50
0.0
 51
89.99999999973944
  0
LINE
  5
10E6
330
A
100
AcDbEntity
  8
MODEL
  6
Continuous
100
AcDbLine
 10
388.4961405541641
 20
284.3415553434279
 30
0.0
 11
388.4961405541641
 21
284.7915545789983
 31
0.0
  0
LINE
  5
10E7
330
A
100
AcDbEntity
  8
MODEL
  6
Continuous
100
AcDbLine
 10
366.8961399938804
 20
284.7915545789983
 30
0.0
 11
366.8961399938804
 21
284.3415553434279
 31
0.0
  0
LINE
  5
10E8
330
A
100
AcDbEntity
  8
MODEL
  6
Continuous
100
AcDbLine
 10
351.6961390390885
 20
293.9915550159749
 30
0.0
 11
366.6961384709817
 21
293.9915550159749
 31
0.0
  0
LINE
  5
10E9
330
A
100
AcDbEntity
  8
MODEL
  6
Continuous
100
AcDbLine
 10
366.6961384709817
 20
308.9915553791907
 30
0.0
 11
351.6961390390885
 21
308.9915553791907
 31
0.0
  0
LINE
  5
10EA
330
A
100
AcDbEntity
  8
MODEL
  6
Continuous
100
AcDbLine
 10
350.6961391080064
 20
330.4915561093476
 30
0.0
 11
341.6961390297753
 21
330.4915561093476
 31
0.0
  0
LINE
  5
10EB
102
{ACAD_REACTORS
102
}
330
A
100
AcDbEntity
  8
MODEL
  6
Continuous
100
AcDbLine
 10
341.6961390297753
 20
272.4915540529873
 30
0.0
 11
350.6961391080064
 21
272.4915540529873
 31
0.0
  0
ARC
  5
10EC
330
A
100
AcDbEntity
  8
MODEL
  6
Continuous
100
AcDbCircle
 10
350.6961390915027
 20
273.4915549631037
 30
0.0
 40
1.000000000000028
100
AcDbArc
 50
270.0
 51
0.0
  0
ARC
  5
10ED
330
A
100
AcDbEntity
  8
MODEL
  6
Continuous
100
AcDbCircle
 10
350.6961390915027
 20
329.4915549631037
 30
0.0
 40
1.000000000000114
100
AcDbArc
 50
0.0
 51
90.0
  0
SPLINE
  5
10EE
330
A
100
AcDbEntity
  8
MODEL
  6
Continuous
100
AcDbSpline
210
0.0
220
0.0
230
1.0
 70
     8
 71
     3
 72
    14
 73
    10
 74
     0
 42
0.000000001
 43
0.00000001
 40
0.0
 40
0.0
 40
0.0
 40
0.0
 40
0.1453455511720369
 40
0.2906908212018887
 40
0.4360478344209153
 40
0.5814049184158214
 40
0.7267574699657596
 40
0.8721157255903231
 40
1.0
 40
1.0
 40
1.0
 40
1.0
 10
375.1673443015558
 20
333.3348839296491
 30
0.0
 10
375.2773732288503
 20
333.2600722673706
 30
0.0
 10
375.497430870612
 20
333.1104490875232
 30
0.0
 10
376.0524796901269
 20
332.9577213879124
 30
0.0
 10
376.6993793185699
 20
332.878638769444
 30
0.0
 10
377.385293374126
 20
332.8839848931771
 30
0.0
 10
378.0230741418869
 20
332.9731318740037
 30
0.0
 10
378.5384231575214
 20
333.1283004409675
 30
0.0
 10
378.7404886031569
 20
333.2696924450097
 30
0.0
 10
378.835060238455
 20
333.3358674062879
 30
0.0
  0
LWPOLYLINE
  5
10EF
330
A
100
AcDbEntity
  8
MODEL
  6
Continuous
100
AcDbPolyline
 90
        8
 70
   128
 43
0.0
 10
372.0029840018493
 20
326.540053145447
 10
372.0029728259784
 20
326.5773246748831
 10
372.0028945948822
 20
326.875496910372
 10
372.0027381326896
 20
327.4709156467111
 10
372.0025034394008
 20
328.3616083426859
 10
372.0021905150157
 20
329.5446208430917
 10
372.0018030848247
 20
331.0160322798874
 10
372.0013411488277
 20
332.7709643854287
  0
SPLINE
  5
10F0
330
A
100
AcDbEntity
  8
MODEL
  6
Continuous
100
AcDbSpline
210
0.0
220
0.0
230
1.0
 70
     8
 71
     3
 72
    12
 73
     8
 74
     0
 42
0.000000001
 43
0.00000001
 40
0.0
 40
0.0
 40
0.0
 40
0.0
 40
0.2146769367093736
 40
0.4294538676514491
 40
0.6429794529485793
 40
0.8579458646100785
 40
0.9999999999999999
 40
0.9999999999999999
 40
0.9999999999999999
 40
0.9999999999999999
 10
373.5011914517623
 20
333.3347162915857
 30
0.0
 10
373.3320993631484
 20
333.3282254075625
 30
0.0
 10
372.9938364246242
 20
333.315240616133
 30
0.0
 10
372.5448061936055
 20
333.2160521362744
 30
0.0
 10
372.2063515034939
 20
333.0721297374589
 30
0.0
 10
372.0274290285557
 20
332.9146150850916
 30
0.0
 10
372.0085121711815
 20
332.8118524061133
 30
0.0
 10
372.0009853836042
 20
332.7709643854287
 30
0.0
  0
LINE
  5
10F1
330
A
100
AcDbEntity
  8
MODEL
  6
Continuous
100
AcDbLine
 10
373.5011914517623
 20
333.3345784558442
 30
0.0
 11
375.1681601401311
 21
333.3350180400998
 31
0.0
  0
LINE
  5
10F2
330
A
100
AcDbEntity
  8
MODEL
  6
Continuous
100
AcDbLine
 10
378.8342220481378
 20
333.335986615577
 30
0.0
 11
380.5011907365066
 21
333.3364261998327
 31
0.0
  0
SPLINE
  5
10F3
330
A
100
AcDbEntity
  8
MODEL
  6
Continuous
100
AcDbSpline
210
0.0
220
0.0
230
1.0
 70
     8
 71
     3
 72
    12
 73
     8
 74
     0
 42
0.000000001
 43
0.00000001
 40
0.0
 40
0.0
 40
0.0
 40
0.0
 40
0.217896027532456
 40
0.435926311531673
 40
0.6514067634688507
 40
0.8660083604701756
 40
1.0
 40
1.0
 40
1.0
 40
1.0
 10
382.0016966905338
 20
332.77360189096
 30
0.0
 10
381.9845841872199
 20
332.836617315972
 30
0.0
 10
381.9503486367363
 20
332.9626869929007
 30
0.0
 10
381.6860498100983
 20
333.1327650307603
 30
0.0
 10
381.299754752688
 20
333.2611213527466
 30
0.0
 10
380.8799265986187
 20
333.327225528436
 30
0.0
 10
380.6063509689162
 20
333.3339684704092
 30
0.0
 10
380.5011944617969
 20
333.3365603102834
 30
0.0
  0
LWPOLYLINE
  5
10F4
330
A
100
AcDbEntity
  8
MODEL
  6
Continuous
100
AcDbPolyline
 90
        8
 70
   128
 43
0.0
 10
382.0013390626651
 20
332.77360189096
 10
382.0018009986621
 20
331.0186697854188
 10
382.0021921541435
 20
329.547258348623
 10
382.0025013532382
 20
328.3642439855721
 10
382.002736046527
 20
327.4735512895968
 10
382.0028925087196
 20
326.8781325532582
 10
382.0029744651061
 20
326.5799603177693
 10
382.0029819156867
 20
326.5426906509783
  0
SPLINE
  5
10F5
330
A
100
AcDbEntity
  8
MODEL
  6
Continuous
100
AcDbSpline
210
0.0
220
0.0
230
1.0
 70
    11
 71
     3
 72
    26
 73
    22
 74
     0
 42
0.000000001
 43
0.00000001
 40
0.0
 40
0.0
 40
0.0
 40
0.0
 40
0.0539931591423799
 40
0.1079832393481492
 40
0.1622038066035446
 40
0.2156949620337614
 40
0.2690713296312539
 40
0.3223305055883733
 40
0.3756882423751506
 40
0.429034214530919
 40
0.4830472187565281
 40
0.537052214248705
 40
0.5912055895040335
 40
0.6452413937678798
 40
0.6986772852178615
 40
0.7525985415880502
 40
0.8054838521819052
 40
0.8589968436189833
 40
0.9125052479867609
 40
0.9660222251872042
 40
1.0
 40
1.0
 40
1.0
 40
1.0
 10
375.5025366093856
 20
328.3547966493752
 30
0.0
 10
375.5192137008077
 20
328.3211075993422
 30
0.0
 10
375.5525669326486
 20
328.2537314203796
 30
0.0
 10
375.8131222393
 20
328.1671175485321
 30
0.0
 10
376.1972099715409
 20
328.1030264386245
 30
0.0
 10
376.6747442848742
 20
328.0675337790631
 30
0.0
 10
377.1858457024379
 20
328.0630171311773
 30
0.0
 10
377.6754565827129
 20
328.0901452955973
 30
0.0
 10
378.0901347560999
 20
328.1457656026664
 30
0.0
 10
378.3832896597274
 20
328.225910239431
 30
0.0
 10
378.5228680893703
 20
328.3227730841204
 30
0.0
 10
378.4903065824443
 20
328.4266514745004
 30
0.0
 10
378.2881539935339
 20
328.5251360538145
 30
0.0
 10
377.9405813278833
 20
328.60584255398
 30
0.0
 10
377.4860606994868
 20
328.6580842216736
 30
0.0
 10
376.9798006005182
 20
328.6750985704466
 30
0.0
 10
376.476522667515
 20
328.6545297369244
 30
0.0
 10
376.0326152131125
 20
328.5998490586985
 30
0.0
 10
375.6994235423869
 20
328.5179117388193
 30
0.0
 10
375.5263595950934
 20
328.4313945106283
 30
0.0
 10
375.5092002728894
 20
328.3762222749779
 30
0.0
 10
375.5025366093856
 20
328.3547966493752
 30
0.0
  0
LINE
  5
10F6
330
A
100
AcDbEntity
  8
MODEL
  6
Continuous
100
AcDbLine
 10
382.196138217662
 20
317.612432198086
 30
0.0
 11
373.1961386050922
 21
317.612432198086
 31
0.0
  0
LINE
  5
10F7
330
A
100
AcDbEntity
  8
MODEL
  6
Continuous
100
AcDbLine
 10
382.196138217662
 20
326.5415544374373
 30
0.0
 11
373.2198053743583
 21
326.5415544374373
 31
0.0
  0
LINE
  5
10F8
330
A
100
AcDbEntity
  8
MODEL
  6
Continuous
100
AcDbLine
 10
367.1961394842607
 20
316.9915548278477
 30
0.0
 11
388.1961392011386
 21
316.9915548278477
 31
0.0
  0
LINE
  5
10F9
330
A
100
AcDbEntity
  8
MODEL
  6
Continuous
100
AcDbLine
 10
367.1961394842607
 20
308.9915553791907
 30
0.0
 11
388.1961392011386
 21
308.9915553791907
 31
0.0
  0
LINE
  5
10FA
330
A
100
AcDbEntity
  8
MODEL
  6
Continuous
100
AcDbLine
 10
366.6961384709817
 20
284.9915551705744
 30
0.0
 11
388.6961402144176
 21
284.9915551705744
 31
0.0
  0
LINE
  5
10FB
330
A
100
AcDbEntity
  8
MODEL
  6
Continuous
100
AcDbLine
 10
388.6961402144176
 20
284.1415547518518
 30
0.0
 11
366.6961384709817
 21
284.1415547518518
 31
0.0
  0
LINE
  5
10FC
102
{ACAD_REACTORS
102
}
330
A
100
AcDbEntity
  8
MODEL
  6
Continuous
100
AcDbLine
 10
388.1961392011386
 20
268.1415549232152
 30
0.0
 11
367.1961394842607
 21
268.1415549232152
 31
0.0
  0
SPLINE
  5
10FD
330
A
100
AcDbEntity
  8
MODEL
  6
Continuous
100
AcDbSpline
210
0.0
220
0.0
230
1.0
 70
     8
 71
     3
 72
    12
 73
     8
 74
     0
 42
0.000000001
 43
0.00000001
 40
0.0
 40
0.0
 40
0.0
 40
0.0
 40
0.2149905709791911
 40
0.4299807812356254
 40
0.6448625724253461
 40
0.8595222695817294
 40
1.0
 40
1.0
 40
1.0
 40
1.0
 10
367.8176985826236
 20
284.1415547518518
 30
0.0
 10
367.796342256947
 20
284.1437688445981
 30
0.0
 10
367.7536296414252
 20
284.1481970263762
 30
0.0
 10
367.6967091044868
 20
284.1827390708995
 30
0.0
 10
367.6537842902477
 20
284.2335618128159
 30
0.0
 10
367.6311090995456
 20
284.2897854992821
 30
0.0
 10
367.6288033687184
 20
284.3268816392597
 30
0.0
 10
367.6278913166267
 20
284.3415553434279
 30
0.0
  0
SPLINE
  5
10FE
330
A
100
AcDbEntity
  8
MODEL
  6
Continuous
100
AcDbSpline
210
0.0
220
0.0
230
1.0
 70
     8
 71
     3
 72
    12
 73
     8
 74
     0
 42
0.000000001
 43
0.00000001
 40
0.0
 40
0.0
 40
0.0
 40
0.0
 40
0.2144037391918428
 40
0.4287935597564264
 40
0.6432986345925116
 40
0.8580142586665142
 40
1.0
 40
1.0
 40
1.0
 40
1.0
 10
367.3096118267518
 20
284.3415553434279
 30
0.0
 10
367.3117069303986
 20
284.3190886228354
 30
0.0
 10
367.3158970016826
 20
284.2741566401419
 30
0.0
 10
367.3485676498145
 20
284.2142603628522
 30
0.0
 10
367.3966568209077
 20
284.1690309295336
 30
0.0
 10
367.4500403899416
 20
284.1449918714584
 30
0.0
 10
367.4853600332104
 20
284.1425333654329
 30
0.0
 10
367.4994190927488
 20
284.1415547518518
 30
0.0
  0
SPLINE
  5
10FF
330
A
100
AcDbEntity
  8
MODEL
  6
Continuous
100
AcDbSpline
210
0.0
220
0.0
230
1.0
 70
     8
 71
     3
 72
    12
 73
     8
 74
     0
 42
0.000000001
 43
0.00000001
 40
0.0
 40
0.0
 40
0.0
 40
0.0
 40
0.2144037391918428
 40
0.4287935597564264
 40
0.6432986345925116
 40
0.8580142586665142
 40
1.0
 40
1.0
 40
1.0
 40
1.0
 10
367.6278913166267
 20
284.7915545789983
 30
0.0
 10
367.6299864202734
 20
284.8140212995909
 30
0.0
 10
367.6341764915566
 20
284.8589532822848
 30
0.0
 10
367.6668471396903
 20
284.918849559574
 30
0.0
 10
367.7149363107825
 20
284.9640789928926
 30
0.0
 10
367.7683198798155
 20
284.9881180509683
 30
0.0
 10
367.8036395230862
 20
284.9905765569933
 30
0.0
 10
367.8176985826236
 20
284.9915551705744
 30
0.0
  0
SPLINE
  5
1100
330
A
100
AcDbEntity
  8
MODEL
  6
Continuous
100
AcDbSpline
210
0.0
220
0.0
230
1.0
 70
     8
 71
     3
 72
    12
 73
     8
 74
     0
 42
0.000000001
 43
0.00000001
 40
0.0
 40
0.0
 40
0.0
 40
0.0
 40
0.214990316296014
 40
0.4299852068034736
 40
0.6448629931299747
 40
0.8595224359951424
 40
1.0
 40
1.0
 40
1.0
 40
1.0
 10
367.4994190927488
 20
284.9915551705744
 30
0.0
 10
367.4780628758787
 20
284.9893409448455
 30
0.0
 10
367.4353499877567
 20
284.9849124462776
 30
0.0
 10
367.3784277963147
 20
284.9503720125049
 30
0.0
 10
367.3355050825054
 20
284.8995473815498
 30
0.0
 10
367.3128295440471
 20
284.8433244776352
 30
0.0
 10
367.3105238602426
 20
284.8062282986116
 30
0.0
 10
367.3096118267518
 20
284.7915545789983
 30
0.0
  0
LINE
  5
1101
330
A
100
AcDbEntity
  8
MODEL
  6
Continuous
100
AcDbLine
 10
367.3096118267518
 20
284.3415553434279
 30
0.0
 11
367.3096118267518
 21
284.7915545789983
 31
0.0
  0
LINE
  5
1102
330
A
100
AcDbEntity
  8
MODEL
  6
Continuous
100
AcDbLine
 10
367.6278913166267
 20
284.7915545789983
 30
0.0
 11
367.6278913166267
 21
284.3415553434279
 31
0.0
  0
LINE
  5
1103
330
A
100
AcDbEntity
  8
MODEL
  6
Continuous
100
AcDbLine
 10
341.6961390297753
 20
289.9814883931067
 30
0.0
 11
341.6961390297753
 21
330.4915561093476
 31
0.0
  0
LINE
  5
1104
330
A
100
AcDbEntity
  8
MODEL
  6
Continuous
100
AcDbLine
 10
341.6961390297753
 20
272.4915540529873
 30
0.0
 11
341.6961390297753
 21
289.9814883931067
 31
0.0
  0
LINE
  5
1105
330
A
100
AcDbEntity
  8
MODEL
  6
Continuous
100
AcDbLine
 10
351.6961390390885
 20
290.3783873407629
 30
0.0
 11
351.6961390390885
 21
273.4915542169001
 31
0.0
  0
LINE
  5
1106
330
A
100
AcDbEntity
  8
MODEL
  6
Continuous
100
AcDbLine
 10
351.6961390390885
 20
329.4915540827897
 30
0.0
 11
351.6961390390885
 21
290.3783873407629
 31
0.0
  0
LWPOLYLINE
  5
1107
330
A
100
AcDbEntity
  8
MODEL
  6
Continuous
100
AcDbPolyline
 90
       58
 70
   128
 43
0.0
 10
383.1550353910667
 20
506.5429976894048
 10
383.1550577428085
 20
506.4647069884923
 10
383.1551471497756
 20
506.117152304807
 10
383.1553147878391
 20
505.4927191449788
 10
383.1555494811279
 20
504.5933595611245
 10
383.1558586802227
 20
503.4218302680638
 10
383.1562386598331
 20
501.9817820502908
 10
383.1566894199592
 20
500.2776256515172
 10
383.1572035100204
 20
498.3146658851297
 10
383.1577883805973
 20
496.0989526225712
 10
383.1584365811092
 20
493.6373254968312
 10
383.1591518368465
 20
490.9374139024403
 10
383.1599229719383
 20
488.007547588506
 10
383.1607537116748
 20
484.8568013621953
 10
383.1616403307659
 20
481.494890780607
 10
383.1625791039211
 20
477.9322168542531
 10
383.1635663058502
 20
474.1797915412576
 10
383.1646056618434
 20
470.2492079450276
 10
383.1656822707397
 20
466.1526403142598
 10
383.1668035831195
 20
461.9027248336461
 10
383.1679621484024
 20
457.5125894261987
 10
383.1691505160076
 20
452.9958388520868
 10
383.1703724112255
 20
448.3664056970265
 10
383.1716203834754
 20
443.6386099769261
 10
383.1728869821769
 20
438.8270697309167
 10
383.1741759326202
 20
433.9466414167073
 10
383.1754760589344
 20
429.012419910589
 10
383.1767873611194
 20
424.0396640016224
 10
383.1781023885948
 20
419.0437293364193
 10
383.1794211413604
 20
414.0400684191372
 10
383.1807398941261
 20
409.0441412045147
 10
383.1820511963111
 20
404.0713927461293
 10
383.1833513226253
 20
399.1372010423329
 10
383.1846365477783
 20
394.2568025304467
 10
383.18590687177
 20
389.4452846361783
 10
383.1871511187297
 20
384.7175336195614
 10
383.1883730139476
 20
380.0881526185658
 10
383.1895651068431
 20
375.5714467479374
 10
383.1907199468357
 20
371.1813783957155
 10
383.1918412592155
 20
366.9315299703271
 10
383.192921593402
 20
362.8350219442036
 10
383.193957224105
 20
358.9045203043606
 10
383.1949481513244
 20
355.1521806730416
 10
383.1958869244796
 20
351.589592428365
 10
383.1967735435707
 20
348.2277749790337
 10
383.1976005580169
 20
345.0771144344003
 10
383.198375418399
 20
342.1473524285939
 10
383.199086948846
 20
339.4475414170411
 10
383.1997351493579
 20
336.98602605001
 10
383.2003200199348
 20
334.7704208208706
 10
383.2008378352863
 20
332.8075690879014
 10
383.2012848701221
 20
331.103535623708
 10
383.2016648497325
 20
329.6635954393532
 10
383.2019740488273
 20
328.4921909435179
 10
383.2022124674064
 20
327.5929468436625
 10
383.2023763801795
 20
326.9686440689952
 10
383.202469512437
 20
326.6212085945995
 10
383.2024881388885
 20
326.5430073006537
  0
LWPOLYLINE
  5
1108
330
A
100
AcDbEntity
  8
MODEL
  6
Continuous
100
AcDbPolyline
 90
       30
 70
   128
 43
0.0
 10
371.1787635233146
 20
416.5387323810246
 10
371.177444770549
 20
421.5404635979321
 10
371.1761297430736
 20
426.5267423106816
 10
371.174824028824
 20
431.4821383668568
 10
371.1735294904453
 20
436.3913557244928
 10
371.1722517158729
 20
441.2392250014932
 10
371.170992567752
 20
446.0107407285363
 10
371.1697594966632
 20
450.6911507560403
 10
371.1685525026065
 20
455.2660158588083
 10
371.1673790361625
 20
459.7211799337056
 10
371.1662390973312
 20
464.0428743077905
 10
371.165138274048
 20
468.2177326394708
 10
371.1640802916032
 20
472.2328654243142
 10
371.163067012642
 20
476.0758450938852
 10
371.1621021624547
 20
479.7348103238728
 10
371.1611894663316
 20
483.1984362317708
 10
371.1603307869178
 20
486.4560237838414
 10
371.1595298495037
 20
489.4975146962788
 10
371.1587866540891
 20
492.313491435209
 10
371.1581067886096
 20
494.8952517224939
 10
371.1574902530652
 20
497.2348234368947
 10
371.1569389101011
 20
499.3249795152333
 10
371.1564546223623
 20
501.1592379523904
 10
371.1560411151391
 20
502.7319512082727
 10
371.1556965257865
 20
504.0382466031697
 10
371.1554227169496
 20
505.0740859223988
 10
371.1552215512735
 20
505.8362803174641
 10
371.1550930287582
 20
506.3224605037358
 10
371.1550390120489
 20
506.5311214639337
 10
371.1550371494037
 20
506.5398386432321
  0
LWPOLYLINE
  5
1109
330
A
100
AcDbEntity
  8
MODEL
  6
Continuous
100
AcDbPolyline
 90
       30
 70
   128
 43
0.0
 10
371.2024880345804
 20
326.5398426665456
 10
371.2024861719352
 20
326.5485225929406
 10
371.2024321552259
 20
326.7570662064936
 10
371.2023036327106
 20
327.2431234581859
 10
371.2021024670345
 20
328.0051911933806
 10
371.2018286581975
 20
329.0409168912556
 10
371.2014859314901
 20
330.347093076864
 10
371.2010705616218
 20
331.9196871234562
 10
371.200586273883
 20
333.7538375271943
 10
371.200036793564
 20
335.8438781215341
 10
371.1994202580196
 20
338.1833418025162
 10
371.198738529895
 20
340.765001506963
 10
371.1979971971256
 20
343.5808739377644
 10
371.1971943970663
 20
346.6222642673638
 10
371.1963357176525
 20
349.8797624124672
 10
371.1954230215293
 20
353.3433026386888
 10
371.194458171342
 20
357.0021784617093
 10
371.1934448923809
 20
360.8450836254747
 10
371.1923869099361
 20
364.8601419045117
 10
371.1912860866529
 20
369.0349331809666
 10
371.1901461478216
 20
373.3565604998262
 10
371.1889726813775
 20
377.8116649700792
 10
371.1877656873208
 20
382.3864779187825
 10
371.1865326162321
 20
387.0668581439641
 10
371.1852753307563
 20
391.8383366181042
 10
371.1839956935388
 20
396.6861611916211
 10
371.1827030178052
 20
401.5953561975148
 10
371.1813954409105
 20
406.5507448031094
 10
371.1800822760803
 20
411.5370086146977
 10
371.1787635233146
 20
416.5387323810246
  0
LINE
  5
110A
330
A
100
AcDbEntity
  8
MODEL
  6
Continuous
100
AcDbLine
 10
388.6961402144176
 20
316.4915556772139
 30
0.0
 11
366.6961384709817
 21
316.4915556772139
 31
0.0
  0
LINE
  5
110B
330
A
100
AcDbEntity
  8
MODEL
  6
Continuous
100
AcDbLine
 10
388.6961402144176
 20
308.4915552972343
 30
0.0
 11
366.6961384709817
 21
308.4915552972343
 31
0.0
  0
LINE
  5
110C
330
A
100
AcDbEntity
  8
MODEL
  6
Continuous
100
AcDbLine
 10
366.6961384709817
 20
268.641554073849
 30
0.0
 11
388.6961402144176
 21
268.641554073849
 31
0.0
  0
LINE
  5
110D
330
A
100
AcDbEntity
  8
MODEL
  6
Continuous
100
AcDbLine
 10
367.6278913166267
 20
284.3415553434279
 30
0.0
 11
388.4961405541641
 21
284.3415553434279
 31
0.0
  0
LINE
  5
110E
330
A
100
AcDbEntity
  8
MODEL
  6
Continuous
100
AcDbLine
 10
366.8961399938804
 20
284.3415553434279
 30
0.0
 11
367.3096118267518
 21
284.3415553434279
 31
0.0
  0
LINE
  5
110F
330
A
100
AcDbEntity
  8
MODEL
  6
Continuous
100
AcDbLine
 10
367.3096118267518
 20
284.7915545789983
 30
0.0
 11
366.8961399938804
 21
284.7915545789983
 31
0.0
  0
LINE
  5
1110
330
A
100
AcDbEntity
  8
MODEL
  6
Continuous
100
AcDbLine
 10
388.4961405541641
 20
284.7915545789983
 30
0.0
 11
367.6278913166267
 21
284.7915545789983
 31
0.0
  0
LINE
  5
1111
330
A
100
AcDbEntity
  8
MODEL
  6
Continuous
100
AcDbLine
 10
350.6961391080064
 20
289.9814883931067
 30
0.0
 11
350.6961391080064
 21
330.4915561093476
 31
0.0
  0
LINE
  5
1112
330
A
100
AcDbEntity
  8
MODEL
  6
Continuous
100
AcDbLine
 10
350.6961391080064
 20
272.4915540529873
 30
0.0
 11
350.6961391080064
 21
289.9814883931067
 31
0.0
  0
DIMENSION
  5
1113
330
A
100
AcDbEntity
  8
DIM
100
AcDbDimension
  2
*D7
 10
388.6961390915027
 20
226.5108390579637
 30
0.0
 11
366.3348366661863
 21
226.5108390579637
 31
0.0
 70
   160
 71
     2
 42
47.0
 73
     0
 74
     0
 75
     0
  3
tfrom線あり
100
AcDbAlignedDimension
 13
341.6961390915027
 23
272.4915549631037
 33
0.0
 14
388.6961390915027
 24
284.9915549631037
 34
0.0
100
AcDbRotatedDimension
  0
SPLINE
  5
1114
330
A
100
AcDbEntity
  8
MODEL
  6
Continuous
100
AcDbSpline
210
0.0
220
0.0
230
1.0
 70
     8
 71
     3
 72
    14
 73
    10
 74
     0
 42
0.000000001
 43
0.00000001
 40
0.0
 40
0.0
 40
0.0
 40
0.0
 40
0.0165673947328325
 40
0.0836625551713425
 40
0.2725682161798226
 40
0.5044169919285005
 40
0.7273036451284035
 40
0.9661720511556864
 40
1.0
 40
1.0
 40
1.0
 40
1.0
 10
306.0609330034689
 20
143.7216687519817
 30
0.0
 10
306.0657587210857
 20
143.7223028912836
 30
0.0
 10
306.090127782901
 20
143.7255051880329
 30
0.0
 10
306.2174370584283
 20
143.7512036589451
 30
0.0
 10
306.4433594723818
 20
143.8421214235573
 30
0.0
 10
306.6938915031145
 20
144.0530082354107
 30
0.0
 10
306.8709522411658
 20
144.3559284081371
 30
0.0
 10
306.9182564919278
 20
144.6046759142537
 30
0.0
 10
306.9141369094481
 20
144.7403233907808
 30
0.0
 10
306.9136258757547
 20
144.7571504433422
 30
0.0
  0
SPLINE
  5
1115
330
A
100
AcDbEntity
  8
MODEL
  6
Continuous
100
AcDbSpline
210
0.0
220
0.0
230
1.0
 70
     8
 71
     3
 72
    20
 73
    16
 74
     0
 42
0.000000001
 43
0.00000001
 40
0.0
 40
0.0
 40
0.0
 40
0.0
 40
0.0060255664014242
 40
0.1397322470624724
 40
0.2441660322290557
 40
0.3311661120272844
 40
0.4045840254179967
 40
0.4643352105884463
 40
0.5067980660795159
 40
0.5325106418044699
 40
0.5567371678864484
 40
0.5926214907261993
 40
0.6660340271261815
 40
0.8744944808707918
 40
1.0
 40
1.0
 40
1.0
 40
1.0
 10
126.9179512358145
 20
144.7363223452835
 30
0.0
 10
126.9168420773543
 20
144.7307665801663
 30
0.0
 10
126.8911208100557
 20
144.6019289751594
 30
0.0
 10
126.9624400895767
 20
144.3666238423971
 30
0.0
 10
127.106983092834
 20
144.0987808096415
 30
0.0
 10
127.2869085244005
 20
143.9214708322775
 30
0.0
 10
127.4631786724279
 20
143.8118634541433
 30
0.0
 10
127.6161490794233
 20
143.7526822883106
 30
0.0
 10
127.7279097657241
 20
143.7271989443957
 30
0.0
 10
127.7890633224209
 20
143.7183218073355
 30
0.0
 10
127.8253507098474
 20
143.7144903638296
 30
0.0
 10
127.8568924405184
 20
143.7121580619778
 30
0.0
 10
127.8878077844159
 20
143.7108317934603
 30
0.0
 10
127.8989574541905
 20
143.7106169429453
 30
0.0
 10
127.9079610254661
 20
143.7105023993399
 30
0.0
 10
127.9113445973829
 20
143.7104593534737
 30
0.0
  0
LINE
  5
1116
330
A
100
AcDbEntity
  8
MODEL
  6
Continuous
100
AcDbLine
 10
306.9147062099413
 20
144.7106811721592
 30
0.0
 11
306.9147062099413
 21
156.7106794138222
 31
0.0
  0
LINE
  5
1117
330
A
100
AcDbEntity
  8
MODEL
  6
Continuous
100
AcDbLine
 10
126.9147027826742
 20
156.7106812764673
 30
0.0
 11
126.9147027826742
 21
144.7106811721592
 31
0.0
  0
SPLINE
  5
1118
330
A
100
AcDbEntity
  8
MODEL
  6
Continuous
100
AcDbSpline
210
0.0
220
0.0
230
1.0
 70
     8
 71
     3
 72
    69
 73
    65
 74
     0
 42
0.000000001
 43
0.00000001
 40
0.0
 40
0.0
 40
0.0
 40
0.0
 40
0.0007324911486569
 40
0.0076236548615116
 40
0.0207625920603077
 40
0.0371564130912741
 40
0.0541053143575275
 40
0.0711345936306881
 40
0.0881822736381898
 40
0.1052361962475518
 40
0.1222927751251219
 40
0.1393507106628749
 40
0.1564093439067551
 40
0.1734684332523034
 40
0.1905278137320634
 40
0.2075873492760435
 40
0.2246470490706619
 40
0.2417068242010797
 40
0.2587666774685682
 40
0.2758265680836147
 40
0.2928865121430057
 40
0.309946478826877
 40
0.3270064721011992
 40
0.3440664888358688
 40
0.3611265171616918
 40
0.3781865535158139
 40
0.395246603950237
 40
0.4123066606292755
 40
0.4293667282714687
 40
0.4464267987169043
 40
0.4634868697997833
 40
0.4805469431440875
 40
0.497607025869083
 40
0.5146671005393698
 40
0.5317271829665944
 40
0.5487872535681328
 40
0.5658473328082099
 40
0.5829074106559103
 40
0.5999674799636053
 40
0.6170275408225425
 40
0.6340876054347429
 40
0.6511476443675276
 40
0.6682076855944139
 40
0.6852677070508286
 40
0.7023277194365438
 40
0.7193877186681767
 40
0.7364476608706575
 40
0.7535076058853528
 40
0.7705675101909281
 40
0.7876273557253229
 40
0.804687138723677
 40
0.8217468264149788
 40
0.8388063963743035
 40
0.8558657882238744
 40
0.8729249168653005
 40
0.889983666703506
 40
0.9070417426226164
 40
0.9240986736262276
 40
0.9411534372219349
 40
0.9582032506730993
 40
0.9752396472160387
 40
0.9922226047662133
 40
0.9990333740252596
 40
1.0
 40
1.0
 40
1.0
 40
1.0
 10
304.8681583798365
 20
158.7099887002973
 30
0.0
 10
304.8690585608605
 20
158.7100069917683
 30
0.0
 10
304.8784275060719
 20
158.7101973665767
 30
0.0
 10
304.8084160148286
 20
158.7093638022338
 30
0.0
 10
304.618386309195
 20
158.7087549661869
 30
0.0
 10
304.158491375147
 20
158.707550656773
 30
0.0
 10
303.4302934245756
 20
158.7063874857618
 30
0.0
 10
302.44934750747
 20
158.7051798846451
 30
0.0
 10
301.2272158678664
 20
158.7039975463708
 30
0.0
 10
299.7678371840005
 20
158.7028302168342
 30
0.0
 10
298.0757869702996
 20
158.7016866752933
 30
0.0
 10
296.1558656808869
 20
158.700566494243
 30
0.0
 10
294.0135324806973
 20
158.6994742012639
 30
0.0
 10
291.6548179784826
 20
158.6984145508482
 30
0.0
 10
289.0863631858705
 20
158.69738640887
 30
0.0
 10
286.3153748929566
 20
158.6964007460952
 30
0.0
 10
283.3496457419154
 20
158.6954483318063
 30
0.0
 10
280.1974963837414
 20
158.6945439697361
 30
0.0
 10
276.8677744365808
 20
158.6936823616566
 30
0.0
 10
273.369825702301
 20
158.6928699086479
 30
0.0
 10
269.7134688144546
 20
158.6921086488105
 30
0.0
 10
265.9089611917456
 20
158.6913952132068
 30
0.0
 10
261.966980886163
 20
158.6907410331219
 30
0.0
 10
257.8985888661595
 20
158.690137283118
 30
0.0
 10
253.715200601326
 20
158.6895966581442
 30
0.0
 10
249.4285527393407
 20
158.6891107300617
 30
0.0
 10
245.0506780498175
 20
158.6886893407514
 30
0.0
 10
240.5938549132928
 20
158.6883239038543
 30
0.0
 10
236.0705939847434
 20
158.6880277459018
 30
0.0
 10
231.493581501208
 20
158.6877896756528
 30
0.0
 10
226.8756645466432
 20
158.6876187791263
 30
0.0
 10
222.2297976760732
 20
158.6875122553329
 30
0.0
 10
217.5690176146312
 20
158.6874722223656
 30
0.0
 10
212.9064006790762
 20
158.6874930089671
 30
0.0
 10
208.2550316503542
 20
158.687584006007
 30
0.0
 10
203.6279589300324
 20
158.6877356728569
 30
0.0
 10
199.0381670074606
 20
158.6879544301669
 30
0.0
 10
194.4985330783596
 20
158.6882353107353
 30
0.0
 10
190.0217962917872
 20
158.6885805872835
 30
0.0
 10
185.6205150854843
 20
158.6889861366067
 30
0.0
 10
181.307043454632
 20
158.6894550030056
 30
0.0
 10
177.0934813414809
 20
158.6899791300743
 30
0.0
 10
172.9916511856758
 20
158.6905653523636
 30
0.0
 10
169.0130653254022
 20
158.6912055581683
 30
0.0
 10
165.1688846023739
 20
158.6919030127378
 30
0.0
 10
161.4698958271223
 20
158.6926527633655
 30
0.0
 10
157.9264817784873
 20
158.6934490024673
 30
0.0
 10
154.5485868747668
 20
158.6942975731072
 30
0.0
 10
151.3456770204087
 20
158.6951920681163
 30
0.0
 10
148.3267597252828
 20
158.696129932081
 30
0.0
 10
145.5002962850189
 20
158.6971054424189
 30
0.0
 10
142.8742329270066
 20
158.6981216880176
 30
0.0
 10
140.4559214212917
 20
158.6991720392466
 30
0.0
 10
138.2521883062276
 20
158.700257568089
 30
0.0
 10
136.2691847903637
 20
158.7013694408056
 30
0.0
 10
134.5125414370381
 20
158.702508388556
 30
0.0
 10
132.9871400992655
 20
158.7036691205872
 30
0.0
 10
131.697498785796
 20
158.7048497040364
 30
0.0
 10
130.6467380792859
 20
158.7060518929848
 30
0.0
 10
129.840170292868
 20
158.7072367885453
 30
0.0
 10
129.27292957315
 20
158.7085455522374
 30
0.0
 10
129.0355261523504
 20
158.7092268722804
 30
0.0
 10
128.951905951037
 20
158.7101798344529
 30
0.0
 10
128.9610459553372
 20
158.7099949190028
 30
0.0
 10
128.9621819353537
 20
158.709971936491
 30
0.0
  0
SPLINE
  5
1119
330
A
100
AcDbEntity
  8
MODEL
  6
Continuous
100
AcDbSpline
210
0.0
220
0.0
230
1.0
 70
     8
 71
     3
 72
    89
 73
    85
 74
     0
 42
0.000000001
 43
0.00000001
 40
0.0
 40
0.0
 40
0.0
 40
0.0
 40
0.001460944634317
 40
0.0036383746926317
 40
0.005452709642747
 40
0.0070117923449595
 40
0.0083335884435572
 40
0.0094076554276555
 40
0.0101825556614605
 40
0.0105838748631898
 40
0.0109136002745235
 40
0.0113753544423704
 40
0.0122708577287713
 40
0.0144979680730001
 40
0.0193640929944536
 40
0.0353881470341947
 40
0.0524157730279164
 40
0.0690072161611011
 40
0.0855537805535486
 40
0.1020889683980271
 40
0.1186199589694754
 40
0.1351490288635746
 40
0.1516771128043693
 40
0.168204622775436
 40
0.1847317651193345
 40
0.2012586719429215
 40
0.2177854385086096
 40
0.2343120614895209
 40
0.2508386462183232
 40
0.2673651677514727
 40
0.2838916347960899
 40
0.3004180530174397
 40
0.3169444585676814
 40
0.3334708487542745
 40
0.3499972202558778
 40
0.3665235807730818
 40
0.3830499243426298
 40
0.3995762444174236
 40
0.4161025801015307
 40
0.4326289040518957
 40
0.4491552178131074
 40
0.4656815323407584
 40
0.4822078412012339
 40
0.4987341585817303
 40
0.515260462965684
 40
0.5317867853424927
 40
0.5483130891302505
 40
0.5648394082147631
 40
0.5813657303884385
 40
0.5978920346678408
 40
0.6144183701665722
 40
0.6309446949078121
 40
0.6474710361623065
 40
0.663997376490216
 40
0.6805237446304727
 40
0.6970500891391379
 40
0.7135764769904722
 40
0.7301029183572053
 40
0.7466293712321679
 40
0.7631558132995038
 40
0.7796823610799571
 40
0.7962089248181148
 40
0.8127356176936873
 40
0.8292623558279686
 40
0.8457893006506213
 40
0.8623164715909835
 40
0.878843962491015
 40
0.8953720125575159
 40
0.9119009781552493
 40
0.9284318089314337
 40
0.9449664474096845
 40
0.9615109957596714
 40
0.9780914231883243
 40
0.983981987585031
 40
0.98692955024175
 40
0.9884164955847651
 40
0.9889451933837979
 40
0.9893906903436318
 40
0.9900159211847047
 40
0.9915980497892324
 40
0.9938753070057351
 40
0.9963198658011183
 40
0.998607512764923
 40
1.0
 40
1.0
 40
1.0
 40
1.0
 10
306.887928823276
 20
156.7152261306314
 30
0.0
 10
306.889951535762
 20
156.8535271899659
 30
0.0
 10
306.894988951792
 20
157.1979557620184
 30
0.0
 10
306.6879594076403
 20
157.684248585404
 30
0.0
 10
306.3754873419961
 20
158.1054321739289
 30
0.0
 10
306.0303511883534
 20
158.387240449119
 30
0.0
 10
305.699109440497
 20
158.5606816517811
 30
0.0
 10
305.4171673598006
 20
158.6525978871723
 30
0.0
 10
305.2109112903212
 20
158.6904315224588
 30
0.0
 10
305.1026344182359
 20
158.7021824471285
 30
0.0
 10
305.0477943638583
 20
158.7064478405191
 30
0.0
 10
305.0028952903516
 20
158.7089451192023
 30
0.0
 10
304.9606175945795
 20
158.710383137904
 30
0.0
 10
304.9282178440466
 20
158.7109257454781
 30
0.0
 10
304.8606751518531
 20
158.7117052206954
 30
0.0
 10
304.6588707962732
 20
158.7125746879428
 30
0.0
 10
304.1462205704905
 20
158.7138322006704
 30
0.0
 10
303.3789744205272
 20
158.7150553263818
 30
0.0
 10
302.3755814311938
 20
158.7162585194828
 30
0.0
 10
301.1335583770036
 20
158.7174464975537
 30
0.0
 10
299.655599214297
 20
158.7186125126968
 30
0.0
 10
297.9456769597613
 20
158.7197571492889
 30
0.0
 10
296.008521940172
 20
158.720874792456
 30
0.0
 10
293.8495127395003
 20
158.7219652006743
 30
0.0
 10
291.4746986713766
 20
158.7230238554553
 30
0.0
 10
288.8907229831697
 20
158.7240467508541
 30
0.0
 10
286.1048316106493
 20
158.7250320853532
 30
0.0
 10
283.1248208934879
 20
158.7259798921436
 30
0.0
 10
279.9590676987904
 20
158.7268806871248
 30
0.0
 10
276.6164382009705
 20
158.7277388213233
 30
0.0
 10
273.1063139939992
 20
158.728546391349
 30
0.0
 10
269.4385318315102
 20
158.7293083068207
 30
0.0
 10
265.6233951933758
 20
158.7300128344446
 30
0.0
 10
261.6715975182273
 20
158.7306684639243
 30
0.0
 10
257.594229580451
 20
158.7312641489839
 30
0.0
 10
253.402729265725
 20
158.7318020586495
 30
0.0
 10
249.1088584039948
 20
158.7322845613357
 30
0.0
 10
244.7246525725972
 20
158.732700015662
 30
0.0
 10
240.2624346557626
 20
158.7330590928468
 30
0.0
 10
235.7347031136181
 20
158.7333530959327
 30
0.0
 10
231.1541695406044
 20
158.7335837940495
 30
0.0
 10
226.5336878418933
 20
158.7337528068847
 30
0.0
 10
221.8862152153619
 20
158.7338518857659
 30
0.0
 10
217.224796913851
 20
158.7338900545838
 30
0.0
 10
212.5625062612402
 20
158.733861817776
 30
0.0
 10
207.9124290767571
 20
158.7337689580277
 30
0.0
 10
203.2876051691013
 20
158.7336098406436
 30
0.0
 10
198.7010193164909
 20
158.7333892202882
 30
0.0
 10
194.1655364212187
 20
158.7331008907472
 30
0.0
 10
189.6938716891331
 20
158.73275374579
 30
0.0
 10
185.2985919754432
 20
158.7323407652766
 30
0.0
 10
180.9920082008351
 20
158.7318699665334
 30
0.0
 10
176.7862187606837
 20
158.731338645372
 30
0.0
 10
172.6930089177253
 20
158.7307496061785
 30
0.0
 10
168.7238713044165
 20
158.7301055072408
 30
0.0
 10
164.889941963584
 20
158.7294040942293
 30
0.0
 10
161.2019745872107
 20
158.7286517115604
 30
0.0
 10
157.670316449988
 20
158.7278476016077
 30
0.0
 10
154.3048755260864
 20
158.7269996284308
 30
0.0
 10
151.1150829537877
 20
158.7260994352046
 30
0.0
 10
148.1099120334178
 20
158.7251613984736
 30
0.0
 10
145.2977580638966
 20
158.7241811068016
 30
0.0
 10
142.6865420920916
 20
158.7231617893699
 30
0.0
 10
140.2835472093951
 20
158.7221061551786
 30
0.0
 10
138.0955449842708
 20
158.7210224430132
 30
0.0
 10
136.1286368477853
 20
158.719908559342
 30
0.0
 10
134.3883392136189
 20
158.7187646132043
 30
0.0
 10
132.8795052714153
 20
158.7176034217355
 30
0.0
 10
131.6063162872164
 20
158.7164183008213
 30
0.0
 10
130.5722551197754
 20
158.7152230802326
 30
0.0
 10
129.77996147591
 20
158.7139913065575
 30
0.0
 10
129.2311807854406
 20
158.7128364762843
 30
0.0
 10
128.9913028993791
 20
158.711644792274
 30
0.0
 10
128.9135962837157
 20
158.7112600019168
 30
0.0
 10
128.8762829656492
 20
158.7103316527887
 30
0.0
 10
128.8372947375777
 20
158.7096748785898
 30
0.0
 10
128.7597772104149
 20
158.7051138560769
 30
0.0
 10
128.6565728593636
 20
158.6952963575072
 30
0.0
 10
128.4196626207562
 20
158.6571955078107
 30
0.0
 10
128.015241542504
 20
158.5252810401994
 30
0.0
 10
127.5136347898236
 20
158.190649918361
 30
0.0
 10
127.1105241253566
 20
157.6545290543922
 30
0.0
 10
126.9226948062118
 20
157.095955816274
 30
0.0
 10
126.9184642185668
 20
156.7490171887875
 30
0.0
 10
126.9168634510473
 20
156.6177427341013
 30
0.0
  0
LINE
  5
111A
330
A
100
AcDbEntity
  8
MODEL
  6
Continuous
100
AcDbLine
 10
75.78882617716351
 20
143.6933043916492
 30
0.0
 11
127.9061440921263
 21
143.6933043916492
 31
0.0
  0
LINE
  5
111B
330
A
100
AcDbEntity
  8
MODEL
  6
Continuous
100
AcDbLine
 10
126.9147027826742
 20
156.6933046598701
 30
0.0
 11
75.78882617716351
 21
156.6933046598701
 31
0.0
  0
LINE
  5
111C
330
A
100
AcDbEntity
  8
MODEL
  6
Continuous
100
AcDbLine
 10
239.4147044590549
 20
176.1933038980483
 30
0.0
 11
239.4147044590549
 21
158.6933031250505
 31
0.0
  0
LINE
  5
111D
330
A
100
AcDbEntity
  8
MODEL
  6
Continuous
100
AcDbLine
 10
254.41470458944
 20
158.6933031250505
 30
0.0
 11
254.41470458944
 21
176.1933038980483
 31
0.0
  0
LINE
  5
111E
330
A
100
AcDbEntity
  8
MODEL
  6
Continuous
100
AcDbLine
 10
275.9147048539356
 20
177.1933038291304
 30
0.0
 11
275.9147048539356
 21
186.1933039073615
 31
0.0
  0
LINE
  5
111F
330
A
100
AcDbEntity
  8
MODEL
  6
Continuous
100
AcDbLine
 10
217.9147046602205
 20
186.1933039073615
 30
0.0
 11
217.9147046602205
 21
177.1933038291304
 31
0.0
  0
ARC
  5
1120
330
A
100
AcDbEntity
  8
MODEL
  6
Continuous
100
AcDbCircle
 10
218.914704371737
 20
177.1933038456341
 30
0.0
 40
0.9999999999999858
100
AcDbArc
 50
180.0
 51
270.0
  0
ARC
  5
1121
330
A
100
AcDbEntity
  8
MODEL
  6
Continuous
100
AcDbCircle
 10
274.914704371737
 20
177.1933038456341
 30
0.0
 40
0.9999999999999858
100
AcDbArc
 50
270.0
 51
0.0
  0
LWPOLYLINE
  5
1122
330
A
100
AcDbEntity
  8
MODEL
  6
Continuous
100
AcDbPolyline
 90
       58
 70
   128
 43
0.0
 10
305.7928350365595
 20
143.7181334514885
 10
305.6554165280298
 20
143.7194373030929
 10
305.2437048948244
 20
143.7207337041168
 10
304.5589741862253
 20
143.7220263798504
 10
303.6033366418318
 20
143.7233041544227
 10
302.3797538674311
 20
143.7245633025436
 10
300.8919995820955
 20
143.7258075495033
 10
299.1446782446341
 20
143.7270257194309
 10
297.1431915259794
 20
143.7282178123264
 10
294.8937196827368
 20
143.7293763776092
 10
292.4032215571837
 20
143.7305014152794
 10
289.6793898737864
 20
143.7315892000465
 10
286.7306475139097
 20
143.7326322813301
 10
283.5661102629141
 20
143.7336343844204
 10
280.1955570078329
 20
143.7345880587368
 10
276.6294036603407
 20
143.735489578989
 10
272.8786770797209
 20
143.7363352198868
 10
268.9549685067371
 20
143.7371287067203
 10
264.8704074866013
 20
143.7378625889091
 10
260.6376171654896
 20
143.7385331411629
 10
256.2696816942529
 20
143.7391440887718
 10
251.7801031547473
 20
143.7396879811554
 10
247.182757322012
 20
143.7401648183136
 10
242.4918547815518
 20
143.7405746002464
 10
237.7218943632082
 20
143.7409136016636
 10
232.887620533152
 20
143.7411818225651
 10
228.0039754307703
 20
143.7413829882412
 10
223.0860539323525
 20
143.7415096481113
 10
218.1490570849613
 20
143.7415618021755
 10
213.2082436776594
 20
143.741543175724
 10
208.2788874006704
 20
143.7414537687569
 10
203.3762265539602
 20
143.7412898559837
 10
198.5154081678824
 20
143.7410588879852
 10
193.7114637887911
 20
143.7407534141807
 10
188.9792386985258
 20
143.7403771598606
 10
184.3333621120886
 20
143.7399338503151
 10
179.7881875729994
 20
143.7394234855442
 10
175.3577743268446
 20
143.7388460655479
 10
171.0558090901808
 20
143.7382053156166
 10
166.8955911493734
 20
143.7375012357502
 10
162.8899802065329
 20
143.7367412765293
 10
159.0513516760305
 20
143.7359179873733
 10
155.391581783338
 20
143.7350425441532
 10
151.9219730592207
 20
143.7341149468689
 10
148.6532543397383
 20
143.7331389208107
 10
145.5955286121801
 20
143.7321181912689
 10
142.7582432127432
 20
143.7310490329533
 10
140.1501749253706
 20
143.7299426217346
 10
137.7793778276877
 20
143.728798957613
 10
135.6531907415823
 20
143.727625491169
 10
133.7781701779799
 20
143.7264184971123
 10
132.1601201391653
 20
143.7251891513138
 10
130.8040474152998
 20
143.7239374537735
 10
129.7141317820982
 20
143.7226671297817
 10
128.8937558031515
 20
143.7213819046287
 10
128.3454377747015
 20
143.7200855036049
 10
128.0708913302855
 20
143.7187853772907
 10
128.0367751217321
 20
143.7181856055527
  0
LWPOLYLINE
  5
1123
330
A
100
AcDbEntity
  8
MODEL
  6
Continuous
100
AcDbPolyline
 90
       58
 70
   128
 43
0.0
 10
128.0489419198469
 20
143.7177422960071
 10
128.0709509349302
 20
143.7174815256863
 10
128.3456240392164
 20
143.7161813993721
 10
128.8940538263754
 20
143.7148887236385
 10
129.7145564651922
 20
143.7136034984856
 10
130.8045838571028
 20
143.7123331744938
 10
132.1607757902578
 20
143.7110814769535
 10
133.7789375877813
 20
143.7098484058647
 10
135.6540699100927
 20
143.7086451370983
 10
137.780368754907
 20
143.707467945364
 10
140.151277611299
 20
143.7063242812424
 10
142.7594502067999
 20
143.7052178700237
 10
145.5968324637846
 20
143.7041524369984
 10
148.6546475983099
 20
143.7031279821663
 10
151.9234631753401
 20
143.7021519561081
 10
155.3931538558439
 20
143.7012243588238
 10
159.0530057049231
 20
143.7003489156036
 10
162.8917087412314
 20
143.699529351738
 10
166.8973941898779
 20
143.6987656672268
 10
171.0576791859106
 20
143.6980653126507
 10
175.3597040272192
 20
143.6974245627193
 10
179.7901694274382
 20
143.6968471427231
 10
184.335388670011
 20
143.6963367779522
 10
188.9813062346415
 20
143.6958897431164
 10
193.7135685778097
 20
143.6955172140865
 10
198.5175427592234
 20
143.695211740282
 10
203.3783797717527
 20
143.6949770469932
 10
208.2810592449144
 20
143.6948131342201
 10
213.210422972484
 20
143.6947237272529
 10
218.1512363797859
 20
143.6947051008015
 10
223.0882276392416
 20
143.6947609801559
 10
228.0061379617886
 20
143.6948876400261
 10
232.8897653690414
 20
143.6950850804119
 10
237.724014053388
 20
143.6953570266037
 10
242.4939423411028
 20
143.6956960280208
 10
247.1848069301681
 20
143.6961058099537
 10
251.7821082922504
 20
143.6965826471119
 10
256.271636540337
 20
143.6971265394955
 10
260.6395152008967
 20
143.6977337618141
 10
264.8722421920733
 20
143.6984080393581
 10
268.9567361569838
 20
143.6991419215469
 10
272.8803702241615
 20
143.6999316830902
 10
276.6310185736851
 20
143.7007810492782
 10
280.1970843768553
 20
143.7016825695305
 10
283.5675519502596
 20
143.7026362438469
 10
286.7319960689978
 20
143.7036346216469
 10
289.6806415713266
 20
143.7046814282207
 10
292.4043726718859
 20
143.7057692129879
 10
294.8947664893107
 20
143.706894250658
 10
297.1441302991346
 20
143.7080528159408
 10
299.1455089843706
 20
143.7092449088364
 10
300.8927148378328
 20
143.710463078764
 10
302.3803499138788
 20
143.7117036004333
 10
303.6038172042803
 20
143.7129664738445
 10
304.5593355393843
 20
143.7142442484169
 10
305.2439470386938
 20
143.7155331988602
 10
305.6555357373194
 20
143.7168333251743
 10
305.7928350365595
 20
143.7181334514885
  0
ARC
  5
1124
330
A
100
AcDbEntity
  8
MODEL
  6
Continuous
100
AcDbCircle
 10
216.914704371737
 20
150.1933038456341
 30
0.0
 40
10.99999999999997
100
AcDbArc
 50
51.3270399288484
 51
90.0
  0
ARC
  5
1125
330
A
100
AcDbEntity
  8
MODEL
  6
Continuous
100
AcDbCircle
 10
216.914704371737
 20
150.1933038456341
 30
0.0
 40
11.00000000000002
100
AcDbArc
 50
216.221546619834
 51
323.7784533801674
  0
ARC
  5
1126
330
A
100
AcDbEntity
  8
MODEL
  6
Continuous
100
AcDbCircle
 10
216.914704371737
 20
150.1933038456341
 30
0.0
 40
10.99999999999999
100
AcDbArc
 50
90.0
 51
128.4720770064625
  0
CIRCLE
  5
1127
330
A
100
AcDbEntity
  8
MODEL
  6
Continuous
100
AcDbCircle
 10
66.914704371737
 20
150.1933038456341
 30
0.0
 40
10.5
  0
CIRCLE
  5
1128
102
{ACAD_REACTORS
330
1216
102
}
330
A
100
AcDbEntity
  8
MODEL
  6
Continuous
100
AcDbCircle
 10
66.914704371737
 20
150.1933038456341
 30
0.0
 40
11.00000000000001
  0
ARC
  5
1129
330
A
100
AcDbEntity
  8
MODEL
  6
Continuous
100
AcDbCircle
 10
246.914704371737
 20
150.1933038456341
 30
0.0
 40
11.00000000000005
100
AcDbArc
 50
50.59943124626469
 51
128.6245348440538
  0
ARC
  5
112A
330
A
100
AcDbEntity
  8
MODEL
  6
Continuous
100
AcDbCircle
 10
246.914704371737
 20
150.1933038456341
 30
0.0
 40
10.99999999999999
100
AcDbArc
 50
216.2081723434554
 51
323.8027298680861
  0
LINE
  5
112B
330
A
100
AcDbEntity
  8
MODEL
  6
Continuous
100
AcDbLine
 10
217.9147046602205
 20
186.1933039073615
 30
0.0
 11
275.9147048539356
 21
186.1933039073615
 31
0.0
  0
LINE
  5
112C
330
A
100
AcDbEntity
  8
MODEL
  6
Continuous
100
AcDbLine
 10
274.9147046900229
 20
176.1933038980483
 30
0.0
 11
218.9147048241333
 21
176.1933038980483
 31
0.0
  0
LWPOLYLINE
  5
112D
330
A
100
AcDbEntity
  8
MODEL
  6
Continuous
100
AcDbPolyline
 90
       58
 70
   128
 43
0.0
 10
306.9147062099413
 20
144.7106811721592
 10
306.7755517161326
 20
144.7119999249248
 10
306.3586433029608
 20
144.7133149524002
 10
305.665266195579
 20
144.7146188040047
 10
304.6975698864893
 20
144.7159152050285
 10
303.4585420585112
 20
144.7171929796009
 10
301.9520085847811
 20
144.7184521277218
 10
300.1826335287527
 20
144.7196851988106
 10
298.1558781660036
 20
144.720888467577
 10
295.8780158853964
 20
144.7220656593113
 10
293.3560800350145
 20
144.7232055981426
 10
290.5978676474527
 20
144.7243045587807
 10
287.6119059122042
 20
144.7253625412254
 10
284.4074223733381
 20
144.7263758201866
 10
280.9943225777582
 20
144.7273406703739
 10
277.3831546849445
 20
144.728253366497
 10
273.5850852525667
 20
144.729113908556
 10
269.6118489450649
 20
144.7299148459701
 10
265.4757299071983
 20
144.7306561787395
 10
261.1895124039487
 20
144.7313379068642
 10
256.7664426362948
 20
144.7319525797634
 10
252.2201938166157
 20
144.7325039227276
 10
247.5648175652944
 20
144.7329882104664
 10
242.8147038056389
 20
144.7334017176895
 10
237.9845347798304
 20
144.7337481696873
 10
233.0892397633628
 20
144.734020115879
 10
228.1439494884447
 20
144.7342212815552
 10
223.1639516151384
 20
144.7343479414253
 10
218.1646362489895
 20
144.7344038207798
 10
213.161457756801
 20
144.7343851943283
 10
208.1698816812471
 20
144.7342957873611
 10
203.2053363120989
 20
144.7341281492977
 10
198.2831623948053
 20
144.7338934560089
 10
193.418581465526
 20
144.7335842569141
 10
188.6266213453249
 20
144.7332042773037
 10
183.922097513719
 20
144.7327535171776
 10
179.3195609546141
 20
144.7322394271164
 10
174.8332161999182
 20
144.7316545565395
 10
170.476951131864
 20
144.7310063560276
 10
166.2642214990095
 20
144.7302911002903
 10
162.2080509162382
 20
144.7295199651985
 10
158.3209712601141
 20
144.7286892254619
 10
154.61500031714
 20
144.7278026063709
 10
151.101597080274
 20
144.7268638332157
 10
147.7916244960264
 20
144.7258766312866
 10
144.6952973103956
 20
144.7248372752933
 10
141.8222044206099
 20
144.7237606663971
 10
139.1812120175795
 20
144.7226393540172
 10
136.7804933882193
 20
144.7214807887344
 10
134.6274618602232
 20
144.7202924211292
 10
132.7287708020643
 20
144.7190705259113
 10
131.0903061724142
 20
144.7178225536613
 10
129.717112014337
 20
144.7165559549599
 10
128.6134426093535
 20
144.7152670045166
 10
127.7827028727964
 20
144.7139668782024
 10
127.2274707055525
 20
144.7126555760174
 10
126.9494522905783
 20
144.711340548542
 10
126.9147027826742
 20
144.7106811721592
  0
LWPOLYLINE
  5
112E
330
A
100
AcDbEntity
  8
MODEL
  6
Continuous
100
AcDbPolyline
 90
       58
 70
   128
 43
0.0
 10
126.9147027826742
 20
156.7106794138222
 10
127.0537380671934
 20
156.7119981665878
 10
127.4705235457853
 20
156.7133131940632
 10
128.1637777185873
 20
156.7146189083128
 10
129.1313548183874
 20
156.7159134466915
 10
130.3702597117857
 20
156.7171912212639
 10
131.8766777015165
 20
156.7184503693848
 10
133.6459372735457
 20
156.7196834404735
 10
135.6725771522955
 20
156.7208904345302
 10
137.9503313994841
 20
156.7220639009743
 10
140.4721666670279
 20
156.7232038398056
 10
143.2302747464613
 20
156.7243046630888
 10
146.2161396241621
 20
156.7253626455336
 10
149.4205300307707
 20
156.7263759244947
 10
152.8335366940931
 20
156.727340774682
 10
156.4446170425848
 20
156.7282534708052
 10
160.2426101065115
 20
156.729112150219
 10
164.2157663202719
 20
156.7299130876331
 10
168.3518220282034
 20
156.7306562830477
 10
172.6379771328405
 20
156.7313361485271
 10
177.060984501882
 20
156.7319526840715
 10
181.6071872210936
 20
156.7325040270357
 10
186.262514869018
 20
156.7329883147745
 10
191.0125915503935
 20
156.7334018219976
 10
195.8427284455732
 20
156.7337464113502
 10
200.7379983163313
 20
156.7340202201872
 10
205.6832690334753
 20
156.7342213858633
 10
210.6632557309107
 20
156.7343499083786
 10
215.6625655091242
 20
156.7344039250879
 10
220.6657440013126
 20
156.7343852986364
 10
225.6573293900923
 20
156.7342940290241
 10
230.6218915230469
 20
156.734130116251
 10
235.5440859294371
 20
156.7338916976719
 10
240.4086980580227
 20
156.7335843612223
 10
245.2006914730058
 20
156.7332043816118
 10
249.9052545365752
 20
156.7327554841308
 10
254.507845694466
 20
156.7322376687794
 10
258.9942388779358
 20
156.7316527982025
 10
263.3505663446025
 20
156.7310045976906
 10
267.5633621013598
 20
156.7302930672436
 10
271.619607189937
 20
156.7295200695066
 10
275.5067632145123
 20
156.7286893297701
 10
279.2128123885826
 20
156.727802710679
 10
282.7263031697706
 20
156.7268639375238
 10
286.036372611566
 20
156.7258748729496
 10
289.1327929294542
 20
156.7248392422466
 10
292.0059901273684
 20
156.7237589080601
 10
294.6470868385271
 20
156.7226375956802
 10
297.047913501306
 20
156.7214808930426
 10
299.201056788011
 20
156.7202906627922
 10
301.0998521542982
 20
156.7190706302194
 10
302.7384397185282
 20
156.7178245206146
 10
304.111753085895
 20
156.716556059268
 10
305.215541700168
 20
156.7152689714699
 10
306.0464006460146
 20
156.7139669825106
 10
306.6017557478384
 20
156.7126575429706
 10
306.8798933721022
 20
156.7113406528501
 10
306.9147062099413
 20
156.7106794138222
  0
ARC
  5
112F
330
A
100
AcDbEntity
  8
MODEL
  6
Continuous
100
AcDbCircle
 10
216.914704371737
 20
150.1933038456341
 30
0.0
 40
10.49999999999998
100
AcDbArc
 50
90.0
 51
125.1687913235597
  0
ARC
  5
1130
330
A
100
AcDbEntity
  8
MODEL
  6
Continuous
100
AcDbCircle
 10
216.914704371737
 20
150.1933038456341
 30
0.0
 40
10.50000000000007
100
AcDbArc
 50
218.2361891083274
 51
321.7638107064417
  0
ARC
  5
1131
330
A
100
AcDbEntity
  8
MODEL
  6
Continuous
100
AcDbCircle
 10
216.914704371737
 20
150.1933038456341
 30
0.0
 40
10.50000000000001
100
AcDbArc
 50
55.46142656093365
 51
90.0
  0
LINE
  5
1132
330
A
100
AcDbEntity
  8
MODEL
  6
Continuous
100
AcDbLine
 10
217.9147046602205
 20
177.1933038291304
 30
0.0
 11
275.9147048539356
 21
177.1933038291304
 31
0.0
  0
DIMENSION
  5
1133
330
A
100
AcDbEntity
  8
DIM
100
AcDbDimension
  2
*D8
 10
275.914704371737
 20
204.7189895159609
 30
0.0
 11
246.3201937745747
 21
204.7189895159609
 31
0.0
 70
   160
  1
%%c<>
 71
     2
 42
58.0
 73
     0
 74
     0
 75
     0
  3
tfrom線あり
100
AcDbAlignedDimension
 13
217.914704371737
 23
186.1933038456341
 33
0.0
 14
275.914704371737
 24
186.1933038456341
 34
0.0
100
AcDbRotatedDimension
  0
DIMENSION
  5
1134
330
A
100
AcDbEntity
  8
DIM
100
AcDbDimension
  2
*D9
 10
316.0354357770033
 20
186.1933038456342
 30
0.0
 11
316.0354357770033
 21
198.5593038456342
 31
0.0
 70
   160
 71
     2
 42
9.999999999999996
 73
     0
 74
     1
 75
     1
 52
-270.0
  3
tfrom線あり
100
AcDbAlignedDimension
 13
274.914704371737
 23
176.1933038456341
 33
0.0
 14
275.914704371737
 24
186.1933038456341
 34
0.0
 50
90.0000000000002
100
AcDbRotatedDimension
1001
ACAD
1000
DSTYLE
1002
{
1070
   172
1070
     1
1002
}
  0
DIMENSION
  5
117C
330
A
100
AcDbEntity
  8
DIM
100
AcDbDimension
  2
*D10
 10
36.59254828912159
 20
268.0430001957089
 30
0.0
 11
36.59254828912159
 21
387.2930001957089
 31
0.0
 70
   160
 71
     5
 42
238.5
 73
     0
 74
     0
 75
     0
  3
tfrom線あり
100
AcDbAlignedDimension
 13
216.9147043629131
 23
506.5430001957089
 33
0.0
 14
56.414704371737
 24
268.0430001957089
 34
0.0
 50
90.0
100
AcDbRotatedDimension
1001
ACAD
1000
DSTYLE
1002
{
1070
   271
1070
     1
1002
}
  0
LINE
  5
1198
102
{ACAD_REACTORS
330
11A4
102
}
330
A
100
AcDbEntity
  8
MODEL
  6
HIDDEN
100
AcDbLine
 10
272.9147041293666
 20
293.9915550159749
 30
0.0
 11
257.9147046974734
 21
293.9915550159749
 31
0.0
  0
LINE
  5
1199
102
{ACAD_REACTORS
330
11A4
102
}
330
A
100
AcDbEntity
  8
MODEL
  6
HIDDEN
100
AcDbLine
 10
257.9147046974734
 20
308.9915553791907
 30
0.0
 11
272.9147041293666
 21
308.9915553791907
 31
0.0
  0
LINE
  5
119A
102
{ACAD_REACTORS
330
11A4
102
}
330
A
100
AcDbEntity
  8
MODEL
  6
HIDDEN
100
AcDbLine
 10
273.9147040604487
 20
330.4915561093476
 30
0.0
 11
282.9147041386798
 21
330.4915561093476
 31
0.0
  0
LINE
  5
119B
102
{ACAD_REACTORS
330
11A4
102
}
330
A
100
AcDbEntity
  8
MODEL
  6
HIDDEN
100
AcDbLine
 10
282.9147041386798
 20
272.4915540529873
 30
0.0
 11
273.9147040604487
 21
272.4915540529873
 31
0.0
  0
ARC
  5
119C
102
{ACAD_REACTORS
330
11A4
102
}
330
A
100
AcDbEntity
  8
MODEL
  6
HIDDEN
100
AcDbCircle
 10
273.9147040769524
 20
273.4915549631037
 30
0.0
 40
1.000000000000028
100
AcDbArc
 50
180.0
 51
270.0
  0
ARC
  5
119D
102
{ACAD_REACTORS
330
11A4
102
}
330
A
100
AcDbEntity
  8
MODEL
  6
HIDDEN
100
AcDbCircle
 10
273.9147040769524
 20
329.4915549631037
 30
0.0
 40
1.000000000000114
100
AcDbArc
 50
90.0
 51
180.0
  0
LINE
  5
119E
102
{ACAD_REACTORS
330
11A4
102
}
330
A
100
AcDbEntity
  8
MODEL
  6
HIDDEN
100
AcDbLine
 10
282.9147041386798
 20
289.9814883931067
 30
0.0
 11
282.9147041386798
 21
330.4915561093476
 31
0.0
  0
LINE
  5
119F
102
{ACAD_REACTORS
330
11A4
102
}
330
A
100
AcDbEntity
  8
MODEL
  6
HIDDEN
100
AcDbLine
 10
282.9147041386798
 20
272.4915540529873
 30
0.0
 11
282.9147041386798
 21
289.9814883931067
 31
0.0
  0
LINE
  5
11A0
102
{ACAD_REACTORS
330
11A4
102
}
330
A
100
AcDbEntity
  8
MODEL
  6
HIDDEN
100
AcDbLine
 10
272.9147041293666
 20
290.3783873407629
 30
0.0
 11
272.9147041293666
 21
273.4915542169001
 31
0.0
  0
LINE
  5
11A1
102
{ACAD_REACTORS
330
11A4
102
}
330
A
100
AcDbEntity
  8
MODEL
  6
HIDDEN
100
AcDbLine
 10
272.9147041293666
 20
329.4915540827897
 30
0.0
 11
272.9147041293666
 21
290.3783873407629
 31
0.0
  0
LINE
  5
11A2
102
{ACAD_REACTORS
330
11A4
102
}
330
A
100
AcDbEntity
  8
MODEL
  6
HIDDEN
100
AcDbLine
 10
273.9147040604487
 20
289.9814883931067
 30
0.0
 11
273.9147040604487
 21
330.4915561093476
 31
0.0
  0
LINE
  5
11A3
102
{ACAD_REACTORS
330
11A4
102
}
330
A
100
AcDbEntity
  8
MODEL
  6
HIDDEN
100
AcDbLine
 10
273.9147040604487
 20
272.4915540529873
 30
0.0
 11
273.9147040604487
 21
289.9814883931067
 31
0.0
  0
DIMENSION
  5
11C5
330
A
100
AcDbEntity
  8
DIM
100
AcDbDimension
  2
*D12
 10
377.6961390297753
 20
244.9450674753599
 30
0.0
 11
359.6961390297753
 21
252.9450674753599
 31
0.0
 70
    32
 71
     5
 42
36.0
 73
     0
 74
     0
 75
     0
  3
tfrom線あり
100
AcDbAlignedDimension
 13
341.6961390297753
 23
272.4915540529873
 33
0.0
 14
377.6961390297753
 24
272.4915540529873
 34
0.0
100
AcDbRotatedDimension
  0
DIMENSION
  5
11E2
330
A
100
AcDbEntity
  8
DIM
100
AcDbDimension
  2
*D14
 10
66.91470784906903
 20
337.2235552217222
 30
0.0
 11
141.9147057070271
 21
337.2235552217222
 31
0.0
 70
   160
 71
     5
 42
149.9999957159162
 73
     0
 74
     0
 75
     0
  3
tfrom線あり
100
AcDbAlignedDimension
 13
216.9147035649852
 23
316.4915556772139
 33
0.0
 14
66.91470784906903
 24
308.9915553791907
 34
0.0
100
AcDbRotatedDimension
  0
DIMENSION
  5
1201
330
A
100
AcDbEntity
  8
DIM
100
AcDbDimension
  2
*D15
 10
246.914707849069
 20
244.9450674753599
 30
0.0
 11
156.914707849069
 21
252.9450674753599
 31
0.0
 70
    32
 71
     5
 42
180.0
 73
     0
 74
     0
 75
     0
  3
tfrom線あり
100
AcDbAlignedDimension
 13
66.91470784906903
 23
268.1415549232152
 33
0.0
 14
246.914707849069
 24
268.1415549232152
 34
0.0
100
AcDbRotatedDimension
  0
DIMENSION
  5
1214
102
{ACAD_REACTORS
330
1216
102
}
102
{ACAD_XDICTIONARY
360
1215
102
}
330
A
100
AcDbEntity
  8
DIM
100
AcDbDimension
  2
*D16
 10
77.91470437173702
 20
166.6880567607535
 30
0.0
 11
66.914704371737
 21
174.9130567607535
 31
0.0
 70
    32
 71
     5
 42
22.00000000000003
 73
     0
 74
     0
 75
     0
  3
tfrom線あり
100
AcDbAlignedDimension
 13
55.91470437173699
 23
150.1933038456341
 33
0.0
 14
77.91470437173702
 24
150.1933038456341
 34
0.0
100
AcDbRotatedDimension
1001
ACAD
1000
DSTYLE
1002
{
1070
     3
1000
%%c<>
1002
}
  0
MTEXT
  5
122D
102
{ACAD_XDICTIONARY
360
122F
102
}
330
A
100
AcDbEntity
  8
TEMPLATE
100
AcDbMText
 10
14.77921037058429
 20
16.1007388236105
 30
0.0
 40
4.0
 41
0.0
 46
4.0
 71
     1
 72
     1
  1
{20160901N}
  7
ＭＳ ゴシック
 73
     1
 44
1.0
1001
ACAD
1000
ACAD_MTEXT_DEFINED_HEIGHT_BEGIN
1070
    46
1040
4.0
1000
ACAD_MTEXT_DEFINED_HEIGHT_END
  0
MTEXT
  5
123D
330
A
100
AcDbEntity
  8
TEMPLATE
390
1D
100
AcDbMText
 10
25.05086905520728
 20
37.70092884422749
 30
0.0
 40
4.8865234375
 41
0.0
 46
4.9598212890625
 71
     1
 72
     1
  1
{クローム}
  7
ＭＳ ゴシック
 73
     1
 44
0.7828267384257843
1001
ACAD
1000
ACAD_MTEXT_DEFINED_HEIGHT_BEGIN
1070
    46
1040
4.9598212890625
1000
ACAD_MTEXT_DEFINED_HEIGHT_END
  0
VIEWPORT
  5
349
330
B
100
AcDbEntity
 67
     1
  8
0
100
AcDbViewport
 10
202.5
 20
128.5
 30
0.0
 40
486.0
 41
308.4
 68
     1
 69
     1
 12
202.5
 22
128.5
 13
0.0
 23
0.0
 14
0.5
 24
0.5
 15
0.0
 25
0.0
 16
0.0
 26
0.0
 36
1.0
 17
0.0
 27
0.0
 37
0.0
 42
50.0
 43
0.0
 44
0.0
 45
308.4
 50
0.0
 51
0.0
 72
   100
 90
   557152
  1

281
     0
 71
     1
 74
     0
110
0.0
120
0.0
130
0.0
111
1.0
121
0.0
131
0.0
112
0.0
122
1.0
132
0.0
 79
     0
146
0.0
170
     0
 61
     5
348
26C
292
     1
282
     1
141
0.0
142
0.0
 63
   256
  0
VIEWPORT
  5
34A
330
B
100
AcDbEntity
 67
     1
  8
0
100
AcDbViewport
 10
202.5
 20
128.5
 30
0.0
 40
324.0
 41
205.6
 68
     2
 69
     2
 12
986.6781359294573
 22
1427.077061889956
 13
0.0
 23
0.0
 14
0.5
 24
0.5
 15
0.0
 25
0.0
 16
0.0
 26
0.0
 36
1.0
 17
0.0
 27
0.0
 37
0.0
 42
50.0
 43
0.0
 44
0.0
 45
2890.021615685494
 50
0.0
 51
0.0
 72
   100
 90
   557152
  1

281
     0
 71
     1
 74
     0
110
0.0
120
0.0
130
0.0
111
1.0
121
0.0
131
0.0
112
0.0
122
1.0
132
0.0
 79
     0
146
0.0
170
     0
 61
     5
348
26C
292
     1
282
     1
141
0.0
142
0.0
 63
   256
  0
ENDSEC
  0
SECTION
  2
OBJECTS
  0
DICTIONARY
  5
19
330
0
100
AcDbDictionary
281
     1
  3
ACAD_COLOR
350
674
  3
ACAD_DETAILVIEWSTYLE
350
BBF
  3
ACAD_FIELDLIST
350
1231
  3
ACAD_GROUP
350
1A
  3
ACAD_IMAGE_VARS
350
27B
  3
ACAD_LAYOUT
350
1E
  3
ACAD_MATERIAL
350
263
  3
ACAD_MLEADERSTYLE
350
336
  3
ACAD_MLINESTYLE
350
1B
  3
ACAD_PLOTSETTINGS
350
22
  3
ACAD_PLOTSTYLENAME
350
1F
  3
ACAD_SCALELIST
350
241
  3
ACAD_SECTIONVIEWSTYLE
350
BC0
  3
ACAD_TABLESTYLE
350
278
  3
ACAD_VISUALSTYLE
350
267
  3
ACDB_RECOMPOSE_DATA
350
1264
  3
AcDbVariableDictionary
350
330
  3
APPDATA
350
27A
  0
SUN
  5
904
330
15
100
AcDbSun
 90
        1
290
     0
 63
     7
421
 16777215
 40
1.0
291
     1
 91
  2455826
 92
 54000000
292
     0
 70
     2
 71
   256
280
     1
  0
DICTIONARY
  5
2E1
330
2
100
AcDbDictionary
280
     1
281
     1
  3
ACAD_LAYERSTATES
360
2E2
  3
ACLYDICTIONARY
360
1170
  0
DICTIONARY
  5
1215
330
1214
100
AcDbDictionary
280
     1
281
     1
  3
ACAD_DIMASSOC
360
1216
  0
DICTIONARY
  5
122F
330
122D
100
AcDbDictionary
280
     1
281
     1
  3
ACAD_FIELD
360
1233
  0
DICTIONARY
  5
674
102
{ACAD_REACTORS
330
19
102
}
330
19
100
AcDbDictionary
281
     1
  0
DICTIONARY
  5
BBF
102
{ACAD_REACTORS
330
19
102
}
330
19
100
AcDbDictionary
281
     1
  0
FIELDLIST
  5
1231
102
{ACAD_REACTORS
330
19
102
}
330
19
100
AcDbIdSet
 90
        2
330
1232
330
122E
100
AcDbFieldList
  0
DICTIONARY
  5
1A
102
{ACAD_REACTORS
330
19
102
}
330
19
100
AcDbDictionary
281
     1
  3
*A1
350
11A4
  0
RASTERVARIABLES
  5
27B
102
{ACAD_REACTORS
330
19
102
}
330
19
100
AcDbRasterVariables
 90
        0
 70
     1
 71
     1
 72
     1
  0
DICTIONARY
  5
1E
102
{ACAD_REACTORS
330
19
102
}
330
19
100
AcDbDictionary
281
     1
  3
Layout1
350
21
  3
Model
350
20
  0
DICTIONARY
  5
263
102
{ACAD_REACTORS
330
19
102
}
330
19
100
AcDbDictionary
281
     1
  3
ByBlock
350
1194
  3
ByLayer
350
264
  3
Global
350
266
  0
DICTIONARY
  5
336
102
{ACAD_REACTORS
330
19
102
}
330
19
100
AcDbDictionary
281
     1
  3
Standard
350
E6F
  0
DICTIONARY
  5
1B
102
{ACAD_REACTORS
330
19
102
}
330
19
100
AcDbDictionary
281
     1
  3
Standard
350
1C
  0
DICTIONARY
  5
22
102
{ACAD_REACTORS
330
19
102
}
330
19
100
AcDbDictionary
281
     1
  0
ACDBDICTIONARYWDFLT
  5
1F
102
{ACAD_REACTORS
330
19
102
}
330
19
100
AcDbDictionary
281
     1
  3
Normal
350
1D
100
AcDbDictionaryWithDefault
340
1D
  0
DICTIONARY
  5
241
102
{ACAD_REACTORS
330
19
102
}
330
19
100
AcDbDictionary
281
     1
  3
*A1
350
E83
  3
A0
350
242
  3
A1
350
243
  3
A2
350
244
  3
A3
350
245
  3
A4
350
246
  3
A5
350
247
  3
A6
350
248
  3
A7
350
249
  3
A8
350
24A
  3
A9
350
24B
  3
B0
350
24C
  3
B1
350
24D
  3
B2
350
24E
  3
B3
350
24F
  3
B4
350
250
  3
B5
350
251
  3
B6
350
252
  3
B7
350
253
  3
B8
350
254
  3
B9
350
255
  3
C0
350
256
  3
C1
350
257
  3
C2
350
258
  3
C3
350
259
  3
C4
350
25A
  3
C5
350
25B
  3
C6
350
25C
  3
C7
350
25D
  3
C8
350
25E
  3
C9
350
25F
  3
D0
350
260
  3
D1
350
261
  3
D2
350
262
  0
DICTIONARY
  5
BC0
102
{ACAD_REACTORS
330
19
102
}
330
19
100
AcDbDictionary
281
     1
  0
DICTIONARY
  5
278
102
{ACAD_REACTORS
330
19
102
}
330
19
100
AcDbDictionary
281
     1
  3
Standard
350
279
  0
DICTIONARY
  5
267
102
{ACAD_REACTORS
330
19
102
}
330
19
100
AcDbDictionary
281
     1
  3
2dWireframe
350
26C
  3
3D Hidden
350
26E
  3
3dWireframe
350
26D
  3
Basic
350
26F
  3
Brighten
350
273
  3
ColorChange
350
277
  3
Conceptual
350
271
  3
Dim
350
272
  3
EdgeColorOff
350
8FE
  3
Facepattern
350
276
  3
Flat
350
268
  3
FlatWithEdges
350
269
  3
Gouraud
350
26A
  3
GouraudWithEdges
350
26B
  3
Hidden
350
8FB
  3
JitterOff
350
8FC
  3
Linepattern
350
275
  3
OverhangOff
350
8FD
  3
Realistic
350
270
  3
Shaded
350
903
  3
Shaded with edges
350
902
  3
Shades of Gray
350
8FF
  3
Sketchy
350
900
  3
Thicken
350
274
  3
Wireframe
350
8FA
  3
X-Ray
350
901
  0
XRECORD
  5
1264
102
{ACAD_REACTORS
330
19
102
}
330
19
100
AcDbXrecord
280
     1
 90
        1
330
279
  0
DICTIONARY
  5
330
102
{ACAD_REACTORS
330
19
102
}
330
19
100
AcDbDictionary
281
     1
  3
CANNOSCALE
350
331
  3
CMLEADERSTYLE
350
1175
  3
CTABLESTYLE
350
335
  3
HPTRANSPARENCY
350
D6B
  3
XCLIPFRAME
350
896
  0
DICTIONARY
  5
27A
102
{ACAD_REACTORS
330
19
102
}
330
19
100
AcDbDictionary
281
     1
  0
DICTIONARY
  5
2E2
102
{ACAD_REACTORS
330
2E1
102
}
330
2E1
100
AcDbDictionary
281
     1
  3
ARGON_LAYERP_9
350
7AA
  0
DICTIONARY
  5
1170
102
{ACAD_REACTORS
330
2E1
102
}
330
2E1
100
AcDbDictionary
281
     1
1001
ACAD
1000
<All
  0
DIMASSOC
  5
1216
102
{ACAD_REACTORS
330
1215
102
}
330
1215
100
AcDbDimAssoc
330
1214
 90
        3
 70
     0
 71
     1
  1
AcDbOsnapPointRef
 72
     5
331
1128
 73
     0
 91
        0
 40
3.141592653589793
 10
0.0
 20
0.0
 30
0.0
 75
     0
  1
AcDbOsnapPointRef
 72
     5
331
1128
 73
     0
 91
        0
 40
0.0
 10
0.0
 20
0.0
 30
0.0
 75
     0
  0
DICTIONARY
  5
1233
102
{ACAD_REACTORS
330
122F
102
}
330
122F
100
AcDbDictionary
280
     1
281
     1
  3
TEXT
360
122E
  0
GROUP
  5
11A4
102
{ACAD_REACTORS
330
1A
102
}
330
1A
100
AcDbGroup
300

 70
     1
 71
     1
340
1198
340
1199
340
119A
340
119B
340
119C
340
119D
340
119E
340
119F
340
11A0
340
11A1
340
11A2
340
11A3
  0
LAYOUT
  5
21
102
{ACAD_REACTORS
330
1E
102
}
330
1E
100
AcDbPlotSettings
  1

  2
none_device
  4
ISO_A3_(420.00_x_297.00_MM)
  6

 40
7.5
 41
20.0
 42
7.5
 43
20.0
 44
420.0
 45
297.0
 46
0.0
 47
0.0
 48
0.0
 49
0.0
140
0.0
141
0.0
142
1.0
143
1.0
 70
     0
 72
     1
 73
     0
 74
     0
  7

 75
     0
 76
     0
 77
     2
 78
   300
147
1.0
148
0.0
149
0.0
100
AcDbLayout
  1
Layout1
 70
     0
 71
     0
 10
-7.5
 20
-20.0
 11
412.5
 21
277.0
 12
0.0
 22
0.0
 32
0.0
 14
0.0
 24
0.0
 34
0.0
 15
0.0
 25
0.0
 35
0.0
146
0.0
 13
0.0
 23
0.0
 33
0.0
 16
0.0
 26
0.0
 36
0.0
 17
0.0
 27
0.0
 37
0.0
 76
     0
330
B
331
349
  0
LAYOUT
  5
20
102
{ACAD_REACTORS
330
1E
102
}
330
1E
100
AcDbPlotSettings
  1

  2
none_device
  4
ISO_A3_(420.00_x_297.00_MM)
  6

 40
7.5
 41
20.0
 42
7.5
 43
20.0
 44
420.0
 45
297.0
 46
0.0
 47
0.0
 48
0.0
 49
0.0
140
0.0
141
0.0
142
1.0
143
1.0
 70
  1024
 72
     1
 73
     0
 74
     0
  7

 75
     0
 76
     0
 77
     2
 78
   300
147
1.0
148
0.0
149
0.0
100
AcDbLayout
  1
Model
 70
     0
 71
     1
 10
0.0
 20
0.0
 11
420.0000000000001
 21
594.0000000000001
 12
0.0
 22
0.0
 32
0.0
 14
14.44042890944979
 24
11.37005132361048
 34
-0.0000000000000142
 15
404.4404289095462
 25
579.4293347012853
 35
0.0000000000000142
146
0.0
 13
0.0
 23
0.0
 33
0.0
 16
0.0
 26
0.0
 36
0.0
 17
0.0
 27
0.0
 37
0.0
 76
     0
330
A
331
15
  0
MATERIAL
  5
1194
102
{ACAD_REACTORS
330
263
102
}
330
263
100
AcDbMaterial
  1
ByBlock
 72
     1
 94
      127
  0
MATERIAL
  5
264
102
{ACAD_REACTORS
330
263
102
}
330
263
100
AcDbMaterial
  1
ByLayer
 72
     1
 94
      127
  0
MATERIAL
  5
266
102
{ACAD_REACTORS
330
263
102
}
330
263
100
AcDbMaterial
  1
Global
 72
     1
 94
      127
  0
MLEADERSTYLE
  5
E6F
102
{ACAD_REACTORS
330
336
102
}
330
336
100
AcDbMLeaderStyle
170
     2
171
     1
172
     0
 90
        2
 40
0.0
 41
0.0
173
     1
 91
-1056964608
340
11
 92
       -2
290
     1
 42
2.0
291
     1
 43
8.0
  3
Standard
341
0
 44
4.0
300

342
17
174
     1
178
     6
175
     1
176
     0
 93
-1056964608
 45
4.0
292
     0
297
     0
 46
4.0
343
0
 94
-1056964608
 47
1.0
 49
1.0
140
1.0
293
     1
141
0.0
294
     1
177
     0
142
1.0
295
     0
296
     0
143
3.75
1001
ACAD_MLEADERVER
1070
     2
  0
MLINESTYLE
  5
1C
102
{ACAD_REACTORS
330
1B
102
}
330
1B
100
AcDbMlineStyle
  2
Standard
 70
     0
  3

 62
     0
 51
90.0
 52
90.0
 71
     2
 49
0.5
 62
   256
  6
BYLAYER
 49
-0.5
 62
   256
  6
BYLAYER
  0
ACDBPLACEHOLDER
  5
1D
102
{ACAD_REACTORS
330
1F
102
}
330
1F
  0
SCALE
  5
E83
102
{ACAD_REACTORS
330
241
102
}
330
241
100
AcDbScale
 70
     0
300
1:1_XREF_XREF
140
1.0
141
1.0
290
     1
  0
SCALE
  5
242
102
{ACAD_REACTORS
330
241
102
}
330
241
100
AcDbScale
 70
     0
300
1:1
140
1.0
141
1.0
290
     0
  0
SCALE
  5
243
102
{ACAD_REACTORS
330
241
102
}
330
241
100
AcDbScale
 70
     0
300
1:2
140
1.0
141
2.0
290
     0
  0
SCALE
  5
244
102
{ACAD_REACTORS
330
241
102
}
330
241
100
AcDbScale
 70
     0
300
1:4
140
1.0
141
4.0
290
     0
  0
SCALE
  5
245
102
{ACAD_REACTORS
330
241
102
}
330
241
100
AcDbScale
 70
     0
300
1:5
140
1.0
141
5.0
290
     0
  0
SCALE
  5
246
102
{ACAD_REACTORS
330
241
102
}
330
241
100
AcDbScale
 70
     0
300
1:8
140
1.0
141
8.0
290
     0
  0
SCALE
  5
247
102
{ACAD_REACTORS
330
241
102
}
330
241
100
AcDbScale
 70
     0
300
1:10
140
1.0
141
10.0
290
     0
  0
SCALE
  5
248
102
{ACAD_REACTORS
330
241
102
}
330
241
100
AcDbScale
 70
     0
300
1:16
140
1.0
141
16.0
290
     0
  0
SCALE
  5
249
102
{ACAD_REACTORS
330
241
102
}
330
241
100
AcDbScale
 70
     0
300
1:20
140
1.0
141
20.0
290
     0
  0
SCALE
  5
24A
102
{ACAD_REACTORS
330
241
102
}
330
241
100
AcDbScale
 70
     0
300
1:30
140
1.0
141
30.0
290
     0
  0
SCALE
  5
24B
102
{ACAD_REACTORS
330
241
102
}
330
241
100
AcDbScale
 70
     0
300
1:40
140
1.0
141
40.0
290
     0
  0
SCALE
  5
24C
102
{ACAD_REACTORS
330
241
102
}
330
241
100
AcDbScale
 70
     0
300
1:50
140
1.0
141
50.0
290
     0
  0
SCALE
  5
24D
102
{ACAD_REACTORS
330
241
102
}
330
241
100
AcDbScale
 70
     0
300
1:100
140
1.0
141
100.0
290
     0
  0
SCALE
  5
24E
102
{ACAD_REACTORS
330
241
102
}
330
241
100
AcDbScale
 70
     0
300
2:1
140
2.0
141
1.0
290
     0
  0
SCALE
  5
24F
102
{ACAD_REACTORS
330
241
102
}
330
241
100
AcDbScale
 70
     0
300
4:1
140
4.0
141
1.0
290
     0
  0
SCALE
  5
250
102
{ACAD_REACTORS
330
241
102
}
330
241
100
AcDbScale
 70
     0
300
8:1
140
8.0
141
1.0
290
     0
  0
SCALE
  5
251
102
{ACAD_REACTORS
330
241
102
}
330
241
100
AcDbScale
 70
     0
300
10:1
140
10.0
141
1.0
290
     0
  0
SCALE
  5
252
102
{ACAD_REACTORS
330
241
102
}
330
241
100
AcDbScale
 70
     0
300
100:1
140
100.0
141
1.0
290
     0
  0
SCALE
  5
253
102
{ACAD_REACTORS
330
241
102
}
330
241
100
AcDbScale
 70
     0
300
1/128" = 1'-0"
140
0.0078125
141
12.0
290
     0
  0
SCALE
  5
254
102
{ACAD_REACTORS
330
241
102
}
330
241
100
AcDbScale
 70
     0
300
1/64" = 1'-0"
140
0.015625
141
12.0
290
     0
  0
SCALE
  5
255
102
{ACAD_REACTORS
330
241
102
}
330
241
100
AcDbScale
 70
     0
300
1/32" = 1'-0"
140
0.03125
141
12.0
290
     0
  0
SCALE
  5
256
102
{ACAD_REACTORS
330
241
102
}
330
241
100
AcDbScale
 70
     0
300
1/16" = 1'-0"
140
0.0625
141
12.0
290
     0
  0
SCALE
  5
257
102
{ACAD_REACTORS
330
241
102
}
330
241
100
AcDbScale
 70
     0
300
3/32" = 1'-0"
140
0.09375
141
12.0
290
     0
  0
SCALE
  5
258
102
{ACAD_REACTORS
330
241
102
}
330
241
100
AcDbScale
 70
     0
300
1/8" = 1'-0"
140
0.125
141
12.0
290
     0
  0
SCALE
  5
259
102
{ACAD_REACTORS
330
241
102
}
330
241
100
AcDbScale
 70
     0
300
3/16" = 1'-0"
140
0.1875
141
12.0
290
     0
  0
SCALE
  5
25A
102
{ACAD_REACTORS
330
241
102
}
330
241
100
AcDbScale
 70
     0
300
1/4" = 1'-0"
140
0.25
141
12.0
290
     0
  0
SCALE
  5
25B
102
{ACAD_REACTORS
330
241
102
}
330
241
100
AcDbScale
 70
     0
300
3/8" = 1'-0"
140
0.375
141
12.0
290
     0
  0
SCALE
  5
25C
102
{ACAD_REACTORS
330
241
102
}
330
241
100
AcDbScale
 70
     0
300
1/2" = 1'-0"
140
0.5
141
12.0
290
     0
  0
SCALE
  5
25D
102
{ACAD_REACTORS
330
241
102
}
330
241
100
AcDbScale
 70
     0
300
3/4" = 1'-0"
140
0.75
141
12.0
290
     0
  0
SCALE
  5
25E
102
{ACAD_REACTORS
330
241
102
}
330
241
100
AcDbScale
 70
     0
300
1" = 1'-0"
140
1.0
141
12.0
290
     0
  0
SCALE
  5
25F
102
{ACAD_REACTORS
330
241
102
}
330
241
100
AcDbScale
 70
     0
300
1-1/2" = 1'-0"
140
1.5
141
12.0
290
     0
  0
SCALE
  5
260
102
{ACAD_REACTORS
330
241
102
}
330
241
100
AcDbScale
 70
     0
300
3" = 1'-0"
140
3.0
141
12.0
290
     0
  0
SCALE
  5
261
102
{ACAD_REACTORS
330
241
102
}
330
241
100
AcDbScale
 70
     0
300
6" = 1'-0"
140
6.0
141
12.0
290
     0
  0
SCALE
  5
262
102
{ACAD_REACTORS
330
241
102
}
330
241
100
AcDbScale
 70
     0
300
1'-0" = 1'-0"
140
12.0
141
12.0
290
     0
  0
TABLESTYLE
  5
279
102
{ACAD_REACTORS
330
278
102
}
102
{ACAD_XDICTIONARY
360
1262
102
}
330
278
100
AcDbTableStyle
  3
Standard
 70
     0
 71
     0
 40
0.06
 41
0.06
280
     0
281
     0
  7
Standard
140
4.5
170
     2
 62
     0
 63
   257
283
     0
 90
        4
 91
        0
  1

274
    -2
284
     1
 64
     0
275
    -2
285
     1
 65
     0
276
    -2
286
     1
 66
     0
277
    -2
287
     1
 67
     0
278
    -2
288
     1
 68
     0
279
    -2
289
     1
 69
     0
  7
Standard
140
6.0
170
     5
 62
     0
 63
   257
283
     0
 90
        4
 91
        0
  1

274
    -2
284
     1
 64
     0
275
    -2
285
     1
 65
     0
276
    -2
286
     1
 66
     0
277
    -2
287
     1
 67
     0
278
    -2
288
     1
 68
     0
279
    -2
289
     1
 69
     0
  7
Standard
140
4.5
170
     5
 62
     0
 63
   257
283
     0
 90
        4
 91
        0
  1

274
    -2
284
     1
 64
     0
275
    -2
285
     1
 65
     0
276
    -2
286
     1
 66
     0
277
    -2
287
     1
 67
     0
278
    -2
288
     1
 68
     0
279
    -2
289
     1
 69
     0
  0
VISUALSTYLE
  5
26C
102
{ACAD_REACTORS
330
267
102
}
330
267
100
AcDbVisualStyle
  2
2dWireframe
 70
     4
 71
     0
 72
     2
 73
     0
 90
        0
 40
-0.6
 41
-30.0
 62
     5
 63
     7
421
 16777215
 74
     1
 91
        4
 64
     7
 65
   257
 75
     1
175
     1
 42
1.0
 92
        0
 66
   257
 43
1.0
 76
     1
 77
     6
 78
     2
 67
     7
 79
     5
170
     0
171
     0
290
     0
174
     0
 93
        1
 44
0.0
173
     0
291
     0
 45
0.0
  0
VISUALSTYLE
  5
26E
102
{ACAD_REACTORS
330
267
102
}
330
267
100
AcDbVisualStyle
  2
3D Hidden
 70
     6
 71
     1
 72
     2
 73
     2
 90
        0
 40
-0.6
 41
-30.0
 62
     5
 63
     7
421
 16777215
 74
     2
 91
        2
 64
     7
 65
   257
 75
     2
175
     1
 42
40.0
 92
        0
 66
   257
 43
1.0
 76
     1
 77
     6
 78
     2
 67
     7
 79
     3
170
     0
171
     0
290
     0
174
     0
 93
        1
 44
0.0
173
     0
291
     0
 45
0.0
  0
VISUALSTYLE
  5
26D
102
{ACAD_REACTORS
330
267
102
}
330
267
100
AcDbVisualStyle
  2
3dWireframe
 70
     5
 71
     0
 72
     2
 73
     0
 90
        0
 40
-0.6
 41
-30.0
 62
     5
 63
     7
421
 16777215
 74
     1
 91
        4
 64
     7
 65
   257
 75
     1
175
     1
 42
1.0
 92
        0
 66
   257
 43
1.0
 76
     1
 77
     6
 78
     2
 67
     7
 79
     5
170
     0
171
     0
290
     0
174
     0
 93
        1
 44
0.0
173
     0
291
     0
 45
0.0
  0
VISUALSTYLE
  5
26F
102
{ACAD_REACTORS
330
267
102
}
330
267
100
AcDbVisualStyle
  2
Basic
 70
     7
 71
     1
 72
     0
 73
     1
 90
        0
 40
-0.6
 41
-30.0
 62
     5
 63
     7
421
 16777215
 74
     0
 91
        4
 64
     7
 65
   257
 75
     1
175
     1
 42
1.0
 92
        8
 66
     7
 43
1.0
 76
     1
 77
     6
 78
     2
 67
     7
 79
     5
170
     0
171
     0
290
     0
174
     0
 93
        1
 44
0.0
173
     0
291
     1
 45
0.0
  0
VISUALSTYLE
  5
273
102
{ACAD_REACTORS
330
267
102
}
330
267
100
AcDbVisualStyle
  2
Brighten
 70
    12
 71
     2
 72
     2
 73
     0
 90
        0
 40
-0.6
 41
-30.0
 62
     5
 63
     7
421
 16777215
 74
     1
 91
        4
 64
     7
 65
   257
 75
     1
175
     1
 42
1.0
 92
        8
 66
     7
 43
1.0
 76
     1
 77
     6
 78
     2
 67
     7
 79
     5
170
     0
171
     0
290
     0
174
     0
 93
        1
 44
50.0
173
     0
291
     1
 45
0.0
  0
VISUALSTYLE
  5
277
102
{ACAD_REACTORS
330
267
102
}
330
267
100
AcDbVisualStyle
  2
ColorChange
 70
    16
 71
     2
 72
     2
 73
     3
 90
        0
 40
-0.6
 41
-30.0
 62
     5
 63
     8
421
  8421504
 74
     1
 91
        4
 64
     7
 65
   257
 75
     1
175
     1
 42
1.0
 92
        8
 66
     8
424
  8421504
 43
1.0
 76
     1
 77
     6
 78
     2
 67
     7
 79
     5
170
     0
171
     0
290
     0
174
     0
 93
        1
 44
0.0
173
     0
291
     1
 45
0.0
  0
VISUALSTYLE
  5
271
102
{ACAD_REACTORS
330
267
102
}
330
267
100
AcDbVisualStyle
  2
Conceptual
 70
     9
 71
     3
 72
     2
 73
     0
 90
        0
 40
-0.6
 41
-30.0
 62
     5
 63
     7
421
 16777215
 74
     2
 91
        2
 64
     7
 65
   257
 75
     1
175
     1
 42
40.0
 92
        8
 66
     7
 43
1.0
 76
     1
 77
     6
 78
     2
 67
     7
 79
     3
170
     0
171
     0
290
     0
174
     0
 93
        1
 44
0.0
173
     0
291
     0
 45
0.0
  0
VISUALSTYLE
  5
272
102
{ACAD_REACTORS
330
267
102
}
330
267
100
AcDbVisualStyle
  2
Dim
 70
    11
 71
     2
 72
     2
 73
     0
 90
        0
 40
-0.6
 41
-30.0
 62
     5
 63
     7
421
 16777215
 74
     1
 91
        4
 64
     7
 65
   257
 75
     1
175
     1
 42
1.0
 92
        8
 66
     7
 43
1.0
 76
     1
 77
     6
 78
     2
 67
     7
 79
     5
170
     0
171
     0
290
     0
174
     0
 93
        1
 44
-50.0
173
     0
291
     1
 45
0.0
  0
VISUALSTYLE
  5
8FE
102
{ACAD_REACTORS
330
267
102
}
330
267
100
AcDbVisualStyle
  2
EdgeColorOff
 70
    22
 71
     2
 72
     2
 73
     0
 90
        0
 40
0.6
 41
30.0
 62
     5
 63
     7
421
 16777215
 74
     1
 91
        4
 64
     7
 65
   257
 75
     1
175
     1
 42
1.0
 92
        8
 66
     7
 43
1.0
 76
     1
 77
     6
 78
     2
 67
     7
 79
     5
170
     0
171
     0
290
     0
174
     0
 93
        1
 44
0.0
173
     0
291
     1
 45
0.0
  0
VISUALSTYLE
  5
276
102
{ACAD_REACTORS
330
267
102
}
330
267
100
AcDbVisualStyle
  2
Facepattern
 70
    15
 71
     2
 72
     2
 73
     0
 90
        0
 40
-0.6
 41
-30.0
 62
     5
 63
     7
421
 16777215
 74
     1
 91
        4
 64
     7
 65
   257
 75
     1
175
     1
 42
1.0
 92
        8
 66
     7
 43
1.0
 76
     1
 77
     6
 78
     2
 67
     7
 79
     5
170
     0
171
     0
290
     0
174
     0
 93
        1
 44
0.0
173
     0
291
     1
 45
0.0
  0
VISUALSTYLE
  5
268
102
{ACAD_REACTORS
330
267
102
}
330
267
100
AcDbVisualStyle
  2
Flat
 70
     0
 71
     2
 72
     1
 73
     1
 90
        2
 40
-0.6
 41
30.0
 62
     5
 63
     7
421
 16777215
 74
     0
 91
        4
 64
     7
 65
   257
 75
     1
175
     1
 42
1.0
 92
        8
 66
     7
 43
1.0
 76
     1
 77
     6
 78
     2
 67
     7
 79
     5
170
     0
171
     0
290
     0
174
     0
 93
       13
 44
0.0
173
     0
291
     1
 45
0.0
  0
VISUALSTYLE
  5
269
102
{ACAD_REACTORS
330
267
102
}
330
267
100
AcDbVisualStyle
  2
FlatWithEdges
 70
     1
 71
     2
 72
     1
 73
     1
 90
        2
 40
-0.6
 41
30.0
 62
     5
 63
     7
421
 16777215
 74
     1
 91
        4
 64
     7
 65
   257
 75
     1
175
     1
 42
1.0
 92
        0
 66
   257
 43
1.0
 76
     1
 77
     6
 78
     2
 67
     7
 79
     5
170
     0
171
     0
290
     0
174
     0
 93
       13
 44
0.0
173
     0
291
     1
 45
0.0
  0
VISUALSTYLE
  5
26A
102
{ACAD_REACTORS
330
267
102
}
330
267
100
AcDbVisualStyle
  2
Gouraud
 70
     2
 71
     2
 72
     2
 73
     1
 90
        2
 40
-0.6
 41
30.0
 62
     5
 63
     7
421
 16777215
 74
     0
 91
        4
 64
     7
 65
   257
 75
     1
175
     1
 42
1.0
 92
        0
 66
     7
 43
1.0
 76
     1
 77
     6
 78
     2
 67
     7
 79
     5
170
     0
171
     0
290
     0
174
     0
 93
       13
 44
0.0
173
     0
291
     1
 45
0.0
  0
VISUALSTYLE
  5
26B
102
{ACAD_REACTORS
330
267
102
}
330
267
100
AcDbVisualStyle
  2
GouraudWithEdges
 70
     3
 71
     2
 72
     2
 73
     1
 90
        2
 40
-0.6
 41
30.0
 62
     5
 63
     7
421
 16777215
 74
     1
 91
        4
 64
     7
 65
   257
 75
     1
175
     1
 42
1.0
 92
        0
 66
   257
 43
1.0
 76
     1
 77
     6
 78
     2
 67
     7
 79
     5
170
     0
171
     0
290
     0
174
     0
 93
       13
 44
0.0
173
     0
291
     1
 45
0.0
  0
VISUALSTYLE
  5
8FB
102
{ACAD_REACTORS
330
267
102
}
330
267
100
AcDbVisualStyle
  2
Hidden
 70
     6
 71
     1
 72
     2
 73
     2
 90
        0
 40
0.6
 41
30.0
 62
     5
 63
     7
421
 16777215
 74
     2
 91
        2
 64
     7
 65
   257
 75
     2
175
     1
 42
40.0
 92
        0
 66
   257
 43
1.0
 76
     1
 77
     6
 78
     2
 67
     7
 79
     3
170
     0
171
     0
290
     0
174
     0
 93
        1
 44
0.0
173
     0
291
     0
 45
0.0
  0
VISUALSTYLE
  5
8FC
102
{ACAD_REACTORS
330
267
102
}
330
267
100
AcDbVisualStyle
  2
JitterOff
 70
    20
 71
     2
 72
     2
 73
     0
 90
        0
 40
0.6
 41
30.0
 62
     5
 63
     7
421
 16777215
 74
     1
 91
        4
 64
     7
 65
   257
 75
     1
175
     1
 42
1.0
 92
       10
 66
     7
 43
1.0
 76
     1
 77
     6
 78
     2
 67
     7
 79
     5
170
     0
171
     0
290
     0
174
     0
 93
        1
 44
0.0
173
     0
291
     1
 45
0.0
  0
VISUALSTYLE
  5
275
102
{ACAD_REACTORS
330
267
102
}
330
267
100
AcDbVisualStyle
  2
Linepattern
 70
    14
 71
     2
 72
     2
 73
     0
 90
        0
 40
-0.6
 41
-30.0
 62
     5
 63
     7
421
 16777215
 74
     1
 91
        4
 64
     7
 65
   257
 75
     7
175
     7
 42
1.0
 92
        8
 66
     7
 43
1.0
 76
     1
 77
     6
 78
     2
 67
     7
 79
     5
170
     0
171
     0
290
     0
174
     0
 93
        1
 44
0.0
173
     0
291
     1
 45
0.0
  0
VISUALSTYLE
  5
8FD
102
{ACAD_REACTORS
330
267
102
}
330
267
100
AcDbVisualStyle
  2
OverhangOff
 70
    21
 71
     2
 72
     2
 73
     0
 90
        0
 40
0.6
 41
30.0
 62
     5
 63
     7
421
 16777215
 74
     1
 91
        4
 64
     7
 65
   257
 75
     1
175
     1
 42
1.0
 92
        9
 66
     7
 43
1.0
 76
     1
 77
     6
 78
     2
 67
     7
 79
     5
170
     0
171
     0
290
     0
174
     0
 93
        1
 44
0.0
173
     0
291
     1
 45
0.0
  0
VISUALSTYLE
  5
270
102
{ACAD_REACTORS
330
267
102
}
330
267
100
AcDbVisualStyle
  2
Realistic
 70
     8
 71
     2
 72
     2
 73
     0
 90
        0
 40
-0.6
 41
-30.0
 62
     5
 63
     7
421
 16777215
 74
     1
 91
        0
 64
     7
 65
   257
 75
     1
175
     1
 42
1.0
 92
        8
 66
     8
424
  7895160
 43
1.0
 76
     1
 77
     6
 78
     2
 67
     7
 79
     5
170
     0
171
     0
290
     0
174
     0
 93
       13
 44
0.0
173
     0
291
     0
 45
0.0
  0
VISUALSTYLE
  5
903
102
{ACAD_REACTORS
330
267
102
}
330
267
100
AcDbVisualStyle
  2
Shaded
 70
    27
 71
     2
 72
     2
 73
     1
 90
        2
 40
0.6
 41
30.0
 62
     5
 63
     7
421
 16777215
 74
     0
 91
        4
 64
     7
 65
   257
 75
     1
175
     1
 42
1.0
 92
        8
 66
   257
 43
1.0
 76
     1
 77
     6
 78
     2
 67
     8
425
  7895160
 79
     3
170
     0
171
     0
290
     0
174
     0
 93
        5
 44
0.0
173
     0
291
     0
 45
0.0
  0
VISUALSTYLE
  5
902
102
{ACAD_REACTORS
330
267
102
}
330
267
100
AcDbVisualStyle
  2
Shaded with edges
 70
    26
 71
     2
 72
     2
 73
     1
 90
        2
 40
0.6
 41
30.0
 62
     5
 63
     7
421
 16777215
 74
     1
 91
       10
 64
     7
 65
   257
 75
     2
175
     1
 42
1.0
 92
        8
 66
   257
 43
1.0
 76
     1
 77
     6
 78
     2
 67
     7
 79
     3
170
     0
171
     0
290
     0
174
     0
 93
        5
 44
0.0
173
     0
291
     0
 45
0.0
  0
VISUALSTYLE
  5
8FF
102
{ACAD_REACTORS
330
267
102
}
330
267
100
AcDbVisualStyle
  2
Shades of Gray
 70
    23
 71
     2
 72
     2
 73
     3
 90
        0
 40
0.6
 41
30.0
 62
     5
 63
     7
421
 16777215
 74
     2
 91
        2
 64
     7
 65
     7
 75
     1
175
     1
 42
40.0
 92
        8
 66
     7
 43
1.0
 76
     1
 77
     6
 78
     2
 67
     7
 79
     3
170
     0
171
     0
290
     0
174
     0
 93
        1
 44
0.0
173
     0
291
     0
 45
0.0
  0
VISUALSTYLE
  5
900
102
{ACAD_REACTORS
330
267
102
}
330
267
100
AcDbVisualStyle
  2
Sketchy
 70
    24
 71
     1
 72
     2
 73
     2
 90
        0
 40
0.6
 41
30.0
 62
     5
 63
     7
421
 16777215
 74
     2
 91
        2
 64
     7
 65
     7
 75
     1
175
     1
 42
40.0
 92
       11
 66
     7
 43
1.0
 76
     1
 77
     6
 78
     2
 67
     7
 79
     6
170
     0
171
     0
290
     0
174
     0
 93
        1
 44
0.0
173
     0
291
     0
 45
0.0
  0
VISUALSTYLE
  5
274
102
{ACAD_REACTORS
330
267
102
}
330
267
100
AcDbVisualStyle
  2
Thicken
 70
    13
 71
     2
 72
     2
 73
     0
 90
        0
 40
-0.6
 41
-30.0
 62
     5
 63
     7
421
 16777215
 74
     1
 91
        4
 64
     7
 65
   257
 75
     1
175
     1
 42
1.0
 92
       12
 66
     7
 43
1.0
 76
     1
 77
     6
 78
     2
 67
     7
 79
     5
170
     0
171
     0
290
     0
174
     0
 93
        1
 44
0.0
173
     0
291
     1
 45
0.0
  0
VISUALSTYLE
  5
8FA
102
{ACAD_REACTORS
330
267
102
}
330
267
100
AcDbVisualStyle
  2
Wireframe
 70
     5
 71
     0
 72
     2
 73
     0
 90
        0
 40
0.6
 41
30.0
 62
     5
 63
     7
421
 16777215
 74
     1
 91
        4
 64
     7
 65
   257
 75
     1
175
     1
 42
1.0
 92
        0
 66
   257
 43
1.0
 76
     1
 77
     6
 78
     2
 67
     7
 79
     3
170
     0
171
     0
290
     0
174
     0
 93
        1
 44
0.0
173
     0
291
     0
 45
0.0
  0
VISUALSTYLE
  5
901
102
{ACAD_REACTORS
330
267
102
}
330
267
100
AcDbVisualStyle
  2
X-Ray
 70
    25
 71
     2
 72
     2
 73
     1
 90
        1
 40
0.5
 41
30.0
 62
     5
 63
     7
421
 16777215
 74
     1
 91
        0
 64
     7
 65
   257
 75
     1
175
     1
 42
1.0
 92
        8
 66
     7
 43
1.0
 76
     1
 77
     6
 78
     2
 67
     7
 79
     3
170
     0
171
     0
290
     0
174
     0
 93
       13
 44
0.0
173
     0
291
     0
 45
0.0
  0
DICTIONARYVAR
  5
331
102
{ACAD_REACTORS
330
330
102
}
330
330
100
DictionaryVariables
280
     0
  1
1:1
  0
DICTIONARYVAR
  5
1175
102
{ACAD_REACTORS
330
330
102
}
330
330
100
DictionaryVariables
280
     0
  1
Standard
  0
DICTIONARYVAR
  5
335
102
{ACAD_REACTORS
330
330
102
}
330
330
100
DictionaryVariables
280
     0
  1
Standard
  0
DICTIONARYVAR
  5
D6B
102
{ACAD_REACTORS
330
330
102
}
330
330
100
DictionaryVariables
280
     0
  1
ByLayer
  0
DICTIONARYVAR
  5
896
102
{ACAD_REACTORS
330
330
102
}
330
330
100
DictionaryVariables
280
     0
  1
0
  0
XRECORD
  5
7AA
102
{ACAD_REACTORS
330
2E2
102
}
330
2E2
100
AcDbXrecord
280
     1
 91
    34815
301

290
     0
302
MODEL
330
14
 90
        8
 62
     7
370
    -3
331
13
  1
Color_7
440
 33554687
330
4B
 90
        8
 62
     7
370
    20
331
13
  1
Color_7
440
 33554687
330
4C
 90
        8
 62
     7
370
    13
331
13
  1
Color_7
440
 33554687
330
4D
 90
        8
 62
     7
370
    20
331
13
  1
Color_7
440
 33554687
330
667
 90
        8
 62
     7
370
    -3
331
13
  1
Color_7
440
 33554687
330
0
 90
        8
 62
     7
370
    20
331
0
  1
Color_7
440
 33554687
330
DDE
 90
        0
 62
     7
370
    -3
331
13
  1
Color_7
440
 33554687
  0
FIELD
  5
122E
102
{ACAD_REACTORS
330
1233
102
}
330
1233
100
AcDbField
  1
_text
  2
{%<\_FldIdx 0>%N}
 90
        1
360
1232
 97
        0
 91
       63
 92
        0
 94
        8
 95
        2
 96
        0
300

 93
        1
  6
ACFD_FIELDTEXT_CHECKSUM
 93
        2
 90
        2
140
4500.0
 94
        0
300

302

304
ACVALUE_END
  7
ACFD_FIELD_VALUE
 93
        6
 90
        4
  1
{20160901N}
 94
        0
300

302

304
ACVALUE_END
301
{20160901N}
 98
       11
  0
DICTIONARY
  5
1262
330
279
100
AcDbDictionary
280
     1
281
     1
  3
ACAD_ROUNDTRIP_2008_TABLESTYLE_CELLSTYLEMAP
360
1263
  0
FIELD
  5
1232
330
122E
100
AcDbField
  1
AcVar
  2
\AcVar Date \f "yyyyMMdd"
 90
        0
 97
        0
 91
       63
 92
        0
 94
        8
 95
        2
 96
        0
300

 93
        1
  6
Variable
 93
        2
 90
        4
  1
Date
 94
        0
300

302

304
ACVALUE_END
  7
ACFD_FIELD_VALUE
 93
        6
 90
        8
 92
       16
310
E0070900000001000500340029000000
 94
        0
300
yyyyMMdd
302

304
ACVALUE_END
301
20160901
 98
        8
  0
CELLSTYLEMAP
  5
1263
102
{ACAD_REACTORS
330
1262
102
}
330
1262
100
AcDbCellStyleMap
 90
        3
300
CELLSTYLE
  1
TABLEFORMAT_BEGIN
 90
        5
170
     1
 91
        0
 92
    32768
 62
   257
 93
        1
300
CONTENTFORMAT
  1
CONTENTFORMAT_BEGIN
 90
        0
 91
        0
 92
        4
 93
        0
300

 40
0.0
140
1.0
 94
        5
 62
     0
340
17
144
6.0
309
CONTENTFORMAT_END
171
     1
301
MARGIN
  1
CELLMARGIN_BEGIN
 40
0.06
 40
0.06
 40
0.06
 40
0.06
 40
0.18
 40
0.18
309
CELLMARGIN_END
 94
        6
 95
        1
302
GRIDFORMAT
  1
GRIDFORMAT_BEGIN
 90
        0
 91
        1
 62
     0
 92
       -2
340
0
 93
        0
 40
0.045
309
GRIDFORMAT_END
 95
        2
302
GRIDFORMAT
  1
GRIDFORMAT_BEGIN
 90
        0
 91
        1
 62
     0
 92
       -2
340
0
 93
        0
 40
0.045
309
GRIDFORMAT_END
 95
        4
302
GRIDFORMAT
  1
GRIDFORMAT_BEGIN
 90
        0
 91
        1
 62
     0
 92
       -2
340
0
 93
        0
 40
0.045
309
GRIDFORMAT_END
 95
        8
302
GRIDFORMAT
  1
GRIDFORMAT_BEGIN
 90
        0
 91
        1
 62
     0
 92
       -2
340
0
 93
        0
 40
0.045
309
GRIDFORMAT_END
 95
       16
302
GRIDFORMAT
  1
GRIDFORMAT_BEGIN
 90
        0
 91
        1
 62
     0
 92
       -2
340
0
 93
        0
 40
0.045
309
GRIDFORMAT_END
 95
       32
302
GRIDFORMAT
  1
GRIDFORMAT_BEGIN
 90
        0
 91
        1
 62
     0
 92
       -2
340
0
 93
        0
 40
0.045
309
GRIDFORMAT_END
309
TABLEFORMAT_END
  1
CELLSTYLE_BEGIN
 90
        1
 91
        1
300
_TITLE
309
CELLSTYLE_END
300
CELLSTYLE
  1
TABLEFORMAT_BEGIN
 90
        5
170
     1
 91
        0
 92
        0
 62
   257
 93
        1
300
CONTENTFORMAT
  1
CONTENTFORMAT_BEGIN
 90
        0
 91
        0
 92
        4
 93
        0
300

 40
0.0
140
1.0
 94
        5
 62
     0
340
17
144
4.5
309
CONTENTFORMAT_END
171
     1
301
MARGIN
  1
CELLMARGIN_BEGIN
 40
0.06
 40
0.06
 40
0.06
 40
0.06
 40
0.18
 40
0.18
309
CELLMARGIN_END
 94
        6
 95
        1
302
GRIDFORMAT
  1
GRIDFORMAT_BEGIN
 90
        0
 91
        1
 62
     0
 92
       -2
340
0
 93
        0
 40
0.045
309
GRIDFORMAT_END
 95
        2
302
GRIDFORMAT
  1
GRIDFORMAT_BEGIN
 90
        0
 91
        1
 62
     0
 92
       -2
340
0
 93
        0
 40
0.045
309
GRIDFORMAT_END
 95
        4
302
GRIDFORMAT
  1
GRIDFORMAT_BEGIN
 90
        0
 91
        1
 62
     0
 92
       -2
340
0
 93
        0
 40
0.045
309
GRIDFORMAT_END
 95
        8
302
GRIDFORMAT
  1
GRIDFORMAT_BEGIN
 90
        0
 91
        1
 62
     0
 92
       -2
340
0
 93
        0
 40
0.045
309
GRIDFORMAT_END
 95
       16
302
GRIDFORMAT
  1
GRIDFORMAT_BEGIN
 90
        0
 91
        1
 62
     0
 92
       -2
340
0
 93
        0
 40
0.045
309
GRIDFORMAT_END
 95
       32
302
GRIDFORMAT
  1
GRIDFORMAT_BEGIN
 90
        0
 91
        1
 62
     0
 92
       -2
340
0
 93
        0
 40
0.045
309
GRIDFORMAT_END
309
TABLEFORMAT_END
  1
CELLSTYLE_BEGIN
 90
        2
 91
        1
300
_HEADER
309
CELLSTYLE_END
300
CELLSTYLE
  1
TABLEFORMAT_BEGIN
 90
        5
170
     1
 91
        0
 92
        0
 62
   257
 93
        1
300
CONTENTFORMAT
  1
CONTENTFORMAT_BEGIN
 90
        0
 91
        0
 92
        4
 93
        0
300

 40
0.0
140
1.0
 94
        2
 62
     0
340
17
144
4.5
309
CONTENTFORMAT_END
171
     1
301
MARGIN
  1
CELLMARGIN_BEGIN
 40
0.06
 40
0.06
 40
0.06
 40
0.06
 40
0.18
 40
0.18
309
CELLMARGIN_END
 94
        6
 95
        1
302
GRIDFORMAT
  1
GRIDFORMAT_BEGIN
 90
        0
 91
        1
 62
     0
 92
       -2
340
0
 93
        0
 40
0.045
309
GRIDFORMAT_END
 95
        2
302
GRIDFORMAT
  1
GRIDFORMAT_BEGIN
 90
        0
 91
        1
 62
     0
 92
       -2
340
0
 93
        0
 40
0.045
309
GRIDFORMAT_END
 95
        4
302
GRIDFORMAT
  1
GRIDFORMAT_BEGIN
 90
        0
 91
        1
 62
     0
 92
       -2
340
0
 93
        0
 40
0.045
309
GRIDFORMAT_END
 95
        8
302
GRIDFORMAT
  1
GRIDFORMAT_BEGIN
 90
        0
 91
        1
 62
     0
 92
       -2
340
0
 93
        0
 40
0.045
309
GRIDFORMAT_END
 95
       16
302
GRIDFORMAT
  1
GRIDFORMAT_BEGIN
 90
        0
 91
        1
 62
     0
 92
       -2
340
0
 93
        0
 40
0.045
309
GRIDFORMAT_END
 95
       32
302
GRIDFORMAT
  1
GRIDFORMAT_BEGIN
 90
        0
 91
        1
 62
     0
 92
       -2
340
0
 93
        0
 40
0.045
309
GRIDFORMAT_END
309
TABLEFORMAT_END
  1
CELLSTYLE_BEGIN
 90
        3
 91
        2
300
_DATA
309
CELLSTYLE_END
  0
ENDSEC
  0
EOF
