  0
SECTION
  2
HEADER
  9
$ACADVER
  1
AC1021
  9
$ACADMAINTVER
 70
    25
  9
$DWGCODEPAGE
  3
ANSI_932
  9
$LASTSAVEDBY
  1
Shimosaki
  9
$INSBASE
 10
0.0
 20
0.0
 30
0.0
  9
$EXTMIN
 10
0.0
 20
0.0
 30
-104.4201163251327
  9
$EXTMAX
 10
1207.064881397396
 20
1485.0
 30
0.0000000000000071
  9
$LIMMIN
 10
0.0
 20
0.0
  9
$LIMMAX
 10
1050.0
 20
1485.0
  9
$ORTHOMODE
 70
     0
  9
$REGENMODE
 70
     1
  9
$FILLMODE
 70
     1
  9
$QTEXTMODE
 70
     0
  9
$MIRRTEXT
 70
     1
  9
$LTSCALE
 40
50.0
  9
$ATTMODE
 70
     1
  9
$TEXTSIZE
 40
2.5
  9
$TRACEWID
 40
1.0
  9
$TEXTSTYLE
  7
ＭＳ ゴシック
  9
$CLAYER
  8
MODEL
  9
$CELTYPE
  6
ByLayer
  9
$CECOLOR
 62
   256
  9
$CELTSCALE
 40
0.05
  9
$DISPSILH
 70
     0
  9
$DIMSCALE
 40
1.0
  9
$DIMASZ
 40
6.0
  9
$DIMEXO
 40
5.0
  9
$DIMDLI
 40
0.9999999999999999
  9
$DIMRND
 40
0.0
  9
$DIMDLE
 40
0.0
  9
$DIMEXE
 40
0.0
  9
$DIMTP
 40
0.0
  9
$DIMTM
 40
0.0
  9
$DIMTXT
 40
12.0
  9
$DIMCEN
 40
0.0
  9
$DIMTSZ
 40
0.0
  9
$DIMTOL
 70
     0
  9
$DIMLIM
 70
     0
  9
$DIMTIH
 70
     0
  9
$DIMTOH
 70
     0
  9
$DIMSE1
 70
     0
  9
$DIMSE2
 70
     0
  9
$DIMTAD
 70
     1
  9
$DIMZIN
 70
    11
  9
$DIMBLK
  1
DOT
  9
$DIMASO
 70
     1
  9
$DIMSHO
 70
     1
  9
$DIMPOST
  1
<>
  9
$DIMAPOST
  1
[]
  9
$DIMALT
 70
     0
  9
$DIMALTD
 70
     1
  9
$DIMALTF
 40
1.0
  9
$DIMLFAC
 40
1.0
  9
$DIMTOFL
 70
     0
  9
$DIMTVP
 40
0.0
  9
$DIMTIX
 70
     1
  9
$DIMSOXD
 70
     0
  9
$DIMSAH
 70
     0
  9
$DIMBLK1
  1

  9
$DIMBLK2
  1

  9
$DIMSTYLE
  2
tfrom線あり
  9
$DIMCLRD
 70
     0
  9
$DIMCLRE
 70
     0
  9
$DIMCLRT
 70
     0
  9
$DIMTFAC
 40
1.0
  9
$DIMGAP
 40
10.0
  9
$DIMJUST
 70
     0
  9
$DIMSD1
 70
     0
  9
$DIMSD2
 70
     0
  9
$DIMTOLJ
 70
     1
  9
$DIMTZIN
 70
    11
  9
$DIMALTZ
 70
    11
  9
$DIMALTTZ
 70
    11
  9
$DIMUPT
 70
     0
  9
$DIMDEC
 70
     0
  9
$DIMTDEC
 70
     1
  9
$DIMALTU
 70
     2
  9
$DIMALTTD
 70
     2
  9
$DIMTXSTY
  7
ＭＳ ゴシック
  9
$DIMAUNIT
 70
     0
  9
$DIMADEC
 70
     2
  9
$DIMALTRND
 40
0.0
  9
$DIMAZIN
 70
     0
  9
$DIMDSEP
 70
    46
  9
$DIMATFIT
 70
     0
  9
$DIMFRAC
 70
     2
  9
$DIMLDRBLK
  1
DOT
  9
$DIMLUNIT
 70
     2
  9
$DIMLWD
 70
    -2
  9
$DIMLWE
 70
    -2
  9
$DIMTMOVE
 70
     0
  9
$DIMFXL
 40
1.0
  9
$DIMFXLON
 70
     0
  9
$DIMJOGANG
 40
0.7853981633974483
  9
$DIMTFILL
 70
     0
  9
$DIMTFILLCLR
 70
     0
  9
$DIMARCSYM
 70
     0
  9
$DIMLTYPE
  6

  9
$DIMLTEX1
  6

  9
$DIMLTEX2
  6

  9
$LUNITS
 70
     2
  9
$LUPREC
 70
     0
  9
$SKETCHINC
 40
0.1
  9
$FILLETRAD
 40
0.0
  9
$AUNITS
 70
     0
  9
$AUPREC
 70
     0
  9
$MENU
  1
acad
  9
$ELEVATION
 40
0.0
  9
$PELEVATION
 40
0.0
  9
$THICKNESS
 40
0.0
  9
$LIMCHECK
 70
     0
  9
$CHAMFERA
 40
0.0
  9
$CHAMFERB
 40
0.0
  9
$CHAMFERC
 40
0.0
  9
$CHAMFERD
 40
0.0
  9
$SKPOLY
 70
     0
  9
$TDCREATE
 40
2447893.375
  9
$TDUCREATE
 40
0.0
  9
$TDUPDATE
 40
2457575.502320972
  9
$TDUUPDATE
 40
2457575.127320972
  9
$TDINDWG
 40
0.1274475
  9
$TDUSRTIMER
 40
2457575.126669664
  9
$USRTIMER
 70
     1
  9
$ANGBASE
 50
0.0
  9
$ANGDIR
 70
     0
  9
$PDMODE
 70
     1
  9
$PDSIZE
 40
-2.0
  9
$PLINEWID
 40
0.0
  9
$SPLFRAME
 70
     0
  9
$SPLINETYPE
 70
     6
  9
$SPLINESEGS
 70
     8
  9
$HANDSEED
  5
12B1
  9
$SURFTAB1
 70
     6
  9
$SURFTAB2
 70
     6
  9
$SURFTYPE
 70
     6
  9
$SURFU
 70
     6
  9
$SURFV
 70
     6
  9
$UCSBASE
  2

  9
$UCSNAME
  2

  9
$UCSORG
 10
0.0
 20
0.0
 30
0.0
  9
$UCSXDIR
 10
1.0
 20
0.0
 30
0.0
  9
$UCSYDIR
 10
0.0
 20
1.0
 30
0.0
  9
$UCSORTHOREF
  2

  9
$UCSORTHOVIEW
 70
     0
  9
$UCSORGTOP
 10
0.0
 20
0.0
 30
0.0
  9
$UCSORGBOTTOM
 10
0.0
 20
0.0
 30
0.0
  9
$UCSORGLEFT
 10
0.0
 20
0.0
 30
0.0
  9
$UCSORGRIGHT
 10
0.0
 20
0.0
 30
0.0
  9
$UCSORGFRONT
 10
0.0
 20
0.0
 30
0.0
  9
$UCSORGBACK
 10
0.0
 20
0.0
 30
0.0
  9
$PUCSBASE
  2

  9
$PUCSNAME
  2

  9
$PUCSORG
 10
0.0
 20
0.0
 30
0.0
  9
$PUCSXDIR
 10
1.0
 20
0.0
 30
0.0
  9
$PUCSYDIR
 10
0.0
 20
1.0
 30
0.0
  9
$PUCSORTHOREF
  2

  9
$PUCSORTHOVIEW
 70
     0
  9
$PUCSORGTOP
 10
0.0
 20
0.0
 30
0.0
  9
$PUCSORGBOTTOM
 10
0.0
 20
0.0
 30
0.0
  9
$PUCSORGLEFT
 10
0.0
 20
0.0
 30
0.0
  9
$PUCSORGRIGHT
 10
0.0
 20
0.0
 30
0.0
  9
$PUCSORGFRONT
 10
0.0
 20
0.0
 30
0.0
  9
$PUCSORGBACK
 10
0.0
 20
0.0
 30
0.0
  9
$USERI1
 70
     0
  9
$USERI2
 70
     0
  9
$USERI3
 70
     0
  9
$USERI4
 70
     0
  9
$USERI5
 70
     0
  9
$USERR1
 40
0.0
  9
$USERR2
 40
0.0
  9
$USERR3
 40
0.0
  9
$USERR4
 40
0.0
  9
$USERR5
 40
0.0
  9
$WORLDVIEW
 70
     1
  9
$SHADEDGE
 70
     3
  9
$SHADEDIF
 70
    70
  9
$TILEMODE
 70
     1
  9
$MAXACTVP
 70
    64
  9
$PINSBASE
 10
0.0
 20
0.0
 30
0.0
  9
$PLIMCHECK
 70
     0
  9
$PEXTMIN
 10
0.0
 20
0.0
 30
0.0
  9
$PEXTMAX
 10
0.0
 20
0.0
 30
0.0
  9
$PLIMMIN
 10
-7.5
 20
-20.0
  9
$PLIMMAX
 10
412.5
 20
277.0
  9
$UNITMODE
 70
     0
  9
$VISRETAIN
 70
     0
  9
$PLINEGEN
 70
     1
  9
$PSLTSCALE
 70
     0
  9
$TREEDEPTH
 70
  3020
  9
$CMLSTYLE
  2
Standard
  9
$CMLJUST
 70
     0
  9
$CMLSCALE
 40
1.0
  9
$PROXYGRAPHICS
 70
     0
  9
$MEASUREMENT
 70
     1
  9
$CELWEIGHT
370
    -1
  9
$ENDCAPS
280
     0
  9
$JOINSTYLE
280
     0
  9
$LWDISPLAY
290
     1
  9
$INSUNITS
 70
     4
  9
$HYPERLINKBASE
  1

  9
$STYLESHEET
  1

  9
$XEDIT
290
     1
  9
$CEPSNTYPE
380
     0
  9
$PSTYLEMODE
290
     1
  9
$FINGERPRINTGUID
  2

  9
$VERSIONGUID
  2

  9
$EXTNAMES
290
     1
  9
$PSVPSCALE
 40
0.0
  9
$OLESTARTUP
290
     0
  9
$SORTENTS
280
   127
  9
$INDEXCTL
280
     0
  9
$HIDETEXT
280
     1
  9
$XCLIPFRAME
290
     0
  9
$HALOGAP
280
     0
  9
$OBSCOLOR
 70
   257
  9
$OBSLTYPE
280
     0
  9
$INTERSECTIONDISPLAY
280
     0
  9
$INTERSECTIONCOLOR
 70
   257
  9
$DIMASSOC
280
     2
  9
$PROJECTNAME
  1

  9
$CAMERADISPLAY
290
     0
  9
$LENSLENGTH
 40
50.0
  9
$CAMERAHEIGHT
 40
0.0
  9
$STEPSPERSEC
 40
2.0
  9
$STEPSIZE
 40
6.0
  9
$3DDWFPREC
 40
2.0
  9
$PSOLWIDTH
 40
0.25
  9
$PSOLHEIGHT
 40
4.0
  9
$LOFTANG1
 40
1.570796326794897
  9
$LOFTANG2
 40
1.570796326794897
  9
$LOFTMAG1
 40
0.0
  9
$LOFTMAG2
 40
0.0
  9
$LOFTPARAM
 70
     7
  9
$LOFTNORMALS
280
     1
  9
$LATITUDE
 40
37.795
  9
$LONGITUDE
 40
-122.394
  9
$NORTHDIRECTION
 40
0.0
  9
$TIMEZONE
 70
 -8000
  9
$LIGHTGLYPHDISPLAY
280
     1
  9
$TILEMODELIGHTSYNCH
280
     1
  9
$SOLIDHIST
280
     1
  9
$SHOWHIST
280
     1
  9
$DWFFRAME
280
     2
  9
$DGNFRAME
280
     2
  9
$REALWORLDSCALE
290
     1
  9
$INTERFERECOLOR
 62
   256
  9
$CSHADOW
280
     0
  9
$SHADOWPLANELOCATION
 40
0.0
  0
ENDSEC
  0
SECTION
  2
CLASSES
  0
CLASS
  1
LWPOLYLINE
  2
AcDbPolyline
  3
ObjectDBX Classes
 90
        0
 91
        1
280
     0
281
     1
  0
CLASS
  1
IMAGE
  2
AcDbRasterImage
  3
ISM
 90
      127
 91
        5
280
     0
281
     1
  0
CLASS
  1
OLE2FRAME
  2
AcDbOle2Frame
  3
ObjectDBX Classes
 90
        0
 91
        1
280
     0
281
     1
  0
CLASS
  1
HATCH
  2
AcDbHatch
  3
ObjectDBX Classes
 90
        0
 91
        1
280
     0
281
     1
  0
CLASS
  1
DICTIONARYVAR
  2
AcDbDictionaryVar
  3
ObjectDBX Classes
 90
        0
 91
        4
280
     0
281
     0
  0
CLASS
  1
RASTERVARIABLES
  2
AcDbRasterVariables
  3
ISM
 90
        0
 91
        4
280
     0
281
     0
  0
CLASS
  1
IMAGEDEF
  2
AcDbRasterImageDef
  3
ISM
 90
        0
 91
        4
280
     0
281
     0
  0
CLASS
  1
IMAGEDEF_REACTOR
  2
AcDbRasterImageDefReactor
  3
ISM
 90
        1
 91
        4
280
     0
281
     0
  0
CLASS
  1
IDBUFFER
  2
AcDbIdBuffer
  3
ObjectDBX Classes
 90
        0
 91
        4
280
     0
281
     0
  0
CLASS
  1
SPATIAL_FILTER
  2
AcDbSpatialFilter
  3
ObjectDBX Classes
 90
        0
 91
        4
280
     0
281
     0
  0
CLASS
  1
XRECORD
  2
AcDbXrecord
  3
ObjectDBX Classes
 90
        0
 91
        1
280
     0
281
     0
  0
CLASS
  1
SORTENTSTABLE
  2
AcDbSortentsTable
  3
ObjectDBX Classes
 90
        0
 91
        4
280
     0
281
     0
  0
CLASS
  1
LAYER_INDEX
  2
AcDbLayerIndex
  3
ObjectDBX Classes
 90
        0
 91
        4
280
     0
281
     0
  0
CLASS
  1
SPATIAL_INDEX
  2
AcDbSpatialIndex
  3
AutoCAD 2000
 90
        0
 91
        4
280
     0
281
     0
  0
CLASS
  1
OBJECT_PTR
  2
CAseDLPNTableRecord
  3
ASE-LPNTableRecord
 90
        1
 91
        4
280
     0
281
     0
  0
CLASS
  1
LAYOUT
  2
AcDbLayout
  3
ObjectDBX Classes
 90
        0
 91
        1
280
     0
281
     0
  0
CLASS
  1
PLOTSETTINGS
  2
AcDbPlotSettings
  3
ObjectDBX Classes
 90
        0
 91
        4
280
     0
281
     0
  0
CLASS
  1
ACDBDICTIONARYWDFLT
  2
AcDbDictionaryWithDefault
  3
ObjectDBX Classes
 90
        0
 91
        4
280
     0
281
     0
  0
CLASS
  1
ACDBPLACEHOLDER
  2
AcDbPlaceHolder
  3
ObjectDBX Classes
 90
        0
 91
        1
280
     0
281
     0
  0
CLASS
  1
SCALE
  2
AcDbScale
  3
ObjectDBX Classes
 90
     1153
 91
        4
280
     0
281
     0
  0
CLASS
  1
MATERIAL
  2
AcDbMaterial
  3
ObjectDBX Classes
 90
     1153
 91
        4
280
     0
281
     0
  0
CLASS
  1
VISUALSTYLE
  2
AcDbVisualStyle
  3
ObjectDBX Classes
 90
     4095
 91
        4
280
     0
281
     0
  0
CLASS
  1
TABLESTYLE
  2
AcDbTableStyle
  3
ObjectDBX Classes
 90
     4095
 91
        4
280
     0
281
     0
  0
CLASS
  1
DIMASSOC
  2
AcDbDimAssoc
  3
"AcDbDimAssoc|Product Desc:     AcDim ARX App For Dimension|Company:          Autodesk, Inc.|WEB Address:      www.autodesk.com"
 90
        0
 91
        4
280
     0
281
     0
  0
CLASS
  1
CELLSTYLEMAP
  2
AcDbCellStyleMap
  3
ObjectDBX Classes
 90
     1152
 91
        4
280
     0
281
     0
  0
CLASS
  1
SUN
  2
AcDbSun
  3
SCENEOE
 90
     1153
 91
        4
280
     0
281
     0
  0
CLASS
  1
MLEADERSTYLE
  2
AcDbMLeaderStyle
  3
ACDB_MLEADERSTYLE_CLASS
 90
     4095
 91
        4
280
     0
281
     0
  0
ENDSEC
  0
SECTION
  2
TABLES
  0
TABLE
  2
VPORT
  5
7
330
0
100
AcDbSymbolTable
 70
     1
  0
VPORT
  5
15
330
7
100
AcDbSymbolTableRecord
100
AcDbViewportTableRecord
  2
*ACTIVE
 70
     0
 10
0.0
 20
0.0
 11
1.0
 21
1.0
 12
611.8289937596728
 22
763.3103829631119
 13
0.0
 23
0.0
 14
1.0
 24
1.0
 15
0.0
 25
0.0
 16
0.0
 26
0.0
 36
1.0
 17
-91.02013567090103
 27
73.59871453016603
 37
-46.86809886248109
 40
504.9638795751451
 41
2.426497277676951
 42
50.0
 43
0.0
 44
0.0
 50
0.0
 51
0.0
 71
    16
 72
  2000
 73
     1
 74
     1
 75
     0
 76
     0
 77
     0
 78
     0
281
     0
 65
     1
110
0.0
120
0.0
130
0.0
111
1.0
121
0.0
131
0.0
112
0.0
122
1.0
132
0.0
 79
     0
146
0.0
348
26C
 60
     3
 61
     5
292
     1
282
     1
141
0.0
142
0.0
 63
   256
361
904
  0
ENDTAB
  0
TABLE
  2
LTYPE
  5
4
330
0
100
AcDbSymbolTable
 70
     3
  0
LTYPE
  5
11
330
4
100
AcDbSymbolTableRecord
100
AcDbLinetypeTableRecord
  2
ByBlock
 70
     0
  3

 72
    65
 73
     0
 40
0.0
  0
LTYPE
  5
12
330
4
100
AcDbSymbolTableRecord
100
AcDbLinetypeTableRecord
  2
ByLayer
 70
     0
  3

 72
    65
 73
     0
 40
0.0
  0
LTYPE
  5
13
330
4
100
AcDbSymbolTableRecord
100
AcDbLinetypeTableRecord
  2
Continuous
 70
     0
  3
Solid line
 72
    65
 73
     0
 40
0.0
  0
LTYPE
  5
D6C
330
4
100
AcDbSymbolTableRecord
100
AcDbLinetypeTableRecord
  2
BORDER
 70
     0
  3
Border __  __  . __  __  . __  __  . __  __  . 
 72
    65
 73
     6
 40
44.45
 49
12.7
 74
     0
 49
-6.35
 74
     0
 49
12.7
 74
     0
 49
-6.35
 74
     0
 49
0.0
 74
     0
 49
-6.35
 74
     0
  0
LTYPE
  5
125B
330
4
100
AcDbSymbolTableRecord
100
AcDbLinetypeTableRecord
  2
CENTER
 70
     0
  3
 Center _____  _  _____  _  _____  _  _____  _ 
 72
    65
 73
     4
 40
50.8
 49
31.75
 74
     0
 49
-6.35
 74
     0
 49
6.35
 74
     0
 49
-6.35
 74
     0
  0
ENDTAB
  0
TABLE
  2
LAYER
  5
2
102
{ACAD_XDICTIONARY
360
2E1
102
}
330
0
100
AcDbSymbolTable
 70
     7
  0
LAYER
  5
14
330
2
100
AcDbSymbolTableRecord
100
AcDbLayerTableRecord
  2
0
 70
     0
 62
     7
  6
Continuous
370
    -3
390
1D
347
266
  0
LAYER
  5
4B
330
2
100
AcDbSymbolTableRecord
100
AcDbLayerTableRecord
  2
TEMPLATE
 70
     0
 62
     7
  6
Continuous
370
    20
390
1D
347
266
  0
LAYER
  5
4C
330
2
100
AcDbSymbolTableRecord
100
AcDbLayerTableRecord
  2
DIM
 70
     0
 62
     3
  6
Continuous
370
    13
390
1D
347
266
  0
LAYER
  5
4D
330
2
100
AcDbSymbolTableRecord
100
AcDbLayerTableRecord
  2
MODEL
 70
     0
 62
     7
  6
Continuous
370
    20
390
1D
347
266
  0
LAYER
  5
667
330
2
100
AcDbSymbolTableRecord
100
AcDbLayerTableRecord
  2
LOGO
 70
     0
 62
     7
  6
Continuous
370
    -3
390
1D
347
266
  0
LAYER
  5
D6B
330
2
100
AcDbSymbolTableRecord
100
AcDbLayerTableRecord
  2
BORDER
 70
     0
 62
     4
  6
BORDER
290
     0
370
    20
390
1D
347
266
1001
AcAecLayerStandard
1000

1000

  0
LAYER
  5
D8C
330
2
100
AcDbSymbolTableRecord
100
AcDbLayerTableRecord
  2
Defpoints
 70
     0
 62
     7
  6
Continuous
290
     0
370
    -3
390
1D
347
266
  0
ENDTAB
  0
TABLE
  2
STYLE
  5
3
330
0
100
AcDbSymbolTable
 70
     2
  0
STYLE
  5
17
330
3
100
AcDbSymbolTableRecord
100
AcDbTextStyleTableRecord
  2
Standard
 70
     0
 40
0.0
 41
1.0
 50
0.0
 71
     0
 42
2.5
  3
txt
  4
BIGFONT.SHX
  0
STYLE
  5
39
330
3
100
AcDbSymbolTableRecord
100
AcDbTextStyleTableRecord
  2
ＭＳ ゴシック
 70
     0
 40
0.0
 41
1.0
 50
0.0
 71
     0
 42
2.5
  3
msgothic.ttc
  4
ＭＳ ゴシック
1001
ACAD
1000
ＭＳ ゴシック
1071
        0
  0
ENDTAB
  0
TABLE
  2
VIEW
  5
5
330
0
100
AcDbSymbolTable
 70
     0
  0
ENDTAB
  0
TABLE
  2
UCS
  5
6
330
0
100
AcDbSymbolTable
 70
     0
  0
ENDTAB
  0
TABLE
  2
APPID
  5
8
330
0
100
AcDbSymbolTable
 70
     3
  0
APPID
  5
16
330
8
100
AcDbSymbolTableRecord
100
AcDbRegAppTableRecord
  2
ACAD
 70
     0
  0
APPID
  5
7AC
330
8
100
AcDbSymbolTableRecord
100
AcDbRegAppTableRecord
  2
AcAecLayerStandard
 70
     0
  0
APPID
  5
E29
330
8
100
AcDbSymbolTableRecord
100
AcDbRegAppTableRecord
  2
ACAD_MLEADERVER
 70
     0
  0
ENDTAB
  0
TABLE
  2
DIMSTYLE
  5
9
330
0
100
AcDbSymbolTable
 70
     2
100
AcDbDimStyleTable
  0
DIMSTYLE
105
18
330
9
100
AcDbSymbolTableRecord
100
AcDbDimStyleTableRecord
  2
Standard
 70
     0
178
     0
340
17
  0
DIMSTYLE
105
57
102
{ACAD_REACTORS
330
123C
330
124B
330
125C
330
1278
330
1292
102
}
330
9
100
AcDbSymbolTableRecord
100
AcDbDimStyleTableRecord
  2
tfrom線あり
 70
     0
  3
<>
  4
[]
 41
6.0
 42
5.0
 43
0.9999999999999999
 44
0.0
 73
     0
 74
     0
 77
     1
 78
    11
140
12.0
141
0.0
143
1.0
147
10.0
171
     1
174
     1
178
     0
179
     2
271
     0
272
     1
276
     2
284
    11
285
    11
286
    11
289
     0
340
39
341
4E
342
4E
  0
ENDTAB
  0
TABLE
  2
BLOCK_RECORD
  5
1
330
0
100
AcDbSymbolTable
 70
    11
  0
BLOCK_RECORD
  5
A
330
1
100
AcDbSymbolTableRecord
100
AcDbBlockTableRecord
  2
*MODEL_SPACE
340
20
 70
     0
280
     1
281
     0
  0
BLOCK_RECORD
  5
B
330
1
100
AcDbSymbolTableRecord
100
AcDbBlockTableRecord
  2
*PAPER_SPACE
340
21
 70
     0
280
     1
281
     0
  0
BLOCK_RECORD
  5
4E
330
1
100
AcDbSymbolTableRecord
100
AcDbBlockTableRecord
  2
_DOT
340
0
102
{BLKREFS
331
1245
331
1246
331
1254
331
1255
331
1265
331
1266
331
1282
331
1283
331
1299
331
129A
102
}
 70
     0
280
     1
281
     0
  0
BLOCK_RECORD
  5
68A
330
1
100
AcDbSymbolTableRecord
100
AcDbBlockTableRecord
  2
名称未設定-1
340
0
102
{BLKREFS
331
6B5
102
}
 70
     1
280
     1
281
     0
  0
BLOCK_RECORD
  5
68D
330
1
100
AcDbSymbolTableRecord
100
AcDbBlockTableRecord
  2
block 2
340
0
102
{BLKREFS
331
68C
102
}
 70
     0
280
     1
281
     0
  0
BLOCK_RECORD
  5
690
330
1
100
AcDbSymbolTableRecord
100
AcDbBlockTableRecord
  2
block 3
340
0
102
{BLKREFS
331
68F
102
}
 70
     0
280
     1
281
     0
  0
BLOCK_RECORD
  5
693
330
1
100
AcDbSymbolTableRecord
100
AcDbBlockTableRecord
  2
block 4
340
0
102
{BLKREFS
331
692
102
}
 70
     0
280
     1
281
     0
  0
BLOCK_RECORD
  5
6A2
330
1
100
AcDbSymbolTableRecord
100
AcDbBlockTableRecord
  2
block 5
340
0
102
{BLKREFS
331
6A1
102
}
 70
     0
280
     1
281
     0
  0
BLOCK_RECORD
  5
123F
330
1
100
AcDbSymbolTableRecord
100
AcDbBlockTableRecord
  2
*D6
340
0
 70
     0
280
     1
281
     0
  0
BLOCK_RECORD
  5
124E
330
1
100
AcDbSymbolTableRecord
100
AcDbBlockTableRecord
  2
*D7
340
0
 70
     0
280
     1
281
     0
  0
BLOCK_RECORD
  5
125F
330
1
100
AcDbSymbolTableRecord
100
AcDbBlockTableRecord
  2
*D8
340
0
 70
     0
280
     1
281
     0
  0
BLOCK_RECORD
  5
127B
330
1
100
AcDbSymbolTableRecord
100
AcDbBlockTableRecord
  2
*D9
340
0
 70
     0
280
     1
281
     0
  0
BLOCK_RECORD
  5
1295
330
1
100
AcDbSymbolTableRecord
100
AcDbBlockTableRecord
  2
*D10
340
0
 70
     0
280
     1
281
     0
  0
ENDTAB
  0
ENDSEC
  0
SECTION
  2
BLOCKS
  0
BLOCK
  5
D
330
A
100
AcDbEntity
  8
0
390
1D
100
AcDbBlockBegin
  2
*MODEL_SPACE
 70
     0
 10
0.0
 20
0.0
 30
0.0
  3
*MODEL_SPACE
  1
*MODEL_SPACE
  0
ENDBLK
  5
E
330
A
100
AcDbEntity
  8
0
390
1D
100
AcDbBlockEnd
  0
BLOCK
  5
F
330
B
100
AcDbEntity
 67
     1
  8
0
390
1D
100
AcDbBlockBegin
  2
*PAPER_SPACE
 70
     0
 10
0.0
 20
0.0
 30
0.0
  3
*PAPER_SPACE
  1
*PAPER_SPACE
  0
ENDBLK
  5
10
330
B
100
AcDbEntity
 67
     1
  8
0
390
1D
100
AcDbBlockEnd
  0
BLOCK
  5
D4A
330
4E
100
AcDbEntity
  8
0
390
1D
100
AcDbBlockBegin
  2
_DOT
 70
     0
 10
0.0
 20
0.0
 30
0.0
  3
_DOT
  1
_DOT
  0
POLYLINE
  5
D4C
330
4E
100
AcDbEntity
  8
0
  6
ByBlock
 62
     0
370
    -2
390
1D
100
AcDb2dPolyline
 66
     1
 10
0.0
 20
0.0
 30
0.0
 70
     1
 40
0.5
 41
0.5
  0
VERTEX
  5
D4D
330
D4C
100
AcDbEntity
  8
0
  6
ByBlock
 62
     0
370
    -2
390
1D
100
AcDbVertex
100
AcDb2dVertex
 10
-0.25
 20
0.0
 30
0.0
 42
1.0
  0
VERTEX
  5
D4E
330
D4C
100
AcDbEntity
  8
0
  6
ByBlock
 62
     0
370
    -2
390
1D
100
AcDbVertex
100
AcDb2dVertex
 10
0.25
 20
0.0
 30
0.0
 42
1.0
  0
SEQEND
  5
D4F
330
D4C
100
AcDbEntity
  8
0
390
1D
  0
LINE
  5
D50
330
4E
100
AcDbEntity
  8
0
  6
ByBlock
 62
     0
370
    -2
390
1D
100
AcDbLine
 10
-0.5
 20
0.0
 30
0.0
 11
-1.0
 21
0.0
 31
0.0
  0
ENDBLK
  5
D51
330
4E
100
AcDbEntity
  8
0
390
1D
100
AcDbBlockEnd
  0
BLOCK
  5
68B
330
68A
100
AcDbEntity
  8
0
100
AcDbBlockBegin
  2
名称未設定-1
 70
     0
 10
0.0
 20
0.0
 30
0.0
  3
名称未設定-1
  1
名称未設定-1
  0
INSERT
  5
68F
330
68A
100
AcDbEntity
  8
LOGO
100
AcDbBlockReference
  2
block 3
 10
0.0
 20
0.0
 30
0.0
  0
ENDBLK
  5
6B1
330
68A
100
AcDbEntity
  8
0
100
AcDbBlockEnd
  0
BLOCK
  5
68E
330
68D
100
AcDbEntity
  8
0
100
AcDbBlockBegin
  2
block 2
 70
     0
 10
0.0
 20
0.0
 30
0.0
  3
block 2
  1
block 2
  0
ENDBLK
  5
6B0
330
68D
100
AcDbEntity
  8
0
100
AcDbBlockEnd
  0
BLOCK
  5
691
330
690
100
AcDbEntity
  8
0
100
AcDbBlockBegin
  2
block 3
 70
     0
 10
0.0
 20
0.0
 30
0.0
  3
block 3
  1
block 3
  0
INSERT
  5
692
330
690
100
AcDbEntity
  8
LOGO
100
AcDbBlockReference
  2
block 4
 10
0.0
 20
0.0
 30
0.0
  0
INSERT
  5
6A1
330
690
100
AcDbEntity
  8
LOGO
100
AcDbBlockReference
  2
block 5
 10
0.0
 20
0.0
 30
0.0
  0
ENDBLK
  5
6AF
330
690
100
AcDbEntity
  8
0
100
AcDbBlockEnd
  0
BLOCK
  5
694
330
693
100
AcDbEntity
  8
0
100
AcDbBlockBegin
  2
block 4
 70
     0
 10
0.0
 20
0.0
 30
0.0
  3
block 4
  1
block 4
  0
POLYLINE
  5
695
330
693
100
AcDbEntity
  8
LOGO
370
     0
100
AcDb2dPolyline
 66
     1
 10
0.0
 20
0.0
 30
0.0
  0
VERTEX
  5
696
330
695
100
AcDbEntity
  8
LOGO
370
     0
100
AcDbVertex
100
AcDb2dVertex
 10
83.79545727667795
 20
167.6444858234922
 30
0.0
  0
VERTEX
  5
697
330
695
100
AcDbEntity
  8
LOGO
370
     0
100
AcDbVertex
100
AcDb2dVertex
 10
83.79545727667795
 20
159.7968976406313
 30
0.0
  0
VERTEX
  5
698
330
695
100
AcDbEntity
  8
LOGO
370
     0
100
AcDbVertex
100
AcDb2dVertex
 10
71.3631329975216
 20
159.7968976406313
 30
0.0
  0
VERTEX
  5
699
330
695
100
AcDbEntity
  8
LOGO
370
     0
100
AcDbVertex
100
AcDb2dVertex
 10
71.3631329975216
 20
127.8027915271048
 30
0.0
  0
VERTEX
  5
69A
330
695
100
AcDbEntity
  8
LOGO
370
     0
100
AcDbVertex
100
AcDb2dVertex
 10
60.43011526263018
 20
127.8027915271048
 30
0.0
  0
VERTEX
  5
69B
330
695
100
AcDbEntity
  8
LOGO
370
     0
100
AcDbVertex
100
AcDb2dVertex
 10
60.43011526263018
 20
159.7968976406313
 30
0.0
  0
VERTEX
  5
69C
330
695
100
AcDbEntity
  8
LOGO
370
     0
100
AcDbVertex
100
AcDb2dVertex
 10
48.21793273020759
 20
159.7968976406313
 30
0.0
  0
VERTEX
  5
69D
330
695
100
AcDbEntity
  8
LOGO
370
     0
100
AcDbVertex
100
AcDb2dVertex
 10
48.21793273020759
 20
167.6444858234922
 30
0.0
  0
VERTEX
  5
69E
330
695
100
AcDbEntity
  8
LOGO
370
     0
100
AcDbVertex
100
AcDb2dVertex
 10
83.79545727667795
 20
167.6444858234922
 30
0.0
  0
SEQEND
  5
69F
330
695
100
AcDbEntity
  8
LOGO
370
     0
  0
HATCH
  5
6A0
330
693
100
AcDbEntity
  8
LOGO
 62
   250
420
  2234388
100
AcDbHatch
 10
0.0
 20
0.0
 30
0.0
210
0.0
220
0.0
230
1.0
  2
SOLID
 70
     1
 71
     0
 91
        1
 92
        1
 93
        8
 72
     1
 10
83.79545727667795
 20
167.6444858234922
 11
83.79545727667795
 21
159.7968976406313
 72
     1
 10
83.79545727667795
 20
159.7968976406313
 11
71.3631329975216
 21
159.7968976406313
 72
     1
 10
71.3631329975216
 20
159.7968976406313
 11
71.3631329975216
 21
127.8027915271048
 72
     1
 10
71.3631329975216
 20
127.8027915271048
 11
60.43011526263018
 21
127.8027915271048
 72
     1
 10
60.43011526263018
 20
127.8027915271048
 11
60.43011526263018
 21
159.7968976406313
 72
     1
 10
60.43011526263018
 20
159.7968976406313
 11
48.21793273020759
 21
159.7968976406313
 72
     1
 10
48.21793273020759
 20
159.7968976406313
 11
48.21793273020759
 21
167.6444858234922
 72
     1
 10
48.21793273020759
 20
167.6444858234922
 11
83.79545727667795
 21
167.6444858234922
 97
        0
 75
     2
 76
     1
 98
        0
  0
ENDBLK
  5
6AE
330
693
100
AcDbEntity
  8
0
100
AcDbBlockEnd
  0
BLOCK
  5
6A3
330
6A2
100
AcDbEntity
  8
0
100
AcDbBlockBegin
  2
block 5
 70
     0
 10
0.0
 20
0.0
 30
0.0
  3
block 5
  1
block 5
  0
SPLINE
  5
6A4
330
6A2
100
AcDbEntity
  8
LOGO
370
     0
100
AcDbSpline
210
0.0
220
0.0
230
1.0
 70
    11
 71
     3
 72
    56
 73
    52
 74
     0
 42
0.000000001
 43
0.0000000001
 40
0.0
 40
0.0
 40
0.0
 40
0.0
 40
1.0
 40
1.0
 40
1.0
 40
2.0
 40
2.0
 40
2.0
 40
3.0
 40
3.0
 40
3.0
 40
4.0
 40
4.0
 40
4.0
 40
5.0
 40
5.0
 40
5.0
 40
6.0
 40
6.0
 40
6.0
 40
7.0
 40
7.0
 40
7.0
 40
8.0
 40
8.0
 40
8.0
 40
9.0
 40
9.0
 40
9.0
 40
10.0
 40
10.0
 40
10.0
 40
11.0
 40
11.0
 40
11.0
 40
12.0
 40
12.0
 40
12.0
 40
13.0
 40
13.0
 40
13.0
 40
14.0
 40
14.0
 40
14.0
 40
15.0
 40
15.0
 40
15.0
 40
16.0
 40
16.0
 40
16.0
 40
17.0
 40
17.0
 40
17.0
 40
17.0
 10
100.4504378777679
 20
166.69157178364
 30
0.0
 10
101.9848844191641
 20
167.1313385124438
 30
0.0
 10
103.9637485713373
 20
166.7649523658846
 30
0.0
 10
103.9637485713373
 20
166.7649523658846
 30
0.0
 10
103.9637485713373
 20
166.7649523658846
 30
0.0
 10
103.0132460999156
 20
163.911205638077
 30
0.0
 10
103.0132460999156
 20
163.911205638077
 30
0.0
 10
103.0132460999156
 20
163.911205638077
 30
0.0
 10
101.0674548862189
 20
164.3601018759394
 30
0.0
 10
99.57090442016032
 20
163.1805004036133
 30
0.0
 10
98.40508333886608
 20
162.258247733807
 30
0.0
 10
97.65301849830304
 20
159.804132345923
 30
0.0
 10
97.3598406791005
 20
158.8699940888517
 30
0.0
 10
97.3598406791005
 20
158.8699940888517
 30
0.0
 10
96.07137411762282
 20
154.9119212747295
 30
0.0
 10
96.07137411762282
 20
154.9119212747295
 30
0.0
 10
96.07137411762282
 20
154.9119212747295
 30
0.0
 10
100.3012651448482
 20
154.9119212747295
 30
0.0
 10
100.3012651448482
 20
154.9119212747295
 30
0.0
 10
100.3012651448482
 20
154.9119212747295
 30
0.0
 10
99.64152892419852
 20
152.4199098115079
 30
0.0
 10
99.64152892419852
 20
152.4199098115079
 30
0.0
 10
99.64152892419852
 20
152.4199098115079
 30
0.0
 10
95.38097652692731
 20
152.4199098115079
 30
0.0
 10
95.38097652692731
 20
152.4199098115079
 30
0.0
 10
95.38097652692731
 20
152.4199098115079
 30
0.0
 10
87.75353009080013
 20
127.8027915271048
 30
0.0
 10
87.75353009080013
 20
127.8027915271048
 30
0.0
 10
87.75353009080013
 20
127.8027915271048
 30
0.0
 10
85.36538832498108
 20
127.8027915271048
 30
0.0
 10
85.36538832498108
 20
127.8027915271048
 30
0.0
 10
85.36538832498108
 20
127.8027915271048
 30
0.0
 10
93.00006946639998
 20
152.4199098115079
 30
0.0
 10
93.00006946639998
 20
152.4199098115079
 30
0.0
 10
93.00006946639998
 20
152.4199098115079
 30
0.0
 10
89.85297266450198
 20
152.4199098115079
 30
0.0
 10
89.85297266450198
 20
152.4199098115079
 30
0.0
 10
89.85297266450198
 20
152.4199098115079
 30
0.0
 10
90.51270888515164
 20
154.9119212747295
 30
0.0
 10
90.51270888515164
 20
154.9119212747295
 30
0.0
 10
90.51270888515164
 20
154.9119212747295
 30
0.0
 10
93.6904670570955
 20
154.9119212747295
 30
0.0
 10
93.6904670570955
 20
154.9119212747295
 30
0.0
 10
93.6904670570955
 20
154.9119212747295
 30
0.0
 10
94.81598049462158
 20
158.3616699146644
 30
0.0
 10
94.81598049462158
 20
158.3616699146644
 30
0.0
 10
95.7237637538445
 20
161.2605474231013
 30
0.0
 10
96.4968436907311
 20
162.8139420021662
 30
0.0
 10
97.15657991138076
 20
163.9844139654337
 30
0.0
 10
97.81183750494507
 20
165.1523021053827
 30
0.0
 10
99.1047826935081
 20
166.3084769129547
 30
0.0
 10
100.4504378777679
 20
166.69157178364
 30
0.0
  0
HATCH
  5
6A5
330
6A2
100
AcDbEntity
  8
LOGO
 62
   250
420
  2234388
100
AcDbHatch
 10
0.0
 20
0.0
 30
0.0
210
0.0
220
0.0
230
1.0
  2
SOLID
 70
     1
 71
     0
 91
        1
 92
        1
 93
        1
 72
     4
 94
        3
 73
     0
 74
     1
 95
       56
 96
       52
 40
0.0
 40
0.0
 40
0.0
 40
0.0
 40
1.0
 40
1.0
 40
1.0
 40
2.0
 40
2.0
 40
2.0
 40
3.0
 40
3.0
 40
3.0
 40
4.0
 40
4.0
 40
4.0
 40
5.0
 40
5.0
 40
5.0
 40
6.0
 40
6.0
 40
6.0
 40
7.0
 40
7.0
 40
7.0
 40
8.0
 40
8.0
 40
8.0
 40
9.0
 40
9.0
 40
9.0
 40
10.0
 40
10.0
 40
10.0
 40
11.0
 40
11.0
 40
11.0
 40
12.0
 40
12.0
 40
12.0
 40
13.0
 40
13.0
 40
13.0
 40
14.0
 40
14.0
 40
14.0
 40
15.0
 40
15.0
 40
15.0
 40
16.0
 40
16.0
 40
16.0
 40
17.0
 40
17.0
 40
17.0
 40
17.0
 10
100.4504378777679
 20
166.69157178364
 10
101.9848844191641
 20
167.1313385124438
 10
103.9637485713373
 20
166.7649523658846
 10
103.9637485713373
 20
166.7649523658846
 10
103.9637485713373
 20
166.7649523658846
 10
103.0132460999156
 20
163.911205638077
 10
103.0132460999156
 20
163.911205638077
 10
103.0132460999156
 20
163.911205638077
 10
101.0674548862189
 20
164.3601018759394
 10
99.57090442016032
 20
163.1805004036133
 10
98.40508333886608
 20
162.258247733807
 10
97.65301849830304
 20
159.804132345923
 10
97.3598406791005
 20
158.8699940888517
 10
97.3598406791005
 20
158.8699940888517
 10
96.07137411762282
 20
154.9119212747295
 10
96.07137411762282
 20
154.9119212747295
 10
96.07137411762282
 20
154.9119212747295
 10
100.3012651448482
 20
154.9119212747295
 10
100.3012651448482
 20
154.9119212747295
 10
100.3012651448482
 20
154.9119212747295
 10
99.64152892419852
 20
152.4199098115079
 10
99.64152892419852
 20
152.4199098115079
 10
99.64152892419852
 20
152.4199098115079
 10
95.38097652692731
 20
152.4199098115079
 10
95.38097652692731
 20
152.4199098115079
 10
95.38097652692731
 20
152.4199098115079
 10
87.75353009080013
 20
127.8027915271048
 10
87.75353009080013
 20
127.8027915271048
 10
87.75353009080013
 20
127.8027915271048
 10
85.36538832498108
 20
127.8027915271048
 10
85.36538832498108
 20
127.8027915271048
 10
85.36538832498108
 20
127.8027915271048
 10
93.00006946639998
 20
152.4199098115079
 10
93.00006946639998
 20
152.4199098115079
 10
93.00006946639998
 20
152.4199098115079
 10
89.85297266450198
 20
152.4199098115079
 10
89.85297266450198
 20
152.4199098115079
 10
89.85297266450198
 20
152.4199098115079
 10
90.51270888515164
 20
154.9119212747295
 10
90.51270888515164
 20
154.9119212747295
 10
90.51270888515164
 20
154.9119212747295
 10
93.6904670570955
 20
154.9119212747295
 10
93.6904670570955
 20
154.9119212747295
 10
93.6904670570955
 20
154.9119212747295
 10
94.81598049462158
 20
158.3616699146644
 10
94.81598049462158
 20
158.3616699146644
 10
95.7237637538445
 20
161.2605474231013
 10
96.4968436907311
 20
162.8139420021662
 10
97.15657991138076
 20
163.9844139654337
 10
97.81183750494507
 20
165.1523021053827
 10
99.1047826935081
 20
166.3084769129547
 10
100.4504378777679
 20
166.69157178364
 97
        0
 75
     2
 76
     1
 98
        0
  0
SPLINE
  5
6A6
330
6A2
100
AcDbEntity
  8
LOGO
370
     0
100
AcDbSpline
210
0.0
220
0.0
230
1.0
 70
    11
 71
     3
 72
    38
 73
    34
 74
     0
 42
0.000000001
 43
0.0000000001
 40
0.0
 40
0.0
 40
0.0
 40
0.0
 40
1.0
 40
1.0
 40
1.0
 40
2.0
 40
2.0
 40
2.0
 40
3.0
 40
3.0
 40
3.0
 40
4.0
 40
4.0
 40
4.0
 40
5.0
 40
5.0
 40
5.0
 40
6.0
 40
6.0
 40
6.0
 40
7.0
 40
7.0
 40
7.0
 40
8.0
 40
8.0
 40
8.0
 40
9.0
 40
9.0
 40
9.0
 40
10.0
 40
10.0
 40
10.0
 40
11.0
 40
11.0
 40
11.0
 40
11.0
 10
126.377554584636
 20
154.8151140277308
 30
0.0
 10
126.377554584636
 20
154.8151140277308
 30
0.0
 10
128.8311532078563
 20
154.8151140277308
 30
0.0
 10
128.8311532078563
 20
154.8151140277308
 30
0.0
 10
128.8311532078563
 20
154.8151140277308
 30
0.0
 10
127.7345785914971
 20
151.3062819612468
 30
0.0
 10
127.7345785914971
 20
151.3062819612468
 30
0.0
 10
128.571392836906
 20
152.2922689395754
 30
0.0
 10
129.8860421413442
 20
153.604506675583
 30
0.0
 10
131.0163787157314
 20
154.2664822097754
 30
0.0
 10
132.7044766171327
 20
155.2500576196734
 30
0.0
 10
133.6642808525008
 20
155.3847609420097
 30
0.0
 10
134.7284715499351
 20
155.3565111403944
 30
0.0
 10
134.7284715499351
 20
155.3565111403944
 30
0.0
 10
133.6877075172549
 20
152.0345756272799
 30
0.0
 10
133.6877075172549
 20
152.0345756272799
 30
0.0
 10
133.011434827367
 20
152.3184516825359
 30
0.0
 10
130.930940291334
 20
151.7768823149844
 30
0.0
 10
129.739280976855
 20
150.9162968950455
 30
0.0
 10
128.66613302525
 20
150.1454562717016
 30
0.0
 10
127.9192358313239
 20
149.4857200510519
 30
0.0
 10
127.0393578639405
 20
147.8282835196966
 30
0.0
 10
126.164647543194
 20
146.1699857139017
 30
0.0
 10
125.4742499524985
 20
143.5262176944419
 30
0.0
 10
124.2822461282437
 20
139.6959580071401
 30
0.0
 10
124.2822461282437
 20
139.6959580071401
 30
0.0
 10
120.5753209406769
 20
127.8027915271048
 30
0.0
 10
120.5753209406769
 20
127.8027915271048
 30
0.0
 10
120.5753209406769
 20
127.8027915271048
 30
0.0
 10
118.1964809388044
 20
127.8027915271048
 30
0.0
 10
118.1964809388044
 20
127.8027915271048
 30
0.0
 10
118.1964809388044
 20
127.8027915271048
 30
0.0
 10
126.377554584636
 20
154.8151140277308
 30
0.0
 10
126.377554584636
 20
154.8151140277308
 30
0.0
  0
HATCH
  5
6A7
330
6A2
100
AcDbEntity
  8
LOGO
 62
   250
420
  2234388
100
AcDbHatch
 10
0.0
 20
0.0
 30
0.0
210
0.0
220
0.0
230
1.0
  2
SOLID
 70
     1
 71
     0
 91
        1
 92
        1
 93
        1
 72
     4
 94
        3
 73
     0
 74
     1
 95
       38
 96
       34
 40
0.0
 40
0.0
 40
0.0
 40
0.0
 40
1.0
 40
1.0
 40
1.0
 40
2.0
 40
2.0
 40
2.0
 40
3.0
 40
3.0
 40
3.0
 40
4.0
 40
4.0
 40
4.0
 40
5.0
 40
5.0
 40
5.0
 40
6.0
 40
6.0
 40
6.0
 40
7.0
 40
7.0
 40
7.0
 40
8.0
 40
8.0
 40
8.0
 40
9.0
 40
9.0
 40
9.0
 40
10.0
 40
10.0
 40
10.0
 40
11.0
 40
11.0
 40
11.0
 40
11.0
 10
126.377554584636
 20
154.8151140277308
 10
126.377554584636
 20
154.8151140277308
 10
128.8311532078563
 20
154.8151140277308
 10
128.8311532078563
 20
154.8151140277308
 10
128.8311532078563
 20
154.8151140277308
 10
127.7345785914971
 20
151.3062819612468
 10
127.7345785914971
 20
151.3062819612468
 10
128.571392836906
 20
152.2922689395754
 10
129.8860421413442
 20
153.604506675583
 10
131.0163787157314
 20
154.2664822097754
 10
132.7044766171327
 20
155.2500576196734
 10
133.6642808525008
 20
155.3847609420097
 10
134.7284715499351
 20
155.3565111403944
 10
134.7284715499351
 20
155.3565111403944
 10
133.6877075172549
 20
152.0345756272799
 10
133.6877075172549
 20
152.0345756272799
 10
133.011434827367
 20
152.3184516825359
 10
130.930940291334
 20
151.7768823149844
 10
129.739280976855
 20
150.9162968950455
 10
128.66613302525
 20
150.1454562717016
 10
127.9192358313239
 20
149.4857200510519
 10
127.0393578639405
 20
147.8282835196966
 10
126.164647543194
 20
146.1699857139017
 10
125.4742499524985
 20
143.5262176944419
 10
124.2822461282437
 20
139.6959580071401
 10
124.2822461282437
 20
139.6959580071401
 10
120.5753209406769
 20
127.8027915271048
 10
120.5753209406769
 20
127.8027915271048
 10
120.5753209406769
 20
127.8027915271048
 10
118.1964809388044
 20
127.8027915271048
 10
118.1964809388044
 20
127.8027915271048
 10
118.1964809388044
 20
127.8027915271048
 10
126.377554584636
 20
154.8151140277308
 10
126.377554584636
 20
154.8151140277308
 97
        0
 75
     2
 76
     1
 98
        0
  0
SPLINE
  5
6A8
330
6A2
100
AcDbEntity
  8
LOGO
370
     0
100
AcDbSpline
210
0.0
220
0.0
230
1.0
 70
    11
 71
     3
 72
   104
 73
   100
 74
     0
 42
0.000000001
 43
0.0000000001
 40
0.0
 40
0.0
 40
0.0
 40
0.0
 40
1.0
 40
1.0
 40
1.0
 40
2.0
 40
2.0
 40
2.0
 40
3.0
 40
3.0
 40
3.0
 40
4.0
 40
4.0
 40
4.0
 40
5.0
 40
5.0
 40
5.0
 40
6.0
 40
6.0
 40
6.0
 40
7.0
 40
7.0
 40
7.0
 40
8.0
 40
8.0
 40
8.0
 40
9.0
 40
9.0
 40
9.0
 40
10.0
 40
10.0
 40
10.0
 40
11.0
 40
11.0
 40
11.0
 40
12.0
 40
12.0
 40
12.0
 40
13.0
 40
13.0
 40
13.0
 40
14.0
 40
14.0
 40
14.0
 40
15.0
 40
15.0
 40
15.0
 40
16.0
 40
16.0
 40
16.0
 40
17.0
 40
17.0
 40
17.0
 40
18.0
 40
18.0
 40
18.0
 40
19.0
 40
19.0
 40
19.0
 40
20.0
 40
20.0
 40
20.0
 40
21.0
 40
21.0
 40
21.0
 40
22.0
 40
22.0
 40
22.0
 40
23.0
 40
23.0
 40
23.0
 40
24.0
 40
24.0
 40
24.0
 40
25.0
 40
25.0
 40
25.0
 40
26.0
 40
26.0
 40
26.0
 40
27.0
 40
27.0
 40
27.0
 40
28.0
 40
28.0
 40
28.0
 40
29.0
 40
29.0
 40
29.0
 40
30.0
 40
30.0
 40
30.0
 40
31.0
 40
31.0
 40
31.0
 40
32.0
 40
32.0
 40
32.0
 40
33.0
 40
33.0
 40
33.0
 40
33.0
 10
139.8926730891197
 20
154.8294111834263
 30
0.0
 10
139.8926730891197
 20
154.8294111834263
 30
0.0
 10
142.0344903652445
 20
154.8294111834263
 30
0.0
 10
142.0344903652445
 20
154.8294111834263
 30
0.0
 10
142.0344903652445
 20
154.8294111834263
 30
0.0
 10
140.9516961399171
 20
151.3157559800812
 30
0.0
 10
140.9516961399171
 20
151.3157559800812
 30
0.0
 10
141.8928968473923
 20
152.7887075264977
 30
0.0
 10
142.7341897198865
 20
153.4484437471474
 30
0.0
 10
143.8552245303272
 20
154.2926649527359
 30
0.0
 10
144.9803934580775
 20
155.1296514530327
 30
0.0
 10
146.3139908001845
 20
155.3044901642492
 30
0.0
 10
147.241066606852
 20
155.3044901642492
 30
0.0
 10
148.3855280820469
 20
155.3044901642492
 30
0.0
 10
149.4969166187653
 20
155.0752189084569
 30
0.0
 10
150.0784491203092
 20
153.8172414621372
 30
0.0
 10
150.5228667310863
 20
152.833838307127
 30
0.0
 10
150.5414702589793
 20
152.7201500811143
 30
0.0
 10
150.4140016419347
 20
150.7765981809602
 30
0.0
 10
151.5818897818837
 20
152.7699317437168
 30
0.0
 10
152.4424752018226
 20
153.6256940267945
 30
0.0
 10
153.9038856707499
 20
154.4507949398263
 30
0.0
 10
155.4455669174378
 20
155.3044901642492
 30
0.0
 10
156.339225275853
 20
155.3659851592288
 30
0.0
 10
157.3748216618963
 20
155.2147453676543
 30
0.0
 10
158.911679771723
 20
154.9877134254046
 30
0.0
 10
159.8859534176746
 20
154.4390816074493
 30
0.0
 10
160.3965169054045
 20
152.7816450760939
 30
0.0
 10
160.9070803931344
 20
151.1219692311958
 30
0.0
 10
160.6328506116007
 20
150.2303779314354
 30
0.0
 10
159.9992971339115
 20
147.597634224801
 30
0.0
 10
159.7105979417943
 20
146.4014962832367
 30
0.0
 10
159.2947746424084
 20
144.9400858143094
 30
0.0
 10
158.7463150793409
 20
143.2092687007094
 30
0.0
 10
158.7463150793409
 20
143.2092687007094
 30
0.0
 10
153.9038856707499
 20
127.8027915271048
 30
0.0
 10
153.9038856707499
 20
127.8027915271048
 30
0.0
 10
153.9038856707499
 20
127.8027915271048
 30
0.0
 10
151.3882752878863
 20
127.8027915271048
 30
0.0
 10
151.3882752878863
 20
127.8027915271048
 30
0.0
 10
151.3882752878863
 20
127.8027915271048
 30
0.0
 10
155.6250565106276
 20
141.2751908193897
 30
0.0
 10
155.6250565106276
 20
141.2751908193897
 30
0.0
 10
156.5094131050963
 20
144.0936252951782
 30
0.0
 10
157.109893644309
 20
146.1506931664571
 30
0.0
 10
157.4220195011804
 20
147.4415712963654
 30
0.0
 10
157.8095929989511
 20
149.0530157726519
 30
0.0
 10
157.9656559273867
 20
149.5826995529385
 30
0.0
 10
157.7816877071116
 20
150.7529992613181
 30
0.0
 10
157.6111553680925
 20
151.8430281919372
 30
0.0
 10
157.0582171779396
 20
152.5547853887321
 30
0.0
 10
156.1170164704645
 20
152.5547853887321
 30
0.0
 10
155.1096698860365
 20
152.5547853887321
 30
0.0
 10
154.2962823053817
 20
152.4412694176073
 30
0.0
 10
153.156643967048
 20
151.2945686288697
 30
0.0
 10
152.0170056287143
 20
150.1476955852443
 30
0.0
 10
151.076149431015
 20
148.7930831468137
 30
0.0
 10
150.3337308641742
 20
147.2290087646991
 30
0.0
 10
149.5957909244188
 20
145.6683794803425
 30
0.0
 10
148.8530278478023
 20
143.6822806228776
 30
0.0
 10
148.0964843801539
 20
141.2751908193897
 30
0.0
 10
148.0964843801539
 20
141.2751908193897
 30
0.0
 10
143.8552245303272
 20
127.8027915271048
 30
0.0
 10
143.8552245303272
 20
127.8027915271048
 30
0.0
 10
143.8552245303272
 20
127.8027915271048
 30
0.0
 10
141.486030802177
 20
127.8027915271048
 30
0.0
 10
141.486030802177
 20
127.8027915271048
 30
0.0
 10
141.486030802177
 20
127.8027915271048
 30
0.0
 10
146.3329388378533
 20
143.2092687007094
 30
0.0
 10
146.3329388378533
 20
143.2092687007094
 30
0.0
 10
146.8483254624444
 20
144.8408669988801
 30
0.0
 10
147.2314203331297
 20
146.1837661049335
 30
0.0
 10
147.4867020769946
 20
147.224185627838
 30
0.0
 10
147.9169947869641
 20
149.0197705792876
 30
0.0
 10
148.0306830129768
 20
150.2400242051577
 30
0.0
 10
147.709255392159
 20
151.3157559800812
 30
0.0
 10
147.3874832615654
 20
152.3916600098926
 30
0.0
 10
146.8245542879144
 20
152.6683013598569
 30
0.0
 10
145.8840425999909
 20
152.6683013598569
 30
0.0
 10
145.0989048209514
 20
152.6683013598569
 30
0.0
 10
144.3282364524954
 20
152.3275811915945
 30
0.0
 10
143.4531816219731
 20
151.6538923250251
 30
0.0
 10
142.34627171234
 20
150.8074318058939
 30
0.0
 10
141.901854101563
 20
150.1097995099067
 30
0.0
 10
141.3578731655808
 20
149.289521733736
 30
0.0
 10
140.6299240093235
 20
148.192602607601
 30
0.0
 10
140.2850697237515
 20
147.455696197173
 30
0.0
 10
139.6652966370942
 20
145.8385673095858
 30
0.0
 10
139.0506911970739
 20
144.2214384219986
 30
0.0
 10
138.463991048893
 20
142.3252566160164
 30
0.0
 10
138.0571250036777
 20
141.0154304484394
 30
0.0
 10
138.0571250036777
 20
141.0154304484394
 30
0.0
 10
133.9009590684727
 20
127.8027915271048
 30
0.0
 10
133.9009590684727
 20
127.8027915271048
 30
0.0
 10
133.9009590684727
 20
127.8027915271048
 30
0.0
 10
131.4180771143097
 20
127.8027915271048
 30
0.0
 10
131.4180771143097
 20
127.8027915271048
 30
0.0
 10
131.4180771143097
 20
127.8027915271048
 30
0.0
 10
139.8926730891197
 20
154.8294111834263
 30
0.0
 10
139.8926730891197
 20
154.8294111834263
 30
0.0
  0
HATCH
  5
6A9
330
6A2
100
AcDbEntity
  8
LOGO
 62
   250
420
  2234388
100
AcDbHatch
 10
0.0
 20
0.0
 30
0.0
210
0.0
220
0.0
230
1.0
  2
SOLID
 70
     1
 71
     0
 91
        1
 92
        1
 93
        1
 72
     4
 94
        3
 73
     0
 74
     1
 95
      104
 96
      100
 40
0.0
 40
0.0
 40
0.0
 40
0.0
 40
1.0
 40
1.0
 40
1.0
 40
2.0
 40
2.0
 40
2.0
 40
3.0
 40
3.0
 40
3.0
 40
4.0
 40
4.0
 40
4.0
 40
5.0
 40
5.0
 40
5.0
 40
6.0
 40
6.0
 40
6.0
 40
7.0
 40
7.0
 40
7.0
 40
8.0
 40
8.0
 40
8.0
 40
9.0
 40
9.0
 40
9.0
 40
10.0
 40
10.0
 40
10.0
 40
11.0
 40
11.0
 40
11.0
 40
12.0
 40
12.0
 40
12.0
 40
13.0
 40
13.0
 40
13.0
 40
14.0
 40
14.0
 40
14.0
 40
15.0
 40
15.0
 40
15.0
 40
16.0
 40
16.0
 40
16.0
 40
17.0
 40
17.0
 40
17.0
 40
18.0
 40
18.0
 40
18.0
 40
19.0
 40
19.0
 40
19.0
 40
20.0
 40
20.0
 40
20.0
 40
21.0
 40
21.0
 40
21.0
 40
22.0
 40
22.0
 40
22.0
 40
23.0
 40
23.0
 40
23.0
 40
24.0
 40
24.0
 40
24.0
 40
25.0
 40
25.0
 40
25.0
 40
26.0
 40
26.0
 40
26.0
 40
27.0
 40
27.0
 40
27.0
 40
28.0
 40
28.0
 40
28.0
 40
29.0
 40
29.0
 40
29.0
 40
30.0
 40
30.0
 40
30.0
 40
31.0
 40
31.0
 40
31.0
 40
32.0
 40
32.0
 40
32.0
 40
33.0
 40
33.0
 40
33.0
 40
33.0
 10
139.8926730891197
 20
154.8294111834263
 10
139.8926730891197
 20
154.8294111834263
 10
142.0344903652445
 20
154.8294111834263
 10
142.0344903652445
 20
154.8294111834263
 10
142.0344903652445
 20
154.8294111834263
 10
140.9516961399171
 20
151.3157559800812
 10
140.9516961399171
 20
151.3157559800812
 10
141.8928968473923
 20
152.7887075264977
 10
142.7341897198865
 20
153.4484437471474
 10
143.8552245303272
 20
154.2926649527359
 10
144.9803934580775
 20
155.1296514530327
 10
146.3139908001845
 20
155.3044901642492
 10
147.241066606852
 20
155.3044901642492
 10
148.3855280820469
 20
155.3044901642492
 10
149.4969166187653
 20
155.0752189084569
 10
150.0784491203092
 20
153.8172414621372
 10
150.5228667310863
 20
152.833838307127
 10
150.5414702589793
 20
152.7201500811143
 10
150.4140016419347
 20
150.7765981809602
 10
151.5818897818837
 20
152.7699317437168
 10
152.4424752018226
 20
153.6256940267945
 10
153.9038856707499
 20
154.4507949398263
 10
155.4455669174378
 20
155.3044901642492
 10
156.339225275853
 20
155.3659851592288
 10
157.3748216618963
 20
155.2147453676543
 10
158.911679771723
 20
154.9877134254046
 10
159.8859534176746
 20
154.4390816074493
 10
160.3965169054045
 20
152.7816450760939
 10
160.9070803931344
 20
151.1219692311958
 10
160.6328506116007
 20
150.2303779314354
 10
159.9992971339115
 20
147.597634224801
 10
159.7105979417943
 20
146.4014962832367
 10
159.2947746424084
 20
144.9400858143094
 10
158.7463150793409
 20
143.2092687007094
 10
158.7463150793409
 20
143.2092687007094
 10
153.9038856707499
 20
127.8027915271048
 10
153.9038856707499
 20
127.8027915271048
 10
153.9038856707499
 20
127.8027915271048
 10
151.3882752878863
 20
127.8027915271048
 10
151.3882752878863
 20
127.8027915271048
 10
151.3882752878863
 20
127.8027915271048
 10
155.6250565106276
 20
141.2751908193897
 10
155.6250565106276
 20
141.2751908193897
 10
156.5094131050963
 20
144.0936252951782
 10
157.109893644309
 20
146.1506931664571
 10
157.4220195011804
 20
147.4415712963654
 10
157.8095929989511
 20
149.0530157726519
 10
157.9656559273867
 20
149.5826995529385
 10
157.7816877071116
 20
150.7529992613181
 10
157.6111553680925
 20
151.8430281919372
 10
157.0582171779396
 20
152.5547853887321
 10
156.1170164704645
 20
152.5547853887321
 10
155.1096698860365
 20
152.5547853887321
 10
154.2962823053817
 20
152.4412694176073
 10
153.156643967048
 20
151.2945686288697
 10
152.0170056287143
 20
150.1476955852443
 10
151.076149431015
 20
148.7930831468137
 10
150.3337308641742
 20
147.2290087646991
 10
149.5957909244188
 20
145.6683794803425
 10
148.8530278478023
 20
143.6822806228776
 10
148.0964843801539
 20
141.2751908193897
 10
148.0964843801539
 20
141.2751908193897
 10
143.8552245303272
 20
127.8027915271048
 10
143.8552245303272
 20
127.8027915271048
 10
143.8552245303272
 20
127.8027915271048
 10
141.486030802177
 20
127.8027915271048
 10
141.486030802177
 20
127.8027915271048
 10
141.486030802177
 20
127.8027915271048
 10
146.3329388378533
 20
143.2092687007094
 10
146.3329388378533
 20
143.2092687007094
 10
146.8483254624444
 20
144.8408669988801
 10
147.2314203331297
 20
146.1837661049335
 10
147.4867020769946
 20
147.224185627838
 10
147.9169947869641
 20
149.0197705792876
 10
148.0306830129768
 20
150.2400242051577
 10
147.709255392159
 20
151.3157559800812
 10
147.3874832615654
 20
152.3916600098926
 10
146.8245542879144
 20
152.6683013598569
 10
145.8840425999909
 20
152.6683013598569
 10
145.0989048209514
 20
152.6683013598569
 10
144.3282364524954
 20
152.3275811915945
 10
143.4531816219731
 20
151.6538923250251
 10
142.34627171234
 20
150.8074318058939
 10
141.901854101563
 20
150.1097995099067
 10
141.3578731655808
 20
149.289521733736
 10
140.6299240093235
 20
148.192602607601
 10
140.2850697237515
 20
147.455696197173
 10
139.6652966370942
 20
145.8385673095858
 10
139.0506911970739
 20
144.2214384219986
 10
138.463991048893
 20
142.3252566160164
 10
138.0571250036777
 20
141.0154304484394
 10
138.0571250036777
 20
141.0154304484394
 10
133.9009590684727
 20
127.8027915271048
 10
133.9009590684727
 20
127.8027915271048
 10
133.9009590684727
 20
127.8027915271048
 10
131.4180771143097
 20
127.8027915271048
 10
131.4180771143097
 20
127.8027915271048
 10
131.4180771143097
 20
127.8027915271048
 10
139.8926730891197
 20
154.8294111834263
 10
139.8926730891197
 20
154.8294111834263
 97
        0
 75
     2
 76
     1
 98
        0
  0
SPLINE
  5
6AA
330
6A2
100
AcDbEntity
  8
LOGO
370
     0
100
AcDbSpline
210
0.0
220
0.0
230
1.0
 70
    11
 71
     3
 72
    29
 73
    25
 74
     0
 42
0.000000001
 43
0.0000000001
 40
0.0
 40
0.0
 40
0.0
 40
0.0
 40
1.0
 40
1.0
 40
1.0
 40
2.0
 40
2.0
 40
2.0
 40
3.0
 40
3.0
 40
3.0
 40
4.0
 40
4.0
 40
4.0
 40
5.0
 40
5.0
 40
5.0
 40
6.0
 40
6.0
 40
6.0
 40
7.0
 40
7.0
 40
7.0
 40
8.0
 40
8.0
 40
8.0
 40
8.0
 10
101.6420971922469
 20
132.8388354296931
 30
0.0
 10
101.630039350094
 20
134.7164137077823
 30
0.0
 10
102.2236296937908
 20
138.0598810818841
 30
0.0
 10
103.7487744712405
 20
142.5378191476827
 30
0.0
 10
105.819967243327
 20
148.5896501242061
 30
0.0
 10
107.0602024361932
 20
150.8074318058939
 30
0.0
 10
108.1522984254671
 20
151.8833358357054
 30
0.0
 10
109.741177511439
 20
153.4532668840085
 30
0.0
 10
111.8740375333931
 20
153.5290590346837
 30
0.0
 10
112.5075910110823
 20
153.4532668840085
 30
0.0
 10
113.4012493694975
 20
153.3490526768302
 30
0.0
 10
114.6683563248758
 20
152.7580461564518
 30
0.0
 10
114.7493161221879
 20
150.7838328862519
 30
0.0
 10
114.8106388622796
 20
149.0909118479895
 30
0.0
 10
114.3186789024427
 20
145.9191825971221
 30
0.0
 10
112.6164561002338
 20
140.9489400617108
 30
0.0
 10
110.6444821435766
 20
135.1746117095912
 30
0.0
 10
109.4669477299053
 20
132.8960240524753
 30
0.0
 10
108.5212683953448
 20
131.9072809959403
 30
0.0
 10
106.7346406980658
 20
130.0538184021569
 30
0.0
 10
104.8222669326213
 20
130.2336525051225
 30
0.0
 10
104.5408024457958
 20
130.2336525051225
 30
0.0
 10
104.1721769856939
 20
130.2336525051225
 30
0.0
 10
101.6465758193322
 20
130.6305277668397
 30
0.0
 10
101.6420971922469
 20
132.8388354296931
 30
0.0
  0
SPLINE
  5
6AB
330
6A2
100
AcDbEntity
  8
LOGO
370
     0
100
AcDbSpline
210
0.0
220
0.0
230
1.0
 70
    11
 71
     3
 72
    32
 73
    28
 74
     0
 42
0.000000001
 43
0.0000000001
 40
0.0
 40
0.0
 40
0.0
 40
0.0
 40
1.0
 40
1.0
 40
1.0
 40
2.0
 40
2.0
 40
2.0
 40
3.0
 40
3.0
 40
3.0
 40
4.0
 40
4.0
 40
4.0
 40
5.0
 40
5.0
 40
5.0
 40
6.0
 40
6.0
 40
6.0
 40
7.0
 40
7.0
 40
7.0
 40
8.0
 40
8.0
 40
8.0
 40
9.0
 40
9.0
 40
9.0
 40
9.0
 10
106.2595617172429
 20
153.4105476718098
 30
0.0
 10
104.8222669326213
 20
151.5474388043041
 30
0.0
 10
103.7177685914188
 20
149.8758773721411
 30
0.0
 10
101.9232171692965
 20
144.6141795664062
 30
0.0
 10
100.2754269116635
 20
139.7999999594306
 30
0.0
 10
99.22777268346732
 20
136.3052927937542
 30
0.0
 10
99.06964269637689
 20
132.039572749846
 30
0.0
 10
98.94665270641765
 20
128.8673267343149
 30
0.0
 10
100.8807305877373
 20
127.8027915271048
 30
0.0
 10
103.7129454545577
 20
127.8027915271048
 30
0.0
 10
104.9352661390825
 20
127.8027915271048
 30
0.0
 10
108.0151835347002
 20
127.8827177950895
 30
0.0
 10
110.2045431598849
 20
130.5926316915021
 30
0.0
 10
111.7417457794874
 20
132.4984597712065
 30
0.0
 10
113.155269389579
 20
134.475256864725
 30
0.0
 10
115.0562743324223
 20
140.9489400617108
 30
0.0
 10
116.6361961642235
 20
146.3680788349845
 30
0.0
 10
117.7282921534974
 20
149.8639917848761
 30
0.0
 10
117.6480213757369
 20
151.8595646611754
 30
0.0
 10
117.6480213757369
 20
151.8595646611754
 30
0.0
 10
117.6480213757369
 20
151.8595646611754
 30
0.0
 10
117.6480213757369
 20
151.8595646611754
 30
0.0
 10
117.13229024137
 20
155.18150017429
 30
0.0
 10
114.7162431837115
 20
155.886194920681
 30
0.0
 10
113.3351034925446
 20
155.886194920681
 30
0.0
 10
111.9829026225447
 20
155.886194920681
 30
0.0
 10
108.3414342923792
 20
156.1251124501957
 30
0.0
 10
106.2595617172429
 20
153.4105476718098
 30
0.0
  0
HATCH
  5
6AC
330
6A2
100
AcDbEntity
  8
LOGO
 62
   250
420
  2234388
100
AcDbHatch
 10
0.0
 20
0.0
 30
0.0
210
0.0
220
0.0
230
1.0
  2
SOLID
 70
     1
 71
     0
 91
        2
 92
        1
 93
        1
 72
     4
 94
        3
 73
     0
 74
     1
 95
       29
 96
       25
 40
0.0
 40
0.0
 40
0.0
 40
0.0
 40
1.0
 40
1.0
 40
1.0
 40
2.0
 40
2.0
 40
2.0
 40
3.0
 40
3.0
 40
3.0
 40
4.0
 40
4.0
 40
4.0
 40
5.0
 40
5.0
 40
5.0
 40
6.0
 40
6.0
 40
6.0
 40
7.0
 40
7.0
 40
7.0
 40
8.0
 40
8.0
 40
8.0
 40
8.0
 10
101.6420971922469
 20
132.8388354296931
 10
101.630039350094
 20
134.7164137077823
 10
102.2236296937908
 20
138.0598810818841
 10
103.7487744712405
 20
142.5378191476827
 10
105.819967243327
 20
148.5896501242061
 10
107.0602024361932
 20
150.8074318058939
 10
108.1522984254671
 20
151.8833358357054
 10
109.741177511439
 20
153.4532668840085
 10
111.8740375333931
 20
153.5290590346837
 10
112.5075910110823
 20
153.4532668840085
 10
113.4012493694975
 20
153.3490526768302
 10
114.6683563248758
 20
152.7580461564518
 10
114.7493161221879
 20
150.7838328862519
 10
114.8106388622796
 20
149.0909118479895
 10
114.3186789024427
 20
145.9191825971221
 10
112.6164561002338
 20
140.9489400617108
 10
110.6444821435766
 20
135.1746117095912
 10
109.4669477299053
 20
132.8960240524753
 10
108.5212683953448
 20
131.9072809959403
 10
106.7346406980658
 20
130.0538184021569
 10
104.8222669326213
 20
130.2336525051225
 10
104.5408024457958
 20
130.2336525051225
 10
104.1721769856939
 20
130.2336525051225
 10
101.6465758193322
 20
130.6305277668397
 10
101.6420971922469
 20
132.8388354296931
 97
        0
 92
        1
 93
        1
 72
     4
 94
        3
 73
     0
 74
     1
 95
       32
 96
       28
 40
0.0
 40
0.0
 40
0.0
 40
0.0
 40
1.0
 40
1.0
 40
1.0
 40
2.0
 40
2.0
 40
2.0
 40
3.0
 40
3.0
 40
3.0
 40
4.0
 40
4.0
 40
4.0
 40
5.0
 40
5.0
 40
5.0
 40
6.0
 40
6.0
 40
6.0
 40
7.0
 40
7.0
 40
7.0
 40
8.0
 40
8.0
 40
8.0
 40
9.0
 40
9.0
 40
9.0
 40
9.0
 10
106.2595617172429
 20
153.4105476718098
 10
104.8222669326213
 20
151.5474388043041
 10
103.7177685914188
 20
149.8758773721411
 10
101.9232171692965
 20
144.6141795664062
 10
100.2754269116635
 20
139.7999999594306
 10
99.22777268346732
 20
136.3052927937542
 10
99.06964269637689
 20
132.039572749846
 10
98.94665270641765
 20
128.8673267343149
 10
100.8807305877373
 20
127.8027915271048
 10
103.7129454545577
 20
127.8027915271048
 10
104.9352661390825
 20
127.8027915271048
 10
108.0151835347002
 20
127.8827177950895
 10
110.2045431598849
 20
130.5926316915021
 10
111.7417457794874
 20
132.4984597712065
 10
113.155269389579
 20
134.475256864725
 10
115.0562743324223
 20
140.9489400617108
 10
116.6361961642235
 20
146.3680788349845
 10
117.7282921534974
 20
149.8639917848761
 10
117.6480213757369
 20
151.8595646611754
 10
117.6480213757369
 20
151.8595646611754
 10
117.6480213757369
 20
151.8595646611754
 10
117.6480213757369
 20
151.8595646611754
 10
117.13229024137
 20
155.18150017429
 10
114.7162431837115
 20
155.886194920681
 10
113.3351034925446
 20
155.886194920681
 10
111.9829026225447
 20
155.886194920681
 10
108.3414342923792
 20
156.1251124501957
 10
106.2595617172429
 20
153.4105476718098
 97
        0
 75
     2
 76
     1
 98
        0
  0
ENDBLK
  5
6AD
330
6A2
100
AcDbEntity
  8
0
100
AcDbBlockEnd
  0
BLOCK
  5
1240
330
123F
100
AcDbEntity
  8
0
100
AcDbBlockBegin
  2
*D6
 70
     1
 10
0.0
 20
0.0
 30
0.0
  3
*D6
  1
*D12
  0
LINE
  5
1242
330
123F
100
AcDbEntity
  8
DIM
 62
     0
 48
0.05
370
    -2
100
AcDbLine
 10
725.4629710217769
 20
1069.195562865448
 30
0.0
 11
820.3674793724749
 21
1069.195562865448
 31
0.0
  0
LINE
  5
1243
330
123F
100
AcDbEntity
  8
DIM
 62
     0
 48
0.05
370
    -2
100
AcDbLine
 10
490.6793828259174
 20
828.6910336060089
 30
0.0
 11
820.3674793724749
 21
828.6910336060089
 31
0.0
  0
LINE
  5
1244
330
123F
100
AcDbEntity
  8
DIM
 62
     0
 48
0.05
370
    -2
100
AcDbLine
 10
820.3674793724749
 20
1063.195562865448
 30
0.0
 11
820.3674793724749
 21
834.6910336060089
 31
0.0
  0
INSERT
  5
1245
330
123F
100
AcDbEntity
  8
DIM
 62
     0
370
    -2
100
AcDbBlockReference
  2
_DOT
 10
820.3674793724749
 20
1069.195562865448
 30
0.0
 41
6.0
 42
6.0
 43
6.0
 50
90.0
  0
INSERT
  5
1246
330
123F
100
AcDbEntity
  8
DIM
 62
     0
370
    -2
100
AcDbBlockReference
  2
_DOT
 10
820.3674793724749
 20
828.6910336060089
 30
0.0
 41
6.0
 42
6.0
 43
6.0
 50
270.0
  0
MTEXT
  5
1247
330
123F
100
AcDbEntity
  8
DIM
 62
     0
 48
0.05
100
AcDbMText
 10
804.3674793724749
 20
942.9344330737073
 30
0.0
 40
12.0
 41
0.0
 46
0.0
 71
     5
 72
     1
  1
\A1;240.5
  7
ＭＳ ゴシック
 11
0.0
 21
1.0
 31
0.0
 73
     1
 44
1.0
  0
POINT
  5
1248
330
123F
100
AcDbEntity
  8
Defpoints
 62
     0
100
AcDbPoint
 10
720.4629710217769
 20
1069.195562865448
 30
0.0
  0
POINT
  5
1249
330
123F
100
AcDbEntity
  8
Defpoints
 62
     0
100
AcDbPoint
 10
485.6793828259174
 20
828.6910336060089
 30
0.0
  0
POINT
  5
124A
330
123F
100
AcDbEntity
  8
Defpoints
 62
     0
100
AcDbPoint
 10
820.3674793724749
 20
828.6910336060089
 30
0.0
  0
ENDBLK
  5
1241
330
123F
100
AcDbEntity
  8
0
100
AcDbBlockEnd
  0
BLOCK
  5
124F
330
124E
100
AcDbEntity
  8
0
100
AcDbBlockBegin
  2
*D7
 70
     1
 10
0.0
 20
0.0
 30
0.0
  3
*D7
  1
*D13
  0
LINE
  5
1251
330
124E
100
AcDbEntity
  8
DIM
 62
     0
 48
0.05
370
    -2
100
AcDbLine
 10
735.8161523143713
 20
606.7505180209134
 30
0.0
 11
819.7810739760134
 21
606.7505180209134
 31
0.0
  0
LINE
  5
1252
330
124E
100
AcDbEntity
  8
DIM
 62
     0
 48
0.05
370
    -2
100
AcDbLine
 10
733.8774367372457
 20
516.3069981455062
 30
0.0
 11
819.7810739760134
 21
516.3069981455062
 31
0.0
  0
LINE
  5
1253
330
124E
100
AcDbEntity
  8
DIM
 62
     0
 48
0.05
370
    -2
100
AcDbLine
 10
819.7810739760134
 20
600.7505180209134
 30
0.0
 11
819.7810739760134
 21
522.3069981455062
 31
0.0
  0
INSERT
  5
1254
330
124E
100
AcDbEntity
  8
DIM
 62
     0
370
    -2
100
AcDbBlockReference
  2
_DOT
 10
819.7810739760134
 20
606.7505180209134
 30
0.0
 41
6.0
 42
6.0
 43
6.0
 50
90.0
  0
INSERT
  5
1255
330
124E
100
AcDbEntity
  8
DIM
 62
     0
370
    -2
100
AcDbBlockReference
  2
_DOT
 10
819.7810739760134
 20
516.3069981455062
 30
0.0
 41
6.0
 42
6.0
 43
6.0
 50
270.0
  0
MTEXT
  5
1256
330
124E
100
AcDbEntity
  8
DIM
 62
     0
 48
0.05
100
AcDbMText
 10
803.7810739760134
 20
561.5287580832098
 30
0.0
 40
12.0
 41
0.0
 46
0.0
 71
     5
 72
     1
  1
\A1;90
  7
ＭＳ ゴシック
 11
0.0
 21
1.0
 31
0.0
 73
     1
 44
1.0
  0
POINT
  5
1257
330
124E
100
AcDbEntity
  8
Defpoints
 62
     0
100
AcDbPoint
 10
730.8161523143713
 20
606.7505180209134
 30
0.0
  0
POINT
  5
1258
330
124E
100
AcDbEntity
  8
Defpoints
 62
     0
100
AcDbPoint
 10
728.8774367372457
 20
516.3069981455062
 30
0.0
  0
POINT
  5
1259
330
124E
100
AcDbEntity
  8
Defpoints
 62
     0
100
AcDbPoint
 10
819.7810739760134
 20
516.3069981455062
 30
0.0
  0
ENDBLK
  5
1250
330
124E
100
AcDbEntity
  8
0
100
AcDbBlockEnd
  0
BLOCK
  5
1260
330
125F
100
AcDbEntity
  8
0
100
AcDbBlockBegin
  2
*D8
 70
     1
 10
0.0
 20
0.0
 30
0.0
  3
*D8
  1
*D14
  0
LINE
  5
1262
330
125F
100
AcDbEntity
  8
DIM
 62
     0
 48
0.05
370
    -2
100
AcDbLine
 10
69.87902299378334
 20
822.8937697594669
 30
0.0
 11
69.87902299378334
 21
765.5522968280698
 31
0.0
  0
LINE
  5
1263
330
125F
100
AcDbEntity
  8
DIM
 62
     0
 48
0.05
370
    -2
100
AcDbLine
 10
741.2499285507806
 20
1041.605760054871
 30
0.0
 11
741.2499285507806
 21
765.5522968280698
 31
0.0
  0
LINE
  5
1264
330
125F
100
AcDbEntity
  8
DIM
 62
     0
 48
0.05
370
    -2
100
AcDbLine
 10
75.87902299378334
 20
765.5522968280698
 30
0.0
 11
735.2499285507806
 21
765.5522968280698
 31
0.0
  0
INSERT
  5
1265
330
125F
100
AcDbEntity
  8
DIM
 62
     0
370
    -2
100
AcDbBlockReference
  2
_DOT
 10
69.87902299378334
 20
765.5522968280698
 30
0.0
 41
6.0
 42
6.0
 43
6.0
 50
180.0
  0
INSERT
  5
1266
330
125F
100
AcDbEntity
  8
DIM
 62
     0
370
    -2
100
AcDbBlockReference
  2
_DOT
 10
741.2499285507806
 20
765.5522968280698
 30
0.0
 41
6.0
 42
6.0
 43
6.0
  0
MTEXT
  5
1267
330
125F
100
AcDbEntity
  8
DIM
 62
     0
 48
0.05
100
AcDbMText
 10
405.564475772282
 20
781.5522968280698
 30
0.0
 40
12.0
 41
0.0
 46
0.0
 71
     5
 72
     1
  1
\A1;671
  7
ＭＳ ゴシック
 73
     1
 44
1.0
  0
POINT
  5
1268
330
125F
100
AcDbEntity
  8
Defpoints
 62
     0
100
AcDbPoint
 10
69.87902299378334
 20
827.8937697594669
 30
0.0
  0
POINT
  5
1269
330
125F
100
AcDbEntity
  8
Defpoints
 62
     0
100
AcDbPoint
 10
741.2499285507806
 20
1046.605760054871
 30
0.0
  0
POINT
  5
126A
330
125F
100
AcDbEntity
  8
Defpoints
 62
     0
100
AcDbPoint
 10
741.2499285507806
 20
765.5522968280698
 30
0.0
  0
ENDBLK
  5
1261
330
125F
100
AcDbEntity
  8
0
100
AcDbBlockEnd
  0
BLOCK
  5
127C
330
127B
100
AcDbEntity
  8
0
100
AcDbBlockBegin
  2
*D9
 70
     1
 10
0.0
 20
0.0
 30
0.0
  3
*D9
  1
*D9
  0
LINE
  5
127E
330
127B
100
AcDbEntity
  8
DIM
 62
     0
 48
0.05
370
    -2
100
AcDbLine
 10
733.8774367372457
 20
516.3069981455062
 30
0.0
 11
785.3418684143927
 21
516.3069981455062
 31
0.0
  0
LINE
  5
127F
330
127B
100
AcDbEntity
  8
DIM
 62
     0
 48
0.05
370
    -2
100
AcDbLine
 10
733.8774367372457
 20
548.3069981455062
 30
0.0
 11
785.3418684143927
 21
548.3069981455062
 31
0.0
  0
LINE
  5
1280
330
127B
100
AcDbEntity
  8
DIM
 62
     0
 48
0.05
370
    -2
100
AcDbLine
 10
785.3418684143927
 20
510.3069981455062
 30
0.0
 11
785.3418684143927
 21
504.3069981455062
 31
0.0
  0
LINE
  5
1281
330
127B
100
AcDbEntity
  8
DIM
 62
     0
 48
0.05
370
    -2
100
AcDbLine
 10
785.3418684143927
 20
554.3069981455062
 30
0.0
 11
785.3418684143927
 21
560.3069981455062
 31
0.0
  0
INSERT
  5
1282
330
127B
100
AcDbEntity
  8
DIM
 62
     0
370
    -2
100
AcDbBlockReference
  2
_DOT
 10
785.3418684143927
 20
516.3069981455062
 30
0.0
 41
6.0
 42
6.0
 43
6.0
 50
90.0
  0
INSERT
  5
1283
330
127B
100
AcDbEntity
  8
DIM
 62
     0
370
    -2
100
AcDbBlockReference
  2
_DOT
 10
785.3418684143927
 20
548.3069981455062
 30
0.0
 41
6.0
 42
6.0
 43
6.0
 50
270.0
  0
MTEXT
  5
1284
330
127B
100
AcDbEntity
  8
DIM
 62
     0
 48
0.05
100
AcDbMText
 10
769.3418684143927
 20
532.3069981455062
 30
0.0
 40
12.0
 41
0.0
 46
0.0
 71
     5
 72
     1
  1
\A1;32
  7
ＭＳ ゴシック
 11
0.0
 21
1.0
 31
0.0
 73
     1
 44
1.0
  0
POINT
  5
1285
330
127B
100
AcDbEntity
  8
Defpoints
 62
     0
100
AcDbPoint
 10
728.8774367372457
 20
516.3069981455062
 30
0.0
  0
POINT
  5
1286
330
127B
100
AcDbEntity
  8
Defpoints
 62
     0
100
AcDbPoint
 10
728.8774367372457
 20
548.3069981455062
 30
0.0
  0
POINT
  5
1287
330
127B
100
AcDbEntity
  8
Defpoints
 62
     0
100
AcDbPoint
 10
785.3418684143927
 20
548.3069981455062
 30
0.0
  0
ENDBLK
  5
127D
330
127B
100
AcDbEntity
  8
0
100
AcDbBlockEnd
  0
BLOCK
  5
1296
330
1295
100
AcDbEntity
  8
0
100
AcDbBlockBegin
  2
*D10
 70
     1
 10
0.0
 20
0.0
 30
0.0
  3
*D10
  1
*D10
  0
ARC
  5
1298
330
1295
100
AcDbEntity
  8
DIM
 62
     0
 48
0.05
370
    -2
100
AcDbCircle
 10
523.3728178734783
 20
828.6910336060089
 30
0.0
 40
46.60786387049703
100
AcDbArc
 50
7.380996973636335
 51
37.61900372787081
  0
INSERT
  5
1299
330
1295
100
AcDbEntity
  8
DIM
 62
     0
370
    -2
100
AcDbBlockReference
  2
_DOT
 10
569.9806817439753
 20
828.6910336060089
 30
0.0
 41
6.0
 42
6.0
 43
6.0
 50
273.6904984868181
  0
INSERT
  5
129A
330
1295
100
AcDbEntity
  8
DIM
 62
     0
370
    -2
100
AcDbBlockReference
  2
_DOT
 10
556.3295540694169
 20
861.6477706089662
 30
0.0
 41
6.0
 42
6.0
 43
6.0
 50
131.309502214689
  0
MTEXT
  5
129B
330
1295
100
AcDbEntity
  8
DIM
 62
     0
 48
0.05
100
AcDbMText
 10
581.4089564323466
 20
852.7303897210995
 30
0.0
 40
12.0
 41
0.0
 46
0.0
 71
     5
 72
     1
  1
\A1;45%%d
  7
ＭＳ ゴシック
 11
0.3826834380208994
 21
-0.9238795301685736
 31
0.0
 73
     1
 44
1.0
  0
POINT
  5
129C
330
1295
100
AcDbEntity
  8
Defpoints
 62
     0
100
AcDbPoint
 10
568.392557244925
 20
840.7540366109739
 30
0.0
  0
POINT
  5
129D
330
1295
100
AcDbEntity
  8
Defpoints
 62
     0
100
AcDbPoint
 10
485.6793828259174
 20
828.6910336060089
 30
0.0
  0
POINT
  5
129E
330
1295
100
AcDbEntity
  8
Defpoints
 62
     0
100
AcDbPoint
 10
597.5673612157766
 20
902.8855787651253
 30
0.0
  0
POINT
  5
129F
330
1295
100
AcDbEntity
  8
Defpoints
 62
     0
100
AcDbPoint
 10
502.484839777178
 20
807.8030549982201
 30
0.0
  0
POINT
  5
12A0
330
1295
100
AcDbEntity
  8
Defpoints
 62
     0
100
AcDbPoint
 10
1207.064881397396
 20
828.6910336060089
 30
0.0
  0
ENDBLK
  5
1297
330
1295
100
AcDbEntity
  8
0
100
AcDbBlockEnd
  0
ENDSEC
  0
SECTION
  2
ENTITIES
  0
MTEXT
  5
177
330
A
100
AcDbEntity
  8
TEMPLATE
390
1D
100
AcDbMText
 10
39.60107227386538
 20
171.8658758157141
 30
0.0
 40
8.144205729166663
 41
0.0
 46
0.0
 71
     1
 72
     1
  1
品名
  7
ＭＳ ゴシック
 73
     1
 44
0.7828267384257843
  0
MTEXT
  5
178
330
A
100
AcDbEntity
  8
TEMPLATE
390
1D
100
AcDbMText
 10
39.60107227386538
 20
129.365875815714
 30
0.0
 40
8.144205729166663
 41
0.0
 46
0.0
 71
     1
 72
     1
  1
仕様
  7
ＭＳ ゴシック
 73
     1
 44
0.7828267384257843
  0
LINE
  5
179
330
A
100
AcDbEntity
  8
TEMPLATE
390
1D
100
AcDbLine
 10
1011.101072273624
 20
133.5733367532142
 30
0.0
 11
36.10107227362437
 21
133.5733367532142
 31
0.0
  0
LWPOLYLINE
  5
17A
330
A
100
AcDbEntity
  8
TEMPLATE
390
1D
100
AcDbPolyline
 90
        5
 70
   128
 43
0.0
 10
1011.101072273624
 20
1448.573336753213
 10
36.10107227362437
 20
1448.573336753213
 10
36.10107227362437
 20
48.57333675321413
 10
1011.101072273624
 20
48.57333675321413
 10
1011.101072273624
 20
1448.573336753213
  0
LINE
  5
17B
330
A
100
AcDbEntity
  8
TEMPLATE
390
1D
100
AcDbLine
 10
1011.101072273624
 20
176.0733367532141
 30
0.0
 11
36.10107227362437
 21
176.0733367532141
 31
0.0
  0
LINE
  5
17C
330
A
100
AcDbEntity
  8
TEMPLATE
390
1D
100
AcDbLine
 10
1011.101072273866
 20
91.07333675321412
 30
0.0
 11
634.601072273865
 21
91.07333675321412
 31
0.0
  0
MTEXT
  5
17D
330
A
100
AcDbEntity
  8
TEMPLATE
390
1D
100
AcDbMText
 10
36.10107227396725
 20
42.64642572478557
 30
0.0
 40
10.85894097222222
 41
0.0
 46
10.85894097222222
 71
     1
 72
     1
  1
{20160628S}
  7
ＭＳ ゴシック
 73
     1
 44
0.7828267384257843
1001
ACAD
1000
ACAD_MTEXT_DEFINED_HEIGHT_BEGIN
1070
    46
1040
10.85894097222222
1000
ACAD_MTEXT_DEFINED_HEIGHT_END
  0
MTEXT
  5
17E
330
A
100
AcDbEntity
  8
TEMPLATE
390
1D
100
AcDbMText
 10
649.5367753999956
 20
76.11813951656006
 30
0.0
 40
12.21630859375
 41
0.0
 46
0.0
 71
     1
 72
     1
  1
大洋金物株式会社 ティーフォルム事業部
  7
ＭＳ ゴシック
 73
     1
 44
0.7828267384257843
  0
MTEXT
  5
180
330
A
100
AcDbEntity
  8
TEMPLATE
390
1D
100
AcDbMText
 10
915.601072273995
 20
115.0746453469641
 30
0.0
 40
12.21630859375
 41
0.0
 46
12.21630859375
 71
     1
 72
     1
  1
{1:5}
  7
ＭＳ ゴシック
 73
     1
 44
0.7828267384257843
1001
ACAD
1000
ACAD_MTEXT_DEFINED_HEIGHT_BEGIN
1070
    46
1040
12.21630859375
1000
ACAD_MTEXT_DEFINED_HEIGHT_END
  0
MTEXT
  5
181
330
A
100
AcDbEntity
  8
TEMPLATE
390
1D
100
AcDbMText
 10
889.101072273995
 20
129.365875815714
 30
0.0
 40
8.144205729166663
 41
0.0
 46
0.0
 71
     1
 72
     1
  1
縮尺
  7
ＭＳ ゴシック
 73
     1
 44
0.7828267384257843
  0
LINE
  5
182
330
A
100
AcDbEntity
  8
TEMPLATE
390
1D
100
AcDbLine
 10
885.601072273995
 20
91.07333675321412
 30
0.0
 11
885.601072273995
 21
133.5733367532142
 31
0.0
  0
MTEXT
  5
183
330
A
100
AcDbEntity
  8
TEMPLATE
390
1D
100
AcDbMText
 10
763.601072273995
 20
129.365875815714
 30
0.0
 40
8.144205729166663
 41
0.0
 46
0.0
 71
     1
 72
     1
  1
容量
  7
ＭＳ ゴシック
 73
     1
 44
0.7828267384257843
  0
LINE
  5
184
330
A
100
AcDbEntity
  8
TEMPLATE
390
1D
100
AcDbLine
 10
760.101072273995
 20
91.07333675321412
 30
0.0
 11
760.101072273995
 21
133.5733367532142
 31
0.0
  0
MTEXT
  5
185
330
A
100
AcDbEntity
  8
TEMPLATE
390
1D
100
AcDbMText
 10
638.101072273995
 20
171.8658758157141
 30
0.0
 40
8.144205729166663
 41
0.0
 46
0.0
 71
     1
 72
     1
  1
品番
  7
ＭＳ ゴシック
 73
     1
 44
0.7828267384257843
  0
MTEXT
  5
186
330
A
100
AcDbEntity
  8
TEMPLATE
390
1D
100
AcDbMText
 10
638.101072273995
 20
129.365875815714
 30
0.0
 40
8.144205729166663
 41
0.0
 46
0.0
 71
     1
 72
     1
  1
重量
  7
ＭＳ ゴシック
 73
     1
 44
0.7828267384257843
  0
MTEXT
  5
187
330
A
100
AcDbEntity
  8
TEMPLATE
390
1D
100
AcDbMText
 10
664.601072273995
 20
157.5746453469641
 30
0.0
 40
12.21630859375
 41
0.0
 46
12.21630859375
 71
     1
 72
     1
  1
{FRF74-2210}
  7
ＭＳ ゴシック
 73
     1
 44
0.7828267384257843
1001
ACAD
1000
ACAD_MTEXT_DEFINED_HEIGHT_BEGIN
1070
    46
1040
12.21630859375
1000
ACAD_MTEXT_DEFINED_HEIGHT_END
  0
LINE
  5
188
330
A
100
AcDbEntity
  8
TEMPLATE
390
1D
100
AcDbLine
 10
634.601072273995
 20
48.57333675321413
 30
0.0
 11
634.601072273995
 21
176.0733367532141
 31
0.0
  0
MTEXT
  5
189
330
A
100
AcDbEntity
  8
TEMPLATE
390
1D
100
AcDbMText
 10
66.10107227386537
 20
157.5746453469641
 30
0.0
 40
12.21630859375
 41
0.0
 46
12.900421875
 71
     1
 72
     1
  1
{グラブレール　-LANGBERGER-}
  7
ＭＳ ゴシック
 73
     1
 44
0.7828267384257843
1001
ACAD
1000
ACAD_MTEXT_DEFINED_HEIGHT_BEGIN
1070
    46
1040
12.900421875
1000
ACAD_MTEXT_DEFINED_HEIGHT_END
  0
INSERT
  5
6B5
330
A
100
AcDbEntity
  8
TEMPLATE
100
AcDbBlockReference
  2
名称未設定-1
 10
935.3753740442249
 20
12.97338287832691
 30
0.0
 41
0.3809999999999999
 42
0.3809999999999999
 43
0.3809999999999999
  0
MTEXT
  5
7D9
330
A
100
AcDbEntity
  8
TEMPLATE
390
1D
100
AcDbMText
 10
62.62717263801819
 20
113.4059880146976
 30
0.0
 40
12.21630859375
 41
0.0
 46
12.21630859375
 71
     1
 72
     1
  1
{クローム}
  7
ＭＳ ゴシック
 73
     1
 44
0.7828267384257843
1001
ACAD
1000
ACAD_MTEXT_DEFINED_HEIGHT_BEGIN
1070
    46
1040
12.21630859375
1000
ACAD_MTEXT_DEFINED_HEIGHT_END
  0
INSERT
  5
68C
330
A
100
AcDbEntity
  8
TEMPLATE
100
AcDbBlockReference
  2
block 2
 10
919.2743017702577
 20
8.373076514336368
 30
0.0
 41
0.3809999999999999
 42
0.3809999999999999
 43
0.3809999999999999
  0
LWPOLYLINE
  5
D69
330
A
100
AcDbEntity
  8
BORDER
 48
0.05
100
AcDbPolyline
 90
        4
 70
     1
 43
0.0
 10
0.0
 20
0.0
 10
0.0
 20
1485.0
 10
1050.0
 20
1485.0
 10
1050.0
 20
0.0
  0
LINE
  5
1070
330
A
100
AcDbEntity
  8
MODEL
  6
Continuous
100
AcDbLine
 10
717.5637301008169
 20
1068.136777688341
 30
0.0
 11
527.3986825670067
 21
877.9717348111433
 31
0.0
  0
LINE
  5
1071
330
A
100
AcDbEntity
  8
MODEL
  6
Continuous
100
AcDbLine
 10
550.0261004964773
 20
855.3443168816727
 30
0.0
 11
740.1911433736745
 21
1045.509364415483
 31
0.0
  0
ARC
  5
1072
330
A
100
AcDbEntity
  8
MODEL
  6
Continuous
100
AcDbCircle
 10
485.67938287332
 20
919.6910343659681
 30
0.0
 40
59.00000000000018
100
AcDbArc
 50
270.0000000000011
 51
315.0000000000005
  0
ARC
  5
1073
330
A
100
AcDbEntity
  8
MODEL
  6
Continuous
100
AcDbCircle
 10
485.67938287332
 20
919.6910343659681
 30
0.0
 40
91.00000000000017
100
AcDbArc
 50
270.0000000000009
 51
315.0000000000014
  0
LINE
  5
1074
330
A
100
AcDbEntity
  8
MODEL
  6
Continuous
100
AcDbLine
 10
71.74540720385949
 20
828.6910336060089
 30
0.0
 11
485.6793828259174
 21
828.6910336060089
 31
0.0
  0
LINE
  5
1075
330
A
100
AcDbEntity
  8
MODEL
  6
Continuous
100
AcDbLine
 10
485.6793828259174
 20
860.6910351259273
 30
0.0
 11
71.74540720385949
 21
860.6910351259273
 31
0.0
  0
LINE
  5
1076
330
A
100
AcDbEntity
  8
MODEL
  6
Continuous
100
AcDbLine
 10
71.74540720385949
 20
860.6910351259273
 30
0.0
 11
70.2214356462423
 21
860.664432827906
 31
0.0
  0
LINE
  5
1077
330
A
100
AcDbEntity
  8
MODEL
  6
Continuous
100
AcDbLine
 10
70.2214356462423
 20
828.7176359040302
 30
0.0
 11
71.74540720385949
 21
828.6910336060089
 31
0.0
  0
ARC
  5
1078
330
A
100
AcDbEntity
  8
MODEL
  6
Continuous
100
AcDbCircle
 10
70.23017659614675
 20
860.1645098781553
 30
0.0
 40
0.5000000000000948
100
AcDbArc
 50
91.00000000000153
 51
178.2248114144994
  0
ARC
  5
1079
330
A
100
AcDbEntity
  8
MODEL
  6
Continuous
100
AcDbCircle
 10
70.23017659614675
 20
829.21755885378
 30
0.0
 40
0.5000000000000991
100
AcDbArc
 50
181.7751885853964
 51
268.9999999999985
  0
ARC
  5
107A
330
A
100
AcDbEntity
  8
MODEL
  6
Continuous
100
AcDbCircle
 10
569.4904509577009
 20
844.6910343659681
 30
0.0
 40
500.0000000000003
100
AcDbArc
 50
178.2248114143644
 51
181.7751885856365
  0
LINE
  5
107B
330
A
100
AcDbEntity
  8
MODEL
  6
Continuous
100
AcDbLine
 10
740.1911433736745
 20
1045.509364415483
 30
0.0
 11
741.2499304811422
 21
1046.605762053804
 31
0.0
  0
LINE
  5
107C
330
A
100
AcDbEntity
  8
MODEL
  6
Continuous
100
AcDbLine
 10
718.6601277391378
 20
1069.195564795808
 30
0.0
 11
717.5637301008169
 21
1068.136777688341
 31
0.0
  0
ARC
  5
107D
330
A
100
AcDbEntity
  8
MODEL
  6
Continuous
100
AcDbCircle
 10
740.8902586506115
 20
1046.953094038895
 30
0.0
 40
0.4999999999999635
100
AcDbArc
 50
315.9999999999699
 51
43.22481141459753
  0
ARC
  5
107E
330
A
100
AcDbEntity
  8
MODEL
  6
Continuous
100
AcDbCircle
 10
719.0074597242278
 20
1068.835892965277
 30
0.0
 40
0.500000000000178
100
AcDbArc
 50
46.77518858543815
 51
133.9999999999383
  0
ARC
  5
107F
330
A
100
AcDbEntity
  8
MODEL
  6
Continuous
100
AcDbCircle
 10
376.9185336093094
 20
704.8641679239743
 30
0.0
 40
500.0000000000003
100
AcDbArc
 50
43.22481141436464
 51
46.77518858563572
  0
LINE
  5
1080
330
A
100
AcDbEntity
  8
MODEL
  6
Continuous
100
AcDbLine
 10
740.1911433736745
 20
1045.509364415483
 30
0.0
 11
717.5637301008169
 21
1068.136777688341
 31
0.0
  0
LINE
  5
1081
330
A
100
AcDbEntity
  8
MODEL
  6
Continuous
100
AcDbLine
 10
71.74540720385949
 20
828.6910336060089
 30
0.0
 11
71.74540720385949
 21
860.6910351259273
 31
0.0
  0
LINE
  5
1082
330
A
100
AcDbEntity
  8
MODEL
  6
Continuous
100
AcDbLine
 10
71.74540720385949
 20
844.6910343659681
 30
0.0
 11
71.74540720385949
 21
860.6910351259273
 31
0.0
  0
LINE
  5
1083
330
A
100
AcDbEntity
  8
MODEL
  6
Continuous
100
AcDbLine
 10
71.74540720385949
 20
828.6910336060089
 30
0.0
 11
71.74540720385949
 21
844.6910343659681
 31
0.0
  0
LINE
  5
1084
330
A
100
AcDbEntity
  8
MODEL
  6
Continuous
100
AcDbLine
 10
485.6793828259174
 20
828.6910336060089
 30
0.0
 11
485.6793828259174
 21
860.6910351259273
 31
0.0
  0
LINE
  5
1085
330
A
100
AcDbEntity
  8
MODEL
  6
Continuous
100
AcDbLine
 10
70.2214356462423
 20
844.6910343659681
 30
0.0
 11
70.2214356462423
 21
828.7176359040302
 31
0.0
  0
LINE
  5
1086
330
A
100
AcDbEntity
  8
MODEL
  6
Continuous
100
AcDbLine
 10
70.2214356462423
 20
860.664432827906
 30
0.0
 11
70.2214356462423
 21
844.6910343659681
 31
0.0
  0
LINE
  5
1087
330
A
100
AcDbEntity
  8
MODEL
  6
Continuous
100
AcDbLine
 10
69.73041258258286
 20
829.2020698604745
 30
0.0
 11
69.73041258258286
 21
860.1799988714617
 31
0.0
  0
LINE
  5
108A
330
A
100
AcDbEntity
  8
MODEL
100
AcDbLine
 10
718.6601305389981
 20
1069.195562865448
 30
0.0
 11
720.4629710217769
 21
1069.195562865448
 31
0.0
  0
LINE
  5
108E
330
A
100
AcDbEntity
  8
MODEL
  6
Continuous
100
AcDbLine
 10
963.5889485203866
 20
844.6910343659681
 30
0.0
 11
963.5889485203866
 21
866.6580263120693
 31
0.0
  0
LINE
  5
108F
330
A
100
AcDbEntity
  8
MODEL
  6
Continuous
100
AcDbLine
 10
931.5889470004681
 20
866.6580263120693
 30
0.0
 11
931.5889470004681
 21
856.1910343883198
 31
0.0
  0
LINE
  5
1090
330
A
100
AcDbEntity
  8
MODEL
  6
Continuous
100
AcDbLine
 10
931.5889470004681
 20
1017.932202626542
 30
0.0
 11
931.5889470004681
 21
866.6580263120693
 31
0.0
  0
LINE
  5
1091
330
A
100
AcDbEntity
  8
MODEL
  6
Continuous
100
AcDbLine
 10
963.5889485203866
 20
866.6580263120693
 30
0.0
 11
963.5889485203866
 21
1056.823071051912
 31
0.0
  0
LINE
  5
1092
330
A
100
AcDbEntity
  8
MODEL
  6
Continuous
100
AcDbLine
 10
884.0889457338694
 20
833.0426774514478
 30
0.0
 11
884.0889457338694
 21
833.1910343436164
 31
0.0
  0
LINE
  5
1093
330
A
100
AcDbEntity
  8
MODEL
  6
Continuous
100
AcDbLine
 10
878.0889484756831
 20
833.1910343436164
 30
0.0
 11
878.0889484756831
 21
833.0426774514478
 31
0.0
  0
LINE
  5
1094
330
A
100
AcDbEntity
  8
MODEL
  6
Continuous
100
AcDbLine
 10
878.0889484756831
 20
833.0426774514478
 30
0.0
 11
878.8389462703112
 21
832.2926777941746
 31
0.0
  0
LINE
  5
1095
330
A
100
AcDbEntity
  8
MODEL
  6
Continuous
100
AcDbLine
 10
883.3389479392413
 20
832.2926777941746
 30
0.0
 11
884.0889457338694
 21
833.0426774514478
 31
0.0
  0
LINE
  5
1096
330
A
100
AcDbEntity
  8
MODEL
  6
Continuous
100
AcDbLine
 10
963.5865103178862
 20
1057.020556141214
 30
0.0
 11
963.5599136078004
 21
1058.097820688562
 31
0.0
  0
LINE
  5
1097
330
A
100
AcDbEntity
  8
MODEL
  6
Continuous
100
AcDbLine
 10
873.5889485203866
 20
1011.871542741136
 30
0.0
 11
931.5889470004681
 21
1011.871542741136
 31
0.0
  0
LINE
  5
1098
330
A
100
AcDbEntity
  8
MODEL
  6
Continuous
100
AcDbLine
 10
935.107254582012
 20
1059.348192025499
 30
0.0
 11
873.5889485203866
 21
1059.348192025499
 31
0.0
  0
CIRCLE
  5
1099
330
A
100
AcDbEntity
  8
MODEL
  6
Continuous
100
AcDbCircle
 10
947.5889477604273
 20
844.6910343659681
 30
0.0
 40
16.00000000000009
  0
LINE
  5
109A
330
A
100
AcDbEntity
  8
MODEL
  6
Continuous
100
AcDbLine
 10
878.0889484756831
 20
833.0426774514478
 30
0.0
 11
884.0889457338694
 21
833.0426774514478
 31
0.0
  0
LINE
  5
109B
330
A
100
AcDbEntity
  8
MODEL
  6
Continuous
100
AcDbLine
 10
883.3389479392413
 20
832.2926777941746
 30
0.0
 11
878.8389462703112
 21
832.2926777941746
 31
0.0
  0
CIRCLE
  5
109C
330
A
100
AcDbEntity
  8
MODEL
  6
Continuous
100
AcDbCircle
 10
947.5889477604273
 20
844.6910343659681
 30
0.0
 40
15.48896447666408
  0
CIRCLE
  5
109D
330
A
100
AcDbEntity
  8
MODEL
  6
Continuous
100
AcDbCircle
 10
947.5889477604273
 20
844.6910343659681
 30
0.0
 40
15.97339935976578
  0
SPLINE
  5
109E
330
A
100
AcDbEntity
  8
MODEL
  6
Continuous
100
AcDbSpline
210
0.0
220
0.0
230
1.0
 70
     8
 71
     3
 72
    11
 73
     7
 74
     0
 42
0.000000001
 43
0.00000001
 40
0.0
 40
0.0
 40
0.0
 40
0.0
 40
0.2698169467443079
 40
0.5376057775141634
 40
0.8581905593389055
 40
1.0
 40
1.0
 40
1.0
 40
1.0
 10
936.1626619198564
 20
1028.18108718522
 30
0.0
 10
935.9220380918182
 20
1027.636171439934
 30
0.0
 10
935.4425991176472
 20
1026.550435883072
 30
0.0
 10
934.4061089093693
 20
1024.840299867446
 30
0.0
 10
933.5560043680707
 20
1023.465420957952
 30
0.0
 10
933.1065862155219
 20
1022.74831655966
 30
0.0
 10
932.9687563427929
 20
1022.528391290979
 30
0.0
  0
LINE
  5
109F
330
A
100
AcDbEntity
  8
MODEL
  6
Continuous
100
AcDbLine
 10
932.9687563427929
 20
1022.528391290979
 30
0.0
 11
873.5889485203866
 21
1022.528391290979
 31
0.0
  0
LINE
  5
10A0
330
A
100
AcDbEntity
  8
MODEL
  6
Continuous
100
AcDbLine
 10
873.5889485203866
 20
1029.599454213457
 30
0.0
 11
936.1626619198564
 21
1029.599454213457
 31
0.0
  0
LINE
  5
10A1
330
A
100
AcDbEntity
  8
MODEL
  6
Continuous
100
AcDbLine
 10
936.1626619198564
 20
1029.599454213457
 30
0.0
 11
936.1626619198564
 21
1028.18108718522
 31
0.0
  0
ARC
  5
10A3
330
A
100
AcDbEntity
  8
MODEL
  6
Continuous
100
AcDbCircle
 10
940.1990994137805
 20
1017.852580849606
 30
0.0
 40
8.610520553824278
100
AcDbArc
 50
147.1095440026148
 51
179.4701764238322
  0
SPLINE
  5
10A4
330
A
100
AcDbEntity
  8
MODEL
  6
Continuous
100
AcDbSpline
210
0.0
220
0.0
230
1.0
 70
     8
 71
     3
 72
     9
 73
     5
 74
     0
 42
0.000000001
 43
0.00000001
 40
0.0
 40
0.0
 40
0.0
 40
0.0
 40
0.7903590651861382
 40
1.0
 40
1.0
 40
1.0
 40
1.0
 10
935.107254582012
 20
1059.297364164667
 30
0.0
 10
935.4278602587033
 20
1059.276097322135
 30
0.0
 10
935.8335058580433
 20
1059.249189498249
 30
0.0
 10
936.1056164094803
 20
1058.942195401781
 30
0.0
 10
936.1626619198564
 20
1058.877836872415
 30
0.0
  0
LINE
  5
10A5
330
A
100
AcDbEntity
  8
MODEL
  6
Continuous
100
AcDbLine
 10
936.1626619198564
 20
1057.88373570569
 30
0.0
 11
873.5889485203866
 21
1057.88373570569
 31
0.0
  0
LINE
  5
10A6
330
A
100
AcDbEntity
  8
MODEL
  6
Continuous
100
AcDbLine
 10
936.1626619198564
 20
1057.88373570569
 30
0.0
 11
936.1626619198564
 21
1029.599454213457
 31
0.0
  0
LINE
  5
10AA
330
A
100
AcDbEntity
  8
MODEL
  6
Continuous
100
AcDbLine
 10
936.1626619198564
 20
1058.877836872415
 30
0.0
 11
936.1626619198564
 21
1057.88373570569
 31
0.0
  0
LINE
  5
10AD
330
A
100
AcDbEntity
  8
MODEL
  6
Continuous
100
AcDbLine
 10
932.9687563427929
 20
851.1910345000786
 30
0.0
 11
873.5889485203866
 21
851.1910345000786
 31
0.0
  0
LINE
  5
10AE
330
A
100
AcDbEntity
  8
MODEL
  6
Continuous
100
AcDbLine
 10
873.5889485203866
 20
838.1910342318577
 30
0.0
 11
932.9687563427929
 21
838.1910342318577
 31
0.0
  0
LINE
  5
10AF
330
A
100
AcDbEntity
  8
MODEL
  6
Continuous
100
AcDbLine
 10
936.1626619198564
 20
833.4910347653192
 30
0.0
 11
936.1626619198564
 21
833.1910343436164
 31
0.0
  0
LINE
  5
10B0
330
A
100
AcDbEntity
  8
MODEL
  6
Continuous
100
AcDbLine
 10
936.1626619198564
 20
833.1910343436164
 30
0.0
 11
873.5889485203866
 21
833.1910343436164
 31
0.0
  0
LINE
  5
10B3
330
A
100
AcDbEntity
  8
MODEL
  6
Continuous
100
AcDbLine
 10
873.5889485203866
 20
856.1910343883198
 30
0.0
 11
936.1626619198564
 21
856.1910343883198
 31
0.0
  0
LINE
  5
10B4
330
A
100
AcDbEntity
  8
MODEL
  6
Continuous
100
AcDbLine
 10
936.1626619198564
 20
856.1910343883198
 30
0.0
 11
936.1626619198564
 21
855.891033966617
 31
0.0
  0
LINE
  5
10B5
330
A
100
AcDbEntity
  8
MODEL
  6
Continuous
100
AcDbLine
 10
873.5889485203866
 20
1013.335999060945
 30
0.0
 11
931.5889470004681
 21
1013.335999060945
 31
0.0
  0
LINE
  5
10B8
330
A
100
AcDbEntity
  8
MODEL
  6
CENTER
 48
0.05
100
AcDbLine
 10
881.0889477604246
 20
843.0426776135262
 30
0.0
 11
881.0889477604246
 21
822.2926776135262
 31
0.0
  0
LINE
  5
10B9
330
A
100
AcDbEntity
  8
MODEL
  6
CENTER
 48
0.05
100
AcDbLine
 10
881.0889477604264
 20
1037.373233237003
 30
0.0
 11
881.0889477604264
 21
1016.842903151114
 31
0.0
  0
LINE
  5
10BA
330
A
100
AcDbEntity
  8
MODEL
  6
Continuous
100
AcDbLine
 10
728.8774367372457
 20
1056.823071051912
 30
0.0
 11
730.5636521379415
 21
1055.136840750055
 31
0.0
  0
LINE
  5
10BB
330
A
100
AcDbEntity
  8
MODEL
  6
Continuous
100
AcDbLine
 10
730.5636521379415
 20
1055.136840750055
 30
0.0
 11
732.2122123043005
 21
1053.488295484857
 31
0.0
  0
LINE
  5
10BC
330
A
100
AcDbEntity
  8
MODEL
  6
Continuous
100
AcDbLine
 10
732.2122123043005
 20
1053.488295484857
 30
0.0
 11
733.7862666646902
 21
1051.914241124467
 31
0.0
  0
LINE
  5
10BD
330
A
100
AcDbEntity
  8
MODEL
  6
Continuous
100
AcDbLine
 10
733.7862666646902
 20
1051.914241124467
 30
0.0
 11
735.2506782810156
 21
1050.449829508142
 31
0.0
  0
LINE
  5
10BE
330
A
100
AcDbEntity
  8
MODEL
  6
Continuous
100
AcDbLine
 10
735.2506782810156
 20
1050.449829508142
 30
0.0
 11
736.5727093021337
 21
1049.127798487024
 31
0.0
  0
LINE
  5
10BF
330
A
100
AcDbEntity
  8
MODEL
  6
Continuous
100
AcDbLine
 10
736.5727093021337
 20
1049.127798487024
 30
0.0
 11
737.7228405277197
 21
1047.977652360277
 31
0.0
  0
LINE
  5
10C0
330
A
100
AcDbEntity
  8
MODEL
  6
Continuous
100
AcDbLine
 10
737.7228405277197
 20
1047.977652360277
 30
0.0
 11
738.6753972570364
 21
1047.025110532121
 31
0.0
  0
LINE
  5
10C1
330
A
100
AcDbEntity
  8
MODEL
  6
Continuous
100
AcDbLine
 10
738.6753972570364
 20
1047.025110532121
 30
0.0
 11
739.4090708295766
 21
1046.291436959581
 31
0.0
  0
LINE
  5
10C2
330
A
100
AcDbEntity
  8
MODEL
  6
Continuous
100
AcDbLine
 10
739.4090708295766
 20
1046.291436959581
 30
0.0
 11
739.9074848691885
 21
1045.793022919969
 31
0.0
  0
LINE
  5
10C3
330
A
100
AcDbEntity
  8
MODEL
  6
Continuous
100
AcDbLine
 10
739.9074848691885
 20
1045.793022919969
 30
0.0
 11
740.15950820846
 21
1045.540999580697
 31
0.0
  0
LINE
  5
10C4
330
A
100
AcDbEntity
  8
MODEL
  6
Continuous
100
AcDbLine
 10
740.15950820846
 20
1045.540999580697
 30
0.0
 11
740.1911433736745
 21
1045.509364415483
 31
0.0
  0
LINE
  5
10C5
330
A
100
AcDbEntity
  8
MODEL
  6
Continuous
100
AcDbLine
 10
717.5637301008169
 20
1068.136777688341
 30
0.0
 11
717.5953652660314
 21
1068.105142523126
 31
0.0
  0
LINE
  5
10C6
330
A
100
AcDbEntity
  8
MODEL
  6
Continuous
100
AcDbLine
 10
717.5953652660314
 20
1068.105142523126
 30
0.0
 11
717.847388605303
 21
1067.853119183854
 31
0.0
  0
LINE
  5
10C7
330
A
100
AcDbEntity
  8
MODEL
  6
Continuous
100
AcDbLine
 10
717.847388605303
 20
1067.853119183854
 30
0.0
 11
718.3458026449148
 21
1067.354705144243
 31
0.0
  0
LINE
  5
10C8
330
A
100
AcDbEntity
  8
MODEL
  6
Continuous
100
AcDbLine
 10
718.3458026449148
 20
1067.354705144243
 30
0.0
 11
719.0794762174551
 21
1066.621031571702
 31
0.0
  0
LINE
  5
10C9
330
A
100
AcDbEntity
  8
MODEL
  6
Continuous
100
AcDbLine
 10
719.0794762174551
 20
1066.621031571702
 30
0.0
 11
720.0320180456106
 21
1065.668474842386
 31
0.0
  0
LINE
  5
10CA
330
A
100
AcDbEntity
  8
MODEL
  6
Continuous
100
AcDbLine
 10
720.0320180456106
 20
1065.668474842386
 30
0.0
 11
721.1821641723577
 21
1064.5183436168
 31
0.0
  0
LINE
  5
10CB
330
A
100
AcDbEntity
  8
MODEL
  6
Continuous
100
AcDbLine
 10
721.1821641723577
 20
1064.5183436168
 30
0.0
 11
722.5041951934759
 21
1063.196312595682
 31
0.0
  0
LINE
  5
10CC
330
A
100
AcDbEntity
  8
MODEL
  6
Continuous
100
AcDbLine
 10
722.5041951934759
 20
1063.196312595682
 30
0.0
 11
723.9686068098013
 21
1061.731900979356
 31
0.0
  0
LINE
  5
10CD
330
A
100
AcDbEntity
  8
MODEL
  6
Continuous
100
AcDbLine
 10
723.9686068098013
 20
1061.731900979356
 30
0.0
 11
725.542661170191
 21
1060.157846618966
 31
0.0
  0
LINE
  5
10CE
330
A
100
AcDbEntity
  8
MODEL
  6
Continuous
100
AcDbLine
 10
725.542661170191
 20
1060.157846618966
 30
0.0
 11
727.1912064353887
 21
1058.509286452608
 31
0.0
  0
LINE
  5
10CF
330
A
100
AcDbEntity
  8
MODEL
  6
Continuous
100
AcDbLine
 10
727.1912064353887
 20
1058.509286452608
 30
0.0
 11
728.8774367372457
 21
1056.823071051912
 31
0.0
  0
LINE
  5
10D0
330
A
100
AcDbEntity
  8
MODEL
  6
Continuous
100
AcDbLine
 10
550.0261004964773
 20
855.3443168816727
 30
0.0
 11
549.8997349242632
 21
855.4706824538869
 31
0.0
  0
LINE
  5
10D1
330
A
100
AcDbEntity
  8
MODEL
  6
Continuous
100
AcDbLine
 10
549.8997349242632
 20
855.4706824538869
 30
0.0
 11
549.523461977667
 21
855.8469535378379
 31
0.0
  0
LINE
  5
10D2
330
A
100
AcDbEntity
  8
MODEL
  6
Continuous
100
AcDbLine
 10
549.523461977667
 20
855.8469535378379
 30
0.0
 11
548.9056896368925
 21
856.464726809935
 31
0.0
  0
LINE
  5
10D3
330
A
100
AcDbEntity
  8
MODEL
  6
Continuous
100
AcDbLine
 10
548.9056896368925
 20
856.464726809935
 30
0.0
 11
548.060216377205
 21
857.310201000945
 31
0.0
  0
LINE
  5
10D4
330
A
100
AcDbEntity
  8
MODEL
  6
Continuous
100
AcDbLine
 10
548.060216377205
 20
857.310201000945
 30
0.0
 11
547.005927557773
 21
858.3644907516998
 31
0.0
  0
LINE
  5
10D5
330
A
100
AcDbEntity
  8
MODEL
  6
Continuous
100
AcDbLine
 10
547.005927557773
 20
858.3644907516998
 30
0.0
 11
545.7663726012174
 21
859.60404384561
 31
0.0
  0
LINE
  5
10D6
330
A
100
AcDbEntity
  8
MODEL
  6
Continuous
100
AcDbLine
 10
545.7663726012174
 20
859.60404384561
 30
0.0
 11
544.3692453156177
 21
861.0011711312097
 31
0.0
  0
LINE
  5
10D7
330
A
100
AcDbEntity
  8
MODEL
  6
Continuous
100
AcDbLine
 10
544.3692453156177
 20
861.0011711312097
 30
0.0
 11
542.8457524578039
 21
862.5246639890236
 31
0.0
  0
LINE
  5
10D8
330
A
100
AcDbEntity
  8
MODEL
  6
Continuous
100
AcDbLine
 10
542.8457524578039
 20
862.5246639890236
 30
0.0
 11
541.2299282799427
 21
864.1404881668848
 31
0.0
  0
LINE
  5
10D9
330
A
100
AcDbEntity
  8
MODEL
  6
Continuous
100
AcDbLine
 10
541.2299282799427
 20
864.1404881668848
 30
0.0
 11
539.5578652570907
 21
865.8125511897367
 31
0.0
  0
LINE
  5
10DA
330
A
100
AcDbEntity
  8
MODEL
  6
Continuous
100
AcDbLine
 10
539.5578652570907
 20
865.8125511897367
 30
0.0
 11
537.8669168750707
 21
867.5034995717567
 31
0.0
  0
LINE
  5
10DB
330
A
100
AcDbEntity
  8
MODEL
  6
Continuous
100
AcDbLine
 10
537.8669168750707
 20
867.5034995717567
 30
0.0
 11
536.1948538522188
 21
869.1755625946087
 31
0.0
  0
LINE
  5
10DC
330
A
100
AcDbEntity
  8
MODEL
  6
Continuous
100
AcDbLine
 10
536.1948538522188
 20
869.1755625946087
 30
0.0
 11
534.5790296743578
 21
870.7913867724699
 31
0.0
  0
LINE
  5
10DD
330
A
100
AcDbEntity
  8
MODEL
  6
Continuous
100
AcDbLine
 10
534.5790296743578
 20
870.7913867724699
 30
0.0
 11
533.0555368165437
 21
872.3148796302837
 31
0.0
  0
LINE
  5
10DE
330
A
100
AcDbEntity
  8
MODEL
  6
Continuous
100
AcDbLine
 10
533.0555368165437
 20
872.3148796302837
 30
0.0
 11
531.658409530944
 21
873.7120069158834
 31
0.0
  0
LINE
  5
10DF
330
A
100
AcDbEntity
  8
MODEL
  6
Continuous
100
AcDbLine
 10
531.658409530944
 20
873.7120069158834
 30
0.0
 11
530.4188564370338
 21
874.9515618724388
 31
0.0
  0
LINE
  5
10E0
330
A
100
AcDbEntity
  8
MODEL
  6
Continuous
100
AcDbLine
 10
530.4188564370338
 20
874.9515618724388
 30
0.0
 11
529.364566686279
 21
876.005850691871
 31
0.0
  0
LINE
  5
10E1
330
A
100
AcDbEntity
  8
MODEL
  6
Continuous
100
AcDbLine
 10
529.364566686279
 20
876.005850691871
 30
0.0
 11
528.519092495269
 21
876.8513239515585
 31
0.0
  0
LINE
  5
10E2
330
A
100
AcDbEntity
  8
MODEL
  6
Continuous
100
AcDbLine
 10
528.519092495269
 20
876.8513239515585
 30
0.0
 11
527.9013192231719
 21
877.469096292333
 31
0.0
  0
LINE
  5
10E3
330
A
100
AcDbEntity
  8
MODEL
  6
Continuous
100
AcDbLine
 10
527.9013192231719
 20
877.469096292333
 30
0.0
 11
527.5250481392211
 21
877.8453692389292
 31
0.0
  0
LINE
  5
10E4
330
A
100
AcDbEntity
  8
MODEL
  6
Continuous
100
AcDbLine
 10
527.5250481392211
 20
877.8453692389292
 30
0.0
 11
527.3986825670067
 21
877.9717348111433
 31
0.0
  0
LINE
  5
10E5
330
A
100
AcDbEntity
  8
MODEL
  6
Continuous
100
AcDbLine
 10
527.3986825670067
 20
877.9717348111433
 30
0.0
 11
527.3986825670067
 21
877.9717348111433
 31
0.0
  0
LINE
  5
10E6
330
A
100
AcDbEntity
  8
MODEL
  6
Continuous
100
AcDbLine
 10
729.95502911014
 20
1057.900663424806
 30
0.0
 11
728.2716151277486
 21
1059.584077407197
 31
0.0
  0
LINE
  5
10E7
330
A
100
AcDbEntity
  8
MODEL
  6
Continuous
100
AcDbLine
 10
728.2716151277486
 20
1059.584077407197
 30
0.0
 11
726.6257967750494
 21
1061.229895759897
 31
0.0
  0
LINE
  5
10E8
330
A
100
AcDbEntity
  8
MODEL
  6
Continuous
100
AcDbLine
 10
726.6257967750494
 20
1061.229895759897
 30
0.0
 11
725.0543501178686
 21
1062.801342417077
 31
0.0
  0
LINE
  5
10E9
330
A
100
AcDbEntity
  8
MODEL
  6
Continuous
100
AcDbLine
 10
725.0543501178686
 20
1062.801342417077
 30
0.0
 11
723.592382291979
 21
1064.263310242967
 31
0.0
  0
LINE
  5
10EA
330
A
100
AcDbEntity
  8
MODEL
  6
Continuous
100
AcDbLine
 10
723.592382291979
 20
1064.263310242967
 30
0.0
 11
722.2725417415563
 21
1065.58315079339
 31
0.0
  0
LINE
  5
10EB
330
A
100
AcDbEntity
  8
MODEL
  6
Continuous
100
AcDbLine
 10
722.2725417415563
 20
1065.58315079339
 30
0.0
 11
721.1243178646032
 21
1066.731374670343
 31
0.0
  0
LINE
  5
10EC
330
A
100
AcDbEntity
  8
MODEL
  6
Continuous
100
AcDbLine
 10
721.1243178646032
 20
1066.731374670343
 30
0.0
 11
720.1733555595342
 21
1067.682336975412
 31
0.0
  0
LINE
  5
10ED
330
A
100
AcDbEntity
  8
MODEL
  6
Continuous
100
AcDbLine
 10
720.1733555595342
 20
1067.682336975412
 30
0.0
 11
719.4409038822118
 21
1068.414788652734
 31
0.0
  0
LINE
  5
10EE
330
A
100
AcDbEntity
  8
MODEL
  6
Continuous
100
AcDbLine
 10
719.4409038822118
 20
1068.414788652734
 30
0.0
 11
718.9433243076269
 21
1068.91238312848
 31
0.0
  0
LINE
  5
10EF
330
A
100
AcDbEntity
  8
MODEL
  6
Continuous
100
AcDbLine
 10
718.9433243076269
 20
1068.91238312848
 30
0.0
 11
718.6917182008688
 21
1069.163974334077
 31
0.0
  0
LINE
  5
10F0
330
A
100
AcDbEntity
  8
MODEL
  6
Continuous
100
AcDbLine
 10
718.6917182008688
 20
1069.163974334077
 30
0.0
 11
718.6601277391378
 21
1069.195564795808
 31
0.0
  0
LINE
  5
10F1
330
A
100
AcDbEntity
  8
MODEL
  6
Continuous
100
AcDbLine
 10
741.2499304811422
 20
1046.605762053804
 30
0.0
 11
741.2183400194112
 21
1046.637352515535
 31
0.0
  0
LINE
  5
10F2
330
A
100
AcDbEntity
  8
MODEL
  6
Continuous
100
AcDbLine
 10
741.2183400194112
 20
1046.637352515535
 30
0.0
 11
740.9667488138143
 21
1046.888958622293
 31
0.0
  0
LINE
  5
10F3
330
A
100
AcDbEntity
  8
MODEL
  6
Continuous
100
AcDbLine
 10
740.9667488138143
 20
1046.888958622293
 30
0.0
 11
740.4691543380682
 21
1047.386538196878
 31
0.0
  0
LINE
  5
10F4
330
A
100
AcDbEntity
  8
MODEL
  6
Continuous
100
AcDbLine
 10
740.4691543380682
 20
1047.386538196878
 30
0.0
 11
739.7367026607458
 21
1048.1189898742
 31
0.0
  0
LINE
  5
10F5
330
A
100
AcDbEntity
  8
MODEL
  6
Continuous
100
AcDbLine
 10
739.7367026607458
 20
1048.1189898742
 30
0.0
 11
738.7857403556768
 21
1049.069952179269
 31
0.0
  0
LINE
  5
10F6
330
A
100
AcDbEntity
  8
MODEL
  6
Continuous
100
AcDbLine
 10
738.7857403556768
 20
1049.069952179269
 30
0.0
 11
737.6375164787237
 21
1050.218176056222
 31
0.0
  0
LINE
  5
10F7
330
A
100
AcDbEntity
  8
MODEL
  6
Continuous
100
AcDbLine
 10
737.6375164787237
 20
1050.218176056222
 30
0.0
 11
736.317675928301
 21
1051.538016606645
 31
0.0
  0
LINE
  5
10F8
330
A
100
AcDbEntity
  8
MODEL
  6
Continuous
100
AcDbLine
 10
736.317675928301
 20
1051.538016606645
 30
0.0
 11
734.8557081024114
 21
1052.999984432535
 31
0.0
  0
LINE
  5
10F9
330
A
100
AcDbEntity
  8
MODEL
  6
Continuous
100
AcDbLine
 10
734.8557081024114
 20
1052.999984432535
 30
0.0
 11
733.2842614452306
 21
1054.571431089715
 31
0.0
  0
LINE
  5
10FA
330
A
100
AcDbEntity
  8
MODEL
  6
Continuous
100
AcDbLine
 10
733.2842614452306
 20
1054.571431089715
 30
0.0
 11
731.6384430925314
 21
1056.217249442415
 31
0.0
  0
LINE
  5
10FB
330
A
100
AcDbEntity
  8
MODEL
  6
Continuous
100
AcDbLine
 10
731.6384430925314
 20
1056.217249442415
 30
0.0
 11
729.95502911014
 21
1057.900663424806
 31
0.0
  0
LINE
  5
10FC
330
A
100
AcDbEntity
  8
MODEL
  6
Continuous
100
AcDbLine
 10
719.3498875896398
 20
1069.200228859262
 30
0.0
 11
719.42215822143
 21
1069.127973128633
 31
0.0
  0
LINE
  5
10FD
330
A
100
AcDbEntity
  8
MODEL
  6
Continuous
100
AcDbLine
 10
719.42215822143
 20
1069.127973128633
 30
0.0
 11
719.741400698847
 21
1068.808715750055
 31
0.0
  0
LINE
  5
10FE
330
A
100
AcDbEntity
  8
MODEL
  6
Continuous
100
AcDbLine
 10
719.741400698847
 20
1068.808715750055
 30
0.0
 11
720.3081812660162
 21
1068.241935182886
 31
0.0
  0
LINE
  5
10FF
330
A
100
AcDbEntity
  8
MODEL
  6
Continuous
100
AcDbLine
 10
720.3081812660162
 20
1068.241935182886
 30
0.0
 11
721.1092229883138
 21
1067.440908361749
 31
0.0
  0
LINE
  5
1100
330
A
100
AcDbEntity
  8
MODEL
  6
Continuous
100
AcDbLine
 10
721.1092229883138
 20
1067.440908361749
 30
0.0
 11
722.1257355014745
 21
1066.424395848588
 31
0.0
  0
LINE
  5
1101
330
A
100
AcDbEntity
  8
MODEL
  6
Continuous
100
AcDbLine
 10
722.1257355014745
 20
1066.424395848588
 30
0.0
 11
723.3338918487493
 21
1065.216224600152
 31
0.0
  0
LINE
  5
1102
330
A
100
AcDbEntity
  8
MODEL
  6
Continuous
100
AcDbLine
 10
723.3338918487493
 20
1065.216224600152
 30
0.0
 11
724.7053798238699
 21
1063.844736625032
 31
0.0
  0
LINE
  5
1103
330
A
100
AcDbEntity
  8
MODEL
  6
Continuous
100
AcDbLine
 10
724.7053798238699
 20
1063.844736625032
 30
0.0
 11
726.2080725233022
 21
1062.342058826761
 31
0.0
  0
LINE
  5
1104
330
A
100
AcDbEntity
  8
MODEL
  6
Continuous
100
AcDbLine
 10
726.2080725233022
 20
1062.342058826761
 30
0.0
 11
727.8067137996618
 21
1060.74340264924
 31
0.0
  0
LINE
  5
1105
330
A
100
AcDbEntity
  8
MODEL
  6
Continuous
100
AcDbLine
 10
727.8067137996618
 20
1060.74340264924
 30
0.0
 11
729.4638421337072
 21
1059.086274315194
 31
0.0
  0
LINE
  5
1106
330
A
100
AcDbEntity
  8
MODEL
  6
Continuous
100
AcDbLine
 10
729.4638421337072
 20
1059.086274315194
 30
0.0
 11
731.1406400005285
 21
1057.409476448373
 31
0.0
  0
LINE
  5
1107
330
A
100
AcDbEntity
  8
MODEL
  6
Continuous
100
AcDbLine
 10
731.1406400005285
 20
1057.409476448373
 30
0.0
 11
732.7977683345739
 21
1055.752348114328
 31
0.0
  0
LINE
  5
1108
330
A
100
AcDbEntity
  8
MODEL
  6
Continuous
100
AcDbLine
 10
732.7977683345739
 20
1055.752348114328
 30
0.0
 11
734.3964245120947
 21
1054.153706837968
 31
0.0
  0
LINE
  5
1109
330
A
100
AcDbEntity
  8
MODEL
  6
Continuous
100
AcDbLine
 10
734.3964245120947
 20
1054.153706837968
 30
0.0
 11
735.8991023103658
 21
1052.651014138536
 31
0.0
  0
LINE
  5
110A
330
A
100
AcDbEntity
  8
MODEL
  6
Continuous
100
AcDbLine
 10
735.8991023103658
 20
1052.651014138536
 30
0.0
 11
737.2705902854864
 21
1051.279526163415
 31
0.0
  0
LINE
  5
110B
330
A
100
AcDbEntity
  8
MODEL
  6
Continuous
100
AcDbLine
 10
737.2705902854864
 20
1051.279526163415
 30
0.0
 11
738.4787615339224
 21
1050.071369816141
 31
0.0
  0
LINE
  5
110C
330
A
100
AcDbEntity
  8
MODEL
  6
Continuous
100
AcDbLine
 10
738.4787615339224
 20
1050.071369816141
 30
0.0
 11
739.4952740470831
 21
1049.05485730298
 31
0.0
  0
LINE
  5
110D
330
A
100
AcDbEntity
  8
MODEL
  6
Continuous
100
AcDbLine
 10
739.4952740470831
 20
1049.05485730298
 30
0.0
 11
740.2963008682195
 21
1048.253815580682
 31
0.0
  0
LINE
  5
110E
330
A
100
AcDbEntity
  8
MODEL
  6
Continuous
100
AcDbLine
 10
740.2963008682195
 20
1048.253815580682
 30
0.0
 11
740.8630814353887
 21
1047.687035013513
 31
0.0
  0
LINE
  5
110F
330
A
100
AcDbEntity
  8
MODEL
  6
Continuous
100
AcDbLine
 10
740.8630814353887
 20
1047.687035013513
 30
0.0
 11
741.1823388139669
 21
1047.367792536096
 31
0.0
  0
LINE
  5
1110
330
A
100
AcDbEntity
  8
MODEL
  6
Continuous
100
AcDbLine
 10
741.1823388139669
 20
1047.367792536096
 30
0.0
 11
741.2545945445959
 21
1047.295521904306
 31
0.0
  0
LINE
  5
111B
330
A
100
AcDbEntity
  8
MODEL
  6
Continuous
100
AcDbLine
 10
947.5889477604273
 20
1068.136777688341
 30
0.0
 11
945.2042713952455
 21
1068.010415841417
 31
0.0
  0
LINE
  5
111C
330
A
100
AcDbEntity
  8
MODEL
  6
Continuous
100
AcDbLine
 10
945.2042713952455
 20
1068.010415841417
 30
0.0
 11
942.8728648186866
 21
1067.634146620111
 31
0.0
  0
LINE
  5
111D
330
A
100
AcDbEntity
  8
MODEL
  6
Continuous
100
AcDbLine
 10
942.8728648186866
 20
1067.634146620111
 30
0.0
 11
940.6468078219536
 21
1067.016374279336
 31
0.0
  0
LINE
  5
111E
330
A
100
AcDbEntity
  8
MODEL
  6
Continuous
100
AcDbLine
 10
940.6468078219536
 20
1067.016374279336
 30
0.0
 11
938.5758267441038
 21
1066.170897294359
 31
0.0
  0
LINE
  5
111F
330
A
100
AcDbEntity
  8
MODEL
  6
Continuous
100
AcDbLine
 10
938.5758267441038
 20
1066.170897294359
 30
0.0
 11
936.7061836370472
 21
1065.116610337572
 31
0.0
  0
LINE
  5
1120
330
A
100
AcDbEntity
  8
MODEL
  6
Continuous
100
AcDbLine
 10
936.7061836370472
 20
1065.116610337572
 30
0.0
 11
935.0796436616424
 21
1063.877057243661
 31
0.0
  0
LINE
  5
1121
330
A
100
AcDbEntity
  8
MODEL
  6
Continuous
100
AcDbLine
 10
935.0796436616424
 20
1063.877057243661
 30
0.0
 11
933.7325414368156
 21
1062.479924370126
 31
0.0
  0
LINE
  5
1122
330
A
100
AcDbEntity
  8
MODEL
  6
Continuous
100
AcDbLine
 10
933.7325414368156
 20
1062.479924370126
 30
0.0
 11
932.6949679949525
 21
1060.956429649667
 31
0.0
  0
LINE
  5
1123
330
A
100
AcDbEntity
  8
MODEL
  6
Continuous
100
AcDbLine
 10
932.6949679949525
 20
1060.956429649667
 30
0.0
 11
931.9925551959518
 21
1059.348192025499
 31
0.0
  0
LINE
  5
1124
330
A
100
AcDbEntity
  8
MODEL
  6
Continuous
100
AcDbLine
 10
963.5889485203866
 20
1056.823071051912
 30
0.0
 11
963.544207783902
 21
1057.668548036889
 31
0.0
  0
LINE
  5
1125
330
A
100
AcDbEntity
  8
MODEL
  6
Continuous
100
AcDbLine
 10
963.544207783902
 20
1057.668548036889
 30
0.0
 11
963.187794359887
 21
1059.340607334451
 31
0.0
  0
LINE
  5
1126
330
A
100
AcDbEntity
  8
MODEL
  6
Continuous
100
AcDbLine
 10
963.187794359887
 20
1059.340607334451
 30
0.0
 11
962.4829275259021
 21
1060.956429649667
 31
0.0
  0
LINE
  5
1127
330
A
100
AcDbEntity
  8
MODEL
  6
Continuous
100
AcDbLine
 10
962.4829275259021
 20
1060.956429649667
 30
0.0
 11
961.4453540840391
 21
1062.479924370126
 31
0.0
  0
LINE
  5
1128
330
A
100
AcDbEntity
  8
MODEL
  6
Continuous
100
AcDbLine
 10
961.4453540840391
 20
1062.479924370126
 30
0.0
 11
960.0982518592123
 21
1063.877057243661
 31
0.0
  0
LINE
  5
1129
330
A
100
AcDbEntity
  8
MODEL
  6
Continuous
100
AcDbLine
 10
960.0982518592123
 20
1063.877057243661
 30
0.0
 11
958.4717118838075
 21
1065.116610337572
 31
0.0
  0
LINE
  5
112A
330
A
100
AcDbEntity
  8
MODEL
  6
Continuous
100
AcDbLine
 10
958.4717118838075
 20
1065.116610337572
 30
0.0
 11
956.6020687767509
 21
1066.170897294359
 31
0.0
  0
LINE
  5
112B
330
A
100
AcDbEntity
  8
MODEL
  6
Continuous
100
AcDbLine
 10
956.6020687767509
 20
1066.170897294359
 30
0.0
 11
954.531087698901
 21
1067.016374279336
 31
0.0
  0
LINE
  5
112C
330
A
100
AcDbEntity
  8
MODEL
  6
Continuous
100
AcDbLine
 10
954.531087698901
 20
1067.016374279336
 30
0.0
 11
952.3050307021681
 21
1067.634146620111
 31
0.0
  0
LINE
  5
112D
330
A
100
AcDbEntity
  8
MODEL
  6
Continuous
100
AcDbLine
 10
952.3050307021681
 20
1067.634146620111
 30
0.0
 11
949.9736241256091
 21
1068.010415841417
 31
0.0
  0
LINE
  5
112E
330
A
100
AcDbEntity
  8
MODEL
  6
Continuous
100
AcDbLine
 10
949.9736241256091
 20
1068.010415841417
 30
0.0
 11
947.5889477604273
 21
1068.136777688341
 31
0.0
  0
LINE
  5
112F
330
A
100
AcDbEntity
  8
MODEL
  6
Continuous
100
AcDbLine
 10
931.9925551959518
 20
1059.348192025499
 30
0.0
 11
932.2997826808337
 21
1060.157846618966
 31
0.0
  0
LINE
  5
1130
330
A
100
AcDbEntity
  8
MODEL
  6
Continuous
100
AcDbLine
 10
932.2997826808337
 20
1060.157846618966
 30
0.0
 11
933.1734461435321
 21
1061.731900979356
 31
0.0
  0
LINE
  5
1131
330
A
100
AcDbEntity
  8
MODEL
  6
Continuous
100
AcDbLine
 10
933.1734461435321
 20
1061.731900979356
 30
0.0
 11
934.36912742492
 21
1063.196312595682
 31
0.0
  0
LINE
  5
1132
330
A
100
AcDbEntity
  8
MODEL
  6
Continuous
100
AcDbLine
 10
934.36912742492
 20
1063.196312595682
 30
0.0
 11
935.8601180562023
 21
1064.5183436168
 31
0.0
  0
LINE
  5
1133
330
A
100
AcDbEntity
  8
MODEL
  6
Continuous
100
AcDbLine
 10
935.8601180562023
 20
1064.5183436168
 30
0.0
 11
937.6131111481432
 21
1065.668474842386
 31
0.0
  0
LINE
  5
1134
330
A
100
AcDbEntity
  8
MODEL
  6
Continuous
100
AcDbLine
 10
937.6131111481432
 20
1065.668474842386
 30
0.0
 11
939.5889473804477
 21
1066.621031571702
 31
0.0
  0
LINE
  5
1135
330
A
100
AcDbEntity
  8
MODEL
  6
Continuous
100
AcDbLine
 10
939.5889473804477
 20
1066.621031571702
 30
0.0
 11
941.743491376305
 21
1067.354705144243
 31
0.0
  0
LINE
  5
1136
330
A
100
AcDbEntity
  8
MODEL
  6
Continuous
100
AcDbLine
 10
941.743491376305
 20
1067.354705144243
 30
0.0
 11
944.02861285072
 21
1067.853119183854
 31
0.0
  0
LINE
  5
1137
330
A
100
AcDbEntity
  8
MODEL
  6
Continuous
100
AcDbLine
 10
944.02861285072
 20
1067.853119183854
 30
0.0
 11
946.3932662462089
 21
1068.105142523126
 31
0.0
  0
LINE
  5
1138
330
A
100
AcDbEntity
  8
MODEL
  6
Continuous
100
AcDbLine
 10
946.3932662462089
 20
1068.105142523126
 30
0.0
 11
948.7846292746458
 21
1068.105142523126
 31
0.0
  0
LINE
  5
1139
330
A
100
AcDbEntity
  8
MODEL
  6
Continuous
100
AcDbLine
 10
948.7846292746458
 20
1068.105142523126
 30
0.0
 11
951.1492826701347
 21
1067.853119183854
 31
0.0
  0
LINE
  5
113A
330
A
100
AcDbEntity
  8
MODEL
  6
Continuous
100
AcDbLine
 10
951.1492826701347
 20
1067.853119183854
 30
0.0
 11
953.4344041445497
 21
1067.354705144243
 31
0.0
  0
LINE
  5
113B
330
A
100
AcDbEntity
  8
MODEL
  6
Continuous
100
AcDbLine
 10
953.4344041445497
 20
1067.354705144243
 30
0.0
 11
955.588948140407
 21
1066.621031571702
 31
0.0
  0
LINE
  5
113C
330
A
100
AcDbEntity
  8
MODEL
  6
Continuous
100
AcDbLine
 10
955.588948140407
 20
1066.621031571702
 30
0.0
 11
957.5647843727115
 21
1065.668474842386
 31
0.0
  0
LINE
  5
113D
330
A
100
AcDbEntity
  8
MODEL
  6
Continuous
100
AcDbLine
 10
957.5647843727115
 20
1065.668474842386
 30
0.0
 11
959.3177774646524
 21
1064.5183436168
 31
0.0
  0
LINE
  5
113E
330
A
100
AcDbEntity
  8
MODEL
  6
Continuous
100
AcDbLine
 10
959.3177774646524
 20
1064.5183436168
 30
0.0
 11
960.8087680959347
 21
1063.196312595682
 31
0.0
  0
LINE
  5
113F
330
A
100
AcDbEntity
  8
MODEL
  6
Continuous
100
AcDbLine
 10
960.8087680959347
 20
1063.196312595682
 30
0.0
 11
962.0044493773225
 21
1061.731900979356
 31
0.0
  0
LINE
  5
1140
330
A
100
AcDbEntity
  8
MODEL
  6
Continuous
100
AcDbLine
 10
962.0044493773225
 20
1061.731900979356
 30
0.0
 11
962.878112840021
 21
1060.157846618966
 31
0.0
  0
LINE
  5
1141
330
A
100
AcDbEntity
  8
MODEL
  6
Continuous
100
AcDbLine
 10
962.878112840021
 20
1060.157846618966
 30
0.0
 11
963.4102407568339
 21
1058.509286452608
 31
0.0
  0
LINE
  5
1142
330
A
100
AcDbEntity
  8
MODEL
  6
Continuous
100
AcDbLine
 10
963.4102407568339
 20
1058.509286452608
 30
0.0
 11
963.5889485203866
 21
1056.823071051912
 31
0.0
  0
LINE
  5
1143
330
A
100
AcDbEntity
  8
MODEL
  6
Continuous
100
AcDbLine
 10
963.5599136078004
 20
1058.097820688562
 30
0.0
 11
963.3839383446816
 21
1059.584077407197
 31
0.0
  0
LINE
  5
1144
330
A
100
AcDbEntity
  8
MODEL
  6
Continuous
100
AcDbLine
 10
963.3839383446816
 20
1059.584077407197
 30
0.0
 11
962.852694252992
 21
1061.229895759897
 31
0.0
  0
LINE
  5
1145
330
A
100
AcDbEntity
  8
MODEL
  6
Continuous
100
AcDbLine
 10
962.852694252992
 20
1061.229895759897
 30
0.0
 11
961.98048365351
 21
1062.801342417077
 31
0.0
  0
LINE
  5
1146
330
A
100
AcDbEntity
  8
MODEL
  6
Continuous
100
AcDbLine
 10
961.98048365351
 20
1062.801342417077
 30
0.0
 11
960.7867898144964
 21
1064.263310242967
 31
0.0
  0
LINE
  5
1147
330
A
100
AcDbEntity
  8
MODEL
  6
Continuous
100
AcDbLine
 10
960.7867898144964
 20
1064.263310242967
 30
0.0
 11
959.2982783639077
 21
1065.58315079339
 31
0.0
  0
LINE
  5
1148
330
A
100
AcDbEntity
  8
MODEL
  6
Continuous
100
AcDbLine
 10
959.2982783639077
 20
1065.58315079339
 30
0.0
 11
957.5481993803028
 21
1066.731374670343
 31
0.0
  0
LINE
  5
1149
330
A
100
AcDbEntity
  8
MODEL
  6
Continuous
100
AcDbLine
 10
957.5481993803028
 20
1066.731374670343
 30
0.0
 11
955.5756469913963
 21
1067.682336975412
 31
0.0
  0
LINE
  5
114A
330
A
100
AcDbEntity
  8
MODEL
  6
Continuous
100
AcDbLine
 10
955.5756469913963
 20
1067.682336975412
 30
0.0
 11
953.4246857934836
 21
1068.414788652734
 31
0.0
  0
LINE
  5
114B
330
A
100
AcDbEntity
  8
MODEL
  6
Continuous
100
AcDbLine
 10
953.4246857934836
 20
1068.414788652734
 30
0.0
 11
951.143363416681
 21
1068.91238312848
 31
0.0
  0
LINE
  5
114C
330
A
100
AcDbEntity
  8
MODEL
  6
Continuous
100
AcDbLine
 10
951.143363416681
 20
1068.91238312848
 30
0.0
 11
948.7826413666103
 21
1069.163974334077
 31
0.0
  0
LINE
  5
114D
330
A
100
AcDbEntity
  8
MODEL
  6
Continuous
100
AcDbLine
 10
948.7826413666103
 20
1069.163974334077
 30
0.0
 11
946.3952541542444
 21
1069.163974334077
 31
0.0
  0
LINE
  5
114E
330
A
100
AcDbEntity
  8
MODEL
  6
Continuous
100
AcDbLine
 10
946.3952541542444
 20
1069.163974334077
 30
0.0
 11
944.0345321041736
 21
1068.91238312848
 31
0.0
  0
LINE
  5
114F
330
A
100
AcDbEntity
  8
MODEL
  6
Continuous
100
AcDbLine
 10
944.0345321041736
 20
1068.91238312848
 30
0.0
 11
941.7532097273711
 21
1068.414788652734
 31
0.0
  0
LINE
  5
1150
330
A
100
AcDbEntity
  8
MODEL
  6
Continuous
100
AcDbLine
 10
941.7532097273711
 20
1068.414788652734
 30
0.0
 11
939.6022485294584
 21
1067.682336975412
 31
0.0
  0
LINE
  5
1151
330
A
100
AcDbEntity
  8
MODEL
  6
Continuous
100
AcDbLine
 10
939.6022485294584
 20
1067.682336975412
 30
0.0
 11
937.6296961405519
 21
1066.731374670343
 31
0.0
  0
LINE
  5
1152
330
A
100
AcDbEntity
  8
MODEL
  6
Continuous
100
AcDbLine
 10
937.6296961405519
 20
1066.731374670343
 30
0.0
 11
935.879617156947
 21
1065.58315079339
 31
0.0
  0
LINE
  5
1153
330
A
100
AcDbEntity
  8
MODEL
  6
Continuous
100
AcDbLine
 10
935.879617156947
 20
1065.58315079339
 30
0.0
 11
934.3911057063583
 21
1064.263310242967
 31
0.0
  0
LINE
  5
1154
330
A
100
AcDbEntity
  8
MODEL
  6
Continuous
100
AcDbLine
 10
934.3911057063583
 20
1064.263310242967
 30
0.0
 11
933.1974118673447
 21
1062.801342417077
 31
0.0
  0
LINE
  5
1155
330
A
100
AcDbEntity
  8
MODEL
  6
Continuous
100
AcDbLine
 10
933.1974118673447
 20
1062.801342417077
 30
0.0
 11
932.3252012678627
 21
1061.229895759897
 31
0.0
  0
LINE
  5
1156
330
A
100
AcDbEntity
  8
MODEL
  6
Continuous
100
AcDbLine
 10
932.3252012678627
 20
1061.229895759897
 30
0.0
 11
931.7939571761731
 21
1059.584077407197
 31
0.0
  0
LINE
  5
1157
330
A
100
AcDbEntity
  8
MODEL
  6
Continuous
100
AcDbLine
 10
931.7939571761731
 20
1059.584077407197
 30
0.0
 11
931.7472681128625
 21
1059.348192025499
 31
0.0
  0
LINE
  5
1158
330
A
100
AcDbEntity
  8
MODEL
  6
Continuous
100
AcDbLine
 10
947.5889477604273
 20
877.9717348111433
 30
0.0
 11
945.2042713952455
 21
877.8453692389292
 31
0.0
  0
LINE
  5
1159
330
A
100
AcDbEntity
  8
MODEL
  6
Continuous
100
AcDbLine
 10
945.2042713952455
 20
877.8453692389292
 30
0.0
 11
942.8728648186866
 21
877.469096292333
 31
0.0
  0
LINE
  5
115A
330
A
100
AcDbEntity
  8
MODEL
  6
Continuous
100
AcDbLine
 10
942.8728648186866
 20
877.469096292333
 30
0.0
 11
940.6468078219536
 21
876.8513239515585
 31
0.0
  0
LINE
  5
115B
330
A
100
AcDbEntity
  8
MODEL
  6
Continuous
100
AcDbLine
 10
940.6468078219536
 20
876.8513239515585
 30
0.0
 11
938.5758267441038
 21
876.005850691871
 31
0.0
  0
LINE
  5
115C
330
A
100
AcDbEntity
  8
MODEL
  6
Continuous
100
AcDbLine
 10
938.5758267441038
 20
876.005850691871
 30
0.0
 11
936.7061836370472
 21
874.9515618724388
 31
0.0
  0
LINE
  5
115D
330
A
100
AcDbEntity
  8
MODEL
  6
Continuous
100
AcDbLine
 10
936.7061836370472
 20
874.9515618724388
 30
0.0
 11
935.0796436616424
 21
873.7120069158834
 31
0.0
  0
LINE
  5
115E
330
A
100
AcDbEntity
  8
MODEL
  6
Continuous
100
AcDbLine
 10
935.0796436616424
 20
873.7120069158834
 30
0.0
 11
933.7325414368156
 21
872.3148796302837
 31
0.0
  0
LINE
  5
115F
330
A
100
AcDbEntity
  8
MODEL
  6
Continuous
100
AcDbLine
 10
933.7325414368156
 20
872.3148796302837
 30
0.0
 11
932.6949679949525
 21
870.7913867724699
 31
0.0
  0
LINE
  5
1160
330
A
100
AcDbEntity
  8
MODEL
  6
Continuous
100
AcDbLine
 10
932.6949679949525
 20
870.7913867724699
 30
0.0
 11
931.9901011609677
 21
869.1755625946087
 31
0.0
  0
LINE
  5
1161
330
A
100
AcDbEntity
  8
MODEL
  6
Continuous
100
AcDbLine
 10
931.9901011609677
 20
869.1755625946087
 30
0.0
 11
931.6336877369527
 21
867.5034995717567
 31
0.0
  0
LINE
  5
1162
330
A
100
AcDbEntity
  8
MODEL
  6
Continuous
100
AcDbLine
 10
931.6336877369527
 20
867.5034995717567
 30
0.0
 11
931.5889470004681
 21
866.6580263120693
 31
0.0
  0
LINE
  5
1163
330
A
100
AcDbEntity
  8
MODEL
  6
Continuous
100
AcDbLine
 10
963.5889485203866
 20
866.6580263120693
 30
0.0
 11
963.544207783902
 21
867.5034995717567
 31
0.0
  0
LINE
  5
1164
330
A
100
AcDbEntity
  8
MODEL
  6
Continuous
100
AcDbLine
 10
963.544207783902
 20
867.5034995717567
 30
0.0
 11
963.187794359887
 21
869.1755625946087
 31
0.0
  0
LINE
  5
1165
330
A
100
AcDbEntity
  8
MODEL
  6
Continuous
100
AcDbLine
 10
963.187794359887
 20
869.1755625946087
 30
0.0
 11
962.4829275259021
 21
870.7913867724699
 31
0.0
  0
LINE
  5
1166
330
A
100
AcDbEntity
  8
MODEL
  6
Continuous
100
AcDbLine
 10
962.4829275259021
 20
870.7913867724699
 30
0.0
 11
961.4453540840391
 21
872.3148796302837
 31
0.0
  0
LINE
  5
1167
330
A
100
AcDbEntity
  8
MODEL
  6
Continuous
100
AcDbLine
 10
961.4453540840391
 20
872.3148796302837
 30
0.0
 11
960.0982518592123
 21
873.7120069158834
 31
0.0
  0
LINE
  5
1168
330
A
100
AcDbEntity
  8
MODEL
  6
Continuous
100
AcDbLine
 10
960.0982518592123
 20
873.7120069158834
 30
0.0
 11
958.4717118838075
 21
874.9515618724388
 31
0.0
  0
LINE
  5
1169
330
A
100
AcDbEntity
  8
MODEL
  6
Continuous
100
AcDbLine
 10
958.4717118838075
 20
874.9515618724388
 30
0.0
 11
956.6020687767509
 21
876.005850691871
 31
0.0
  0
LINE
  5
116A
330
A
100
AcDbEntity
  8
MODEL
  6
Continuous
100
AcDbLine
 10
956.6020687767509
 20
876.005850691871
 30
0.0
 11
954.531087698901
 21
876.8513239515585
 31
0.0
  0
LINE
  5
116B
330
A
100
AcDbEntity
  8
MODEL
  6
Continuous
100
AcDbLine
 10
954.531087698901
 20
876.8513239515585
 30
0.0
 11
952.3050307021681
 21
877.469096292333
 31
0.0
  0
LINE
  5
116C
330
A
100
AcDbEntity
  8
MODEL
  6
Continuous
100
AcDbLine
 10
952.3050307021681
 20
877.469096292333
 30
0.0
 11
949.9736241256091
 21
877.8453692389292
 31
0.0
  0
LINE
  5
116D
330
A
100
AcDbEntity
  8
MODEL
  6
Continuous
100
AcDbLine
 10
949.9736241256091
 20
877.8453692389292
 30
0.0
 11
947.5889477604273
 21
877.9717348111433
 31
0.0
  0
LINE
  5
1170
330
A
100
AcDbEntity
  8
MODEL
  6
Continuous
100
AcDbLine
 10
683.92590842647
 20
548.3069996654247
 30
0.0
 11
538.7123919974033
 21
548.3069996654247
 31
0.0
  0
LINE
  5
1171
330
A
100
AcDbEntity
  8
MODEL
  6
Continuous
100
AcDbLine
 10
728.8774367372457
 20
548.3069996654247
 30
0.0
 11
725.3418978254263
 21
548.3069996654247
 31
0.0
  0
LINE
  5
1172
102
{ACAD_REACTORS
330
127A
102
}
330
A
100
AcDbEntity
  8
MODEL
  6
Continuous
100
AcDbLine
 10
538.7123919974033
 20
516.3069981455062
 30
0.0
 11
728.8774367372457
 21
516.3069981455062
 31
0.0
  0
LINE
  5
1173
330
A
100
AcDbEntity
  8
MODEL
  6
Continuous
100
AcDbLine
 10
485.6793828259174
 20
516.3069981455062
 30
0.0
 11
538.7123919974033
 21
516.3069981455062
 31
0.0
  0
LINE
  5
1174
330
A
100
AcDbEntity
  8
MODEL
  6
Continuous
100
AcDbLine
 10
538.7123919974033
 20
548.3069996654247
 30
0.0
 11
485.6793828259174
 21
548.3069996654247
 31
0.0
  0
LINE
  5
1175
330
A
100
AcDbEntity
  8
MODEL
  6
Continuous
100
AcDbLine
 10
71.74540720385949
 20
516.3069981455062
 30
0.0
 11
485.6793828259174
 21
516.3069981455062
 31
0.0
  0
LINE
  5
1176
330
A
100
AcDbEntity
  8
MODEL
  6
Continuous
100
AcDbLine
 10
76.7454024354879
 20
548.3069996654247
 30
0.0
 11
71.74540720385949
 21
548.3069996654247
 31
0.0
  0
LINE
  5
1177
330
A
100
AcDbEntity
  8
MODEL
  6
Continuous
100
AcDbLine
 10
422.7454032699529
 20
548.3069996654247
 30
0.0
 11
126.7454143564169
 21
548.3069996654247
 31
0.0
  0
LINE
  5
1178
330
A
100
AcDbEntity
  8
MODEL
  6
Continuous
100
AcDbLine
 10
485.6793828259174
 20
548.3069996654247
 30
0.0
 11
472.7454002897207
 21
548.3069996654247
 31
0.0
  0
LINE
  5
1179
330
A
100
AcDbEntity
  8
MODEL
  6
Continuous
100
AcDbLine
 10
71.74540720385949
 20
548.3069996654247
 30
0.0
 11
70.2214356462423
 21
548.2803973674033
 31
0.0
  0
LINE
  5
117A
330
A
100
AcDbEntity
  8
MODEL
  6
Continuous
100
AcDbLine
 10
70.2214356462423
 20
516.3336004435275
 30
0.0
 11
71.74540720385949
 21
516.3069981455062
 31
0.0
  0
ARC
  5
117B
330
A
100
AcDbEntity
  8
MODEL
  6
Continuous
100
AcDbCircle
 10
70.23017659614675
 20
547.7804744176535
 30
0.0
 40
0.5000000000000991
100
AcDbArc
 50
91.00000000000153
 51
178.2248114146036
  0
ARC
  5
117C
330
A
100
AcDbEntity
  8
MODEL
  6
Continuous
100
AcDbCircle
 10
70.23017659614675
 20
516.8335233932783
 30
0.0
 40
0.5000000000000991
100
AcDbArc
 50
181.7751885855006
 51
268.9999999999985
  0
ARC
  5
117D
330
A
100
AcDbEntity
  8
MODEL
  6
Continuous
100
AcDbCircle
 10
569.4904509577009
 20
532.3069989054663
 30
0.0
 40
500.0000000000005
100
AcDbArc
 50
178.2248114143645
 51
181.7751885856365
  0
LINE
  5
117E
330
A
100
AcDbEntity
  8
MODEL
  6
Continuous
100
AcDbLine
 10
729.0749218265478
 20
516.3094363480066
 30
0.0
 11
730.1521863738958
 21
516.3360330580924
 31
0.0
  0
LINE
  5
117F
330
A
100
AcDbEntity
  8
MODEL
  6
Continuous
100
AcDbLine
 10
730.1521863738958
 20
548.2779647528384
 30
0.0
 11
729.0749218265478
 21
548.3045614629243
 31
0.0
  0
LINE
  5
1180
330
A
100
AcDbEntity
  8
MODEL
  6
Continuous
100
AcDbLine
 10
731.4025577108328
 20
548.1486785530303
 30
0.0
 11
731.4025577108328
 21
606.7505180209134
 31
0.0
  0
LINE
  5
1181
330
A
100
AcDbEntity
  8
MODEL
  6
Continuous
100
AcDbLine
 10
683.92590842647
 20
606.7505180209134
 30
0.0
 11
683.92590842647
 21
544.7778822227572
 31
0.0
  0
LINE
  5
1182
330
A
100
AcDbEntity
  8
MODEL
  6
Continuous
100
AcDbLine
 10
71.74540720385949
 20
532.3069989054654
 30
0.0
 11
71.74540720385949
 21
548.3069996654247
 31
0.0
  0
LINE
  5
1183
330
A
100
AcDbEntity
  8
MODEL
  6
Continuous
100
AcDbLine
 10
71.74540720385949
 20
516.3069981455062
 30
0.0
 11
71.74540720385949
 21
532.3069989054654
 31
0.0
  0
LINE
  5
1184
330
A
100
AcDbEntity
  8
MODEL
  6
Continuous
100
AcDbLine
 10
71.74540720385949
 20
516.3069981455062
 30
0.0
 11
71.74540720385949
 21
548.3069996654247
 31
0.0
  0
ARC
  5
1185
330
A
100
AcDbEntity
  8
MODEL
  6
Continuous
100
AcDbCircle
 10
739.5871664746892
 20
532.3422762381813
 30
0.0
 40
20.28935229231023
100
AcDbArc
 50
154.6439495909185
 51
211.0411733021091
  0
LINE
  5
1186
330
A
100
AcDbEntity
  8
MODEL
  6
Continuous
100
AcDbLine
 10
728.8774367372457
 20
516.3069981455062
 30
0.0
 11
729.0749218265478
 21
516.3094363480066
 31
0.0
  0
LINE
  5
1187
330
A
100
AcDbEntity
  8
MODEL
  6
Continuous
100
AcDbLine
 10
713.674631337351
 20
543.7332847460364
 30
0.0
 11
713.674631337351
 21
606.7505180209134
 31
0.0
  0
LINE
  5
1188
330
A
100
AcDbEntity
  8
MODEL
  6
Continuous
100
AcDbLine
 10
720.7457091609899
 20
606.7505180209134
 30
0.0
 11
720.7457091609899
 21
546.9271903230999
 31
0.0
  0
SPLINE
  5
1189
330
A
100
AcDbEntity
  8
MODEL
  6
Continuous
100
AcDbSpline
210
0.0
220
0.0
230
1.0
 70
     8
 71
     3
 72
    11
 73
     7
 74
     0
 42
0.000000001
 43
0.00000001
 40
0.0
 40
0.0
 40
0.0
 40
0.0
 40
0.2999963496877969
 40
0.5989644258304841
 40
0.9261310107981057
 40
1.0
 40
1.0
 40
1.0
 40
1.0
 10
720.7457091609899
 20
546.9271903230999
 30
0.0
 10
720.2583709757641
 20
546.622136965392
 30
0.0
 10
719.2853650155162
 20
546.0130758570228
 30
0.0
 10
717.4689858376992
 20
544.8991767250689
 30
0.0
 10
716.034557687542
 20
544.1020448158549
 30
0.0
 10
715.2394531288196
 20
543.7906434991771
 30
0.0
 10
715.0929983655874
 20
543.7332847460364
 30
0.0
  0
LINE
  5
118A
330
A
100
AcDbEntity
  8
MODEL
  6
Continuous
100
AcDbLine
 10
715.0929983655874
 20
543.7332847460364
 30
0.0
 11
713.674631337351
 21
543.7332847460364
 31
0.0
  0
SPLINE
  5
118C
330
A
100
AcDbEntity
  8
MODEL
  6
Continuous
100
AcDbSpline
210
0.0
220
0.0
230
1.0
 70
     8
 71
     3
 72
     9
 73
     5
 74
     0
 42
0.000000001
 43
0.00000001
 40
0.0
 40
0.0
 40
0.0
 40
0.0
 40
0.768596058653304
 40
1.0
 40
1.0
 40
1.0
 40
1.0
 10
684.3962635795538
 20
543.7332847460364
 30
0.0
 10
684.1772500667253
 20
543.9670153864806
 30
0.0
 10
683.8922973788171
 20
544.2711161398117
 30
0.0
 10
683.9634461325913
 20
544.6826513525309
 30
0.0
 10
683.9799102346365
 20
544.7778822227572
 30
0.0
  0
ARC
  5
118D
330
A
100
AcDbEntity
  8
MODEL
  6
Continuous
100
AcDbCircle
 10
725.4214926089776
 20
539.696937167934
 30
0.0
 40
8.610430392278168
100
AcDbArc
 50
90.52964949635809
 51
122.8906300771915
  0
LINE
  5
118E
330
A
100
AcDbEntity
  8
MODEL
  6
Continuous
100
AcDbLine
 10
685.3903647462789
 20
606.7505180209134
 30
0.0
 11
685.3903647462789
 21
543.7332847460364
 31
0.0
  0
LINE
  5
118F
330
A
100
AcDbEntity
  8
MODEL
  6
Continuous
100
AcDbLine
 10
713.674631337351
 20
543.7332847460364
 30
0.0
 11
685.3903647462789
 21
543.7332847460364
 31
0.0
  0
LINE
  5
1193
330
A
100
AcDbEntity
  8
MODEL
  6
Continuous
100
AcDbLine
 10
685.3903647462789
 20
543.7332847460364
 30
0.0
 11
684.3962635795538
 21
543.7332847460364
 31
0.0
  0
LINE
  5
1194
330
A
100
AcDbEntity
  8
MODEL
  6
Continuous
100
AcDbLine
 10
683.92590842647
 20
606.7505180209134
 30
0.0
 11
731.4025577108328
 21
606.7505180209134
 31
0.0
  0
LINE
  5
1195
330
A
100
AcDbEntity
  8
MODEL
  6
Continuous
100
AcDbLine
 10
121.7453893224661
 20
543.7332847460364
 30
0.0
 11
121.7453893224661
 21
606.7505180209134
 31
0.0
  0
LINE
  5
1196
330
A
100
AcDbEntity
  8
MODEL
  6
Continuous
100
AcDbLine
 10
126.7454143564169
 20
606.7505180209134
 30
0.0
 11
126.7454143564169
 21
546.9271903230999
 31
0.0
  0
SPLINE
  5
1197
330
A
100
AcDbEntity
  8
MODEL
  6
Continuous
100
AcDbSpline
210
0.0
220
0.0
230
1.0
 70
     8
 71
     3
 72
    11
 73
     7
 74
     0
 42
0.000000001
 43
0.00000001
 40
0.0
 40
0.0
 40
0.0
 40
0.0
 40
0.2999971498059905
 40
0.5989658395203721
 40
0.9261318564401153
 40
1.0
 40
1.0
 40
1.0
 40
1.0
 10
126.7454143564169
 20
546.9271903230999
 30
0.0
 10
126.6761014506064
 20
546.6221369972643
 30
0.0
 10
126.537713259768
 20
546.0130761394328
 30
0.0
 10
125.5322539933909
 20
544.8991785231199
 30
0.0
 10
124.4038352432408
 20
544.1020477888976
 30
0.0
 10
123.5994392809573
 20
543.7906435778593
 30
0.0
 10
123.4512742559377
 20
543.7332847460364
 30
0.0
  0
LINE
  5
1198
330
A
100
AcDbEntity
  8
MODEL
  6
Continuous
100
AcDbLine
 10
123.4512742559377
 20
543.7332847460364
 30
0.0
 11
121.7453893224661
 21
543.7332847460364
 31
0.0
  0
LINE
  5
119A
330
A
100
AcDbEntity
  8
MODEL
  6
Continuous
100
AcDbLine
 10
81.74539766711632
 20
606.7505180209134
 30
0.0
 11
81.74539766711632
 21
543.7332847460364
 31
0.0
  0
LINE
  5
119B
330
A
100
AcDbEntity
  8
MODEL
  6
Continuous
100
AcDbLine
 10
121.7453893224661
 20
543.7332847460364
 30
0.0
 11
81.74539766711632
 21
543.7332847460364
 31
0.0
  0
SPLINE
  5
119D
330
A
100
AcDbEntity
  8
MODEL
  6
Continuous
100
AcDbSpline
210
0.0
220
0.0
230
1.0
 70
     8
 71
     3
 72
    11
 73
     7
 74
     0
 42
0.000000001
 43
0.00000001
 40
0.0
 40
0.0
 40
0.0
 40
0.0
 40
0.269820519641071
 40
0.537606705837272
 40
0.8581915787967989
 40
0.9999999999999999
 40
0.9999999999999999
 40
0.9999999999999999
 40
0.9999999999999999
 10
80.03954253596703
 20
543.7332847460364
 30
0.0
 10
79.52083538944089
 20
543.9739062547449
 30
0.0
 10
78.48733193051521
 20
544.4533350870022
 30
0.0
 10
77.38802633721161
 20
545.4898463967581
 30
0.0
 10
76.81367600724661
 20
546.3399385495211
 30
0.0
 10
76.76142650025781
 20
546.789360117157
 30
0.0
 10
76.7454024354879
 20
546.9271903230999
 30
0.0
  0
LINE
  5
119E
330
A
100
AcDbEntity
  8
MODEL
  6
Continuous
100
AcDbLine
 10
76.7454024354879
 20
546.9271903230999
 30
0.0
 11
76.7454024354879
 21
606.7505180209134
 31
0.0
  0
LINE
  5
119F
330
A
100
AcDbEntity
  8
MODEL
  6
Continuous
100
AcDbLine
 10
81.74539766711632
 20
543.7332847460364
 30
0.0
 11
80.03954253596703
 21
543.7332847460364
 31
0.0
  0
LINE
  5
11A1
330
A
100
AcDbEntity
  8
MODEL
  6
Continuous
100
AcDbLine
 10
427.7453985015813
 20
606.7505180209134
 30
0.0
 11
427.7453985015813
 21
543.7332847460364
 31
0.0
  0
LINE
  5
11A3
330
A
100
AcDbEntity
  8
MODEL
  6
Continuous
100
AcDbLine
 10
467.745401332802
 20
543.7332847460364
 30
0.0
 11
467.745401332802
 21
606.7505180209134
 31
0.0
  0
LINE
  5
11A4
330
A
100
AcDbEntity
  8
MODEL
  6
Continuous
100
AcDbLine
 10
467.745401332802
 20
543.7332847460364
 30
0.0
 11
427.7453985015813
 21
543.7332847460364
 31
0.0
  0
LINE
  5
11A5
330
A
100
AcDbEntity
  8
MODEL
  6
Continuous
100
AcDbLine
 10
472.7454002897207
 20
606.7505180209134
 30
0.0
 11
472.7454002897207
 21
546.9271903230999
 31
0.0
  0
SPLINE
  5
11A6
330
A
100
AcDbEntity
  8
MODEL
  6
Continuous
100
AcDbSpline
210
0.0
220
0.0
230
1.0
 70
     8
 71
     3
 72
    11
 73
     7
 74
     0
 42
0.000000001
 43
0.00000001
 40
0.0
 40
0.0
 40
0.0
 40
0.0
 40
0.299996499211554
 40
0.5989644950792131
 40
0.9261314391455968
 40
0.9999999999999999
 40
0.9999999999999999
 40
0.9999999999999999
 40
0.9999999999999999
 10
472.7454002897207
 20
546.9271903230999
 30
0.0
 10
472.6760943585716
 20
546.6221371195722
 30
0.0
 10
472.5377201036526
 20
546.0130765521869
 30
0.0
 10
471.5322665403692
 20
544.8991751511392
 30
0.0
 10
470.4038383848456
 20
544.1020469953007
 30
0.0
 10
469.5994376158064
 20
543.7906435656666
 30
0.0
 10
469.4512713651125
 20
543.7332847460364
 30
0.0
  0
LINE
  5
11A7
330
A
100
AcDbEntity
  8
MODEL
  6
Continuous
100
AcDbLine
 10
469.4512713651125
 20
543.7332847460364
 30
0.0
 11
467.745401332802
 21
543.7332847460364
 31
0.0
  0
SPLINE
  5
11A9
330
A
100
AcDbEntity
  8
MODEL
  6
Continuous
100
AcDbSpline
210
0.0
220
0.0
230
1.0
 70
     8
 71
     3
 72
    11
 73
     7
 74
     0
 42
0.000000001
 43
0.00000001
 40
0.0
 40
0.0
 40
0.0
 40
0.0
 40
0.269818412214935
 40
0.5376050597214015
 40
0.8581915063011789
 40
1.0
 40
1.0
 40
1.0
 40
1.0
 10
426.0395284692709
 20
543.7332847460364
 30
0.0
 10
425.5208291789083
 20
543.973907010846
 30
0.0
 10
424.48733646548
 20
544.4533396262175
 30
0.0
 10
423.3880422695815
 20
545.489848261848
 30
0.0
 10
422.8136497198466
 20
546.3399365882522
 30
0.0
 10
422.7614209317462
 20
546.7893599784263
 30
0.0
 10
422.7454032699529
 20
546.9271903230999
 30
0.0
  0
LINE
  5
11AA
330
A
100
AcDbEntity
  8
MODEL
  6
Continuous
100
AcDbLine
 10
422.7454032699529
 20
546.9271903230999
 30
0.0
 11
422.7454032699529
 21
606.7505180209134
 31
0.0
  0
LINE
  5
11AB
330
A
100
AcDbEntity
  8
MODEL
  6
Continuous
100
AcDbLine
 10
427.7453985015813
 20
543.7332847460364
 30
0.0
 11
426.0395284692709
 21
543.7332847460364
 31
0.0
  0
LINE
  5
11AD
330
A
100
AcDbEntity
  8
MODEL
  6
Continuous
100
AcDbLine
 10
485.6793828259174
 20
532.3069989054654
 30
0.0
 11
485.6793828259174
 21
548.3069996654247
 31
0.0
  0
LINE
  5
11AE
330
A
100
AcDbEntity
  8
MODEL
  6
Continuous
100
AcDbLine
 10
485.6793828259174
 20
516.3069981455062
 30
0.0
 11
485.6793828259174
 21
532.3069989054654
 31
0.0
  0
LINE
  5
11AF
330
A
100
AcDbEntity
  8
MODEL
  6
Continuous
100
AcDbLine
 10
70.2214356462423
 20
548.2803973674033
 30
0.0
 11
70.2214356462423
 21
516.3336004435275
 31
0.0
  0
LINE
  5
11B0
330
A
100
AcDbEntity
  8
MODEL
  6
Continuous
100
AcDbLine
 10
69.73041258258286
 20
516.8180343999718
 30
0.0
 11
69.73041258258286
 21
547.7959634109591
 31
0.0
  0
LINE
  5
11B1
330
A
100
AcDbEntity
  8
MODEL
  6
Continuous
100
AcDbLine
 10
729.9381013910238
 20
548.283250939772
 30
0.0
 11
729.9381013910238
 21
606.7505180209134
 31
0.0
  0
LINE
  5
11B5
330
A
100
AcDbEntity
  8
MODEL
  6
CENTER
 48
0.025
100
AcDbLine
 10
447.7454000512917
 20
542.8069989054654
 30
0.0
 11
447.7454000512917
 21
616.3153981563016
 31
0.0
  0
LINE
  5
11B6
330
A
100
AcDbEntity
  8
MODEL
  6
CENTER
 48
0.025
100
AcDbLine
 10
101.7454000513021
 20
542.8069989054654
 30
0.0
 11
101.7454000513021
 21
617.191597689726
 31
0.0
  0
LINE
  5
11B7
330
A
100
AcDbEntity
  8
MODEL
  6
CENTER
 48
0.025
100
AcDbLine
 10
707.6642309716744
 20
542.8069989054673
 30
0.0
 11
707.6642309716744
 21
618.337397079589
 31
0.0
  0
LINE
  5
11B8
330
A
100
AcDbEntity
  8
MODEL
  6
Continuous
100
AcDbLine
 10
717.5637301008169
 20
532.3069989054654
 30
0.0
 11
717.6900919477407
 21
534.6916752706472
 31
0.0
  0
LINE
  5
11B9
330
A
100
AcDbEntity
  8
MODEL
  6
Continuous
100
AcDbLine
 10
717.6900919477407
 20
534.6916752706472
 30
0.0
 11
718.0663611690466
 21
537.0230818472062
 31
0.0
  0
LINE
  5
11BA
330
A
100
AcDbEntity
  8
MODEL
  6
Continuous
100
AcDbLine
 10
718.0663611690466
 20
537.0230818472062
 30
0.0
 11
718.6841335098211
 21
539.2491388439391
 31
0.0
  0
LINE
  5
11BB
330
A
100
AcDbEntity
  8
MODEL
  6
Continuous
100
AcDbLine
 10
718.6841335098211
 20
539.2491388439391
 30
0.0
 11
719.5296104947988
 21
541.320119921789
 31
0.0
  0
LINE
  5
11BC
330
A
100
AcDbEntity
  8
MODEL
  6
Continuous
100
AcDbLine
 10
719.5296104947988
 20
541.320119921789
 30
0.0
 11
720.5838974515859
 21
543.1897630288456
 31
0.0
  0
LINE
  5
11BD
330
A
100
AcDbEntity
  8
MODEL
  6
Continuous
100
AcDbLine
 10
720.5838974515859
 20
543.1897630288456
 30
0.0
 11
721.8234505454961
 21
544.8163030042504
 31
0.0
  0
LINE
  5
11BE
330
A
100
AcDbEntity
  8
MODEL
  6
Continuous
100
AcDbLine
 10
721.8234505454961
 20
544.8163030042504
 30
0.0
 11
723.2205834190313
 21
546.1634052290772
 31
0.0
  0
LINE
  5
11BF
330
A
100
AcDbEntity
  8
MODEL
  6
Continuous
100
AcDbLine
 10
723.2205834190313
 20
546.1634052290772
 30
0.0
 11
724.7440781394903
 21
547.2009786709402
 31
0.0
  0
LINE
  5
11C0
330
A
100
AcDbEntity
  8
MODEL
  6
Continuous
100
AcDbLine
 10
724.7440781394903
 20
547.2009786709402
 30
0.0
 11
726.3599004547063
 21
547.9058455049251
 31
0.0
  0
LINE
  5
11C1
330
A
100
AcDbEntity
  8
MODEL
  6
Continuous
100
AcDbLine
 10
726.3599004547063
 20
547.9058455049251
 30
0.0
 11
728.031959752268
 21
548.2622589289401
 31
0.0
  0
LINE
  5
11C2
330
A
100
AcDbEntity
  8
MODEL
  6
Continuous
100
AcDbLine
 10
728.031959752268
 20
548.2622589289401
 30
0.0
 11
729.0749218265478
 21
548.3045614629243
 31
0.0
  0
LINE
  5
11C3
330
A
100
AcDbEntity
  8
MODEL
  6
Continuous
100
AcDbLine
 10
729.0749218265478
 20
516.3094363480066
 30
0.0
 11
728.031959752268
 21
516.3517388819907
 31
0.0
  0
LINE
  5
11C4
330
A
100
AcDbEntity
  8
MODEL
  6
Continuous
100
AcDbLine
 10
728.031959752268
 20
516.3517388819907
 30
0.0
 11
726.3599004547063
 21
516.7081523060058
 31
0.0
  0
LINE
  5
11C5
330
A
100
AcDbEntity
  8
MODEL
  6
Continuous
100
AcDbLine
 10
726.3599004547063
 20
516.7081523060058
 30
0.0
 11
724.7440781394903
 21
517.4130191399906
 31
0.0
  0
LINE
  5
11C6
330
A
100
AcDbEntity
  8
MODEL
  6
Continuous
100
AcDbLine
 10
724.7440781394903
 20
517.4130191399906
 30
0.0
 11
723.2205834190313
 21
518.4505925818537
 31
0.0
  0
LINE
  5
11C7
330
A
100
AcDbEntity
  8
MODEL
  6
Continuous
100
AcDbLine
 10
723.2205834190313
 20
518.4505925818537
 30
0.0
 11
721.8234505454961
 21
519.7976948066805
 31
0.0
  0
LINE
  5
11C8
330
A
100
AcDbEntity
  8
MODEL
  6
Continuous
100
AcDbLine
 10
721.8234505454961
 20
519.7976948066805
 30
0.0
 11
720.5838974515859
 21
521.4242347820853
 31
0.0
  0
LINE
  5
11C9
330
A
100
AcDbEntity
  8
MODEL
  6
Continuous
100
AcDbLine
 10
720.5838974515859
 20
521.4242347820853
 30
0.0
 11
719.5296104947988
 21
523.2938778891419
 31
0.0
  0
LINE
  5
11CA
330
A
100
AcDbEntity
  8
MODEL
  6
Continuous
100
AcDbLine
 10
719.5296104947988
 20
523.2938778891419
 30
0.0
 11
718.6841335098211
 21
525.3648589669917
 31
0.0
  0
LINE
  5
11CB
330
A
100
AcDbEntity
  8
MODEL
  6
Continuous
100
AcDbLine
 10
718.6841335098211
 20
525.3648589669917
 30
0.0
 11
718.0663611690466
 21
527.5909159637247
 31
0.0
  0
LINE
  5
11CC
330
A
100
AcDbEntity
  8
MODEL
  6
Continuous
100
AcDbLine
 10
718.0663611690466
 20
527.5909159637247
 30
0.0
 11
717.6900919477407
 21
529.9223225402836
 31
0.0
  0
LINE
  5
11CD
330
A
100
AcDbEntity
  8
MODEL
  6
Continuous
100
AcDbLine
 10
717.6900919477407
 20
529.9223225402836
 30
0.0
 11
717.5637301008169
 21
532.3069989054654
 31
0.0
  0
LINE
  5
11CE
330
A
100
AcDbEntity
  8
MODEL
  6
Continuous
100
AcDbLine
 10
730.1521863738958
 20
516.3360330580924
 30
0.0
 11
729.95502911014
 21
516.3336004435275
 31
0.0
  0
LINE
  5
11CF
330
A
100
AcDbEntity
  8
MODEL
  6
Continuous
100
AcDbLine
 10
729.95502911014
 20
516.3336004435275
 30
0.0
 11
728.2716151277486
 21
516.5120083212112
 31
0.0
  0
LINE
  5
11D0
330
A
100
AcDbEntity
  8
MODEL
  6
Continuous
100
AcDbLine
 10
728.2716151277486
 20
516.5120083212112
 30
0.0
 11
726.6257967750494
 21
517.0432524129008
 31
0.0
  0
LINE
  5
11D1
330
A
100
AcDbEntity
  8
MODEL
  6
Continuous
100
AcDbLine
 10
726.6257967750494
 20
517.0432524129008
 30
0.0
 11
725.0543501178686
 21
517.9154630123828
 31
0.0
  0
LINE
  5
11D2
330
A
100
AcDbEntity
  8
MODEL
  6
Continuous
100
AcDbLine
 10
725.0543501178686
 20
517.9154630123828
 30
0.0
 11
723.592382291979
 21
519.1091568513964
 31
0.0
  0
LINE
  5
11D3
330
A
100
AcDbEntity
  8
MODEL
  6
Continuous
100
AcDbLine
 10
723.592382291979
 20
519.1091568513964
 30
0.0
 11
722.2725417415563
 21
520.5976683019851
 31
0.0
  0
LINE
  5
11D4
330
A
100
AcDbEntity
  8
MODEL
  6
Continuous
100
AcDbLine
 10
722.2725417415563
 20
520.5976683019851
 30
0.0
 11
721.1243178646032
 21
522.34774728559
 31
0.0
  0
LINE
  5
11D5
330
A
100
AcDbEntity
  8
MODEL
  6
Continuous
100
AcDbLine
 10
721.1243178646032
 20
522.34774728559
 30
0.0
 11
720.1733555595342
 21
524.3202996744965
 31
0.0
  0
LINE
  5
11D6
330
A
100
AcDbEntity
  8
MODEL
  6
Continuous
100
AcDbLine
 10
720.1733555595342
 20
524.3202996744965
 30
0.0
 11
719.4409038822118
 21
526.4712608724092
 31
0.0
  0
LINE
  5
11D7
330
A
100
AcDbEntity
  8
MODEL
  6
Continuous
100
AcDbLine
 10
719.4409038822118
 20
526.4712608724092
 30
0.0
 11
718.9433243076269
 21
528.7525832492117
 31
0.0
  0
LINE
  5
11D8
330
A
100
AcDbEntity
  8
MODEL
  6
Continuous
100
AcDbLine
 10
718.9433243076269
 20
528.7525832492117
 30
0.0
 11
718.6917182008688
 21
531.1133052992825
 31
0.0
  0
LINE
  5
11D9
330
A
100
AcDbEntity
  8
MODEL
  6
Continuous
100
AcDbLine
 10
718.6917182008688
 20
531.1133052992825
 30
0.0
 11
718.6917182008688
 21
533.5006925116484
 31
0.0
  0
LINE
  5
11DA
330
A
100
AcDbEntity
  8
MODEL
  6
Continuous
100
AcDbLine
 10
718.6917182008688
 20
533.5006925116484
 30
0.0
 11
718.9433243076269
 21
535.8614145617191
 31
0.0
  0
LINE
  5
11DB
330
A
100
AcDbEntity
  8
MODEL
  6
Continuous
100
AcDbLine
 10
718.9433243076269
 20
535.8614145617191
 30
0.0
 11
719.4409038822118
 21
538.1427369385217
 31
0.0
  0
LINE
  5
11DC
330
A
100
AcDbEntity
  8
MODEL
  6
Continuous
100
AcDbLine
 10
719.4409038822118
 20
538.1427369385217
 30
0.0
 11
720.1733555595342
 21
540.2936981364344
 31
0.0
  0
LINE
  5
11DD
330
A
100
AcDbEntity
  8
MODEL
  6
Continuous
100
AcDbLine
 10
720.1733555595342
 20
540.2936981364344
 30
0.0
 11
721.1243178646032
 21
542.2662505253409
 31
0.0
  0
LINE
  5
11DE
330
A
100
AcDbEntity
  8
MODEL
  6
Continuous
100
AcDbLine
 10
721.1243178646032
 20
542.2662505253409
 30
0.0
 11
722.2725417415563
 21
544.0163295089458
 31
0.0
  0
LINE
  5
11DF
330
A
100
AcDbEntity
  8
MODEL
  6
Continuous
100
AcDbLine
 10
722.2725417415563
 20
544.0163295089458
 30
0.0
 11
723.592382291979
 21
545.5048409595345
 31
0.0
  0
LINE
  5
11E0
330
A
100
AcDbEntity
  8
MODEL
  6
Continuous
100
AcDbLine
 10
723.592382291979
 20
545.5048409595345
 30
0.0
 11
725.0543501178686
 21
546.698534798548
 31
0.0
  0
LINE
  5
11E1
330
A
100
AcDbEntity
  8
MODEL
  6
Continuous
100
AcDbLine
 10
725.0543501178686
 20
546.698534798548
 30
0.0
 11
726.6257967750494
 21
547.5707453980301
 31
0.0
  0
LINE
  5
11E2
330
A
100
AcDbEntity
  8
MODEL
  6
Continuous
100
AcDbLine
 10
726.6257967750494
 20
547.5707453980301
 30
0.0
 11
728.2716151277486
 21
548.1019894897197
 31
0.0
  0
LINE
  5
11E3
330
A
100
AcDbEntity
  8
MODEL
  6
Continuous
100
AcDbLine
 10
728.2716151277486
 20
548.1019894897197
 30
0.0
 11
729.95502911014
 21
548.2803973674033
 31
0.0
  0
LINE
  5
11E4
330
A
100
AcDbEntity
  8
MODEL
  6
Continuous
100
AcDbLine
 10
729.95502911014
 20
548.2803973674033
 30
0.0
 11
730.1521863738958
 21
548.2779647528384
 31
0.0
  0
LINE
  5
11E5
330
A
100
AcDbEntity
  8
MODEL
  6
Continuous
100
AcDbLine
 10
729.0749218265478
 20
548.3045614629243
 30
0.0
 11
728.8774367372457
 21
548.3069996654247
 31
0.0
  0
LINE
  5
11E6
330
A
100
AcDbEntity
  8
MODEL
  6
Continuous
100
AcDbLine
 10
728.8774367372457
 20
548.3069996654247
 30
0.0
 11
727.1912064353887
 21
548.128291901872
 31
0.0
  0
LINE
  5
11E7
330
A
100
AcDbEntity
  8
MODEL
  6
Continuous
100
AcDbLine
 10
727.1912064353887
 20
548.128291901872
 30
0.0
 11
725.542661170191
 21
547.5961639850591
 31
0.0
  0
LINE
  5
11E8
330
A
100
AcDbEntity
  8
MODEL
  6
Continuous
100
AcDbLine
 10
725.542661170191
 20
547.5961639850591
 30
0.0
 11
723.9686068098013
 21
546.7225005223606
 31
0.0
  0
LINE
  5
11E9
330
A
100
AcDbEntity
  8
MODEL
  6
Continuous
100
AcDbLine
 10
723.9686068098013
 20
546.7225005223606
 30
0.0
 11
722.5041951934759
 21
545.5268192409728
 31
0.0
  0
LINE
  5
11EA
330
A
100
AcDbEntity
  8
MODEL
  6
Continuous
100
AcDbLine
 10
722.5041951934759
 20
545.5268192409728
 30
0.0
 11
721.1821641723577
 21
544.0358286096905
 31
0.0
  0
LINE
  5
11EB
330
A
100
AcDbEntity
  8
MODEL
  6
Continuous
100
AcDbLine
 10
721.1821641723577
 20
544.0358286096905
 30
0.0
 11
720.0320180456106
 21
542.2828355177496
 31
0.0
  0
LINE
  5
11EC
330
A
100
AcDbEntity
  8
MODEL
  6
Continuous
100
AcDbLine
 10
720.0320180456106
 20
542.2828355177496
 30
0.0
 11
719.0794762174551
 21
540.306999285445
 31
0.0
  0
LINE
  5
11ED
330
A
100
AcDbEntity
  8
MODEL
  6
Continuous
100
AcDbLine
 10
719.0794762174551
 20
540.306999285445
 30
0.0
 11
718.3458026449148
 21
538.1524552895878
 31
0.0
  0
LINE
  5
11EE
330
A
100
AcDbEntity
  8
MODEL
  6
Continuous
100
AcDbLine
 10
718.3458026449148
 20
538.1524552895878
 30
0.0
 11
717.847388605303
 21
535.8673338151727
 31
0.0
  0
LINE
  5
11EF
330
A
100
AcDbEntity
  8
MODEL
  6
Continuous
100
AcDbLine
 10
717.847388605303
 20
535.8673338151727
 30
0.0
 11
717.5953652660314
 21
533.5026804196839
 31
0.0
  0
LINE
  5
11F0
330
A
100
AcDbEntity
  8
MODEL
  6
Continuous
100
AcDbLine
 10
717.5953652660314
 20
533.5026804196839
 30
0.0
 11
717.5953652660314
 21
531.111317391247
 31
0.0
  0
LINE
  5
11F1
330
A
100
AcDbEntity
  8
MODEL
  6
Continuous
100
AcDbLine
 10
717.5953652660314
 20
531.111317391247
 30
0.0
 11
717.847388605303
 21
528.7466639957581
 31
0.0
  0
LINE
  5
11F2
330
A
100
AcDbEntity
  8
MODEL
  6
Continuous
100
AcDbLine
 10
717.847388605303
 20
528.7466639957581
 30
0.0
 11
718.3458026449148
 21
526.4615425213431
 31
0.0
  0
LINE
  5
11F3
330
A
100
AcDbEntity
  8
MODEL
  6
Continuous
100
AcDbLine
 10
718.3458026449148
 20
526.4615425213431
 30
0.0
 11
719.0794762174551
 21
524.3069985254858
 31
0.0
  0
LINE
  5
11F4
330
A
100
AcDbEntity
  8
MODEL
  6
Continuous
100
AcDbLine
 10
719.0794762174551
 20
524.3069985254858
 30
0.0
 11
720.0320180456106
 21
522.3311622931813
 31
0.0
  0
LINE
  5
11F5
330
A
100
AcDbEntity
  8
MODEL
  6
Continuous
100
AcDbLine
 10
720.0320180456106
 20
522.3311622931813
 30
0.0
 11
721.1821641723577
 21
520.5781692012404
 31
0.0
  0
LINE
  5
11F6
330
A
100
AcDbEntity
  8
MODEL
  6
Continuous
100
AcDbLine
 10
721.1821641723577
 20
520.5781692012404
 30
0.0
 11
722.5041951934759
 21
519.087178569958
 31
0.0
  0
LINE
  5
11F7
330
A
100
AcDbEntity
  8
MODEL
  6
Continuous
100
AcDbLine
 10
722.5041951934759
 20
519.087178569958
 30
0.0
 11
723.9686068098013
 21
517.8914972885702
 31
0.0
  0
LINE
  5
11F8
330
A
100
AcDbEntity
  8
MODEL
  6
Continuous
100
AcDbLine
 10
723.9686068098013
 20
517.8914972885702
 30
0.0
 11
725.542661170191
 21
517.0178338258718
 31
0.0
  0
LINE
  5
11F9
330
A
100
AcDbEntity
  8
MODEL
  6
Continuous
100
AcDbLine
 10
725.542661170191
 20
517.0178338258718
 30
0.0
 11
727.1912064353887
 21
516.4857059090589
 31
0.0
  0
LINE
  5
11FA
330
A
100
AcDbEntity
  8
MODEL
  6
Continuous
100
AcDbLine
 10
727.1912064353887
 20
516.4857059090589
 30
0.0
 11
728.8774367372457
 21
516.3069981455062
 31
0.0
  0
LINE
  5
11FB
330
A
100
AcDbEntity
  8
MODEL
  6
Continuous
100
AcDbLine
 10
728.8774367372457
 20
516.3069981455062
 30
0.0
 11
728.8774367372457
 21
516.3069981455062
 31
0.0
  0
LINE
  5
11FC
330
A
100
AcDbEntity
  8
MODEL
  6
Continuous
100
AcDbLine
 10
527.3986825670067
 20
532.3069989054654
 30
0.0
 11
527.5250481392211
 21
534.6916752706472
 31
0.0
  0
LINE
  5
11FD
330
A
100
AcDbEntity
  8
MODEL
  6
Continuous
100
AcDbLine
 10
527.5250481392211
 20
534.6916752706472
 30
0.0
 11
527.9013192231719
 21
537.0230818472062
 31
0.0
  0
LINE
  5
11FE
330
A
100
AcDbEntity
  8
MODEL
  6
Continuous
100
AcDbLine
 10
527.9013192231719
 20
537.0230818472062
 30
0.0
 11
528.519092495269
 21
539.2491388439391
 31
0.0
  0
LINE
  5
11FF
330
A
100
AcDbEntity
  8
MODEL
  6
Continuous
100
AcDbLine
 10
528.519092495269
 20
539.2491388439391
 30
0.0
 11
529.364566686279
 21
541.320119921789
 31
0.0
  0
LINE
  5
1200
330
A
100
AcDbEntity
  8
MODEL
  6
Continuous
100
AcDbLine
 10
529.364566686279
 20
541.320119921789
 30
0.0
 11
530.4188564370338
 21
543.1897630288456
 31
0.0
  0
LINE
  5
1201
330
A
100
AcDbEntity
  8
MODEL
  6
Continuous
100
AcDbLine
 10
530.4188564370338
 20
543.1897630288456
 30
0.0
 11
531.658409530944
 21
544.8163030042504
 31
0.0
  0
LINE
  5
1202
330
A
100
AcDbEntity
  8
MODEL
  6
Continuous
100
AcDbLine
 10
531.658409530944
 20
544.8163030042504
 30
0.0
 11
533.0555368165437
 21
546.1634052290772
 31
0.0
  0
LINE
  5
1203
330
A
100
AcDbEntity
  8
MODEL
  6
Continuous
100
AcDbLine
 10
533.0555368165437
 20
546.1634052290772
 30
0.0
 11
534.5790296743578
 21
547.2009786709402
 31
0.0
  0
LINE
  5
1204
330
A
100
AcDbEntity
  8
MODEL
  6
Continuous
100
AcDbLine
 10
534.5790296743578
 20
547.2009786709402
 30
0.0
 11
536.1948538522188
 21
547.9058455049251
 31
0.0
  0
LINE
  5
1205
330
A
100
AcDbEntity
  8
MODEL
  6
Continuous
100
AcDbLine
 10
536.1948538522188
 20
547.9058455049251
 30
0.0
 11
537.8669168750707
 21
548.2622589289401
 31
0.0
  0
LINE
  5
1206
330
A
100
AcDbEntity
  8
MODEL
  6
Continuous
100
AcDbLine
 10
537.8669168750707
 20
548.2622589289401
 30
0.0
 11
538.7123919974033
 21
548.3069996654247
 31
0.0
  0
LINE
  5
1207
330
A
100
AcDbEntity
  8
MODEL
  6
Continuous
100
AcDbLine
 10
538.7123919974033
 20
516.3069981455062
 30
0.0
 11
537.8669168750707
 21
516.3517388819907
 31
0.0
  0
LINE
  5
1208
330
A
100
AcDbEntity
  8
MODEL
  6
Continuous
100
AcDbLine
 10
537.8669168750707
 20
516.3517388819907
 30
0.0
 11
536.1948538522188
 21
516.7081523060058
 31
0.0
  0
LINE
  5
1209
330
A
100
AcDbEntity
  8
MODEL
  6
Continuous
100
AcDbLine
 10
536.1948538522188
 20
516.7081523060058
 30
0.0
 11
534.5790296743578
 21
517.4130191399906
 31
0.0
  0
LINE
  5
120A
330
A
100
AcDbEntity
  8
MODEL
  6
Continuous
100
AcDbLine
 10
534.5790296743578
 20
517.4130191399906
 30
0.0
 11
533.0555368165437
 21
518.4505925818537
 31
0.0
  0
LINE
  5
120B
330
A
100
AcDbEntity
  8
MODEL
  6
Continuous
100
AcDbLine
 10
533.0555368165437
 20
518.4505925818537
 30
0.0
 11
531.658409530944
 21
519.7976948066805
 31
0.0
  0
LINE
  5
120C
330
A
100
AcDbEntity
  8
MODEL
  6
Continuous
100
AcDbLine
 10
531.658409530944
 20
519.7976948066805
 30
0.0
 11
530.4188564370338
 21
521.4242347820853
 31
0.0
  0
LINE
  5
120D
330
A
100
AcDbEntity
  8
MODEL
  6
Continuous
100
AcDbLine
 10
530.4188564370338
 20
521.4242347820853
 30
0.0
 11
529.364566686279
 21
523.2938778891419
 31
0.0
  0
LINE
  5
120E
330
A
100
AcDbEntity
  8
MODEL
  6
Continuous
100
AcDbLine
 10
529.364566686279
 20
523.2938778891419
 30
0.0
 11
528.519092495269
 21
525.3648589669917
 31
0.0
  0
LINE
  5
120F
330
A
100
AcDbEntity
  8
MODEL
  6
Continuous
100
AcDbLine
 10
528.519092495269
 20
525.3648589669917
 30
0.0
 11
527.9013192231719
 21
527.5909159637247
 31
0.0
  0
LINE
  5
1210
330
A
100
AcDbEntity
  8
MODEL
  6
Continuous
100
AcDbLine
 10
527.9013192231719
 20
527.5909159637247
 30
0.0
 11
527.5250481392211
 21
529.9223225402836
 31
0.0
  0
LINE
  5
1211
330
A
100
AcDbEntity
  8
MODEL
  6
Continuous
100
AcDbLine
 10
527.5250481392211
 20
529.9223225402836
 30
0.0
 11
527.3986825670067
 21
532.3069989054654
 31
0.0
  0
LINE
  5
1212
330
A
100
AcDbEntity
  8
MODEL
  6
Continuous
100
AcDbLine
 10
730.3022410671178
 20
547.7959634109591
 30
0.0
 11
728.6303754846517
 21
547.6144393279408
 31
0.0
  0
LINE
  5
1213
330
A
100
AcDbEntity
  8
MODEL
  6
Continuous
100
AcDbLine
 10
728.6303754846517
 20
547.6144393279408
 30
0.0
 11
726.9976999561254
 21
547.0741213604067
 31
0.0
  0
LINE
  5
1214
330
A
100
AcDbEntity
  8
MODEL
  6
Continuous
100
AcDbLine
 10
726.9976999561254
 20
547.0741213604067
 30
0.0
 11
725.4424657623235
 21
546.1876754953716
 31
0.0
  0
LINE
  5
1215
330
A
100
AcDbEntity
  8
MODEL
  6
Continuous
100
AcDbLine
 10
725.4424657623235
 20
546.1876754953716
 30
0.0
 11
724.0011509458486
 21
544.9758776768301
 31
0.0
  0
LINE
  5
1216
330
A
100
AcDbEntity
  8
MODEL
  6
Continuous
100
AcDbLine
 10
724.0011509458486
 20
544.9758776768301
 30
0.0
 11
722.7075215379659
 21
543.4671323119853
 31
0.0
  0
LINE
  5
1217
330
A
100
AcDbEntity
  8
MODEL
  6
Continuous
100
AcDbLine
 10
722.7075215379659
 20
543.4671323119853
 30
0.0
 11
721.5919163028661
 21
541.696802650318
 31
0.0
  0
LINE
  5
1218
330
A
100
AcDbEntity
  8
MODEL
  6
Continuous
100
AcDbLine
 10
721.5919163028661
 20
541.696802650318
 30
0.0
 11
721.2524082462255
 21
541.0310308753703
 31
0.0
  0
LINE
  5
1219
330
A
100
AcDbEntity
  8
MODEL
  6
Continuous
100
AcDbLine
 10
722.2033109466497
 20
521.8799923851345
 30
0.0
 11
723.3338918487493
 21
520.3574308498953
 31
0.0
  0
LINE
  5
121A
330
A
100
AcDbEntity
  8
MODEL
  6
Continuous
100
AcDbLine
 10
723.3338918487493
 20
520.3574308498953
 30
0.0
 11
724.7053798238699
 21
518.9931559681152
 31
0.0
  0
LINE
  5
121B
330
A
100
AcDbEntity
  8
MODEL
  6
Continuous
100
AcDbLine
 10
724.7053798238699
 20
518.9931559681152
 30
0.0
 11
726.2080725233022
 21
517.940946791992
 31
0.0
  0
LINE
  5
121C
330
A
100
AcDbEntity
  8
MODEL
  6
Continuous
100
AcDbLine
 10
726.2080725233022
 20
517.940946791992
 30
0.0
 11
727.8067137996618
 21
517.2254647433017
 31
0.0
  0
LINE
  5
121D
330
A
100
AcDbEntity
  8
MODEL
  6
Continuous
100
AcDbLine
 10
727.8067137996618
 20
517.2254647433017
 30
0.0
 11
729.4638421337072
 21
516.8634820102905
 31
0.0
  0
LINE
  5
121E
330
A
100
AcDbEntity
  8
MODEL
  6
Continuous
100
AcDbLine
 10
729.4638421337072
 20
516.8634820102905
 30
0.0
 11
731.1406400005285
 21
516.8634820102905
 31
0.0
  0
LINE
  5
121F
330
A
100
AcDbEntity
  8
MODEL
  6
Continuous
100
AcDbLine
 10
731.1406400005285
 20
516.8634820102905
 30
0.0
 11
732.7977683345739
 21
517.2254647433017
 31
0.0
  0
LINE
  5
1220
330
A
100
AcDbEntity
  8
MODEL
  6
Continuous
100
AcDbLine
 10
732.7977683345739
 20
517.2254647433017
 30
0.0
 11
734.3964245120947
 21
517.940946791992
 31
0.0
  0
LINE
  5
1221
330
A
100
AcDbEntity
  8
MODEL
  6
Continuous
100
AcDbLine
 10
734.3964245120947
 20
517.940946791992
 30
0.0
 11
735.8991023103658
 21
518.9931559681152
 31
0.0
  0
LINE
  5
1222
330
A
100
AcDbEntity
  8
MODEL
  6
Continuous
100
AcDbLine
 10
735.8991023103658
 20
518.9931559681152
 30
0.0
 11
737.2705902854864
 21
520.3574308498953
 31
0.0
  0
LINE
  5
1223
330
A
100
AcDbEntity
  8
MODEL
  6
Continuous
100
AcDbLine
 10
737.2705902854864
 20
520.3574308498953
 30
0.0
 11
738.4787615339224
 21
522.0017926140879
 31
0.0
  0
LINE
  5
1224
330
A
100
AcDbEntity
  8
MODEL
  6
Continuous
100
AcDbLine
 10
738.4787615339224
 20
522.0017926140879
 30
0.0
 11
739.4952740470831
 21
523.8877003385876
 31
0.0
  0
LINE
  5
1225
330
A
100
AcDbEntity
  8
MODEL
  6
Continuous
100
AcDbLine
 10
739.4952740470831
 20
523.8877003385876
 30
0.0
 11
740.2963008682195
 21
525.9709492630516
 31
0.0
  0
LINE
  5
1226
330
A
100
AcDbEntity
  8
MODEL
  6
Continuous
100
AcDbLine
 10
740.2963008682195
 20
525.9709492630516
 30
0.0
 11
740.8630814353887
 21
528.2027096792315
 31
0.0
  0
LINE
  5
1227
330
A
100
AcDbEntity
  8
MODEL
  6
Continuous
100
AcDbLine
 10
740.8630814353887
 20
528.2027096792315
 30
0.0
 11
741.1823388139669
 21
530.5306714100022
 31
0.0
  0
LINE
  5
1228
330
A
100
AcDbEntity
  8
MODEL
  6
Continuous
100
AcDbLine
 10
741.1823388139669
 20
530.5306714100022
 30
0.0
 11
741.2465628187124
 21
532.9002686149631
 31
0.0
  0
LINE
  5
1229
330
A
100
AcDbEntity
  8
MODEL
  6
Continuous
100
AcDbLine
 10
741.2465628187124
 20
532.9002686149631
 30
0.0
 11
741.0542633335058
 21
535.2559601261471
 31
0.0
  0
LINE
  5
122A
330
A
100
AcDbEntity
  8
MODEL
  6
Continuous
100
AcDbLine
 10
741.0542633335058
 20
535.2559601261471
 30
0.0
 11
740.6099405090276
 21
537.542530272827
 31
0.0
  0
LINE
  5
122B
330
A
100
AcDbEntity
  8
MODEL
  6
Continuous
100
AcDbLine
 10
740.6099405090276
 20
537.542530272827
 30
0.0
 11
739.9240251581136
 21
539.7063842348014
 31
0.0
  0
LINE
  5
122C
330
A
100
AcDbEntity
  8
MODEL
  6
Continuous
100
AcDbLine
 10
739.9240251581136
 20
539.7063842348014
 30
0.0
 11
739.0125658313696
 21
541.696802650318
 31
0.0
  0
LINE
  5
122D
330
A
100
AcDbEntity
  8
MODEL
  6
Continuous
100
AcDbLine
 10
739.0125658313696
 20
541.696802650318
 30
0.0
 11
737.8969605962698
 21
543.4671323119853
 31
0.0
  0
LINE
  5
122E
330
A
100
AcDbEntity
  8
MODEL
  6
Continuous
100
AcDbLine
 10
737.8969605962698
 20
543.4671323119853
 30
0.0
 11
736.6033311883871
 21
544.9758776768301
 31
0.0
  0
LINE
  5
122F
330
A
100
AcDbEntity
  8
MODEL
  6
Continuous
100
AcDbLine
 10
736.6033311883871
 20
544.9758776768301
 30
0.0
 11
735.1620163719122
 21
546.1876754953716
 31
0.0
  0
LINE
  5
1230
330
A
100
AcDbEntity
  8
MODEL
  6
Continuous
100
AcDbLine
 10
735.1620163719122
 20
546.1876754953716
 30
0.0
 11
733.6067970792715
 21
547.0741213604067
 31
0.0
  0
LINE
  5
1231
330
A
100
AcDbEntity
  8
MODEL
  6
Continuous
100
AcDbLine
 10
733.6067970792715
 20
547.0741213604067
 30
0.0
 11
731.974106649584
 21
547.6144393279408
 31
0.0
  0
LINE
  5
1232
330
A
100
AcDbEntity
  8
MODEL
  6
Continuous
100
AcDbLine
 10
731.974106649584
 20
547.6144393279408
 30
0.0
 11
730.3022410671178
 21
547.7959634109591
 31
0.0
  0
LINE
  5
1233
330
A
100
AcDbEntity
  8
MODEL
  6
Continuous
100
AcDbLine
 10
730.3022410671178
 20
547.7959634109591
 30
0.0
 11
730.3022410671178
 21
547.7959634109591
 31
0.0
  0
DIMENSION
  5
123C
330
A
100
AcDbEntity
  8
DIM
 48
0.05
100
AcDbDimension
  2
*D6
 10
820.3674793724749
 20
828.6910336060089
 30
-104.4201163251327
 11
820.3674793724749
 21
942.9344330737073
 31
-104.4201163251327
 70
   160
 71
     5
 42
240.5045292594387
 73
     0
 74
     0
 75
     0
  3
tfrom線あり
100
AcDbAlignedDimension
 13
720.4629710217769
 23
1069.195562865448
 33
0.0
 14
485.6793828259174
 24
828.6910336060089
 34
0.0
 50
90.0
100
AcDbRotatedDimension
1001
ACAD
1000
DSTYLE
1002
{
1070
   271
1070
     1
1002
}
  0
DIMENSION
  5
124B
330
A
100
AcDbEntity
  8
DIM
 48
0.05
100
AcDbDimension
  2
*D7
 10
819.7810739760134
 20
516.3069981455062
 30
0.0
 11
803.7810739760134
 21
561.5287580832098
 31
0.0
 70
    32
 71
     5
 42
90.44351987540722
 73
     0
 74
     0
 75
     0
  3
tfrom線あり
100
AcDbAlignedDimension
 13
730.8161523143713
 23
606.7505180209134
 33
104.4201163251327
 14
728.8774367372457
 24
516.3069981455062
 34
104.4201163251327
 50
90.0
100
AcDbRotatedDimension
  0
DIMENSION
  5
125C
330
A
100
AcDbEntity
  8
DIM
 48
0.05
100
AcDbDimension
  2
*D8
 10
741.2499285507806
 20
765.5522968280698
 30
0.0
 11
405.564475772282
 21
781.5522968280698
 31
0.0
 70
    32
 71
     5
 42
671.3709055569973
 73
     0
 74
     0
 75
     0
  3
tfrom線あり
100
AcDbAlignedDimension
 13
69.87902299378334
 23
827.8937697594669
 33
0.0
 14
741.2499285507806
 24
1046.605760054871
 34
0.0
100
AcDbRotatedDimension
  0
DIMENSION
  5
1278
102
{ACAD_REACTORS
330
127A
102
}
102
{ACAD_XDICTIONARY
360
1279
102
}
330
A
100
AcDbEntity
  8
DIM
 48
0.05
100
AcDbDimension
  2
*D9
 10
785.3418684143927
 20
548.3069981455062
 30
0.0
 11
769.3418684143927
 21
532.3069981455062
 31
0.0
 70
    32
 71
     5
 42
32.0
 73
     0
 74
     0
 75
     0
  3
tfrom線あり
100
AcDbAlignedDimension
 13
728.8774367372457
 23
516.3069981455062
 33
0.0
 14
728.8774367372457
 24
548.3069981455062
 34
0.0
 50
90.0
100
AcDbRotatedDimension
  0
LINE
  5
1289
330
A
100
AcDbEntity
  8
MODEL
 48
0.05
100
AcDbLine
 10
472.7454002897207
 20
606.7505180209134
 30
0.0
 11
422.7454032699529
 21
606.7505180209134
 31
0.0
  0
LINE
  5
128A
330
A
100
AcDbEntity
  8
MODEL
 48
0.05
100
AcDbLine
 10
126.7454143564169
 20
606.7505180209134
 30
0.0
 11
76.74540243548779
 21
606.7505180209134
 31
0.0
  0
LINE
  5
128B
330
A
100
AcDbEntity
  8
MODEL
 48
0.05
100
AcDbLine
 10
873.5889485203866
 20
1059.348192025499
 30
0.0
 11
873.5889485203866
 21
1011.871542741136
 31
0.0
  0
LINE
  5
128C
330
A
100
AcDbEntity
  8
MODEL
 48
0.05
100
AcDbLine
 10
873.5889485203866
 20
856.1910343883198
 30
0.0
 11
873.5889485203866
 21
833.1910343436164
 31
0.0
  0
DIMENSION
  5
1292
330
A
100
AcDbEntity
  8
DIM
 48
0.05
100
AcDbDimension
  2
*D10
 10
1207.064881397396
 20
828.6910336060089
 30
0.0
 11
581.4089564323466
 21
852.7303897210995
 31
0.0
 70
    34
  1
<>
 71
     5
 42
0.7853981756410578
 73
     0
 74
     0
 75
     0
  3
tfrom線あり
100
AcDb2LineAngularDimension
 13
597.5673612157766
 23
902.8855787651253
 33
0.0
 14
502.484839777178
 24
807.8030549982201
 34
0.0
 15
485.6793828259174
 25
828.6910336060089
 35
0.0
 16
568.392557244925
 26
840.7540366109739
 36
0.0
1001
ACAD
1000
DSTYLE
1002
{
1070
   179
1070
     0
1002
}
  0
VIEWPORT
  5
349
330
B
100
AcDbEntity
 67
     1
  8
0
100
AcDbViewport
 10
202.5
 20
128.5
 30
0.0
 40
486.0
 41
308.4
 68
     1
 69
     1
 12
202.5
 22
128.5
 13
0.0
 23
0.0
 14
0.5
 24
0.5
 15
0.0
 25
0.0
 16
0.0
 26
0.0
 36
1.0
 17
0.0
 27
0.0
 37
0.0
 42
50.0
 43
0.0
 44
0.0
 45
308.4
 50
0.0
 51
0.0
 72
   100
 90
   557152
  1

281
     0
 71
     1
 74
     0
110
0.0
120
0.0
130
0.0
111
1.0
121
0.0
131
0.0
112
0.0
122
1.0
132
0.0
 79
     0
146
0.0
170
     0
 61
     5
348
26C
292
     1
282
     1
141
0.0
142
0.0
 63
   256
  0
VIEWPORT
  5
34A
330
B
100
AcDbEntity
 67
     1
  8
0
100
AcDbViewport
 10
202.5
 20
128.5
 30
0.0
 40
324.0
 41
205.6
 68
     2
 69
     2
 12
986.6781359294573
 22
1427.077061889956
 13
0.0
 23
0.0
 14
0.5
 24
0.5
 15
0.0
 25
0.0
 16
0.0
 26
0.0
 36
1.0
 17
0.0
 27
0.0
 37
0.0
 42
50.0
 43
0.0
 44
0.0
 45
2890.021615685494
 50
0.0
 51
0.0
 72
   100
 90
   557152
  1

281
     0
 71
     1
 74
     0
110
0.0
120
0.0
130
0.0
111
1.0
121
0.0
131
0.0
112
0.0
122
1.0
132
0.0
 79
     0
146
0.0
170
     0
 61
     5
348
26C
292
     1
282
     1
141
0.0
142
0.0
 63
   256
  0
ENDSEC
  0
SECTION
  2
OBJECTS
  0
DICTIONARY
  5
19
330
0
100
AcDbDictionary
281
     1
  3
ACAD_COLOR
350
674
  3
ACAD_DETAILVIEWSTYLE
350
BBF
  3
ACAD_GROUP
350
1A
  3
ACAD_IMAGE_VARS
350
27B
  3
ACAD_LAYOUT
350
1E
  3
ACAD_MATERIAL
350
263
  3
ACAD_MLEADERSTYLE
350
336
  3
ACAD_MLINESTYLE
350
1B
  3
ACAD_PLOTSETTINGS
350
22
  3
ACAD_PLOTSTYLENAME
350
1F
  3
ACAD_SCALELIST
350
241
  3
ACAD_SECTIONVIEWSTYLE
350
BC0
  3
ACAD_TABLESTYLE
350
278
  3
ACAD_VISUALSTYLE
350
267
  3
ACDB_RECOMPOSE_DATA
350
12B0
  3
AcDbVariableDictionary
350
330
  3
APPDATA
350
27A
  0
SUN
  5
904
330
15
100
AcDbSun
 90
        1
290
     0
 63
     7
421
 16777215
 40
1.0
291
     1
 91
  2455826
 92
 54000000
292
     0
 70
     2
 71
   256
280
     1
  0
DICTIONARY
  5
2E1
330
2
100
AcDbDictionary
280
     1
281
     1
  3
ACAD_LAYERSTATES
360
2E2
  3
ACLYDICTIONARY
360
DDE
  0
DICTIONARY
  5
1279
330
1278
100
AcDbDictionary
280
     1
281
     1
  3
ACAD_DIMASSOC
360
127A
  0
DICTIONARY
  5
674
102
{ACAD_REACTORS
330
19
102
}
330
19
100
AcDbDictionary
281
     1
  0
DICTIONARY
  5
BBF
102
{ACAD_REACTORS
330
19
102
}
330
19
100
AcDbDictionary
281
     1
  0
DICTIONARY
  5
1A
102
{ACAD_REACTORS
330
19
102
}
330
19
100
AcDbDictionary
281
     1
  0
RASTERVARIABLES
  5
27B
102
{ACAD_REACTORS
330
19
102
}
330
19
100
AcDbRasterVariables
 90
        0
 70
     1
 71
     1
 72
     1
  0
DICTIONARY
  5
1E
102
{ACAD_REACTORS
330
19
102
}
330
19
100
AcDbDictionary
281
     1
  3
Layout1
350
21
  3
Model
350
20
  0
DICTIONARY
  5
263
102
{ACAD_REACTORS
330
19
102
}
330
19
100
AcDbDictionary
281
     1
  3
ByLayer
350
264
  3
Global
350
266
  0
DICTIONARY
  5
336
102
{ACAD_REACTORS
330
19
102
}
330
19
100
AcDbDictionary
281
     1
  3
Standard
350
D59
  0
DICTIONARY
  5
1B
102
{ACAD_REACTORS
330
19
102
}
330
19
100
AcDbDictionary
281
     1
  3
Standard
350
1C
  0
DICTIONARY
  5
22
102
{ACAD_REACTORS
330
19
102
}
330
19
100
AcDbDictionary
281
     1
  0
ACDBDICTIONARYWDFLT
  5
1F
102
{ACAD_REACTORS
330
19
102
}
330
19
100
AcDbDictionary
281
     1
  3
Normal
350
1D
100
AcDbDictionaryWithDefault
340
1D
  0
DICTIONARY
  5
241
102
{ACAD_REACTORS
330
19
102
}
330
19
100
AcDbDictionary
281
     1
  3
A0
350
242
  3
A1
350
243
  3
A2
350
244
  3
A3
350
245
  3
A4
350
246
  3
A5
350
247
  3
A6
350
248
  3
A7
350
249
  3
A8
350
24A
  3
A9
350
24B
  3
B0
350
24C
  3
B1
350
24D
  3
B2
350
24E
  3
B3
350
24F
  3
B4
350
250
  3
B5
350
251
  3
B6
350
252
  3
B7
350
253
  3
B8
350
254
  3
B9
350
255
  3
C0
350
256
  3
C1
350
257
  3
C2
350
258
  3
C3
350
259
  3
C4
350
25A
  3
C5
350
25B
  3
C6
350
25C
  3
C7
350
25D
  3
C8
350
25E
  3
C9
350
25F
  3
D0
350
260
  3
D1
350
261
  3
D2
350
262
  0
DICTIONARY
  5
BC0
102
{ACAD_REACTORS
330
19
102
}
330
19
100
AcDbDictionary
281
     1
  0
DICTIONARY
  5
278
102
{ACAD_REACTORS
330
19
102
}
330
19
100
AcDbDictionary
281
     1
  3
Standard
350
279
  0
DICTIONARY
  5
267
102
{ACAD_REACTORS
330
19
102
}
330
19
100
AcDbDictionary
281
     1
  3
2dWireframe
350
26C
  3
3D Hidden
350
26E
  3
3dWireframe
350
26D
  3
Basic
350
26F
  3
Brighten
350
273
  3
ColorChange
350
277
  3
Conceptual
350
271
  3
Dim
350
272
  3
EdgeColorOff
350
8FE
  3
Facepattern
350
276
  3
Flat
350
268
  3
FlatWithEdges
350
269
  3
Gouraud
350
26A
  3
GouraudWithEdges
350
26B
  3
Hidden
350
8FB
  3
JitterOff
350
8FC
  3
Linepattern
350
275
  3
OverhangOff
350
8FD
  3
Realistic
350
270
  3
Shaded
350
903
  3
Shaded with edges
350
902
  3
Shades of Gray
350
8FF
  3
Sketchy
350
900
  3
Thicken
350
274
  3
Wireframe
350
8FA
  3
X-Ray
350
901
  0
XRECORD
  5
12B0
102
{ACAD_REACTORS
330
19
102
}
330
19
100
AcDbXrecord
280
     1
 90
        1
330
279
  0
DICTIONARY
  5
330
102
{ACAD_REACTORS
330
19
102
}
330
19
100
AcDbDictionary
281
     1
  3
CANNOSCALE
350
331
  3
CMLEADERSTYLE
350
D5E
  3
CTABLESTYLE
350
335
  3
HPTRANSPARENCY
350
D52
  3
XCLIPFRAME
350
896
  0
DICTIONARY
  5
27A
102
{ACAD_REACTORS
330
19
102
}
330
19
100
AcDbDictionary
281
     1
  0
DICTIONARY
  5
2E2
102
{ACAD_REACTORS
330
2E1
102
}
330
2E1
100
AcDbDictionary
281
     1
  3
ARGON_LAYERP_9
350
7AA
  0
DICTIONARY
  5
DDE
102
{ACAD_REACTORS
330
2E1
102
}
330
2E1
100
AcDbDictionary
281
     1
1001
ACAD
1000
<All
  0
DIMASSOC
  5
127A
102
{ACAD_REACTORS
330
1279
102
}
330
1279
100
AcDbDimAssoc
330
1278
 90
        1
 70
     0
 71
     1
  1
AcDbOsnapPointRef
 72
     1
331
1172
 73
     0
 91
        0
 40
0.0
 10
0.0
 20
0.0
 30
0.0
 75
     0
  0
LAYOUT
  5
21
102
{ACAD_REACTORS
330
1E
102
}
330
1E
100
AcDbPlotSettings
  1

  2
none_device
  4
ISO_A3_(420.00_x_297.00_MM)
  6

 40
7.5
 41
20.0
 42
7.5
 43
20.0
 44
420.0
 45
297.0
 46
0.0
 47
0.0
 48
0.0
 49
0.0
140
0.0
141
0.0
142
1.0
143
1.0
 70
     0
 72
     1
 73
     0
 74
     0
  7

 75
     0
 76
     0
 77
     2
 78
   300
147
1.0
148
0.0
149
0.0
100
AcDbLayout
  1
Layout1
 70
     0
 71
     0
 10
-7.5
 20
-20.0
 11
412.5
 21
277.0
 12
0.0
 22
0.0
 32
0.0
 14
0.0
 24
0.0
 34
0.0
 15
0.0
 25
0.0
 35
0.0
146
0.0
 13
0.0
 23
0.0
 33
0.0
 16
0.0
 26
0.0
 36
0.0
 17
0.0
 27
0.0
 37
0.0
 76
     0
330
B
331
349
  0
LAYOUT
  5
20
102
{ACAD_REACTORS
330
1E
102
}
330
1E
100
AcDbPlotSettings
  1

  2
none_device
  4
ISO_A3_(420.00_x_297.00_MM)
  6

 40
7.5
 41
20.0
 42
7.5
 43
20.0
 44
420.0
 45
297.0
 46
0.0
 47
0.0
 48
0.0
 49
0.0
140
0.0
141
0.0
142
1.0
143
1.0
 70
  1024
 72
     1
 73
     0
 74
     0
  7

 75
     0
 76
     0
 77
     2
 78
   300
147
1.0
148
0.0
149
0.0
100
AcDbLayout
  1
Model
 70
     0
 71
     1
 10
0.0
 20
0.0
 11
1050.0
 21
1485.0
 12
0.0
 22
0.0
 32
0.0
 14
0.0
 24
0.0
 34
-104.4201163251327
 15
1207.064881397396
 25
1485.0
 35
0.0000000000000071
146
0.0
 13
0.0
 23
0.0
 33
0.0
 16
0.0
 26
0.0
 36
0.0
 17
0.0
 27
0.0
 37
0.0
 76
     0
330
A
331
15
  0
MATERIAL
  5
264
102
{ACAD_REACTORS
330
263
102
}
330
263
100
AcDbMaterial
  1
ByLayer
 72
     1
 94
      127
  0
MATERIAL
  5
266
102
{ACAD_REACTORS
330
263
102
}
330
263
100
AcDbMaterial
  1
Global
 72
     1
 94
      127
  0
MLEADERSTYLE
  5
D59
102
{ACAD_REACTORS
330
336
102
}
330
336
100
AcDbMLeaderStyle
170
     2
171
     1
172
     0
 90
        2
 40
0.0
 41
0.0
173
     1
 91
-1056964608
340
11
 92
       -2
290
     1
 42
2.0
291
     1
 43
8.0
  3
Standard
341
0
 44
4.0
300

342
17
174
     1
178
     6
175
     1
176
     0
 93
-1056964608
 45
4.0
292
     0
297
     0
 46
4.0
343
0
 94
-1056964608
 47
1.0
 49
1.0
140
1.0
293
     1
141
0.0
294
     1
177
     0
142
1.0
295
     0
296
     0
143
3.75
1001
ACAD_MLEADERVER
1070
     2
  0
MLINESTYLE
  5
1C
102
{ACAD_REACTORS
330
1B
102
}
330
1B
100
AcDbMlineStyle
  2
Standard
 70
     0
  3

 62
     0
 51
90.0
 52
90.0
 71
     2
 49
0.5
 62
   256
  6
BYLAYER
 49
-0.5
 62
   256
  6
BYLAYER
  0
ACDBPLACEHOLDER
  5
1D
102
{ACAD_REACTORS
330
1F
102
}
330
1F
  0
SCALE
  5
242
102
{ACAD_REACTORS
330
241
102
}
330
241
100
AcDbScale
 70
     0
300
1:1
140
1.0
141
1.0
290
     1
  0
SCALE
  5
243
102
{ACAD_REACTORS
330
241
102
}
330
241
100
AcDbScale
 70
     0
300
1:2
140
1.0
141
2.0
290
     0
  0
SCALE
  5
244
102
{ACAD_REACTORS
330
241
102
}
330
241
100
AcDbScale
 70
     0
300
1:4
140
1.0
141
4.0
290
     0
  0
SCALE
  5
245
102
{ACAD_REACTORS
330
241
102
}
330
241
100
AcDbScale
 70
     0
300
1:5
140
1.0
141
5.0
290
     0
  0
SCALE
  5
246
102
{ACAD_REACTORS
330
241
102
}
330
241
100
AcDbScale
 70
     0
300
1:8
140
1.0
141
8.0
290
     0
  0
SCALE
  5
247
102
{ACAD_REACTORS
330
241
102
}
330
241
100
AcDbScale
 70
     0
300
1:10
140
1.0
141
10.0
290
     0
  0
SCALE
  5
248
102
{ACAD_REACTORS
330
241
102
}
330
241
100
AcDbScale
 70
     0
300
1:16
140
1.0
141
16.0
290
     0
  0
SCALE
  5
249
102
{ACAD_REACTORS
330
241
102
}
330
241
100
AcDbScale
 70
     0
300
1:20
140
1.0
141
20.0
290
     0
  0
SCALE
  5
24A
102
{ACAD_REACTORS
330
241
102
}
330
241
100
AcDbScale
 70
     0
300
1:30
140
1.0
141
30.0
290
     0
  0
SCALE
  5
24B
102
{ACAD_REACTORS
330
241
102
}
330
241
100
AcDbScale
 70
     0
300
1:40
140
1.0
141
40.0
290
     0
  0
SCALE
  5
24C
102
{ACAD_REACTORS
330
241
102
}
330
241
100
AcDbScale
 70
     0
300
1:50
140
1.0
141
50.0
290
     0
  0
SCALE
  5
24D
102
{ACAD_REACTORS
330
241
102
}
330
241
100
AcDbScale
 70
     0
300
1:100
140
1.0
141
100.0
290
     0
  0
SCALE
  5
24E
102
{ACAD_REACTORS
330
241
102
}
330
241
100
AcDbScale
 70
     0
300
2:1
140
2.0
141
1.0
290
     0
  0
SCALE
  5
24F
102
{ACAD_REACTORS
330
241
102
}
330
241
100
AcDbScale
 70
     0
300
4:1
140
4.0
141
1.0
290
     0
  0
SCALE
  5
250
102
{ACAD_REACTORS
330
241
102
}
330
241
100
AcDbScale
 70
     0
300
8:1
140
8.0
141
1.0
290
     0
  0
SCALE
  5
251
102
{ACAD_REACTORS
330
241
102
}
330
241
100
AcDbScale
 70
     0
300
10:1
140
10.0
141
1.0
290
     0
  0
SCALE
  5
252
102
{ACAD_REACTORS
330
241
102
}
330
241
100
AcDbScale
 70
     0
300
100:1
140
100.0
141
1.0
290
     0
  0
SCALE
  5
253
102
{ACAD_REACTORS
330
241
102
}
330
241
100
AcDbScale
 70
     0
300
1/128" = 1'-0"
140
0.0078125
141
12.0
290
     0
  0
SCALE
  5
254
102
{ACAD_REACTORS
330
241
102
}
330
241
100
AcDbScale
 70
     0
300
1/64" = 1'-0"
140
0.015625
141
12.0
290
     0
  0
SCALE
  5
255
102
{ACAD_REACTORS
330
241
102
}
330
241
100
AcDbScale
 70
     0
300
1/32" = 1'-0"
140
0.03125
141
12.0
290
     0
  0
SCALE
  5
256
102
{ACAD_REACTORS
330
241
102
}
330
241
100
AcDbScale
 70
     0
300
1/16" = 1'-0"
140
0.0625
141
12.0
290
     0
  0
SCALE
  5
257
102
{ACAD_REACTORS
330
241
102
}
330
241
100
AcDbScale
 70
     0
300
3/32" = 1'-0"
140
0.09375
141
12.0
290
     0
  0
SCALE
  5
258
102
{ACAD_REACTORS
330
241
102
}
330
241
100
AcDbScale
 70
     0
300
1/8" = 1'-0"
140
0.125
141
12.0
290
     0
  0
SCALE
  5
259
102
{ACAD_REACTORS
330
241
102
}
330
241
100
AcDbScale
 70
     0
300
3/16" = 1'-0"
140
0.1875
141
12.0
290
     0
  0
SCALE
  5
25A
102
{ACAD_REACTORS
330
241
102
}
330
241
100
AcDbScale
 70
     0
300
1/4" = 1'-0"
140
0.25
141
12.0
290
     0
  0
SCALE
  5
25B
102
{ACAD_REACTORS
330
241
102
}
330
241
100
AcDbScale
 70
     0
300
3/8" = 1'-0"
140
0.375
141
12.0
290
     0
  0
SCALE
  5
25C
102
{ACAD_REACTORS
330
241
102
}
330
241
100
AcDbScale
 70
     0
300
1/2" = 1'-0"
140
0.5
141
12.0
290
     0
  0
SCALE
  5
25D
102
{ACAD_REACTORS
330
241
102
}
330
241
100
AcDbScale
 70
     0
300
3/4" = 1'-0"
140
0.75
141
12.0
290
     0
  0
SCALE
  5
25E
102
{ACAD_REACTORS
330
241
102
}
330
241
100
AcDbScale
 70
     0
300
1" = 1'-0"
140
1.0
141
12.0
290
     0
  0
SCALE
  5
25F
102
{ACAD_REACTORS
330
241
102
}
330
241
100
AcDbScale
 70
     0
300
1-1/2" = 1'-0"
140
1.5
141
12.0
290
     0
  0
SCALE
  5
260
102
{ACAD_REACTORS
330
241
102
}
330
241
100
AcDbScale
 70
     0
300
3" = 1'-0"
140
3.0
141
12.0
290
     0
  0
SCALE
  5
261
102
{ACAD_REACTORS
330
241
102
}
330
241
100
AcDbScale
 70
     0
300
6" = 1'-0"
140
6.0
141
12.0
290
     0
  0
SCALE
  5
262
102
{ACAD_REACTORS
330
241
102
}
330
241
100
AcDbScale
 70
     0
300
1'-0" = 1'-0"
140
12.0
141
12.0
290
     0
  0
TABLESTYLE
  5
279
102
{ACAD_REACTORS
330
278
102
}
102
{ACAD_XDICTIONARY
360
12AE
102
}
330
278
100
AcDbTableStyle
  3
Standard
 70
     0
 71
     0
 40
0.06
 41
0.06
280
     0
281
     0
  7
Standard
140
4.5
170
     2
 62
     0
 63
   257
283
     0
 90
        4
 91
        0
  1

274
    -2
284
     1
 64
     0
275
    -2
285
     1
 65
     0
276
    -2
286
     1
 66
     0
277
    -2
287
     1
 67
     0
278
    -2
288
     1
 68
     0
279
    -2
289
     1
 69
     0
  7
Standard
140
6.0
170
     5
 62
     0
 63
   257
283
     0
 90
        4
 91
        0
  1

274
    -2
284
     1
 64
     0
275
    -2
285
     1
 65
     0
276
    -2
286
     1
 66
     0
277
    -2
287
     1
 67
     0
278
    -2
288
     1
 68
     0
279
    -2
289
     1
 69
     0
  7
Standard
140
4.5
170
     5
 62
     0
 63
   257
283
     0
 90
        4
 91
        0
  1

274
    -2
284
     1
 64
     0
275
    -2
285
     1
 65
     0
276
    -2
286
     1
 66
     0
277
    -2
287
     1
 67
     0
278
    -2
288
     1
 68
     0
279
    -2
289
     1
 69
     0
  0
VISUALSTYLE
  5
26C
102
{ACAD_REACTORS
330
267
102
}
330
267
100
AcDbVisualStyle
  2
2dWireframe
 70
     4
 71
     0
 72
     2
 73
     0
 90
        0
 40
-0.6
 41
-30.0
 62
     5
 63
     7
421
 16777215
 74
     1
 91
        4
 64
     7
 65
   257
 75
     1
175
     1
 42
1.0
 92
        0
 66
   257
 43
1.0
 76
     1
 77
     6
 78
     2
 67
     7
 79
     5
170
     0
171
     0
290
     0
174
     0
 93
        1
 44
0.0
173
     0
291
     0
 45
0.0
  0
VISUALSTYLE
  5
26E
102
{ACAD_REACTORS
330
267
102
}
330
267
100
AcDbVisualStyle
  2
3D Hidden
 70
     6
 71
     1
 72
     2
 73
     2
 90
        0
 40
-0.6
 41
-30.0
 62
     5
 63
     7
421
 16777215
 74
     2
 91
        2
 64
     7
 65
   257
 75
     2
175
     1
 42
40.0
 92
        0
 66
   257
 43
1.0
 76
     1
 77
     6
 78
     2
 67
     7
 79
     3
170
     0
171
     0
290
     0
174
     0
 93
        1
 44
0.0
173
     0
291
     0
 45
0.0
  0
VISUALSTYLE
  5
26D
102
{ACAD_REACTORS
330
267
102
}
330
267
100
AcDbVisualStyle
  2
3dWireframe
 70
     5
 71
     0
 72
     2
 73
     0
 90
        0
 40
-0.6
 41
-30.0
 62
     5
 63
     7
421
 16777215
 74
     1
 91
        4
 64
     7
 65
   257
 75
     1
175
     1
 42
1.0
 92
        0
 66
   257
 43
1.0
 76
     1
 77
     6
 78
     2
 67
     7
 79
     5
170
     0
171
     0
290
     0
174
     0
 93
        1
 44
0.0
173
     0
291
     0
 45
0.0
  0
VISUALSTYLE
  5
26F
102
{ACAD_REACTORS
330
267
102
}
330
267
100
AcDbVisualStyle
  2
Basic
 70
     7
 71
     1
 72
     0
 73
     1
 90
        0
 40
-0.6
 41
-30.0
 62
     5
 63
     7
421
 16777215
 74
     0
 91
        4
 64
     7
 65
   257
 75
     1
175
     1
 42
1.0
 92
        8
 66
     7
 43
1.0
 76
     1
 77
     6
 78
     2
 67
     7
 79
     5
170
     0
171
     0
290
     0
174
     0
 93
        1
 44
0.0
173
     0
291
     1
 45
0.0
  0
VISUALSTYLE
  5
273
102
{ACAD_REACTORS
330
267
102
}
330
267
100
AcDbVisualStyle
  2
Brighten
 70
    12
 71
     2
 72
     2
 73
     0
 90
        0
 40
-0.6
 41
-30.0
 62
     5
 63
     7
421
 16777215
 74
     1
 91
        4
 64
     7
 65
   257
 75
     1
175
     1
 42
1.0
 92
        8
 66
     7
 43
1.0
 76
     1
 77
     6
 78
     2
 67
     7
 79
     5
170
     0
171
     0
290
     0
174
     0
 93
        1
 44
50.0
173
     0
291
     1
 45
0.0
  0
VISUALSTYLE
  5
277
102
{ACAD_REACTORS
330
267
102
}
330
267
100
AcDbVisualStyle
  2
ColorChange
 70
    16
 71
     2
 72
     2
 73
     3
 90
        0
 40
-0.6
 41
-30.0
 62
     5
 63
     8
421
  8421504
 74
     1
 91
        4
 64
     7
 65
   257
 75
     1
175
     1
 42
1.0
 92
        8
 66
     8
424
  8421504
 43
1.0
 76
     1
 77
     6
 78
     2
 67
     7
 79
     5
170
     0
171
     0
290
     0
174
     0
 93
        1
 44
0.0
173
     0
291
     1
 45
0.0
  0
VISUALSTYLE
  5
271
102
{ACAD_REACTORS
330
267
102
}
330
267
100
AcDbVisualStyle
  2
Conceptual
 70
     9
 71
     3
 72
     2
 73
     0
 90
        0
 40
-0.6
 41
-30.0
 62
     5
 63
     7
421
 16777215
 74
     2
 91
        2
 64
     7
 65
   257
 75
     1
175
     1
 42
40.0
 92
        8
 66
     7
 43
1.0
 76
     1
 77
     6
 78
     2
 67
     7
 79
     3
170
     0
171
     0
290
     0
174
     0
 93
        1
 44
0.0
173
     0
291
     0
 45
0.0
  0
VISUALSTYLE
  5
272
102
{ACAD_REACTORS
330
267
102
}
330
267
100
AcDbVisualStyle
  2
Dim
 70
    11
 71
     2
 72
     2
 73
     0
 90
        0
 40
-0.6
 41
-30.0
 62
     5
 63
     7
421
 16777215
 74
     1
 91
        4
 64
     7
 65
   257
 75
     1
175
     1
 42
1.0
 92
        8
 66
     7
 43
1.0
 76
     1
 77
     6
 78
     2
 67
     7
 79
     5
170
     0
171
     0
290
     0
174
     0
 93
        1
 44
-50.0
173
     0
291
     1
 45
0.0
  0
VISUALSTYLE
  5
8FE
102
{ACAD_REACTORS
330
267
102
}
330
267
100
AcDbVisualStyle
  2
EdgeColorOff
 70
    22
 71
     2
 72
     2
 73
     0
 90
        0
 40
0.6
 41
30.0
 62
     5
 63
     7
421
 16777215
 74
     1
 91
        4
 64
     7
 65
   257
 75
     1
175
     1
 42
1.0
 92
        8
 66
     7
 43
1.0
 76
     1
 77
     6
 78
     2
 67
     7
 79
     5
170
     0
171
     0
290
     0
174
     0
 93
        1
 44
0.0
173
     0
291
     1
 45
0.0
  0
VISUALSTYLE
  5
276
102
{ACAD_REACTORS
330
267
102
}
330
267
100
AcDbVisualStyle
  2
Facepattern
 70
    15
 71
     2
 72
     2
 73
     0
 90
        0
 40
-0.6
 41
-30.0
 62
     5
 63
     7
421
 16777215
 74
     1
 91
        4
 64
     7
 65
   257
 75
     1
175
     1
 42
1.0
 92
        8
 66
     7
 43
1.0
 76
     1
 77
     6
 78
     2
 67
     7
 79
     5
170
     0
171
     0
290
     0
174
     0
 93
        1
 44
0.0
173
     0
291
     1
 45
0.0
  0
VISUALSTYLE
  5
268
102
{ACAD_REACTORS
330
267
102
}
330
267
100
AcDbVisualStyle
  2
Flat
 70
     0
 71
     2
 72
     1
 73
     1
 90
        2
 40
-0.6
 41
30.0
 62
     5
 63
     7
421
 16777215
 74
     0
 91
        4
 64
     7
 65
   257
 75
     1
175
     1
 42
1.0
 92
        8
 66
     7
 43
1.0
 76
     1
 77
     6
 78
     2
 67
     7
 79
     5
170
     0
171
     0
290
     0
174
     0
 93
       13
 44
0.0
173
     0
291
     1
 45
0.0
  0
VISUALSTYLE
  5
269
102
{ACAD_REACTORS
330
267
102
}
330
267
100
AcDbVisualStyle
  2
FlatWithEdges
 70
     1
 71
     2
 72
     1
 73
     1
 90
        2
 40
-0.6
 41
30.0
 62
     5
 63
     7
421
 16777215
 74
     1
 91
        4
 64
     7
 65
   257
 75
     1
175
     1
 42
1.0
 92
        0
 66
   257
 43
1.0
 76
     1
 77
     6
 78
     2
 67
     7
 79
     5
170
     0
171
     0
290
     0
174
     0
 93
       13
 44
0.0
173
     0
291
     1
 45
0.0
  0
VISUALSTYLE
  5
26A
102
{ACAD_REACTORS
330
267
102
}
330
267
100
AcDbVisualStyle
  2
Gouraud
 70
     2
 71
     2
 72
     2
 73
     1
 90
        2
 40
-0.6
 41
30.0
 62
     5
 63
     7
421
 16777215
 74
     0
 91
        4
 64
     7
 65
   257
 75
     1
175
     1
 42
1.0
 92
        0
 66
     7
 43
1.0
 76
     1
 77
     6
 78
     2
 67
     7
 79
     5
170
     0
171
     0
290
     0
174
     0
 93
       13
 44
0.0
173
     0
291
     1
 45
0.0
  0
VISUALSTYLE
  5
26B
102
{ACAD_REACTORS
330
267
102
}
330
267
100
AcDbVisualStyle
  2
GouraudWithEdges
 70
     3
 71
     2
 72
     2
 73
     1
 90
        2
 40
-0.6
 41
30.0
 62
     5
 63
     7
421
 16777215
 74
     1
 91
        4
 64
     7
 65
   257
 75
     1
175
     1
 42
1.0
 92
        0
 66
   257
 43
1.0
 76
     1
 77
     6
 78
     2
 67
     7
 79
     5
170
     0
171
     0
290
     0
174
     0
 93
       13
 44
0.0
173
     0
291
     1
 45
0.0
  0
VISUALSTYLE
  5
8FB
102
{ACAD_REACTORS
330
267
102
}
330
267
100
AcDbVisualStyle
  2
Hidden
 70
     6
 71
     1
 72
     2
 73
     2
 90
        0
 40
0.6
 41
30.0
 62
     5
 63
     7
421
 16777215
 74
     2
 91
        2
 64
     7
 65
   257
 75
     2
175
     1
 42
40.0
 92
        0
 66
   257
 43
1.0
 76
     1
 77
     6
 78
     2
 67
     7
 79
     3
170
     0
171
     0
290
     0
174
     0
 93
        1
 44
0.0
173
     0
291
     0
 45
0.0
  0
VISUALSTYLE
  5
8FC
102
{ACAD_REACTORS
330
267
102
}
330
267
100
AcDbVisualStyle
  2
JitterOff
 70
    20
 71
     2
 72
     2
 73
     0
 90
        0
 40
0.6
 41
30.0
 62
     5
 63
     7
421
 16777215
 74
     1
 91
        4
 64
     7
 65
   257
 75
     1
175
     1
 42
1.0
 92
       10
 66
     7
 43
1.0
 76
     1
 77
     6
 78
     2
 67
     7
 79
     5
170
     0
171
     0
290
     0
174
     0
 93
        1
 44
0.0
173
     0
291
     1
 45
0.0
  0
VISUALSTYLE
  5
275
102
{ACAD_REACTORS
330
267
102
}
330
267
100
AcDbVisualStyle
  2
Linepattern
 70
    14
 71
     2
 72
     2
 73
     0
 90
        0
 40
-0.6
 41
-30.0
 62
     5
 63
     7
421
 16777215
 74
     1
 91
        4
 64
     7
 65
   257
 75
     7
175
     7
 42
1.0
 92
        8
 66
     7
 43
1.0
 76
     1
 77
     6
 78
     2
 67
     7
 79
     5
170
     0
171
     0
290
     0
174
     0
 93
        1
 44
0.0
173
     0
291
     1
 45
0.0
  0
VISUALSTYLE
  5
8FD
102
{ACAD_REACTORS
330
267
102
}
330
267
100
AcDbVisualStyle
  2
OverhangOff
 70
    21
 71
     2
 72
     2
 73
     0
 90
        0
 40
0.6
 41
30.0
 62
     5
 63
     7
421
 16777215
 74
     1
 91
        4
 64
     7
 65
   257
 75
     1
175
     1
 42
1.0
 92
        9
 66
     7
 43
1.0
 76
     1
 77
     6
 78
     2
 67
     7
 79
     5
170
     0
171
     0
290
     0
174
     0
 93
        1
 44
0.0
173
     0
291
     1
 45
0.0
  0
VISUALSTYLE
  5
270
102
{ACAD_REACTORS
330
267
102
}
330
267
100
AcDbVisualStyle
  2
Realistic
 70
     8
 71
     2
 72
     2
 73
     0
 90
        0
 40
-0.6
 41
-30.0
 62
     5
 63
     7
421
 16777215
 74
     1
 91
        0
 64
     7
 65
   257
 75
     1
175
     1
 42
1.0
 92
        8
 66
     8
424
  7895160
 43
1.0
 76
     1
 77
     6
 78
     2
 67
     7
 79
     5
170
     0
171
     0
290
     0
174
     0
 93
       13
 44
0.0
173
     0
291
     0
 45
0.0
  0
VISUALSTYLE
  5
903
102
{ACAD_REACTORS
330
267
102
}
330
267
100
AcDbVisualStyle
  2
Shaded
 70
    27
 71
     2
 72
     2
 73
     1
 90
        2
 40
0.6
 41
30.0
 62
     5
 63
     7
421
 16777215
 74
     0
 91
        4
 64
     7
 65
   257
 75
     1
175
     1
 42
1.0
 92
        8
 66
   257
 43
1.0
 76
     1
 77
     6
 78
     2
 67
     8
425
  7895160
 79
     3
170
     0
171
     0
290
     0
174
     0
 93
        5
 44
0.0
173
     0
291
     0
 45
0.0
  0
VISUALSTYLE
  5
902
102
{ACAD_REACTORS
330
267
102
}
330
267
100
AcDbVisualStyle
  2
Shaded with edges
 70
    26
 71
     2
 72
     2
 73
     1
 90
        2
 40
0.6
 41
30.0
 62
     5
 63
     7
421
 16777215
 74
     1
 91
       10
 64
     7
 65
   257
 75
     2
175
     1
 42
1.0
 92
        8
 66
   257
 43
1.0
 76
     1
 77
     6
 78
     2
 67
     7
 79
     3
170
     0
171
     0
290
     0
174
     0
 93
        5
 44
0.0
173
     0
291
     0
 45
0.0
  0
VISUALSTYLE
  5
8FF
102
{ACAD_REACTORS
330
267
102
}
330
267
100
AcDbVisualStyle
  2
Shades of Gray
 70
    23
 71
     2
 72
     2
 73
     3
 90
        0
 40
0.6
 41
30.0
 62
     5
 63
     7
421
 16777215
 74
     2
 91
        2
 64
     7
 65
     7
 75
     1
175
     1
 42
40.0
 92
        8
 66
     7
 43
1.0
 76
     1
 77
     6
 78
     2
 67
     7
 79
     3
170
     0
171
     0
290
     0
174
     0
 93
        1
 44
0.0
173
     0
291
     0
 45
0.0
  0
VISUALSTYLE
  5
900
102
{ACAD_REACTORS
330
267
102
}
330
267
100
AcDbVisualStyle
  2
Sketchy
 70
    24
 71
     1
 72
     2
 73
     2
 90
        0
 40
0.6
 41
30.0
 62
     5
 63
     7
421
 16777215
 74
     2
 91
        2
 64
     7
 65
     7
 75
     1
175
     1
 42
40.0
 92
       11
 66
     7
 43
1.0
 76
     1
 77
     6
 78
     2
 67
     7
 79
     6
170
     0
171
     0
290
     0
174
     0
 93
        1
 44
0.0
173
     0
291
     0
 45
0.0
  0
VISUALSTYLE
  5
274
102
{ACAD_REACTORS
330
267
102
}
330
267
100
AcDbVisualStyle
  2
Thicken
 70
    13
 71
     2
 72
     2
 73
     0
 90
        0
 40
-0.6
 41
-30.0
 62
     5
 63
     7
421
 16777215
 74
     1
 91
        4
 64
     7
 65
   257
 75
     1
175
     1
 42
1.0
 92
       12
 66
     7
 43
1.0
 76
     1
 77
     6
 78
     2
 67
     7
 79
     5
170
     0
171
     0
290
     0
174
     0
 93
        1
 44
0.0
173
     0
291
     1
 45
0.0
  0
VISUALSTYLE
  5
8FA
102
{ACAD_REACTORS
330
267
102
}
330
267
100
AcDbVisualStyle
  2
Wireframe
 70
     5
 71
     0
 72
     2
 73
     0
 90
        0
 40
0.6
 41
30.0
 62
     5
 63
     7
421
 16777215
 74
     1
 91
        4
 64
     7
 65
   257
 75
     1
175
     1
 42
1.0
 92
        0
 66
   257
 43
1.0
 76
     1
 77
     6
 78
     2
 67
     7
 79
     3
170
     0
171
     0
290
     0
174
     0
 93
        1
 44
0.0
173
     0
291
     0
 45
0.0
  0
VISUALSTYLE
  5
901
102
{ACAD_REACTORS
330
267
102
}
330
267
100
AcDbVisualStyle
  2
X-Ray
 70
    25
 71
     2
 72
     2
 73
     1
 90
        1
 40
0.5
 41
30.0
 62
     5
 63
     7
421
 16777215
 74
     1
 91
        0
 64
     7
 65
   257
 75
     1
175
     1
 42
1.0
 92
        8
 66
     7
 43
1.0
 76
     1
 77
     6
 78
     2
 67
     7
 79
     3
170
     0
171
     0
290
     0
174
     0
 93
       13
 44
0.0
173
     0
291
     0
 45
0.0
  0
DICTIONARYVAR
  5
331
102
{ACAD_REACTORS
330
330
102
}
330
330
100
DictionaryVariables
280
     0
  1
1:1
  0
DICTIONARYVAR
  5
D5E
102
{ACAD_REACTORS
330
330
102
}
330
330
100
DictionaryVariables
280
     0
  1
Standard
  0
DICTIONARYVAR
  5
335
102
{ACAD_REACTORS
330
330
102
}
330
330
100
DictionaryVariables
280
     0
  1
Standard
  0
DICTIONARYVAR
  5
D52
102
{ACAD_REACTORS
330
330
102
}
330
330
100
DictionaryVariables
280
     0
  1
ByLayer
  0
DICTIONARYVAR
  5
896
102
{ACAD_REACTORS
330
330
102
}
330
330
100
DictionaryVariables
280
     0
  1
0
  0
XRECORD
  5
7AA
102
{ACAD_REACTORS
330
2E2
102
}
330
2E2
100
AcDbXrecord
280
     1
 91
    34815
301

290
     0
302
HIDDEN
330
14
 90
        8
 62
     7
370
    -3
331
13
  1
Color_7
440
 33554687
330
4B
 90
        8
 62
     7
370
    20
331
13
  1
Color_7
440
 33554687
330
4C
 90
        8
 62
     3
370
    13
331
13
  1
Color_3
440
 33554687
330
4D
 90
        8
 62
     7
370
    20
331
13
  1
Color_7
440
 33554687
330
667
 90
        8
 62
     7
370
    -3
331
13
  1
Color_7
440
 33554687
330
0
 90
        8
 62
     8
370
    20
331
0
  1
Color_8
440
 33554687
330
D6B
 90
        0
 62
     4
370
    20
331
D6C
  1
Color_4
440
 33554687
330
D8C
 90
        0
 62
     7
370
    -3
331
13
  1
Color_7
440
 33554687
  0
DICTIONARY
  5
12AE
330
279
100
AcDbDictionary
280
     1
281
     1
  3
ACAD_ROUNDTRIP_2008_TABLESTYLE_CELLSTYLEMAP
360
12AF
  0
CELLSTYLEMAP
  5
12AF
102
{ACAD_REACTORS
330
12AE
102
}
330
12AE
100
AcDbCellStyleMap
 90
        3
300
CELLSTYLE
  1
TABLEFORMAT_BEGIN
 90
        5
170
     1
 91
        0
 92
    32768
 62
   257
 93
        1
300
CONTENTFORMAT
  1
CONTENTFORMAT_BEGIN
 90
        0
 91
        0
 92
        4
 93
        0
300

 40
0.0
140
1.0
 94
        5
 62
     0
340
17
144
6.0
309
CONTENTFORMAT_END
171
     1
301
MARGIN
  1
CELLMARGIN_BEGIN
 40
0.06
 40
0.06
 40
0.06
 40
0.06
 40
0.18
 40
0.18
309
CELLMARGIN_END
 94
        6
 95
        1
302
GRIDFORMAT
  1
GRIDFORMAT_BEGIN
 90
        0
 91
        1
 62
     0
 92
       -2
340
0
 93
        0
 40
0.045
309
GRIDFORMAT_END
 95
        2
302
GRIDFORMAT
  1
GRIDFORMAT_BEGIN
 90
        0
 91
        1
 62
     0
 92
       -2
340
0
 93
        0
 40
0.045
309
GRIDFORMAT_END
 95
        4
302
GRIDFORMAT
  1
GRIDFORMAT_BEGIN
 90
        0
 91
        1
 62
     0
 92
       -2
340
0
 93
        0
 40
0.045
309
GRIDFORMAT_END
 95
        8
302
GRIDFORMAT
  1
GRIDFORMAT_BEGIN
 90
        0
 91
        1
 62
     0
 92
       -2
340
0
 93
        0
 40
0.045
309
GRIDFORMAT_END
 95
       16
302
GRIDFORMAT
  1
GRIDFORMAT_BEGIN
 90
        0
 91
        1
 62
     0
 92
       -2
340
0
 93
        0
 40
0.045
309
GRIDFORMAT_END
 95
       32
302
GRIDFORMAT
  1
GRIDFORMAT_BEGIN
 90
        0
 91
        1
 62
     0
 92
       -2
340
0
 93
        0
 40
0.045
309
GRIDFORMAT_END
309
TABLEFORMAT_END
  1
CELLSTYLE_BEGIN
 90
        1
 91
        1
300
_TITLE
309
CELLSTYLE_END
300
CELLSTYLE
  1
TABLEFORMAT_BEGIN
 90
        5
170
     1
 91
        0
 92
        0
 62
   257
 93
        1
300
CONTENTFORMAT
  1
CONTENTFORMAT_BEGIN
 90
        0
 91
        0
 92
        4
 93
        0
300

 40
0.0
140
1.0
 94
        5
 62
     0
340
17
144
4.5
309
CONTENTFORMAT_END
171
     1
301
MARGIN
  1
CELLMARGIN_BEGIN
 40
0.06
 40
0.06
 40
0.06
 40
0.06
 40
0.18
 40
0.18
309
CELLMARGIN_END
 94
        6
 95
        1
302
GRIDFORMAT
  1
GRIDFORMAT_BEGIN
 90
        0
 91
        1
 62
     0
 92
       -2
340
0
 93
        0
 40
0.045
309
GRIDFORMAT_END
 95
        2
302
GRIDFORMAT
  1
GRIDFORMAT_BEGIN
 90
        0
 91
        1
 62
     0
 92
       -2
340
0
 93
        0
 40
0.045
309
GRIDFORMAT_END
 95
        4
302
GRIDFORMAT
  1
GRIDFORMAT_BEGIN
 90
        0
 91
        1
 62
     0
 92
       -2
340
0
 93
        0
 40
0.045
309
GRIDFORMAT_END
 95
        8
302
GRIDFORMAT
  1
GRIDFORMAT_BEGIN
 90
        0
 91
        1
 62
     0
 92
       -2
340
0
 93
        0
 40
0.045
309
GRIDFORMAT_END
 95
       16
302
GRIDFORMAT
  1
GRIDFORMAT_BEGIN
 90
        0
 91
        1
 62
     0
 92
       -2
340
0
 93
        0
 40
0.045
309
GRIDFORMAT_END
 95
       32
302
GRIDFORMAT
  1
GRIDFORMAT_BEGIN
 90
        0
 91
        1
 62
     0
 92
       -2
340
0
 93
        0
 40
0.045
309
GRIDFORMAT_END
309
TABLEFORMAT_END
  1
CELLSTYLE_BEGIN
 90
        2
 91
        1
300
_HEADER
309
CELLSTYLE_END
300
CELLSTYLE
  1
TABLEFORMAT_BEGIN
 90
        5
170
     1
 91
        0
 92
        0
 62
   257
 93
        1
300
CONTENTFORMAT
  1
CONTENTFORMAT_BEGIN
 90
        0
 91
        0
 92
        4
 93
        0
300

 40
0.0
140
1.0
 94
        2
 62
     0
340
17
144
4.5
309
CONTENTFORMAT_END
171
     1
301
MARGIN
  1
CELLMARGIN_BEGIN
 40
0.06
 40
0.06
 40
0.06
 40
0.06
 40
0.18
 40
0.18
309
CELLMARGIN_END
 94
        6
 95
        1
302
GRIDFORMAT
  1
GRIDFORMAT_BEGIN
 90
        0
 91
        1
 62
     0
 92
       -2
340
0
 93
        0
 40
0.045
309
GRIDFORMAT_END
 95
        2
302
GRIDFORMAT
  1
GRIDFORMAT_BEGIN
 90
        0
 91
        1
 62
     0
 92
       -2
340
0
 93
        0
 40
0.045
309
GRIDFORMAT_END
 95
        4
302
GRIDFORMAT
  1
GRIDFORMAT_BEGIN
 90
        0
 91
        1
 62
     0
 92
       -2
340
0
 93
        0
 40
0.045
309
GRIDFORMAT_END
 95
        8
302
GRIDFORMAT
  1
GRIDFORMAT_BEGIN
 90
        0
 91
        1
 62
     0
 92
       -2
340
0
 93
        0
 40
0.045
309
GRIDFORMAT_END
 95
       16
302
GRIDFORMAT
  1
GRIDFORMAT_BEGIN
 90
        0
 91
        1
 62
     0
 92
       -2
340
0
 93
        0
 40
0.045
309
GRIDFORMAT_END
 95
       32
302
GRIDFORMAT
  1
GRIDFORMAT_BEGIN
 90
        0
 91
        1
 62
     0
 92
       -2
340
0
 93
        0
 40
0.045
309
GRIDFORMAT_END
309
TABLEFORMAT_END
  1
CELLSTYLE_BEGIN
 90
        3
 91
        2
300
_DATA
309
CELLSTYLE_END
  0
ENDSEC
  0
EOF
