  0
SECTION
  2
HEADER
  9
$ACADVER
  1
AC1021
  9
$ACADMAINTVER
 70
    25
  9
$DWGCODEPAGE
  3
ANSI_932
  9
$LASTSAVEDBY
  1
Shimosaki
  9
$INSBASE
 10
0.0
 20
0.0
 30
0.0
  9
$EXTMIN
 10
0.0
 20
0.0
 30
-101.9715250337497
  9
$EXTMAX
 10
1050.0
 20
1485.0
 30
0.0000000000000071
  9
$LIMMIN
 10
0.0
 20
0.0
  9
$LIMMAX
 10
1050.0
 20
1485.0
  9
$ORTHOMODE
 70
     0
  9
$REGENMODE
 70
     1
  9
$FILLMODE
 70
     1
  9
$QTEXTMODE
 70
     0
  9
$MIRRTEXT
 70
     1
  9
$LTSCALE
 40
50.0
  9
$ATTMODE
 70
     1
  9
$TEXTSIZE
 40
2.5
  9
$TRACEWID
 40
1.0
  9
$TEXTSTYLE
  7
ＭＳ ゴシック
  9
$CLAYER
  8
MODEL
  9
$CELTYPE
  6
ByLayer
  9
$CECOLOR
 62
   256
  9
$CELTSCALE
 40
0.05
  9
$DISPSILH
 70
     0
  9
$DIMSCALE
 40
1.0
  9
$DIMASZ
 40
6.0
  9
$DIMEXO
 40
5.0
  9
$DIMDLI
 40
0.9999999999999999
  9
$DIMRND
 40
0.0
  9
$DIMDLE
 40
0.0
  9
$DIMEXE
 40
0.0
  9
$DIMTP
 40
0.0
  9
$DIMTM
 40
0.0
  9
$DIMTXT
 40
12.0
  9
$DIMCEN
 40
0.0
  9
$DIMTSZ
 40
0.0
  9
$DIMTOL
 70
     0
  9
$DIMLIM
 70
     0
  9
$DIMTIH
 70
     0
  9
$DIMTOH
 70
     0
  9
$DIMSE1
 70
     0
  9
$DIMSE2
 70
     0
  9
$DIMTAD
 70
     1
  9
$DIMZIN
 70
    11
  9
$DIMBLK
  1
DOT
  9
$DIMASO
 70
     1
  9
$DIMSHO
 70
     1
  9
$DIMPOST
  1
<>
  9
$DIMAPOST
  1
[]
  9
$DIMALT
 70
     0
  9
$DIMALTD
 70
     1
  9
$DIMALTF
 40
1.0
  9
$DIMLFAC
 40
1.0
  9
$DIMTOFL
 70
     0
  9
$DIMTVP
 40
0.0
  9
$DIMTIX
 70
     1
  9
$DIMSOXD
 70
     0
  9
$DIMSAH
 70
     0
  9
$DIMBLK1
  1

  9
$DIMBLK2
  1

  9
$DIMSTYLE
  2
tfrom線あり
  9
$DIMCLRD
 70
     0
  9
$DIMCLRE
 70
     0
  9
$DIMCLRT
 70
     0
  9
$DIMTFAC
 40
1.0
  9
$DIMGAP
 40
10.0
  9
$DIMJUST
 70
     0
  9
$DIMSD1
 70
     0
  9
$DIMSD2
 70
     0
  9
$DIMTOLJ
 70
     1
  9
$DIMTZIN
 70
    11
  9
$DIMALTZ
 70
    11
  9
$DIMALTTZ
 70
    11
  9
$DIMUPT
 70
     0
  9
$DIMDEC
 70
     0
  9
$DIMTDEC
 70
     1
  9
$DIMALTU
 70
     2
  9
$DIMALTTD
 70
     2
  9
$DIMTXSTY
  7
ＭＳ ゴシック
  9
$DIMAUNIT
 70
     0
  9
$DIMADEC
 70
     2
  9
$DIMALTRND
 40
0.0
  9
$DIMAZIN
 70
     0
  9
$DIMDSEP
 70
    46
  9
$DIMATFIT
 70
     0
  9
$DIMFRAC
 70
     2
  9
$DIMLDRBLK
  1
DOT
  9
$DIMLUNIT
 70
     2
  9
$DIMLWD
 70
    -2
  9
$DIMLWE
 70
    -2
  9
$DIMTMOVE
 70
     0
  9
$DIMFXL
 40
1.0
  9
$DIMFXLON
 70
     0
  9
$DIMJOGANG
 40
0.7853981633974483
  9
$DIMTFILL
 70
     0
  9
$DIMTFILLCLR
 70
     0
  9
$DIMARCSYM
 70
     0
  9
$DIMLTYPE
  6

  9
$DIMLTEX1
  6

  9
$DIMLTEX2
  6

  9
$LUNITS
 70
     2
  9
$LUPREC
 70
     0
  9
$SKETCHINC
 40
0.1
  9
$FILLETRAD
 40
0.0
  9
$AUNITS
 70
     0
  9
$AUPREC
 70
     0
  9
$MENU
  1
acad
  9
$ELEVATION
 40
0.0
  9
$PELEVATION
 40
0.0
  9
$THICKNESS
 40
0.0
  9
$LIMCHECK
 70
     0
  9
$CHAMFERA
 40
0.0
  9
$CHAMFERB
 40
0.0
  9
$CHAMFERC
 40
0.0
  9
$CHAMFERD
 40
0.0
  9
$SKPOLY
 70
     0
  9
$TDCREATE
 40
2447893.375
  9
$TDUCREATE
 40
0.0
  9
$TDUPDATE
 40
2457575.463306331
  9
$TDUUPDATE
 40
2457575.088306331
  9
$TDINDWG
 40
0.1278085995
  9
$TDUSRTIMER
 40
2457575.087858796
  9
$USRTIMER
 70
     1
  9
$ANGBASE
 50
0.0
  9
$ANGDIR
 70
     0
  9
$PDMODE
 70
     1
  9
$PDSIZE
 40
-2.0
  9
$PLINEWID
 40
0.0
  9
$SPLFRAME
 70
     0
  9
$SPLINETYPE
 70
     6
  9
$SPLINESEGS
 70
     8
  9
$HANDSEED
  5
1323
  9
$SURFTAB1
 70
     6
  9
$SURFTAB2
 70
     6
  9
$SURFTYPE
 70
     6
  9
$SURFU
 70
     6
  9
$SURFV
 70
     6
  9
$UCSBASE
  2

  9
$UCSNAME
  2

  9
$UCSORG
 10
0.0
 20
0.0
 30
0.0
  9
$UCSXDIR
 10
1.0
 20
0.0
 30
0.0
  9
$UCSYDIR
 10
0.0
 20
1.0
 30
0.0
  9
$UCSORTHOREF
  2

  9
$UCSORTHOVIEW
 70
     0
  9
$UCSORGTOP
 10
0.0
 20
0.0
 30
0.0
  9
$UCSORGBOTTOM
 10
0.0
 20
0.0
 30
0.0
  9
$UCSORGLEFT
 10
0.0
 20
0.0
 30
0.0
  9
$UCSORGRIGHT
 10
0.0
 20
0.0
 30
0.0
  9
$UCSORGFRONT
 10
0.0
 20
0.0
 30
0.0
  9
$UCSORGBACK
 10
0.0
 20
0.0
 30
0.0
  9
$PUCSBASE
  2

  9
$PUCSNAME
  2

  9
$PUCSORG
 10
0.0
 20
0.0
 30
0.0
  9
$PUCSXDIR
 10
1.0
 20
0.0
 30
0.0
  9
$PUCSYDIR
 10
0.0
 20
1.0
 30
0.0
  9
$PUCSORTHOREF
  2

  9
$PUCSORTHOVIEW
 70
     0
  9
$PUCSORGTOP
 10
0.0
 20
0.0
 30
0.0
  9
$PUCSORGBOTTOM
 10
0.0
 20
0.0
 30
0.0
  9
$PUCSORGLEFT
 10
0.0
 20
0.0
 30
0.0
  9
$PUCSORGRIGHT
 10
0.0
 20
0.0
 30
0.0
  9
$PUCSORGFRONT
 10
0.0
 20
0.0
 30
0.0
  9
$PUCSORGBACK
 10
0.0
 20
0.0
 30
0.0
  9
$USERI1
 70
     0
  9
$USERI2
 70
     0
  9
$USERI3
 70
     0
  9
$USERI4
 70
     0
  9
$USERI5
 70
     0
  9
$USERR1
 40
0.0
  9
$USERR2
 40
0.0
  9
$USERR3
 40
0.0
  9
$USERR4
 40
0.0
  9
$USERR5
 40
0.0
  9
$WORLDVIEW
 70
     1
  9
$SHADEDGE
 70
     3
  9
$SHADEDIF
 70
    70
  9
$TILEMODE
 70
     1
  9
$MAXACTVP
 70
    64
  9
$PINSBASE
 10
0.0
 20
0.0
 30
0.0
  9
$PLIMCHECK
 70
     0
  9
$PEXTMIN
 10
0.0
 20
0.0
 30
0.0
  9
$PEXTMAX
 10
0.0
 20
0.0
 30
0.0
  9
$PLIMMIN
 10
-7.5
 20
-20.0
  9
$PLIMMAX
 10
412.5
 20
277.0
  9
$UNITMODE
 70
     0
  9
$VISRETAIN
 70
     0
  9
$PLINEGEN
 70
     1
  9
$PSLTSCALE
 70
     0
  9
$TREEDEPTH
 70
  3020
  9
$CMLSTYLE
  2
Standard
  9
$CMLJUST
 70
     0
  9
$CMLSCALE
 40
1.0
  9
$PROXYGRAPHICS
 70
     0
  9
$MEASUREMENT
 70
     1
  9
$CELWEIGHT
370
    -1
  9
$ENDCAPS
280
     0
  9
$JOINSTYLE
280
     0
  9
$LWDISPLAY
290
     1
  9
$INSUNITS
 70
     4
  9
$HYPERLINKBASE
  1

  9
$STYLESHEET
  1

  9
$XEDIT
290
     1
  9
$CEPSNTYPE
380
     0
  9
$PSTYLEMODE
290
     1
  9
$FINGERPRINTGUID
  2

  9
$VERSIONGUID
  2

  9
$EXTNAMES
290
     1
  9
$PSVPSCALE
 40
0.0
  9
$OLESTARTUP
290
     0
  9
$SORTENTS
280
   127
  9
$INDEXCTL
280
     0
  9
$HIDETEXT
280
     1
  9
$XCLIPFRAME
290
     0
  9
$HALOGAP
280
     0
  9
$OBSCOLOR
 70
   257
  9
$OBSLTYPE
280
     0
  9
$INTERSECTIONDISPLAY
280
     0
  9
$INTERSECTIONCOLOR
 70
   257
  9
$DIMASSOC
280
     2
  9
$PROJECTNAME
  1

  9
$CAMERADISPLAY
290
     0
  9
$LENSLENGTH
 40
50.0
  9
$CAMERAHEIGHT
 40
0.0
  9
$STEPSPERSEC
 40
2.0
  9
$STEPSIZE
 40
6.0
  9
$3DDWFPREC
 40
2.0
  9
$PSOLWIDTH
 40
0.25
  9
$PSOLHEIGHT
 40
4.0
  9
$LOFTANG1
 40
1.570796326794897
  9
$LOFTANG2
 40
1.570796326794897
  9
$LOFTMAG1
 40
0.0
  9
$LOFTMAG2
 40
0.0
  9
$LOFTPARAM
 70
     7
  9
$LOFTNORMALS
280
     1
  9
$LATITUDE
 40
37.795
  9
$LONGITUDE
 40
-122.394
  9
$NORTHDIRECTION
 40
0.0
  9
$TIMEZONE
 70
 -8000
  9
$LIGHTGLYPHDISPLAY
280
     1
  9
$TILEMODELIGHTSYNCH
280
     1
  9
$SOLIDHIST
280
     1
  9
$SHOWHIST
280
     1
  9
$DWFFRAME
280
     2
  9
$DGNFRAME
280
     2
  9
$REALWORLDSCALE
290
     1
  9
$INTERFERECOLOR
 62
   256
  9
$CSHADOW
280
     0
  9
$SHADOWPLANELOCATION
 40
0.0
  0
ENDSEC
  0
SECTION
  2
CLASSES
  0
CLASS
  1
LWPOLYLINE
  2
AcDbPolyline
  3
ObjectDBX Classes
 90
        0
 91
        1
280
     0
281
     1
  0
CLASS
  1
IMAGE
  2
AcDbRasterImage
  3
ISM
 90
      127
 91
        5
280
     0
281
     1
  0
CLASS
  1
OLE2FRAME
  2
AcDbOle2Frame
  3
ObjectDBX Classes
 90
        0
 91
        1
280
     0
281
     1
  0
CLASS
  1
HATCH
  2
AcDbHatch
  3
ObjectDBX Classes
 90
        0
 91
        1
280
     0
281
     1
  0
CLASS
  1
DICTIONARYVAR
  2
AcDbDictionaryVar
  3
ObjectDBX Classes
 90
        0
 91
        4
280
     0
281
     0
  0
CLASS
  1
RASTERVARIABLES
  2
AcDbRasterVariables
  3
ISM
 90
        0
 91
        4
280
     0
281
     0
  0
CLASS
  1
IMAGEDEF
  2
AcDbRasterImageDef
  3
ISM
 90
        0
 91
        4
280
     0
281
     0
  0
CLASS
  1
IMAGEDEF_REACTOR
  2
AcDbRasterImageDefReactor
  3
ISM
 90
        1
 91
        4
280
     0
281
     0
  0
CLASS
  1
IDBUFFER
  2
AcDbIdBuffer
  3
ObjectDBX Classes
 90
        0
 91
        4
280
     0
281
     0
  0
CLASS
  1
SPATIAL_FILTER
  2
AcDbSpatialFilter
  3
ObjectDBX Classes
 90
        0
 91
        4
280
     0
281
     0
  0
CLASS
  1
XRECORD
  2
AcDbXrecord
  3
ObjectDBX Classes
 90
        0
 91
        1
280
     0
281
     0
  0
CLASS
  1
SORTENTSTABLE
  2
AcDbSortentsTable
  3
ObjectDBX Classes
 90
        0
 91
        4
280
     0
281
     0
  0
CLASS
  1
LAYER_INDEX
  2
AcDbLayerIndex
  3
ObjectDBX Classes
 90
        0
 91
        4
280
     0
281
     0
  0
CLASS
  1
SPATIAL_INDEX
  2
AcDbSpatialIndex
  3
AutoCAD 2000
 90
        0
 91
        4
280
     0
281
     0
  0
CLASS
  1
OBJECT_PTR
  2
CAseDLPNTableRecord
  3
ASE-LPNTableRecord
 90
        1
 91
        4
280
     0
281
     0
  0
CLASS
  1
LAYOUT
  2
AcDbLayout
  3
ObjectDBX Classes
 90
        0
 91
        1
280
     0
281
     0
  0
CLASS
  1
PLOTSETTINGS
  2
AcDbPlotSettings
  3
ObjectDBX Classes
 90
        0
 91
        4
280
     0
281
     0
  0
CLASS
  1
ACDBDICTIONARYWDFLT
  2
AcDbDictionaryWithDefault
  3
ObjectDBX Classes
 90
        0
 91
        4
280
     0
281
     0
  0
CLASS
  1
ACDBPLACEHOLDER
  2
AcDbPlaceHolder
  3
ObjectDBX Classes
 90
        0
 91
        1
280
     0
281
     0
  0
CLASS
  1
SCALE
  2
AcDbScale
  3
ObjectDBX Classes
 90
     1153
 91
        4
280
     0
281
     0
  0
CLASS
  1
MATERIAL
  2
AcDbMaterial
  3
ObjectDBX Classes
 90
     1153
 91
        4
280
     0
281
     0
  0
CLASS
  1
VISUALSTYLE
  2
AcDbVisualStyle
  3
ObjectDBX Classes
 90
     4095
 91
        4
280
     0
281
     0
  0
CLASS
  1
TABLESTYLE
  2
AcDbTableStyle
  3
ObjectDBX Classes
 90
     4095
 91
        4
280
     0
281
     0
  0
CLASS
  1
DIMASSOC
  2
AcDbDimAssoc
  3
"AcDbDimAssoc|Product Desc:     AcDim ARX App For Dimension|Company:          Autodesk, Inc.|WEB Address:      www.autodesk.com"
 90
        0
 91
        4
280
     0
281
     0
  0
CLASS
  1
CELLSTYLEMAP
  2
AcDbCellStyleMap
  3
ObjectDBX Classes
 90
     1152
 91
        4
280
     0
281
     0
  0
CLASS
  1
SUN
  2
AcDbSun
  3
SCENEOE
 90
     1153
 91
        4
280
     0
281
     0
  0
CLASS
  1
MLEADERSTYLE
  2
AcDbMLeaderStyle
  3
ACDB_MLEADERSTYLE_CLASS
 90
     4095
 91
        4
280
     0
281
     0
  0
ENDSEC
  0
SECTION
  2
TABLES
  0
TABLE
  2
VPORT
  5
7
330
0
100
AcDbSymbolTable
 70
     1
  0
VPORT
  5
15
330
7
100
AcDbSymbolTableRecord
100
AcDbViewportTableRecord
  2
*ACTIVE
 70
     0
 10
0.0
 20
0.0
 11
1.0
 21
1.0
 12
876.677523014436
 22
638.8765379294246
 13
0.0
 23
0.0
 14
1.0
 24
1.0
 15
0.0
 25
0.0
 16
0.0
 26
0.0
 36
1.0
 17
-91.02013567089966
 27
73.59871453016603
 37
-46.86809886248109
 40
1541.027464523759
 41
2.426497277676951
 42
50.0
 43
0.0
 44
0.0
 50
0.0
 51
0.0
 71
    16
 72
  2000
 73
     1
 74
     1
 75
     0
 76
     0
 77
     0
 78
     0
281
     0
 65
     1
110
0.0
120
0.0
130
0.0
111
1.0
121
0.0
131
0.0
112
0.0
122
1.0
132
0.0
 79
     0
146
0.0
348
26C
 60
     3
 61
     5
292
     1
282
     1
141
0.0
142
0.0
 63
   256
361
904
  0
ENDTAB
  0
TABLE
  2
LTYPE
  5
4
330
0
100
AcDbSymbolTable
 70
     3
  0
LTYPE
  5
11
330
4
100
AcDbSymbolTableRecord
100
AcDbLinetypeTableRecord
  2
ByBlock
 70
     0
  3

 72
    65
 73
     0
 40
0.0
  0
LTYPE
  5
12
330
4
100
AcDbSymbolTableRecord
100
AcDbLinetypeTableRecord
  2
ByLayer
 70
     0
  3

 72
    65
 73
     0
 40
0.0
  0
LTYPE
  5
13
330
4
100
AcDbSymbolTableRecord
100
AcDbLinetypeTableRecord
  2
Continuous
 70
     0
  3
Solid line
 72
    65
 73
     0
 40
0.0
  0
LTYPE
  5
D6C
330
4
100
AcDbSymbolTableRecord
100
AcDbLinetypeTableRecord
  2
BORDER
 70
     0
  3
Border __  __  . __  __  . __  __  . __  __  . 
 72
    65
 73
     6
 40
44.45
 49
12.7
 74
     0
 49
-6.35
 74
     0
 49
12.7
 74
     0
 49
-6.35
 74
     0
 49
0.0
 74
     0
 49
-6.35
 74
     0
  0
LTYPE
  5
1296
330
4
100
AcDbSymbolTableRecord
100
AcDbLinetypeTableRecord
  2
CENTER
 70
     0
  3
 Center _____  _  _____  _  _____  _  _____  _ 
 72
    65
 73
     4
 40
50.8
 49
31.75
 74
     0
 49
-6.35
 74
     0
 49
6.35
 74
     0
 49
-6.35
 74
     0
  0
ENDTAB
  0
TABLE
  2
LAYER
  5
2
102
{ACAD_XDICTIONARY
360
2E1
102
}
330
0
100
AcDbSymbolTable
 70
     7
  0
LAYER
  5
14
330
2
100
AcDbSymbolTableRecord
100
AcDbLayerTableRecord
  2
0
 70
     0
 62
     7
  6
Continuous
370
    -3
390
1D
347
266
  0
LAYER
  5
4B
330
2
100
AcDbSymbolTableRecord
100
AcDbLayerTableRecord
  2
TEMPLATE
 70
     0
 62
     7
  6
Continuous
370
    20
390
1D
347
266
  0
LAYER
  5
4C
330
2
100
AcDbSymbolTableRecord
100
AcDbLayerTableRecord
  2
DIM
 70
     0
 62
     3
  6
Continuous
370
    13
390
1D
347
266
  0
LAYER
  5
4D
330
2
100
AcDbSymbolTableRecord
100
AcDbLayerTableRecord
  2
MODEL
 70
     0
 62
     7
  6
Continuous
370
    20
390
1D
347
266
  0
LAYER
  5
667
330
2
100
AcDbSymbolTableRecord
100
AcDbLayerTableRecord
  2
LOGO
 70
     0
 62
     7
  6
Continuous
370
    -3
390
1D
347
266
  0
LAYER
  5
D6B
330
2
100
AcDbSymbolTableRecord
100
AcDbLayerTableRecord
  2
BORDER
 70
     0
 62
     4
  6
BORDER
290
     0
370
    20
390
1D
347
266
1001
AcAecLayerStandard
1000

1000

  0
LAYER
  5
D8C
330
2
100
AcDbSymbolTableRecord
100
AcDbLayerTableRecord
  2
Defpoints
 70
     0
 62
     7
  6
Continuous
290
     0
370
    -3
390
1D
347
266
  0
ENDTAB
  0
TABLE
  2
STYLE
  5
3
330
0
100
AcDbSymbolTable
 70
     2
  0
STYLE
  5
17
330
3
100
AcDbSymbolTableRecord
100
AcDbTextStyleTableRecord
  2
Standard
 70
     0
 40
0.0
 41
1.0
 50
0.0
 71
     0
 42
2.5
  3
txt
  4
BIGFONT.SHX
  0
STYLE
  5
39
330
3
100
AcDbSymbolTableRecord
100
AcDbTextStyleTableRecord
  2
ＭＳ ゴシック
 70
     0
 40
0.0
 41
1.0
 50
0.0
 71
     0
 42
2.5
  3
msgothic.ttc
  4
ＭＳ ゴシック
1001
ACAD
1000
ＭＳ ゴシック
1071
        0
  0
ENDTAB
  0
TABLE
  2
VIEW
  5
5
330
0
100
AcDbSymbolTable
 70
     0
  0
ENDTAB
  0
TABLE
  2
UCS
  5
6
330
0
100
AcDbSymbolTable
 70
     0
  0
ENDTAB
  0
TABLE
  2
APPID
  5
8
330
0
100
AcDbSymbolTable
 70
     3
  0
APPID
  5
16
330
8
100
AcDbSymbolTableRecord
100
AcDbRegAppTableRecord
  2
ACAD
 70
     0
  0
APPID
  5
7AC
330
8
100
AcDbSymbolTableRecord
100
AcDbRegAppTableRecord
  2
AcAecLayerStandard
 70
     0
  0
APPID
  5
E29
330
8
100
AcDbSymbolTableRecord
100
AcDbRegAppTableRecord
  2
ACAD_MLEADERVER
 70
     0
  0
ENDTAB
  0
TABLE
  2
DIMSTYLE
  5
9
330
0
100
AcDbSymbolTable
 70
     2
100
AcDbDimStyleTable
  0
DIMSTYLE
105
18
330
9
100
AcDbSymbolTableRecord
100
AcDbDimStyleTableRecord
  2
Standard
 70
     0
178
     0
340
17
  0
DIMSTYLE
105
57
102
{ACAD_REACTORS
330
1298
330
12A7
330
12B8
330
12C7
330
12E6
102
}
330
9
100
AcDbSymbolTableRecord
100
AcDbDimStyleTableRecord
  2
tfrom線あり
 70
     0
  3
<>
  4
[]
 41
6.0
 42
5.0
 43
0.9999999999999999
 44
0.0
 73
     0
 74
     0
 77
     1
 78
    11
140
12.0
141
0.0
143
1.0
147
10.0
171
     1
174
     1
178
     0
179
     2
271
     0
272
     1
276
     2
284
    11
285
    11
286
    11
289
     0
340
39
341
4E
342
4E
  0
ENDTAB
  0
TABLE
  2
BLOCK_RECORD
  5
1
330
0
100
AcDbSymbolTable
 70
    11
  0
BLOCK_RECORD
  5
A
330
1
100
AcDbSymbolTableRecord
100
AcDbBlockTableRecord
  2
*MODEL_SPACE
340
20
 70
     0
280
     1
281
     0
  0
BLOCK_RECORD
  5
B
330
1
100
AcDbSymbolTableRecord
100
AcDbBlockTableRecord
  2
*PAPER_SPACE
340
21
 70
     0
280
     1
281
     0
  0
BLOCK_RECORD
  5
4E
330
1
100
AcDbSymbolTableRecord
100
AcDbBlockTableRecord
  2
_DOT
340
0
102
{BLKREFS
331
12A1
331
12A2
331
12B0
331
12B1
331
12BF
331
12C0
331
12D0
331
12D1
331
12EF
331
12F0
102
}
 70
     0
280
     1
281
     0
  0
BLOCK_RECORD
  5
68A
330
1
100
AcDbSymbolTableRecord
100
AcDbBlockTableRecord
  2
名称未設定-1
340
0
102
{BLKREFS
331
6B5
102
}
 70
     1
280
     1
281
     0
  0
BLOCK_RECORD
  5
68D
330
1
100
AcDbSymbolTableRecord
100
AcDbBlockTableRecord
  2
block 2
340
0
102
{BLKREFS
331
68C
102
}
 70
     0
280
     1
281
     0
  0
BLOCK_RECORD
  5
690
330
1
100
AcDbSymbolTableRecord
100
AcDbBlockTableRecord
  2
block 3
340
0
102
{BLKREFS
331
68F
102
}
 70
     0
280
     1
281
     0
  0
BLOCK_RECORD
  5
693
330
1
100
AcDbSymbolTableRecord
100
AcDbBlockTableRecord
  2
block 4
340
0
102
{BLKREFS
331
692
102
}
 70
     0
280
     1
281
     0
  0
BLOCK_RECORD
  5
6A2
330
1
100
AcDbSymbolTableRecord
100
AcDbBlockTableRecord
  2
block 5
340
0
102
{BLKREFS
331
6A1
102
}
 70
     0
280
     1
281
     0
  0
BLOCK_RECORD
  5
129B
330
1
100
AcDbSymbolTableRecord
100
AcDbBlockTableRecord
  2
*D6
340
0
 70
     0
280
     1
281
     0
  0
BLOCK_RECORD
  5
12AA
330
1
100
AcDbSymbolTableRecord
100
AcDbBlockTableRecord
  2
*D7
340
0
 70
     0
280
     1
281
     0
  0
BLOCK_RECORD
  5
12BB
330
1
100
AcDbSymbolTableRecord
100
AcDbBlockTableRecord
  2
*D8
340
0
 70
     0
280
     1
281
     0
  0
BLOCK_RECORD
  5
12CA
330
1
100
AcDbSymbolTableRecord
100
AcDbBlockTableRecord
  2
*D9
340
0
 70
     0
280
     1
281
     0
  0
BLOCK_RECORD
  5
12E9
330
1
100
AcDbSymbolTableRecord
100
AcDbBlockTableRecord
  2
*D10
340
0
 70
     0
280
     1
281
     0
  0
ENDTAB
  0
ENDSEC
  0
SECTION
  2
BLOCKS
  0
BLOCK
  5
D
330
A
100
AcDbEntity
  8
0
390
1D
100
AcDbBlockBegin
  2
*MODEL_SPACE
 70
     0
 10
0.0
 20
0.0
 30
0.0
  3
*MODEL_SPACE
  1
*MODEL_SPACE
  0
ENDBLK
  5
E
330
A
100
AcDbEntity
  8
0
390
1D
100
AcDbBlockEnd
  0
BLOCK
  5
F
330
B
100
AcDbEntity
 67
     1
  8
0
390
1D
100
AcDbBlockBegin
  2
*PAPER_SPACE
 70
     0
 10
0.0
 20
0.0
 30
0.0
  3
*PAPER_SPACE
  1
*PAPER_SPACE
  0
ENDBLK
  5
10
330
B
100
AcDbEntity
 67
     1
  8
0
390
1D
100
AcDbBlockEnd
  0
BLOCK
  5
D4A
330
4E
100
AcDbEntity
  8
0
390
1D
100
AcDbBlockBegin
  2
_DOT
 70
     0
 10
0.0
 20
0.0
 30
0.0
  3
_DOT
  1
_DOT
  0
POLYLINE
  5
D4C
330
4E
100
AcDbEntity
  8
0
  6
ByBlock
 62
     0
370
    -2
390
1D
100
AcDb2dPolyline
 66
     1
 10
0.0
 20
0.0
 30
0.0
 70
     1
 40
0.5
 41
0.5
  0
VERTEX
  5
D4D
330
D4C
100
AcDbEntity
  8
0
  6
ByBlock
 62
     0
370
    -2
390
1D
100
AcDbVertex
100
AcDb2dVertex
 10
-0.25
 20
0.0
 30
0.0
 42
1.0
  0
VERTEX
  5
D4E
330
D4C
100
AcDbEntity
  8
0
  6
ByBlock
 62
     0
370
    -2
390
1D
100
AcDbVertex
100
AcDb2dVertex
 10
0.25
 20
0.0
 30
0.0
 42
1.0
  0
SEQEND
  5
D4F
330
D4C
100
AcDbEntity
  8
0
390
1D
  0
LINE
  5
D50
330
4E
100
AcDbEntity
  8
0
  6
ByBlock
 62
     0
370
    -2
390
1D
100
AcDbLine
 10
-0.5
 20
0.0
 30
0.0
 11
-1.0
 21
0.0
 31
0.0
  0
ENDBLK
  5
D51
330
4E
100
AcDbEntity
  8
0
390
1D
100
AcDbBlockEnd
  0
BLOCK
  5
68B
330
68A
100
AcDbEntity
  8
0
100
AcDbBlockBegin
  2
名称未設定-1
 70
     0
 10
0.0
 20
0.0
 30
0.0
  3
名称未設定-1
  1
名称未設定-1
  0
INSERT
  5
68F
330
68A
100
AcDbEntity
  8
LOGO
100
AcDbBlockReference
  2
block 3
 10
0.0
 20
0.0
 30
0.0
  0
ENDBLK
  5
6B1
330
68A
100
AcDbEntity
  8
0
100
AcDbBlockEnd
  0
BLOCK
  5
68E
330
68D
100
AcDbEntity
  8
0
100
AcDbBlockBegin
  2
block 2
 70
     0
 10
0.0
 20
0.0
 30
0.0
  3
block 2
  1
block 2
  0
ENDBLK
  5
6B0
330
68D
100
AcDbEntity
  8
0
100
AcDbBlockEnd
  0
BLOCK
  5
691
330
690
100
AcDbEntity
  8
0
100
AcDbBlockBegin
  2
block 3
 70
     0
 10
0.0
 20
0.0
 30
0.0
  3
block 3
  1
block 3
  0
INSERT
  5
692
330
690
100
AcDbEntity
  8
LOGO
100
AcDbBlockReference
  2
block 4
 10
0.0
 20
0.0
 30
0.0
  0
INSERT
  5
6A1
330
690
100
AcDbEntity
  8
LOGO
100
AcDbBlockReference
  2
block 5
 10
0.0
 20
0.0
 30
0.0
  0
ENDBLK
  5
6AF
330
690
100
AcDbEntity
  8
0
100
AcDbBlockEnd
  0
BLOCK
  5
694
330
693
100
AcDbEntity
  8
0
100
AcDbBlockBegin
  2
block 4
 70
     0
 10
0.0
 20
0.0
 30
0.0
  3
block 4
  1
block 4
  0
POLYLINE
  5
695
330
693
100
AcDbEntity
  8
LOGO
370
     0
100
AcDb2dPolyline
 66
     1
 10
0.0
 20
0.0
 30
0.0
  0
VERTEX
  5
696
330
695
100
AcDbEntity
  8
LOGO
370
     0
100
AcDbVertex
100
AcDb2dVertex
 10
83.79545727667795
 20
167.6444858234922
 30
0.0
  0
VERTEX
  5
697
330
695
100
AcDbEntity
  8
LOGO
370
     0
100
AcDbVertex
100
AcDb2dVertex
 10
83.79545727667795
 20
159.7968976406313
 30
0.0
  0
VERTEX
  5
698
330
695
100
AcDbEntity
  8
LOGO
370
     0
100
AcDbVertex
100
AcDb2dVertex
 10
71.3631329975216
 20
159.7968976406313
 30
0.0
  0
VERTEX
  5
699
330
695
100
AcDbEntity
  8
LOGO
370
     0
100
AcDbVertex
100
AcDb2dVertex
 10
71.3631329975216
 20
127.8027915271048
 30
0.0
  0
VERTEX
  5
69A
330
695
100
AcDbEntity
  8
LOGO
370
     0
100
AcDbVertex
100
AcDb2dVertex
 10
60.43011526263018
 20
127.8027915271048
 30
0.0
  0
VERTEX
  5
69B
330
695
100
AcDbEntity
  8
LOGO
370
     0
100
AcDbVertex
100
AcDb2dVertex
 10
60.43011526263018
 20
159.7968976406313
 30
0.0
  0
VERTEX
  5
69C
330
695
100
AcDbEntity
  8
LOGO
370
     0
100
AcDbVertex
100
AcDb2dVertex
 10
48.21793273020759
 20
159.7968976406313
 30
0.0
  0
VERTEX
  5
69D
330
695
100
AcDbEntity
  8
LOGO
370
     0
100
AcDbVertex
100
AcDb2dVertex
 10
48.21793273020759
 20
167.6444858234922
 30
0.0
  0
VERTEX
  5
69E
330
695
100
AcDbEntity
  8
LOGO
370
     0
100
AcDbVertex
100
AcDb2dVertex
 10
83.79545727667795
 20
167.6444858234922
 30
0.0
  0
SEQEND
  5
69F
330
695
100
AcDbEntity
  8
LOGO
370
     0
  0
HATCH
  5
6A0
330
693
100
AcDbEntity
  8
LOGO
 62
   250
420
  2234388
100
AcDbHatch
 10
0.0
 20
0.0
 30
0.0
210
0.0
220
0.0
230
1.0
  2
SOLID
 70
     1
 71
     0
 91
        1
 92
        1
 93
        8
 72
     1
 10
83.79545727667795
 20
167.6444858234922
 11
83.79545727667795
 21
159.7968976406313
 72
     1
 10
83.79545727667795
 20
159.7968976406313
 11
71.3631329975216
 21
159.7968976406313
 72
     1
 10
71.3631329975216
 20
159.7968976406313
 11
71.3631329975216
 21
127.8027915271048
 72
     1
 10
71.3631329975216
 20
127.8027915271048
 11
60.43011526263018
 21
127.8027915271048
 72
     1
 10
60.43011526263018
 20
127.8027915271048
 11
60.43011526263018
 21
159.7968976406313
 72
     1
 10
60.43011526263018
 20
159.7968976406313
 11
48.21793273020759
 21
159.7968976406313
 72
     1
 10
48.21793273020759
 20
159.7968976406313
 11
48.21793273020759
 21
167.6444858234922
 72
     1
 10
48.21793273020759
 20
167.6444858234922
 11
83.79545727667795
 21
167.6444858234922
 97
        0
 75
     2
 76
     1
 98
        0
  0
ENDBLK
  5
6AE
330
693
100
AcDbEntity
  8
0
100
AcDbBlockEnd
  0
BLOCK
  5
6A3
330
6A2
100
AcDbEntity
  8
0
100
AcDbBlockBegin
  2
block 5
 70
     0
 10
0.0
 20
0.0
 30
0.0
  3
block 5
  1
block 5
  0
SPLINE
  5
6A4
330
6A2
100
AcDbEntity
  8
LOGO
370
     0
100
AcDbSpline
210
0.0
220
0.0
230
1.0
 70
    11
 71
     3
 72
    56
 73
    52
 74
     0
 42
0.000000001
 43
0.0000000001
 40
0.0
 40
0.0
 40
0.0
 40
0.0
 40
1.0
 40
1.0
 40
1.0
 40
2.0
 40
2.0
 40
2.0
 40
3.0
 40
3.0
 40
3.0
 40
4.0
 40
4.0
 40
4.0
 40
5.0
 40
5.0
 40
5.0
 40
6.0
 40
6.0
 40
6.0
 40
7.0
 40
7.0
 40
7.0
 40
8.0
 40
8.0
 40
8.0
 40
9.0
 40
9.0
 40
9.0
 40
10.0
 40
10.0
 40
10.0
 40
11.0
 40
11.0
 40
11.0
 40
12.0
 40
12.0
 40
12.0
 40
13.0
 40
13.0
 40
13.0
 40
14.0
 40
14.0
 40
14.0
 40
15.0
 40
15.0
 40
15.0
 40
16.0
 40
16.0
 40
16.0
 40
17.0
 40
17.0
 40
17.0
 40
17.0
 10
100.4504378777679
 20
166.69157178364
 30
0.0
 10
101.9848844191641
 20
167.1313385124438
 30
0.0
 10
103.9637485713373
 20
166.7649523658846
 30
0.0
 10
103.9637485713373
 20
166.7649523658846
 30
0.0
 10
103.9637485713373
 20
166.7649523658846
 30
0.0
 10
103.0132460999156
 20
163.911205638077
 30
0.0
 10
103.0132460999156
 20
163.911205638077
 30
0.0
 10
103.0132460999156
 20
163.911205638077
 30
0.0
 10
101.0674548862189
 20
164.3601018759394
 30
0.0
 10
99.57090442016032
 20
163.1805004036133
 30
0.0
 10
98.40508333886608
 20
162.258247733807
 30
0.0
 10
97.65301849830304
 20
159.804132345923
 30
0.0
 10
97.3598406791005
 20
158.8699940888517
 30
0.0
 10
97.3598406791005
 20
158.8699940888517
 30
0.0
 10
96.07137411762282
 20
154.9119212747295
 30
0.0
 10
96.07137411762282
 20
154.9119212747295
 30
0.0
 10
96.07137411762282
 20
154.9119212747295
 30
0.0
 10
100.3012651448482
 20
154.9119212747295
 30
0.0
 10
100.3012651448482
 20
154.9119212747295
 30
0.0
 10
100.3012651448482
 20
154.9119212747295
 30
0.0
 10
99.64152892419852
 20
152.4199098115079
 30
0.0
 10
99.64152892419852
 20
152.4199098115079
 30
0.0
 10
99.64152892419852
 20
152.4199098115079
 30
0.0
 10
95.38097652692731
 20
152.4199098115079
 30
0.0
 10
95.38097652692731
 20
152.4199098115079
 30
0.0
 10
95.38097652692731
 20
152.4199098115079
 30
0.0
 10
87.75353009080013
 20
127.8027915271048
 30
0.0
 10
87.75353009080013
 20
127.8027915271048
 30
0.0
 10
87.75353009080013
 20
127.8027915271048
 30
0.0
 10
85.36538832498108
 20
127.8027915271048
 30
0.0
 10
85.36538832498108
 20
127.8027915271048
 30
0.0
 10
85.36538832498108
 20
127.8027915271048
 30
0.0
 10
93.00006946639998
 20
152.4199098115079
 30
0.0
 10
93.00006946639998
 20
152.4199098115079
 30
0.0
 10
93.00006946639998
 20
152.4199098115079
 30
0.0
 10
89.85297266450198
 20
152.4199098115079
 30
0.0
 10
89.85297266450198
 20
152.4199098115079
 30
0.0
 10
89.85297266450198
 20
152.4199098115079
 30
0.0
 10
90.51270888515164
 20
154.9119212747295
 30
0.0
 10
90.51270888515164
 20
154.9119212747295
 30
0.0
 10
90.51270888515164
 20
154.9119212747295
 30
0.0
 10
93.6904670570955
 20
154.9119212747295
 30
0.0
 10
93.6904670570955
 20
154.9119212747295
 30
0.0
 10
93.6904670570955
 20
154.9119212747295
 30
0.0
 10
94.81598049462158
 20
158.3616699146644
 30
0.0
 10
94.81598049462158
 20
158.3616699146644
 30
0.0
 10
95.7237637538445
 20
161.2605474231013
 30
0.0
 10
96.4968436907311
 20
162.8139420021662
 30
0.0
 10
97.15657991138076
 20
163.9844139654337
 30
0.0
 10
97.81183750494507
 20
165.1523021053827
 30
0.0
 10
99.1047826935081
 20
166.3084769129547
 30
0.0
 10
100.4504378777679
 20
166.69157178364
 30
0.0
  0
HATCH
  5
6A5
330
6A2
100
AcDbEntity
  8
LOGO
 62
   250
420
  2234388
100
AcDbHatch
 10
0.0
 20
0.0
 30
0.0
210
0.0
220
0.0
230
1.0
  2
SOLID
 70
     1
 71
     0
 91
        1
 92
        1
 93
        1
 72
     4
 94
        3
 73
     0
 74
     1
 95
       56
 96
       52
 40
0.0
 40
0.0
 40
0.0
 40
0.0
 40
1.0
 40
1.0
 40
1.0
 40
2.0
 40
2.0
 40
2.0
 40
3.0
 40
3.0
 40
3.0
 40
4.0
 40
4.0
 40
4.0
 40
5.0
 40
5.0
 40
5.0
 40
6.0
 40
6.0
 40
6.0
 40
7.0
 40
7.0
 40
7.0
 40
8.0
 40
8.0
 40
8.0
 40
9.0
 40
9.0
 40
9.0
 40
10.0
 40
10.0
 40
10.0
 40
11.0
 40
11.0
 40
11.0
 40
12.0
 40
12.0
 40
12.0
 40
13.0
 40
13.0
 40
13.0
 40
14.0
 40
14.0
 40
14.0
 40
15.0
 40
15.0
 40
15.0
 40
16.0
 40
16.0
 40
16.0
 40
17.0
 40
17.0
 40
17.0
 40
17.0
 10
100.4504378777679
 20
166.69157178364
 10
101.9848844191641
 20
167.1313385124438
 10
103.9637485713373
 20
166.7649523658846
 10
103.9637485713373
 20
166.7649523658846
 10
103.9637485713373
 20
166.7649523658846
 10
103.0132460999156
 20
163.911205638077
 10
103.0132460999156
 20
163.911205638077
 10
103.0132460999156
 20
163.911205638077
 10
101.0674548862189
 20
164.3601018759394
 10
99.57090442016032
 20
163.1805004036133
 10
98.40508333886608
 20
162.258247733807
 10
97.65301849830304
 20
159.804132345923
 10
97.3598406791005
 20
158.8699940888517
 10
97.3598406791005
 20
158.8699940888517
 10
96.07137411762282
 20
154.9119212747295
 10
96.07137411762282
 20
154.9119212747295
 10
96.07137411762282
 20
154.9119212747295
 10
100.3012651448482
 20
154.9119212747295
 10
100.3012651448482
 20
154.9119212747295
 10
100.3012651448482
 20
154.9119212747295
 10
99.64152892419852
 20
152.4199098115079
 10
99.64152892419852
 20
152.4199098115079
 10
99.64152892419852
 20
152.4199098115079
 10
95.38097652692731
 20
152.4199098115079
 10
95.38097652692731
 20
152.4199098115079
 10
95.38097652692731
 20
152.4199098115079
 10
87.75353009080013
 20
127.8027915271048
 10
87.75353009080013
 20
127.8027915271048
 10
87.75353009080013
 20
127.8027915271048
 10
85.36538832498108
 20
127.8027915271048
 10
85.36538832498108
 20
127.8027915271048
 10
85.36538832498108
 20
127.8027915271048
 10
93.00006946639998
 20
152.4199098115079
 10
93.00006946639998
 20
152.4199098115079
 10
93.00006946639998
 20
152.4199098115079
 10
89.85297266450198
 20
152.4199098115079
 10
89.85297266450198
 20
152.4199098115079
 10
89.85297266450198
 20
152.4199098115079
 10
90.51270888515164
 20
154.9119212747295
 10
90.51270888515164
 20
154.9119212747295
 10
90.51270888515164
 20
154.9119212747295
 10
93.6904670570955
 20
154.9119212747295
 10
93.6904670570955
 20
154.9119212747295
 10
93.6904670570955
 20
154.9119212747295
 10
94.81598049462158
 20
158.3616699146644
 10
94.81598049462158
 20
158.3616699146644
 10
95.7237637538445
 20
161.2605474231013
 10
96.4968436907311
 20
162.8139420021662
 10
97.15657991138076
 20
163.9844139654337
 10
97.81183750494507
 20
165.1523021053827
 10
99.1047826935081
 20
166.3084769129547
 10
100.4504378777679
 20
166.69157178364
 97
        0
 75
     2
 76
     1
 98
        0
  0
SPLINE
  5
6A6
330
6A2
100
AcDbEntity
  8
LOGO
370
     0
100
AcDbSpline
210
0.0
220
0.0
230
1.0
 70
    11
 71
     3
 72
    38
 73
    34
 74
     0
 42
0.000000001
 43
0.0000000001
 40
0.0
 40
0.0
 40
0.0
 40
0.0
 40
1.0
 40
1.0
 40
1.0
 40
2.0
 40
2.0
 40
2.0
 40
3.0
 40
3.0
 40
3.0
 40
4.0
 40
4.0
 40
4.0
 40
5.0
 40
5.0
 40
5.0
 40
6.0
 40
6.0
 40
6.0
 40
7.0
 40
7.0
 40
7.0
 40
8.0
 40
8.0
 40
8.0
 40
9.0
 40
9.0
 40
9.0
 40
10.0
 40
10.0
 40
10.0
 40
11.0
 40
11.0
 40
11.0
 40
11.0
 10
126.377554584636
 20
154.8151140277308
 30
0.0
 10
126.377554584636
 20
154.8151140277308
 30
0.0
 10
128.8311532078563
 20
154.8151140277308
 30
0.0
 10
128.8311532078563
 20
154.8151140277308
 30
0.0
 10
128.8311532078563
 20
154.8151140277308
 30
0.0
 10
127.7345785914971
 20
151.3062819612468
 30
0.0
 10
127.7345785914971
 20
151.3062819612468
 30
0.0
 10
128.571392836906
 20
152.2922689395754
 30
0.0
 10
129.8860421413442
 20
153.604506675583
 30
0.0
 10
131.0163787157314
 20
154.2664822097754
 30
0.0
 10
132.7044766171327
 20
155.2500576196734
 30
0.0
 10
133.6642808525008
 20
155.3847609420097
 30
0.0
 10
134.7284715499351
 20
155.3565111403944
 30
0.0
 10
134.7284715499351
 20
155.3565111403944
 30
0.0
 10
133.6877075172549
 20
152.0345756272799
 30
0.0
 10
133.6877075172549
 20
152.0345756272799
 30
0.0
 10
133.011434827367
 20
152.3184516825359
 30
0.0
 10
130.930940291334
 20
151.7768823149844
 30
0.0
 10
129.739280976855
 20
150.9162968950455
 30
0.0
 10
128.66613302525
 20
150.1454562717016
 30
0.0
 10
127.9192358313239
 20
149.4857200510519
 30
0.0
 10
127.0393578639405
 20
147.8282835196966
 30
0.0
 10
126.164647543194
 20
146.1699857139017
 30
0.0
 10
125.4742499524985
 20
143.5262176944419
 30
0.0
 10
124.2822461282437
 20
139.6959580071401
 30
0.0
 10
124.2822461282437
 20
139.6959580071401
 30
0.0
 10
120.5753209406769
 20
127.8027915271048
 30
0.0
 10
120.5753209406769
 20
127.8027915271048
 30
0.0
 10
120.5753209406769
 20
127.8027915271048
 30
0.0
 10
118.1964809388044
 20
127.8027915271048
 30
0.0
 10
118.1964809388044
 20
127.8027915271048
 30
0.0
 10
118.1964809388044
 20
127.8027915271048
 30
0.0
 10
126.377554584636
 20
154.8151140277308
 30
0.0
 10
126.377554584636
 20
154.8151140277308
 30
0.0
  0
HATCH
  5
6A7
330
6A2
100
AcDbEntity
  8
LOGO
 62
   250
420
  2234388
100
AcDbHatch
 10
0.0
 20
0.0
 30
0.0
210
0.0
220
0.0
230
1.0
  2
SOLID
 70
     1
 71
     0
 91
        1
 92
        1
 93
        1
 72
     4
 94
        3
 73
     0
 74
     1
 95
       38
 96
       34
 40
0.0
 40
0.0
 40
0.0
 40
0.0
 40
1.0
 40
1.0
 40
1.0
 40
2.0
 40
2.0
 40
2.0
 40
3.0
 40
3.0
 40
3.0
 40
4.0
 40
4.0
 40
4.0
 40
5.0
 40
5.0
 40
5.0
 40
6.0
 40
6.0
 40
6.0
 40
7.0
 40
7.0
 40
7.0
 40
8.0
 40
8.0
 40
8.0
 40
9.0
 40
9.0
 40
9.0
 40
10.0
 40
10.0
 40
10.0
 40
11.0
 40
11.0
 40
11.0
 40
11.0
 10
126.377554584636
 20
154.8151140277308
 10
126.377554584636
 20
154.8151140277308
 10
128.8311532078563
 20
154.8151140277308
 10
128.8311532078563
 20
154.8151140277308
 10
128.8311532078563
 20
154.8151140277308
 10
127.7345785914971
 20
151.3062819612468
 10
127.7345785914971
 20
151.3062819612468
 10
128.571392836906
 20
152.2922689395754
 10
129.8860421413442
 20
153.604506675583
 10
131.0163787157314
 20
154.2664822097754
 10
132.7044766171327
 20
155.2500576196734
 10
133.6642808525008
 20
155.3847609420097
 10
134.7284715499351
 20
155.3565111403944
 10
134.7284715499351
 20
155.3565111403944
 10
133.6877075172549
 20
152.0345756272799
 10
133.6877075172549
 20
152.0345756272799
 10
133.011434827367
 20
152.3184516825359
 10
130.930940291334
 20
151.7768823149844
 10
129.739280976855
 20
150.9162968950455
 10
128.66613302525
 20
150.1454562717016
 10
127.9192358313239
 20
149.4857200510519
 10
127.0393578639405
 20
147.8282835196966
 10
126.164647543194
 20
146.1699857139017
 10
125.4742499524985
 20
143.5262176944419
 10
124.2822461282437
 20
139.6959580071401
 10
124.2822461282437
 20
139.6959580071401
 10
120.5753209406769
 20
127.8027915271048
 10
120.5753209406769
 20
127.8027915271048
 10
120.5753209406769
 20
127.8027915271048
 10
118.1964809388044
 20
127.8027915271048
 10
118.1964809388044
 20
127.8027915271048
 10
118.1964809388044
 20
127.8027915271048
 10
126.377554584636
 20
154.8151140277308
 10
126.377554584636
 20
154.8151140277308
 97
        0
 75
     2
 76
     1
 98
        0
  0
SPLINE
  5
6A8
330
6A2
100
AcDbEntity
  8
LOGO
370
     0
100
AcDbSpline
210
0.0
220
0.0
230
1.0
 70
    11
 71
     3
 72
   104
 73
   100
 74
     0
 42
0.000000001
 43
0.0000000001
 40
0.0
 40
0.0
 40
0.0
 40
0.0
 40
1.0
 40
1.0
 40
1.0
 40
2.0
 40
2.0
 40
2.0
 40
3.0
 40
3.0
 40
3.0
 40
4.0
 40
4.0
 40
4.0
 40
5.0
 40
5.0
 40
5.0
 40
6.0
 40
6.0
 40
6.0
 40
7.0
 40
7.0
 40
7.0
 40
8.0
 40
8.0
 40
8.0
 40
9.0
 40
9.0
 40
9.0
 40
10.0
 40
10.0
 40
10.0
 40
11.0
 40
11.0
 40
11.0
 40
12.0
 40
12.0
 40
12.0
 40
13.0
 40
13.0
 40
13.0
 40
14.0
 40
14.0
 40
14.0
 40
15.0
 40
15.0
 40
15.0
 40
16.0
 40
16.0
 40
16.0
 40
17.0
 40
17.0
 40
17.0
 40
18.0
 40
18.0
 40
18.0
 40
19.0
 40
19.0
 40
19.0
 40
20.0
 40
20.0
 40
20.0
 40
21.0
 40
21.0
 40
21.0
 40
22.0
 40
22.0
 40
22.0
 40
23.0
 40
23.0
 40
23.0
 40
24.0
 40
24.0
 40
24.0
 40
25.0
 40
25.0
 40
25.0
 40
26.0
 40
26.0
 40
26.0
 40
27.0
 40
27.0
 40
27.0
 40
28.0
 40
28.0
 40
28.0
 40
29.0
 40
29.0
 40
29.0
 40
30.0
 40
30.0
 40
30.0
 40
31.0
 40
31.0
 40
31.0
 40
32.0
 40
32.0
 40
32.0
 40
33.0
 40
33.0
 40
33.0
 40
33.0
 10
139.8926730891197
 20
154.8294111834263
 30
0.0
 10
139.8926730891197
 20
154.8294111834263
 30
0.0
 10
142.0344903652445
 20
154.8294111834263
 30
0.0
 10
142.0344903652445
 20
154.8294111834263
 30
0.0
 10
142.0344903652445
 20
154.8294111834263
 30
0.0
 10
140.9516961399171
 20
151.3157559800812
 30
0.0
 10
140.9516961399171
 20
151.3157559800812
 30
0.0
 10
141.8928968473923
 20
152.7887075264977
 30
0.0
 10
142.7341897198865
 20
153.4484437471474
 30
0.0
 10
143.8552245303272
 20
154.2926649527359
 30
0.0
 10
144.9803934580775
 20
155.1296514530327
 30
0.0
 10
146.3139908001845
 20
155.3044901642492
 30
0.0
 10
147.241066606852
 20
155.3044901642492
 30
0.0
 10
148.3855280820469
 20
155.3044901642492
 30
0.0
 10
149.4969166187653
 20
155.0752189084569
 30
0.0
 10
150.0784491203092
 20
153.8172414621372
 30
0.0
 10
150.5228667310863
 20
152.833838307127
 30
0.0
 10
150.5414702589793
 20
152.7201500811143
 30
0.0
 10
150.4140016419347
 20
150.7765981809602
 30
0.0
 10
151.5818897818837
 20
152.7699317437168
 30
0.0
 10
152.4424752018226
 20
153.6256940267945
 30
0.0
 10
153.9038856707499
 20
154.4507949398263
 30
0.0
 10
155.4455669174378
 20
155.3044901642492
 30
0.0
 10
156.339225275853
 20
155.3659851592288
 30
0.0
 10
157.3748216618963
 20
155.2147453676543
 30
0.0
 10
158.911679771723
 20
154.9877134254046
 30
0.0
 10
159.8859534176746
 20
154.4390816074493
 30
0.0
 10
160.3965169054045
 20
152.7816450760939
 30
0.0
 10
160.9070803931344
 20
151.1219692311958
 30
0.0
 10
160.6328506116007
 20
150.2303779314354
 30
0.0
 10
159.9992971339115
 20
147.597634224801
 30
0.0
 10
159.7105979417943
 20
146.4014962832367
 30
0.0
 10
159.2947746424084
 20
144.9400858143094
 30
0.0
 10
158.7463150793409
 20
143.2092687007094
 30
0.0
 10
158.7463150793409
 20
143.2092687007094
 30
0.0
 10
153.9038856707499
 20
127.8027915271048
 30
0.0
 10
153.9038856707499
 20
127.8027915271048
 30
0.0
 10
153.9038856707499
 20
127.8027915271048
 30
0.0
 10
151.3882752878863
 20
127.8027915271048
 30
0.0
 10
151.3882752878863
 20
127.8027915271048
 30
0.0
 10
151.3882752878863
 20
127.8027915271048
 30
0.0
 10
155.6250565106276
 20
141.2751908193897
 30
0.0
 10
155.6250565106276
 20
141.2751908193897
 30
0.0
 10
156.5094131050963
 20
144.0936252951782
 30
0.0
 10
157.109893644309
 20
146.1506931664571
 30
0.0
 10
157.4220195011804
 20
147.4415712963654
 30
0.0
 10
157.8095929989511
 20
149.0530157726519
 30
0.0
 10
157.9656559273867
 20
149.5826995529385
 30
0.0
 10
157.7816877071116
 20
150.7529992613181
 30
0.0
 10
157.6111553680925
 20
151.8430281919372
 30
0.0
 10
157.0582171779396
 20
152.5547853887321
 30
0.0
 10
156.1170164704645
 20
152.5547853887321
 30
0.0
 10
155.1096698860365
 20
152.5547853887321
 30
0.0
 10
154.2962823053817
 20
152.4412694176073
 30
0.0
 10
153.156643967048
 20
151.2945686288697
 30
0.0
 10
152.0170056287143
 20
150.1476955852443
 30
0.0
 10
151.076149431015
 20
148.7930831468137
 30
0.0
 10
150.3337308641742
 20
147.2290087646991
 30
0.0
 10
149.5957909244188
 20
145.6683794803425
 30
0.0
 10
148.8530278478023
 20
143.6822806228776
 30
0.0
 10
148.0964843801539
 20
141.2751908193897
 30
0.0
 10
148.0964843801539
 20
141.2751908193897
 30
0.0
 10
143.8552245303272
 20
127.8027915271048
 30
0.0
 10
143.8552245303272
 20
127.8027915271048
 30
0.0
 10
143.8552245303272
 20
127.8027915271048
 30
0.0
 10
141.486030802177
 20
127.8027915271048
 30
0.0
 10
141.486030802177
 20
127.8027915271048
 30
0.0
 10
141.486030802177
 20
127.8027915271048
 30
0.0
 10
146.3329388378533
 20
143.2092687007094
 30
0.0
 10
146.3329388378533
 20
143.2092687007094
 30
0.0
 10
146.8483254624444
 20
144.8408669988801
 30
0.0
 10
147.2314203331297
 20
146.1837661049335
 30
0.0
 10
147.4867020769946
 20
147.224185627838
 30
0.0
 10
147.9169947869641
 20
149.0197705792876
 30
0.0
 10
148.0306830129768
 20
150.2400242051577
 30
0.0
 10
147.709255392159
 20
151.3157559800812
 30
0.0
 10
147.3874832615654
 20
152.3916600098926
 30
0.0
 10
146.8245542879144
 20
152.6683013598569
 30
0.0
 10
145.8840425999909
 20
152.6683013598569
 30
0.0
 10
145.0989048209514
 20
152.6683013598569
 30
0.0
 10
144.3282364524954
 20
152.3275811915945
 30
0.0
 10
143.4531816219731
 20
151.6538923250251
 30
0.0
 10
142.34627171234
 20
150.8074318058939
 30
0.0
 10
141.901854101563
 20
150.1097995099067
 30
0.0
 10
141.3578731655808
 20
149.289521733736
 30
0.0
 10
140.6299240093235
 20
148.192602607601
 30
0.0
 10
140.2850697237515
 20
147.455696197173
 30
0.0
 10
139.6652966370942
 20
145.8385673095858
 30
0.0
 10
139.0506911970739
 20
144.2214384219986
 30
0.0
 10
138.463991048893
 20
142.3252566160164
 30
0.0
 10
138.0571250036777
 20
141.0154304484394
 30
0.0
 10
138.0571250036777
 20
141.0154304484394
 30
0.0
 10
133.9009590684727
 20
127.8027915271048
 30
0.0
 10
133.9009590684727
 20
127.8027915271048
 30
0.0
 10
133.9009590684727
 20
127.8027915271048
 30
0.0
 10
131.4180771143097
 20
127.8027915271048
 30
0.0
 10
131.4180771143097
 20
127.8027915271048
 30
0.0
 10
131.4180771143097
 20
127.8027915271048
 30
0.0
 10
139.8926730891197
 20
154.8294111834263
 30
0.0
 10
139.8926730891197
 20
154.8294111834263
 30
0.0
  0
HATCH
  5
6A9
330
6A2
100
AcDbEntity
  8
LOGO
 62
   250
420
  2234388
100
AcDbHatch
 10
0.0
 20
0.0
 30
0.0
210
0.0
220
0.0
230
1.0
  2
SOLID
 70
     1
 71
     0
 91
        1
 92
        1
 93
        1
 72
     4
 94
        3
 73
     0
 74
     1
 95
      104
 96
      100
 40
0.0
 40
0.0
 40
0.0
 40
0.0
 40
1.0
 40
1.0
 40
1.0
 40
2.0
 40
2.0
 40
2.0
 40
3.0
 40
3.0
 40
3.0
 40
4.0
 40
4.0
 40
4.0
 40
5.0
 40
5.0
 40
5.0
 40
6.0
 40
6.0
 40
6.0
 40
7.0
 40
7.0
 40
7.0
 40
8.0
 40
8.0
 40
8.0
 40
9.0
 40
9.0
 40
9.0
 40
10.0
 40
10.0
 40
10.0
 40
11.0
 40
11.0
 40
11.0
 40
12.0
 40
12.0
 40
12.0
 40
13.0
 40
13.0
 40
13.0
 40
14.0
 40
14.0
 40
14.0
 40
15.0
 40
15.0
 40
15.0
 40
16.0
 40
16.0
 40
16.0
 40
17.0
 40
17.0
 40
17.0
 40
18.0
 40
18.0
 40
18.0
 40
19.0
 40
19.0
 40
19.0
 40
20.0
 40
20.0
 40
20.0
 40
21.0
 40
21.0
 40
21.0
 40
22.0
 40
22.0
 40
22.0
 40
23.0
 40
23.0
 40
23.0
 40
24.0
 40
24.0
 40
24.0
 40
25.0
 40
25.0
 40
25.0
 40
26.0
 40
26.0
 40
26.0
 40
27.0
 40
27.0
 40
27.0
 40
28.0
 40
28.0
 40
28.0
 40
29.0
 40
29.0
 40
29.0
 40
30.0
 40
30.0
 40
30.0
 40
31.0
 40
31.0
 40
31.0
 40
32.0
 40
32.0
 40
32.0
 40
33.0
 40
33.0
 40
33.0
 40
33.0
 10
139.8926730891197
 20
154.8294111834263
 10
139.8926730891197
 20
154.8294111834263
 10
142.0344903652445
 20
154.8294111834263
 10
142.0344903652445
 20
154.8294111834263
 10
142.0344903652445
 20
154.8294111834263
 10
140.9516961399171
 20
151.3157559800812
 10
140.9516961399171
 20
151.3157559800812
 10
141.8928968473923
 20
152.7887075264977
 10
142.7341897198865
 20
153.4484437471474
 10
143.8552245303272
 20
154.2926649527359
 10
144.9803934580775
 20
155.1296514530327
 10
146.3139908001845
 20
155.3044901642492
 10
147.241066606852
 20
155.3044901642492
 10
148.3855280820469
 20
155.3044901642492
 10
149.4969166187653
 20
155.0752189084569
 10
150.0784491203092
 20
153.8172414621372
 10
150.5228667310863
 20
152.833838307127
 10
150.5414702589793
 20
152.7201500811143
 10
150.4140016419347
 20
150.7765981809602
 10
151.5818897818837
 20
152.7699317437168
 10
152.4424752018226
 20
153.6256940267945
 10
153.9038856707499
 20
154.4507949398263
 10
155.4455669174378
 20
155.3044901642492
 10
156.339225275853
 20
155.3659851592288
 10
157.3748216618963
 20
155.2147453676543
 10
158.911679771723
 20
154.9877134254046
 10
159.8859534176746
 20
154.4390816074493
 10
160.3965169054045
 20
152.7816450760939
 10
160.9070803931344
 20
151.1219692311958
 10
160.6328506116007
 20
150.2303779314354
 10
159.9992971339115
 20
147.597634224801
 10
159.7105979417943
 20
146.4014962832367
 10
159.2947746424084
 20
144.9400858143094
 10
158.7463150793409
 20
143.2092687007094
 10
158.7463150793409
 20
143.2092687007094
 10
153.9038856707499
 20
127.8027915271048
 10
153.9038856707499
 20
127.8027915271048
 10
153.9038856707499
 20
127.8027915271048
 10
151.3882752878863
 20
127.8027915271048
 10
151.3882752878863
 20
127.8027915271048
 10
151.3882752878863
 20
127.8027915271048
 10
155.6250565106276
 20
141.2751908193897
 10
155.6250565106276
 20
141.2751908193897
 10
156.5094131050963
 20
144.0936252951782
 10
157.109893644309
 20
146.1506931664571
 10
157.4220195011804
 20
147.4415712963654
 10
157.8095929989511
 20
149.0530157726519
 10
157.9656559273867
 20
149.5826995529385
 10
157.7816877071116
 20
150.7529992613181
 10
157.6111553680925
 20
151.8430281919372
 10
157.0582171779396
 20
152.5547853887321
 10
156.1170164704645
 20
152.5547853887321
 10
155.1096698860365
 20
152.5547853887321
 10
154.2962823053817
 20
152.4412694176073
 10
153.156643967048
 20
151.2945686288697
 10
152.0170056287143
 20
150.1476955852443
 10
151.076149431015
 20
148.7930831468137
 10
150.3337308641742
 20
147.2290087646991
 10
149.5957909244188
 20
145.6683794803425
 10
148.8530278478023
 20
143.6822806228776
 10
148.0964843801539
 20
141.2751908193897
 10
148.0964843801539
 20
141.2751908193897
 10
143.8552245303272
 20
127.8027915271048
 10
143.8552245303272
 20
127.8027915271048
 10
143.8552245303272
 20
127.8027915271048
 10
141.486030802177
 20
127.8027915271048
 10
141.486030802177
 20
127.8027915271048
 10
141.486030802177
 20
127.8027915271048
 10
146.3329388378533
 20
143.2092687007094
 10
146.3329388378533
 20
143.2092687007094
 10
146.8483254624444
 20
144.8408669988801
 10
147.2314203331297
 20
146.1837661049335
 10
147.4867020769946
 20
147.224185627838
 10
147.9169947869641
 20
149.0197705792876
 10
148.0306830129768
 20
150.2400242051577
 10
147.709255392159
 20
151.3157559800812
 10
147.3874832615654
 20
152.3916600098926
 10
146.8245542879144
 20
152.6683013598569
 10
145.8840425999909
 20
152.6683013598569
 10
145.0989048209514
 20
152.6683013598569
 10
144.3282364524954
 20
152.3275811915945
 10
143.4531816219731
 20
151.6538923250251
 10
142.34627171234
 20
150.8074318058939
 10
141.901854101563
 20
150.1097995099067
 10
141.3578731655808
 20
149.289521733736
 10
140.6299240093235
 20
148.192602607601
 10
140.2850697237515
 20
147.455696197173
 10
139.6652966370942
 20
145.8385673095858
 10
139.0506911970739
 20
144.2214384219986
 10
138.463991048893
 20
142.3252566160164
 10
138.0571250036777
 20
141.0154304484394
 10
138.0571250036777
 20
141.0154304484394
 10
133.9009590684727
 20
127.8027915271048
 10
133.9009590684727
 20
127.8027915271048
 10
133.9009590684727
 20
127.8027915271048
 10
131.4180771143097
 20
127.8027915271048
 10
131.4180771143097
 20
127.8027915271048
 10
131.4180771143097
 20
127.8027915271048
 10
139.8926730891197
 20
154.8294111834263
 10
139.8926730891197
 20
154.8294111834263
 97
        0
 75
     2
 76
     1
 98
        0
  0
SPLINE
  5
6AA
330
6A2
100
AcDbEntity
  8
LOGO
370
     0
100
AcDbSpline
210
0.0
220
0.0
230
1.0
 70
    11
 71
     3
 72
    29
 73
    25
 74
     0
 42
0.000000001
 43
0.0000000001
 40
0.0
 40
0.0
 40
0.0
 40
0.0
 40
1.0
 40
1.0
 40
1.0
 40
2.0
 40
2.0
 40
2.0
 40
3.0
 40
3.0
 40
3.0
 40
4.0
 40
4.0
 40
4.0
 40
5.0
 40
5.0
 40
5.0
 40
6.0
 40
6.0
 40
6.0
 40
7.0
 40
7.0
 40
7.0
 40
8.0
 40
8.0
 40
8.0
 40
8.0
 10
101.6420971922469
 20
132.8388354296931
 30
0.0
 10
101.630039350094
 20
134.7164137077823
 30
0.0
 10
102.2236296937908
 20
138.0598810818841
 30
0.0
 10
103.7487744712405
 20
142.5378191476827
 30
0.0
 10
105.819967243327
 20
148.5896501242061
 30
0.0
 10
107.0602024361932
 20
150.8074318058939
 30
0.0
 10
108.1522984254671
 20
151.8833358357054
 30
0.0
 10
109.741177511439
 20
153.4532668840085
 30
0.0
 10
111.8740375333931
 20
153.5290590346837
 30
0.0
 10
112.5075910110823
 20
153.4532668840085
 30
0.0
 10
113.4012493694975
 20
153.3490526768302
 30
0.0
 10
114.6683563248758
 20
152.7580461564518
 30
0.0
 10
114.7493161221879
 20
150.7838328862519
 30
0.0
 10
114.8106388622796
 20
149.0909118479895
 30
0.0
 10
114.3186789024427
 20
145.9191825971221
 30
0.0
 10
112.6164561002338
 20
140.9489400617108
 30
0.0
 10
110.6444821435766
 20
135.1746117095912
 30
0.0
 10
109.4669477299053
 20
132.8960240524753
 30
0.0
 10
108.5212683953448
 20
131.9072809959403
 30
0.0
 10
106.7346406980658
 20
130.0538184021569
 30
0.0
 10
104.8222669326213
 20
130.2336525051225
 30
0.0
 10
104.5408024457958
 20
130.2336525051225
 30
0.0
 10
104.1721769856939
 20
130.2336525051225
 30
0.0
 10
101.6465758193322
 20
130.6305277668397
 30
0.0
 10
101.6420971922469
 20
132.8388354296931
 30
0.0
  0
SPLINE
  5
6AB
330
6A2
100
AcDbEntity
  8
LOGO
370
     0
100
AcDbSpline
210
0.0
220
0.0
230
1.0
 70
    11
 71
     3
 72
    32
 73
    28
 74
     0
 42
0.000000001
 43
0.0000000001
 40
0.0
 40
0.0
 40
0.0
 40
0.0
 40
1.0
 40
1.0
 40
1.0
 40
2.0
 40
2.0
 40
2.0
 40
3.0
 40
3.0
 40
3.0
 40
4.0
 40
4.0
 40
4.0
 40
5.0
 40
5.0
 40
5.0
 40
6.0
 40
6.0
 40
6.0
 40
7.0
 40
7.0
 40
7.0
 40
8.0
 40
8.0
 40
8.0
 40
9.0
 40
9.0
 40
9.0
 40
9.0
 10
106.2595617172429
 20
153.4105476718098
 30
0.0
 10
104.8222669326213
 20
151.5474388043041
 30
0.0
 10
103.7177685914188
 20
149.8758773721411
 30
0.0
 10
101.9232171692965
 20
144.6141795664062
 30
0.0
 10
100.2754269116635
 20
139.7999999594306
 30
0.0
 10
99.22777268346732
 20
136.3052927937542
 30
0.0
 10
99.06964269637689
 20
132.039572749846
 30
0.0
 10
98.94665270641765
 20
128.8673267343149
 30
0.0
 10
100.8807305877373
 20
127.8027915271048
 30
0.0
 10
103.7129454545577
 20
127.8027915271048
 30
0.0
 10
104.9352661390825
 20
127.8027915271048
 30
0.0
 10
108.0151835347002
 20
127.8827177950895
 30
0.0
 10
110.2045431598849
 20
130.5926316915021
 30
0.0
 10
111.7417457794874
 20
132.4984597712065
 30
0.0
 10
113.155269389579
 20
134.475256864725
 30
0.0
 10
115.0562743324223
 20
140.9489400617108
 30
0.0
 10
116.6361961642235
 20
146.3680788349845
 30
0.0
 10
117.7282921534974
 20
149.8639917848761
 30
0.0
 10
117.6480213757369
 20
151.8595646611754
 30
0.0
 10
117.6480213757369
 20
151.8595646611754
 30
0.0
 10
117.6480213757369
 20
151.8595646611754
 30
0.0
 10
117.6480213757369
 20
151.8595646611754
 30
0.0
 10
117.13229024137
 20
155.18150017429
 30
0.0
 10
114.7162431837115
 20
155.886194920681
 30
0.0
 10
113.3351034925446
 20
155.886194920681
 30
0.0
 10
111.9829026225447
 20
155.886194920681
 30
0.0
 10
108.3414342923792
 20
156.1251124501957
 30
0.0
 10
106.2595617172429
 20
153.4105476718098
 30
0.0
  0
HATCH
  5
6AC
330
6A2
100
AcDbEntity
  8
LOGO
 62
   250
420
  2234388
100
AcDbHatch
 10
0.0
 20
0.0
 30
0.0
210
0.0
220
0.0
230
1.0
  2
SOLID
 70
     1
 71
     0
 91
        2
 92
        1
 93
        1
 72
     4
 94
        3
 73
     0
 74
     1
 95
       29
 96
       25
 40
0.0
 40
0.0
 40
0.0
 40
0.0
 40
1.0
 40
1.0
 40
1.0
 40
2.0
 40
2.0
 40
2.0
 40
3.0
 40
3.0
 40
3.0
 40
4.0
 40
4.0
 40
4.0
 40
5.0
 40
5.0
 40
5.0
 40
6.0
 40
6.0
 40
6.0
 40
7.0
 40
7.0
 40
7.0
 40
8.0
 40
8.0
 40
8.0
 40
8.0
 10
101.6420971922469
 20
132.8388354296931
 10
101.630039350094
 20
134.7164137077823
 10
102.2236296937908
 20
138.0598810818841
 10
103.7487744712405
 20
142.5378191476827
 10
105.819967243327
 20
148.5896501242061
 10
107.0602024361932
 20
150.8074318058939
 10
108.1522984254671
 20
151.8833358357054
 10
109.741177511439
 20
153.4532668840085
 10
111.8740375333931
 20
153.5290590346837
 10
112.5075910110823
 20
153.4532668840085
 10
113.4012493694975
 20
153.3490526768302
 10
114.6683563248758
 20
152.7580461564518
 10
114.7493161221879
 20
150.7838328862519
 10
114.8106388622796
 20
149.0909118479895
 10
114.3186789024427
 20
145.9191825971221
 10
112.6164561002338
 20
140.9489400617108
 10
110.6444821435766
 20
135.1746117095912
 10
109.4669477299053
 20
132.8960240524753
 10
108.5212683953448
 20
131.9072809959403
 10
106.7346406980658
 20
130.0538184021569
 10
104.8222669326213
 20
130.2336525051225
 10
104.5408024457958
 20
130.2336525051225
 10
104.1721769856939
 20
130.2336525051225
 10
101.6465758193322
 20
130.6305277668397
 10
101.6420971922469
 20
132.8388354296931
 97
        0
 92
        1
 93
        1
 72
     4
 94
        3
 73
     0
 74
     1
 95
       32
 96
       28
 40
0.0
 40
0.0
 40
0.0
 40
0.0
 40
1.0
 40
1.0
 40
1.0
 40
2.0
 40
2.0
 40
2.0
 40
3.0
 40
3.0
 40
3.0
 40
4.0
 40
4.0
 40
4.0
 40
5.0
 40
5.0
 40
5.0
 40
6.0
 40
6.0
 40
6.0
 40
7.0
 40
7.0
 40
7.0
 40
8.0
 40
8.0
 40
8.0
 40
9.0
 40
9.0
 40
9.0
 40
9.0
 10
106.2595617172429
 20
153.4105476718098
 10
104.8222669326213
 20
151.5474388043041
 10
103.7177685914188
 20
149.8758773721411
 10
101.9232171692965
 20
144.6141795664062
 10
100.2754269116635
 20
139.7999999594306
 10
99.22777268346732
 20
136.3052927937542
 10
99.06964269637689
 20
132.039572749846
 10
98.94665270641765
 20
128.8673267343149
 10
100.8807305877373
 20
127.8027915271048
 10
103.7129454545577
 20
127.8027915271048
 10
104.9352661390825
 20
127.8027915271048
 10
108.0151835347002
 20
127.8827177950895
 10
110.2045431598849
 20
130.5926316915021
 10
111.7417457794874
 20
132.4984597712065
 10
113.155269389579
 20
134.475256864725
 10
115.0562743324223
 20
140.9489400617108
 10
116.6361961642235
 20
146.3680788349845
 10
117.7282921534974
 20
149.8639917848761
 10
117.6480213757369
 20
151.8595646611754
 10
117.6480213757369
 20
151.8595646611754
 10
117.6480213757369
 20
151.8595646611754
 10
117.6480213757369
 20
151.8595646611754
 10
117.13229024137
 20
155.18150017429
 10
114.7162431837115
 20
155.886194920681
 10
113.3351034925446
 20
155.886194920681
 10
111.9829026225447
 20
155.886194920681
 10
108.3414342923792
 20
156.1251124501957
 10
106.2595617172429
 20
153.4105476718098
 97
        0
 75
     2
 76
     1
 98
        0
  0
ENDBLK
  5
6AD
330
6A2
100
AcDbEntity
  8
0
100
AcDbBlockEnd
  0
BLOCK
  5
129C
330
129B
100
AcDbEntity
  8
0
100
AcDbBlockBegin
  2
*D6
 70
     1
 10
0.0
 20
0.0
 30
0.0
  3
*D6
  1
*D12
  0
LINE
  5
129E
330
129B
100
AcDbEntity
  8
DIM
 62
     0
 48
0.05
370
    -2
100
AcDbLine
 10
122.3516190449193
 20
1046.790047409311
 30
0.0
 11
122.3516190449193
 21
769.8105095119222
 31
0.0
  0
LINE
  5
129F
330
129B
100
AcDbEntity
  8
DIM
 62
     0
 48
0.05
370
    -2
100
AcDbLine
 10
793.3847633637026
 20
828.2121570191448
 30
0.0
 11
793.3847633637026
 21
769.8105095119222
 31
0.0
  0
LINE
  5
12A0
330
129B
100
AcDbEntity
  8
DIM
 62
     0
 48
0.05
370
    -2
100
AcDbLine
 10
128.3516190449193
 20
769.8105095119222
 30
0.0
 11
787.3847633637026
 21
769.8105095119222
 31
0.0
  0
INSERT
  5
12A1
330
129B
100
AcDbEntity
  8
DIM
 62
     0
370
    -2
100
AcDbBlockReference
  2
_DOT
 10
122.3516190449193
 20
769.8105095119222
 30
0.0
 41
6.0
 42
6.0
 43
6.0
 50
180.0
  0
INSERT
  5
12A2
330
129B
100
AcDbEntity
  8
DIM
 62
     0
370
    -2
100
AcDbBlockReference
  2
_DOT
 10
793.3847633637026
 20
769.8105095119222
 30
0.0
 41
6.0
 42
6.0
 43
6.0
  0
MTEXT
  5
12A3
330
129B
100
AcDbEntity
  8
DIM
 62
     0
 48
0.05
100
AcDbMText
 10
457.868191204311
 20
785.8105095119222
 30
0.0
 40
12.0
 41
0.0
 46
0.0
 71
     5
 72
     1
  1
\A1;671
  7
ＭＳ ゴシック
 73
     1
 44
1.0
  0
POINT
  5
12A4
330
129B
100
AcDbEntity
  8
Defpoints
 62
     0
100
AcDbPoint
 10
122.3516190449193
 20
1051.790047409311
 30
0.0
  0
POINT
  5
12A5
330
129B
100
AcDbEntity
  8
Defpoints
 62
     0
100
AcDbPoint
 10
793.3847633637026
 20
833.2121570191448
 30
0.0
  0
POINT
  5
12A6
330
129B
100
AcDbEntity
  8
Defpoints
 62
     0
100
AcDbPoint
 10
793.3847633637026
 20
769.8105095119222
 30
0.0
  0
ENDBLK
  5
129D
330
129B
100
AcDbEntity
  8
0
100
AcDbBlockEnd
  0
BLOCK
  5
12AB
330
12AA
100
AcDbEntity
  8
0
100
AcDbBlockBegin
  2
*D7
 70
     1
 10
0.0
 20
0.0
 30
0.0
  3
*D7
  1
*D13
  0
LINE
  5
12AD
330
12AA
100
AcDbEntity
  8
DIM
 62
     0
 48
0.05
370
    -2
100
AcDbLine
 10
139.9414170567018
 20
1074.379845421094
 30
0.0
 11
77.35142281318578
 21
1074.379845421094
 31
0.0
  0
LINE
  5
12AE
330
12AA
100
AcDbEntity
  8
DIM
 62
     0
 48
0.05
370
    -2
100
AcDbLine
 10
372.9221647223796
 20
833.8753169216143
 30
0.0
 11
77.35142281318576
 21
833.8753169216143
 31
0.0
  0
LINE
  5
12AF
330
12AA
100
AcDbEntity
  8
DIM
 62
     0
 48
0.05
370
    -2
100
AcDbLine
 10
77.35142281318578
 20
1068.379845421094
 30
0.0
 11
77.35142281318576
 21
839.8753169216143
 31
0.0
  0
INSERT
  5
12B0
330
12AA
100
AcDbEntity
  8
DIM
 62
     0
370
    -2
100
AcDbBlockReference
  2
_DOT
 10
77.35142281318578
 20
1074.379845421094
 30
0.0
 41
6.0
 42
6.0
 43
6.0
 50
90.0
  0
INSERT
  5
12B1
330
12AA
100
AcDbEntity
  8
DIM
 62
     0
370
    -2
100
AcDbBlockReference
  2
_DOT
 10
77.35142281318576
 20
833.8753169216143
 30
0.0
 41
6.0
 42
6.0
 43
6.0
 50
270.0
  0
MTEXT
  5
12B2
330
12AA
100
AcDbEntity
  8
DIM
 62
     0
 48
0.05
100
AcDbMText
 10
61.35142281318576
 20
951.9530456254256
 30
0.0
 40
12.0
 41
0.0
 46
0.0
 71
     5
 72
     1
  1
\A1;240.5
  7
ＭＳ ゴシック
 11
5.908768040196284E-17
 21
1.0
 31
0.0
 73
     1
 44
1.0
  0
POINT
  5
12B3
330
12AA
100
AcDbEntity
  8
Defpoints
 62
     0
100
AcDbPoint
 10
144.9414170567018
 20
1074.379845421094
 30
0.0
  0
POINT
  5
12B4
330
12AA
100
AcDbEntity
  8
Defpoints
 62
     0
100
AcDbPoint
 10
377.9221647223796
 20
833.8753169216143
 30
0.0
  0
POINT
  5
12B5
330
12AA
100
AcDbEntity
  8
Defpoints
 62
     0
100
AcDbPoint
 10
77.35142281318576
 20
833.8753169216143
 30
0.0
  0
ENDBLK
  5
12AC
330
12AA
100
AcDbEntity
  8
0
100
AcDbBlockEnd
  0
BLOCK
  5
12BC
330
12BB
100
AcDbEntity
  8
0
100
AcDbBlockBegin
  2
*D8
 70
     1
 10
0.0
 20
0.0
 30
0.0
  3
*D8
  1
*D14
  0
ARC
  5
12BE
330
12BB
100
AcDbEntity
  8
DIM
 62
     0
 48
0.05
370
    -2
100
AcDbCircle
 10
340.2287305464272
 20
833.8753169216143
 30
0.0
 40
110.2109458037912
100
AcDbArc
 50
138.1196279321071
 51
176.8803720678929
  0
INSERT
  5
12BF
330
12BB
100
AcDbEntity
  8
DIM
 62
     0
370
    -2
100
AcDbBlockReference
  2
_DOT
 10
262.2978234075834
 20
911.8062240604581
 30
0.0
 41
6.0
 42
6.0
 43
6.0
 50
46.55981396605353
  0
INSERT
  5
12C0
330
12BB
100
AcDbEntity
  8
DIM
 62
     0
370
    -2
100
AcDbBlockReference
  2
_DOT
 10
230.017784742636
 20
833.8753169216143
 30
0.0
 41
6.0
 42
6.0
 43
6.0
 50
268.4401860339465
  0
MTEXT
  5
12C1
330
12BB
100
AcDbEntity
  8
DIM
 62
     0
 48
0.05
100
AcDbMText
 10
223.4310062375858
 20
882.2545183846502
 30
0.0
 40
12.0
 41
0.0
 46
0.0
 71
     5
 72
     1
  1
\A1;45%%d
  7
ＭＳ ゴシック
 11
0.38268343236509
 21
0.9238795325112867
 31
0.0
 73
     1
 44
1.0
  0
POINT
  5
12C2
330
12BB
100
AcDbEntity
  8
Defpoints
 62
     0
100
AcDbPoint
 10
244.7832517052341
 20
888.9807898235099
 30
0.0
  0
POINT
  5
12C3
330
12BB
100
AcDbEntity
  8
Defpoints
 62
     0
100
AcDbPoint
 10
377.9221647223796
 20
833.8753169216143
 30
0.0
  0
POINT
  5
12C4
330
12BB
100
AcDbEntity
  8
Defpoints
 62
     0
100
AcDbPoint
 10
218.4929261619247
 20
955.6111213061167
 30
0.0
  0
POINT
  5
12C5
330
12BB
100
AcDbEntity
  8
Defpoints
 62
     0
100
AcDbPoint
 10
408.6579691068812
 20
765.4460783611603
 30
0.0
  0
POINT
  5
12C6
330
12BB
100
AcDbEntity
  8
Defpoints
 62
     0
100
AcDbPoint
 10
197.0882181392819
 20
833.8753169216143
 30
0.0
  0
ENDBLK
  5
12BD
330
12BB
100
AcDbEntity
  8
0
100
AcDbBlockEnd
  0
BLOCK
  5
12CB
330
12CA
100
AcDbEntity
  8
0
100
AcDbBlockBegin
  2
*D9
 70
     1
 10
0.0
 20
0.0
 30
0.0
  3
*D9
  1
*D15
  0
LINE
  5
12CD
330
12CA
100
AcDbEntity
  8
DIM
 62
     0
 48
0.05
370
    -2
100
AcDbLine
 10
791.8561475443969
 20
591.364819503011
 30
0.0
 11
835.2134261392171
 21
591.364819503011
 31
0.0
  0
LINE
  5
12CE
330
12CA
100
AcDbEntity
  8
DIM
 62
     0
 48
0.05
370
    -2
100
AcDbLine
 10
796.8561475443978
 20
501.3648195030119
 30
0.0
 11
835.2134261392171
 21
501.3648195030119
 31
0.0
  0
LINE
  5
12CF
330
12CA
100
AcDbEntity
  8
DIM
 62
     0
 48
0.05
370
    -2
100
AcDbLine
 10
835.2134261392171
 20
585.364819503011
 30
0.0
 11
835.2134261392171
 21
507.3648195030119
 31
0.0
  0
INSERT
  5
12D0
330
12CA
100
AcDbEntity
  8
DIM
 62
     0
370
    -2
100
AcDbBlockReference
  2
_DOT
 10
835.2134261392171
 20
591.364819503011
 30
0.0
 41
6.0
 42
6.0
 43
6.0
 50
90.0
  0
INSERT
  5
12D1
330
12CA
100
AcDbEntity
  8
DIM
 62
     0
370
    -2
100
AcDbBlockReference
  2
_DOT
 10
835.2134261392171
 20
501.3648195030119
 30
0.0
 41
6.0
 42
6.0
 43
6.0
 50
270.0
  0
MTEXT
  5
12D2
330
12CA
100
AcDbEntity
  8
DIM
 62
     0
 48
0.05
100
AcDbMText
 10
819.2134261392171
 20
546.3648195030114
 30
0.0
 40
12.0
 41
0.0
 46
0.0
 71
     5
 72
     1
  1
\A1;90
  7
ＭＳ ゴシック
 11
0.0
 21
1.0
 31
0.0
 73
     1
 44
1.0
  0
POINT
  5
12D3
330
12CA
100
AcDbEntity
  8
Defpoints
 62
     0
100
AcDbPoint
 10
786.8561475443969
 20
591.364819503011
 30
0.0
  0
POINT
  5
12D4
330
12CA
100
AcDbEntity
  8
Defpoints
 62
     0
100
AcDbPoint
 10
791.8561475443978
 20
501.3648195030119
 30
0.0
  0
POINT
  5
12D5
330
12CA
100
AcDbEntity
  8
Defpoints
 62
     0
100
AcDbPoint
 10
835.2134261392171
 20
501.3648195030119
 30
0.0
  0
ENDBLK
  5
12CC
330
12CA
100
AcDbEntity
  8
0
100
AcDbBlockEnd
  0
BLOCK
  5
12EA
330
12E9
100
AcDbEntity
  8
0
100
AcDbBlockBegin
  2
*D10
 70
     1
 10
0.0
 20
0.0
 30
0.0
  3
*D10
  1
*D16
  0
LINE
  5
12EC
330
12E9
100
AcDbEntity
  8
DIM
 62
     0
 48
0.05
370
    -2
100
AcDbLine
 10
796.8667256387016
 20
865.8751322802914
 30
0.0
 11
835.2134261392171
 21
865.8751322802914
 31
0.0
  0
LINE
  5
12ED
330
12E9
100
AcDbEntity
  8
DIM
 62
     0
 48
0.05
370
    -2
100
AcDbLine
 10
796.8561475443978
 20
833.8753169216143
 30
0.0
 11
835.2134261392171
 21
833.8753169216143
 31
0.0
  0
LINE
  5
12EE
330
12E9
100
AcDbEntity
  8
DIM
 62
     0
 48
0.05
370
    -2
100
AcDbLine
 10
835.2134261392171
 20
859.8751322802914
 30
0.0
 11
835.2134261392171
 21
839.8753169216143
 31
0.0
  0
INSERT
  5
12EF
330
12E9
100
AcDbEntity
  8
DIM
 62
     0
370
    -2
100
AcDbBlockReference
  2
_DOT
 10
835.2134261392171
 20
865.8751322802914
 30
0.0
 41
6.0
 42
6.0
 43
6.0
 50
90.0
  0
INSERT
  5
12F0
330
12E9
100
AcDbEntity
  8
DIM
 62
     0
370
    -2
100
AcDbBlockReference
  2
_DOT
 10
835.2134261392171
 20
833.8753169216143
 30
0.0
 41
6.0
 42
6.0
 43
6.0
 50
270.0
  0
MTEXT
  5
12F1
330
12E9
100
AcDbEntity
  8
DIM
 62
     0
 48
0.05
100
AcDbMText
 10
818.2414261392171
 20
849.8752246009528
 30
0.0
 40
12.0
 41
0.0
 46
0.0
 71
     5
 72
     1
  1
\A1;φ32
  7
ＭＳ ゴシック
 11
0.0
 21
1.0
 31
0.0
 73
     1
 44
1.0
  0
POINT
  5
12F2
330
12E9
100
AcDbEntity
  8
Defpoints
 62
     0
100
AcDbPoint
 10
791.8667256387016
 20
865.8751322802914
 30
0.0
  0
POINT
  5
12F3
330
12E9
100
AcDbEntity
  8
Defpoints
 62
     0
100
AcDbPoint
 10
791.8561475443978
 20
833.8753169216143
 30
0.0
  0
POINT
  5
12F6
330
12E9
100
AcDbEntity
  8
Defpoints
 62
     0
100
AcDbPoint
 10
835.2134261392171
 20
833.8753169216143
 30
0.0
  0
ENDBLK
  5
12EB
330
12E9
100
AcDbEntity
  8
0
100
AcDbBlockEnd
  0
ENDSEC
  0
SECTION
  2
ENTITIES
  0
MTEXT
  5
177
330
A
100
AcDbEntity
  8
TEMPLATE
390
1D
100
AcDbMText
 10
39.60107227386538
 20
171.8658758157141
 30
0.0
 40
8.144205729166663
 41
0.0
 46
0.0
 71
     1
 72
     1
  1
品名
  7
ＭＳ ゴシック
 73
     1
 44
0.7828267384257843
  0
MTEXT
  5
178
330
A
100
AcDbEntity
  8
TEMPLATE
390
1D
100
AcDbMText
 10
39.60107227386538
 20
129.365875815714
 30
0.0
 40
8.144205729166663
 41
0.0
 46
0.0
 71
     1
 72
     1
  1
仕様
  7
ＭＳ ゴシック
 73
     1
 44
0.7828267384257843
  0
LINE
  5
179
330
A
100
AcDbEntity
  8
TEMPLATE
390
1D
100
AcDbLine
 10
1011.101072273624
 20
133.5733367532142
 30
0.0
 11
36.10107227362437
 21
133.5733367532142
 31
0.0
  0
LWPOLYLINE
  5
17A
330
A
100
AcDbEntity
  8
TEMPLATE
390
1D
100
AcDbPolyline
 90
        5
 70
   128
 43
0.0
 10
1011.101072273624
 20
1448.573336753213
 10
36.10107227362437
 20
1448.573336753213
 10
36.10107227362437
 20
48.57333675321413
 10
1011.101072273624
 20
48.57333675321413
 10
1011.101072273624
 20
1448.573336753213
  0
LINE
  5
17B
330
A
100
AcDbEntity
  8
TEMPLATE
390
1D
100
AcDbLine
 10
1011.101072273624
 20
176.0733367532141
 30
0.0
 11
36.10107227362437
 21
176.0733367532141
 31
0.0
  0
LINE
  5
17C
330
A
100
AcDbEntity
  8
TEMPLATE
390
1D
100
AcDbLine
 10
1011.101072273866
 20
91.07333675321412
 30
0.0
 11
634.601072273865
 21
91.07333675321412
 31
0.0
  0
MTEXT
  5
17D
330
A
100
AcDbEntity
  8
TEMPLATE
390
1D
100
AcDbMText
 10
36.10107227396725
 20
42.64642572478557
 30
0.0
 40
10.85894097222222
 41
0.0
 46
10.85894097222222
 71
     1
 72
     1
  1
{20160628S}
  7
ＭＳ ゴシック
 73
     1
 44
0.7828267384257843
1001
ACAD
1000
ACAD_MTEXT_DEFINED_HEIGHT_BEGIN
1070
    46
1040
10.85894097222222
1000
ACAD_MTEXT_DEFINED_HEIGHT_END
  0
MTEXT
  5
17E
330
A
100
AcDbEntity
  8
TEMPLATE
390
1D
100
AcDbMText
 10
649.5367753999956
 20
76.11813951656006
 30
0.0
 40
12.21630859375
 41
0.0
 46
0.0
 71
     1
 72
     1
  1
大洋金物株式会社 ティーフォルム事業部
  7
ＭＳ ゴシック
 73
     1
 44
0.7828267384257843
  0
MTEXT
  5
180
330
A
100
AcDbEntity
  8
TEMPLATE
390
1D
100
AcDbMText
 10
915.601072273995
 20
115.0746453469641
 30
0.0
 40
12.21630859375
 41
0.0
 46
12.21630859375
 71
     1
 72
     1
  1
{1:5}
  7
ＭＳ ゴシック
 73
     1
 44
0.7828267384257843
1001
ACAD
1000
ACAD_MTEXT_DEFINED_HEIGHT_BEGIN
1070
    46
1040
12.21630859375
1000
ACAD_MTEXT_DEFINED_HEIGHT_END
  0
MTEXT
  5
181
330
A
100
AcDbEntity
  8
TEMPLATE
390
1D
100
AcDbMText
 10
889.101072273995
 20
129.365875815714
 30
0.0
 40
8.144205729166663
 41
0.0
 46
0.0
 71
     1
 72
     1
  1
縮尺
  7
ＭＳ ゴシック
 73
     1
 44
0.7828267384257843
  0
LINE
  5
182
330
A
100
AcDbEntity
  8
TEMPLATE
390
1D
100
AcDbLine
 10
885.601072273995
 20
91.07333675321412
 30
0.0
 11
885.601072273995
 21
133.5733367532142
 31
0.0
  0
MTEXT
  5
183
330
A
100
AcDbEntity
  8
TEMPLATE
390
1D
100
AcDbMText
 10
763.601072273995
 20
129.365875815714
 30
0.0
 40
8.144205729166663
 41
0.0
 46
0.0
 71
     1
 72
     1
  1
容量
  7
ＭＳ ゴシック
 73
     1
 44
0.7828267384257843
  0
LINE
  5
184
330
A
100
AcDbEntity
  8
TEMPLATE
390
1D
100
AcDbLine
 10
760.101072273995
 20
91.07333675321412
 30
0.0
 11
760.101072273995
 21
133.5733367532142
 31
0.0
  0
MTEXT
  5
185
330
A
100
AcDbEntity
  8
TEMPLATE
390
1D
100
AcDbMText
 10
638.101072273995
 20
171.8658758157141
 30
0.0
 40
8.144205729166663
 41
0.0
 46
0.0
 71
     1
 72
     1
  1
品番
  7
ＭＳ ゴシック
 73
     1
 44
0.7828267384257843
  0
MTEXT
  5
186
330
A
100
AcDbEntity
  8
TEMPLATE
390
1D
100
AcDbMText
 10
638.101072273995
 20
129.365875815714
 30
0.0
 40
8.144205729166663
 41
0.0
 46
0.0
 71
     1
 72
     1
  1
重量
  7
ＭＳ ゴシック
 73
     1
 44
0.7828267384257843
  0
MTEXT
  5
187
330
A
100
AcDbEntity
  8
TEMPLATE
390
1D
100
AcDbMText
 10
664.601072273995
 20
157.5746453469641
 30
0.0
 40
12.21630859375
 41
0.0
 46
12.21630859375
 71
     1
 72
     1
  1
{FRF74-2211}
  7
ＭＳ ゴシック
 73
     1
 44
0.7828267384257843
1001
ACAD
1000
ACAD_MTEXT_DEFINED_HEIGHT_BEGIN
1070
    46
1040
12.21630859375
1000
ACAD_MTEXT_DEFINED_HEIGHT_END
  0
LINE
  5
188
330
A
100
AcDbEntity
  8
TEMPLATE
390
1D
100
AcDbLine
 10
634.601072273995
 20
48.57333675321413
 30
0.0
 11
634.601072273995
 21
176.0733367532141
 31
0.0
  0
MTEXT
  5
189
330
A
100
AcDbEntity
  8
TEMPLATE
390
1D
100
AcDbMText
 10
66.10107227386537
 20
157.5746453469641
 30
0.0
 40
12.21630859375
 41
0.0
 46
12.21630859375
 71
     1
 72
     1
  1
{グラブレール　-LANGBERGER-}
  7
ＭＳ ゴシック
 73
     1
 44
0.7828267384257843
1001
ACAD
1000
ACAD_MTEXT_DEFINED_HEIGHT_BEGIN
1070
    46
1040
12.21630859375
1000
ACAD_MTEXT_DEFINED_HEIGHT_END
  0
INSERT
  5
6B5
330
A
100
AcDbEntity
  8
TEMPLATE
100
AcDbBlockReference
  2
名称未設定-1
 10
935.3753740442249
 20
12.97338287832691
 30
0.0
 41
0.3809999999999999
 42
0.3809999999999999
 43
0.3809999999999999
  0
MTEXT
  5
7D9
330
A
100
AcDbEntity
  8
TEMPLATE
390
1D
100
AcDbMText
 10
62.62717263801819
 20
113.4059880146976
 30
0.0
 40
12.21630859375
 41
0.0
 46
12.21630859375
 71
     1
 72
     1
  1
{クローム}
  7
ＭＳ ゴシック
 73
     1
 44
0.7828267384257843
1001
ACAD
1000
ACAD_MTEXT_DEFINED_HEIGHT_BEGIN
1070
    46
1040
12.21630859375
1000
ACAD_MTEXT_DEFINED_HEIGHT_END
  0
INSERT
  5
68C
330
A
100
AcDbEntity
  8
TEMPLATE
100
AcDbBlockReference
  2
block 2
 10
919.2743017702577
 20
8.373076514336368
 30
0.0
 41
0.3809999999999999
 42
0.3809999999999999
 43
0.3809999999999999
  0
LWPOLYLINE
  5
D69
330
A
100
AcDbEntity
  8
BORDER
 48
0.05
100
AcDbPolyline
 90
        4
 70
     1
 43
0.0
 10
0.0
 20
0.0
 10
0.0
 20
1485.0
 10
1050.0
 20
1485.0
 10
1050.0
 20
0.0
  0
LINE
  5
109E
330
A
100
AcDbEntity
  8
MODEL
100
AcDbLine
 10
791.8561475443978
 20
833.8753169216143
 30
0.0
 11
793.3800972027714
 21
833.9019175618487
 31
0.0
  0
LINE
  5
109F
330
A
100
AcDbEntity
  8
MODEL
100
AcDbLine
 10
793.3800972027714
 20
865.8487162813799
 30
0.0
 11
791.8561475443978
 21
865.8753169216143
 31
0.0
  0
ARC
  5
10A0
330
A
100
AcDbEntity
  8
MODEL
100
AcDbCircle
 10
793.3713709995538
 20
834.4018414094271
 30
0.0
 40
0.5000000000000684
100
AcDbArc
 50
270.9999999998715
 51
358.2248114146028
  0
ARC
  5
10A1
330
A
100
AcDbEntity
  8
MODEL
100
AcDbCircle
 10
793.3713709995538
 20
865.3487924338015
 30
0.0
 40
0.5000000000000906
100
AcDbArc
 50
1.775188585395612
 51
89.0000000001285
  0
ARC
  5
10A2
330
A
100
AcDbEntity
  8
MODEL
100
AcDbCircle
 10
294.1110966379986
 20
849.8753169216134
 30
0.0
 40
500.0000000000005
100
AcDbArc
 50
358.2248114143653
 51
1.775188585635619
  0
LINE
  5
10A3
330
A
100
AcDbEntity
  8
MODEL
100
AcDbLine
 10
146.037821687418
 20
1073.321059776564
 30
0.0
 11
144.9414170567018
 21
1074.379845421094
 31
0.0
  0
LINE
  5
10A4
330
A
100
AcDbEntity
  8
MODEL
100
AcDbLine
 10
122.3516190449193
 20
1051.790047409311
 30
0.0
 11
123.4104046894483
 21
1050.693642778594
 31
0.0
  0
ARC
  5
10A5
330
A
100
AcDbEntity
  8
MODEL
100
AcDbCircle
 10
144.5940878714721
 20
1074.020175520925
 30
0.0
 40
0.5000000000000908
100
AcDbArc
 50
45.99999999996989
 51
133.2248114147282
  0
ARC
  5
10A6
330
A
100
AcDbEntity
  8
MODEL
100
AcDbCircle
 10
122.7112889450893
 20
1052.137376594541
 30
0.0
 40
0.5000000000001013
100
AcDbArc
 50
136.7751885854203
 51
223.9999999999564
  0
ARC
  5
10A7
330
A
100
AcDbEntity
  8
MODEL
100
AcDbCircle
 10
486.6830139863907
 20
710.0484504796214
 30
0.0
 40
500.0000000000003
100
AcDbArc
 50
133.2248114143645
 51
136.7751885856354
  0
LINE
  5
10A8
330
A
100
AcDbEntity
  8
MODEL
100
AcDbLine
 10
791.8561475443978
 20
865.8753169216143
 30
0.0
 11
377.9221647223796
 21
865.8753169216143
 31
0.0
  0
LINE
  5
10A9
330
A
100
AcDbEntity
  8
MODEL
100
AcDbLine
 10
377.9221647223796
 20
833.8753169216143
 30
0.0
 11
791.8561475443978
 21
833.8753169216143
 31
0.0
  0
LINE
  5
10AA
330
A
100
AcDbEntity
  8
MODEL
100
AcDbLine
 10
123.4104046894483
 20
1050.693642778594
 30
0.0
 11
313.575447634403
 21
860.5285998336385
 31
0.0
  0
LINE
  5
10AB
330
A
100
AcDbEntity
  8
MODEL
100
AcDbLine
 10
336.2028646323727
 20
883.1560168316082
 30
0.0
 11
146.037821687418
 21
1073.321059776564
 31
0.0
  0
ARC
  5
10AC
330
A
100
AcDbEntity
  8
MODEL
100
AcDbCircle
 10
377.9221647223796
 20
924.8753169216143
 30
0.0
 40
59.00000000000004
100
AcDbArc
 50
225.0000000000013
 51
270.0000000000009
  0
ARC
  5
10AD
330
A
100
AcDbEntity
  8
MODEL
100
AcDbCircle
 10
377.9221647223796
 20
924.8753169216143
 30
0.0
 40
91.00000000000009
100
AcDbArc
 50
225.0000000000008
 51
270.0000000000007
  0
LINE
  5
10AE
102
{ACAD_REACTORS
330
12E8
102
}
330
A
100
AcDbEntity
  8
MODEL
100
AcDbLine
 10
791.8561475443978
 20
864.6629104053945
 30
0.0
 11
791.8561475443978
 21
833.8753169216143
 31
0.0
  0
LINE
  5
10AF
330
A
100
AcDbEntity
  8
MODEL
100
AcDbLine
 10
791.8561475443978
 20
865.8753169216143
 30
0.0
 11
791.8561475443978
 21
864.6629104053945
 31
0.0
  0
LINE
  5
10B0
330
A
100
AcDbEntity
  8
MODEL
100
AcDbLine
 10
134.7241131884341
 20
1062.007351277579
 30
0.0
 11
146.037821687418
 21
1073.321059776564
 31
0.0
  0
LINE
  5
10B1
330
A
100
AcDbEntity
  8
MODEL
100
AcDbLine
 10
123.4104046894483
 20
1050.693642778594
 30
0.0
 11
134.7241131884341
 21
1062.007351277579
 31
0.0
  0
LINE
  5
10B2
330
A
100
AcDbEntity
  8
MODEL
100
AcDbLine
 10
791.8561475443978
 20
865.8753169216143
 30
0.0
 11
791.8561475443978
 21
833.8753169216143
 31
0.0
  0
LINE
  5
10B3
330
A
100
AcDbEntity
  8
MODEL
100
AcDbLine
 10
146.037821687418
 20
1073.321059776564
 30
0.0
 11
123.4104046894483
 21
1050.693642778594
 31
0.0
  0
LINE
  5
10B4
330
A
100
AcDbEntity
  8
MODEL
100
AcDbLine
 10
793.3800972027714
 20
864.6383254395078
 30
0.0
 11
793.3800972027714
 21
865.8487162813799
 31
0.0
  0
LINE
  5
10B5
330
A
100
AcDbEntity
  8
MODEL
100
AcDbLine
 10
793.3800972027714
 20
833.9019175618487
 30
0.0
 11
793.3800972027714
 21
864.6383254395078
 31
0.0
  0
LINE
  5
10B6
330
A
100
AcDbEntity
  8
MODEL
100
AcDbLine
 10
793.8711310339497
 20
865.364281398276
 30
0.0
 11
793.8711310339497
 21
834.3863524449525
 31
0.0
  0
LINE
  5
10B7
330
A
100
AcDbEntity
  8
MODEL
100
AcDbLine
 10
133.6465180508096
 20
1063.084946415202
 30
0.0
 11
122.3516190449193
 21
1051.790047409311
 31
0.0
  0
LINE
  5
10B8
330
A
100
AcDbEntity
  8
MODEL
100
AcDbLine
 10
144.9414170567018
 20
1074.379845421094
 30
0.0
 11
133.6465180508096
 21
1063.084946415202
 31
0.0
  0
LINE
  5
10B9
330
A
100
AcDbEntity
  8
MODEL
100
AcDbLine
 10
122.346952883988
 20
1052.479807952015
 30
0.0
 11
144.251656513997
 21
1074.384511582025
 31
0.0
  0
LINE
  5
10BA
330
A
100
AcDbEntity
  8
MODEL
100
AcDbLine
 10
377.9221647223796
 20
865.8753169216143
 30
0.0
 11
377.9221647223796
 21
833.8753169216143
 31
0.0
  0
LINE
  5
10BB
330
A
100
AcDbEntity
  8
MODEL
100
AcDbLine
 10
336.2028646323727
 20
883.1560168316082
 30
0.0
 11
313.575447634403
 21
860.5285998336385
 31
0.0
  0
LINE
  5
10D1
330
A
100
AcDbEntity
  8
MODEL
100
AcDbLine
 10
866.9954942835377
 20
838.2269601691714
 30
0.0
 11
866.9954942835377
 21
838.3753169216161
 31
0.0
  0
LINE
  5
10D2
330
A
100
AcDbEntity
  8
MODEL
100
AcDbLine
 10
860.9954942835377
 20
838.3753169216161
 30
0.0
 11
860.9954942835377
 21
838.2269601691714
 31
0.0
  0
LINE
  5
10D3
330
A
100
AcDbEntity
  8
MODEL
100
AcDbLine
 10
860.9954942835377
 20
838.2269601691714
 30
0.0
 11
861.7454942835377
 21
837.4769601691714
 31
0.0
  0
LINE
  5
10D4
330
A
100
AcDbEntity
  8
MODEL
100
AcDbLine
 10
866.2454942835377
 20
837.4769601691714
 30
0.0
 11
866.9954942835377
 21
838.2269601691714
 31
0.0
  0
LINE
  5
10D5
330
A
100
AcDbEntity
  8
MODEL
100
AcDbLine
 10
866.9954942835377
 20
1032.55751579265
 30
0.0
 11
866.9954942835377
 21
1034.292908634457
 31
0.0
  0
LINE
  5
10D6
330
A
100
AcDbEntity
  8
MODEL
100
AcDbLine
 10
860.9954942835359
 20
1032.662419858337
 30
0.0
 11
860.9954942835359
 21
1032.55751579265
 31
0.0
  0
LINE
  5
10D7
330
A
100
AcDbEntity
  8
MODEL
100
AcDbLine
 10
946.4930566635178
 20
1062.204832794007
 30
0.0
 11
946.4664600759227
 21
1063.282099610708
 31
0.0
  0
LINE
  5
10D8
330
A
100
AcDbEntity
  8
MODEL
100
AcDbLine
 10
914.5245284911509
 20
1063.282099610708
 30
0.0
 11
914.4979319035576
 21
1062.204832794007
 31
0.0
  0
LINE
  5
10D9
330
A
100
AcDbEntity
  8
MODEL
100
AcDbLine
 10
914.6538152572396
 20
1064.532477543426
 30
0.0
 11
856.4954942835377
 21
1064.532477543426
 31
0.0
  0
LINE
  5
10DA
330
A
100
AcDbEntity
  8
MODEL
100
AcDbLine
 10
856.4954942835377
 20
1017.055818140539
 30
0.0
 11
918.0301333860045
 21
1017.055818140539
 31
0.0
  0
LINE
  5
10DB
330
A
100
AcDbEntity
  8
MODEL
100
AcDbLine
 10
914.4954942835377
 20
1017.055818140539
 30
0.0
 11
914.4954942835377
 21
871.8423083326234
 31
0.0
  0
LINE
  5
10DC
330
A
100
AcDbEntity
  8
MODEL
100
AcDbLine
 10
914.4954942835377
 20
1062.007351277579
 30
0.0
 11
914.4954942835377
 21
1058.471817371646
 31
0.0
  0
LINE
  5
10DD
330
A
100
AcDbEntity
  8
MODEL
100
AcDbLine
 10
946.4954942835377
 20
871.8423083326234
 30
0.0
 11
946.4954942835377
 21
1062.007351277579
 31
0.0
  0
LINE
  5
10DE
330
A
100
AcDbEntity
  8
MODEL
100
AcDbLine
 10
914.4954942835377
 20
871.8423083326234
 30
0.0
 11
914.4954942835377
 21
849.8753169216143
 31
0.0
  0
LINE
  5
10DF
330
A
100
AcDbEntity
  8
MODEL
100
AcDbLine
 10
946.4954942835377
 20
849.8753169216143
 30
0.0
 11
946.4954942835377
 21
871.8423083326234
 31
0.0
  0
LINE
  5
10E0
330
A
100
AcDbEntity
  8
MODEL
100
AcDbLine
 10
860.9954942835377
 20
838.2269601691714
 30
0.0
 11
866.9954942835377
 21
838.2269601691714
 31
0.0
  0
LINE
  5
10E1
330
A
100
AcDbEntity
  8
MODEL
100
AcDbLine
 10
866.2454942835377
 20
837.4769601691714
 30
0.0
 11
861.7454942835377
 21
837.4769601691714
 31
0.0
  0
LINE
  5
10E2
330
A
100
AcDbEntity
  8
MODEL
100
AcDbLine
 10
862.4115478630777
 20
1032.522722656501
 30
0.0
 11
862.5966147355268
 21
1031.304989054122
 31
0.0
  0
LINE
  5
10E3
330
A
100
AcDbEntity
  8
MODEL
100
AcDbLine
 10
862.5966147355268
 20
1031.304989054122
 30
0.0
 11
864.1805611559869
 21
1030.809452104382
 31
0.0
  0
LINE
  5
10E4
330
A
100
AcDbEntity
  8
MODEL
100
AcDbLine
 10
864.1805611559869
 20
1030.809452104382
 30
0.0
 11
865.5794407039959
 21
1031.531648757019
 31
0.0
  0
LINE
  5
10E5
330
A
100
AcDbEntity
  8
MODEL
100
AcDbLine
 10
865.5794407039959
 20
1031.531648757019
 30
0.0
 11
865.3943738315468
 21
1032.749382359397
 31
0.0
  0
LINE
  5
10E6
330
A
100
AcDbEntity
  8
MODEL
100
AcDbLine
 10
865.3943738315468
 20
1032.749382359397
 30
0.0
 11
863.8104274110885
 21
1033.244919309138
 31
0.0
  0
LINE
  5
10E7
330
A
100
AcDbEntity
  8
MODEL
100
AcDbLine
 10
863.8104274110885
 20
1033.244919309138
 30
0.0
 11
862.4115478630777
 21
1032.522722656501
 31
0.0
  0
LINE
  5
10E8
330
A
100
AcDbEntity
  8
MODEL
100
AcDbLine
 10
862.5966147355268
 20
1031.9402232057
 30
0.0
 11
862.5966147355268
 21
1031.304989054122
 31
0.0
  0
LINE
  5
10E9
330
A
100
AcDbEntity
  8
MODEL
100
AcDbLine
 10
864.1805611559869
 20
1033.129123127794
 30
0.0
 11
864.1805611559869
 21
1030.809452104382
 31
0.0
  0
ARC
  5
10EA
330
A
100
AcDbEntity
  8
MODEL
100
AcDbCircle
 10
930.4602117245761
 20
1072.717132645994
 30
0.0
 40
20.28940140266318
100
AcDbArc
 50
244.6440308733263
 51
301.0411077499606
  0
LINE
  5
10EB
330
A
100
AcDbEntity
  8
MODEL
100
AcDbLine
 10
946.4954942835377
 20
1062.007351277579
 30
0.0
 11
946.4930566635178
 21
1062.204832794007
 31
0.0
  0
LINE
  5
10EC
330
A
100
AcDbEntity
  8
MODEL
100
AcDbLine
 10
919.069208797868
 20
838.6753169216154
 30
0.0
 11
919.069208797868
 21
838.3753169216161
 31
0.0
  0
LINE
  5
10ED
330
A
100
AcDbEntity
  8
MODEL
100
AcDbLine
 10
919.069208797868
 20
838.3753169216161
 30
0.0
 11
856.4954942835377
 21
838.3753169216161
 31
0.0
  0
LINE
  5
10EE
330
A
100
AcDbEntity
  8
MODEL
100
AcDbLine
 10
856.4954942835377
 20
843.3753169216161
 30
0.0
 11
915.8753027663226
 21
843.3753169216161
 31
0.0
  0
LINE
  5
10F0
330
A
100
AcDbEntity
  8
MODEL
100
AcDbLine
 10
856.4954942835377
 20
861.3753169216161
 30
0.0
 11
914.4954942835377
 21
861.3753169216161
 31
0.0
  0
LINE
  5
10F3
330
A
100
AcDbEntity
  8
MODEL
100
AcDbLine
 10
919.069208797868
 20
1048.222921324606
 30
0.0
 11
919.069208797868
 21
1046.804555482068
 31
0.0
  0
LINE
  5
10F4
330
A
100
AcDbEntity
  8
MODEL
100
AcDbLine
 10
919.069208797868
 20
1046.804555482068
 30
0.0
 11
856.4954942835377
 21
1046.804555482068
 31
0.0
  0
LINE
  5
10F5
330
A
100
AcDbEntity
  8
MODEL
100
AcDbLine
 10
856.4954942835377
 20
1053.875623293933
 30
0.0
 11
915.8753027663226
 21
1053.875623293933
 31
0.0
  0
SPLINE
  5
10F6
330
A
100
AcDbEntity
  8
MODEL
100
AcDbSpline
210
0.0
220
0.0
230
1.0
 70
     8
 71
     3
 72
    15
 73
    11
 74
     0
 42
0.000000001
 43
0.00000001
 40
0.0
 40
0.0
 40
0.0
 40
0.0
 40
0.1477233689587702
 40
0.2999818079121727
 40
0.4475649071566422
 40
0.5987222769126587
 40
0.7595655609432532
 40
0.8425327271897798
 40
0.9264054639338141
 40
1.0
 40
1.0
 40
1.0
 40
1.0
 10
915.8753027663226
 20
1053.875623293933
 30
0.0
 10
916.0192687879937
 20
1053.64579957566
 30
0.0
 10
916.3116205517183
 20
1053.179096609198
 30
0.0
 10
916.8093627029923
 20
1052.378851099719
 30
0.0
 10
917.3332718747154
 20
1051.528836435073
 30
0.0
 10
917.8746573524606
 20
1050.626238644702
 30
0.0
 10
918.3238462881839
 20
1049.831118264596
 30
0.0
 10
918.6625710525279
 20
1049.168599358814
 30
0.0
 10
918.8901345271136
 20
1048.682500184384
 30
0.0
 10
919.012172596422
 20
1048.369299876455
 30
0.0
 10
919.069208797868
 20
1048.222921324606
 30
0.0
  0
ARC
  5
10F8
330
A
100
AcDbEntity
  8
MODEL
100
AcDbCircle
 10
923.1056161515846
 20
1058.551423119486
 30
0.0
 40
8.610489861658538
100
AcDbArc
 50
180.5297187996733
 51
212.8905039485056
  0
SPLINE
  5
10F9
330
A
100
AcDbEntity
  8
MODEL
100
AcDbSpline
210
0.0
220
0.0
230
1.0
 70
     8
 71
     3
 72
    10
 73
     6
 74
     0
 42
0.000000001
 43
0.00000001
 40
0.0
 40
0.0
 40
0.0
 40
0.0
 40
0.3782592672785763
 40
0.7693992784316064
 40
1.0
 40
1.0
 40
1.0
 40
1.0
 10
919.069208797868
 20
1017.526182460781
 30
0.0
 10
918.9613022794858
 20
1017.419225832863
 30
0.0
 10
918.7418147359824
 20
1017.201670416614
 30
0.0
 10
918.3713877140692
 20
1017.066765421704
 30
0.0
 10
918.1224596408103
 20
1017.06978371401
 30
0.0
 10
918.0301333860045
 20
1017.070903184469
 30
0.0
  0
ELLIPSE
  5
10FA
330
A
100
AcDbEntity
  8
MODEL
100
AcDbEllipse
 10
865.9954942835377
 20
1032.662419858337
 30
0.0
 11
2.58819045102527
 21
0.0
 31
0.0
210
0.0
220
0.0
230
1.0
 40
0.6830127018921536
 41
0.0
 42
1.692475678229638
  0
ELLIPSE
  5
10FB
330
A
100
AcDbEntity
  8
MODEL
100
AcDbEllipse
 10
865.9954942835377
 20
1032.662419858337
 30
0.0
 11
2.58819045102527
 21
0.0
 31
0.0
210
0.0
220
0.0
230
1.0
 40
0.6830127018921536
 41
2.906952029406825
 42
3.875840956974515
  0
ELLIPSE
  5
10FC
330
A
100
AcDbEntity
  8
MODEL
100
AcDbEllipse
 10
865.9954942835377
 20
1032.662419858337
 30
0.0
 11
2.58819045102527
 21
0.0
 31
0.0
210
0.0
220
0.0
230
1.0
 40
0.6830127018921536
 41
4.660940963783043
 42
6.283185307179586
  0
LINE
  5
10FD
330
A
100
AcDbEntity
  8
MODEL
100
AcDbLine
 10
856.4954942835377
 20
1018.520284234606
 30
0.0
 11
919.069208797868
 21
1018.520284234606
 31
0.0
  0
LINE
  5
10FE
330
A
100
AcDbEntity
  8
MODEL
100
AcDbLine
 10
919.069208797868
 20
1018.520284234606
 30
0.0
 11
919.069208797868
 21
1046.804555482068
 31
0.0
  0
LINE
  5
1102
330
A
100
AcDbEntity
  8
MODEL
100
AcDbLine
 10
919.069208797868
 20
1018.520284234606
 30
0.0
 11
919.069208797868
 21
1017.526182460781
 31
0.0
  0
ARC
  5
1104
330
A
100
AcDbEntity
  8
MODEL
100
AcDbCircle
 10
930.4954942835377
 20
849.8753169216143
 30
0.0
 40
15.99999999999994
100
AcDbArc
 50
180.0
 51
0.0
  0
LINE
  5
1105
330
A
100
AcDbEntity
  8
MODEL
100
AcDbLine
 10
914.4954942835377
 20
856.3753169216161
 30
0.0
 11
856.4954942835377
 21
856.3753169216161
 31
0.0
  0
LINE
  5
1106
330
A
100
AcDbEntity
  8
MODEL
100
AcDbLine
 10
914.5192428790381
 20
1063.068011449358
 30
0.0
 11
856.4954942835377
 21
1063.068011449358
 31
0.0
  0
LINE
  5
1108
330
A
100
AcDbEntity
  8
MODEL
  6
CENTER
 48
0.005
100
AcDbLine
 10
863.9954942835377
 20
848.2269601691714
 30
0.0
 11
863.9954942835377
 21
827.4769601691714
 31
0.0
  0
LINE
  5
1109
330
A
100
AcDbEntity
  8
MODEL
  6
CENTER
 48
0.005
100
AcDbLine
 10
863.9954942835377
 20
1042.55751579265
 30
0.0
 11
863.9954942835377
 21
1022.02718570676
 31
0.0
  0
LINE
  5
110B
330
A
100
AcDbEntity
  8
MODEL
100
AcDbLine
 10
864.2359032029456
 20
1030.445303354708
 30
0.0
 11
865.0737117234332
 21
1030.630771163671
 31
0.0
  0
LINE
  5
110C
330
A
100
AcDbEntity
  8
MODEL
100
AcDbLine
 10
865.0737117234332
 20
1030.630771163671
 30
0.0
 11
865.7473714127611
 21
1031.028830428289
 31
0.0
  0
LINE
  5
110D
330
A
100
AcDbEntity
  8
MODEL
100
AcDbLine
 10
865.7473714127611
 20
1031.028830428289
 30
0.0
 11
866.1543236899709
 21
1031.578880233942
 31
0.0
  0
LINE
  5
110E
330
A
100
AcDbEntity
  8
MODEL
100
AcDbLine
 10
866.1543236899709
 20
1031.578880233942
 30
0.0
 11
866.2326137598886
 21
1032.197180483932
 31
0.0
  0
LINE
  5
110F
330
A
100
AcDbEntity
  8
MODEL
100
AcDbLine
 10
866.2326137598886
 20
1032.197180483932
 30
0.0
 11
865.9703226690692
 21
1032.789600570104
 31
0.0
  0
LINE
  5
1110
330
A
100
AcDbEntity
  8
MODEL
100
AcDbLine
 10
865.9703226690692
 20
1032.789600570104
 30
0.0
 11
865.4073818584168
 21
1033.26594990464
 31
0.0
  0
LINE
  5
1111
330
A
100
AcDbEntity
  8
MODEL
100
AcDbLine
 10
865.4073818584168
 20
1033.26594990464
 30
0.0
 11
864.6294939632828
 21
1033.553708619474
 31
0.0
  0
LINE
  5
1112
330
A
100
AcDbEntity
  8
MODEL
100
AcDbLine
 10
864.6294939632828
 20
1033.553708619474
 30
0.0
 11
863.755085364128
 21
1033.609068058812
 31
0.0
  0
LINE
  5
1113
330
A
100
AcDbEntity
  8
MODEL
100
AcDbLine
 10
863.755085364128
 20
1033.609068058812
 30
0.0
 11
862.9172768436404
 21
1033.423600249849
 31
0.0
  0
LINE
  5
1114
330
A
100
AcDbEntity
  8
MODEL
100
AcDbLine
 10
862.9172768436404
 20
1033.423600249849
 30
0.0
 11
862.2436171543125
 21
1033.025540985231
 31
0.0
  0
LINE
  5
1115
330
A
100
AcDbEntity
  8
MODEL
100
AcDbLine
 10
862.2436171543125
 20
1033.025540985231
 30
0.0
 11
861.8366648771027
 21
1032.475491179578
 31
0.0
  0
LINE
  5
1116
330
A
100
AcDbEntity
  8
MODEL
100
AcDbLine
 10
861.8366648771027
 20
1032.475491179578
 30
0.0
 11
861.7583748071868
 21
1031.857190929588
 31
0.0
  0
LINE
  5
1117
330
A
100
AcDbEntity
  8
MODEL
100
AcDbLine
 10
861.7583748071868
 20
1031.857190929588
 30
0.0
 11
862.0206658980044
 21
1031.264770843416
 31
0.0
  0
LINE
  5
1118
330
A
100
AcDbEntity
  8
MODEL
100
AcDbLine
 10
862.0206658980044
 20
1031.264770843416
 30
0.0
 11
862.5836067086568
 21
1030.78842150888
 31
0.0
  0
LINE
  5
1119
330
A
100
AcDbEntity
  8
MODEL
100
AcDbLine
 10
862.5836067086568
 20
1030.78842150888
 30
0.0
 11
863.3614946037926
 21
1030.500662794046
 31
0.0
  0
LINE
  5
111A
330
A
100
AcDbEntity
  8
MODEL
100
AcDbLine
 10
863.3614946037926
 20
1030.500662794046
 30
0.0
 11
864.2359032029456
 21
1030.445303354708
 31
0.0
  0
LINE
  5
111B
330
A
100
AcDbEntity
  8
MODEL
100
AcDbLine
 10
864.3160395094167
 20
1030.448339323247
 30
0.0
 11
863.2765217016733
 21
1030.498016044347
 31
0.0
  0
LINE
  5
111C
330
A
100
AcDbEntity
  8
MODEL
100
AcDbLine
 10
863.2765217016733
 20
1030.498016044347
 30
0.0
 11
862.3237225982086
 21
1030.79609883007
 31
0.0
  0
LINE
  5
111D
330
A
100
AcDbEntity
  8
MODEL
100
AcDbLine
 10
862.3237225982086
 20
1030.79609883007
 30
0.0
 11
861.5725638327151
 21
1031.306634497226
 31
0.0
  0
LINE
  5
111E
330
A
100
AcDbEntity
  8
MODEL
100
AcDbLine
 10
861.5725638327151
 20
1031.306634497226
 30
0.0
 11
861.1136462382385
 21
1031.968044909652
 31
0.0
  0
LINE
  5
111F
330
A
100
AcDbEntity
  8
MODEL
100
AcDbLine
 10
861.1136462382385
 20
1031.968044909652
 30
0.0
 11
861.0023220495698
 21
1032.700554210232
 31
0.0
  0
LINE
  5
1120
330
A
100
AcDbEntity
  8
MODEL
100
AcDbLine
 10
861.0023220495698
 20
1032.700554210232
 30
0.0
 11
861.2520186068361
 21
1033.415810966629
 31
0.0
  0
LINE
  5
1121
330
A
100
AcDbEntity
  8
MODEL
100
AcDbLine
 10
861.2520186068361
 20
1033.415810966629
 30
0.0
 11
861.8326188201011
 21
1034.027544657956
 31
0.0
  0
LINE
  5
1122
330
A
100
AcDbEntity
  8
MODEL
100
AcDbLine
 10
861.8326188201011
 20
1034.027544657956
 30
0.0
 11
862.6740937348989
 21
1034.461971172813
 31
0.0
  0
LINE
  5
1123
330
A
100
AcDbEntity
  8
MODEL
100
AcDbLine
 10
862.6740937348989
 20
1034.461971172813
 30
0.0
 11
863.6749490576569
 21
1034.666692262052
 31
0.0
  0
LINE
  5
1124
330
A
100
AcDbEntity
  8
MODEL
100
AcDbLine
 10
863.6749490576569
 20
1034.666692262052
 30
0.0
 11
864.7144668654003
 21
1034.617015540954
 31
0.0
  0
LINE
  5
1125
330
A
100
AcDbEntity
  8
MODEL
100
AcDbLine
 10
864.7144668654003
 20
1034.617015540954
 30
0.0
 11
865.6672659688668
 21
1034.31893275523
 31
0.0
  0
LINE
  5
1126
330
A
100
AcDbEntity
  8
MODEL
100
AcDbLine
 10
865.6672659688668
 20
1034.31893275523
 30
0.0
 11
866.4184247343585
 21
1033.808397088074
 31
0.0
  0
LINE
  5
1127
330
A
100
AcDbEntity
  8
MODEL
100
AcDbLine
 10
866.4184247343585
 20
1033.808397088074
 30
0.0
 11
866.8773423288369
 21
1033.146986675648
 31
0.0
  0
LINE
  5
1128
330
A
100
AcDbEntity
  8
MODEL
100
AcDbLine
 10
866.8773423288369
 20
1033.146986675648
 30
0.0
 11
866.9886665175038
 21
1032.414477375068
 31
0.0
  0
LINE
  5
1129
330
A
100
AcDbEntity
  8
MODEL
100
AcDbLine
 10
866.9886665175038
 20
1032.414477375068
 30
0.0
 11
866.7389699602375
 21
1031.699220618671
 31
0.0
  0
LINE
  5
112A
330
A
100
AcDbEntity
  8
MODEL
100
AcDbLine
 10
866.7389699602375
 20
1031.699220618671
 30
0.0
 11
866.1583697469725
 21
1031.087486927343
 31
0.0
  0
LINE
  5
112B
330
A
100
AcDbEntity
  8
MODEL
100
AcDbLine
 10
866.1583697469725
 20
1031.087486927343
 30
0.0
 11
865.3168948321747
 21
1030.653060412487
 31
0.0
  0
LINE
  5
112C
330
A
100
AcDbEntity
  8
MODEL
100
AcDbLine
 10
865.3168948321747
 20
1030.653060412487
 30
0.0
 11
864.3160395094167
 21
1030.448339323247
 31
0.0
  0
LINE
  5
112D
330
A
100
AcDbEntity
  8
MODEL
100
AcDbLine
 10
946.4688936433033
 20
1063.084946415202
 30
0.0
 11
946.290483970077
 21
1061.401529071133
 31
0.0
  0
LINE
  5
112E
330
A
100
AcDbEntity
  8
MODEL
100
AcDbLine
 10
946.290483970077
 20
1061.401529071133
 30
0.0
 11
945.7592403276906
 21
1059.755716488768
 31
0.0
  0
LINE
  5
112F
330
A
100
AcDbEntity
  8
MODEL
100
AcDbLine
 10
945.7592403276906
 20
1059.755716488768
 30
0.0
 11
944.8870298212589
 21
1058.184273401571
 31
0.0
  0
LINE
  5
1130
330
A
100
AcDbEntity
  8
MODEL
100
AcDbLine
 10
944.8870298212589
 20
1058.184273401571
 30
0.0
 11
943.6933361922095
 21
1056.72230325138
 31
0.0
  0
LINE
  5
1131
330
A
100
AcDbEntity
  8
MODEL
100
AcDbLine
 10
943.6933361922095
 20
1056.72230325138
 30
0.0
 11
942.2048245836979
 21
1055.402464035519
 31
0.0
  0
LINE
  5
1132
330
A
100
AcDbEntity
  8
MODEL
100
AcDbLine
 10
942.2048245836979
 20
1055.402464035519
 30
0.0
 11
940.4547458853688
 21
1054.2542387811
 31
0.0
  0
LINE
  5
1133
330
A
100
AcDbEntity
  8
MODEL
100
AcDbLine
 10
940.4547458853688
 20
1054.2542387811
 30
0.0
 11
938.4821939634205
 21
1053.303276942921
 31
0.0
  0
LINE
  5
1134
330
A
100
AcDbEntity
  8
MODEL
100
AcDbLine
 10
938.4821939634205
 20
1053.303276942921
 30
0.0
 11
936.331232368246
 21
1052.570821437031
 31
0.0
  0
LINE
  5
1135
330
A
100
AcDbEntity
  8
MODEL
100
AcDbLine
 10
936.331232368246
 20
1052.570821437031
 30
0.0
 11
934.0499100275304
 21
1052.073234109083
 31
0.0
  0
LINE
  5
1136
330
A
100
AcDbEntity
  8
MODEL
100
AcDbLine
 10
934.0499100275304
 20
1052.073234109083
 30
0.0
 11
931.6891879125853
 21
1051.82163023775
 31
0.0
  0
LINE
  5
1137
330
A
100
AcDbEntity
  8
MODEL
100
AcDbLine
 10
931.6891879125853
 20
1051.82163023775
 30
0.0
 11
929.3018006544883
 21
1051.82163023775
 31
0.0
  0
LINE
  5
1138
330
A
100
AcDbEntity
  8
MODEL
100
AcDbLine
 10
929.3018006544883
 20
1051.82163023775
 30
0.0
 11
926.9410785395451
 21
1052.073234109083
 31
0.0
  0
LINE
  5
1139
330
A
100
AcDbEntity
  8
MODEL
100
AcDbLine
 10
926.9410785395451
 20
1052.073234109083
 30
0.0
 11
924.6597561988276
 21
1052.570821437031
 31
0.0
  0
LINE
  5
113A
330
A
100
AcDbEntity
  8
MODEL
100
AcDbLine
 10
924.6597561988276
 20
1052.570821437031
 30
0.0
 11
922.5087946036531
 21
1053.303276942921
 31
0.0
  0
LINE
  5
113B
330
A
100
AcDbEntity
  8
MODEL
100
AcDbLine
 10
922.5087946036531
 20
1053.303276942921
 30
0.0
 11
920.5362426817067
 21
1054.2542387811
 31
0.0
  0
LINE
  5
113C
330
A
100
AcDbEntity
  8
MODEL
100
AcDbLine
 10
920.5362426817067
 20
1054.2542387811
 30
0.0
 11
918.7861639833757
 21
1055.402464035519
 31
0.0
  0
LINE
  5
113D
330
A
100
AcDbEntity
  8
MODEL
100
AcDbLine
 10
918.7861639833757
 20
1055.402464035519
 30
0.0
 11
917.2976523748641
 21
1056.72230325138
 31
0.0
  0
LINE
  5
113E
330
A
100
AcDbEntity
  8
MODEL
100
AcDbLine
 10
917.2976523748641
 20
1056.72230325138
 30
0.0
 11
916.1039587458165
 21
1058.184273401571
 31
0.0
  0
LINE
  5
113F
330
A
100
AcDbEntity
  8
MODEL
100
AcDbLine
 10
916.1039587458165
 20
1058.184273401571
 30
0.0
 11
915.231748239383
 21
1059.755716488768
 31
0.0
  0
LINE
  5
1140
330
A
100
AcDbEntity
  8
MODEL
100
AcDbLine
 10
915.231748239383
 20
1059.755716488768
 30
0.0
 11
914.7005045969966
 21
1061.401529071133
 31
0.0
  0
LINE
  5
1141
330
A
100
AcDbEntity
  8
MODEL
100
AcDbLine
 10
914.7005045969966
 20
1061.401529071133
 30
0.0
 11
914.5220949237703
 21
1063.084946415202
 31
0.0
  0
LINE
  5
1142
330
A
100
AcDbEntity
  8
MODEL
100
AcDbLine
 10
914.5220949237703
 20
1063.084946415202
 30
0.0
 11
914.7005045969966
 21
1064.768363759272
 31
0.0
  0
LINE
  5
1143
330
A
100
AcDbEntity
  8
MODEL
100
AcDbLine
 10
914.7005045969966
 20
1064.768363759272
 30
0.0
 11
915.231748239383
 21
1066.414176341637
 31
0.0
  0
LINE
  5
1144
330
A
100
AcDbEntity
  8
MODEL
100
AcDbLine
 10
915.231748239383
 20
1066.414176341637
 30
0.0
 11
916.1039587458165
 21
1067.985619428833
 31
0.0
  0
LINE
  5
1145
330
A
100
AcDbEntity
  8
MODEL
100
AcDbLine
 10
916.1039587458165
 20
1067.985619428833
 30
0.0
 11
917.2976523748641
 21
1069.447589579024
 31
0.0
  0
LINE
  5
1146
330
A
100
AcDbEntity
  8
MODEL
100
AcDbLine
 10
917.2976523748641
 20
1069.447589579024
 30
0.0
 11
918.7861639833757
 21
1070.767428794885
 31
0.0
  0
LINE
  5
1147
330
A
100
AcDbEntity
  8
MODEL
100
AcDbLine
 10
918.7861639833757
 20
1070.767428794885
 30
0.0
 11
920.5362426817067
 21
1071.915654049305
 31
0.0
  0
LINE
  5
1148
330
A
100
AcDbEntity
  8
MODEL
100
AcDbLine
 10
920.5362426817067
 20
1071.915654049305
 30
0.0
 11
922.5087946036531
 21
1072.866615887484
 31
0.0
  0
LINE
  5
1149
330
A
100
AcDbEntity
  8
MODEL
100
AcDbLine
 10
922.5087946036531
 20
1072.866615887484
 30
0.0
 11
924.6597561988276
 21
1073.599071393374
 31
0.0
  0
LINE
  5
114A
330
A
100
AcDbEntity
  8
MODEL
100
AcDbLine
 10
924.6597561988276
 20
1073.599071393374
 30
0.0
 11
926.9410785395451
 21
1074.09665872132
 31
0.0
  0
LINE
  5
114B
330
A
100
AcDbEntity
  8
MODEL
100
AcDbLine
 10
926.9410785395451
 20
1074.09665872132
 30
0.0
 11
929.3018006544883
 21
1074.348262592654
 31
0.0
  0
LINE
  5
114C
330
A
100
AcDbEntity
  8
MODEL
100
AcDbLine
 10
929.3018006544883
 20
1074.348262592654
 30
0.0
 11
931.6891879125853
 21
1074.348262592654
 31
0.0
  0
LINE
  5
114D
330
A
100
AcDbEntity
  8
MODEL
100
AcDbLine
 10
931.6891879125853
 20
1074.348262592654
 30
0.0
 11
934.0499100275304
 21
1074.09665872132
 31
0.0
  0
LINE
  5
114E
330
A
100
AcDbEntity
  8
MODEL
100
AcDbLine
 10
934.0499100275304
 20
1074.09665872132
 30
0.0
 11
936.3312323682478
 21
1073.599071393374
 31
0.0
  0
LINE
  5
114F
330
A
100
AcDbEntity
  8
MODEL
100
AcDbLine
 10
936.3312323682478
 20
1073.599071393374
 30
0.0
 11
938.4821939634205
 21
1072.866615887484
 31
0.0
  0
LINE
  5
1150
330
A
100
AcDbEntity
  8
MODEL
100
AcDbLine
 10
938.4821939634205
 20
1072.866615887484
 30
0.0
 11
940.4547458853688
 21
1071.915654049304
 31
0.0
  0
LINE
  5
1151
330
A
100
AcDbEntity
  8
MODEL
100
AcDbLine
 10
940.4547458853688
 20
1071.915654049304
 30
0.0
 11
942.2048245836979
 21
1070.767428794885
 31
0.0
  0
LINE
  5
1152
330
A
100
AcDbEntity
  8
MODEL
100
AcDbLine
 10
942.2048245836979
 20
1070.767428794885
 30
0.0
 11
943.6933361922095
 21
1069.447589579024
 31
0.0
  0
LINE
  5
1153
330
A
100
AcDbEntity
  8
MODEL
100
AcDbLine
 10
943.6933361922095
 20
1069.447589579024
 30
0.0
 11
944.8870298212589
 21
1067.985619428833
 31
0.0
  0
LINE
  5
1154
330
A
100
AcDbEntity
  8
MODEL
100
AcDbLine
 10
944.8870298212589
 20
1067.985619428833
 30
0.0
 11
945.7592403276906
 21
1066.414176341637
 31
0.0
  0
LINE
  5
1155
330
A
100
AcDbEntity
  8
MODEL
100
AcDbLine
 10
945.7592403276906
 20
1066.414176341637
 30
0.0
 11
946.290483970077
 21
1064.768363759272
 31
0.0
  0
LINE
  5
1156
330
A
100
AcDbEntity
  8
MODEL
100
AcDbLine
 10
946.290483970077
 20
1064.768363759272
 30
0.0
 11
946.4688936433033
 21
1063.084946415202
 31
0.0
  0
LINE
  5
1157
330
A
100
AcDbEntity
  8
MODEL
100
AcDbLine
 10
914.4979319035576
 20
1062.204832794007
 30
0.0
 11
914.4954942835377
 21
1062.007351277579
 31
0.0
  0
LINE
  5
1158
330
A
100
AcDbEntity
  8
MODEL
100
AcDbLine
 10
914.4954942835377
 20
1062.007351277579
 30
0.0
 11
914.6742010639339
 21
1060.321130524034
 31
0.0
  0
LINE
  5
1159
330
A
100
AcDbEntity
  8
MODEL
100
AcDbLine
 10
914.6742010639339
 20
1060.321130524034
 30
0.0
 11
915.2063293909598
 21
1058.672577155727
 31
0.0
  0
LINE
  5
115A
330
A
100
AcDbEntity
  8
MODEL
100
AcDbLine
 10
915.2063293909598
 20
1058.672577155727
 30
0.0
 11
916.0799923970974
 21
1057.098517130754
 31
0.0
  0
LINE
  5
115B
330
A
100
AcDbEntity
  8
MODEL
100
AcDbLine
 10
916.0799923970974
 20
1057.098517130754
 30
0.0
 11
917.2756738944811
 21
1055.634112349016
 31
0.0
  0
LINE
  5
115C
330
A
100
AcDbEntity
  8
MODEL
100
AcDbLine
 10
917.2756738944811
 20
1055.634112349016
 30
0.0
 11
918.7666643342602
 21
1054.312075193482
 31
0.0
  0
LINE
  5
115D
330
A
100
AcDbEntity
  8
MODEL
100
AcDbLine
 10
918.7666643342602
 20
1054.312075193482
 30
0.0
 11
920.519657453797
 21
1053.161937789607
 31
0.0
  0
LINE
  5
115E
330
A
100
AcDbEntity
  8
MODEL
100
AcDbLine
 10
920.519657453797
 20
1053.161937789607
 30
0.0
 11
922.4954942835377
 21
1052.209392306446
 31
0.0
  0
LINE
  5
115F
330
A
100
AcDbEntity
  8
MODEL
100
AcDbLine
 10
922.4954942835377
 20
1052.209392306446
 30
0.0
 11
924.6500378936746
 21
1051.475717036061
 31
0.0
  0
LINE
  5
1160
330
A
100
AcDbEntity
  8
MODEL
100
AcDbLine
 10
924.6500378936746
 20
1051.475717036061
 30
0.0
 11
926.9351593402373
 21
1050.97730107163
 31
0.0
  0
LINE
  5
1161
330
A
100
AcDbEntity
  8
MODEL
100
AcDbLine
 10
926.9351593402373
 20
1050.97730107163
 30
0.0
 11
929.299812786154
 21
1050.725278202191
 31
0.0
  0
LINE
  5
1162
330
A
100
AcDbEntity
  8
MODEL
100
AcDbLine
 10
929.299812786154
 20
1050.725278202191
 30
0.0
 11
931.6911757809196
 21
1050.725278202191
 31
0.0
  0
LINE
  5
1163
330
A
100
AcDbEntity
  8
MODEL
100
AcDbLine
 10
931.6911757809196
 20
1050.725278202191
 30
0.0
 11
934.0558292268381
 21
1050.97730107163
 31
0.0
  0
LINE
  5
1164
330
A
100
AcDbEntity
  8
MODEL
100
AcDbLine
 10
934.0558292268381
 20
1050.97730107163
 30
0.0
 11
936.340950673399
 21
1051.475717036062
 31
0.0
  0
LINE
  5
1165
330
A
100
AcDbEntity
  8
MODEL
100
AcDbLine
 10
936.340950673399
 20
1051.475717036062
 30
0.0
 11
938.4954942835377
 21
1052.209392306447
 31
0.0
  0
LINE
  5
1166
330
A
100
AcDbEntity
  8
MODEL
100
AcDbLine
 10
938.4954942835377
 20
1052.209392306447
 30
0.0
 11
940.4713311132766
 21
1053.161937789607
 31
0.0
  0
LINE
  5
1167
330
A
100
AcDbEntity
  8
MODEL
100
AcDbLine
 10
940.4713311132766
 20
1053.161937789607
 30
0.0
 11
942.2243242328134
 21
1054.312075193482
 31
0.0
  0
LINE
  5
1168
330
A
100
AcDbEntity
  8
MODEL
100
AcDbLine
 10
942.2243242328134
 20
1054.312075193482
 30
0.0
 11
943.7153146725925
 21
1055.634112349016
 31
0.0
  0
LINE
  5
1169
330
A
100
AcDbEntity
  8
MODEL
100
AcDbLine
 10
943.7153146725925
 20
1055.634112349016
 30
0.0
 11
944.9109961699762
 21
1057.098517130754
 31
0.0
  0
LINE
  5
116A
330
A
100
AcDbEntity
  8
MODEL
100
AcDbLine
 10
944.9109961699762
 20
1057.098517130754
 30
0.0
 11
945.7846591761156
 21
1058.672577155727
 31
0.0
  0
LINE
  5
116B
330
A
100
AcDbEntity
  8
MODEL
100
AcDbLine
 10
945.7846591761156
 20
1058.672577155727
 30
0.0
 11
946.3167875031397
 21
1060.321130524034
 31
0.0
  0
LINE
  5
116C
330
A
100
AcDbEntity
  8
MODEL
100
AcDbLine
 10
946.3167875031397
 20
1060.321130524034
 30
0.0
 11
946.4954942835377
 21
1062.007351277579
 31
0.0
  0
LINE
  5
116D
330
A
100
AcDbEntity
  8
MODEL
100
AcDbLine
 10
946.4954942835377
 20
1062.007351277579
 30
0.0
 11
946.4954942835377
 21
1062.007351277579
 31
0.0
  0
LINE
  5
116E
330
A
100
AcDbEntity
  8
MODEL
100
AcDbLine
 10
946.4930566635178
 20
1062.204832794007
 30
0.0
 11
946.4507550384371
 21
1061.16187678264
 31
0.0
  0
LINE
  5
116F
330
A
100
AcDbEntity
  8
MODEL
100
AcDbLine
 10
946.4507550384371
 20
1061.16187678264
 30
0.0
 11
946.0943408784462
 21
1059.489814295875
 31
0.0
  0
LINE
  5
1170
330
A
100
AcDbEntity
  8
MODEL
100
AcDbLine
 10
946.0943408784462
 20
1059.489814295875
 30
0.0
 11
945.3894742618434
 21
1057.873989425178
 31
0.0
  0
LINE
  5
1171
330
A
100
AcDbEntity
  8
MODEL
100
AcDbLine
 10
945.3894742618434
 20
1057.873989425178
 30
0.0
 11
944.3519007440884
 21
1056.350497028086
 31
0.0
  0
LINE
  5
1172
330
A
100
AcDbEntity
  8
MODEL
100
AcDbLine
 10
944.3519007440884
 20
1056.350497028086
 30
0.0
 11
943.0047980030251
 21
1054.95336940726
 31
0.0
  0
LINE
  5
1173
330
A
100
AcDbEntity
  8
MODEL
100
AcDbLine
 10
943.0047980030251
 20
1054.95336940726
 30
0.0
 11
941.3782580878726
 21
1053.713816085061
 31
0.0
  0
LINE
  5
1174
330
A
100
AcDbEntity
  8
MODEL
100
AcDbLine
 10
941.3782580878726
 20
1053.713816085061
 30
0.0
 11
939.5086152125552
 21
1052.659526634409
 31
0.0
  0
LINE
  5
1175
330
A
100
AcDbEntity
  8
MODEL
100
AcDbLine
 10
939.5086152125552
 20
1052.659526634409
 30
0.0
 11
937.4376341094178
 21
1051.814052139471
 31
0.0
  0
LINE
  5
1176
330
A
100
AcDbEntity
  8
MODEL
100
AcDbLine
 10
937.4376341094178
 20
1051.814052139471
 30
0.0
 11
935.2115770741113
 21
1051.196279103357
 31
0.0
  0
LINE
  5
1177
330
A
100
AcDbEntity
  8
MODEL
100
AcDbLine
 10
935.2115770741113
 20
1051.196279103357
 30
0.0
 11
932.8801705423559
 21
1050.820007554858
 31
0.0
  0
LINE
  5
1178
330
A
100
AcDbEntity
  8
MODEL
100
AcDbLine
 10
932.8801705423559
 20
1050.820007554858
 30
0.0
 11
930.4954942835377
 21
1050.693642778594
 31
0.0
  0
LINE
  5
1179
330
A
100
AcDbEntity
  8
MODEL
100
AcDbLine
 10
930.4954942835377
 20
1050.693642778594
 30
0.0
 11
928.1108180247177
 21
1050.820007554858
 31
0.0
  0
LINE
  5
117A
330
A
100
AcDbEntity
  8
MODEL
100
AcDbLine
 10
928.1108180247177
 20
1050.820007554858
 30
0.0
 11
925.7794114929623
 21
1051.196279103357
 31
0.0
  0
LINE
  5
117B
330
A
100
AcDbEntity
  8
MODEL
100
AcDbLine
 10
925.7794114929623
 20
1051.196279103357
 30
0.0
 11
923.5533544576558
 21
1051.814052139471
 31
0.0
  0
LINE
  5
117C
330
A
100
AcDbEntity
  8
MODEL
100
AcDbLine
 10
923.5533544576558
 20
1051.814052139471
 30
0.0
 11
921.4823733545184
 21
1052.659526634409
 31
0.0
  0
LINE
  5
117D
330
A
100
AcDbEntity
  8
MODEL
100
AcDbLine
 10
921.4823733545184
 20
1052.659526634409
 30
0.0
 11
919.612730479201
 21
1053.713816085061
 31
0.0
  0
LINE
  5
117E
330
A
100
AcDbEntity
  8
MODEL
100
AcDbLine
 10
919.612730479201
 20
1053.713816085061
 30
0.0
 11
917.9861905640485
 21
1054.95336940726
 31
0.0
  0
LINE
  5
117F
330
A
100
AcDbEntity
  8
MODEL
100
AcDbLine
 10
917.9861905640485
 20
1054.95336940726
 30
0.0
 11
916.6390878229852
 21
1056.350497028086
 31
0.0
  0
LINE
  5
1180
330
A
100
AcDbEntity
  8
MODEL
100
AcDbLine
 10
916.6390878229852
 20
1056.350497028086
 30
0.0
 11
915.6015143052302
 21
1057.873989425178
 31
0.0
  0
LINE
  5
1181
330
A
100
AcDbEntity
  8
MODEL
100
AcDbLine
 10
915.6015143052302
 20
1057.873989425178
 30
0.0
 11
914.8966476886292
 21
1059.489814295875
 31
0.0
  0
LINE
  5
1182
330
A
100
AcDbEntity
  8
MODEL
100
AcDbLine
 10
914.8966476886292
 20
1059.489814295875
 30
0.0
 11
914.5402335286383
 21
1061.16187678264
 31
0.0
  0
LINE
  5
1183
330
A
100
AcDbEntity
  8
MODEL
100
AcDbLine
 10
914.5402335286383
 20
1061.16187678264
 30
0.0
 11
914.4979319035576
 21
1062.204832794007
 31
0.0
  0
LINE
  5
1184
330
A
100
AcDbEntity
  8
MODEL
100
AcDbLine
 10
915.0065298068732
 20
1063.43215976702
 30
0.0
 11
915.1880539066208
 21
1061.760291101946
 31
0.0
  0
LINE
  5
1185
330
A
100
AcDbEntity
  8
MODEL
100
AcDbLine
 10
915.1880539066208
 20
1061.760291101946
 30
0.0
 11
915.728371434818
 21
1060.127609621371
 31
0.0
  0
LINE
  5
1186
330
A
100
AcDbEntity
  8
MODEL
100
AcDbLine
 10
915.728371434818
 20
1060.127609621371
 30
0.0
 11
916.614817806558
 21
1058.572383995403
 31
0.0
  0
LINE
  5
1187
330
A
100
AcDbEntity
  8
MODEL
100
AcDbLine
 10
916.614817806558
 20
1058.572383995403
 30
0.0
 11
917.8266154701998
 21
1057.131067394567
 31
0.0
  0
LINE
  5
1188
330
A
100
AcDbEntity
  8
MODEL
100
AcDbLine
 10
917.8266154701998
 20
1057.131067394567
 30
0.0
 11
919.3353609155859
 21
1055.837443058384
 31
0.0
  0
LINE
  5
1189
330
A
100
AcDbEntity
  8
MODEL
100
AcDbLine
 10
919.3353609155859
 20
1055.837443058384
 30
0.0
 11
921.1056904282234
 21
1054.721832444867
 31
0.0
  0
LINE
  5
118A
330
A
100
AcDbEntity
  8
MODEL
100
AcDbLine
 10
921.1056904282234
 20
1054.721832444867
 30
0.0
 11
921.7714620668633
 21
1054.382317711995
 31
0.0
  0
LINE
  5
118B
330
A
100
AcDbEntity
  8
MODEL
100
AcDbLine
 10
940.9225010126304
 20
1055.333223070427
 30
0.0
 11
942.445062783929
 21
1056.463808699021
 31
0.0
  0
LINE
  5
118C
330
A
100
AcDbEntity
  8
MODEL
100
AcDbLine
 10
942.445062783929
 20
1056.463808699021
 30
0.0
 11
943.8093373913819
 21
1057.835303405675
 31
0.0
  0
LINE
  5
118D
330
A
100
AcDbEntity
  8
MODEL
100
AcDbLine
 10
943.8093373913819
 20
1057.835303405675
 30
0.0
 11
944.8615468006776
 21
1059.337983681764
 31
0.0
  0
LINE
  5
118E
330
A
100
AcDbEntity
  8
MODEL
100
AcDbLine
 10
944.8615468006776
 20
1059.337983681764
 30
0.0
 11
945.577028115071
 21
1060.936627975229
 31
0.0
  0
LINE
  5
118F
330
A
100
AcDbEntity
  8
MODEL
100
AcDbLine
 10
945.577028115071
 20
1060.936627975229
 30
0.0
 11
945.9390110589686
 21
1062.593765418779
 31
0.0
  0
LINE
  5
1190
330
A
100
AcDbEntity
  8
MODEL
100
AcDbLine
 10
945.9390110589686
 20
1062.593765418779
 30
0.0
 11
945.9390110589686
 21
1064.270554115261
 31
0.0
  0
LINE
  5
1191
330
A
100
AcDbEntity
  8
MODEL
100
AcDbLine
 10
945.9390110589686
 20
1064.270554115261
 30
0.0
 11
945.577028115071
 21
1065.927691558811
 31
0.0
  0
LINE
  5
1192
330
A
100
AcDbEntity
  8
MODEL
100
AcDbLine
 10
945.577028115071
 20
1065.927691558811
 30
0.0
 11
944.8615468006758
 21
1067.526335852276
 31
0.0
  0
LINE
  5
1193
330
A
100
AcDbEntity
  8
MODEL
100
AcDbLine
 10
944.8615468006758
 20
1067.526335852276
 30
0.0
 11
943.8093373913819
 21
1069.029016128366
 31
0.0
  0
LINE
  5
1194
330
A
100
AcDbEntity
  8
MODEL
100
AcDbLine
 10
943.8093373913819
 20
1069.029016128366
 30
0.0
 11
942.445062783929
 21
1070.40051083502
 31
0.0
  0
LINE
  5
1195
330
A
100
AcDbEntity
  8
MODEL
100
AcDbLine
 10
942.445062783929
 20
1070.40051083502
 30
0.0
 11
940.8007004188132
 21
1071.608673298741
 31
0.0
  0
LINE
  5
1196
330
A
100
AcDbEntity
  8
MODEL
100
AcDbLine
 10
940.8007004188132
 20
1071.608673298741
 30
0.0
 11
938.9147927561737
 21
1072.62518521537
 31
0.0
  0
LINE
  5
1197
330
A
100
AcDbEntity
  8
MODEL
100
AcDbLine
 10
938.9147927561737
 20
1072.62518521537
 30
0.0
 11
936.8315438732009
 21
1073.426220407137
 31
0.0
  0
LINE
  5
1198
330
A
100
AcDbEntity
  8
MODEL
100
AcDbLine
 10
936.8315438732009
 20
1073.426220407137
 30
0.0
 11
934.5997833580352
 21
1073.993003288073
 31
0.0
  0
LINE
  5
1199
330
A
100
AcDbEntity
  8
MODEL
100
AcDbLine
 10
934.5997833580352
 20
1073.993003288073
 30
0.0
 11
932.2718217855947
 21
1074.312248947831
 31
0.0
  0
LINE
  5
119A
330
A
100
AcDbEntity
  8
MODEL
100
AcDbLine
 10
932.2718217855947
 20
1074.312248947831
 30
0.0
 11
929.9022246020525
 21
1074.376474538727
 31
0.0
  0
LINE
  5
119B
330
A
100
AcDbEntity
  8
MODEL
100
AcDbLine
 10
929.9022246020525
 20
1074.376474538727
 30
0.0
 11
927.5465331570124
 21
1074.184174667344
 31
0.0
  0
LINE
  5
119C
330
A
100
AcDbEntity
  8
MODEL
100
AcDbLine
 10
927.5465331570124
 20
1074.184174667344
 30
0.0
 11
925.2599628613555
 21
1073.739856679685
 31
0.0
  0
LINE
  5
119D
330
A
100
AcDbEntity
  8
MODEL
100
AcDbLine
 10
925.2599628613555
 20
1073.739856679685
 30
0.0
 11
923.0961089848026
 21
1073.05393501279
 31
0.0
  0
LINE
  5
119E
330
A
100
AcDbEntity
  8
MODEL
100
AcDbLine
 10
923.0961089848026
 20
1073.05393501279
 30
0.0
 11
921.1056904282234
 21
1072.142487089173
 31
0.0
  0
LINE
  5
119F
330
A
100
AcDbEntity
  8
MODEL
100
AcDbLine
 10
921.1056904282234
 20
1072.142487089173
 30
0.0
 11
919.3353609155859
 21
1071.026876475657
 31
0.0
  0
LINE
  5
11A0
330
A
100
AcDbEntity
  8
MODEL
100
AcDbLine
 10
919.3353609155859
 20
1071.026876475657
 30
0.0
 11
917.8266154701998
 21
1069.733252139473
 31
0.0
  0
LINE
  5
11A1
330
A
100
AcDbEntity
  8
MODEL
100
AcDbLine
 10
917.8266154701998
 20
1069.733252139473
 30
0.0
 11
916.614817806558
 21
1068.291935538636
 31
0.0
  0
LINE
  5
11A2
330
A
100
AcDbEntity
  8
MODEL
100
AcDbLine
 10
916.614817806558
 20
1068.291935538636
 30
0.0
 11
915.728371434818
 21
1066.736709912669
 31
0.0
  0
LINE
  5
11A3
330
A
100
AcDbEntity
  8
MODEL
100
AcDbLine
 10
915.728371434818
 20
1066.736709912669
 30
0.0
 11
915.1880539066208
 21
1065.104028432093
 31
0.0
  0
LINE
  5
11A4
330
A
100
AcDbEntity
  8
MODEL
100
AcDbLine
 10
915.1880539066208
 20
1065.104028432093
 30
0.0
 11
915.0065298068732
 21
1063.43215976702
 31
0.0
  0
LINE
  5
11A5
330
A
100
AcDbEntity
  8
MODEL
100
AcDbLine
 10
915.0065298068732
 20
1063.43215976702
 30
0.0
 11
915.0065298068732
 21
1063.43215976702
 31
0.0
  0
LINE
  5
11A6
330
A
100
AcDbEntity
  8
MODEL
100
AcDbLine
 10
946.4954942835377
 20
871.8423083326234
 30
0.0
 11
946.4507550384371
 21
870.9968338376848
 31
0.0
  0
LINE
  5
11A7
330
A
100
AcDbEntity
  8
MODEL
100
AcDbLine
 10
946.4507550384371
 20
870.9968338376848
 30
0.0
 11
946.0943408784462
 21
869.32477135092
 31
0.0
  0
LINE
  5
11A8
330
A
100
AcDbEntity
  8
MODEL
100
AcDbLine
 10
946.0943408784462
 20
869.32477135092
 30
0.0
 11
945.3894742618434
 21
867.7089464802211
 31
0.0
  0
LINE
  5
11A9
330
A
100
AcDbEntity
  8
MODEL
100
AcDbLine
 10
945.3894742618434
 20
867.7089464802211
 30
0.0
 11
944.3519007440884
 21
866.1854540831309
 31
0.0
  0
LINE
  5
11AA
330
A
100
AcDbEntity
  8
MODEL
100
AcDbLine
 10
944.3519007440884
 20
866.1854540831309
 30
0.0
 11
943.0047980030251
 21
864.7883264623042
 31
0.0
  0
LINE
  5
11AB
330
A
100
AcDbEntity
  8
MODEL
100
AcDbLine
 10
943.0047980030251
 20
864.7883264623042
 30
0.0
 11
941.3782580878726
 21
863.5487731401063
 31
0.0
  0
LINE
  5
11AC
330
A
100
AcDbEntity
  8
MODEL
100
AcDbLine
 10
941.3782580878726
 20
863.5487731401063
 30
0.0
 11
939.5086152125552
 21
862.4944836894538
 31
0.0
  0
LINE
  5
11AD
330
A
100
AcDbEntity
  8
MODEL
100
AcDbLine
 10
939.5086152125552
 20
862.4944836894538
 30
0.0
 11
937.4376341094178
 21
861.6490091945152
 31
0.0
  0
LINE
  5
11AE
330
A
100
AcDbEntity
  8
MODEL
100
AcDbLine
 10
937.4376341094178
 20
861.6490091945152
 30
0.0
 11
935.2115770741113
 21
861.031236158402
 31
0.0
  0
LINE
  5
11AF
330
A
100
AcDbEntity
  8
MODEL
100
AcDbLine
 10
935.2115770741113
 20
861.031236158402
 30
0.0
 11
932.8801705423559
 21
860.654964609902
 31
0.0
  0
LINE
  5
11B0
330
A
100
AcDbEntity
  8
MODEL
100
AcDbLine
 10
932.8801705423559
 20
860.654964609902
 30
0.0
 11
930.4954942835377
 21
860.5285998336385
 31
0.0
  0
LINE
  5
11B1
330
A
100
AcDbEntity
  8
MODEL
100
AcDbLine
 10
930.4954942835377
 20
860.5285998336385
 30
0.0
 11
928.1108180247177
 21
860.654964609902
 31
0.0
  0
LINE
  5
11B2
330
A
100
AcDbEntity
  8
MODEL
100
AcDbLine
 10
928.1108180247177
 20
860.654964609902
 30
0.0
 11
925.7794114929623
 21
861.031236158402
 31
0.0
  0
LINE
  5
11B3
330
A
100
AcDbEntity
  8
MODEL
100
AcDbLine
 10
925.7794114929623
 20
861.031236158402
 30
0.0
 11
923.5533544576558
 21
861.6490091945152
 31
0.0
  0
LINE
  5
11B4
330
A
100
AcDbEntity
  8
MODEL
100
AcDbLine
 10
923.5533544576558
 20
861.6490091945152
 30
0.0
 11
921.4823733545184
 21
862.4944836894538
 31
0.0
  0
LINE
  5
11B5
330
A
100
AcDbEntity
  8
MODEL
100
AcDbLine
 10
921.4823733545184
 20
862.4944836894538
 30
0.0
 11
919.612730479201
 21
863.5487731401063
 31
0.0
  0
LINE
  5
11B6
330
A
100
AcDbEntity
  8
MODEL
100
AcDbLine
 10
919.612730479201
 20
863.5487731401063
 30
0.0
 11
917.9861905640485
 21
864.7883264623042
 31
0.0
  0
LINE
  5
11B7
330
A
100
AcDbEntity
  8
MODEL
100
AcDbLine
 10
917.9861905640485
 20
864.7883264623042
 30
0.0
 11
916.6390878229852
 21
866.1854540831309
 31
0.0
  0
LINE
  5
11B8
330
A
100
AcDbEntity
  8
MODEL
100
AcDbLine
 10
916.6390878229852
 20
866.1854540831309
 30
0.0
 11
915.6015143052302
 21
867.708946480222
 31
0.0
  0
LINE
  5
11B9
330
A
100
AcDbEntity
  8
MODEL
100
AcDbLine
 10
915.6015143052302
 20
867.708946480222
 30
0.0
 11
914.8966476886292
 21
869.32477135092
 31
0.0
  0
LINE
  5
11BA
330
A
100
AcDbEntity
  8
MODEL
100
AcDbLine
 10
914.8966476886292
 20
869.32477135092
 30
0.0
 11
914.5402335286383
 21
870.9968338376848
 31
0.0
  0
LINE
  5
11BB
330
A
100
AcDbEntity
  8
MODEL
100
AcDbLine
 10
914.5402335286383
 20
870.9968338376848
 30
0.0
 11
914.4954942835377
 21
871.8423083326234
 31
0.0
  0
LINE
  5
11BC
330
A
100
AcDbEntity
  8
MODEL
100
AcDbLine
 10
791.8561475443978
 20
501.3648195030119
 30
0.0
 11
793.3800972027714
 21
501.3914201432463
 31
0.0
  0
LINE
  5
11BD
330
A
100
AcDbEntity
  8
MODEL
100
AcDbLine
 10
793.3800972027714
 20
533.3382188627784
 30
0.0
 11
791.8561475443978
 21
533.3648195030119
 31
0.0
  0
ARC
  5
11BE
330
A
100
AcDbEntity
  8
MODEL
100
AcDbCircle
 10
793.3713709995538
 20
501.8913439908247
 30
0.0
 40
0.5000000000000727
100
AcDbArc
 50
270.9999999998715
 51
358.2248114147086
  0
ARC
  5
11BF
330
A
100
AcDbEntity
  8
MODEL
100
AcDbCircle
 10
793.3713709995538
 20
532.8382950152
 30
0.0
 40
0.5000000000000906
100
AcDbArc
 50
1.775188585291442
 51
89.0000000001285
  0
ARC
  5
11C0
330
A
100
AcDbEntity
  8
MODEL
100
AcDbCircle
 10
294.1110966379986
 20
517.3648195030119
 30
0.0
 40
500.0000000000005
100
AcDbArc
 50
358.2248114143653
 51
1.775188585635515
  0
LINE
  5
11C1
330
A
100
AcDbEntity
  8
MODEL
100
AcDbLine
 10
134.5266316720047
 20
533.3623818829919
 30
0.0
 11
133.4493648553046
 21
533.3357852953986
 31
0.0
  0
LINE
  5
11C2
330
A
100
AcDbEntity
  8
MODEL
100
AcDbLine
 10
133.4493648553046
 20
501.393853710626
 30
0.0
 11
134.5266316720047
 21
501.3672571230327
 31
0.0
  0
LINE
  5
11C3
330
A
100
AcDbEntity
  8
MODEL
100
AcDbLine
 10
132.1989869225856
 20
591.364819503011
 30
0.0
 11
132.1989869225856
 21
533.2064985293091
 31
0.0
  0
LINE
  5
11C4
330
A
100
AcDbEntity
  8
MODEL
100
AcDbLine
 10
179.6756463254735
 20
529.8319111964674
 30
0.0
 11
179.6756463254735
 21
591.364819503011
 31
0.0
  0
LINE
  5
11C5
330
A
100
AcDbEntity
  8
MODEL
100
AcDbLine
 10
134.7241131884341
 20
501.3648195030119
 30
0.0
 11
324.8891561333887
 21
501.3648195030119
 31
0.0
  0
LINE
  5
11C6
330
A
100
AcDbEntity
  8
MODEL
100
AcDbLine
 10
138.2596470943665
 20
533.3648195030119
 30
0.0
 11
134.7241131884341
 21
533.3648195030119
 31
0.0
  0
LINE
  5
11C7
330
A
100
AcDbEntity
  8
MODEL
100
AcDbLine
 10
324.8891561333887
 20
533.3648195030119
 30
0.0
 11
179.6756463254735
 21
533.3648195030119
 31
0.0
  0
LINE
  5
11C8
330
A
100
AcDbEntity
  8
MODEL
100
AcDbLine
 10
377.9221647223796
 20
533.3648195030119
 30
0.0
 11
324.8891561333887
 21
533.3648195030119
 31
0.0
  0
LINE
  5
11C9
330
A
100
AcDbEntity
  8
MODEL
100
AcDbLine
 10
324.8891561333887
 20
501.3648195030119
 30
0.0
 11
377.9221647223796
 21
501.3648195030119
 31
0.0
  0
LINE
  5
11CA
330
A
100
AcDbEntity
  8
MODEL
100
AcDbLine
 10
390.8561475443978
 20
533.3648195030119
 30
0.0
 11
377.9221647223796
 21
533.3648195030119
 31
0.0
  0
LINE
  5
11CB
330
A
100
AcDbEntity
  8
MODEL
100
AcDbLine
 10
736.8561475443969
 20
533.3648195030119
 30
0.0
 11
440.8561475443978
 21
533.3648195030119
 31
0.0
  0
LINE
  5
11CC
330
A
100
AcDbEntity
  8
MODEL
100
AcDbLine
 10
791.8561475443978
 20
533.3648195030119
 30
0.0
 11
786.8561475443969
 21
533.3648195030119
 31
0.0
  0
LINE
  5
11CD
330
A
100
AcDbEntity
  8
MODEL
100
AcDbLine
 10
377.9221647223796
 20
501.3648195030119
 30
0.0
 11
791.8561475443978
 21
501.3648195030119
 31
0.0
  0
LINE
  5
11CE
330
A
100
AcDbEntity
  8
MODEL
100
AcDbLine
 10
791.8561475443978
 20
511.2552304040264
 30
0.0
 11
791.8561475443978
 21
501.3648195030119
 31
0.0
  0
LINE
  5
11CF
330
A
100
AcDbEntity
  8
MODEL
100
AcDbLine
 10
791.8561475443978
 20
533.3648195030119
 30
0.0
 11
791.8561475443978
 21
511.2552304040264
 31
0.0
  0
ARC
  5
11D0
330
A
100
AcDbEntity
  8
MODEL
100
AcDbCircle
 10
123.8079328417364
 20
517.3876048563625
 30
0.0
 40
20.47487034731184
100
AcDbArc
 50
330.5818524745736
 51
26.53875305956563
  0
LINE
  5
11D1
330
A
100
AcDbEntity
  8
MODEL
100
AcDbLine
 10
435.8561475443978
 20
528.7911049886807
 30
0.0
 11
435.8561475443978
 21
591.364819503011
 31
0.0
  0
LINE
  5
11D2
330
A
100
AcDbEntity
  8
MODEL
100
AcDbLine
 10
440.8561475443978
 20
591.364819503011
 30
0.0
 11
440.8561475443978
 21
531.9850110202251
 31
0.0
  0
SPLINE
  5
11D3
330
A
100
AcDbEntity
  8
MODEL
100
AcDbSpline
210
0.0
220
0.0
230
1.0
 70
     8
 71
     3
 72
    15
 73
    11
 74
     0
 42
0.000000001
 43
0.00000001
 40
0.0
 40
0.0
 40
0.0
 40
0.0
 40
0.1477233689587588
 40
0.2999818079121573
 40
0.4475649071566254
 40
0.5987222769126448
 40
0.7595655609432451
 40
0.842532727189761
 40
0.9264054639338165
 40
1.0
 40
1.0
 40
1.0
 40
1.0
 10
440.8561475443978
 20
531.9850110202251
 30
0.0
 10
440.8393515989421
 20
531.8410449985558
 30
0.0
 10
440.8052440767626
 20
531.5486932348313
 30
0.0
 10
440.5453465130424
 20
531.0509510835573
 30
0.0
 10
440.1503781836375
 20
530.5270419118333
 30
0.0
 10
439.6084666889722
 20
529.9856564340889
 30
0.0
 10
439.0273258103919
 20
529.5364674983639
 30
0.0
 10
438.4709624234367
 20
529.1977427340207
 30
0.0
 10
438.0278281352187
 20
528.970179259436
 30
0.0
 10
437.7103824457238
 20
528.8481411901266
 30
0.0
 10
437.562019755321
 20
528.7911049886807
 30
0.0
  0
LINE
  5
11D4
330
A
100
AcDbEntity
  8
MODEL
100
AcDbLine
 10
437.562019755321
 20
528.7911049886807
 30
0.0
 11
435.8561475443978
 21
528.7911049886807
 31
0.0
  0
LINE
  5
11D6
330
A
100
AcDbEntity
  8
MODEL
100
AcDbLine
 10
395.8561475443978
 20
591.364819503011
 30
0.0
 11
395.8561475443978
 21
528.7911049886807
 31
0.0
  0
LINE
  5
11D7
330
A
100
AcDbEntity
  8
MODEL
100
AcDbLine
 10
435.8561475443978
 20
528.7911049886807
 30
0.0
 11
395.8561475443978
 21
528.7911049886807
 31
0.0
  0
SPLINE
  5
11D9
330
A
100
AcDbEntity
  8
MODEL
100
AcDbSpline
210
0.0
220
0.0
230
1.0
 70
     8
 71
     3
 72
    14
 73
    10
 74
     0
 42
0.000000001
 43
0.00000001
 40
0.0
 40
0.0
 40
0.0
 40
0.0
 40
0.1327873789680596
 40
0.270096524793478
 40
0.40258959166553
 40
0.5377658656258366
 40
0.6958622688939794
 40
0.858600511009866
 40
1.0
 40
1.0
 40
1.0
 40
1.0
 10
394.1502753334746
 20
528.7911049886807
 30
0.0
 10
393.8861605351378
 20
528.898830299092
 30
0.0
 10
393.3489371202943
 20
529.1179492560323
 30
0.0
 10
392.6726913261521
 20
529.545565524123
 30
0.0
 10
392.0877223063001
 20
530.0051703217887
 30
0.0
 10
391.5810427707731
 20
530.5063682934033
 30
0.0
 10
391.1726498077426
 20
531.0373242712967
 30
0.0
 10
390.9049813931417
 20
531.5515856471256
 30
0.0
 10
390.8716458707916
 20
531.8474554502136
 30
0.0
 10
390.8561475443978
 20
531.9850110202251
 30
0.0
  0
LINE
  5
11DA
330
A
100
AcDbEntity
  8
MODEL
100
AcDbLine
 10
390.8561475443978
 20
531.9850110202251
 30
0.0
 11
390.8561475443978
 21
591.364819503011
 31
0.0
  0
LINE
  5
11DB
330
A
100
AcDbEntity
  8
MODEL
100
AcDbLine
 10
395.8561475443978
 20
528.7911049886807
 30
0.0
 11
394.1502753334746
 21
528.7911049886807
 31
0.0
  0
LINE
  5
11DD
330
A
100
AcDbEntity
  8
MODEL
100
AcDbLine
 10
781.8561475443969
 20
528.7911049886807
 30
0.0
 11
781.8561475443969
 21
591.364819503011
 31
0.0
  0
LINE
  5
11DE
330
A
100
AcDbEntity
  8
MODEL
100
AcDbLine
 10
786.8561475443969
 20
591.364819503011
 30
0.0
 11
786.8561475443978
 21
531.9850110202251
 31
0.0
  0
SPLINE
  5
11DF
330
A
100
AcDbEntity
  8
MODEL
100
AcDbSpline
210
0.0
220
0.0
230
1.0
 70
     8
 71
     3
 72
    15
 73
    11
 74
     0
 42
0.000000001
 43
0.00000001
 40
0.0
 40
0.0
 40
0.0
 40
0.0
 40
0.1477233689587588
 40
0.2999818079121573
 40
0.4475649071566254
 40
0.5987222769126448
 40
0.7595655609432451
 40
0.842532727189761
 40
0.9264054639338165
 40
1.0
 40
1.0
 40
1.0
 40
1.0
 10
786.8561475443978
 20
531.9850110202251
 30
0.0
 10
786.839351598943
 20
531.8410449985558
 30
0.0
 10
786.8052440767617
 20
531.5486932348313
 30
0.0
 10
786.5453465130415
 20
531.0509510835573
 30
0.0
 10
786.1503781836375
 20
530.5270419118333
 30
0.0
 10
785.6084666889722
 20
529.9856564340889
 30
0.0
 10
785.0273258103919
 20
529.5364674983639
 30
0.0
 10
784.4709624234367
 20
529.1977427340207
 30
0.0
 10
784.0278281352196
 20
528.970179259436
 30
0.0
 10
783.7103824457238
 20
528.8481411901266
 30
0.0
 10
783.562019755321
 20
528.7911049886807
 30
0.0
  0
LINE
  5
11E0
330
A
100
AcDbEntity
  8
MODEL
100
AcDbLine
 10
783.5620197553201
 20
528.7911049886807
 30
0.0
 11
781.8561475443969
 21
528.7911049886807
 31
0.0
  0
LINE
  5
11E2
330
A
100
AcDbEntity
  8
MODEL
100
AcDbLine
 10
741.8561475443969
 20
591.364819503011
 30
0.0
 11
741.8561475443969
 21
528.7911049886807
 31
0.0
  0
LINE
  5
11E3
330
A
100
AcDbEntity
  8
MODEL
100
AcDbLine
 10
781.8561475443969
 20
528.7911049886807
 30
0.0
 11
741.8561475443969
 21
528.7911049886807
 31
0.0
  0
SPLINE
  5
11E5
330
A
100
AcDbEntity
  8
MODEL
100
AcDbSpline
210
0.0
220
0.0
230
1.0
 70
     8
 71
     3
 72
    14
 73
    10
 74
     0
 42
0.000000001
 43
0.00000001
 40
0.0
 40
0.0
 40
0.0
 40
0.0
 40
0.1327873789680596
 40
0.270096524793478
 40
0.40258959166553
 40
0.5377658656258366
 40
0.6958622688939794
 40
0.8586005110098659
 40
0.9999999999999999
 40
0.9999999999999999
 40
0.9999999999999999
 40
0.9999999999999999
 10
740.1502753334737
 20
528.7911049886807
 30
0.0
 10
739.8861605351369
 20
528.898830299092
 30
0.0
 10
739.3489371202943
 20
529.1179492560323
 30
0.0
 10
738.672691326153
 20
529.545565524123
 30
0.0
 10
738.0877223062992
 20
530.0051703217887
 30
0.0
 10
737.5810427707731
 20
530.5063682934033
 30
0.0
 10
737.1726498077426
 20
531.0373242712967
 30
0.0
 10
736.9049813931426
 20
531.5515856471256
 30
0.0
 10
736.8716458707916
 20
531.8474554502136
 30
0.0
 10
736.8561475443969
 20
531.9850110202251
 30
0.0
  0
LINE
  5
11E6
330
A
100
AcDbEntity
  8
MODEL
100
AcDbLine
 10
736.8561475443969
 20
531.9850110202251
 30
0.0
 11
736.8561475443969
 21
591.364819503011
 31
0.0
  0
LINE
  5
11E7
330
A
100
AcDbEntity
  8
MODEL
100
AcDbLine
 10
741.8561475443969
 20
528.7911049886807
 30
0.0
 11
740.1502753334737
 21
528.7911049886807
 31
0.0
  0
SPLINE
  5
11E9
330
A
100
AcDbEntity
  8
MODEL
100
AcDbSpline
210
0.0
220
0.0
230
1.0
 70
     8
 71
     3
 72
    14
 73
    10
 74
     0
 42
0.000000001
 43
0.00000001
 40
0.0
 40
0.0
 40
0.0
 40
0.0
 40
0.1327873789680579
 40
0.2700965247934767
 40
0.4025895916655302
 40
0.5377658656258377
 40
0.695862268893978
 40
0.8586005110098662
 40
1.0
 40
1.0
 40
1.0
 40
1.0
 10
148.5085431414066
 20
528.7911049886807
 30
0.0
 10
148.2430116397575
 20
528.898830299092
 30
0.0
 10
147.7029065757381
 20
529.1179492560323
 30
0.0
 10
146.8853819858934
 20
529.545565524123
 30
0.0
 10
146.073544418796
 20
530.0051703217887
 30
0.0
 10
145.2366378437121
 20
530.5063682934033
 30
0.0
 10
144.3743593259881
 20
531.0373242712967
 30
0.0
 10
143.5477088888722
 20
531.5515856471256
 30
0.0
 10
143.0754182067024
 20
531.8474554502136
 30
0.0
 10
142.855841172079
 20
531.9850110202251
 30
0.0
  0
LINE
  5
11EA
330
A
100
AcDbEntity
  8
MODEL
100
AcDbLine
 10
142.855841172079
 20
531.9850110202251
 30
0.0
 11
142.855841172079
 21
591.364819503011
 31
0.0
  0
LINE
  5
11EC
330
A
100
AcDbEntity
  8
MODEL
100
AcDbLine
 10
149.9269089839438
 20
591.364819503011
 30
0.0
 11
149.9269089839438
 21
528.7911049886807
 31
0.0
  0
LINE
  5
11ED
330
A
100
AcDbEntity
  8
MODEL
100
AcDbLine
 10
149.9269089839438
 20
528.7911049886807
 30
0.0
 11
148.5085431414066
 21
528.7911049886807
 31
0.0
  0
ARC
  5
11EE
330
A
100
AcDbEntity
  8
MODEL
100
AcDbCircle
 10
138.1800413465255
 20
524.7546976349604
 30
0.0
 40
8.610489861662355
100
AcDbArc
 50
57.10949605150203
 51
89.47028120032087
  0
SPLINE
  5
11EF
330
A
100
AcDbEntity
  8
MODEL
100
AcDbSpline
210
0.0
220
0.0
230
1.0
 70
     8
 71
     3
 72
    11
 73
     7
 74
     0
 42
0.000000001
 43
0.00000001
 40
0.0
 40
0.0
 40
0.0
 40
0.0
 40
0.3155941661950661
 40
0.5517633806226888
 40
0.790510336133772
 40
0.9999999999999999
 40
0.9999999999999999
 40
0.9999999999999999
 40
0.9999999999999999
 10
179.6555009379492
 20
529.8319111964674
 30
0.0
 10
179.6561073955893
 20
529.705119443267
 30
0.0
 10
179.657167684891
 20
529.4834453634685
 30
0.0
 10
179.5434327941678
 20
529.1980666241034
 30
0.0
 10
179.4048027955671
 20
528.9701094373486
 30
0.0
 10
179.2688305426184
 20
528.8481189513841
 30
0.0
 10
179.2052820052315
 20
528.7911049886807
 30
0.0
  0
LINE
  5
11F1
330
A
100
AcDbEntity
  8
MODEL
100
AcDbLine
 10
178.2111802314068
 20
528.7911049886807
 30
0.0
 11
178.2111802314068
 21
591.364819503011
 31
0.0
  0
LINE
  5
11F2
330
A
100
AcDbEntity
  8
MODEL
100
AcDbLine
 10
178.2111802314068
 20
528.7911049886807
 30
0.0
 11
149.9269089839438
 21
528.7911049886807
 31
0.0
  0
LINE
  5
11F5
330
A
100
AcDbEntity
  8
MODEL
100
AcDbLine
 10
179.2052820052315
 20
528.7911049886807
 30
0.0
 11
178.2111802314068
 21
528.7911049886807
 31
0.0
  0
LINE
  5
11F7
330
A
100
AcDbEntity
  8
MODEL
100
AcDbLine
 10
791.8561475443978
 20
517.3648195030119
 30
0.0
 11
791.8561475443978
 21
501.3648195030119
 31
0.0
  0
LINE
  5
11F8
330
A
100
AcDbEntity
  8
MODEL
100
AcDbLine
 10
791.8561475443978
 20
533.3648195030119
 30
0.0
 11
791.8561475443978
 21
517.3648195030119
 31
0.0
  0
LINE
  5
11F9
330
A
100
AcDbEntity
  8
MODEL
100
AcDbLine
 10
793.3800972027714
 20
511.2653878403771
 30
0.0
 11
793.3800972027714
 21
533.3382188627784
 31
0.0
  0
LINE
  5
11FA
330
A
100
AcDbEntity
  8
MODEL
100
AcDbLine
 10
793.3800972027714
 20
501.3914201432463
 30
0.0
 11
793.3800972027714
 21
511.2653878403771
 31
0.0
  0
LINE
  5
11FB
330
A
100
AcDbEntity
  8
MODEL
100
AcDbLine
 10
793.8711310339497
 20
532.8537839796736
 30
0.0
 11
793.8711310339497
 21
501.875855026351
 31
0.0
  0
ARC
  5
11FC
330
A
100
AcDbEntity
  8
MODEL
100
AcDbCircle
 10
132.5285764289922
 20
522.4531153194293
 30
0.0
 40
10.42918648056604
100
AcDbArc
 50
23.04605619308294
 51
85.76191571326375
  0
LINE
  5
11FD
330
A
100
AcDbEntity
  8
MODEL
100
AcDbLine
 10
133.6634530166541
 20
591.364819503011
 30
0.0
 11
133.6634530166541
 21
533.3410709075115
 31
0.0
  0
LINE
  5
11FE
330
A
100
AcDbEntity
  8
MODEL
100
AcDbLine
 10
377.9221647223796
 20
517.3648195030119
 30
0.0
 11
377.9221647223796
 21
501.3648195030119
 31
0.0
  0
LINE
  5
11FF
330
A
100
AcDbEntity
  8
MODEL
100
AcDbLine
 10
377.9221647223796
 20
533.3648195030119
 30
0.0
 11
377.9221647223796
 21
517.3648195030119
 31
0.0
  0
LINE
  5
1203
330
A
100
AcDbEntity
  8
MODEL
  6
CENTER
 48
0.025
100
AcDbLine
 10
761.8561475443978
 20
527.8648195030119
 30
0.0
 11
761.8561475443978
 21
600.6118149618178
 31
0.0
  0
LINE
  5
1204
330
A
100
AcDbEntity
  8
MODEL
  6
CENTER
 48
0.025
100
AcDbLine
 10
415.8561475443978
 20
527.8648195030119
 30
0.0
 11
415.8561475443978
 21
599.5044638208119
 31
0.0
  0
LINE
  5
1205
330
A
100
AcDbEntity
  8
MODEL
  6
CENTER
 48
0.025
100
AcDbLine
 10
155.9373166240296
 20
527.8648195030119
 30
0.0
 11
155.9373166240296
 21
601.1654905323203
 31
0.0
  0
LINE
  5
1206
330
A
100
AcDbEntity
  8
MODEL
100
AcDbLine
 10
133.6465180508096
 20
501.3914201432463
 30
0.0
 11
131.9631007067412
 21
501.5698298164707
 31
0.0
  0
LINE
  5
1207
330
A
100
AcDbEntity
  8
MODEL
100
AcDbLine
 10
131.9631007067412
 20
501.5698298164707
 30
0.0
 11
130.3172881243756
 21
502.1010734588581
 31
0.0
  0
LINE
  5
1208
330
A
100
AcDbEntity
  8
MODEL
100
AcDbLine
 10
130.3172881243756
 20
502.1010734588581
 30
0.0
 11
128.7458450371798
 21
502.9732839652906
 31
0.0
  0
LINE
  5
1209
330
A
100
AcDbEntity
  8
MODEL
100
AcDbLine
 10
128.7458450371798
 20
502.9732839652906
 30
0.0
 11
127.2838748869883
 21
504.1669775943392
 31
0.0
  0
LINE
  5
120A
330
A
100
AcDbEntity
  8
MODEL
100
AcDbLine
 10
127.2838748869883
 20
504.1669775943392
 30
0.0
 11
125.9640356711282
 21
505.6554892028507
 31
0.0
  0
LINE
  5
120B
330
A
100
AcDbEntity
  8
MODEL
100
AcDbLine
 10
125.9640356711282
 20
505.6554892028507
 30
0.0
 11
124.8158104167071
 21
507.4055679011817
 31
0.0
  0
LINE
  5
120C
330
A
100
AcDbEntity
  8
MODEL
100
AcDbLine
 10
124.8158104167071
 20
507.4055679011817
 30
0.0
 11
123.8648485785291
 21
509.3781198231291
 31
0.0
  0
LINE
  5
120D
330
A
100
AcDbEntity
  8
MODEL
100
AcDbLine
 10
123.8648485785291
 20
509.3781198231291
 30
0.0
 11
123.1323930726378
 21
511.5290814183018
 31
0.0
  0
LINE
  5
120E
330
A
100
AcDbEntity
  8
MODEL
100
AcDbLine
 10
123.1323930726378
 20
511.5290814183018
 30
0.0
 11
122.6348057446914
 21
513.8104037590201
 31
0.0
  0
LINE
  5
120F
330
A
100
AcDbEntity
  8
MODEL
100
AcDbLine
 10
122.6348057446914
 20
513.8104037590201
 30
0.0
 11
122.3832018733576
 21
516.1711258739633
 31
0.0
  0
LINE
  5
1210
330
A
100
AcDbEntity
  8
MODEL
100
AcDbLine
 10
122.3832018733576
 20
516.1711258739633
 30
0.0
 11
122.3832018733576
 21
518.5585131320613
 31
0.0
  0
LINE
  5
1211
330
A
100
AcDbEntity
  8
MODEL
100
AcDbLine
 10
122.3832018733576
 20
518.5585131320613
 30
0.0
 11
122.6348057446914
 21
520.9192352470045
 31
0.0
  0
LINE
  5
1212
330
A
100
AcDbEntity
  8
MODEL
100
AcDbLine
 10
122.6348057446914
 20
520.9192352470045
 30
0.0
 11
123.1323930726378
 21
523.2005575877229
 31
0.0
  0
LINE
  5
1213
330
A
100
AcDbEntity
  8
MODEL
100
AcDbLine
 10
123.1323930726378
 20
523.2005575877229
 30
0.0
 11
123.8648485785291
 21
525.3515191828947
 31
0.0
  0
LINE
  5
1214
330
A
100
AcDbEntity
  8
MODEL
100
AcDbLine
 10
123.8648485785291
 20
525.3515191828947
 30
0.0
 11
124.8158104167071
 21
527.3240711048429
 31
0.0
  0
LINE
  5
1215
330
A
100
AcDbEntity
  8
MODEL
100
AcDbLine
 10
124.8158104167071
 20
527.3240711048429
 30
0.0
 11
125.9640356711282
 21
529.0741498031739
 31
0.0
  0
LINE
  5
1216
330
A
100
AcDbEntity
  8
MODEL
100
AcDbLine
 10
125.9640356711282
 20
529.0741498031739
 30
0.0
 11
127.2838748869883
 21
530.5626614116845
 31
0.0
  0
LINE
  5
1217
330
A
100
AcDbEntity
  8
MODEL
100
AcDbLine
 10
127.2838748869883
 20
530.5626614116845
 30
0.0
 11
128.7458450371798
 21
531.7563550407331
 31
0.0
  0
LINE
  5
1218
330
A
100
AcDbEntity
  8
MODEL
100
AcDbLine
 10
128.7458450371798
 20
531.7563550407331
 30
0.0
 11
130.3172881243756
 21
532.6285655471665
 31
0.0
  0
LINE
  5
1219
330
A
100
AcDbEntity
  8
MODEL
100
AcDbLine
 10
130.3172881243756
 20
532.6285655471665
 30
0.0
 11
131.9631007067412
 21
533.159809189553
 31
0.0
  0
LINE
  5
121A
330
A
100
AcDbEntity
  8
MODEL
100
AcDbLine
 10
131.9631007067412
 20
533.159809189553
 30
0.0
 11
133.6465180508096
 21
533.3382188627784
 31
0.0
  0
LINE
  5
121B
330
A
100
AcDbEntity
  8
MODEL
100
AcDbLine
 10
133.6465180508096
 20
533.3382188627784
 30
0.0
 11
135.3299353948789
 21
533.159809189553
 31
0.0
  0
LINE
  5
121C
330
A
100
AcDbEntity
  8
MODEL
100
AcDbLine
 10
135.3299353948789
 20
533.159809189553
 30
0.0
 11
136.9757479772454
 21
532.6285655471665
 31
0.0
  0
LINE
  5
121D
330
A
100
AcDbEntity
  8
MODEL
100
AcDbLine
 10
136.9757479772454
 20
532.6285655471665
 30
0.0
 11
138.5471910644421
 21
531.7563550407331
 31
0.0
  0
LINE
  5
121E
330
A
100
AcDbEntity
  8
MODEL
100
AcDbLine
 10
138.5471910644421
 20
531.7563550407331
 30
0.0
 11
140.0091612146318
 21
530.5626614116845
 31
0.0
  0
LINE
  5
121F
330
A
100
AcDbEntity
  8
MODEL
100
AcDbLine
 10
140.0091612146318
 20
530.5626614116845
 30
0.0
 11
141.3290004304938
 21
529.0741498031739
 31
0.0
  0
LINE
  5
1220
330
A
100
AcDbEntity
  8
MODEL
100
AcDbLine
 10
141.3290004304938
 20
529.0741498031739
 30
0.0
 11
142.477225684913
 21
527.3240711048429
 31
0.0
  0
LINE
  5
1221
330
A
100
AcDbEntity
  8
MODEL
100
AcDbLine
 10
142.477225684913
 20
527.3240711048429
 30
0.0
 11
143.428187523092
 21
525.3515191828947
 31
0.0
  0
LINE
  5
1222
330
A
100
AcDbEntity
  8
MODEL
100
AcDbLine
 10
143.428187523092
 20
525.3515191828947
 30
0.0
 11
144.1606430289814
 21
523.2005575877229
 31
0.0
  0
LINE
  5
1223
330
A
100
AcDbEntity
  8
MODEL
100
AcDbLine
 10
144.1606430289814
 20
523.2005575877229
 30
0.0
 11
144.6582303569287
 21
520.9192352470045
 31
0.0
  0
LINE
  5
1224
330
A
100
AcDbEntity
  8
MODEL
100
AcDbLine
 10
144.6582303569287
 20
520.9192352470045
 30
0.0
 11
144.9098342282634
 21
518.5585131320613
 31
0.0
  0
LINE
  5
1225
330
A
100
AcDbEntity
  8
MODEL
100
AcDbLine
 10
144.9098342282634
 20
518.5585131320613
 30
0.0
 11
144.9098342282625
 21
516.1711258739633
 31
0.0
  0
LINE
  5
1226
330
A
100
AcDbEntity
  8
MODEL
100
AcDbLine
 10
144.9098342282625
 20
516.1711258739633
 30
0.0
 11
144.6582303569287
 21
513.8104037590201
 31
0.0
  0
LINE
  5
1227
330
A
100
AcDbEntity
  8
MODEL
100
AcDbLine
 10
144.6582303569287
 20
513.8104037590201
 30
0.0
 11
144.1606430289814
 21
511.5290814183018
 31
0.0
  0
LINE
  5
1228
330
A
100
AcDbEntity
  8
MODEL
100
AcDbLine
 10
144.1606430289814
 20
511.5290814183018
 30
0.0
 11
143.428187523092
 21
509.3781198231291
 31
0.0
  0
LINE
  5
1229
330
A
100
AcDbEntity
  8
MODEL
100
AcDbLine
 10
143.428187523092
 20
509.3781198231291
 30
0.0
 11
142.477225684913
 21
507.4055679011808
 31
0.0
  0
LINE
  5
122A
330
A
100
AcDbEntity
  8
MODEL
100
AcDbLine
 10
142.477225684913
 20
507.4055679011808
 30
0.0
 11
141.3290004304938
 21
505.6554892028507
 31
0.0
  0
LINE
  5
122B
330
A
100
AcDbEntity
  8
MODEL
100
AcDbLine
 10
141.3290004304938
 20
505.6554892028507
 30
0.0
 11
140.0091612146318
 21
504.1669775943392
 31
0.0
  0
LINE
  5
122C
330
A
100
AcDbEntity
  8
MODEL
100
AcDbLine
 10
140.0091612146318
 20
504.1669775943392
 30
0.0
 11
138.5471910644421
 21
502.9732839652906
 31
0.0
  0
LINE
  5
122D
330
A
100
AcDbEntity
  8
MODEL
100
AcDbLine
 10
138.5471910644421
 20
502.9732839652906
 30
0.0
 11
136.9757479772454
 21
502.1010734588581
 31
0.0
  0
LINE
  5
122E
330
A
100
AcDbEntity
  8
MODEL
100
AcDbLine
 10
136.9757479772454
 20
502.1010734588581
 30
0.0
 11
135.3299353948789
 21
501.5698298164707
 31
0.0
  0
LINE
  5
122F
330
A
100
AcDbEntity
  8
MODEL
100
AcDbLine
 10
135.3299353948789
 20
501.5698298164707
 30
0.0
 11
133.6465180508096
 21
501.3914201432463
 31
0.0
  0
LINE
  5
1230
330
A
100
AcDbEntity
  8
MODEL
100
AcDbLine
 10
134.5266316720047
 20
501.3672571230327
 30
0.0
 11
134.7241131884341
 21
501.3648195030128
 31
0.0
  0
LINE
  5
1231
330
A
100
AcDbEntity
  8
MODEL
100
AcDbLine
 10
134.7241131884341
 20
501.3648195030128
 30
0.0
 11
136.4103339419792
 21
501.5435262834098
 31
0.0
  0
LINE
  5
1232
330
A
100
AcDbEntity
  8
MODEL
100
AcDbLine
 10
136.4103339419792
 20
501.5435262834098
 30
0.0
 11
138.0588873102863
 21
502.075654610434
 31
0.0
  0
LINE
  5
1233
330
A
100
AcDbEntity
  8
MODEL
100
AcDbLine
 10
138.0588873102863
 20
502.075654610434
 30
0.0
 11
139.6329473352582
 21
502.9493176165734
 31
0.0
  0
LINE
  5
1234
330
A
100
AcDbEntity
  8
MODEL
100
AcDbLine
 10
139.6329473352582
 20
502.9493176165734
 30
0.0
 11
141.0973521169965
 21
504.1449991139561
 31
0.0
  0
LINE
  5
1235
330
A
100
AcDbEntity
  8
MODEL
100
AcDbLine
 10
141.0973521169965
 20
504.1449991139561
 30
0.0
 11
142.41938927253
 21
505.6359895537353
 31
0.0
  0
LINE
  5
1236
330
A
100
AcDbEntity
  8
MODEL
100
AcDbLine
 10
142.41938927253
 20
505.6359895537353
 30
0.0
 11
143.5695266764053
 21
507.388982673272
 31
0.0
  0
LINE
  5
1237
330
A
100
AcDbEntity
  8
MODEL
100
AcDbLine
 10
143.5695266764053
 20
507.388982673272
 30
0.0
 11
144.5220721595672
 21
509.3648195030128
 31
0.0
  0
LINE
  5
1238
330
A
100
AcDbEntity
  8
MODEL
100
AcDbLine
 10
144.5220721595672
 20
509.3648195030128
 30
0.0
 11
145.2557474299522
 21
511.5193631131497
 31
0.0
  0
LINE
  5
1239
330
A
100
AcDbEntity
  8
MODEL
100
AcDbLine
 10
145.2557474299522
 20
511.5193631131497
 30
0.0
 11
145.7541633943831
 21
513.8044845597115
 31
0.0
  0
LINE
  5
123A
330
A
100
AcDbEntity
  8
MODEL
100
AcDbLine
 10
145.7541633943831
 20
513.8044845597115
 30
0.0
 11
146.0061862638215
 21
516.16913800563
 31
0.0
  0
LINE
  5
123B
330
A
100
AcDbEntity
  8
MODEL
100
AcDbLine
 10
146.0061862638215
 20
516.16913800563
 30
0.0
 11
146.0061862638215
 21
518.5605010003956
 31
0.0
  0
LINE
  5
123C
330
A
100
AcDbEntity
  8
MODEL
100
AcDbLine
 10
146.0061862638215
 20
518.5605010003956
 30
0.0
 11
145.7541633943831
 21
520.9251544463132
 31
0.0
  0
LINE
  5
123D
330
A
100
AcDbEntity
  8
MODEL
100
AcDbLine
 10
145.7541633943831
 20
520.9251544463132
 30
0.0
 11
145.2557474299522
 21
523.210275892875
 31
0.0
  0
LINE
  5
123E
330
A
100
AcDbEntity
  8
MODEL
100
AcDbLine
 10
145.2557474299522
 20
523.210275892875
 30
0.0
 11
144.5220721595672
 21
525.3648195030119
 31
0.0
  0
LINE
  5
123F
330
A
100
AcDbEntity
  8
MODEL
100
AcDbLine
 10
144.5220721595672
 20
525.3648195030119
 30
0.0
 11
143.5695266764053
 21
527.3406563327517
 31
0.0
  0
LINE
  5
1240
330
A
100
AcDbEntity
  8
MODEL
100
AcDbLine
 10
143.5695266764053
 20
527.3406563327517
 30
0.0
 11
142.41938927253
 21
529.0936494522894
 31
0.0
  0
LINE
  5
1241
330
A
100
AcDbEntity
  8
MODEL
100
AcDbLine
 10
142.41938927253
 20
529.0936494522894
 30
0.0
 11
141.0973521169965
 21
530.5846398920685
 31
0.0
  0
LINE
  5
1242
330
A
100
AcDbEntity
  8
MODEL
100
AcDbLine
 10
141.0973521169965
 20
530.5846398920685
 30
0.0
 11
139.6329473352582
 21
531.7803213894504
 31
0.0
  0
LINE
  5
1243
330
A
100
AcDbEntity
  8
MODEL
100
AcDbLine
 10
139.6329473352582
 20
531.7803213894504
 30
0.0
 11
138.0588873102863
 21
532.6539843955907
 31
0.0
  0
LINE
  5
1244
330
A
100
AcDbEntity
  8
MODEL
100
AcDbLine
 10
138.0588873102863
 20
532.6539843955907
 30
0.0
 11
136.4103339419792
 21
533.1861127226139
 31
0.0
  0
LINE
  5
1245
330
A
100
AcDbEntity
  8
MODEL
100
AcDbLine
 10
136.4103339419792
 20
533.1861127226139
 30
0.0
 11
134.7241131884341
 21
533.3648195030119
 31
0.0
  0
LINE
  5
1246
330
A
100
AcDbEntity
  8
MODEL
100
AcDbLine
 10
134.7241131884341
 20
533.3648195030119
 30
0.0
 11
134.5266316720047
 21
533.3623818829919
 31
0.0
  0
LINE
  5
1247
330
A
100
AcDbEntity
  8
MODEL
100
AcDbLine
 10
146.037821687418
 20
517.3648195030119
 30
0.0
 11
145.9114569111555
 21
514.9801432441936
 31
0.0
  0
LINE
  5
1248
330
A
100
AcDbEntity
  8
MODEL
100
AcDbLine
 10
145.9114569111555
 20
514.9801432441936
 30
0.0
 11
145.5351853626546
 21
512.6487367124382
 31
0.0
  0
LINE
  5
1249
330
A
100
AcDbEntity
  8
MODEL
100
AcDbLine
 10
145.5351853626546
 20
512.6487367124382
 30
0.0
 11
144.9174123265423
 21
510.4226796771318
 31
0.0
  0
LINE
  5
124A
330
A
100
AcDbEntity
  8
MODEL
100
AcDbLine
 10
144.9174123265423
 20
510.4226796771318
 30
0.0
 11
144.0719378316028
 21
508.3516985739943
 31
0.0
  0
LINE
  5
124B
330
A
100
AcDbEntity
  8
MODEL
100
AcDbLine
 10
144.0719378316028
 20
508.3516985739943
 30
0.0
 11
143.0176483809521
 21
506.4820556986779
 31
0.0
  0
LINE
  5
124C
330
A
100
AcDbEntity
  8
MODEL
100
AcDbLine
 10
143.0176483809521
 20
506.4820556986779
 30
0.0
 11
141.7780950587523
 21
504.8555157835244
 31
0.0
  0
LINE
  5
124D
330
A
100
AcDbEntity
  8
MODEL
100
AcDbLine
 10
141.7780950587523
 20
504.8555157835244
 30
0.0
 11
140.3809674379256
 21
503.5084130424611
 31
0.0
  0
LINE
  5
124E
330
A
100
AcDbEntity
  8
MODEL
100
AcDbLine
 10
140.3809674379256
 20
503.5084130424611
 30
0.0
 11
138.8574750408354
 21
502.4708395247044
 31
0.0
  0
LINE
  5
124F
330
A
100
AcDbEntity
  8
MODEL
100
AcDbLine
 10
138.8574750408354
 20
502.4708395247044
 30
0.0
 11
137.2416501701375
 21
501.7659729081033
 31
0.0
  0
LINE
  5
1250
330
A
100
AcDbEntity
  8
MODEL
100
AcDbLine
 10
137.2416501701375
 20
501.7659729081033
 30
0.0
 11
135.5695876833727
 21
501.4095587481133
 31
0.0
  0
LINE
  5
1251
330
A
100
AcDbEntity
  8
MODEL
100
AcDbLine
 10
135.5695876833727
 20
501.4095587481133
 30
0.0
 11
134.5266316720047
 21
501.3672571230327
 31
0.0
  0
LINE
  5
1252
330
A
100
AcDbEntity
  8
MODEL
100
AcDbLine
 10
134.5266316720047
 20
533.3623818829919
 30
0.0
 11
135.5695876833727
 21
533.3200802579113
 31
0.0
  0
LINE
  5
1253
330
A
100
AcDbEntity
  8
MODEL
100
AcDbLine
 10
135.5695876833727
 20
533.3200802579113
 30
0.0
 11
137.2416501701375
 21
532.9636660979213
 31
0.0
  0
LINE
  5
1254
330
A
100
AcDbEntity
  8
MODEL
100
AcDbLine
 10
137.2416501701375
 20
532.9636660979213
 30
0.0
 11
138.8574750408354
 21
532.2587994813193
 31
0.0
  0
LINE
  5
1255
330
A
100
AcDbEntity
  8
MODEL
100
AcDbLine
 10
138.8574750408354
 20
532.2587994813193
 30
0.0
 11
140.3809674379256
 21
531.2212259635626
 31
0.0
  0
LINE
  5
1256
330
A
100
AcDbEntity
  8
MODEL
100
AcDbLine
 10
140.3809674379256
 20
531.2212259635626
 30
0.0
 11
141.7780950587533
 21
529.8741232225011
 31
0.0
  0
LINE
  5
1257
330
A
100
AcDbEntity
  8
MODEL
100
AcDbLine
 10
141.7780950587533
 20
529.8741232225011
 30
0.0
 11
143.0176483809521
 21
528.2475833073468
 31
0.0
  0
LINE
  5
1258
330
A
100
AcDbEntity
  8
MODEL
100
AcDbLine
 10
143.0176483809521
 20
528.2475833073468
 30
0.0
 11
144.0719378316037
 21
526.3779404320294
 31
0.0
  0
LINE
  5
1259
330
A
100
AcDbEntity
  8
MODEL
100
AcDbLine
 10
144.0719378316037
 20
526.3779404320294
 30
0.0
 11
144.9174123265423
 21
524.3069593288928
 31
0.0
  0
LINE
  5
125A
330
A
100
AcDbEntity
  8
MODEL
100
AcDbLine
 10
144.9174123265423
 20
524.3069593288928
 30
0.0
 11
145.5351853626546
 21
522.0809022935864
 31
0.0
  0
LINE
  5
125B
330
A
100
AcDbEntity
  8
MODEL
100
AcDbLine
 10
145.5351853626546
 20
522.0809022935864
 30
0.0
 11
145.9114569111555
 21
519.749495761831
 31
0.0
  0
LINE
  5
125C
330
A
100
AcDbEntity
  8
MODEL
100
AcDbLine
 10
145.9114569111555
 20
519.749495761831
 30
0.0
 11
146.037821687418
 21
517.3648195030119
 31
0.0
  0
LINE
  5
125D
330
A
100
AcDbEntity
  8
MODEL
100
AcDbLine
 10
133.2993046989925
 20
532.8537839796763
 30
0.0
 11
131.6274360339196
 21
532.6722598799288
 31
0.0
  0
LINE
  5
125E
330
A
100
AcDbEntity
  8
MODEL
100
AcDbLine
 10
131.6274360339196
 20
532.6722598799288
 30
0.0
 11
129.9947545533435
 21
532.1319423517307
 31
0.0
  0
LINE
  5
125F
330
A
100
AcDbEntity
  8
MODEL
100
AcDbLine
 10
129.9947545533435
 20
532.1319423517307
 30
0.0
 11
128.4395289273764
 21
531.2454959799916
 31
0.0
  0
LINE
  5
1260
330
A
100
AcDbEntity
  8
MODEL
100
AcDbLine
 10
128.4395289273764
 20
531.2454959799916
 30
0.0
 11
126.9982123265402
 21
530.0336983163479
 31
0.0
  0
LINE
  5
1261
330
A
100
AcDbEntity
  8
MODEL
100
AcDbLine
 10
126.9982123265402
 20
530.0336983163479
 30
0.0
 11
125.7045879903565
 21
528.5249528709646
 31
0.0
  0
LINE
  5
1262
330
A
100
AcDbEntity
  8
MODEL
100
AcDbLine
 10
125.7045879903565
 20
528.5249528709646
 30
0.0
 11
124.5889773768397
 21
526.7546233583253
 31
0.0
  0
LINE
  5
1263
330
A
100
AcDbEntity
  8
MODEL
100
AcDbLine
 10
124.5889773768397
 20
526.7546233583253
 30
0.0
 11
123.6775294532229
 21
524.7642048017469
 31
0.0
  0
LINE
  5
1264
330
A
100
AcDbEntity
  8
MODEL
100
AcDbLine
 10
123.6775294532229
 20
524.7642048017469
 30
0.0
 11
122.9916077863284
 21
522.6003509251941
 31
0.0
  0
LINE
  5
1265
330
A
100
AcDbEntity
  8
MODEL
100
AcDbLine
 10
122.9916077863284
 20
522.6003509251941
 30
0.0
 11
122.5472897986676
 21
520.3137806295363
 31
0.0
  0
LINE
  5
1266
330
A
100
AcDbEntity
  8
MODEL
100
AcDbLine
 10
122.5472897986676
 20
520.3137806295363
 30
0.0
 11
122.3549899272859
 21
517.9580891844962
 31
0.0
  0
LINE
  5
1267
330
A
100
AcDbEntity
  8
MODEL
100
AcDbLine
 10
122.3549899272859
 20
517.9580891844962
 30
0.0
 11
122.419215518182
 21
515.5884920009539
 31
0.0
  0
LINE
  5
1268
330
A
100
AcDbEntity
  8
MODEL
100
AcDbLine
 10
122.419215518182
 20
515.5884920009539
 30
0.0
 11
122.7384611779401
 21
513.2605304285144
 31
0.0
  0
LINE
  5
1269
330
A
100
AcDbEntity
  8
MODEL
100
AcDbLine
 10
122.7384611779401
 20
513.2605304285144
 30
0.0
 11
123.3052440588747
 21
511.0287699133478
 31
0.0
  0
LINE
  5
126A
330
A
100
AcDbEntity
  8
MODEL
100
AcDbLine
 10
123.3052440588747
 20
511.0287699133478
 30
0.0
 11
124.106279250643
 21
508.9455210303759
 31
0.0
  0
LINE
  5
126B
330
A
100
AcDbEntity
  8
MODEL
100
AcDbLine
 10
124.106279250643
 20
508.9455210303759
 30
0.0
 11
125.1227911672715
 21
507.0596133677354
 31
0.0
  0
LINE
  5
126C
330
A
100
AcDbEntity
  8
MODEL
100
AcDbLine
 10
125.1227911672715
 20
507.0596133677354
 30
0.0
 11
126.3309536309928
 21
505.4152510026197
 31
0.0
  0
LINE
  5
126D
330
A
100
AcDbEntity
  8
MODEL
100
AcDbLine
 10
126.3309536309928
 20
505.4152510026197
 30
0.0
 11
127.7024483376483
 21
504.0509763951668
 31
0.0
  0
LINE
  5
126E
330
A
100
AcDbEntity
  8
MODEL
100
AcDbLine
 10
127.7024483376483
 20
504.0509763951668
 30
0.0
 11
129.2051286137369
 21
502.9987669858729
 31
0.0
  0
LINE
  5
126F
330
A
100
AcDbEntity
  8
MODEL
100
AcDbLine
 10
129.2051286137369
 20
502.9987669858729
 30
0.0
 11
130.8037729072014
 21
502.2832856714786
 31
0.0
  0
LINE
  5
1270
330
A
100
AcDbEntity
  8
MODEL
100
AcDbLine
 10
130.8037729072014
 20
502.2832856714786
 30
0.0
 11
132.4609103507521
 21
501.921302727581
 31
0.0
  0
LINE
  5
1271
330
A
100
AcDbEntity
  8
MODEL
100
AcDbLine
 10
132.4609103507521
 20
501.921302727581
 30
0.0
 11
134.1376990472347
 21
501.921302727581
 31
0.0
  0
LINE
  5
1272
330
A
100
AcDbEntity
  8
MODEL
100
AcDbLine
 10
134.1376990472347
 20
501.921302727581
 30
0.0
 11
135.7948364907836
 21
502.2832856714786
 31
0.0
  0
LINE
  5
1273
330
A
100
AcDbEntity
  8
MODEL
100
AcDbLine
 10
135.7948364907836
 20
502.2832856714786
 30
0.0
 11
137.3934807842481
 21
502.9987669858729
 31
0.0
  0
LINE
  5
1274
330
A
100
AcDbEntity
  8
MODEL
100
AcDbLine
 10
137.3934807842481
 20
502.9987669858729
 30
0.0
 11
138.8961610603376
 21
504.0509763951677
 31
0.0
  0
LINE
  5
1275
330
A
100
AcDbEntity
  8
MODEL
100
AcDbLine
 10
138.8961610603376
 20
504.0509763951677
 30
0.0
 11
140.2676557669922
 21
505.4152510026197
 31
0.0
  0
LINE
  5
1276
330
A
100
AcDbEntity
  8
MODEL
100
AcDbLine
 10
140.2676557669922
 20
505.4152510026197
 30
0.0
 11
141.4758182307135
 21
507.0596133677363
 31
0.0
  0
LINE
  5
1277
330
A
100
AcDbEntity
  8
MODEL
100
AcDbLine
 10
141.4758182307135
 20
507.0596133677363
 30
0.0
 11
141.6427382199656
 21
507.3307647532338
 31
0.0
  0
LINE
  5
1278
330
A
100
AcDbEntity
  8
MODEL
100
AcDbLine
 10
336.2028646323727
 20
517.3648195030119
 30
0.0
 11
336.0764998561101
 21
514.9801432441936
 31
0.0
  0
LINE
  5
1279
330
A
100
AcDbEntity
  8
MODEL
100
AcDbLine
 10
336.0764998561101
 20
514.9801432441936
 30
0.0
 11
335.7002283076092
 21
512.6487367124382
 31
0.0
  0
LINE
  5
127A
330
A
100
AcDbEntity
  8
MODEL
100
AcDbLine
 10
335.7002283076092
 20
512.6487367124382
 30
0.0
 11
335.0824552714969
 21
510.4226796771318
 31
0.0
  0
LINE
  5
127B
330
A
100
AcDbEntity
  8
MODEL
100
AcDbLine
 10
335.0824552714969
 20
510.4226796771318
 30
0.0
 11
334.2369807765583
 21
508.3516985739943
 31
0.0
  0
LINE
  5
127C
330
A
100
AcDbEntity
  8
MODEL
100
AcDbLine
 10
334.2369807765583
 20
508.3516985739943
 30
0.0
 11
333.1826913259067
 21
506.4820556986779
 31
0.0
  0
LINE
  5
127D
330
A
100
AcDbEntity
  8
MODEL
100
AcDbLine
 10
333.1826913259067
 20
506.4820556986779
 30
0.0
 11
331.9431380037079
 21
504.8555157835244
 31
0.0
  0
LINE
  5
127E
330
A
100
AcDbEntity
  8
MODEL
100
AcDbLine
 10
331.9431380037079
 20
504.8555157835244
 30
0.0
 11
330.5460103828802
 21
503.5084130424611
 31
0.0
  0
LINE
  5
127F
330
A
100
AcDbEntity
  8
MODEL
100
AcDbLine
 10
330.5460103828802
 20
503.5084130424611
 30
0.0
 11
329.02251798579
 21
502.4708395247044
 31
0.0
  0
LINE
  5
1280
330
A
100
AcDbEntity
  8
MODEL
100
AcDbLine
 10
329.02251798579
 20
502.4708395247044
 30
0.0
 11
327.4066931150921
 21
501.7659729081033
 31
0.0
  0
LINE
  5
1281
330
A
100
AcDbEntity
  8
MODEL
100
AcDbLine
 10
327.4066931150921
 20
501.7659729081033
 30
0.0
 11
325.7346306283273
 21
501.4095587481133
 31
0.0
  0
LINE
  5
1282
330
A
100
AcDbEntity
  8
MODEL
100
AcDbLine
 10
325.7346306283273
 20
501.4095587481133
 30
0.0
 11
324.8891561333887
 21
501.3648195030119
 31
0.0
  0
LINE
  5
1283
330
A
100
AcDbEntity
  8
MODEL
100
AcDbLine
 10
324.8891561333887
 20
533.3648195030119
 30
0.0
 11
325.7346306283273
 21
533.3200802579113
 31
0.0
  0
LINE
  5
1284
330
A
100
AcDbEntity
  8
MODEL
100
AcDbLine
 10
325.7346306283273
 20
533.3200802579113
 30
0.0
 11
327.4066931150921
 21
532.9636660979213
 31
0.0
  0
LINE
  5
1285
330
A
100
AcDbEntity
  8
MODEL
100
AcDbLine
 10
327.4066931150921
 20
532.9636660979213
 30
0.0
 11
329.02251798579
 21
532.2587994813193
 31
0.0
  0
LINE
  5
1286
330
A
100
AcDbEntity
  8
MODEL
100
AcDbLine
 10
329.02251798579
 20
532.2587994813193
 30
0.0
 11
330.5460103828811
 21
531.2212259635626
 31
0.0
  0
LINE
  5
1287
330
A
100
AcDbEntity
  8
MODEL
100
AcDbLine
 10
330.5460103828811
 20
531.2212259635626
 30
0.0
 11
331.9431380037079
 21
529.8741232225011
 31
0.0
  0
LINE
  5
1288
330
A
100
AcDbEntity
  8
MODEL
100
AcDbLine
 10
331.9431380037079
 20
529.8741232225011
 30
0.0
 11
333.1826913259067
 21
528.2475833073468
 31
0.0
  0
LINE
  5
1289
330
A
100
AcDbEntity
  8
MODEL
100
AcDbLine
 10
333.1826913259067
 20
528.2475833073468
 30
0.0
 11
334.2369807765583
 21
526.3779404320294
 31
0.0
  0
LINE
  5
128A
330
A
100
AcDbEntity
  8
MODEL
100
AcDbLine
 10
334.2369807765583
 20
526.3779404320294
 30
0.0
 11
335.0824552714969
 21
524.3069593288928
 31
0.0
  0
LINE
  5
128B
330
A
100
AcDbEntity
  8
MODEL
100
AcDbLine
 10
335.0824552714969
 20
524.3069593288928
 30
0.0
 11
335.7002283076092
 21
522.0809022935864
 31
0.0
  0
LINE
  5
128C
330
A
100
AcDbEntity
  8
MODEL
100
AcDbLine
 10
335.7002283076092
 20
522.0809022935864
 30
0.0
 11
336.0764998561101
 21
519.749495761831
 31
0.0
  0
LINE
  5
128D
330
A
100
AcDbEntity
  8
MODEL
100
AcDbLine
 10
336.0764998561101
 20
519.749495761831
 30
0.0
 11
336.2028646323727
 21
517.3648195030119
 31
0.0
  0
DIMENSION
  5
1298
330
A
100
AcDbEntity
  8
DIM
 48
0.05
100
AcDbDimension
  2
*D6
 10
793.3847633637026
 20
769.8105095119222
 30
0.0
 11
457.868191204311
 21
785.8105095119222
 31
0.0
 70
    32
 71
     5
 42
671.0331443187833
 73
     0
 74
     0
 75
     0
  3
tfrom線あり
100
AcDbAlignedDimension
 13
122.3516190449193
 23
1051.790047409311
 33
101.9715250337497
 14
793.3847633637026
 24
833.2121570191448
 34
101.9715250337497
100
AcDbRotatedDimension
  0
DIMENSION
  5
12A7
330
A
100
AcDbEntity
  8
DIM
 48
0.05
100
AcDbDimension
  2
*D7
 10
77.35142281318576
 20
833.8753169216143
 30
0.0
 11
77.35142281318576
 21
951.9530456254256
 31
0.0
 70
   160
 71
     5
 42
240.5045284994794
 73
     0
 74
     0
 75
     0
  3
tfrom線あり
100
AcDbAlignedDimension
 13
144.9414170567018
 23
1074.379845421094
 33
101.9715250337497
 14
377.9221647223796
 24
833.8753169216143
 34
101.9715250337497
 50
90.0
100
AcDbRotatedDimension
1001
ACAD
1000
DSTYLE
1002
{
1070
   271
1070
     1
1002
}
  0
DIMENSION
  5
12B8
330
A
100
AcDbEntity
  8
DIM
 48
0.05
100
AcDbDimension
  2
*D8
 10
197.0882181392819
 20
833.8753169216143
 30
-101.9715250337497
 11
223.4310062375858
 21
882.2545183846502
 31
-101.9715250337497
 70
    34
  1
<>
 71
     5
 42
0.7853981633974483
 73
     0
 74
     0
 75
     0
  3
tfrom線あり
100
AcDb2LineAngularDimension
 13
218.4929261619247
 23
955.6111213061167
 33
-101.9715250337497
 14
408.6579691068812
 24
765.4460783611603
 34
-101.9715250337497
 15
377.9221647223796
 25
833.8753169216143
 35
-101.9715250337497
 16
244.7832517052341
 26
888.9807898235099
 36
-101.9715250337497
1001
ACAD
1000
DSTYLE
1002
{
1070
   179
1070
     0
1002
}
  0
DIMENSION
  5
12C7
330
A
100
AcDbEntity
  8
DIM
 48
0.05
100
AcDbDimension
  2
*D9
 10
835.2134261392171
 20
501.3648195030119
 30
0.0
 11
819.2134261392171
 21
546.3648195030114
 31
0.0
 70
    32
 71
     5
 42
89.99999999999903
 73
     0
 74
     0
 75
     0
  3
tfrom線あり
100
AcDbAlignedDimension
 13
786.8561475443969
 23
591.364819503011
 33
101.9715250337497
 14
791.8561475443978
 24
501.3648195030119
 34
101.9715250337497
 50
90.0
100
AcDbRotatedDimension
1001
ACAD
1000
DSTYLE
1002
{
1070
   271
1070
     0
1002
}
  0
DIMENSION
  5
12E6
102
{ACAD_REACTORS
330
12E8
102
}
102
{ACAD_XDICTIONARY
360
12E7
102
}
330
A
100
AcDbEntity
  8
DIM
 48
0.05
100
AcDbDimension
  2
*D10
 10
835.2134261392171
 20
833.8753169216143
 30
0.0
 11
818.2414261392171
 21
849.8752246009528
 31
0.0
 70
    32
 71
     5
 42
31.9998153586771
 73
     0
 74
     1
 75
     1
  3
tfrom線あり
100
AcDbAlignedDimension
 13
791.8667256387016
 23
865.8751322802914
 33
0.0
 14
791.8561475443978
 24
833.8753169216143
 34
0.0
 50
90.0
100
AcDbRotatedDimension
1001
ACAD
1000
DSTYLE
1002
{
1070
     3
1000
φ<>
1070
   172
1070
     1
1002
}
  0
LINE
  5
130A
330
A
100
AcDbEntity
  8
MODEL
 48
0.05
100
AcDbLine
 10
786.8561475443969
 20
591.364819503011
 30
0.0
 11
736.8561475443969
 21
591.364819503011
 31
0.0
  0
LINE
  5
130B
330
A
100
AcDbEntity
  8
MODEL
 48
0.05
100
AcDbLine
 10
179.6756463254735
 20
591.364819503011
 30
0.0
 11
132.1989869225856
 21
591.364819503011
 31
0.0
  0
LINE
  5
130C
330
A
100
AcDbEntity
  8
MODEL
 48
0.05
100
AcDbLine
 10
440.8561475443978
 20
591.364819503011
 30
0.0
 11
390.8561475443979
 21
591.364819503011
 31
0.0
  0
LINE
  5
130D
330
A
100
AcDbEntity
  8
MODEL
 48
0.05
100
AcDbLine
 10
856.4954942835377
 20
1064.532477543426
 30
0.0
 11
856.4954942835377
 21
1017.055818140539
 31
0.0
  0
LINE
  5
130E
330
A
100
AcDbEntity
  8
MODEL
 48
0.05
100
AcDbLine
 10
856.4954942835377
 20
861.3753169216161
 30
0.0
 11
856.4954942835377
 21
838.3753169216161
 31
0.0
  0
VIEWPORT
  5
349
330
B
100
AcDbEntity
 67
     1
  8
0
100
AcDbViewport
 10
202.5
 20
128.5
 30
0.0
 40
486.0
 41
308.4
 68
     1
 69
     1
 12
202.5
 22
128.5
 13
0.0
 23
0.0
 14
0.5
 24
0.5
 15
0.0
 25
0.0
 16
0.0
 26
0.0
 36
1.0
 17
0.0
 27
0.0
 37
0.0
 42
50.0
 43
0.0
 44
0.0
 45
308.4
 50
0.0
 51
0.0
 72
   100
 90
   557152
  1

281
     0
 71
     1
 74
     0
110
0.0
120
0.0
130
0.0
111
1.0
121
0.0
131
0.0
112
0.0
122
1.0
132
0.0
 79
     0
146
0.0
170
     0
 61
     5
348
26C
292
     1
282
     1
141
0.0
142
0.0
 63
   256
  0
VIEWPORT
  5
34A
330
B
100
AcDbEntity
 67
     1
  8
0
100
AcDbViewport
 10
202.5
 20
128.5
 30
0.0
 40
324.0
 41
205.6
 68
     2
 69
     2
 12
986.6781359294573
 22
1427.077061889956
 13
0.0
 23
0.0
 14
0.5
 24
0.5
 15
0.0
 25
0.0
 16
0.0
 26
0.0
 36
1.0
 17
0.0
 27
0.0
 37
0.0
 42
50.0
 43
0.0
 44
0.0
 45
2890.021615685494
 50
0.0
 51
0.0
 72
   100
 90
   557152
  1

281
     0
 71
     1
 74
     0
110
0.0
120
0.0
130
0.0
111
1.0
121
0.0
131
0.0
112
0.0
122
1.0
132
0.0
 79
     0
146
0.0
170
     0
 61
     5
348
26C
292
     1
282
     1
141
0.0
142
0.0
 63
   256
  0
ENDSEC
  0
SECTION
  2
OBJECTS
  0
DICTIONARY
  5
19
330
0
100
AcDbDictionary
281
     1
  3
ACAD_COLOR
350
674
  3
ACAD_DETAILVIEWSTYLE
350
BBF
  3
ACAD_GROUP
350
1A
  3
ACAD_IMAGE_VARS
350
27B
  3
ACAD_LAYOUT
350
1E
  3
ACAD_MATERIAL
350
263
  3
ACAD_MLEADERSTYLE
350
336
  3
ACAD_MLINESTYLE
350
1B
  3
ACAD_PLOTSETTINGS
350
22
  3
ACAD_PLOTSTYLENAME
350
1F
  3
ACAD_SCALELIST
350
241
  3
ACAD_SECTIONVIEWSTYLE
350
BC0
  3
ACAD_TABLESTYLE
350
278
  3
ACAD_VISUALSTYLE
350
267
  3
ACDB_RECOMPOSE_DATA
350
1322
  3
AcDbVariableDictionary
350
330
  3
APPDATA
350
27A
  0
SUN
  5
904
330
15
100
AcDbSun
 90
        1
290
     0
 63
     7
421
 16777215
 40
1.0
291
     1
 91
  2455826
 92
 54000000
292
     0
 70
     2
 71
   256
280
     1
  0
DICTIONARY
  5
2E1
330
2
100
AcDbDictionary
280
     1
281
     1
  3
ACAD_LAYERSTATES
360
2E2
  3
ACLYDICTIONARY
360
DDE
  0
DICTIONARY
  5
12E7
330
12E6
100
AcDbDictionary
280
     1
281
     1
  3
ACAD_DIMASSOC
360
12E8
  0
DICTIONARY
  5
674
102
{ACAD_REACTORS
330
19
102
}
330
19
100
AcDbDictionary
281
     1
  0
DICTIONARY
  5
BBF
102
{ACAD_REACTORS
330
19
102
}
330
19
100
AcDbDictionary
281
     1
  0
DICTIONARY
  5
1A
102
{ACAD_REACTORS
330
19
102
}
330
19
100
AcDbDictionary
281
     1
  0
RASTERVARIABLES
  5
27B
102
{ACAD_REACTORS
330
19
102
}
330
19
100
AcDbRasterVariables
 90
        0
 70
     1
 71
     1
 72
     1
  0
DICTIONARY
  5
1E
102
{ACAD_REACTORS
330
19
102
}
330
19
100
AcDbDictionary
281
     1
  3
Layout1
350
21
  3
Model
350
20
  0
DICTIONARY
  5
263
102
{ACAD_REACTORS
330
19
102
}
330
19
100
AcDbDictionary
281
     1
  3
ByLayer
350
264
  3
Global
350
266
  0
DICTIONARY
  5
336
102
{ACAD_REACTORS
330
19
102
}
330
19
100
AcDbDictionary
281
     1
  3
Standard
350
D59
  0
DICTIONARY
  5
1B
102
{ACAD_REACTORS
330
19
102
}
330
19
100
AcDbDictionary
281
     1
  3
Standard
350
1C
  0
DICTIONARY
  5
22
102
{ACAD_REACTORS
330
19
102
}
330
19
100
AcDbDictionary
281
     1
  0
ACDBDICTIONARYWDFLT
  5
1F
102
{ACAD_REACTORS
330
19
102
}
330
19
100
AcDbDictionary
281
     1
  3
Normal
350
1D
100
AcDbDictionaryWithDefault
340
1D
  0
DICTIONARY
  5
241
102
{ACAD_REACTORS
330
19
102
}
330
19
100
AcDbDictionary
281
     1
  3
A0
350
242
  3
A1
350
243
  3
A2
350
244
  3
A3
350
245
  3
A4
350
246
  3
A5
350
247
  3
A6
350
248
  3
A7
350
249
  3
A8
350
24A
  3
A9
350
24B
  3
B0
350
24C
  3
B1
350
24D
  3
B2
350
24E
  3
B3
350
24F
  3
B4
350
250
  3
B5
350
251
  3
B6
350
252
  3
B7
350
253
  3
B8
350
254
  3
B9
350
255
  3
C0
350
256
  3
C1
350
257
  3
C2
350
258
  3
C3
350
259
  3
C4
350
25A
  3
C5
350
25B
  3
C6
350
25C
  3
C7
350
25D
  3
C8
350
25E
  3
C9
350
25F
  3
D0
350
260
  3
D1
350
261
  3
D2
350
262
  0
DICTIONARY
  5
BC0
102
{ACAD_REACTORS
330
19
102
}
330
19
100
AcDbDictionary
281
     1
  0
DICTIONARY
  5
278
102
{ACAD_REACTORS
330
19
102
}
330
19
100
AcDbDictionary
281
     1
  3
Standard
350
279
  0
DICTIONARY
  5
267
102
{ACAD_REACTORS
330
19
102
}
330
19
100
AcDbDictionary
281
     1
  3
2dWireframe
350
26C
  3
3D Hidden
350
26E
  3
3dWireframe
350
26D
  3
Basic
350
26F
  3
Brighten
350
273
  3
ColorChange
350
277
  3
Conceptual
350
271
  3
Dim
350
272
  3
EdgeColorOff
350
8FE
  3
Facepattern
350
276
  3
Flat
350
268
  3
FlatWithEdges
350
269
  3
Gouraud
350
26A
  3
GouraudWithEdges
350
26B
  3
Hidden
350
8FB
  3
JitterOff
350
8FC
  3
Linepattern
350
275
  3
OverhangOff
350
8FD
  3
Realistic
350
270
  3
Shaded
350
903
  3
Shaded with edges
350
902
  3
Shades of Gray
350
8FF
  3
Sketchy
350
900
  3
Thicken
350
274
  3
Wireframe
350
8FA
  3
X-Ray
350
901
  0
XRECORD
  5
1322
102
{ACAD_REACTORS
330
19
102
}
330
19
100
AcDbXrecord
280
     1
 90
        1
330
279
  0
DICTIONARY
  5
330
102
{ACAD_REACTORS
330
19
102
}
330
19
100
AcDbDictionary
281
     1
  3
CANNOSCALE
350
331
  3
CMLEADERSTYLE
350
D5E
  3
CTABLESTYLE
350
335
  3
HPTRANSPARENCY
350
D52
  3
XCLIPFRAME
350
896
  0
DICTIONARY
  5
27A
102
{ACAD_REACTORS
330
19
102
}
330
19
100
AcDbDictionary
281
     1
  0
DICTIONARY
  5
2E2
102
{ACAD_REACTORS
330
2E1
102
}
330
2E1
100
AcDbDictionary
281
     1
  3
ARGON_LAYERP_9
350
7AA
  0
DICTIONARY
  5
DDE
102
{ACAD_REACTORS
330
2E1
102
}
330
2E1
100
AcDbDictionary
281
     1
1001
ACAD
1000
<All
  0
DIMASSOC
  5
12E8
102
{ACAD_REACTORS
330
12E7
102
}
330
12E7
100
AcDbDimAssoc
330
12E6
 90
        2
 70
     0
 71
     1
  1
AcDbOsnapPointRef
 72
     1
331
10AE
 73
     0
 91
        0
 40
0.0
 10
0.0
 20
0.0
 30
0.0
 75
     0
  0
LAYOUT
  5
21
102
{ACAD_REACTORS
330
1E
102
}
330
1E
100
AcDbPlotSettings
  1

  2
none_device
  4
ISO_A3_(420.00_x_297.00_MM)
  6

 40
7.5
 41
20.0
 42
7.5
 43
20.0
 44
420.0
 45
297.0
 46
0.0
 47
0.0
 48
0.0
 49
0.0
140
0.0
141
0.0
142
1.0
143
1.0
 70
     0
 72
     1
 73
     0
 74
     0
  7

 75
     0
 76
     0
 77
     2
 78
   300
147
1.0
148
0.0
149
0.0
100
AcDbLayout
  1
Layout1
 70
     0
 71
     0
 10
-7.5
 20
-20.0
 11
412.5
 21
277.0
 12
0.0
 22
0.0
 32
0.0
 14
0.0
 24
0.0
 34
0.0
 15
0.0
 25
0.0
 35
0.0
146
0.0
 13
0.0
 23
0.0
 33
0.0
 16
0.0
 26
0.0
 36
0.0
 17
0.0
 27
0.0
 37
0.0
 76
     0
330
B
331
349
  0
LAYOUT
  5
20
102
{ACAD_REACTORS
330
1E
102
}
330
1E
100
AcDbPlotSettings
  1

  2
none_device
  4
ISO_A3_(420.00_x_297.00_MM)
  6

 40
7.5
 41
20.0
 42
7.5
 43
20.0
 44
420.0
 45
297.0
 46
0.0
 47
0.0
 48
0.0
 49
0.0
140
0.0
141
0.0
142
1.0
143
1.0
 70
  1024
 72
     1
 73
     0
 74
     0
  7

 75
     0
 76
     0
 77
     2
 78
   300
147
1.0
148
0.0
149
0.0
100
AcDbLayout
  1
Model
 70
     0
 71
     1
 10
0.0
 20
0.0
 11
1050.0
 21
1485.0
 12
0.0
 22
0.0
 32
0.0
 14
0.0
 24
0.0
 34
-101.9715250337497
 15
1050.0
 25
1485.0
 35
0.0000000000000071
146
0.0
 13
0.0
 23
0.0
 33
0.0
 16
0.0
 26
0.0
 36
0.0
 17
0.0
 27
0.0
 37
0.0
 76
     0
330
A
331
15
  0
MATERIAL
  5
264
102
{ACAD_REACTORS
330
263
102
}
330
263
100
AcDbMaterial
  1
ByLayer
 72
     1
 94
      127
  0
MATERIAL
  5
266
102
{ACAD_REACTORS
330
263
102
}
330
263
100
AcDbMaterial
  1
Global
 72
     1
 94
      127
  0
MLEADERSTYLE
  5
D59
102
{ACAD_REACTORS
330
336
102
}
330
336
100
AcDbMLeaderStyle
170
     2
171
     1
172
     0
 90
        2
 40
0.0
 41
0.0
173
     1
 91
-1056964608
340
11
 92
       -2
290
     1
 42
2.0
291
     1
 43
8.0
  3
Standard
341
0
 44
4.0
300

342
17
174
     1
178
     6
175
     1
176
     0
 93
-1056964608
 45
4.0
292
     0
297
     0
 46
4.0
343
0
 94
-1056964608
 47
1.0
 49
1.0
140
1.0
293
     1
141
0.0
294
     1
177
     0
142
1.0
295
     0
296
     0
143
3.75
1001
ACAD_MLEADERVER
1070
     2
  0
MLINESTYLE
  5
1C
102
{ACAD_REACTORS
330
1B
102
}
330
1B
100
AcDbMlineStyle
  2
Standard
 70
     0
  3

 62
     0
 51
90.0
 52
90.0
 71
     2
 49
0.5
 62
   256
  6
BYLAYER
 49
-0.5
 62
   256
  6
BYLAYER
  0
ACDBPLACEHOLDER
  5
1D
102
{ACAD_REACTORS
330
1F
102
}
330
1F
  0
SCALE
  5
242
102
{ACAD_REACTORS
330
241
102
}
330
241
100
AcDbScale
 70
     0
300
1:1
140
1.0
141
1.0
290
     1
  0
SCALE
  5
243
102
{ACAD_REACTORS
330
241
102
}
330
241
100
AcDbScale
 70
     0
300
1:2
140
1.0
141
2.0
290
     0
  0
SCALE
  5
244
102
{ACAD_REACTORS
330
241
102
}
330
241
100
AcDbScale
 70
     0
300
1:4
140
1.0
141
4.0
290
     0
  0
SCALE
  5
245
102
{ACAD_REACTORS
330
241
102
}
330
241
100
AcDbScale
 70
     0
300
1:5
140
1.0
141
5.0
290
     0
  0
SCALE
  5
246
102
{ACAD_REACTORS
330
241
102
}
330
241
100
AcDbScale
 70
     0
300
1:8
140
1.0
141
8.0
290
     0
  0
SCALE
  5
247
102
{ACAD_REACTORS
330
241
102
}
330
241
100
AcDbScale
 70
     0
300
1:10
140
1.0
141
10.0
290
     0
  0
SCALE
  5
248
102
{ACAD_REACTORS
330
241
102
}
330
241
100
AcDbScale
 70
     0
300
1:16
140
1.0
141
16.0
290
     0
  0
SCALE
  5
249
102
{ACAD_REACTORS
330
241
102
}
330
241
100
AcDbScale
 70
     0
300
1:20
140
1.0
141
20.0
290
     0
  0
SCALE
  5
24A
102
{ACAD_REACTORS
330
241
102
}
330
241
100
AcDbScale
 70
     0
300
1:30
140
1.0
141
30.0
290
     0
  0
SCALE
  5
24B
102
{ACAD_REACTORS
330
241
102
}
330
241
100
AcDbScale
 70
     0
300
1:40
140
1.0
141
40.0
290
     0
  0
SCALE
  5
24C
102
{ACAD_REACTORS
330
241
102
}
330
241
100
AcDbScale
 70
     0
300
1:50
140
1.0
141
50.0
290
     0
  0
SCALE
  5
24D
102
{ACAD_REACTORS
330
241
102
}
330
241
100
AcDbScale
 70
     0
300
1:100
140
1.0
141
100.0
290
     0
  0
SCALE
  5
24E
102
{ACAD_REACTORS
330
241
102
}
330
241
100
AcDbScale
 70
     0
300
2:1
140
2.0
141
1.0
290
     0
  0
SCALE
  5
24F
102
{ACAD_REACTORS
330
241
102
}
330
241
100
AcDbScale
 70
     0
300
4:1
140
4.0
141
1.0
290
     0
  0
SCALE
  5
250
102
{ACAD_REACTORS
330
241
102
}
330
241
100
AcDbScale
 70
     0
300
8:1
140
8.0
141
1.0
290
     0
  0
SCALE
  5
251
102
{ACAD_REACTORS
330
241
102
}
330
241
100
AcDbScale
 70
     0
300
10:1
140
10.0
141
1.0
290
     0
  0
SCALE
  5
252
102
{ACAD_REACTORS
330
241
102
}
330
241
100
AcDbScale
 70
     0
300
100:1
140
100.0
141
1.0
290
     0
  0
SCALE
  5
253
102
{ACAD_REACTORS
330
241
102
}
330
241
100
AcDbScale
 70
     0
300
1/128" = 1'-0"
140
0.0078125
141
12.0
290
     0
  0
SCALE
  5
254
102
{ACAD_REACTORS
330
241
102
}
330
241
100
AcDbScale
 70
     0
300
1/64" = 1'-0"
140
0.015625
141
12.0
290
     0
  0
SCALE
  5
255
102
{ACAD_REACTORS
330
241
102
}
330
241
100
AcDbScale
 70
     0
300
1/32" = 1'-0"
140
0.03125
141
12.0
290
     0
  0
SCALE
  5
256
102
{ACAD_REACTORS
330
241
102
}
330
241
100
AcDbScale
 70
     0
300
1/16" = 1'-0"
140
0.0625
141
12.0
290
     0
  0
SCALE
  5
257
102
{ACAD_REACTORS
330
241
102
}
330
241
100
AcDbScale
 70
     0
300
3/32" = 1'-0"
140
0.09375
141
12.0
290
     0
  0
SCALE
  5
258
102
{ACAD_REACTORS
330
241
102
}
330
241
100
AcDbScale
 70
     0
300
1/8" = 1'-0"
140
0.125
141
12.0
290
     0
  0
SCALE
  5
259
102
{ACAD_REACTORS
330
241
102
}
330
241
100
AcDbScale
 70
     0
300
3/16" = 1'-0"
140
0.1875
141
12.0
290
     0
  0
SCALE
  5
25A
102
{ACAD_REACTORS
330
241
102
}
330
241
100
AcDbScale
 70
     0
300
1/4" = 1'-0"
140
0.25
141
12.0
290
     0
  0
SCALE
  5
25B
102
{ACAD_REACTORS
330
241
102
}
330
241
100
AcDbScale
 70
     0
300
3/8" = 1'-0"
140
0.375
141
12.0
290
     0
  0
SCALE
  5
25C
102
{ACAD_REACTORS
330
241
102
}
330
241
100
AcDbScale
 70
     0
300
1/2" = 1'-0"
140
0.5
141
12.0
290
     0
  0
SCALE
  5
25D
102
{ACAD_REACTORS
330
241
102
}
330
241
100
AcDbScale
 70
     0
300
3/4" = 1'-0"
140
0.75
141
12.0
290
     0
  0
SCALE
  5
25E
102
{ACAD_REACTORS
330
241
102
}
330
241
100
AcDbScale
 70
     0
300
1" = 1'-0"
140
1.0
141
12.0
290
     0
  0
SCALE
  5
25F
102
{ACAD_REACTORS
330
241
102
}
330
241
100
AcDbScale
 70
     0
300
1-1/2" = 1'-0"
140
1.5
141
12.0
290
     0
  0
SCALE
  5
260
102
{ACAD_REACTORS
330
241
102
}
330
241
100
AcDbScale
 70
     0
300
3" = 1'-0"
140
3.0
141
12.0
290
     0
  0
SCALE
  5
261
102
{ACAD_REACTORS
330
241
102
}
330
241
100
AcDbScale
 70
     0
300
6" = 1'-0"
140
6.0
141
12.0
290
     0
  0
SCALE
  5
262
102
{ACAD_REACTORS
330
241
102
}
330
241
100
AcDbScale
 70
     0
300
1'-0" = 1'-0"
140
12.0
141
12.0
290
     0
  0
TABLESTYLE
  5
279
102
{ACAD_REACTORS
330
278
102
}
102
{ACAD_XDICTIONARY
360
1320
102
}
330
278
100
AcDbTableStyle
  3
Standard
 70
     0
 71
     0
 40
0.06
 41
0.06
280
     0
281
     0
  7
Standard
140
4.5
170
     2
 62
     0
 63
   257
283
     0
 90
        4
 91
        0
  1

274
    -2
284
     1
 64
     0
275
    -2
285
     1
 65
     0
276
    -2
286
     1
 66
     0
277
    -2
287
     1
 67
     0
278
    -2
288
     1
 68
     0
279
    -2
289
     1
 69
     0
  7
Standard
140
6.0
170
     5
 62
     0
 63
   257
283
     0
 90
        4
 91
        0
  1

274
    -2
284
     1
 64
     0
275
    -2
285
     1
 65
     0
276
    -2
286
     1
 66
     0
277
    -2
287
     1
 67
     0
278
    -2
288
     1
 68
     0
279
    -2
289
     1
 69
     0
  7
Standard
140
4.5
170
     5
 62
     0
 63
   257
283
     0
 90
        4
 91
        0
  1

274
    -2
284
     1
 64
     0
275
    -2
285
     1
 65
     0
276
    -2
286
     1
 66
     0
277
    -2
287
     1
 67
     0
278
    -2
288
     1
 68
     0
279
    -2
289
     1
 69
     0
  0
VISUALSTYLE
  5
26C
102
{ACAD_REACTORS
330
267
102
}
330
267
100
AcDbVisualStyle
  2
2dWireframe
 70
     4
 71
     0
 72
     2
 73
     0
 90
        0
 40
-0.6
 41
-30.0
 62
     5
 63
     7
421
 16777215
 74
     1
 91
        4
 64
     7
 65
   257
 75
     1
175
     1
 42
1.0
 92
        0
 66
   257
 43
1.0
 76
     1
 77
     6
 78
     2
 67
     7
 79
     5
170
     0
171
     0
290
     0
174
     0
 93
        1
 44
0.0
173
     0
291
     0
 45
0.0
  0
VISUALSTYLE
  5
26E
102
{ACAD_REACTORS
330
267
102
}
330
267
100
AcDbVisualStyle
  2
3D Hidden
 70
     6
 71
     1
 72
     2
 73
     2
 90
        0
 40
-0.6
 41
-30.0
 62
     5
 63
     7
421
 16777215
 74
     2
 91
        2
 64
     7
 65
   257
 75
     2
175
     1
 42
40.0
 92
        0
 66
   257
 43
1.0
 76
     1
 77
     6
 78
     2
 67
     7
 79
     3
170
     0
171
     0
290
     0
174
     0
 93
        1
 44
0.0
173
     0
291
     0
 45
0.0
  0
VISUALSTYLE
  5
26D
102
{ACAD_REACTORS
330
267
102
}
330
267
100
AcDbVisualStyle
  2
3dWireframe
 70
     5
 71
     0
 72
     2
 73
     0
 90
        0
 40
-0.6
 41
-30.0
 62
     5
 63
     7
421
 16777215
 74
     1
 91
        4
 64
     7
 65
   257
 75
     1
175
     1
 42
1.0
 92
        0
 66
   257
 43
1.0
 76
     1
 77
     6
 78
     2
 67
     7
 79
     5
170
     0
171
     0
290
     0
174
     0
 93
        1
 44
0.0
173
     0
291
     0
 45
0.0
  0
VISUALSTYLE
  5
26F
102
{ACAD_REACTORS
330
267
102
}
330
267
100
AcDbVisualStyle
  2
Basic
 70
     7
 71
     1
 72
     0
 73
     1
 90
        0
 40
-0.6
 41
-30.0
 62
     5
 63
     7
421
 16777215
 74
     0
 91
        4
 64
     7
 65
   257
 75
     1
175
     1
 42
1.0
 92
        8
 66
     7
 43
1.0
 76
     1
 77
     6
 78
     2
 67
     7
 79
     5
170
     0
171
     0
290
     0
174
     0
 93
        1
 44
0.0
173
     0
291
     1
 45
0.0
  0
VISUALSTYLE
  5
273
102
{ACAD_REACTORS
330
267
102
}
330
267
100
AcDbVisualStyle
  2
Brighten
 70
    12
 71
     2
 72
     2
 73
     0
 90
        0
 40
-0.6
 41
-30.0
 62
     5
 63
     7
421
 16777215
 74
     1
 91
        4
 64
     7
 65
   257
 75
     1
175
     1
 42
1.0
 92
        8
 66
     7
 43
1.0
 76
     1
 77
     6
 78
     2
 67
     7
 79
     5
170
     0
171
     0
290
     0
174
     0
 93
        1
 44
50.0
173
     0
291
     1
 45
0.0
  0
VISUALSTYLE
  5
277
102
{ACAD_REACTORS
330
267
102
}
330
267
100
AcDbVisualStyle
  2
ColorChange
 70
    16
 71
     2
 72
     2
 73
     3
 90
        0
 40
-0.6
 41
-30.0
 62
     5
 63
     8
421
  8421504
 74
     1
 91
        4
 64
     7
 65
   257
 75
     1
175
     1
 42
1.0
 92
        8
 66
     8
424
  8421504
 43
1.0
 76
     1
 77
     6
 78
     2
 67
     7
 79
     5
170
     0
171
     0
290
     0
174
     0
 93
        1
 44
0.0
173
     0
291
     1
 45
0.0
  0
VISUALSTYLE
  5
271
102
{ACAD_REACTORS
330
267
102
}
330
267
100
AcDbVisualStyle
  2
Conceptual
 70
     9
 71
     3
 72
     2
 73
     0
 90
        0
 40
-0.6
 41
-30.0
 62
     5
 63
     7
421
 16777215
 74
     2
 91
        2
 64
     7
 65
   257
 75
     1
175
     1
 42
40.0
 92
        8
 66
     7
 43
1.0
 76
     1
 77
     6
 78
     2
 67
     7
 79
     3
170
     0
171
     0
290
     0
174
     0
 93
        1
 44
0.0
173
     0
291
     0
 45
0.0
  0
VISUALSTYLE
  5
272
102
{ACAD_REACTORS
330
267
102
}
330
267
100
AcDbVisualStyle
  2
Dim
 70
    11
 71
     2
 72
     2
 73
     0
 90
        0
 40
-0.6
 41
-30.0
 62
     5
 63
     7
421
 16777215
 74
     1
 91
        4
 64
     7
 65
   257
 75
     1
175
     1
 42
1.0
 92
        8
 66
     7
 43
1.0
 76
     1
 77
     6
 78
     2
 67
     7
 79
     5
170
     0
171
     0
290
     0
174
     0
 93
        1
 44
-50.0
173
     0
291
     1
 45
0.0
  0
VISUALSTYLE
  5
8FE
102
{ACAD_REACTORS
330
267
102
}
330
267
100
AcDbVisualStyle
  2
EdgeColorOff
 70
    22
 71
     2
 72
     2
 73
     0
 90
        0
 40
0.6
 41
30.0
 62
     5
 63
     7
421
 16777215
 74
     1
 91
        4
 64
     7
 65
   257
 75
     1
175
     1
 42
1.0
 92
        8
 66
     7
 43
1.0
 76
     1
 77
     6
 78
     2
 67
     7
 79
     5
170
     0
171
     0
290
     0
174
     0
 93
        1
 44
0.0
173
     0
291
     1
 45
0.0
  0
VISUALSTYLE
  5
276
102
{ACAD_REACTORS
330
267
102
}
330
267
100
AcDbVisualStyle
  2
Facepattern
 70
    15
 71
     2
 72
     2
 73
     0
 90
        0
 40
-0.6
 41
-30.0
 62
     5
 63
     7
421
 16777215
 74
     1
 91
        4
 64
     7
 65
   257
 75
     1
175
     1
 42
1.0
 92
        8
 66
     7
 43
1.0
 76
     1
 77
     6
 78
     2
 67
     7
 79
     5
170
     0
171
     0
290
     0
174
     0
 93
        1
 44
0.0
173
     0
291
     1
 45
0.0
  0
VISUALSTYLE
  5
268
102
{ACAD_REACTORS
330
267
102
}
330
267
100
AcDbVisualStyle
  2
Flat
 70
     0
 71
     2
 72
     1
 73
     1
 90
        2
 40
-0.6
 41
30.0
 62
     5
 63
     7
421
 16777215
 74
     0
 91
        4
 64
     7
 65
   257
 75
     1
175
     1
 42
1.0
 92
        8
 66
     7
 43
1.0
 76
     1
 77
     6
 78
     2
 67
     7
 79
     5
170
     0
171
     0
290
     0
174
     0
 93
       13
 44
0.0
173
     0
291
     1
 45
0.0
  0
VISUALSTYLE
  5
269
102
{ACAD_REACTORS
330
267
102
}
330
267
100
AcDbVisualStyle
  2
FlatWithEdges
 70
     1
 71
     2
 72
     1
 73
     1
 90
        2
 40
-0.6
 41
30.0
 62
     5
 63
     7
421
 16777215
 74
     1
 91
        4
 64
     7
 65
   257
 75
     1
175
     1
 42
1.0
 92
        0
 66
   257
 43
1.0
 76
     1
 77
     6
 78
     2
 67
     7
 79
     5
170
     0
171
     0
290
     0
174
     0
 93
       13
 44
0.0
173
     0
291
     1
 45
0.0
  0
VISUALSTYLE
  5
26A
102
{ACAD_REACTORS
330
267
102
}
330
267
100
AcDbVisualStyle
  2
Gouraud
 70
     2
 71
     2
 72
     2
 73
     1
 90
        2
 40
-0.6
 41
30.0
 62
     5
 63
     7
421
 16777215
 74
     0
 91
        4
 64
     7
 65
   257
 75
     1
175
     1
 42
1.0
 92
        0
 66
     7
 43
1.0
 76
     1
 77
     6
 78
     2
 67
     7
 79
     5
170
     0
171
     0
290
     0
174
     0
 93
       13
 44
0.0
173
     0
291
     1
 45
0.0
  0
VISUALSTYLE
  5
26B
102
{ACAD_REACTORS
330
267
102
}
330
267
100
AcDbVisualStyle
  2
GouraudWithEdges
 70
     3
 71
     2
 72
     2
 73
     1
 90
        2
 40
-0.6
 41
30.0
 62
     5
 63
     7
421
 16777215
 74
     1
 91
        4
 64
     7
 65
   257
 75
     1
175
     1
 42
1.0
 92
        0
 66
   257
 43
1.0
 76
     1
 77
     6
 78
     2
 67
     7
 79
     5
170
     0
171
     0
290
     0
174
     0
 93
       13
 44
0.0
173
     0
291
     1
 45
0.0
  0
VISUALSTYLE
  5
8FB
102
{ACAD_REACTORS
330
267
102
}
330
267
100
AcDbVisualStyle
  2
Hidden
 70
     6
 71
     1
 72
     2
 73
     2
 90
        0
 40
0.6
 41
30.0
 62
     5
 63
     7
421
 16777215
 74
     2
 91
        2
 64
     7
 65
   257
 75
     2
175
     1
 42
40.0
 92
        0
 66
   257
 43
1.0
 76
     1
 77
     6
 78
     2
 67
     7
 79
     3
170
     0
171
     0
290
     0
174
     0
 93
        1
 44
0.0
173
     0
291
     0
 45
0.0
  0
VISUALSTYLE
  5
8FC
102
{ACAD_REACTORS
330
267
102
}
330
267
100
AcDbVisualStyle
  2
JitterOff
 70
    20
 71
     2
 72
     2
 73
     0
 90
        0
 40
0.6
 41
30.0
 62
     5
 63
     7
421
 16777215
 74
     1
 91
        4
 64
     7
 65
   257
 75
     1
175
     1
 42
1.0
 92
       10
 66
     7
 43
1.0
 76
     1
 77
     6
 78
     2
 67
     7
 79
     5
170
     0
171
     0
290
     0
174
     0
 93
        1
 44
0.0
173
     0
291
     1
 45
0.0
  0
VISUALSTYLE
  5
275
102
{ACAD_REACTORS
330
267
102
}
330
267
100
AcDbVisualStyle
  2
Linepattern
 70
    14
 71
     2
 72
     2
 73
     0
 90
        0
 40
-0.6
 41
-30.0
 62
     5
 63
     7
421
 16777215
 74
     1
 91
        4
 64
     7
 65
   257
 75
     7
175
     7
 42
1.0
 92
        8
 66
     7
 43
1.0
 76
     1
 77
     6
 78
     2
 67
     7
 79
     5
170
     0
171
     0
290
     0
174
     0
 93
        1
 44
0.0
173
     0
291
     1
 45
0.0
  0
VISUALSTYLE
  5
8FD
102
{ACAD_REACTORS
330
267
102
}
330
267
100
AcDbVisualStyle
  2
OverhangOff
 70
    21
 71
     2
 72
     2
 73
     0
 90
        0
 40
0.6
 41
30.0
 62
     5
 63
     7
421
 16777215
 74
     1
 91
        4
 64
     7
 65
   257
 75
     1
175
     1
 42
1.0
 92
        9
 66
     7
 43
1.0
 76
     1
 77
     6
 78
     2
 67
     7
 79
     5
170
     0
171
     0
290
     0
174
     0
 93
        1
 44
0.0
173
     0
291
     1
 45
0.0
  0
VISUALSTYLE
  5
270
102
{ACAD_REACTORS
330
267
102
}
330
267
100
AcDbVisualStyle
  2
Realistic
 70
     8
 71
     2
 72
     2
 73
     0
 90
        0
 40
-0.6
 41
-30.0
 62
     5
 63
     7
421
 16777215
 74
     1
 91
        0
 64
     7
 65
   257
 75
     1
175
     1
 42
1.0
 92
        8
 66
     8
424
  7895160
 43
1.0
 76
     1
 77
     6
 78
     2
 67
     7
 79
     5
170
     0
171
     0
290
     0
174
     0
 93
       13
 44
0.0
173
     0
291
     0
 45
0.0
  0
VISUALSTYLE
  5
903
102
{ACAD_REACTORS
330
267
102
}
330
267
100
AcDbVisualStyle
  2
Shaded
 70
    27
 71
     2
 72
     2
 73
     1
 90
        2
 40
0.6
 41
30.0
 62
     5
 63
     7
421
 16777215
 74
     0
 91
        4
 64
     7
 65
   257
 75
     1
175
     1
 42
1.0
 92
        8
 66
   257
 43
1.0
 76
     1
 77
     6
 78
     2
 67
     8
425
  7895160
 79
     3
170
     0
171
     0
290
     0
174
     0
 93
        5
 44
0.0
173
     0
291
     0
 45
0.0
  0
VISUALSTYLE
  5
902
102
{ACAD_REACTORS
330
267
102
}
330
267
100
AcDbVisualStyle
  2
Shaded with edges
 70
    26
 71
     2
 72
     2
 73
     1
 90
        2
 40
0.6
 41
30.0
 62
     5
 63
     7
421
 16777215
 74
     1
 91
       10
 64
     7
 65
   257
 75
     2
175
     1
 42
1.0
 92
        8
 66
   257
 43
1.0
 76
     1
 77
     6
 78
     2
 67
     7
 79
     3
170
     0
171
     0
290
     0
174
     0
 93
        5
 44
0.0
173
     0
291
     0
 45
0.0
  0
VISUALSTYLE
  5
8FF
102
{ACAD_REACTORS
330
267
102
}
330
267
100
AcDbVisualStyle
  2
Shades of Gray
 70
    23
 71
     2
 72
     2
 73
     3
 90
        0
 40
0.6
 41
30.0
 62
     5
 63
     7
421
 16777215
 74
     2
 91
        2
 64
     7
 65
     7
 75
     1
175
     1
 42
40.0
 92
        8
 66
     7
 43
1.0
 76
     1
 77
     6
 78
     2
 67
     7
 79
     3
170
     0
171
     0
290
     0
174
     0
 93
        1
 44
0.0
173
     0
291
     0
 45
0.0
  0
VISUALSTYLE
  5
900
102
{ACAD_REACTORS
330
267
102
}
330
267
100
AcDbVisualStyle
  2
Sketchy
 70
    24
 71
     1
 72
     2
 73
     2
 90
        0
 40
0.6
 41
30.0
 62
     5
 63
     7
421
 16777215
 74
     2
 91
        2
 64
     7
 65
     7
 75
     1
175
     1
 42
40.0
 92
       11
 66
     7
 43
1.0
 76
     1
 77
     6
 78
     2
 67
     7
 79
     6
170
     0
171
     0
290
     0
174
     0
 93
        1
 44
0.0
173
     0
291
     0
 45
0.0
  0
VISUALSTYLE
  5
274
102
{ACAD_REACTORS
330
267
102
}
330
267
100
AcDbVisualStyle
  2
Thicken
 70
    13
 71
     2
 72
     2
 73
     0
 90
        0
 40
-0.6
 41
-30.0
 62
     5
 63
     7
421
 16777215
 74
     1
 91
        4
 64
     7
 65
   257
 75
     1
175
     1
 42
1.0
 92
       12
 66
     7
 43
1.0
 76
     1
 77
     6
 78
     2
 67
     7
 79
     5
170
     0
171
     0
290
     0
174
     0
 93
        1
 44
0.0
173
     0
291
     1
 45
0.0
  0
VISUALSTYLE
  5
8FA
102
{ACAD_REACTORS
330
267
102
}
330
267
100
AcDbVisualStyle
  2
Wireframe
 70
     5
 71
     0
 72
     2
 73
     0
 90
        0
 40
0.6
 41
30.0
 62
     5
 63
     7
421
 16777215
 74
     1
 91
        4
 64
     7
 65
   257
 75
     1
175
     1
 42
1.0
 92
        0
 66
   257
 43
1.0
 76
     1
 77
     6
 78
     2
 67
     7
 79
     3
170
     0
171
     0
290
     0
174
     0
 93
        1
 44
0.0
173
     0
291
     0
 45
0.0
  0
VISUALSTYLE
  5
901
102
{ACAD_REACTORS
330
267
102
}
330
267
100
AcDbVisualStyle
  2
X-Ray
 70
    25
 71
     2
 72
     2
 73
     1
 90
        1
 40
0.5
 41
30.0
 62
     5
 63
     7
421
 16777215
 74
     1
 91
        0
 64
     7
 65
   257
 75
     1
175
     1
 42
1.0
 92
        8
 66
     7
 43
1.0
 76
     1
 77
     6
 78
     2
 67
     7
 79
     3
170
     0
171
     0
290
     0
174
     0
 93
       13
 44
0.0
173
     0
291
     0
 45
0.0
  0
DICTIONARYVAR
  5
331
102
{ACAD_REACTORS
330
330
102
}
330
330
100
DictionaryVariables
280
     0
  1
1:1
  0
DICTIONARYVAR
  5
D5E
102
{ACAD_REACTORS
330
330
102
}
330
330
100
DictionaryVariables
280
     0
  1
Standard
  0
DICTIONARYVAR
  5
335
102
{ACAD_REACTORS
330
330
102
}
330
330
100
DictionaryVariables
280
     0
  1
Standard
  0
DICTIONARYVAR
  5
D52
102
{ACAD_REACTORS
330
330
102
}
330
330
100
DictionaryVariables
280
     0
  1
ByLayer
  0
DICTIONARYVAR
  5
896
102
{ACAD_REACTORS
330
330
102
}
330
330
100
DictionaryVariables
280
     0
  1
0
  0
XRECORD
  5
7AA
102
{ACAD_REACTORS
330
2E2
102
}
330
2E2
100
AcDbXrecord
280
     1
 91
    34815
301

290
     0
302
HIDDEN
330
14
 90
        8
 62
     7
370
    -3
331
13
  1
Color_7
440
 33554687
330
4B
 90
        8
 62
     7
370
    20
331
13
  1
Color_7
440
 33554687
330
4C
 90
        8
 62
     3
370
    13
331
13
  1
Color_3
440
 33554687
330
4D
 90
        8
 62
     7
370
    20
331
13
  1
Color_7
440
 33554687
330
667
 90
        8
 62
     7
370
    -3
331
13
  1
Color_7
440
 33554687
330
0
 90
        8
 62
     8
370
    20
331
0
  1
Color_8
440
 33554687
330
D6B
 90
        0
 62
     4
370
    20
331
D6C
  1
Color_4
440
 33554687
330
D8C
 90
        0
 62
     7
370
    -3
331
13
  1
Color_7
440
 33554687
  0
DICTIONARY
  5
1320
330
279
100
AcDbDictionary
280
     1
281
     1
  3
ACAD_ROUNDTRIP_2008_TABLESTYLE_CELLSTYLEMAP
360
1321
  0
CELLSTYLEMAP
  5
1321
102
{ACAD_REACTORS
330
1320
102
}
330
1320
100
AcDbCellStyleMap
 90
        3
300
CELLSTYLE
  1
TABLEFORMAT_BEGIN
 90
        5
170
     1
 91
        0
 92
    32768
 62
   257
 93
        1
300
CONTENTFORMAT
  1
CONTENTFORMAT_BEGIN
 90
        0
 91
        0
 92
        4
 93
        0
300

 40
0.0
140
1.0
 94
        5
 62
     0
340
17
144
6.0
309
CONTENTFORMAT_END
171
     1
301
MARGIN
  1
CELLMARGIN_BEGIN
 40
0.06
 40
0.06
 40
0.06
 40
0.06
 40
0.18
 40
0.18
309
CELLMARGIN_END
 94
        6
 95
        1
302
GRIDFORMAT
  1
GRIDFORMAT_BEGIN
 90
        0
 91
        1
 62
     0
 92
       -2
340
0
 93
        0
 40
0.045
309
GRIDFORMAT_END
 95
        2
302
GRIDFORMAT
  1
GRIDFORMAT_BEGIN
 90
        0
 91
        1
 62
     0
 92
       -2
340
0
 93
        0
 40
0.045
309
GRIDFORMAT_END
 95
        4
302
GRIDFORMAT
  1
GRIDFORMAT_BEGIN
 90
        0
 91
        1
 62
     0
 92
       -2
340
0
 93
        0
 40
0.045
309
GRIDFORMAT_END
 95
        8
302
GRIDFORMAT
  1
GRIDFORMAT_BEGIN
 90
        0
 91
        1
 62
     0
 92
       -2
340
0
 93
        0
 40
0.045
309
GRIDFORMAT_END
 95
       16
302
GRIDFORMAT
  1
GRIDFORMAT_BEGIN
 90
        0
 91
        1
 62
     0
 92
       -2
340
0
 93
        0
 40
0.045
309
GRIDFORMAT_END
 95
       32
302
GRIDFORMAT
  1
GRIDFORMAT_BEGIN
 90
        0
 91
        1
 62
     0
 92
       -2
340
0
 93
        0
 40
0.045
309
GRIDFORMAT_END
309
TABLEFORMAT_END
  1
CELLSTYLE_BEGIN
 90
        1
 91
        1
300
_TITLE
309
CELLSTYLE_END
300
CELLSTYLE
  1
TABLEFORMAT_BEGIN
 90
        5
170
     1
 91
        0
 92
        0
 62
   257
 93
        1
300
CONTENTFORMAT
  1
CONTENTFORMAT_BEGIN
 90
        0
 91
        0
 92
        4
 93
        0
300

 40
0.0
140
1.0
 94
        5
 62
     0
340
17
144
4.5
309
CONTENTFORMAT_END
171
     1
301
MARGIN
  1
CELLMARGIN_BEGIN
 40
0.06
 40
0.06
 40
0.06
 40
0.06
 40
0.18
 40
0.18
309
CELLMARGIN_END
 94
        6
 95
        1
302
GRIDFORMAT
  1
GRIDFORMAT_BEGIN
 90
        0
 91
        1
 62
     0
 92
       -2
340
0
 93
        0
 40
0.045
309
GRIDFORMAT_END
 95
        2
302
GRIDFORMAT
  1
GRIDFORMAT_BEGIN
 90
        0
 91
        1
 62
     0
 92
       -2
340
0
 93
        0
 40
0.045
309
GRIDFORMAT_END
 95
        4
302
GRIDFORMAT
  1
GRIDFORMAT_BEGIN
 90
        0
 91
        1
 62
     0
 92
       -2
340
0
 93
        0
 40
0.045
309
GRIDFORMAT_END
 95
        8
302
GRIDFORMAT
  1
GRIDFORMAT_BEGIN
 90
        0
 91
        1
 62
     0
 92
       -2
340
0
 93
        0
 40
0.045
309
GRIDFORMAT_END
 95
       16
302
GRIDFORMAT
  1
GRIDFORMAT_BEGIN
 90
        0
 91
        1
 62
     0
 92
       -2
340
0
 93
        0
 40
0.045
309
GRIDFORMAT_END
 95
       32
302
GRIDFORMAT
  1
GRIDFORMAT_BEGIN
 90
        0
 91
        1
 62
     0
 92
       -2
340
0
 93
        0
 40
0.045
309
GRIDFORMAT_END
309
TABLEFORMAT_END
  1
CELLSTYLE_BEGIN
 90
        2
 91
        1
300
_HEADER
309
CELLSTYLE_END
300
CELLSTYLE
  1
TABLEFORMAT_BEGIN
 90
        5
170
     1
 91
        0
 92
        0
 62
   257
 93
        1
300
CONTENTFORMAT
  1
CONTENTFORMAT_BEGIN
 90
        0
 91
        0
 92
        4
 93
        0
300

 40
0.0
140
1.0
 94
        2
 62
     0
340
17
144
4.5
309
CONTENTFORMAT_END
171
     1
301
MARGIN
  1
CELLMARGIN_BEGIN
 40
0.06
 40
0.06
 40
0.06
 40
0.06
 40
0.18
 40
0.18
309
CELLMARGIN_END
 94
        6
 95
        1
302
GRIDFORMAT
  1
GRIDFORMAT_BEGIN
 90
        0
 91
        1
 62
     0
 92
       -2
340
0
 93
        0
 40
0.045
309
GRIDFORMAT_END
 95
        2
302
GRIDFORMAT
  1
GRIDFORMAT_BEGIN
 90
        0
 91
        1
 62
     0
 92
       -2
340
0
 93
        0
 40
0.045
309
GRIDFORMAT_END
 95
        4
302
GRIDFORMAT
  1
GRIDFORMAT_BEGIN
 90
        0
 91
        1
 62
     0
 92
       -2
340
0
 93
        0
 40
0.045
309
GRIDFORMAT_END
 95
        8
302
GRIDFORMAT
  1
GRIDFORMAT_BEGIN
 90
        0
 91
        1
 62
     0
 92
       -2
340
0
 93
        0
 40
0.045
309
GRIDFORMAT_END
 95
       16
302
GRIDFORMAT
  1
GRIDFORMAT_BEGIN
 90
        0
 91
        1
 62
     0
 92
       -2
340
0
 93
        0
 40
0.045
309
GRIDFORMAT_END
 95
       32
302
GRIDFORMAT
  1
GRIDFORMAT_BEGIN
 90
        0
 91
        1
 62
     0
 92
       -2
340
0
 93
        0
 40
0.045
309
GRIDFORMAT_END
309
TABLEFORMAT_END
  1
CELLSTYLE_BEGIN
 90
        3
 91
        2
300
_DATA
309
CELLSTYLE_END
  0
ENDSEC
  0
EOF
