  0
SECTION
  2
HEADER
  9
$ACADVER
  1
AC1021
  9
$ACADMAINTVER
 70
    25
  9
$DWGCODEPAGE
  3
ANSI_932
  9
$LASTSAVEDBY
  1
howeNelson
  9
$INSBASE
 10
0.0
 20
0.0
 30
0.0
  9
$EXTMIN
 10
0.0
 20
0.0
 30
-0.0000000000000071
  9
$EXTMAX
 10
630.0
 20
891.0
 30
0.0000000000000071
  9
$LIMMIN
 10
0.0
 20
0.0
  9
$LIMMAX
 10
630.0
 20
891.0
  9
$ORTHOMODE
 70
     0
  9
$REGENMODE
 70
     1
  9
$FILLMODE
 70
     1
  9
$QTEXTMODE
 70
     0
  9
$MIRRTEXT
 70
     1
  9
$LTSCALE
 40
2.5
  9
$ATTMODE
 70
     1
  9
$TEXTSIZE
 40
2.5
  9
$TRACEWID
 40
1.0
  9
$TEXTSTYLE
  7
ＭＳ ゴシック
  9
$CLAYER
  8
DIM
  9
$CELTYPE
  6
ByLayer
  9
$CECOLOR
 62
   256
  9
$CELTSCALE
 40
1.0
  9
$DISPSILH
 70
     0
  9
$DIMSCALE
 40
1.0
  9
$DIMASZ
 40
3.0
  9
$DIMEXO
 40
10.0
  9
$DIMDLI
 40
0.0
  9
$DIMRND
 40
0.0
  9
$DIMDLE
 40
0.0
  9
$DIMEXE
 40
0.0
  9
$DIMTP
 40
0.0
  9
$DIMTM
 40
0.0
  9
$DIMTXT
 40
7.0
  9
$DIMCEN
 40
0.0
  9
$DIMTSZ
 40
0.0
  9
$DIMTOL
 70
     0
  9
$DIMLIM
 70
     0
  9
$DIMTIH
 70
     0
  9
$DIMTOH
 70
     0
  9
$DIMSE1
 70
     0
  9
$DIMSE2
 70
     0
  9
$DIMTAD
 70
     1
  9
$DIMZIN
 70
    11
  9
$DIMBLK
  1
DOT
  9
$DIMASO
 70
     1
  9
$DIMSHO
 70
     1
  9
$DIMPOST
  1
<>
  9
$DIMAPOST
  1
[]
  9
$DIMALT
 70
     0
  9
$DIMALTD
 70
     1
  9
$DIMALTF
 40
1.0
  9
$DIMLFAC
 40
1.0
  9
$DIMTOFL
 70
     0
  9
$DIMTVP
 40
0.0
  9
$DIMTIX
 70
     1
  9
$DIMSOXD
 70
     0
  9
$DIMSAH
 70
     0
  9
$DIMBLK1
  1

  9
$DIMBLK2
  1

  9
$DIMSTYLE
  2
tfrom線あり
  9
$DIMCLRD
 70
     0
  9
$DIMCLRE
 70
     0
  9
$DIMCLRT
 70
     0
  9
$DIMTFAC
 40
1.0
  9
$DIMGAP
 40
4.0
  9
$DIMJUST
 70
     0
  9
$DIMSD1
 70
     0
  9
$DIMSD2
 70
     0
  9
$DIMTOLJ
 70
     1
  9
$DIMTZIN
 70
    11
  9
$DIMALTZ
 70
    11
  9
$DIMALTTZ
 70
    11
  9
$DIMUPT
 70
     0
  9
$DIMDEC
 70
     0
  9
$DIMTDEC
 70
     1
  9
$DIMALTU
 70
     2
  9
$DIMALTTD
 70
     2
  9
$DIMTXSTY
  7
ＭＳ ゴシック
  9
$DIMAUNIT
 70
     0
  9
$DIMADEC
 70
     2
  9
$DIMALTRND
 40
0.0
  9
$DIMAZIN
 70
     0
  9
$DIMDSEP
 70
    46
  9
$DIMATFIT
 70
     0
  9
$DIMFRAC
 70
     2
  9
$DIMLDRBLK
  1
DOT
  9
$DIMLUNIT
 70
     2
  9
$DIMLWD
 70
    -2
  9
$DIMLWE
 70
    -2
  9
$DIMTMOVE
 70
     0
  9
$DIMFXL
 40
1.0
  9
$DIMFXLON
 70
     0
  9
$DIMJOGANG
 40
0.7853981633974483
  9
$DIMTFILL
 70
     0
  9
$DIMTFILLCLR
 70
     0
  9
$DIMARCSYM
 70
     0
  9
$DIMLTYPE
  6

  9
$DIMLTEX1
  6

  9
$DIMLTEX2
  6

  9
$LUNITS
 70
     2
  9
$LUPREC
 70
     0
  9
$SKETCHINC
 40
0.1
  9
$FILLETRAD
 40
0.0
  9
$AUNITS
 70
     0
  9
$AUPREC
 70
     0
  9
$MENU
  1
acad
  9
$ELEVATION
 40
0.0
  9
$PELEVATION
 40
0.0
  9
$THICKNESS
 40
0.0
  9
$LIMCHECK
 70
     0
  9
$CHAMFERA
 40
0.0
  9
$CHAMFERB
 40
0.0
  9
$CHAMFERC
 40
0.0
  9
$CHAMFERD
 40
0.0
  9
$SKPOLY
 70
     0
  9
$TDCREATE
 40
2447893.375
  9
$TDUCREATE
 40
0.0
  9
$TDUPDATE
 40
2457989.665115671
  9
$TDUUPDATE
 40
2457989.290115671
  9
$TDINDWG
 40
0.0
  9
$TDUSRTIMER
 40
0.0
  9
$USRTIMER
 70
     1
  9
$ANGBASE
 50
0.0
  9
$ANGDIR
 70
     0
  9
$PDMODE
 70
     1
  9
$PDSIZE
 40
-2.0
  9
$PLINEWID
 40
0.0
  9
$SPLFRAME
 70
     0
  9
$SPLINETYPE
 70
     6
  9
$SPLINESEGS
 70
     8
  9
$HANDSEED
  5
27F5
  9
$SURFTAB1
 70
     6
  9
$SURFTAB2
 70
     6
  9
$SURFTYPE
 70
     6
  9
$SURFU
 70
     6
  9
$SURFV
 70
     6
  9
$UCSBASE
  2

  9
$UCSNAME
  2

  9
$UCSORG
 10
0.0
 20
0.0
 30
0.0
  9
$UCSXDIR
 10
1.0
 20
0.0
 30
0.0
  9
$UCSYDIR
 10
0.0
 20
1.0
 30
0.0
  9
$UCSORTHOREF
  2

  9
$UCSORTHOVIEW
 70
     0
  9
$UCSORGTOP
 10
0.0
 20
0.0
 30
0.0
  9
$UCSORGBOTTOM
 10
0.0
 20
0.0
 30
0.0
  9
$UCSORGLEFT
 10
0.0
 20
0.0
 30
0.0
  9
$UCSORGRIGHT
 10
0.0
 20
0.0
 30
0.0
  9
$UCSORGFRONT
 10
0.0
 20
0.0
 30
0.0
  9
$UCSORGBACK
 10
0.0
 20
0.0
 30
0.0
  9
$PUCSBASE
  2

  9
$PUCSNAME
  2

  9
$PUCSORG
 10
0.0
 20
0.0
 30
0.0
  9
$PUCSXDIR
 10
1.0
 20
0.0
 30
0.0
  9
$PUCSYDIR
 10
0.0
 20
1.0
 30
0.0
  9
$PUCSORTHOREF
  2

  9
$PUCSORTHOVIEW
 70
     0
  9
$PUCSORGTOP
 10
0.0
 20
0.0
 30
0.0
  9
$PUCSORGBOTTOM
 10
0.0
 20
0.0
 30
0.0
  9
$PUCSORGLEFT
 10
0.0
 20
0.0
 30
0.0
  9
$PUCSORGRIGHT
 10
0.0
 20
0.0
 30
0.0
  9
$PUCSORGFRONT
 10
0.0
 20
0.0
 30
0.0
  9
$PUCSORGBACK
 10
0.0
 20
0.0
 30
0.0
  9
$USERI1
 70
     0
  9
$USERI2
 70
     0
  9
$USERI3
 70
     0
  9
$USERI4
 70
     0
  9
$USERI5
 70
     0
  9
$USERR1
 40
0.0
  9
$USERR2
 40
0.0
  9
$USERR3
 40
0.0
  9
$USERR4
 40
0.0
  9
$USERR5
 40
0.0
  9
$WORLDVIEW
 70
     1
  9
$SHADEDGE
 70
     3
  9
$SHADEDIF
 70
    70
  9
$TILEMODE
 70
     1
  9
$MAXACTVP
 70
    64
  9
$PINSBASE
 10
0.0
 20
0.0
 30
0.0
  9
$PLIMCHECK
 70
     0
  9
$PEXTMIN
 10
0.0
 20
0.0
 30
0.0
  9
$PEXTMAX
 10
0.0
 20
0.0
 30
0.0
  9
$PLIMMIN
 10
-7.5
 20
-20.0
  9
$PLIMMAX
 10
412.5
 20
277.0
  9
$UNITMODE
 70
     0
  9
$VISRETAIN
 70
     0
  9
$PLINEGEN
 70
     1
  9
$PSLTSCALE
 70
     0
  9
$TREEDEPTH
 70
  3020
  9
$CMLSTYLE
  2
Standard
  9
$CMLJUST
 70
     0
  9
$CMLSCALE
 40
1.0
  9
$PROXYGRAPHICS
 70
     0
  9
$MEASUREMENT
 70
     1
  9
$CELWEIGHT
370
    -1
  9
$ENDCAPS
280
     0
  9
$JOINSTYLE
280
     0
  9
$LWDISPLAY
290
     1
  9
$INSUNITS
 70
     4
  9
$HYPERLINKBASE
  1

  9
$STYLESHEET
  1

  9
$XEDIT
290
     1
  9
$CEPSNTYPE
380
     0
  9
$PSTYLEMODE
290
     1
  9
$FINGERPRINTGUID
  2

  9
$VERSIONGUID
  2

  9
$EXTNAMES
290
     1
  9
$PSVPSCALE
 40
0.0
  9
$OLESTARTUP
290
     0
  9
$SORTENTS
280
   127
  9
$INDEXCTL
280
     0
  9
$HIDETEXT
280
     1
  9
$XCLIPFRAME
290
     0
  9
$HALOGAP
280
     0
  9
$OBSCOLOR
 70
   257
  9
$OBSLTYPE
280
     0
  9
$INTERSECTIONDISPLAY
280
     0
  9
$INTERSECTIONCOLOR
 70
   257
  9
$DIMASSOC
280
     2
  9
$PROJECTNAME
  1

  9
$CAMERADISPLAY
290
     0
  9
$LENSLENGTH
 40
50.0
  9
$CAMERAHEIGHT
 40
0.0
  9
$STEPSPERSEC
 40
2.0
  9
$STEPSIZE
 40
6.0
  9
$3DDWFPREC
 40
2.0
  9
$PSOLWIDTH
 40
0.25
  9
$PSOLHEIGHT
 40
4.0
  9
$LOFTANG1
 40
1.570796326794897
  9
$LOFTANG2
 40
1.570796326794897
  9
$LOFTMAG1
 40
0.0
  9
$LOFTMAG2
 40
0.0
  9
$LOFTPARAM
 70
     7
  9
$LOFTNORMALS
280
     1
  9
$LATITUDE
 40
37.795
  9
$LONGITUDE
 40
-122.394
  9
$NORTHDIRECTION
 40
0.0
  9
$TIMEZONE
 70
 -8000
  9
$LIGHTGLYPHDISPLAY
280
     1
  9
$TILEMODELIGHTSYNCH
280
     1
  9
$SOLIDHIST
280
     1
  9
$SHOWHIST
280
     1
  9
$DWFFRAME
280
     2
  9
$DGNFRAME
280
     2
  9
$REALWORLDSCALE
290
     1
  9
$INTERFERECOLOR
 62
   256
  9
$CSHADOW
280
     0
  9
$SHADOWPLANELOCATION
 40
0.0
  0
ENDSEC
  0
SECTION
  2
CLASSES
  0
CLASS
  1
LWPOLYLINE
  2
AcDbPolyline
  3
ObjectDBX Classes
 90
        0
 91
        1
280
     0
281
     1
  0
CLASS
  1
IMAGE
  2
AcDbRasterImage
  3
ISM
 90
      127
 91
       10
280
     0
281
     1
  0
CLASS
  1
OLE2FRAME
  2
AcDbOle2Frame
  3
ObjectDBX Classes
 90
        0
 91
        1
280
     0
281
     1
  0
CLASS
  1
HATCH
  2
AcDbHatch
  3
ObjectDBX Classes
 90
        0
 91
        1
280
     0
281
     1
  0
CLASS
  1
DICTIONARYVAR
  2
AcDbDictionaryVar
  3
ObjectDBX Classes
 90
        0
 91
        9
280
     0
281
     0
  0
CLASS
  1
RASTERVARIABLES
  2
AcDbRasterVariables
  3
ISM
 90
        0
 91
        9
280
     0
281
     0
  0
CLASS
  1
IMAGEDEF
  2
AcDbRasterImageDef
  3
ISM
 90
        0
 91
        9
280
     0
281
     0
  0
CLASS
  1
IMAGEDEF_REACTOR
  2
AcDbRasterImageDefReactor
  3
ISM
 90
        1
 91
        9
280
     0
281
     0
  0
CLASS
  1
IDBUFFER
  2
AcDbIdBuffer
  3
ObjectDBX Classes
 90
        0
 91
        9
280
     0
281
     0
  0
CLASS
  1
SPATIAL_FILTER
  2
AcDbSpatialFilter
  3
ObjectDBX Classes
 90
        0
 91
        9
280
     0
281
     0
  0
CLASS
  1
XRECORD
  2
AcDbXrecord
  3
ObjectDBX Classes
 90
        0
 91
        1
280
     0
281
     0
  0
CLASS
  1
SORTENTSTABLE
  2
AcDbSortentsTable
  3
ObjectDBX Classes
 90
        0
 91
        9
280
     0
281
     0
  0
CLASS
  1
LAYER_INDEX
  2
AcDbLayerIndex
  3
ObjectDBX Classes
 90
        0
 91
        9
280
     0
281
     0
  0
CLASS
  1
SPATIAL_INDEX
  2
AcDbSpatialIndex
  3
AutoCAD 2000
 90
        0
 91
        9
280
     0
281
     0
  0
CLASS
  1
OBJECT_PTR
  2
CAseDLPNTableRecord
  3
ASE-LPNTableRecord
 90
        1
 91
        9
280
     0
281
     0
  0
CLASS
  1
LAYOUT
  2
AcDbLayout
  3
ObjectDBX Classes
 90
        0
 91
        1
280
     0
281
     0
  0
CLASS
  1
PLOTSETTINGS
  2
AcDbPlotSettings
  3
ObjectDBX Classes
 90
        0
 91
        9
280
     0
281
     0
  0
CLASS
  1
ACDBDICTIONARYWDFLT
  2
AcDbDictionaryWithDefault
  3
ObjectDBX Classes
 90
        0
 91
        9
280
     0
281
     0
  0
CLASS
  1
ACDBPLACEHOLDER
  2
AcDbPlaceHolder
  3
ObjectDBX Classes
 90
        0
 91
        1
280
     0
281
     0
  0
CLASS
  1
SCALE
  2
AcDbScale
  3
ObjectDBX Classes
 90
     1153
 91
        9
280
     0
281
     0
  0
CLASS
  1
MATERIAL
  2
AcDbMaterial
  3
ObjectDBX Classes
 90
     1153
 91
        9
280
     0
281
     0
  0
CLASS
  1
VISUALSTYLE
  2
AcDbVisualStyle
  3
ObjectDBX Classes
 90
     4095
 91
        9
280
     0
281
     0
  0
CLASS
  1
TABLESTYLE
  2
AcDbTableStyle
  3
ObjectDBX Classes
 90
     4095
 91
        9
280
     0
281
     0
  0
CLASS
  1
DIMASSOC
  2
AcDbDimAssoc
  3
"AcDbDimAssoc|Product Desc:     AcDim ARX App For Dimension|Company:          Autodesk, Inc.|WEB Address:      www.autodesk.com"
 90
        0
 91
        9
280
     0
281
     0
  0
CLASS
  1
CELLSTYLEMAP
  2
AcDbCellStyleMap
  3
ObjectDBX Classes
 90
     1152
 91
        9
280
     0
281
     0
  0
CLASS
  1
SUN
  2
AcDbSun
  3
SCENEOE
 90
     1153
 91
        9
280
     0
281
     0
  0
CLASS
  1
MLEADERSTYLE
  2
AcDbMLeaderStyle
  3
ACDB_MLEADERSTYLE_CLASS
 90
     4095
 91
        9
280
     0
281
     0
  0
CLASS
  1
FIELD
  2
AcDbField
  3
ObjectDBX Classes
 90
     1152
 91
        9
280
     0
281
     0
  0
CLASS
  1
FIELDLIST
  2
AcDbFieldList
  3
ObjectDBX Classes
 90
     1152
 91
        9
280
     0
281
     0
  0
ENDSEC
  0
SECTION
  2
TABLES
  0
TABLE
  2
VPORT
  5
7
330
0
100
AcDbSymbolTable
 70
     1
  0
VPORT
  5
15
330
7
100
AcDbSymbolTableRecord
100
AcDbViewportTableRecord
  2
*ACTIVE
 70
     0
 10
0.0
 20
0.0
 11
1.0
 21
1.0
 12
406.0201356708976
 22
371.901285469834
 13
0.0
 23
0.0
 14
1.0
 24
1.0
 15
0.0
 25
0.0
 16
0.0
 26
0.0
 36
1.0
 17
-91.02013567089756
 27
73.59871453016603
 37
-46.86809886248109
 40
908.82
 41
2.209859154929577
 42
50.0
 43
0.0
 44
0.0
 50
0.0
 51
0.0
 71
    16
 72
  2000
 73
     1
 74
     1
 75
     0
 76
     0
 77
     0
 78
     0
281
     0
 65
     1
110
0.0
120
0.0
130
0.0
111
1.0
121
0.0
131
0.0
112
0.0
122
1.0
132
0.0
 79
     0
146
0.0
348
213A
 60
     3
 61
     5
292
     1
282
     1
141
0.0
142
0.0
 63
   256
361
904
  0
ENDTAB
  0
TABLE
  2
LTYPE
  5
4
330
0
100
AcDbSymbolTable
 70
     3
  0
LTYPE
  5
11
330
4
100
AcDbSymbolTableRecord
100
AcDbLinetypeTableRecord
  2
ByBlock
 70
     0
  3

 72
    65
 73
     0
 40
0.0
  0
LTYPE
  5
12
330
4
100
AcDbSymbolTableRecord
100
AcDbLinetypeTableRecord
  2
ByLayer
 70
     0
  3

 72
    65
 73
     0
 40
0.0
  0
LTYPE
  5
13
330
4
100
AcDbSymbolTableRecord
100
AcDbLinetypeTableRecord
  2
Continuous
 70
     0
  3
Solid line
 72
    65
 73
     0
 40
0.0
  0
LTYPE
  5
D6C
330
4
100
AcDbSymbolTableRecord
100
AcDbLinetypeTableRecord
  2
BORDER
 70
     0
  3
Border __  __  . __  __  . __  __  . __  __  . 
 72
    65
 73
     6
 40
44.45
 49
12.7
 74
     0
 49
-6.35
 74
     0
 49
12.7
 74
     0
 49
-6.35
 74
     0
 49
0.0
 74
     0
 49
-6.35
 74
     0
  0
LTYPE
  5
276C
330
4
100
AcDbSymbolTableRecord
100
AcDbLinetypeTableRecord
  2
CENTER
 70
     0
  3
 Center _____  _  _____  _  _____  _  _____  _ 
 72
    65
 73
     4
 40
50.8
 49
31.75
 74
     0
 49
-6.35
 74
     0
 49
6.35
 74
     0
 49
-6.35
 74
     0
  0
ENDTAB
  0
TABLE
  2
LAYER
  5
2
102
{ACAD_XDICTIONARY
360
2E1
102
}
330
0
100
AcDbSymbolTable
 70
     7
  0
LAYER
  5
14
330
2
100
AcDbSymbolTableRecord
100
AcDbLayerTableRecord
  2
0
 70
     0
 62
     7
  6
Continuous
370
    -3
390
1D
347
266
  0
LAYER
  5
4B
330
2
100
AcDbSymbolTableRecord
100
AcDbLayerTableRecord
  2
TEMPLATE
 70
     0
 62
     7
  6
Continuous
370
    20
390
1D
347
266
  0
LAYER
  5
4C
330
2
100
AcDbSymbolTableRecord
100
AcDbLayerTableRecord
  2
DIM
 70
     0
 62
     3
  6
Continuous
370
    13
390
1D
347
266
  0
LAYER
  5
4D
330
2
100
AcDbSymbolTableRecord
100
AcDbLayerTableRecord
  2
MODEL
 70
     0
 62
     7
  6
Continuous
370
    20
390
1D
347
266
  0
LAYER
  5
667
330
2
100
AcDbSymbolTableRecord
100
AcDbLayerTableRecord
  2
LOGO
 70
     0
 62
     7
  6
Continuous
370
    -3
390
1D
347
266
  0
LAYER
  5
D6B
330
2
100
AcDbSymbolTableRecord
100
AcDbLayerTableRecord
  2
BORDER
 70
     0
 62
     4
  6
BORDER
290
     0
370
    20
390
1D
347
266
1001
AcAecLayerStandard
1000

1000

  0
LAYER
  5
D8C
330
2
100
AcDbSymbolTableRecord
100
AcDbLayerTableRecord
  2
Defpoints
 70
     0
 62
     7
  6
Continuous
290
     0
370
    -3
390
1D
347
266
  0
ENDTAB
  0
TABLE
  2
STYLE
  5
3
330
0
100
AcDbSymbolTable
 70
     5
  0
STYLE
  5
17
330
3
100
AcDbSymbolTableRecord
100
AcDbTextStyleTableRecord
  2
Standard
 70
     0
 40
0.0
 41
1.0
 50
0.0
 71
     0
 42
2.5
  3
txt
  4
BIGFONT.SHX
  0
STYLE
  5
39
330
3
100
AcDbSymbolTableRecord
100
AcDbTextStyleTableRecord
  2
ＭＳ ゴシック
 70
     0
 40
0.0
 41
1.0
 50
0.0
 71
     0
 42
2.5
  3
msgothic.ttc
  4
ＭＳ ゴシック
1001
ACAD
1000
ＭＳ ゴシック
1071
        0
  0
STYLE
  5
384
330
3
100
AcDbSymbolTableRecord
100
AcDbTextStyleTableRecord
  2
ARIAL
 70
     0
 40
0.0
 41
1.0
 50
0.0
 71
     0
 42
12.0
  3
ARIAL.TTF
  4

1001
ACAD
1000
Arial
1071
       34
  0
STYLE
  5
385
330
3
100
AcDbSymbolTableRecord
100
AcDbTextStyleTableRecord
  2
ROMANS
 70
     0
 40
0.0
 41
1.0
 50
0.0
 71
     0
 42
5.0
  3
romans.shx
  4

  0
STYLE
  5
1799
330
3
100
AcDbSymbolTableRecord
100
AcDbTextStyleTableRecord
  2
SLDTEXTSTYLE0
 70
     0
 40
0.0
 41
0.75
 50
0.0
 71
     0
 42
2.5
  3
TXT
  4

  0
ENDTAB
  0
TABLE
  2
VIEW
  5
5
330
0
100
AcDbSymbolTable
 70
     0
  0
ENDTAB
  0
TABLE
  2
UCS
  5
6
330
0
100
AcDbSymbolTable
 70
     0
  0
ENDTAB
  0
TABLE
  2
APPID
  5
8
330
0
100
AcDbSymbolTable
 70
     3
  0
APPID
  5
16
330
8
100
AcDbSymbolTableRecord
100
AcDbRegAppTableRecord
  2
ACAD
 70
     0
  0
APPID
  5
7AC
330
8
100
AcDbSymbolTableRecord
100
AcDbRegAppTableRecord
  2
AcAecLayerStandard
 70
     0
  0
APPID
  5
E29
330
8
100
AcDbSymbolTableRecord
100
AcDbRegAppTableRecord
  2
ACAD_MLEADERVER
 70
     0
  0
ENDTAB
  0
TABLE
  2
DIMSTYLE
  5
9
330
0
100
AcDbSymbolTable
 70
     2
100
AcDbDimStyleTable
  0
DIMSTYLE
105
18
330
9
100
AcDbSymbolTableRecord
100
AcDbDimStyleTableRecord
  2
Standard
 70
     0
178
     0
340
17
  0
DIMSTYLE
105
57
102
{ACAD_REACTORS
330
25C6
330
25C7
330
2604
330
265A
330
265B
330
2754
330
27D6
102
}
330
9
100
AcDbSymbolTableRecord
100
AcDbDimStyleTableRecord
  2
tfrom線あり
 70
     0
  3
<>
  4
[]
 41
3.0
 42
10.0
 43
0.0
 44
0.0
 73
     0
 74
     0
 77
     1
 78
    11
140
7.0
141
0.0
143
1.0
147
4.0
171
     1
174
     1
178
     0
179
     2
271
     0
272
     1
276
     2
284
    11
285
    11
286
    11
289
     0
340
39
341
4E
342
4E
  0
ENDTAB
  0
TABLE
  2
BLOCK_RECORD
  5
1
330
0
100
AcDbSymbolTable
 70
    13
  0
BLOCK_RECORD
  5
A
330
1
100
AcDbSymbolTableRecord
100
AcDbBlockTableRecord
  2
*MODEL_SPACE
340
20
 70
     0
280
     1
281
     0
  0
BLOCK_RECORD
  5
B
330
1
100
AcDbSymbolTableRecord
100
AcDbBlockTableRecord
  2
*PAPER_SPACE
340
21
 70
     0
280
     1
281
     0
  0
BLOCK_RECORD
  5
4E
330
1
100
AcDbSymbolTableRecord
100
AcDbBlockTableRecord
  2
_DOT
340
0
102
{BLKREFS
331
26D3
331
26D4
331
26DF
331
26E0
331
26EB
331
26EC
331
26F7
331
26F8
331
2705
331
2706
331
275D
331
275E
331
0
331
27E0
102
}
 70
     0
280
     1
281
     0
  0
BLOCK_RECORD
  5
68A
330
1
100
AcDbSymbolTableRecord
100
AcDbBlockTableRecord
  2
名称未設定-1
340
0
102
{BLKREFS
331
6B5
102
}
 70
     1
280
     1
281
     0
  0
BLOCK_RECORD
  5
68D
330
1
100
AcDbSymbolTableRecord
100
AcDbBlockTableRecord
  2
block 2
340
0
102
{BLKREFS
331
68C
331
1343
102
}
 70
     0
280
     1
281
     0
  0
BLOCK_RECORD
  5
690
330
1
100
AcDbSymbolTableRecord
100
AcDbBlockTableRecord
  2
block 3
340
0
102
{BLKREFS
331
68F
102
}
 70
     0
280
     1
281
     0
  0
BLOCK_RECORD
  5
693
330
1
100
AcDbSymbolTableRecord
100
AcDbBlockTableRecord
  2
block 4
340
0
102
{BLKREFS
331
692
102
}
 70
     0
280
     1
281
     0
  0
BLOCK_RECORD
  5
6A2
330
1
100
AcDbSymbolTableRecord
100
AcDbBlockTableRecord
  2
block 5
340
0
102
{BLKREFS
331
6A1
102
}
 70
     0
280
     1
281
     0
  0
BLOCK_RECORD
  5
26CD
330
1
100
AcDbSymbolTableRecord
100
AcDbBlockTableRecord
  2
*D6
340
0
 70
     0
280
     1
281
     0
  0
BLOCK_RECORD
  5
26D9
330
1
100
AcDbSymbolTableRecord
100
AcDbBlockTableRecord
  2
*D7
340
0
 70
     0
280
     1
281
     0
  0
BLOCK_RECORD
  5
26E5
330
1
100
AcDbSymbolTableRecord
100
AcDbBlockTableRecord
  2
*D8
340
0
 70
     0
280
     1
281
     0
  0
BLOCK_RECORD
  5
26F1
330
1
100
AcDbSymbolTableRecord
100
AcDbBlockTableRecord
  2
*D9
340
0
 70
     0
280
     1
281
     0
  0
BLOCK_RECORD
  5
26FF
330
1
100
AcDbSymbolTableRecord
100
AcDbBlockTableRecord
  2
*D10
340
0
 70
     0
280
     1
281
     0
  0
BLOCK_RECORD
  5
2757
330
1
100
AcDbSymbolTableRecord
100
AcDbBlockTableRecord
  2
*D11
340
0
 70
     0
280
     1
281
     0
  0
BLOCK_RECORD
  5
27D9
330
1
100
AcDbSymbolTableRecord
100
AcDbBlockTableRecord
  2
*D12
340
0
 70
     0
280
     1
281
     0
  0
ENDTAB
  0
ENDSEC
  0
SECTION
  2
BLOCKS
  0
BLOCK
  5
D
330
A
100
AcDbEntity
  8
0
390
1D
100
AcDbBlockBegin
  2
*MODEL_SPACE
 70
     0
 10
0.0
 20
0.0
 30
0.0
  3
*MODEL_SPACE
  1
*MODEL_SPACE
  0
ENDBLK
  5
E
330
A
100
AcDbEntity
  8
0
390
1D
100
AcDbBlockEnd
  0
BLOCK
  5
F
330
B
100
AcDbEntity
 67
     1
  8
0
390
1D
100
AcDbBlockBegin
  2
*PAPER_SPACE
 70
     0
 10
0.0
 20
0.0
 30
0.0
  3
*PAPER_SPACE
  1
*PAPER_SPACE
  0
ENDBLK
  5
10
330
B
100
AcDbEntity
 67
     1
  8
0
390
1D
100
AcDbBlockEnd
  0
BLOCK
  5
21BD
330
4E
100
AcDbEntity
  8
0
390
1D
100
AcDbBlockBegin
  2
_DOT
 70
     0
 10
0.0
 20
0.0
 30
0.0
  3
_DOT
  1
_DOT
  0
POLYLINE
  5
21BF
330
4E
100
AcDbEntity
  8
0
  6
ByBlock
 62
     0
370
    -2
390
1D
100
AcDb2dPolyline
 66
     1
 10
0.0
 20
0.0
 30
0.0
 70
     1
 40
0.5
 41
0.5
  0
VERTEX
  5
21C0
330
21BF
100
AcDbEntity
  8
0
  6
ByBlock
 62
     0
370
    -2
390
1D
100
AcDbVertex
100
AcDb2dVertex
 10
-0.25
 20
0.0
 30
0.0
 42
1.0
  0
VERTEX
  5
21C1
330
21BF
100
AcDbEntity
  8
0
  6
ByBlock
 62
     0
370
    -2
390
1D
100
AcDbVertex
100
AcDb2dVertex
 10
0.25
 20
0.0
 30
0.0
 42
1.0
  0
SEQEND
  5
21C2
330
21BF
100
AcDbEntity
  8
0
390
1D
  0
LINE
  5
21C3
330
4E
100
AcDbEntity
  8
0
  6
ByBlock
 62
     0
370
    -2
390
1D
100
AcDbLine
 10
-0.5
 20
0.0
 30
0.0
 11
-1.0
 21
0.0
 31
0.0
  0
ENDBLK
  5
21C4
330
4E
100
AcDbEntity
  8
0
390
1D
100
AcDbBlockEnd
  0
BLOCK
  5
68B
330
68A
100
AcDbEntity
  8
0
100
AcDbBlockBegin
  2
名称未設定-1
 70
     0
 10
0.0
 20
0.0
 30
0.0
  3
名称未設定-1
  1
名称未設定-1
  0
INSERT
  5
68F
330
68A
100
AcDbEntity
  8
LOGO
100
AcDbBlockReference
  2
block 3
 10
0.0
 20
0.0
 30
0.0
  0
ENDBLK
  5
6B1
330
68A
100
AcDbEntity
  8
0
100
AcDbBlockEnd
  0
BLOCK
  5
68E
330
68D
100
AcDbEntity
  8
0
100
AcDbBlockBegin
  2
block 2
 70
     0
 10
0.0
 20
0.0
 30
0.0
  3
block 2
  1
block 2
  0
ENDBLK
  5
6B0
330
68D
100
AcDbEntity
  8
0
100
AcDbBlockEnd
  0
BLOCK
  5
691
330
690
100
AcDbEntity
  8
0
100
AcDbBlockBegin
  2
block 3
 70
     0
 10
0.0
 20
0.0
 30
0.0
  3
block 3
  1
block 3
  0
INSERT
  5
692
330
690
100
AcDbEntity
  8
LOGO
100
AcDbBlockReference
  2
block 4
 10
0.0
 20
0.0
 30
0.0
  0
INSERT
  5
6A1
330
690
100
AcDbEntity
  8
LOGO
100
AcDbBlockReference
  2
block 5
 10
0.0
 20
0.0
 30
0.0
  0
ENDBLK
  5
6AF
330
690
100
AcDbEntity
  8
0
100
AcDbBlockEnd
  0
BLOCK
  5
694
330
693
100
AcDbEntity
  8
0
100
AcDbBlockBegin
  2
block 4
 70
     0
 10
0.0
 20
0.0
 30
0.0
  3
block 4
  1
block 4
  0
POLYLINE
  5
695
330
693
100
AcDbEntity
  8
LOGO
370
     0
100
AcDb2dPolyline
 66
     1
 10
0.0
 20
0.0
 30
0.0
  0
VERTEX
  5
696
330
695
100
AcDbEntity
  8
LOGO
370
     0
100
AcDbVertex
100
AcDb2dVertex
 10
83.79545727667795
 20
167.6444858234922
 30
0.0
  0
VERTEX
  5
697
330
695
100
AcDbEntity
  8
LOGO
370
     0
100
AcDbVertex
100
AcDb2dVertex
 10
83.79545727667795
 20
159.7968976406313
 30
0.0
  0
VERTEX
  5
698
330
695
100
AcDbEntity
  8
LOGO
370
     0
100
AcDbVertex
100
AcDb2dVertex
 10
71.3631329975216
 20
159.7968976406313
 30
0.0
  0
VERTEX
  5
699
330
695
100
AcDbEntity
  8
LOGO
370
     0
100
AcDbVertex
100
AcDb2dVertex
 10
71.3631329975216
 20
127.8027915271048
 30
0.0
  0
VERTEX
  5
69A
330
695
100
AcDbEntity
  8
LOGO
370
     0
100
AcDbVertex
100
AcDb2dVertex
 10
60.43011526263018
 20
127.8027915271048
 30
0.0
  0
VERTEX
  5
69B
330
695
100
AcDbEntity
  8
LOGO
370
     0
100
AcDbVertex
100
AcDb2dVertex
 10
60.43011526263018
 20
159.7968976406313
 30
0.0
  0
VERTEX
  5
69C
330
695
100
AcDbEntity
  8
LOGO
370
     0
100
AcDbVertex
100
AcDb2dVertex
 10
48.21793273020759
 20
159.7968976406313
 30
0.0
  0
VERTEX
  5
69D
330
695
100
AcDbEntity
  8
LOGO
370
     0
100
AcDbVertex
100
AcDb2dVertex
 10
48.21793273020759
 20
167.6444858234922
 30
0.0
  0
VERTEX
  5
69E
330
695
100
AcDbEntity
  8
LOGO
370
     0
100
AcDbVertex
100
AcDb2dVertex
 10
83.79545727667795
 20
167.6444858234922
 30
0.0
  0
SEQEND
  5
69F
330
695
100
AcDbEntity
  8
LOGO
370
     0
  0
HATCH
  5
6A0
330
693
100
AcDbEntity
  8
LOGO
 62
   250
420
  2234388
100
AcDbHatch
 10
0.0
 20
0.0
 30
0.0
210
0.0
220
0.0
230
1.0
  2
SOLID
 70
     1
 71
     0
 91
        1
 92
        1
 93
        8
 72
     1
 10
83.79545727667795
 20
167.6444858234922
 11
83.79545727667795
 21
159.7968976406313
 72
     1
 10
83.79545727667795
 20
159.7968976406313
 11
71.3631329975216
 21
159.7968976406313
 72
     1
 10
71.3631329975216
 20
159.7968976406313
 11
71.3631329975216
 21
127.8027915271048
 72
     1
 10
71.3631329975216
 20
127.8027915271048
 11
60.43011526263018
 21
127.8027915271048
 72
     1
 10
60.43011526263018
 20
127.8027915271048
 11
60.43011526263018
 21
159.7968976406313
 72
     1
 10
60.43011526263018
 20
159.7968976406313
 11
48.21793273020759
 21
159.7968976406313
 72
     1
 10
48.21793273020759
 20
159.7968976406313
 11
48.21793273020759
 21
167.6444858234922
 72
     1
 10
48.21793273020759
 20
167.6444858234922
 11
83.79545727667795
 21
167.6444858234922
 97
        0
 75
     2
 76
     1
 98
        0
  0
ENDBLK
  5
6AE
330
693
100
AcDbEntity
  8
0
100
AcDbBlockEnd
  0
BLOCK
  5
6A3
330
6A2
100
AcDbEntity
  8
0
100
AcDbBlockBegin
  2
block 5
 70
     0
 10
0.0
 20
0.0
 30
0.0
  3
block 5
  1
block 5
  0
SPLINE
  5
6A4
330
6A2
100
AcDbEntity
  8
LOGO
370
     0
100
AcDbSpline
210
0.0
220
0.0
230
1.0
 70
    11
 71
     3
 72
    56
 73
    52
 74
     0
 42
0.000000001
 43
0.0000000001
 40
0.0
 40
0.0
 40
0.0
 40
0.0
 40
1.0
 40
1.0
 40
1.0
 40
2.0
 40
2.0
 40
2.0
 40
3.0
 40
3.0
 40
3.0
 40
4.0
 40
4.0
 40
4.0
 40
5.0
 40
5.0
 40
5.0
 40
6.0
 40
6.0
 40
6.0
 40
7.0
 40
7.0
 40
7.0
 40
8.0
 40
8.0
 40
8.0
 40
9.0
 40
9.0
 40
9.0
 40
10.0
 40
10.0
 40
10.0
 40
11.0
 40
11.0
 40
11.0
 40
12.0
 40
12.0
 40
12.0
 40
13.0
 40
13.0
 40
13.0
 40
14.0
 40
14.0
 40
14.0
 40
15.0
 40
15.0
 40
15.0
 40
16.0
 40
16.0
 40
16.0
 40
17.0
 40
17.0
 40
17.0
 40
17.0
 10
100.4504378777679
 20
166.69157178364
 30
0.0
 10
101.9848844191641
 20
167.1313385124438
 30
0.0
 10
103.9637485713373
 20
166.7649523658846
 30
0.0
 10
103.9637485713373
 20
166.7649523658846
 30
0.0
 10
103.9637485713373
 20
166.7649523658846
 30
0.0
 10
103.0132460999156
 20
163.911205638077
 30
0.0
 10
103.0132460999156
 20
163.911205638077
 30
0.0
 10
103.0132460999156
 20
163.911205638077
 30
0.0
 10
101.0674548862189
 20
164.3601018759394
 30
0.0
 10
99.57090442016032
 20
163.1805004036133
 30
0.0
 10
98.40508333886608
 20
162.258247733807
 30
0.0
 10
97.65301849830304
 20
159.804132345923
 30
0.0
 10
97.3598406791005
 20
158.8699940888517
 30
0.0
 10
97.3598406791005
 20
158.8699940888517
 30
0.0
 10
96.07137411762282
 20
154.9119212747295
 30
0.0
 10
96.07137411762282
 20
154.9119212747295
 30
0.0
 10
96.07137411762282
 20
154.9119212747295
 30
0.0
 10
100.3012651448482
 20
154.9119212747295
 30
0.0
 10
100.3012651448482
 20
154.9119212747295
 30
0.0
 10
100.3012651448482
 20
154.9119212747295
 30
0.0
 10
99.64152892419852
 20
152.4199098115079
 30
0.0
 10
99.64152892419852
 20
152.4199098115079
 30
0.0
 10
99.64152892419852
 20
152.4199098115079
 30
0.0
 10
95.38097652692731
 20
152.4199098115079
 30
0.0
 10
95.38097652692731
 20
152.4199098115079
 30
0.0
 10
95.38097652692731
 20
152.4199098115079
 30
0.0
 10
87.75353009080013
 20
127.8027915271048
 30
0.0
 10
87.75353009080013
 20
127.8027915271048
 30
0.0
 10
87.75353009080013
 20
127.8027915271048
 30
0.0
 10
85.36538832498108
 20
127.8027915271048
 30
0.0
 10
85.36538832498108
 20
127.8027915271048
 30
0.0
 10
85.36538832498108
 20
127.8027915271048
 30
0.0
 10
93.00006946639998
 20
152.4199098115079
 30
0.0
 10
93.00006946639998
 20
152.4199098115079
 30
0.0
 10
93.00006946639998
 20
152.4199098115079
 30
0.0
 10
89.85297266450198
 20
152.4199098115079
 30
0.0
 10
89.85297266450198
 20
152.4199098115079
 30
0.0
 10
89.85297266450198
 20
152.4199098115079
 30
0.0
 10
90.51270888515164
 20
154.9119212747295
 30
0.0
 10
90.51270888515164
 20
154.9119212747295
 30
0.0
 10
90.51270888515164
 20
154.9119212747295
 30
0.0
 10
93.6904670570955
 20
154.9119212747295
 30
0.0
 10
93.6904670570955
 20
154.9119212747295
 30
0.0
 10
93.6904670570955
 20
154.9119212747295
 30
0.0
 10
94.81598049462158
 20
158.3616699146644
 30
0.0
 10
94.81598049462158
 20
158.3616699146644
 30
0.0
 10
95.7237637538445
 20
161.2605474231013
 30
0.0
 10
96.4968436907311
 20
162.8139420021662
 30
0.0
 10
97.15657991138076
 20
163.9844139654337
 30
0.0
 10
97.81183750494507
 20
165.1523021053827
 30
0.0
 10
99.1047826935081
 20
166.3084769129547
 30
0.0
 10
100.4504378777679
 20
166.69157178364
 30
0.0
  0
HATCH
  5
6A5
330
6A2
100
AcDbEntity
  8
LOGO
 62
   250
420
  2234388
100
AcDbHatch
 10
0.0
 20
0.0
 30
0.0
210
0.0
220
0.0
230
1.0
  2
SOLID
 70
     1
 71
     0
 91
        1
 92
        1
 93
        1
 72
     4
 94
        3
 73
     0
 74
     1
 95
       56
 96
       52
 40
0.0
 40
0.0
 40
0.0
 40
0.0
 40
1.0
 40
1.0
 40
1.0
 40
2.0
 40
2.0
 40
2.0
 40
3.0
 40
3.0
 40
3.0
 40
4.0
 40
4.0
 40
4.0
 40
5.0
 40
5.0
 40
5.0
 40
6.0
 40
6.0
 40
6.0
 40
7.0
 40
7.0
 40
7.0
 40
8.0
 40
8.0
 40
8.0
 40
9.0
 40
9.0
 40
9.0
 40
10.0
 40
10.0
 40
10.0
 40
11.0
 40
11.0
 40
11.0
 40
12.0
 40
12.0
 40
12.0
 40
13.0
 40
13.0
 40
13.0
 40
14.0
 40
14.0
 40
14.0
 40
15.0
 40
15.0
 40
15.0
 40
16.0
 40
16.0
 40
16.0
 40
17.0
 40
17.0
 40
17.0
 40
17.0
 10
100.4504378777679
 20
166.69157178364
 10
101.9848844191641
 20
167.1313385124438
 10
103.9637485713373
 20
166.7649523658846
 10
103.9637485713373
 20
166.7649523658846
 10
103.9637485713373
 20
166.7649523658846
 10
103.0132460999156
 20
163.911205638077
 10
103.0132460999156
 20
163.911205638077
 10
103.0132460999156
 20
163.911205638077
 10
101.0674548862189
 20
164.3601018759394
 10
99.57090442016032
 20
163.1805004036133
 10
98.40508333886608
 20
162.258247733807
 10
97.65301849830304
 20
159.804132345923
 10
97.3598406791005
 20
158.8699940888517
 10
97.3598406791005
 20
158.8699940888517
 10
96.07137411762282
 20
154.9119212747295
 10
96.07137411762282
 20
154.9119212747295
 10
96.07137411762282
 20
154.9119212747295
 10
100.3012651448482
 20
154.9119212747295
 10
100.3012651448482
 20
154.9119212747295
 10
100.3012651448482
 20
154.9119212747295
 10
99.64152892419852
 20
152.4199098115079
 10
99.64152892419852
 20
152.4199098115079
 10
99.64152892419852
 20
152.4199098115079
 10
95.38097652692731
 20
152.4199098115079
 10
95.38097652692731
 20
152.4199098115079
 10
95.38097652692731
 20
152.4199098115079
 10
87.75353009080013
 20
127.8027915271048
 10
87.75353009080013
 20
127.8027915271048
 10
87.75353009080013
 20
127.8027915271048
 10
85.36538832498108
 20
127.8027915271048
 10
85.36538832498108
 20
127.8027915271048
 10
85.36538832498108
 20
127.8027915271048
 10
93.00006946639998
 20
152.4199098115079
 10
93.00006946639998
 20
152.4199098115079
 10
93.00006946639998
 20
152.4199098115079
 10
89.85297266450198
 20
152.4199098115079
 10
89.85297266450198
 20
152.4199098115079
 10
89.85297266450198
 20
152.4199098115079
 10
90.51270888515164
 20
154.9119212747295
 10
90.51270888515164
 20
154.9119212747295
 10
90.51270888515164
 20
154.9119212747295
 10
93.6904670570955
 20
154.9119212747295
 10
93.6904670570955
 20
154.9119212747295
 10
93.6904670570955
 20
154.9119212747295
 10
94.81598049462158
 20
158.3616699146644
 10
94.81598049462158
 20
158.3616699146644
 10
95.7237637538445
 20
161.2605474231013
 10
96.4968436907311
 20
162.8139420021662
 10
97.15657991138076
 20
163.9844139654337
 10
97.81183750494507
 20
165.1523021053827
 10
99.1047826935081
 20
166.3084769129547
 10
100.4504378777679
 20
166.69157178364
 97
        0
 75
     2
 76
     1
 98
        0
  0
SPLINE
  5
6A6
330
6A2
100
AcDbEntity
  8
LOGO
370
     0
100
AcDbSpline
210
0.0
220
0.0
230
1.0
 70
    11
 71
     3
 72
    38
 73
    34
 74
     0
 42
0.000000001
 43
0.0000000001
 40
0.0
 40
0.0
 40
0.0
 40
0.0
 40
1.0
 40
1.0
 40
1.0
 40
2.0
 40
2.0
 40
2.0
 40
3.0
 40
3.0
 40
3.0
 40
4.0
 40
4.0
 40
4.0
 40
5.0
 40
5.0
 40
5.0
 40
6.0
 40
6.0
 40
6.0
 40
7.0
 40
7.0
 40
7.0
 40
8.0
 40
8.0
 40
8.0
 40
9.0
 40
9.0
 40
9.0
 40
10.0
 40
10.0
 40
10.0
 40
11.0
 40
11.0
 40
11.0
 40
11.0
 10
126.377554584636
 20
154.8151140277308
 30
0.0
 10
126.377554584636
 20
154.8151140277308
 30
0.0
 10
128.8311532078563
 20
154.8151140277308
 30
0.0
 10
128.8311532078563
 20
154.8151140277308
 30
0.0
 10
128.8311532078563
 20
154.8151140277308
 30
0.0
 10
127.7345785914971
 20
151.3062819612468
 30
0.0
 10
127.7345785914971
 20
151.3062819612468
 30
0.0
 10
128.571392836906
 20
152.2922689395754
 30
0.0
 10
129.8860421413442
 20
153.604506675583
 30
0.0
 10
131.0163787157314
 20
154.2664822097754
 30
0.0
 10
132.7044766171327
 20
155.2500576196734
 30
0.0
 10
133.6642808525008
 20
155.3847609420097
 30
0.0
 10
134.7284715499351
 20
155.3565111403944
 30
0.0
 10
134.7284715499351
 20
155.3565111403944
 30
0.0
 10
133.6877075172549
 20
152.0345756272799
 30
0.0
 10
133.6877075172549
 20
152.0345756272799
 30
0.0
 10
133.011434827367
 20
152.3184516825359
 30
0.0
 10
130.930940291334
 20
151.7768823149844
 30
0.0
 10
129.739280976855
 20
150.9162968950455
 30
0.0
 10
128.66613302525
 20
150.1454562717016
 30
0.0
 10
127.9192358313239
 20
149.4857200510519
 30
0.0
 10
127.0393578639405
 20
147.8282835196966
 30
0.0
 10
126.164647543194
 20
146.1699857139017
 30
0.0
 10
125.4742499524985
 20
143.5262176944419
 30
0.0
 10
124.2822461282437
 20
139.6959580071401
 30
0.0
 10
124.2822461282437
 20
139.6959580071401
 30
0.0
 10
120.5753209406769
 20
127.8027915271048
 30
0.0
 10
120.5753209406769
 20
127.8027915271048
 30
0.0
 10
120.5753209406769
 20
127.8027915271048
 30
0.0
 10
118.1964809388044
 20
127.8027915271048
 30
0.0
 10
118.1964809388044
 20
127.8027915271048
 30
0.0
 10
118.1964809388044
 20
127.8027915271048
 30
0.0
 10
126.377554584636
 20
154.8151140277308
 30
0.0
 10
126.377554584636
 20
154.8151140277308
 30
0.0
  0
HATCH
  5
6A7
330
6A2
100
AcDbEntity
  8
LOGO
 62
   250
420
  2234388
100
AcDbHatch
 10
0.0
 20
0.0
 30
0.0
210
0.0
220
0.0
230
1.0
  2
SOLID
 70
     1
 71
     0
 91
        1
 92
        1
 93
        1
 72
     4
 94
        3
 73
     0
 74
     1
 95
       38
 96
       34
 40
0.0
 40
0.0
 40
0.0
 40
0.0
 40
1.0
 40
1.0
 40
1.0
 40
2.0
 40
2.0
 40
2.0
 40
3.0
 40
3.0
 40
3.0
 40
4.0
 40
4.0
 40
4.0
 40
5.0
 40
5.0
 40
5.0
 40
6.0
 40
6.0
 40
6.0
 40
7.0
 40
7.0
 40
7.0
 40
8.0
 40
8.0
 40
8.0
 40
9.0
 40
9.0
 40
9.0
 40
10.0
 40
10.0
 40
10.0
 40
11.0
 40
11.0
 40
11.0
 40
11.0
 10
126.377554584636
 20
154.8151140277308
 10
126.377554584636
 20
154.8151140277308
 10
128.8311532078563
 20
154.8151140277308
 10
128.8311532078563
 20
154.8151140277308
 10
128.8311532078563
 20
154.8151140277308
 10
127.7345785914971
 20
151.3062819612468
 10
127.7345785914971
 20
151.3062819612468
 10
128.571392836906
 20
152.2922689395754
 10
129.8860421413442
 20
153.604506675583
 10
131.0163787157314
 20
154.2664822097754
 10
132.7044766171327
 20
155.2500576196734
 10
133.6642808525008
 20
155.3847609420097
 10
134.7284715499351
 20
155.3565111403944
 10
134.7284715499351
 20
155.3565111403944
 10
133.6877075172549
 20
152.0345756272799
 10
133.6877075172549
 20
152.0345756272799
 10
133.011434827367
 20
152.3184516825359
 10
130.930940291334
 20
151.7768823149844
 10
129.739280976855
 20
150.9162968950455
 10
128.66613302525
 20
150.1454562717016
 10
127.9192358313239
 20
149.4857200510519
 10
127.0393578639405
 20
147.8282835196966
 10
126.164647543194
 20
146.1699857139017
 10
125.4742499524985
 20
143.5262176944419
 10
124.2822461282437
 20
139.6959580071401
 10
124.2822461282437
 20
139.6959580071401
 10
120.5753209406769
 20
127.8027915271048
 10
120.5753209406769
 20
127.8027915271048
 10
120.5753209406769
 20
127.8027915271048
 10
118.1964809388044
 20
127.8027915271048
 10
118.1964809388044
 20
127.8027915271048
 10
118.1964809388044
 20
127.8027915271048
 10
126.377554584636
 20
154.8151140277308
 10
126.377554584636
 20
154.8151140277308
 97
        0
 75
     2
 76
     1
 98
        0
  0
SPLINE
  5
6A8
330
6A2
100
AcDbEntity
  8
LOGO
370
     0
100
AcDbSpline
210
0.0
220
0.0
230
1.0
 70
    11
 71
     3
 72
   104
 73
   100
 74
     0
 42
0.000000001
 43
0.0000000001
 40
0.0
 40
0.0
 40
0.0
 40
0.0
 40
1.0
 40
1.0
 40
1.0
 40
2.0
 40
2.0
 40
2.0
 40
3.0
 40
3.0
 40
3.0
 40
4.0
 40
4.0
 40
4.0
 40
5.0
 40
5.0
 40
5.0
 40
6.0
 40
6.0
 40
6.0
 40
7.0
 40
7.0
 40
7.0
 40
8.0
 40
8.0
 40
8.0
 40
9.0
 40
9.0
 40
9.0
 40
10.0
 40
10.0
 40
10.0
 40
11.0
 40
11.0
 40
11.0
 40
12.0
 40
12.0
 40
12.0
 40
13.0
 40
13.0
 40
13.0
 40
14.0
 40
14.0
 40
14.0
 40
15.0
 40
15.0
 40
15.0
 40
16.0
 40
16.0
 40
16.0
 40
17.0
 40
17.0
 40
17.0
 40
18.0
 40
18.0
 40
18.0
 40
19.0
 40
19.0
 40
19.0
 40
20.0
 40
20.0
 40
20.0
 40
21.0
 40
21.0
 40
21.0
 40
22.0
 40
22.0
 40
22.0
 40
23.0
 40
23.0
 40
23.0
 40
24.0
 40
24.0
 40
24.0
 40
25.0
 40
25.0
 40
25.0
 40
26.0
 40
26.0
 40
26.0
 40
27.0
 40
27.0
 40
27.0
 40
28.0
 40
28.0
 40
28.0
 40
29.0
 40
29.0
 40
29.0
 40
30.0
 40
30.0
 40
30.0
 40
31.0
 40
31.0
 40
31.0
 40
32.0
 40
32.0
 40
32.0
 40
33.0
 40
33.0
 40
33.0
 40
33.0
 10
139.8926730891197
 20
154.8294111834263
 30
0.0
 10
139.8926730891197
 20
154.8294111834263
 30
0.0
 10
142.0344903652445
 20
154.8294111834263
 30
0.0
 10
142.0344903652445
 20
154.8294111834263
 30
0.0
 10
142.0344903652445
 20
154.8294111834263
 30
0.0
 10
140.9516961399171
 20
151.3157559800812
 30
0.0
 10
140.9516961399171
 20
151.3157559800812
 30
0.0
 10
141.8928968473923
 20
152.7887075264977
 30
0.0
 10
142.7341897198865
 20
153.4484437471474
 30
0.0
 10
143.8552245303272
 20
154.2926649527359
 30
0.0
 10
144.9803934580775
 20
155.1296514530327
 30
0.0
 10
146.3139908001845
 20
155.3044901642492
 30
0.0
 10
147.241066606852
 20
155.3044901642492
 30
0.0
 10
148.3855280820469
 20
155.3044901642492
 30
0.0
 10
149.4969166187653
 20
155.0752189084569
 30
0.0
 10
150.0784491203092
 20
153.8172414621372
 30
0.0
 10
150.5228667310863
 20
152.833838307127
 30
0.0
 10
150.5414702589793
 20
152.7201500811143
 30
0.0
 10
150.4140016419347
 20
150.7765981809602
 30
0.0
 10
151.5818897818837
 20
152.7699317437168
 30
0.0
 10
152.4424752018226
 20
153.6256940267945
 30
0.0
 10
153.9038856707499
 20
154.4507949398263
 30
0.0
 10
155.4455669174378
 20
155.3044901642492
 30
0.0
 10
156.339225275853
 20
155.3659851592288
 30
0.0
 10
157.3748216618963
 20
155.2147453676543
 30
0.0
 10
158.911679771723
 20
154.9877134254046
 30
0.0
 10
159.8859534176746
 20
154.4390816074493
 30
0.0
 10
160.3965169054045
 20
152.7816450760939
 30
0.0
 10
160.9070803931344
 20
151.1219692311958
 30
0.0
 10
160.6328506116007
 20
150.2303779314354
 30
0.0
 10
159.9992971339115
 20
147.597634224801
 30
0.0
 10
159.7105979417943
 20
146.4014962832367
 30
0.0
 10
159.2947746424084
 20
144.9400858143094
 30
0.0
 10
158.7463150793409
 20
143.2092687007094
 30
0.0
 10
158.7463150793409
 20
143.2092687007094
 30
0.0
 10
153.9038856707499
 20
127.8027915271048
 30
0.0
 10
153.9038856707499
 20
127.8027915271048
 30
0.0
 10
153.9038856707499
 20
127.8027915271048
 30
0.0
 10
151.3882752878863
 20
127.8027915271048
 30
0.0
 10
151.3882752878863
 20
127.8027915271048
 30
0.0
 10
151.3882752878863
 20
127.8027915271048
 30
0.0
 10
155.6250565106276
 20
141.2751908193897
 30
0.0
 10
155.6250565106276
 20
141.2751908193897
 30
0.0
 10
156.5094131050963
 20
144.0936252951782
 30
0.0
 10
157.109893644309
 20
146.1506931664571
 30
0.0
 10
157.4220195011804
 20
147.4415712963654
 30
0.0
 10
157.8095929989511
 20
149.0530157726519
 30
0.0
 10
157.9656559273867
 20
149.5826995529385
 30
0.0
 10
157.7816877071116
 20
150.7529992613181
 30
0.0
 10
157.6111553680925
 20
151.8430281919372
 30
0.0
 10
157.0582171779396
 20
152.5547853887321
 30
0.0
 10
156.1170164704645
 20
152.5547853887321
 30
0.0
 10
155.1096698860365
 20
152.5547853887321
 30
0.0
 10
154.2962823053817
 20
152.4412694176073
 30
0.0
 10
153.156643967048
 20
151.2945686288697
 30
0.0
 10
152.0170056287143
 20
150.1476955852443
 30
0.0
 10
151.076149431015
 20
148.7930831468137
 30
0.0
 10
150.3337308641742
 20
147.2290087646991
 30
0.0
 10
149.5957909244188
 20
145.6683794803425
 30
0.0
 10
148.8530278478023
 20
143.6822806228776
 30
0.0
 10
148.0964843801539
 20
141.2751908193897
 30
0.0
 10
148.0964843801539
 20
141.2751908193897
 30
0.0
 10
143.8552245303272
 20
127.8027915271048
 30
0.0
 10
143.8552245303272
 20
127.8027915271048
 30
0.0
 10
143.8552245303272
 20
127.8027915271048
 30
0.0
 10
141.486030802177
 20
127.8027915271048
 30
0.0
 10
141.486030802177
 20
127.8027915271048
 30
0.0
 10
141.486030802177
 20
127.8027915271048
 30
0.0
 10
146.3329388378533
 20
143.2092687007094
 30
0.0
 10
146.3329388378533
 20
143.2092687007094
 30
0.0
 10
146.8483254624444
 20
144.8408669988801
 30
0.0
 10
147.2314203331297
 20
146.1837661049335
 30
0.0
 10
147.4867020769946
 20
147.224185627838
 30
0.0
 10
147.9169947869641
 20
149.0197705792876
 30
0.0
 10
148.0306830129768
 20
150.2400242051577
 30
0.0
 10
147.709255392159
 20
151.3157559800812
 30
0.0
 10
147.3874832615654
 20
152.3916600098926
 30
0.0
 10
146.8245542879144
 20
152.6683013598569
 30
0.0
 10
145.8840425999909
 20
152.6683013598569
 30
0.0
 10
145.0989048209514
 20
152.6683013598569
 30
0.0
 10
144.3282364524954
 20
152.3275811915945
 30
0.0
 10
143.4531816219731
 20
151.6538923250251
 30
0.0
 10
142.34627171234
 20
150.8074318058939
 30
0.0
 10
141.901854101563
 20
150.1097995099067
 30
0.0
 10
141.3578731655808
 20
149.289521733736
 30
0.0
 10
140.6299240093235
 20
148.192602607601
 30
0.0
 10
140.2850697237515
 20
147.455696197173
 30
0.0
 10
139.6652966370942
 20
145.8385673095858
 30
0.0
 10
139.0506911970739
 20
144.2214384219986
 30
0.0
 10
138.463991048893
 20
142.3252566160164
 30
0.0
 10
138.0571250036777
 20
141.0154304484394
 30
0.0
 10
138.0571250036777
 20
141.0154304484394
 30
0.0
 10
133.9009590684727
 20
127.8027915271048
 30
0.0
 10
133.9009590684727
 20
127.8027915271048
 30
0.0
 10
133.9009590684727
 20
127.8027915271048
 30
0.0
 10
131.4180771143097
 20
127.8027915271048
 30
0.0
 10
131.4180771143097
 20
127.8027915271048
 30
0.0
 10
131.4180771143097
 20
127.8027915271048
 30
0.0
 10
139.8926730891197
 20
154.8294111834263
 30
0.0
 10
139.8926730891197
 20
154.8294111834263
 30
0.0
  0
HATCH
  5
6A9
330
6A2
100
AcDbEntity
  8
LOGO
 62
   250
420
  2234388
100
AcDbHatch
 10
0.0
 20
0.0
 30
0.0
210
0.0
220
0.0
230
1.0
  2
SOLID
 70
     1
 71
     0
 91
        1
 92
        1
 93
        1
 72
     4
 94
        3
 73
     0
 74
     1
 95
      104
 96
      100
 40
0.0
 40
0.0
 40
0.0
 40
0.0
 40
1.0
 40
1.0
 40
1.0
 40
2.0
 40
2.0
 40
2.0
 40
3.0
 40
3.0
 40
3.0
 40
4.0
 40
4.0
 40
4.0
 40
5.0
 40
5.0
 40
5.0
 40
6.0
 40
6.0
 40
6.0
 40
7.0
 40
7.0
 40
7.0
 40
8.0
 40
8.0
 40
8.0
 40
9.0
 40
9.0
 40
9.0
 40
10.0
 40
10.0
 40
10.0
 40
11.0
 40
11.0
 40
11.0
 40
12.0
 40
12.0
 40
12.0
 40
13.0
 40
13.0
 40
13.0
 40
14.0
 40
14.0
 40
14.0
 40
15.0
 40
15.0
 40
15.0
 40
16.0
 40
16.0
 40
16.0
 40
17.0
 40
17.0
 40
17.0
 40
18.0
 40
18.0
 40
18.0
 40
19.0
 40
19.0
 40
19.0
 40
20.0
 40
20.0
 40
20.0
 40
21.0
 40
21.0
 40
21.0
 40
22.0
 40
22.0
 40
22.0
 40
23.0
 40
23.0
 40
23.0
 40
24.0
 40
24.0
 40
24.0
 40
25.0
 40
25.0
 40
25.0
 40
26.0
 40
26.0
 40
26.0
 40
27.0
 40
27.0
 40
27.0
 40
28.0
 40
28.0
 40
28.0
 40
29.0
 40
29.0
 40
29.0
 40
30.0
 40
30.0
 40
30.0
 40
31.0
 40
31.0
 40
31.0
 40
32.0
 40
32.0
 40
32.0
 40
33.0
 40
33.0
 40
33.0
 40
33.0
 10
139.8926730891197
 20
154.8294111834263
 10
139.8926730891197
 20
154.8294111834263
 10
142.0344903652445
 20
154.8294111834263
 10
142.0344903652445
 20
154.8294111834263
 10
142.0344903652445
 20
154.8294111834263
 10
140.9516961399171
 20
151.3157559800812
 10
140.9516961399171
 20
151.3157559800812
 10
141.8928968473923
 20
152.7887075264977
 10
142.7341897198865
 20
153.4484437471474
 10
143.8552245303272
 20
154.2926649527359
 10
144.9803934580775
 20
155.1296514530327
 10
146.3139908001845
 20
155.3044901642492
 10
147.241066606852
 20
155.3044901642492
 10
148.3855280820469
 20
155.3044901642492
 10
149.4969166187653
 20
155.0752189084569
 10
150.0784491203092
 20
153.8172414621372
 10
150.5228667310863
 20
152.833838307127
 10
150.5414702589793
 20
152.7201500811143
 10
150.4140016419347
 20
150.7765981809602
 10
151.5818897818837
 20
152.7699317437168
 10
152.4424752018226
 20
153.6256940267945
 10
153.9038856707499
 20
154.4507949398263
 10
155.4455669174378
 20
155.3044901642492
 10
156.339225275853
 20
155.3659851592288
 10
157.3748216618963
 20
155.2147453676543
 10
158.911679771723
 20
154.9877134254046
 10
159.8859534176746
 20
154.4390816074493
 10
160.3965169054045
 20
152.7816450760939
 10
160.9070803931344
 20
151.1219692311958
 10
160.6328506116007
 20
150.2303779314354
 10
159.9992971339115
 20
147.597634224801
 10
159.7105979417943
 20
146.4014962832367
 10
159.2947746424084
 20
144.9400858143094
 10
158.7463150793409
 20
143.2092687007094
 10
158.7463150793409
 20
143.2092687007094
 10
153.9038856707499
 20
127.8027915271048
 10
153.9038856707499
 20
127.8027915271048
 10
153.9038856707499
 20
127.8027915271048
 10
151.3882752878863
 20
127.8027915271048
 10
151.3882752878863
 20
127.8027915271048
 10
151.3882752878863
 20
127.8027915271048
 10
155.6250565106276
 20
141.2751908193897
 10
155.6250565106276
 20
141.2751908193897
 10
156.5094131050963
 20
144.0936252951782
 10
157.109893644309
 20
146.1506931664571
 10
157.4220195011804
 20
147.4415712963654
 10
157.8095929989511
 20
149.0530157726519
 10
157.9656559273867
 20
149.5826995529385
 10
157.7816877071116
 20
150.7529992613181
 10
157.6111553680925
 20
151.8430281919372
 10
157.0582171779396
 20
152.5547853887321
 10
156.1170164704645
 20
152.5547853887321
 10
155.1096698860365
 20
152.5547853887321
 10
154.2962823053817
 20
152.4412694176073
 10
153.156643967048
 20
151.2945686288697
 10
152.0170056287143
 20
150.1476955852443
 10
151.076149431015
 20
148.7930831468137
 10
150.3337308641742
 20
147.2290087646991
 10
149.5957909244188
 20
145.6683794803425
 10
148.8530278478023
 20
143.6822806228776
 10
148.0964843801539
 20
141.2751908193897
 10
148.0964843801539
 20
141.2751908193897
 10
143.8552245303272
 20
127.8027915271048
 10
143.8552245303272
 20
127.8027915271048
 10
143.8552245303272
 20
127.8027915271048
 10
141.486030802177
 20
127.8027915271048
 10
141.486030802177
 20
127.8027915271048
 10
141.486030802177
 20
127.8027915271048
 10
146.3329388378533
 20
143.2092687007094
 10
146.3329388378533
 20
143.2092687007094
 10
146.8483254624444
 20
144.8408669988801
 10
147.2314203331297
 20
146.1837661049335
 10
147.4867020769946
 20
147.224185627838
 10
147.9169947869641
 20
149.0197705792876
 10
148.0306830129768
 20
150.2400242051577
 10
147.709255392159
 20
151.3157559800812
 10
147.3874832615654
 20
152.3916600098926
 10
146.8245542879144
 20
152.6683013598569
 10
145.8840425999909
 20
152.6683013598569
 10
145.0989048209514
 20
152.6683013598569
 10
144.3282364524954
 20
152.3275811915945
 10
143.4531816219731
 20
151.6538923250251
 10
142.34627171234
 20
150.8074318058939
 10
141.901854101563
 20
150.1097995099067
 10
141.3578731655808
 20
149.289521733736
 10
140.6299240093235
 20
148.192602607601
 10
140.2850697237515
 20
147.455696197173
 10
139.6652966370942
 20
145.8385673095858
 10
139.0506911970739
 20
144.2214384219986
 10
138.463991048893
 20
142.3252566160164
 10
138.0571250036777
 20
141.0154304484394
 10
138.0571250036777
 20
141.0154304484394
 10
133.9009590684727
 20
127.8027915271048
 10
133.9009590684727
 20
127.8027915271048
 10
133.9009590684727
 20
127.8027915271048
 10
131.4180771143097
 20
127.8027915271048
 10
131.4180771143097
 20
127.8027915271048
 10
131.4180771143097
 20
127.8027915271048
 10
139.8926730891197
 20
154.8294111834263
 10
139.8926730891197
 20
154.8294111834263
 97
        0
 75
     2
 76
     1
 98
        0
  0
SPLINE
  5
6AA
330
6A2
100
AcDbEntity
  8
LOGO
370
     0
100
AcDbSpline
210
0.0
220
0.0
230
1.0
 70
    11
 71
     3
 72
    29
 73
    25
 74
     0
 42
0.000000001
 43
0.0000000001
 40
0.0
 40
0.0
 40
0.0
 40
0.0
 40
1.0
 40
1.0
 40
1.0
 40
2.0
 40
2.0
 40
2.0
 40
3.0
 40
3.0
 40
3.0
 40
4.0
 40
4.0
 40
4.0
 40
5.0
 40
5.0
 40
5.0
 40
6.0
 40
6.0
 40
6.0
 40
7.0
 40
7.0
 40
7.0
 40
8.0
 40
8.0
 40
8.0
 40
8.0
 10
101.6420971922469
 20
132.8388354296931
 30
0.0
 10
101.630039350094
 20
134.7164137077823
 30
0.0
 10
102.2236296937908
 20
138.0598810818841
 30
0.0
 10
103.7487744712405
 20
142.5378191476827
 30
0.0
 10
105.819967243327
 20
148.5896501242061
 30
0.0
 10
107.0602024361932
 20
150.8074318058939
 30
0.0
 10
108.1522984254671
 20
151.8833358357054
 30
0.0
 10
109.741177511439
 20
153.4532668840085
 30
0.0
 10
111.8740375333931
 20
153.5290590346837
 30
0.0
 10
112.5075910110823
 20
153.4532668840085
 30
0.0
 10
113.4012493694975
 20
153.3490526768302
 30
0.0
 10
114.6683563248758
 20
152.7580461564518
 30
0.0
 10
114.7493161221879
 20
150.7838328862519
 30
0.0
 10
114.8106388622796
 20
149.0909118479895
 30
0.0
 10
114.3186789024427
 20
145.9191825971221
 30
0.0
 10
112.6164561002338
 20
140.9489400617108
 30
0.0
 10
110.6444821435766
 20
135.1746117095912
 30
0.0
 10
109.4669477299053
 20
132.8960240524753
 30
0.0
 10
108.5212683953448
 20
131.9072809959403
 30
0.0
 10
106.7346406980658
 20
130.0538184021569
 30
0.0
 10
104.8222669326213
 20
130.2336525051225
 30
0.0
 10
104.5408024457958
 20
130.2336525051225
 30
0.0
 10
104.1721769856939
 20
130.2336525051225
 30
0.0
 10
101.6465758193322
 20
130.6305277668397
 30
0.0
 10
101.6420971922469
 20
132.8388354296931
 30
0.0
  0
SPLINE
  5
6AB
330
6A2
100
AcDbEntity
  8
LOGO
370
     0
100
AcDbSpline
210
0.0
220
0.0
230
1.0
 70
    11
 71
     3
 72
    32
 73
    28
 74
     0
 42
0.000000001
 43
0.0000000001
 40
0.0
 40
0.0
 40
0.0
 40
0.0
 40
1.0
 40
1.0
 40
1.0
 40
2.0
 40
2.0
 40
2.0
 40
3.0
 40
3.0
 40
3.0
 40
4.0
 40
4.0
 40
4.0
 40
5.0
 40
5.0
 40
5.0
 40
6.0
 40
6.0
 40
6.0
 40
7.0
 40
7.0
 40
7.0
 40
8.0
 40
8.0
 40
8.0
 40
9.0
 40
9.0
 40
9.0
 40
9.0
 10
106.2595617172429
 20
153.4105476718098
 30
0.0
 10
104.8222669326213
 20
151.5474388043041
 30
0.0
 10
103.7177685914188
 20
149.8758773721411
 30
0.0
 10
101.9232171692965
 20
144.6141795664062
 30
0.0
 10
100.2754269116635
 20
139.7999999594306
 30
0.0
 10
99.22777268346732
 20
136.3052927937542
 30
0.0
 10
99.06964269637689
 20
132.039572749846
 30
0.0
 10
98.94665270641765
 20
128.8673267343149
 30
0.0
 10
100.8807305877373
 20
127.8027915271048
 30
0.0
 10
103.7129454545577
 20
127.8027915271048
 30
0.0
 10
104.9352661390825
 20
127.8027915271048
 30
0.0
 10
108.0151835347002
 20
127.8827177950895
 30
0.0
 10
110.2045431598849
 20
130.5926316915021
 30
0.0
 10
111.7417457794874
 20
132.4984597712065
 30
0.0
 10
113.155269389579
 20
134.475256864725
 30
0.0
 10
115.0562743324223
 20
140.9489400617108
 30
0.0
 10
116.6361961642235
 20
146.3680788349845
 30
0.0
 10
117.7282921534974
 20
149.8639917848761
 30
0.0
 10
117.6480213757369
 20
151.8595646611754
 30
0.0
 10
117.6480213757369
 20
151.8595646611754
 30
0.0
 10
117.6480213757369
 20
151.8595646611754
 30
0.0
 10
117.6480213757369
 20
151.8595646611754
 30
0.0
 10
117.13229024137
 20
155.18150017429
 30
0.0
 10
114.7162431837115
 20
155.886194920681
 30
0.0
 10
113.3351034925446
 20
155.886194920681
 30
0.0
 10
111.9829026225447
 20
155.886194920681
 30
0.0
 10
108.3414342923792
 20
156.1251124501957
 30
0.0
 10
106.2595617172429
 20
153.4105476718098
 30
0.0
  0
HATCH
  5
6AC
330
6A2
100
AcDbEntity
  8
LOGO
 62
   250
420
  2234388
100
AcDbHatch
 10
0.0
 20
0.0
 30
0.0
210
0.0
220
0.0
230
1.0
  2
SOLID
 70
     1
 71
     0
 91
        2
 92
        1
 93
        1
 72
     4
 94
        3
 73
     0
 74
     1
 95
       29
 96
       25
 40
0.0
 40
0.0
 40
0.0
 40
0.0
 40
1.0
 40
1.0
 40
1.0
 40
2.0
 40
2.0
 40
2.0
 40
3.0
 40
3.0
 40
3.0
 40
4.0
 40
4.0
 40
4.0
 40
5.0
 40
5.0
 40
5.0
 40
6.0
 40
6.0
 40
6.0
 40
7.0
 40
7.0
 40
7.0
 40
8.0
 40
8.0
 40
8.0
 40
8.0
 10
101.6420971922469
 20
132.8388354296931
 10
101.630039350094
 20
134.7164137077823
 10
102.2236296937908
 20
138.0598810818841
 10
103.7487744712405
 20
142.5378191476827
 10
105.819967243327
 20
148.5896501242061
 10
107.0602024361932
 20
150.8074318058939
 10
108.1522984254671
 20
151.8833358357054
 10
109.741177511439
 20
153.4532668840085
 10
111.8740375333931
 20
153.5290590346837
 10
112.5075910110823
 20
153.4532668840085
 10
113.4012493694975
 20
153.3490526768302
 10
114.6683563248758
 20
152.7580461564518
 10
114.7493161221879
 20
150.7838328862519
 10
114.8106388622796
 20
149.0909118479895
 10
114.3186789024427
 20
145.9191825971221
 10
112.6164561002338
 20
140.9489400617108
 10
110.6444821435766
 20
135.1746117095912
 10
109.4669477299053
 20
132.8960240524753
 10
108.5212683953448
 20
131.9072809959403
 10
106.7346406980658
 20
130.0538184021569
 10
104.8222669326213
 20
130.2336525051225
 10
104.5408024457958
 20
130.2336525051225
 10
104.1721769856939
 20
130.2336525051225
 10
101.6465758193322
 20
130.6305277668397
 10
101.6420971922469
 20
132.8388354296931
 97
        0
 92
        1
 93
        1
 72
     4
 94
        3
 73
     0
 74
     1
 95
       32
 96
       28
 40
0.0
 40
0.0
 40
0.0
 40
0.0
 40
1.0
 40
1.0
 40
1.0
 40
2.0
 40
2.0
 40
2.0
 40
3.0
 40
3.0
 40
3.0
 40
4.0
 40
4.0
 40
4.0
 40
5.0
 40
5.0
 40
5.0
 40
6.0
 40
6.0
 40
6.0
 40
7.0
 40
7.0
 40
7.0
 40
8.0
 40
8.0
 40
8.0
 40
9.0
 40
9.0
 40
9.0
 40
9.0
 10
106.2595617172429
 20
153.4105476718098
 10
104.8222669326213
 20
151.5474388043041
 10
103.7177685914188
 20
149.8758773721411
 10
101.9232171692965
 20
144.6141795664062
 10
100.2754269116635
 20
139.7999999594306
 10
99.22777268346732
 20
136.3052927937542
 10
99.06964269637689
 20
132.039572749846
 10
98.94665270641765
 20
128.8673267343149
 10
100.8807305877373
 20
127.8027915271048
 10
103.7129454545577
 20
127.8027915271048
 10
104.9352661390825
 20
127.8027915271048
 10
108.0151835347002
 20
127.8827177950895
 10
110.2045431598849
 20
130.5926316915021
 10
111.7417457794874
 20
132.4984597712065
 10
113.155269389579
 20
134.475256864725
 10
115.0562743324223
 20
140.9489400617108
 10
116.6361961642235
 20
146.3680788349845
 10
117.7282921534974
 20
149.8639917848761
 10
117.6480213757369
 20
151.8595646611754
 10
117.6480213757369
 20
151.8595646611754
 10
117.6480213757369
 20
151.8595646611754
 10
117.6480213757369
 20
151.8595646611754
 10
117.13229024137
 20
155.18150017429
 10
114.7162431837115
 20
155.886194920681
 10
113.3351034925446
 20
155.886194920681
 10
111.9829026225447
 20
155.886194920681
 10
108.3414342923792
 20
156.1251124501957
 10
106.2595617172429
 20
153.4105476718098
 97
        0
 75
     2
 76
     1
 98
        0
  0
ENDBLK
  5
6AD
330
6A2
100
AcDbEntity
  8
0
100
AcDbBlockEnd
  0
BLOCK
  5
26CE
330
26CD
100
AcDbEntity
  8
0
100
AcDbBlockBegin
  2
*D6
 70
     1
 10
0.0
 20
0.0
 30
0.0
  3
*D6
  1

  0
LINE
  5
26D0
330
26CD
100
AcDbEntity
  8
DIM
 62
     0
370
    -2
100
AcDbLine
 10
382.7508556815966
 20
187.1732053317756
 30
0.0
 11
353.7508556815968
 21
187.1732053317756
 31
0.0
  0
LINE
  5
26D1
330
26CD
100
AcDbEntity
  8
DIM
 62
     0
370
    -2
100
AcDbLine
 10
382.7508556815968
 20
487.1732053317756
 30
0.0
 11
353.7508556815968
 21
487.1732053317756
 31
0.0
  0
LINE
  5
26D2
330
26CD
100
AcDbEntity
  8
DIM
 62
     0
370
    -2
100
AcDbLine
 10
353.7508556815968
 20
190.1732053317756
 30
0.0
 11
353.7508556815968
 21
484.1732053317756
 31
0.0
  0
INSERT
  5
26D3
330
26CD
100
AcDbEntity
  8
DIM
 62
     0
370
    -2
100
AcDbBlockReference
  2
_DOT
 10
353.7508556815968
 20
187.1732053317756
 30
0.0
 41
3.0
 42
3.0
 43
3.0
 50
270.0
  0
INSERT
  5
26D4
330
26CD
100
AcDbEntity
  8
DIM
 62
     0
370
    -2
100
AcDbBlockReference
  2
_DOT
 10
353.7508556815968
 20
487.1732053317756
 30
0.0
 41
3.0
 42
3.0
 43
3.0
 50
90.0
  0
MTEXT
  5
26D5
330
26CD
100
AcDbEntity
  8
DIM
 62
     0
100
AcDbMText
 10
342.7508556815968
 20
337.1732053317756
 30
0.0
 40
7.0
 41
0.0
 46
0.0
 71
     2
 72
     1
  1
\A1;300
  7
ＭＳ ゴシック
 11
0.0
 21
1.0
 31
0.0
 73
     1
 44
1.0
  0
POINT
  5
26D6
330
26CD
100
AcDbEntity
  8
Defpoints
 62
     0
100
AcDbPoint
 10
392.7508556815966
 20
187.1732053317756
 30
0.0
  0
POINT
  5
26D7
330
26CD
100
AcDbEntity
  8
Defpoints
 62
     0
100
AcDbPoint
 10
392.7508556815968
 20
487.1732053317756
 30
0.0
  0
POINT
  5
26D8
330
26CD
100
AcDbEntity
  8
Defpoints
 62
     0
100
AcDbPoint
 10
353.7508556815968
 20
487.1732053317756
 30
0.0
  0
ENDBLK
  5
26CF
330
26CD
100
AcDbEntity
  8
0
100
AcDbBlockEnd
  0
BLOCK
  5
26DA
330
26D9
100
AcDbEntity
  8
0
100
AcDbBlockBegin
  2
*D7
 70
     1
 10
0.0
 20
0.0
 30
0.0
  3
*D7
  1

  0
LINE
  5
26DC
330
26D9
100
AcDbEntity
  8
DIM
 62
     0
370
    -2
100
AcDbLine
 10
491.2508556815964
 20
211.1732053317756
 30
0.0
 11
517.8645967026794
 21
211.1732053317756
 31
0.0
  0
LINE
  5
26DD
330
26D9
100
AcDbEntity
  8
DIM
 62
     0
370
    -2
100
AcDbLine
 10
491.2508556815966
 20
463.1732053317756
 30
0.0
 11
517.8645967026796
 21
463.1732053317756
 31
0.0
  0
LINE
  5
26DE
330
26D9
100
AcDbEntity
  8
DIM
 62
     0
370
    -2
100
AcDbLine
 10
517.8645967026794
 20
214.1732053317756
 30
0.0
 11
517.8645967026796
 21
460.1732053317756
 31
0.0
  0
INSERT
  5
26DF
330
26D9
100
AcDbEntity
  8
DIM
 62
     0
370
    -2
100
AcDbBlockReference
  2
_DOT
 10
517.8645967026794
 20
211.1732053317756
 30
0.0
 41
3.0
 42
3.0
 43
3.0
 50
269.9999999999999
  0
INSERT
  5
26E0
330
26D9
100
AcDbEntity
  8
DIM
 62
     0
370
    -2
100
AcDbBlockReference
  2
_DOT
 10
517.8645967026796
 20
463.1732053317756
 30
0.0
 41
3.0
 42
3.0
 43
3.0
 50
89.99999999999994
  0
MTEXT
  5
26E1
330
26D9
100
AcDbEntity
  8
DIM
 62
     0
100
AcDbMText
 10
506.8645967026795
 20
337.1732053317756
 30
0.0
 40
7.0
 41
0.0
 46
0.0
 71
     2
 72
     1
  1
\A1;252
  7
ＭＳ ゴシック
 11
9.022764898540954E-16
 21
1.0
 31
0.0
 73
     1
 44
1.0
  0
POINT
  5
26E2
330
26D9
100
AcDbEntity
  8
Defpoints
 62
     0
100
AcDbPoint
 10
481.2508556815964
 20
211.1732053317756
 30
0.0
  0
POINT
  5
26E3
330
26D9
100
AcDbEntity
  8
Defpoints
 62
     0
100
AcDbPoint
 10
481.2508556815966
 20
463.1732053317756
 30
0.0
  0
POINT
  5
26E4
330
26D9
100
AcDbEntity
  8
Defpoints
 62
     0
100
AcDbPoint
 10
517.8645967026796
 20
463.1732053317756
 30
0.0
  0
ENDBLK
  5
26DB
330
26D9
100
AcDbEntity
  8
0
100
AcDbBlockEnd
  0
BLOCK
  5
26E6
330
26E5
100
AcDbEntity
  8
0
100
AcDbBlockBegin
  2
*D8
 70
     1
 10
0.0
 20
0.0
 30
0.0
  3
*D8
  1

  0
LINE
  5
26E8
330
26E5
100
AcDbEntity
  8
DIM
 62
     0
370
    -2
100
AcDbLine
 10
130.6329857484267
 20
177.1732059362836
 30
0.0
 11
130.6329857484268
 21
157.1732053317778
 31
0.0
  0
LINE
  5
26E9
330
26E5
100
AcDbEntity
  8
DIM
 62
     0
370
    -2
100
AcDbLine
 10
230.6329857009336
 20
177.273205331776
 30
0.0
 11
230.6329857009337
 21
157.1732053317781
 31
0.0
  0
LINE
  5
26EA
330
26E5
100
AcDbEntity
  8
DIM
 62
     0
370
    -2
100
AcDbLine
 10
133.6329857484268
 20
157.1732053317778
 30
0.0
 11
227.6329857009337
 21
157.1732053317781
 31
0.0
  0
INSERT
  5
26EB
330
26E5
100
AcDbEntity
  8
DIM
 62
     0
370
    -2
100
AcDbBlockReference
  2
_DOT
 10
130.6329857484268
 20
157.1732053317778
 30
0.0
 41
3.0
 42
3.0
 43
3.0
 50
180.0000000000002
  0
INSERT
  5
26EC
330
26E5
100
AcDbEntity
  8
DIM
 62
     0
370
    -2
100
AcDbBlockReference
  2
_DOT
 10
230.6329857009337
 20
157.1732053317781
 30
0.0
 41
3.0
 42
3.0
 43
3.0
 50
0.0000000000001791
  0
MTEXT
  5
26ED
330
26E5
100
AcDbEntity
  8
DIM
 62
     0
100
AcDbMText
 10
180.6329857009312
 20
168.1732053317779
 30
0.0
 40
7.0
 41
0.0
 46
0.0
 71
     2
 72
     1
  1
\A1;100
  7
ＭＳ ゴシック
 73
     1
 44
1.0
  0
POINT
  5
26EE
330
26E5
100
AcDbEntity
  8
Defpoints
 62
     0
100
AcDbPoint
 10
130.6329857484267
 20
187.1732059362836
 30
0.0
  0
POINT
  5
26EF
330
26E5
100
AcDbEntity
  8
Defpoints
 62
     0
100
AcDbPoint
 10
230.6329857009335
 20
187.273205331776
 30
0.0
  0
POINT
  5
26F0
330
26E5
100
AcDbEntity
  8
Defpoints
 62
     0
100
AcDbPoint
 10
230.6329857009336
 20
157.1732053317781
 30
0.0
  0
ENDBLK
  5
26E7
330
26E5
100
AcDbEntity
  8
0
100
AcDbBlockEnd
  0
BLOCK
  5
26F2
330
26F1
100
AcDbEntity
  8
0
100
AcDbBlockBegin
  2
*D9
 70
     1
 10
0.0
 20
0.0
 30
0.0
  3
*D9
  1

  0
LINE
  5
26F4
330
26F1
100
AcDbEntity
  8
DIM
 62
     0
370
    -2
100
AcDbLine
 10
401.8508556815967
 20
679.2234891440263
 30
0.0
 11
401.8508556815967
 21
641.0473460728531
 31
0.0
  0
LINE
  5
26F5
330
26F1
100
AcDbEntity
  8
DIM
 62
     0
370
    -2
100
AcDbLine
 10
383.8508556815967
 20
679.2234891440263
 30
0.0
 11
383.8508556815967
 21
641.0473460728532
 31
0.0
  0
LINE
  5
26F6
330
26F1
100
AcDbEntity
  8
DIM
 62
     0
370
    -2
100
AcDbLine
 10
398.8508556815967
 20
641.0473460728531
 30
0.0
 11
386.8508556815967
 21
641.0473460728532
 31
0.0
  0
INSERT
  5
26F7
330
26F1
100
AcDbEntity
  8
DIM
 62
     0
370
    -2
100
AcDbBlockReference
  2
_DOT
 10
401.8508556815967
 20
641.0473460728531
 30
0.0
 41
3.0
 42
3.0
 43
3.0
 50
359.9999999999997
  0
INSERT
  5
26F8
330
26F1
100
AcDbEntity
  8
DIM
 62
     0
370
    -2
100
AcDbBlockReference
  2
_DOT
 10
383.8508556815967
 20
641.0473460728532
 30
0.0
 41
3.0
 42
3.0
 43
3.0
 50
179.9999999999996
  0
MTEXT
  5
26F9
330
26F1
100
AcDbEntity
  8
DIM
 62
     0
100
AcDbMText
 10
392.8508556815963
 20
652.0473460728532
 30
0.0
 40
7.0
 41
0.0
 46
0.0
 71
     2
 72
     1
  1
\A1;%%c18
  7
ＭＳ ゴシック
 73
     1
 44
1.0
  0
POINT
  5
26FA
330
26F1
100
AcDbEntity
  8
Defpoints
 62
     0
100
AcDbPoint
 10
401.8508556815967
 20
689.2234891440263
 30
0.0
  0
POINT
  5
26FB
330
26F1
100
AcDbEntity
  8
Defpoints
 62
     0
100
AcDbPoint
 10
383.8508556815967
 20
689.2234891440263
 30
0.0
  0
POINT
  5
26FC
330
26F1
100
AcDbEntity
  8
Defpoints
 62
     0
100
AcDbPoint
 10
383.8508556815967
 20
641.0473460728532
 30
0.0
  0
ENDBLK
  5
26F3
330
26F1
100
AcDbEntity
  8
0
100
AcDbBlockEnd
  0
BLOCK
  5
2700
330
26FF
100
AcDbEntity
  8
0
100
AcDbBlockBegin
  2
*D10
 70
     1
 10
0.0
 20
0.0
 30
0.0
  3
*D10
  1

  0
LINE
  5
2702
330
26FF
100
AcDbEntity
  8
DIM
 62
     0
370
    -2
100
AcDbLine
 10
383.7508556815964
 20
790.2234891440268
 30
0.0
 11
383.7508556815964
 21
816.9892937601095
 31
0.0
  0
LINE
  5
2703
330
26FF
100
AcDbEntity
  8
DIM
 62
     0
370
    -2
100
AcDbLine
 10
463.7508556815968
 20
786.7234891440263
 30
0.0
 11
463.7508556815968
 21
816.9892937601091
 31
0.0
  0
LINE
  5
2704
330
26FF
100
AcDbEntity
  8
DIM
 62
     0
370
    -2
100
AcDbLine
 10
386.7508556815964
 20
816.9892937601095
 30
0.0
 11
460.7508556815968
 21
816.9892937601091
 31
0.0
  0
INSERT
  5
2705
330
26FF
100
AcDbEntity
  8
DIM
 62
     0
370
    -2
100
AcDbBlockReference
  2
_DOT
 10
383.7508556815964
 20
816.9892937601095
 30
0.0
 41
3.0
 42
3.0
 43
3.0
 50
179.9999999999998
  0
INSERT
  5
2706
330
26FF
100
AcDbEntity
  8
DIM
 62
     0
370
    -2
100
AcDbBlockReference
  2
_DOT
 10
463.7508556815968
 20
816.9892937601091
 30
0.0
 41
3.0
 42
3.0
 43
3.0
 50
359.9999999999998
  0
MTEXT
  5
2707
330
26FF
100
AcDbEntity
  8
DIM
 62
     0
100
AcDbMText
 10
423.7508556815969
 20
827.9892937601093
 30
0.0
 40
7.0
 41
0.0
 46
0.0
 71
     2
 72
     1
  1
\A1;80
  7
ＭＳ ゴシック
 73
     1
 44
1.0
  0
POINT
  5
2708
330
26FF
100
AcDbEntity
  8
Defpoints
 62
     0
100
AcDbPoint
 10
383.7508556815964
 20
780.2234891440268
 30
0.0
  0
POINT
  5
2709
330
26FF
100
AcDbEntity
  8
Defpoints
 62
     0
100
AcDbPoint
 10
463.7508556815968
 20
776.7234891440263
 30
0.0
  0
POINT
  5
270A
330
26FF
100
AcDbEntity
  8
Defpoints
 62
     0
100
AcDbPoint
 10
463.7508556815968
 20
816.9892937601091
 30
0.0
  0
ENDBLK
  5
2701
330
26FF
100
AcDbEntity
  8
0
100
AcDbBlockEnd
  0
BLOCK
  5
2758
330
2757
100
AcDbEntity
  8
0
100
AcDbBlockBegin
  2
*D11
 70
     1
 10
0.0
 20
0.0
 30
0.0
  3
*D11
  1

  0
LINE
  5
275A
330
2757
100
AcDbEntity
  8
DIM
 62
     0
370
    -2
100
AcDbLine
 10
120.6329857484267
 20
196.1732092741432
 30
0.0
 11
94.01817071891273
 21
196.1732092741432
 31
0.0
  0
LINE
  5
275B
330
2757
100
AcDbEntity
  8
DIM
 62
     0
370
    -2
100
AcDbLine
 10
120.6329857484268
 20
478.1732070687718
 30
0.0
 11
94.01817071891274
 21
478.1732070687718
 31
0.0
  0
LINE
  5
275C
330
2757
100
AcDbEntity
  8
DIM
 62
     0
370
    -2
100
AcDbLine
 10
94.01817071891273
 20
199.1732092741432
 30
0.0
 11
94.01817071891274
 21
475.1732070687718
 31
0.0
  0
INSERT
  5
275D
330
2757
100
AcDbEntity
  8
DIM
 62
     0
370
    -2
100
AcDbBlockReference
  2
_DOT
 10
94.01817071891273
 20
196.1732092741432
 30
0.0
 41
3.0
 42
3.0
 43
3.0
 50
270.0
  0
INSERT
  5
275E
330
2757
100
AcDbEntity
  8
DIM
 62
     0
370
    -2
100
AcDbBlockReference
  2
_DOT
 10
94.01817071891274
 20
478.1732070687718
 30
0.0
 41
3.0
 42
3.0
 43
3.0
 50
90.0
  0
MTEXT
  5
275F
330
2757
100
AcDbEntity
  8
DIM
 62
     0
100
AcDbMText
 10
86.51817071891273
 20
337.1732081714575
 30
0.0
 40
7.0
 41
0.0
 46
0.0
 71
     5
 72
     1
  1
\A1;280
  7
ＭＳ ゴシック
 11
5.039310222105500E-17
 21
1.0
 31
0.0
 73
     1
 44
1.0
  0
POINT
  5
2760
330
2757
100
AcDbEntity
  8
Defpoints
 62
     0
100
AcDbPoint
 10
130.6329857484267
 20
196.1732092741432
 30
0.0
  0
POINT
  5
2761
330
2757
100
AcDbEntity
  8
Defpoints
 62
     0
100
AcDbPoint
 10
130.6329857484268
 20
478.1732070687718
 30
0.0
  0
POINT
  5
2762
330
2757
100
AcDbEntity
  8
Defpoints
 62
     0
100
AcDbPoint
 10
94.01817071891274
 20
478.1732070687718
 30
0.0
  0
ENDBLK
  5
2759
330
2757
100
AcDbEntity
  8
0
100
AcDbBlockEnd
  0
BLOCK
  5
27DA
330
27D9
100
AcDbEntity
  8
0
100
AcDbBlockBegin
  2
*D12
 70
     1
 10
0.0
 20
0.0
 30
0.0
  3
*D12
  1

  0
LINE
  5
27DC
330
27D9
100
AcDbEntity
  8
DIM
 62
     0
370
    -2
100
AcDbLine
 10
392.8007088322648
 20
795.4953575692391
 30
0.0
 11
392.8007088322648
 21
803.4650031153789
 31
0.0
  0
LINE
  5
27DD
330
27D9
100
AcDbEntity
  8
DIM
 62
     0
370
    -2
100
AcDbLine
 10
383.7508556815964
 20
790.2234890965302
 30
0.0
 11
383.7508556815964
 21
803.4650031153789
 31
0.0
  0
LINE
  5
27DE
330
27D9
100
AcDbEntity
  8
DIM
 62
     0
370
    -2
100
AcDbLine
 10
389.8007088322648
 20
803.4650031153789
 30
0.0
 11
386.7508556815964
 21
803.4650031153789
 31
0.0
  0
INSERT
  5
27DF
330
27D9
100
AcDbEntity
  8
DIM
 62
     0
370
    -2
100
AcDbBlockReference
  2
_DOT
 10
392.8007088322648
 20
803.4650031153789
 30
0.0
 41
3.0
 42
3.0
 43
3.0
  0
INSERT
  5
27E0
330
27D9
100
AcDbEntity
  8
DIM
 62
     0
370
    -2
100
AcDbBlockReference
  2
_DOT
 10
383.7508556815964
 20
803.4650031153789
 30
0.0
 41
3.0
 42
3.0
 43
3.0
 50
180.0
  0
MTEXT
  5
27E1
330
27D9
100
AcDbEntity
  8
DIM
 62
     0
100
AcDbMText
 10
388.2757822569306
 20
810.9650031153789
 30
0.0
 40
7.0
 41
0.0
 46
0.0
 71
     5
 72
     1
  1
\A1;9
  7
ＭＳ ゴシック
 73
     1
 44
1.0
  0
POINT
  5
27E2
330
27D9
100
AcDbEntity
  8
Defpoints
 62
     0
100
AcDbPoint
 10
392.8007088322648
 20
785.4953575692391
 30
0.0
  0
POINT
  5
27E3
330
27D9
100
AcDbEntity
  8
Defpoints
 62
     0
100
AcDbPoint
 10
383.7508556815964
 20
780.2234890965302
 30
0.0
  0
POINT
  5
27E4
330
27D9
100
AcDbEntity
  8
Defpoints
 62
     0
100
AcDbPoint
 10
383.7508556815964
 20
803.4650031153789
 30
0.0
  0
ENDBLK
  5
27DB
330
27D9
100
AcDbEntity
  8
0
100
AcDbBlockEnd
  0
ENDSEC
  0
SECTION
  2
ENTITIES
  0
MTEXT
  5
177
330
A
100
AcDbEntity
  8
TEMPLATE
390
1D
100
AcDbMText
 10
23.76064336431923
 20
103.1195254894285
 30
0.0
 40
4.886523437499998
 41
0.0
 46
0.0
 71
     1
 72
     1
  1
品名
  7
ＭＳ ゴシック
 73
     1
 44
0.7828267384257843
  0
MTEXT
  5
178
330
A
100
AcDbEntity
  8
TEMPLATE
390
1D
100
AcDbMText
 10
23.76064336431923
 20
77.6195254894284
 30
0.0
 40
4.886523437499998
 41
0.0
 46
0.0
 71
     1
 72
     1
  1
仕様
  7
ＭＳ ゴシック
 73
     1
 44
0.7828267384257843
  0
LINE
  5
179
330
A
100
AcDbEntity
  8
TEMPLATE
390
1D
100
AcDbLine
 10
606.6606433641745
 20
80.14400205192852
 30
0.0
 11
21.66064336417462
 21
80.14400205192852
 31
0.0
  0
LWPOLYLINE
  5
17A
330
A
100
AcDbEntity
  8
TEMPLATE
390
1D
100
AcDbPolyline
 90
        5
 70
   128
 43
0.0
 10
606.6606433641745
 20
869.1440020519278
 10
21.66064336417462
 20
869.1440020519278
 10
21.66064336417462
 20
29.14400205192848
 10
606.6606433641745
 20
29.14400205192848
 10
606.6606433641745
 20
869.1440020519278
  0
LINE
  5
17B
330
A
100
AcDbEntity
  8
TEMPLATE
390
1D
100
AcDbLine
 10
606.6606433641745
 20
105.6440020519285
 30
0.0
 11
21.66064336417462
 21
105.6440020519285
 31
0.0
  0
LINE
  5
17C
330
A
100
AcDbEntity
  8
TEMPLATE
390
1D
100
AcDbLine
 10
606.6606433643196
 20
54.64400205192847
 30
0.0
 11
380.760643364319
 21
54.64400205192847
 31
0.0
  0
MTEXT
  5
17E
330
A
100
AcDbEntity
  8
TEMPLATE
390
1D
100
AcDbMText
 10
389.7220652399974
 20
45.67088370993604
 30
0.0
 40
7.329785156250001
 41
0.0
 46
0.0
 71
     1
 72
     1
  1
大洋金物株式会社 ティーフォルム事業部
  7
ＭＳ ゴシック
 73
     1
 44
0.7828267384257843
  0
MTEXT
  5
180
330
A
100
AcDbEntity
  8
TEMPLATE
390
1D
100
AcDbMText
 10
549.360643364397
 20
69.04478720817846
 30
0.0
 40
7.329785156250001
 41
0.0
 46
7.329785156250001
 71
     1
 72
     1
  1
{1:3}
  7
ＭＳ ゴシック
 73
     1
 44
0.7828267384257843
1001
ACAD
1000
ACAD_MTEXT_DEFINED_HEIGHT_BEGIN
1070
    46
1040
7.329785156250001
1000
ACAD_MTEXT_DEFINED_HEIGHT_END
  0
MTEXT
  5
181
330
A
100
AcDbEntity
  8
TEMPLATE
390
1D
100
AcDbMText
 10
533.460643364397
 20
77.6195254894284
 30
0.0
 40
4.886523437499998
 41
0.0
 46
0.0
 71
     1
 72
     1
  1
縮尺
  7
ＭＳ ゴシック
 73
     1
 44
0.7828267384257843
  0
LINE
  5
182
330
A
100
AcDbEntity
  8
TEMPLATE
390
1D
100
AcDbLine
 10
531.360643364397
 20
54.64400205192847
 30
0.0
 11
531.360643364397
 21
80.14400205192852
 31
0.0
  0
MTEXT
  5
183
330
A
100
AcDbEntity
  8
TEMPLATE
390
1D
100
AcDbMText
 10
458.1606433643969
 20
77.6195254894284
 30
0.0
 40
4.886523437499998
 41
0.0
 46
0.0
 71
     1
 72
     1
  1
容量
  7
ＭＳ ゴシック
 73
     1
 44
0.7828267384257843
  0
LINE
  5
184
330
A
100
AcDbEntity
  8
TEMPLATE
390
1D
100
AcDbLine
 10
456.060643364397
 20
54.64400205192847
 30
0.0
 11
456.060643364397
 21
80.14400205192852
 31
0.0
  0
MTEXT
  5
185
330
A
100
AcDbEntity
  8
TEMPLATE
390
1D
100
AcDbMText
 10
382.860643364397
 20
103.1195254894285
 30
0.0
 40
4.886523437499998
 41
0.0
 46
0.0
 71
     1
 72
     1
  1
品番
  7
ＭＳ ゴシック
 73
     1
 44
0.7828267384257843
  0
MTEXT
  5
186
330
A
100
AcDbEntity
  8
TEMPLATE
390
1D
100
AcDbMText
 10
382.860643364397
 20
77.6195254894284
 30
0.0
 40
4.886523437499998
 41
0.0
 46
0.0
 71
     1
 72
     1
  1
重量
  7
ＭＳ ゴシック
 73
     1
 44
0.7828267384257843
  0
LINE
  5
188
330
A
100
AcDbEntity
  8
TEMPLATE
390
1D
100
AcDbLine
 10
380.760643364397
 20
29.14400205192848
 30
0.0
 11
380.760643364397
 21
105.6440020519285
 31
0.0
  0
INSERT
  5
6B5
330
A
100
AcDbEntity
  8
TEMPLATE
100
AcDbBlockReference
  2
名称未設定-1
 10
561.225224426535
 20
7.784029726996147
 30
0.0
 41
0.2286
 42
0.2286
 43
0.2286
  0
INSERT
  5
68C
330
A
100
AcDbEntity
  8
TEMPLATE
100
AcDbBlockReference
  2
block 2
 10
919.2743017702577
 20
8.373076514336368
 30
0.0
 41
0.3809999999999999
 42
0.3809999999999999
 43
0.3809999999999999
  0
LWPOLYLINE
  5
D69
330
A
100
AcDbEntity
  8
BORDER
100
AcDbPolyline
 90
        4
 70
     1
 43
0.0
 10
0.0
 20
0.0
 10
0.0
 20
891.0
 10
630.0
 20
891.0
 10
630.0
 20
0.0
  0
INSERT
  5
1343
330
A
100
AcDbEntity
  8
TEMPLATE
100
AcDbBlockReference
  2
block 2
 10
2096.743470866468
 20
24.43532141229569
 30
0.0
 41
0.3809999999999999
 42
0.3809999999999999
 43
0.3809999999999999
  0
MTEXT
  5
16ED
330
A
100
AcDbEntity
  8
TEMPLATE
390
1D
100
AcDbMText
 10
398.760643364397
 20
94.54478720817846
 30
0.0
 40
7.329785156250001
 41
0.0
 46
7.329785156250001
 71
     1
 72
     1
  1
{FRF74-2220}
  7
ＭＳ ゴシック
 73
     1
 44
0.7828267384257843
1001
ACAD
1000
ACAD_MTEXT_DEFINED_HEIGHT_BEGIN
1070
    46
1040
7.329785156250001
1000
ACAD_MTEXT_DEFINED_HEIGHT_END
  0
MTEXT
  5
16EE
330
A
100
AcDbEntity
  8
TEMPLATE
390
1D
100
AcDbMText
 10
39.66064336431923
 20
94.54478720817846
 30
0.0
 40
7.329785156250001
 41
0.0
 46
7.549678710937501
 71
     1
 72
     1
  1
{シャワーシェルフ　-LANGBERGER-}
  7
ＭＳ ゴシック
 73
     1
 44
0.7828267384257843
1001
ACAD
1000
ACAD_MTEXT_DEFINED_HEIGHT_BEGIN
1070
    46
1040
7.549678710937501
1000
ACAD_MTEXT_DEFINED_HEIGHT_END
  0
MTEXT
  5
16EF
330
A
100
AcDbEntity
  8
TEMPLATE
390
1D
100
AcDbMText
 10
37.57630358281081
 20
68.04359280881856
 30
0.0
 40
7.329785156250001
 41
0.0
 46
20.5685466796875
 71
     1
 72
     1
  1
{ワイパー付き/取付ボルト、プラグ付属\Pポリッシュ}
  7
ＭＳ ゴシック
 73
     1
 44
0.9331787841240657
1001
ACAD
1000
ACAD_MTEXT_DEFINED_HEIGHT_BEGIN
1070
    46
1040
20.5685466796875
1000
ACAD_MTEXT_DEFINED_HEIGHT_END
  0
MTEXT
  5
16F0
102
{ACAD_XDICTIONARY
360
16F1
102
}
330
A
100
AcDbEntity
  8
TEMPLATE
100
AcDbMText
 10
22.41859696457118
 20
25.15851631542851
 30
0.0
 40
6.600000000000001
 41
0.0
 46
22.0
 71
     1
 72
     1
  1
{20170824N}
  7
ＭＳ ゴシック
 73
     1
 44
1.0
1001
ACAD
1000
ACAD_MTEXT_DEFINED_HEIGHT_BEGIN
1070
    46
1040
22.0
1000
ACAD_MTEXT_DEFINED_HEIGHT_END
  0
LINE
  5
2584
330
A
100
AcDbEntity
  8
MODEL
  6
Continuous
100
AcDbLine
 10
402.470854801236
 20
200.0382128599591
 30
0.0
 11
401.9708556506019
 21
200.0382128599591
 31
0.0
  0
LINE
  5
2585
330
A
100
AcDbEntity
  8
MODEL
  6
Continuous
100
AcDbLine
 10
401.9708556506019
 20
192.5082090738721
 30
0.0
 11
402.470854801236
 21
192.5082090738721
 31
0.0
  0
LINE
  5
2586
330
A
100
AcDbEntity
  8
MODEL
  6
Continuous
100
AcDbLine
 10
401.9708556506019
 20
200.0382128599591
 30
0.0
 11
401.8508565995081
 21
199.9181989077034
 31
0.0
  0
LINE
  5
2587
330
A
100
AcDbEntity
  8
MODEL
  6
Continuous
100
AcDbLine
 10
401.3016556772571
 20
193.1773904207654
 30
0.0
 11
401.9708556506019
 21
192.5082090738721
 31
0.0
  0
LINE
  5
2588
330
A
100
AcDbEntity
  8
MODEL
  6
Continuous
100
AcDbLine
 10
401.9708556506019
 20
481.8382035437527
 30
0.0
 11
401.3016556772571
 21
481.1690035704079
 31
0.0
  0
LINE
  5
2589
330
A
100
AcDbEntity
  8
MODEL
  6
Continuous
100
AcDbLine
 10
401.8508565995083
 20
474.4282062593408
 30
0.0
 11
401.9708556506019
 21
474.3082034829559
 31
0.0
  0
LINE
  5
258A
330
A
100
AcDbEntity
  8
MODEL
  6
Continuous
100
AcDbLine
 10
402.4708548012362
 20
481.8382035437527
 30
0.0
 11
401.9708556506019
 21
481.8382035437527
 31
0.0
  0
LINE
  5
258B
330
A
100
AcDbEntity
  8
MODEL
  6
Continuous
100
AcDbLine
 10
401.9708556506019
 20
474.3082034829559
 30
0.0
 11
402.4708548012362
 21
474.3082034829559
 31
0.0
  0
ARC
  5
258C
330
A
100
AcDbEntity
  8
MODEL
  6
Continuous
100
AcDbCircle
 10
467.2508556815968
 20
462.6732053317756
 30
0.0
 40
0.5000000000000568
100
AcDbArc
 50
90.0
 51
180.0
  0
ARC
  5
258D
330
A
100
AcDbEntity
  8
MODEL
  6
Continuous
100
AcDbCircle
 10
481.2508556815966
 20
462.6732053317756
 30
0.0
 40
0.5000000000000568
100
AcDbArc
 50
0.0
 51
90.0
  0
LINE
  5
258E
330
A
100
AcDbEntity
  8
MODEL
  6
Continuous
100
AcDbLine
 10
481.7508531185969
 20
460.1732041183419
 30
0.0
 11
481.7508531185969
 21
462.673205459446
 31
0.0
  0
LINE
  5
258F
330
A
100
AcDbEntity
  8
MODEL
  6
Continuous
100
AcDbLine
 10
466.7508525225502
 20
462.673205459446
 30
0.0
 11
466.7508525225502
 21
460.1732041183419
 31
0.0
  0
ARC
  5
2590
330
A
100
AcDbEntity
  8
MODEL
  6
Continuous
100
AcDbCircle
 10
481.2508556815964
 20
211.6732053317756
 30
0.0
 40
0.5000000000000568
100
AcDbArc
 50
270.0
 51
0.0
  0
ARC
  5
2591
330
A
100
AcDbEntity
  8
MODEL
  6
Continuous
100
AcDbCircle
 10
467.2508556815966
 20
211.6732053317756
 30
0.0
 40
0.5000000000000568
100
AcDbArc
 50
180.0
 51
270.0
  0
LINE
  5
2592
330
A
100
AcDbEntity
  8
MODEL
  6
Continuous
100
AcDbLine
 10
466.7508525225502
 20
214.1732159498639
 30
0.0
 11
466.7508525225502
 21
211.6732183340497
 31
0.0
  0
LINE
  5
2593
330
A
100
AcDbEntity
  8
MODEL
  6
Continuous
100
AcDbLine
 10
481.7508531185969
 20
211.6732183340497
 30
0.0
 11
481.7508531185969
 21
214.1732159498639
 31
0.0
  0
LINE
  5
2594
330
A
100
AcDbEntity
  8
MODEL
  6
Continuous
100
AcDbLine
 10
481.7508531185969
 20
214.1732159498639
 30
0.0
 11
481.7508531185969
 21
460.1732041183419
 31
0.0
  0
LINE
  5
2595
330
A
100
AcDbEntity
  8
MODEL
  6
Continuous
100
AcDbLine
 10
466.7508525225502
 20
460.1732041183419
 30
0.0
 11
466.7508525225502
 21
214.1732159498639
 31
0.0
  0
LINE
  5
2596
330
A
100
AcDbEntity
  8
MODEL
  6
Continuous
100
AcDbLine
 10
401.8508565995081
 20
196.2731960657544
 30
0.0
 11
401.8508565995083
 21
478.0732053759999
 31
0.0
  0
LINE
  5
2597
330
A
100
AcDbEntity
  8
MODEL
  6
Continuous
100
AcDbLine
 10
383.8508556790706
 20
478.0732053759999
 30
0.0
 11
383.8508556790704
 21
196.2731960657544
 31
0.0
  0
ARC
  5
2598
330
A
100
AcDbEntity
  8
MODEL
  6
Continuous
100
AcDbCircle
 10
392.8508556815965
 20
196.273205331776
 30
0.0
 40
9.000000000000021
100
AcDbArc
 50
180.0
 51
270.0
  0
ARC
  5
2599
330
A
100
AcDbEntity
  8
MODEL
  6
Continuous
100
AcDbCircle
 10
392.8508556815965
 20
196.273205331776
 30
0.0
 40
9.000000000000085
100
AcDbArc
 50
269.9999999999986
 51
0.0
  0
ARC
  5
259A
330
A
100
AcDbEntity
  8
MODEL
  6
Continuous
100
AcDbCircle
 10
392.8508556815967
 20
478.0732053317771
 30
0.0
 40
9.000000000000085
100
AcDbArc
 50
0.0
 51
90.0
  0
ARC
  5
259B
330
A
100
AcDbEntity
  8
MODEL
  6
Continuous
100
AcDbCircle
 10
392.8508556815967
 20
478.0732053317771
 30
0.0
 40
9.0
100
AcDbArc
 50
90.0
 51
180.0
  0
LINE
  5
259C
330
A
100
AcDbEntity
  8
MODEL
  6
Continuous
100
AcDbLine
 10
457.7508566352707
 20
487.1732048186965
 30
0.0
 11
457.7508566352707
 21
187.1732059362836
 31
0.0
  0
LINE
  5
259D
330
A
100
AcDbEntity
  8
MODEL
  6
Continuous
100
AcDbLine
 10
457.7508566352707
 20
487.1732048186965
 30
0.0
 11
466.3363096687184
 21
487.1732048186965
 31
0.0
  0
LINE
  5
259E
330
A
100
AcDbEntity
  8
MODEL
  6
Continuous
100
AcDbLine
 10
466.3363096687182
 20
187.1732059362836
 30
0.0
 11
466.3363096687184
 21
487.1732048186965
 31
0.0
  0
LINE
  5
259F
330
A
100
AcDbEntity
  8
MODEL
  6
Continuous
100
AcDbLine
 10
457.7508566352707
 20
187.1732059362836
 30
0.0
 11
466.3363096687182
 21
187.1732059362836
 31
0.0
  0
LINE
  5
25A0
330
A
100
AcDbEntity
  8
MODEL
  6
Continuous
100
AcDbLine
 10
456.7508546087132
 20
487.1732048186965
 30
0.0
 11
456.750854608713
 21
187.1732059362836
 31
0.0
  0
LINE
  5
25A1
330
A
100
AcDbEntity
  8
MODEL
  6
Continuous
100
AcDbLine
 10
456.7508546087132
 20
487.1732048186965
 30
0.0
 11
457.7508566352707
 21
487.1732048186965
 31
0.0
  0
LINE
  5
25A2
330
A
100
AcDbEntity
  8
MODEL
  6
Continuous
100
AcDbLine
 10
456.750854608713
 20
187.1732059362836
 30
0.0
 11
457.7508566352707
 21
187.1732059362836
 31
0.0
  0
LINE
  5
25A3
330
A
100
AcDbEntity
  8
MODEL
  6
Continuous
100
AcDbLine
 10
466.3363096687184
 20
487.1732048186965
 30
0.0
 11
466.8130946728573
 21
487.1732048186965
 31
0.0
  0
LINE
  5
25A4
330
A
100
AcDbEntity
  8
MODEL
  6
Continuous
100
AcDbLine
 10
466.8130946728571
 20
187.1732059362836
 30
0.0
 11
466.3363096687182
 21
187.1732059362836
 31
0.0
  0
LINE
  5
25A5
330
A
100
AcDbEntity
  8
MODEL
  6
Continuous
100
AcDbLine
 10
469.5520622107368
 20
487.1732048186965
 30
0.0
 11
466.8130946728573
 21
487.1732048186965
 31
0.0
  0
LINE
  5
25A6
330
A
100
AcDbEntity
  8
MODEL
  6
Continuous
100
AcDbLine
 10
469.5520622107368
 20
187.1732059362836
 30
0.0
 11
466.8130946728571
 21
187.1732059362836
 31
0.0
  0
LINE
  5
25A7
330
A
100
AcDbEntity
  8
MODEL
  6
Continuous
100
AcDbLine
 10
469.750858602224
 20
487.1732048186965
 30
0.0
 11
469.750858602224
 21
463.1732064727254
 31
0.0
  0
LINE
  5
25A8
330
A
100
AcDbEntity
  8
MODEL
  6
Continuous
100
AcDbLine
 10
469.750858602224
 20
211.1731949690285
 30
0.0
 11
469.750858602224
 21
187.1732059362836
 31
0.0
  0
LINE
  5
25A9
330
A
100
AcDbEntity
  8
MODEL
  6
Continuous
100
AcDbLine
 10
469.5520622107368
 20
487.1732048186965
 30
0.0
 11
469.750858602224
 21
487.1732048186965
 31
0.0
  0
LINE
  5
25AA
330
A
100
AcDbEntity
  8
MODEL
  6
Continuous
100
AcDbLine
 10
469.750858602224
 20
187.1732059362836
 30
0.0
 11
469.5520622107368
 21
187.1732059362836
 31
0.0
  0
LINE
  5
25AB
330
A
100
AcDbEntity
  8
MODEL
  6
Continuous
100
AcDbLine
 10
401.9708556506019
 20
199.0972045305676
 30
0.0
 11
401.9708556506019
 21
192.5082090738721
 31
0.0
  0
LINE
  5
25AC
330
A
100
AcDbEntity
  8
MODEL
  6
Continuous
100
AcDbLine
 10
401.9708556506019
 20
200.0382128599591
 30
0.0
 11
401.9708556506019
 21
199.0972045305676
 31
0.0
  0
LINE
  5
25AD
330
A
100
AcDbEntity
  8
MODEL
  6
Continuous
100
AcDbLine
 10
402.470854801236
 20
199.0972045305676
 30
0.0
 11
402.470854801236
 21
192.5082090738721
 31
0.0
  0
LINE
  5
25AE
330
A
100
AcDbEntity
  8
MODEL
  6
Continuous
100
AcDbLine
 10
402.470854801236
 20
200.0382128599591
 30
0.0
 11
402.470854801236
 21
199.0972045305676
 31
0.0
  0
LINE
  5
25AF
330
A
100
AcDbEntity
  8
MODEL
  6
Continuous
100
AcDbLine
 10
401.9708556506019
 20
481.8382035437527
 30
0.0
 11
401.9708556506019
 21
474.3082034829559
 31
0.0
  0
LINE
  5
25B0
330
A
100
AcDbEntity
  8
MODEL
  6
Continuous
100
AcDbLine
 10
402.4708548012362
 20
481.8382035437527
 30
0.0
 11
402.4708548012362
 21
474.3082034829559
 31
0.0
  0
LINE
  5
25B1
330
A
100
AcDbEntity
  8
MODEL
  6
Continuous
100
AcDbLine
 10
467.2508535358296
 20
463.1732064727254
 30
0.0
 11
481.2508521053177
 21
463.1732064727254
 31
0.0
  0
LINE
  5
25B2
330
A
100
AcDbEntity
  8
MODEL
  6
Continuous
100
AcDbLine
 10
466.7508525225502
 20
460.1732041183419
 30
0.0
 11
481.7508531185969
 21
460.1732041183419
 31
0.0
  0
LINE
  5
25B3
330
A
100
AcDbEntity
  8
MODEL
  6
Continuous
100
AcDbLine
 10
481.2508521053177
 20
211.1731949690285
 30
0.0
 11
467.2508535358294
 21
211.1731949690285
 31
0.0
  0
LINE
  5
25B4
330
A
100
AcDbEntity
  8
MODEL
  6
Continuous
100
AcDbLine
 10
481.7508531185969
 20
214.1732159498639
 30
0.0
 11
466.7508525225502
 21
214.1732159498639
 31
0.0
  0
ARC
  5
25B5
330
A
100
AcDbEntity
  8
MODEL
  6
Continuous
100
AcDbCircle
 10
392.8508556815967
 20
478.0732053317762
 30
0.0
 40
9.000000000000085
100
AcDbArc
 50
0.0
 51
180.0
  0
LINE
  5
25B6
330
A
100
AcDbEntity
  8
MODEL
  6
Continuous
100
AcDbLine
 10
454.750858006178
 20
412.1732074263997
 30
0.0
 11
456.7508546087132
 21
412.1732074263997
 31
0.0
  0
ARC
  5
25B7
330
A
100
AcDbEntity
  8
MODEL
  6
Continuous
100
AcDbCircle
 10
454.7508556815968
 20
409.1732053317756
 30
0.0
 40
3.0
100
AcDbArc
 50
90.0
 51
180.0
  0
LINE
  5
25B8
330
A
100
AcDbEntity
  8
MODEL
  6
Continuous
100
AcDbLine
 10
451.7508593770848
 20
265.1732149961891
 30
0.0
 11
451.7508593770848
 21
409.1732087973065
 31
0.0
  0
ARC
  5
25B9
330
A
100
AcDbEntity
  8
MODEL
  6
Continuous
100
AcDbCircle
 10
454.7508556815968
 20
265.1732053317756
 30
0.0
 40
3.0
100
AcDbArc
 50
180.0
 51
270.0
  0
LINE
  5
25BA
330
A
100
AcDbEntity
  8
MODEL
  6
Continuous
100
AcDbLine
 10
456.7508546087132
 20
262.1731940153546
 30
0.0
 11
454.750858006178
 21
262.1731940153546
 31
0.0
  0
LINE
  5
25BB
330
A
100
AcDbEntity
  8
MODEL
  6
Continuous
100
AcDbLine
 10
392.7508552941664
 20
187.1732059362836
 30
0.0
 11
456.750854608713
 21
187.1732059362836
 31
0.0
  0
ARC
  5
25BC
330
A
100
AcDbEntity
  8
MODEL
  6
Continuous
100
AcDbCircle
 10
392.7508556815966
 20
196.1732053317756
 30
0.0
 40
9.000000000000085
100
AcDbArc
 50
180.0
 51
270.0
  0
LINE
  5
25BD
330
A
100
AcDbEntity
  8
MODEL
  6
Continuous
100
AcDbLine
 10
383.7508556815964
 20
196.1732092741432
 30
0.0
 11
383.7508556815968
 21
478.1732070687718
 31
0.0
  0
ARC
  5
25BE
330
A
100
AcDbEntity
  8
MODEL
  6
Continuous
100
AcDbCircle
 10
392.7508556815968
 20
478.1732053317756
 30
0.0
 40
9.0
100
AcDbArc
 50
90.0
 51
180.0
  0
LINE
  5
25BF
330
A
100
AcDbEntity
  8
MODEL
  6
Continuous
100
AcDbLine
 10
392.7508552941666
 20
487.1732048186965
 30
0.0
 11
456.7508546087132
 21
487.1732048186965
 31
0.0
  0
LINE
  5
25C0
330
A
100
AcDbEntity
  8
MODEL
  6
Continuous
100
AcDbLine
 10
466.8130946728573
 20
487.1732048186965
 30
0.0
 11
466.8130946728573
 21
462.9147905353017
 31
0.0
  0
LINE
  5
25C1
330
A
100
AcDbEntity
  8
MODEL
  6
Continuous
100
AcDbLine
 10
466.8130946728571
 20
211.4316109064526
 30
0.0
 11
466.8130946728571
 21
187.1732059362836
 31
0.0
  0
LINE
  5
25C2
330
A
100
AcDbEntity
  8
MODEL
  6
Continuous
100
AcDbLine
 10
469.5520622107368
 20
187.1732059362836
 30
0.0
 11
469.5520622107368
 21
211.1731949690285
 31
0.0
  0
LINE
  5
25C3
330
A
100
AcDbEntity
  8
MODEL
  6
Continuous
100
AcDbLine
 10
469.5520622107368
 20
463.1732064727254
 30
0.0
 11
469.5520622107368
 21
487.1732048186965
 31
0.0
  0
LINE
  5
25C4
330
A
100
AcDbEntity
  8
MODEL
  6
Continuous
100
AcDbLine
 10
481.7508531185969
 20
462.673205459446
 30
0.0
 11
466.7508525225502
 21
462.673205459446
 31
0.0
  0
LINE
  5
25C5
330
A
100
AcDbEntity
  8
MODEL
  6
Continuous
100
AcDbLine
 10
466.7508525225502
 20
211.6732183340497
 30
0.0
 11
481.7508531185969
 21
211.6732183340497
 31
0.0
  0
DIMENSION
  5
25C6
330
A
100
AcDbEntity
  8
DIM
100
AcDbDimension
  2
*D6
 10
353.7508556815968
 20
487.1732053317756
 30
0.0
 11
353.7508556815968
 21
337.1732053317756
 31
0.0
 70
   160
 71
     2
 42
300.0
 73
     0
 74
     0
 75
     0
  3
tfrom線あり
100
AcDbAlignedDimension
 13
392.7508556815966
 23
187.1732053317756
 33
0.0
 14
392.7508556815968
 24
487.1732053317756
 34
0.0
 50
90.0
100
AcDbRotatedDimension
  0
DIMENSION
  5
25C7
330
A
100
AcDbEntity
  8
DIM
100
AcDbDimension
  2
*D7
 10
517.8645967026796
 20
463.1732053317756
 30
0.0
 11
517.8645967026795
 21
337.1732053317756
 31
0.0
 70
   160
 71
     2
 42
252.0
 73
     0
 74
     0
 75
     0
  3
tfrom線あり
100
AcDbAlignedDimension
 13
481.2508556815964
 23
211.1732053317756
 33
0.0
 14
481.2508556815966
 24
463.1732053317756
 34
0.0
 50
89.99999999999996
100
AcDbRotatedDimension
  0
LINE
  5
25C8
330
A
100
AcDbEntity
  8
MODEL
  6
Continuous
100
AcDbLine
 10
212.6329825418831
 20
205.2731994036145
 30
0.0
 11
132.6329857270063
 21
205.2731994036145
 31
0.0
  0
LINE
  5
25C9
330
A
100
AcDbEntity
  8
MODEL
  6
Continuous
100
AcDbLine
 10
132.6329857270063
 20
187.2731927278938
 30
0.0
 11
230.6329892176033
 21
187.2731927278938
 31
0.0
  0
LINE
  5
25CA
330
A
100
AcDbEntity
  8
MODEL
  6
Continuous
100
AcDbLine
 10
230.6329892176035
 20
487.0732049885693
 30
0.0
 11
132.6329857270065
 21
487.0732049885693
 31
0.0
  0
LINE
  5
25CB
330
A
100
AcDbEntity
  8
MODEL
  6
Continuous
100
AcDbLine
 10
132.6329857270065
 20
469.0732057634301
 30
0.0
 11
212.6329825418833
 21
469.0732057634301
 31
0.0
  0
ARC
  5
25CC
330
A
100
AcDbEntity
  8
MODEL
  6
Continuous
100
AcDbCircle
 10
232.6329857009295
 20
462.6732053317756
 30
0.0
 40
0.5000000000000568
100
AcDbArc
 50
0.0
 51
90.0
  0
LINE
  5
25CD
330
A
100
AcDbEntity
  8
MODEL
  6
Continuous
100
AcDbLine
 10
233.1329868334177
 20
460.1732041183419
 30
0.0
 11
233.1329868334177
 21
462.673205459446
 31
0.0
  0
ARC
  5
25CE
330
A
100
AcDbEntity
  8
MODEL
  6
Continuous
100
AcDbCircle
 10
232.6329857009292
 20
211.6732053317756
 30
0.0
 40
0.5000000000000142
100
AcDbArc
 50
270.0
 51
0.0
  0
LINE
  5
25CF
330
A
100
AcDbEntity
  8
MODEL
  6
Continuous
100
AcDbLine
 10
233.1329868334175
 20
211.6732183340497
 30
0.0
 11
233.1329868334175
 21
214.1732159498639
 31
0.0
  0
LINE
  5
25D0
330
A
100
AcDbEntity
  8
MODEL
  6
Continuous
100
AcDbLine
 10
233.1329868334175
 20
214.1732159498639
 30
0.0
 11
233.1329868334177
 21
460.1732041183419
 31
0.0
  0
LINE
  5
25D1
330
A
100
AcDbEntity
  8
MODEL
  6
Continuous
100
AcDbLine
 10
230.6329892176033
 20
187.2731927278938
 30
0.0
 11
230.6329892176035
 21
487.0732049885693
 31
0.0
  0
LINE
  5
25D2
330
A
100
AcDbEntity
  8
MODEL
  6
Continuous
100
AcDbLine
 10
212.6329825418833
 20
469.0732057634301
 30
0.0
 11
212.6329825418831
 21
205.2731994036145
 31
0.0
  0
LWPOLYLINE
  5
25D3
330
A
100
AcDbEntity
  8
MODEL
  6
Continuous
100
AcDbPolyline
 90
       25
 70
   128
 43
0.0
 10
230.6329892176033
 20
187.2731927278938
 10
230.552679409349
 20
187.3535099867291
 10
230.3132102983833
 20
187.5929716471143
 10
229.9188361662269
 20
187.9873457792706
 10
229.376597811544
 20
188.5295990351148
 10
228.6961809891103
 20
189.2100158575478
 10
227.8897152441383
 20
190.0164667013588
 10
226.9716025489212
 20
190.9345868471565
 10
225.9582192796112
 20
191.9479552153058
 10
224.8676554458976
 20
193.0385414007611
 10
223.7193645137189
 20
194.186824882359
 10
222.5338504808782
 20
195.3723314646192
 10
221.3322506445289
 20
196.5739313009682
 10
220.1360226767896
 20
197.7701667192883
 10
218.9665050404907
 20
198.9396992567487
 10
217.8445742624641
 20
200.061607683033
 10
216.7902426021934
 20
201.1159542444653
 10
215.8223376768468
 20
202.0838442686505
 10
214.9581150310875
 20
202.9480818155713
 10
214.2130122679113
 20
203.6931696775861
 10
213.6003137725235
 20
204.3058756235547
 10
213.13096444782
 20
204.7752323988381
 10
212.8133312958122
 20
205.0928655508466
 10
212.6530842083333
 20
205.2531126383248
 10
212.6329825418831
 20
205.2731994036145
  0
LWPOLYLINE
  5
25D4
330
A
100
AcDbEntity
  8
MODEL
  6
Continuous
100
AcDbPolyline
 90
       25
 70
   128
 43
0.0
 10
212.6329825418833
 20
469.0732057634301
 10
212.6530842083333
 20
469.0933037045903
 10
212.8133312958124
 20
469.2535507920689
 10
213.13096444782
 20
469.571183944077
 10
213.6003137725237
 20
470.0405369940705
 10
214.2130122679113
 20
470.6532317641683
 10
214.9581150310877
 20
471.3983345273442
 10
215.8223376768468
 20
472.2625534478135
 10
216.7902426021936
 20
473.2304658237405
 10
217.8445742624643
 20
474.2847937587209
 10
218.9665050404909
 20
475.406724536747
 10
220.1360226767896
 20
476.5762421730466
 10
221.3322506445292
 20
477.7724701407857
 10
222.5338504808782
 20
478.9740662518449
 10
223.7193645137189
 20
480.1595877352657
 10
224.8676554458979
 20
481.3078749421539
 10
225.9582192796114
 20
482.3984425011582
 10
226.9716025489214
 20
483.4118220451775
 10
227.8897152441385
 20
484.3299384656854
 10
228.6961809891103
 20
485.1364004853673
 10
229.3765978115442
 20
485.8168210330911
 10
229.9188361662272
 20
486.3590537998385
 10
230.3132102983835
 20
486.7534279319949
 10
230.5526794093493
 20
486.9929026308961
 10
230.6329892176035
 20
487.0732049885693
  0
LINE
  5
25D5
330
A
100
AcDbEntity
  8
MODEL
  6
Continuous
100
AcDbLine
 10
216.6329831975344
 20
487.1732048186965
 30
0.0
 11
222.6329879063013
 21
487.1732048186965
 31
0.0
  0
LINE
  5
25D6
330
A
100
AcDbEntity
  8
MODEL
  6
Continuous
100
AcDbLine
 10
216.6329831975341
 20
187.1732059362836
 30
0.0
 11
222.6329879063011
 21
187.1732059362836
 31
0.0
  0
LINE
  5
25D7
330
A
100
AcDbEntity
  8
MODEL
  6
Continuous
100
AcDbLine
 10
215.632988621557
 20
487.1732048186965
 30
0.0
 11
215.632988621557
 21
487.0732049885693
 31
0.0
  0
LINE
  5
25D8
330
A
100
AcDbEntity
  8
MODEL
  6
Continuous
100
AcDbLine
 10
215.6329886215568
 20
187.2731927278938
 30
0.0
 11
215.6329886215568
 21
187.1732059362836
 31
0.0
  0
LINE
  5
25D9
330
A
100
AcDbEntity
  8
MODEL
  6
Continuous
100
AcDbLine
 10
215.632988621557
 20
487.1732048186965
 30
0.0
 11
216.6329831975344
 21
487.1732048186965
 31
0.0
  0
LINE
  5
25DA
330
A
100
AcDbEntity
  8
MODEL
  6
Continuous
100
AcDbLine
 10
215.6329886215568
 20
187.1732059362836
 30
0.0
 11
216.6329831975341
 21
187.1732059362836
 31
0.0
  0
LINE
  5
25DB
330
A
100
AcDbEntity
  8
MODEL
  6
Continuous
100
AcDbLine
 10
222.6329879063013
 20
487.1732048186965
 30
0.0
 11
223.6329824822786
 21
487.1732048186965
 31
0.0
  0
LINE
  5
25DC
330
A
100
AcDbEntity
  8
MODEL
  6
Continuous
100
AcDbLine
 10
223.6329824822786
 20
487.1732048186965
 30
0.0
 11
223.6329824822786
 21
487.0732049885693
 31
0.0
  0
LINE
  5
25DD
330
A
100
AcDbEntity
  8
MODEL
  6
Continuous
100
AcDbLine
 10
223.6329824822784
 20
187.2731927278938
 30
0.0
 11
223.6329824822784
 21
187.1732059362836
 31
0.0
  0
LINE
  5
25DE
330
A
100
AcDbEntity
  8
MODEL
  6
Continuous
100
AcDbLine
 10
222.6329879063011
 20
187.1732059362836
 30
0.0
 11
223.6329824822784
 21
187.1732059362836
 31
0.0
  0
LINE
  5
25DF
330
A
100
AcDbEntity
  8
MODEL
  6
Continuous
100
AcDbLine
 10
230.6329892176035
 20
463.1732064727254
 30
0.0
 11
232.6329858201387
 21
463.1732064727254
 31
0.0
  0
LINE
  5
25E0
330
A
100
AcDbEntity
  8
MODEL
  6
Continuous
100
AcDbLine
 10
230.6329892176035
 20
460.1732041183419
 30
0.0
 11
233.1329868334177
 21
460.1732041183419
 31
0.0
  0
LINE
  5
25E1
330
A
100
AcDbEntity
  8
MODEL
  6
Continuous
100
AcDbLine
 10
232.6329858201385
 20
211.1731949690285
 30
0.0
 11
230.6329892176033
 21
211.1731949690285
 31
0.0
  0
LINE
  5
25E2
330
A
100
AcDbEntity
  8
MODEL
  6
Continuous
100
AcDbLine
 10
233.1329868334175
 20
214.1732159498639
 30
0.0
 11
230.6329892176033
 21
214.1732159498639
 31
0.0
  0
LWPOLYLINE
  5
25E3
330
A
100
AcDbEntity
  8
MODEL
  6
Continuous
100
AcDbPolyline
 90
       25
 70
   128
 43
0.0
 10
212.6329825418831
 20
205.2731994036145
 10
212.6530842083333
 20
205.2531126383248
 10
212.8133312958122
 20
205.0928655508466
 10
213.13096444782
 20
204.7752323988381
 10
213.6003137725235
 20
204.3058756235547
 10
214.2130122679113
 20
203.6931696775861
 10
214.9581150310875
 20
202.9480818155713
 10
215.8223376768468
 20
202.0838442686505
 10
216.7902426021934
 20
201.1159542444653
 10
217.8445742624641
 20
200.061607683033
 10
218.9665050404907
 20
198.9396992567487
 10
220.1360226767896
 20
197.7701667192883
 10
221.3322506445289
 20
196.5739313009682
 10
222.5338504808782
 20
195.3723314646192
 10
223.7193645137189
 20
194.186824882359
 10
224.8676554458976
 20
193.0385414007611
 10
225.9582192796112
 20
191.9479552153058
 10
226.9716025489212
 20
190.9345868471565
 10
227.8897152441383
 20
190.0164667013588
 10
228.6961809891103
 20
189.2100158575478
 10
229.376597811544
 20
188.5295990351148
 10
229.9188361662269
 20
187.9873457792706
 10
230.3132102983833
 20
187.5929716471143
 10
230.552679409349
 20
187.3535099867291
 10
230.6329892176033
 20
187.2731927278938
  0
LWPOLYLINE
  5
25E4
330
A
100
AcDbEntity
  8
MODEL
  6
Continuous
100
AcDbPolyline
 90
       25
 70
   128
 43
0.0
 10
230.6329892176035
 20
487.0732049885693
 10
230.6128875511525
 20
487.0531070474095
 10
230.4526404636744
 20
486.8928599599304
 10
230.1350073116658
 20
486.5752268079228
 10
229.6656579869631
 20
486.1058756205745
 10
229.0529594915746
 20
485.4931789878316
 10
228.3078567283991
 20
484.7480724993653
 10
227.4436340826391
 20
483.8838573041859
 10
226.4757291572931
 20
482.9159449282594
 10
225.4213974970224
 20
481.8616169932785
 10
224.2994667189959
 20
480.7396862152524
 10
223.1299490826963
 20
479.5701685789533
 10
221.9337211149576
 20
478.3739406112137
 10
220.7321212786077
 20
477.1723445001545
 10
219.5466072457669
 20
475.9868230167336
 10
218.3983163135889
 20
474.8385358098454
 10
217.3077524798754
 20
473.7479682508412
 10
216.2943692105654
 20
472.7345887068219
 10
215.3762565153482
 20
471.8164722863145
 10
214.5697907703756
 20
471.0100102666325
 10
213.8893739479425
 20
470.3295897189088
 10
213.3471355932596
 20
469.7873550895162
 10
212.9527614611033
 20
469.3929809573598
 10
212.7132848995569
 20
469.1535081211038
 10
212.6329825418833
 20
469.0732057634301
  0
LINE
  5
25E5
102
{ACAD_REACTORS
330
2756
102
}
330
A
100
AcDbEntity
  8
MODEL
  6
Continuous
100
AcDbLine
 10
130.6329857484267
 20
187.1732059362836
 30
0.0
 11
130.6329857484267
 21
196.1732092741432
 31
0.0
  0
LINE
  5
25E6
330
A
100
AcDbEntity
  8
MODEL
  6
Continuous
100
AcDbLine
 10
132.6329857270063
 20
196.1732092741432
 30
0.0
 11
130.6329857484267
 21
196.1732092741432
 31
0.0
  0
LINE
  5
25E7
330
A
100
AcDbEntity
  8
MODEL
  6
Continuous
100
AcDbLine
 10
132.6329857270063
 20
187.1732059362836
 30
0.0
 11
132.6329857270063
 21
196.1732092741432
 31
0.0
  0
LINE
  5
25E8
330
A
100
AcDbEntity
  8
MODEL
  6
Continuous
100
AcDbLine
 10
132.6329857270063
 20
187.1732059362836
 30
0.0
 11
130.6329857484267
 21
187.1732059362836
 31
0.0
  0
LINE
  5
25E9
102
{ACAD_REACTORS
330
2756
102
}
330
A
100
AcDbEntity
  8
MODEL
  6
Continuous
100
AcDbLine
 10
132.6329857270065
 20
478.1732070687718
 30
0.0
 11
130.6329857484268
 21
478.1732070687718
 31
0.0
  0
LINE
  5
25EA
330
A
100
AcDbEntity
  8
MODEL
  6
Continuous
100
AcDbLine
 10
132.6329857270063
 20
196.1732092741432
 30
0.0
 11
132.6329857270065
 21
478.1732070687718
 31
0.0
  0
LINE
  5
25EB
330
A
100
AcDbEntity
  8
MODEL
  6
Continuous
100
AcDbLine
 10
130.6329857484267
 20
196.1732092741432
 30
0.0
 11
130.6329857484268
 21
478.1732070687718
 31
0.0
  0
LINE
  5
25EC
330
A
100
AcDbEntity
  8
MODEL
  6
Continuous
100
AcDbLine
 10
132.6329857270065
 20
487.1732048186965
 30
0.0
 11
130.6329857484268
 21
487.1732048186965
 31
0.0
  0
LINE
  5
25ED
330
A
100
AcDbEntity
  8
MODEL
  6
Continuous
100
AcDbLine
 10
132.6329857270065
 20
478.1732070687718
 30
0.0
 11
132.6329857270065
 21
487.1732048186965
 31
0.0
  0
LINE
  5
25EE
330
A
100
AcDbEntity
  8
MODEL
  6
Continuous
100
AcDbLine
 10
130.6329857484268
 20
478.1732070687718
 30
0.0
 11
130.6329857484268
 21
487.1732048186965
 31
0.0
  0
LINE
  5
25EF
330
A
100
AcDbEntity
  8
MODEL
  6
Continuous
100
AcDbLine
 10
132.6329857270063
 20
187.1732059362836
 30
0.0
 11
134.1329855072139
 21
187.1732059362836
 31
0.0
  0
LINE
  5
25F0
330
A
100
AcDbEntity
  8
MODEL
  6
Continuous
100
AcDbLine
 10
134.1329855072139
 20
262.1731940153546
 30
0.0
 11
132.6329857270065
 21
262.1731940153546
 31
0.0
  0
LINE
  5
25F1
330
A
100
AcDbEntity
  8
MODEL
  6
Continuous
100
AcDbLine
 10
134.1329855072139
 20
487.1732048186965
 30
0.0
 11
132.6329857270065
 21
487.1732048186965
 31
0.0
  0
LINE
  5
25F2
330
A
100
AcDbEntity
  8
MODEL
  6
Continuous
100
AcDbLine
 10
132.6329857270065
 20
412.1732074263997
 30
0.0
 11
134.1329855072139
 21
412.1732074263997
 31
0.0
  0
ARC
  5
25F3
330
A
100
AcDbEntity
  8
MODEL
  6
Continuous
100
AcDbCircle
 10
139.6329857009295
 20
409.1732053317756
 30
0.0
 40
3.0
100
AcDbArc
 50
0.0
 51
90.0
  0
LINE
  5
25F4
330
A
100
AcDbEntity
  8
MODEL
  6
Continuous
100
AcDbLine
 10
139.632985477412
 20
412.1732074263997
 30
0.0
 11
134.1329855072139
 21
412.1732074263997
 31
0.0
  0
LINE
  5
25F5
330
A
100
AcDbEntity
  8
MODEL
  6
Continuous
100
AcDbLine
 10
134.1329855072139
 20
487.1732048186965
 30
0.0
 11
215.632988621557
 21
487.1732048186965
 31
0.0
  0
LINE
  5
25F6
330
A
100
AcDbEntity
  8
MODEL
  6
Continuous
100
AcDbLine
 10
134.1329855072139
 20
262.1731940153546
 30
0.0
 11
139.632985477412
 21
262.1731940153546
 31
0.0
  0
ARC
  5
25F7
330
A
100
AcDbEntity
  8
MODEL
  6
Continuous
100
AcDbCircle
 10
139.6329857009295
 20
265.1732053317756
 30
0.0
 40
3.0
100
AcDbArc
 50
270.0
 51
0.0
  0
LINE
  5
25F8
330
A
100
AcDbEntity
  8
MODEL
  6
Continuous
100
AcDbLine
 10
142.6329859691504
 20
409.1732087973065
 30
0.0
 11
142.6329859691504
 21
265.1732149961891
 31
0.0
  0
LINE
  5
25F9
330
A
100
AcDbEntity
  8
MODEL
  6
Continuous
100
AcDbLine
 10
134.1329855072139
 20
187.1732059362836
 30
0.0
 11
215.6329886215568
 21
187.1732059362836
 31
0.0
  0
LINE
  5
25FA
330
A
100
AcDbEntity
  8
MODEL
  6
Continuous
100
AcDbLine
 10
216.6329831975344
 20
487.1732048186965
 30
0.0
 11
216.6329831975344
 21
487.0732049885693
 31
0.0
  0
LINE
  5
25FB
330
A
100
AcDbEntity
  8
MODEL
  6
Continuous
100
AcDbLine
 10
216.6329831975341
 20
187.2731927278938
 30
0.0
 11
216.6329831975341
 21
187.1732059362836
 31
0.0
  0
LINE
  5
25FC
330
A
100
AcDbEntity
  8
MODEL
  6
Continuous
100
AcDbLine
 10
222.6329879063013
 20
487.1732048186965
 30
0.0
 11
222.6329879063013
 21
487.0732049885693
 31
0.0
  0
LINE
  5
25FD
330
A
100
AcDbEntity
  8
MODEL
  6
Continuous
100
AcDbLine
 10
222.6329879063011
 20
187.2731927278938
 30
0.0
 11
222.6329879063011
 21
187.1732059362836
 31
0.0
  0
LINE
  5
25FE
330
A
100
AcDbEntity
  8
MODEL
  6
Continuous
100
AcDbLine
 10
233.1329868334177
 20
462.673205459446
 30
0.0
 11
230.6329892176035
 21
462.673205459446
 31
0.0
  0
LINE
  5
25FF
330
A
100
AcDbEntity
  8
MODEL
  6
Continuous
100
AcDbLine
 10
230.6329892176033
 20
211.6732183340497
 30
0.0
 11
233.1329868334175
 21
211.6732183340497
 31
0.0
  0
LINE
  5
2600
330
A
100
AcDbEntity
  8
MODEL
  6
Continuous
100
AcDbLine
 10
134.1329855072139
 20
187.1732059362836
 30
0.0
 11
134.1329855072139
 21
187.2731927278938
 31
0.0
  0
LINE
  5
2601
330
A
100
AcDbEntity
  8
MODEL
  6
Continuous
100
AcDbLine
 10
134.1329855072139
 20
205.2731994036145
 30
0.0
 11
134.1329855072139
 21
262.1731940153546
 31
0.0
  0
LINE
  5
2602
330
A
100
AcDbEntity
  8
MODEL
  6
Continuous
100
AcDbLine
 10
134.1329855072139
 20
412.1732074263997
 30
0.0
 11
134.1329855072139
 21
469.0732057634301
 31
0.0
  0
LINE
  5
2603
330
A
100
AcDbEntity
  8
MODEL
  6
Continuous
100
AcDbLine
 10
134.1329855072139
 20
487.0732049885693
 30
0.0
 11
134.1329855072139
 21
487.1732048186965
 31
0.0
  0
DIMENSION
  5
2604
330
A
100
AcDbEntity
  8
DIM
100
AcDbDimension
  2
*D8
 10
230.6329857009337
 20
157.1732053317781
 30
0.0
 11
180.6329857009313
 21
157.1732053317779
 31
0.0
 70
   160
 71
     2
 42
99.99999995250687
 73
     0
 74
     0
 75
     0
  3
tfrom線あり
100
AcDbAlignedDimension
 13
130.6329857484267
 23
187.1732059362836
 33
0.0
 14
230.6329857009335
 24
187.273205331776
 34
0.0
 50
-179.9999999999998
100
AcDbRotatedDimension
  0
LINE
  5
2605
330
A
100
AcDbEntity
  8
MODEL
  6
Continuous
100
AcDbLine
 10
383.8508556790706
 20
689.2234889652137
 30
0.0
 11
383.8508556790706
 21
778.2234891179506
 31
0.0
  0
LINE
  5
2606
330
A
100
AcDbEntity
  8
MODEL
  6
Continuous
100
AcDbLine
 10
401.8508565995083
 20
761.6119032587413
 30
0.0
 11
401.8508565995083
 21
689.2234889652137
 31
0.0
  0
LINE
  5
2607
330
A
100
AcDbEntity
  8
MODEL
  6
Continuous
100
AcDbLine
 10
401.8508565995083
 20
778.2234891179506
 30
0.0
 11
401.8508565995083
 21
769.8684895272855
 31
0.0
  0
LINE
  5
2608
330
A
100
AcDbEntity
  8
MODEL
  6
Continuous
100
AcDbLine
 10
402.4708548012362
 20
762.4584885175829
 30
0.0
 11
401.9708556506019
 21
762.4584885175829
 31
0.0
  0
LINE
  5
2609
330
A
100
AcDbEntity
  8
MODEL
  6
Continuous
100
AcDbLine
 10
401.9708556506019
 20
769.9884895097022
 30
0.0
 11
402.4708548012362
 21
769.9884895097022
 31
0.0
  0
LINE
  5
260A
330
A
100
AcDbEntity
  8
MODEL
  6
Continuous
100
AcDbLine
 10
401.9708556506019
 20
762.4584885175829
 30
0.0
 11
401.4812463346105
 21
762.9480996962194
 31
0.0
  0
LINE
  5
260B
330
A
100
AcDbEntity
  8
MODEL
  6
Continuous
100
AcDbLine
 10
401.8508565995083
 20
769.8684895272855
 30
0.0
 11
401.9708556506019
 21
769.9884895097022
 31
0.0
  0
ARC
  5
260C
330
A
100
AcDbEntity
  8
MODEL
  6
Continuous
100
AcDbCircle
 10
478.2508556815964
 20
695.7234891440277
 30
0.0
 40
0.5000000000000568
100
AcDbArc
 50
270.0
 51
0.0
  0
ARC
  5
260D
330
A
100
AcDbEntity
  8
MODEL
  6
Continuous
100
AcDbCircle
 10
478.2508556815968
 20
722.7234891440277
 30
0.0
 40
0.5000000000000568
100
AcDbArc
 50
0.0
 51
90.0
  0
ARC
  5
260E
330
A
100
AcDbEntity
  8
MODEL
  6
Continuous
100
AcDbCircle
 10
470.2508556815968
 20
695.7234891440277
 30
0.0
 40
0.5000000000000568
100
AcDbArc
 50
180.0
 51
270.0
  0
ARC
  5
260F
330
A
100
AcDbEntity
  8
MODEL
  6
Continuous
100
AcDbCircle
 10
470.2508556815968
 20
722.7234891440277
 30
0.0
 40
0.5000000000000568
100
AcDbArc
 50
90.0
 51
180.0
  0
ARC
  5
2610
330
A
100
AcDbEntity
  8
MODEL
  6
Continuous
100
AcDbCircle
 10
392.8508556815967
 20
689.2234891440277
 30
0.0
 40
8.999999999999915
100
AcDbArc
 50
180.0
 51
270.0
  0
ARC
  5
2611
330
A
100
AcDbEntity
  8
MODEL
  6
Continuous
100
AcDbCircle
 10
392.8508556815967
 20
689.2234891440277
 30
0.0
 40
9.000000000000085
100
AcDbArc
 50
269.9999999999971
 51
0.0
  0
SPLINE
  5
2612
330
A
100
AcDbEntity
  8
MODEL
  6
Continuous
100
AcDbSpline
210
0.0
220
0.0
230
1.0
 70
     8
 71
     3
 72
    14
 73
    10
 74
     0
 42
0.000000001
 43
0.00000001
 40
0.0
 40
0.0
 40
0.0
 40
0.0
 40
0.1643855076856002
 40
0.3299839229893235
 40
0.500160009056847
 40
0.6704149790588285
 40
0.8077325921604324
 40
0.9207952981694936
 40
1.0
 40
1.0
 40
1.0
 40
1.0
 10
401.4735536101447
 20
768.4774288769369
 30
0.0
 10
401.3901845068989
 20
768.0582939693669
 30
0.0
 10
401.2228311669818
 20
767.2169315949765
 30
0.0
 10
401.1264887048586
 20
765.7005588628923
 30
0.0
 10
401.2292008950579
 20
764.1912076227001
 30
0.0
 10
401.4725649298379
 20
762.9133112071487
 30
0.0
 10
401.6989321860223
 20
762.0656982402558
 30
0.0
 10
401.8359419827156
 20
761.6201819478539
 30
0.0
 10
401.8379738458124
 20
761.6143186490496
 30
0.0
 10
401.8388108733283
 20
761.6119032587413
 30
0.0
  0
SPLINE
  5
2613
330
A
100
AcDbEntity
  8
MODEL
  6
Continuous
100
AcDbSpline
210
0.0
220
0.0
230
1.0
 70
     8
 71
     3
 72
    11
 73
     7
 74
     0
 42
0.000000001
 43
0.00000001
 40
0.0
 40
0.0
 40
0.0
 40
0.0
 40
0.1236556929051875
 40
0.4232469546942632
 40
0.7392198739844209
 40
0.9999999999999999
 40
0.9999999999999999
 40
0.9999999999999999
 40
0.9999999999999999
 10
401.8377566161734
 20
769.8317730661039
 30
0.0
 10
401.8411947562212
 20
769.8427805190187
 30
0.0
 10
401.8529627732909
 20
769.8804566729892
 30
0.0
 10
401.7677720800888
 20
769.6073145073525
 30
0.0
 10
401.6273962006616
 20
769.1276783037362
 30
0.0
 10
401.5214551040975
 20
768.679895039793
 30
0.0
 10
401.4735536101447
 20
768.4774288769369
 30
0.0
  0
ARC
  5
2614
330
A
100
AcDbEntity
  8
MODEL
  6
Continuous
100
AcDbCircle
 10
469.2508556815964
 20
691.8484419740481
 30
0.0
 40
0.5000000000000568
100
AcDbArc
 50
307.0426709285073
 51
0.0
  0
LINE
  5
2615
330
A
100
AcDbEntity
  8
MODEL
  6
Continuous
100
AcDbLine
 10
469.750858602224
 20
691.848440268219
 30
0.0
 11
469.750858602224
 21
731.2234883989696
 31
0.0
  0
ARC
  5
2616
330
A
100
AcDbEntity
  8
MODEL
  6
Continuous
100
AcDbCircle
 10
468.7508556815964
 20
731.2234891440277
 30
0.0
 40
1.000000000000028
100
AcDbArc
 50
0.0
 51
90.0
  0
LINE
  5
2617
330
A
100
AcDbEntity
  8
MODEL
  6
Continuous
100
AcDbLine
 10
463.7508538934575
 20
690.2234909917717
 30
0.0
 11
461.7508572909218
 21
690.2234909917717
 31
0.0
  0
LINE
  5
2618
330
A
100
AcDbEntity
  8
MODEL
  6
Continuous
100
AcDbLine
 10
461.7508572909218
 20
690.2234909917717
 30
0.0
 11
461.7508572909218
 21
695.2234862234001
 31
0.0
  0
LINE
  5
2619
330
A
100
AcDbEntity
  8
MODEL
  6
Continuous
100
AcDbLine
 10
461.7508572909218
 20
695.2234862234001
 30
0.0
 11
457.7508566352707
 21
695.2234862234001
 31
0.0
  0
ARC
  5
261A
330
A
100
AcDbEntity
  8
MODEL
  6
Continuous
100
AcDbCircle
 10
457.7508556815964
 20
694.2234891440277
 30
0.0
 40
0.9999999999999432
100
AcDbArc
 50
90.0
 51
180.0
  0
LINE
  5
261B
330
A
100
AcDbEntity
  8
MODEL
  6
Continuous
100
AcDbLine
 10
456.7508546087132
 20
694.2234916474227
 30
0.0
 11
456.7508546087132
 21
688.2234869386558
 31
0.0
  0
ARC
  5
261C
330
A
100
AcDbEntity
  8
MODEL
  6
Continuous
100
AcDbCircle
 10
457.7508556815964
 20
688.2234891440277
 30
0.0
 40
1.000000000000114
100
AcDbArc
 50
180.0
 51
270.0
  0
LINE
  5
261D
330
A
100
AcDbEntity
  8
MODEL
  6
Continuous
100
AcDbLine
 10
457.7508566352707
 20
687.2234923626785
 30
0.0
 11
466.3363096687184
 21
687.2234923626785
 31
0.0
  0
ARC
  5
261E
330
A
100
AcDbEntity
  8
MODEL
  6
Continuous
100
AcDbCircle
 10
466.3363121066326
 20
687.7234891440277
 30
0.0
 40
0.5000000000000568
100
AcDbArc
 50
270.0
 51
342.4700182668929
  0
ARC
  5
261F
330
A
100
AcDbEntity
  8
MODEL
  6
Continuous
100
AcDbCircle
 10
474.2508556815964
 20
685.2234891440277
 30
0.0
 40
7.800000000000093
100
AcDbArc
 50
127.0426709284353
 51
162.4700182669286
  0
ARC
  5
2620
330
A
100
AcDbEntity
  8
MODEL
  6
Continuous
100
AcDbCircle
 10
464.7508556815964
 20
731.2234891440277
 30
0.0
 40
1.000000000000028
100
AcDbArc
 50
90.0
 51
180.0
  0
LINE
  5
2621
330
A
100
AcDbEntity
  8
MODEL
  6
Continuous
100
AcDbLine
 10
468.7508565756665
 20
732.2234904255275
 30
0.0
 11
464.7508559200154
 21
732.2234904255275
 31
0.0
  0
LINE
  5
2622
330
A
100
AcDbEntity
  8
MODEL
  6
Continuous
100
AcDbLine
 10
463.7508538934575
 20
731.2234883989696
 30
0.0
 11
463.7508538934575
 21
690.2234909917717
 31
0.0
  0
LINE
  5
2623
330
A
100
AcDbEntity
  8
MODEL
  6
Continuous
100
AcDbLine
 10
401.9708556506019
 20
762.4584885175829
 30
0.0
 11
401.9708556506019
 21
769.9884895097022
 31
0.0
  0
LINE
  5
2624
330
A
100
AcDbEntity
  8
MODEL
  6
Continuous
100
AcDbLine
 10
402.4708548012362
 20
762.4584885175829
 30
0.0
 11
402.4708548012362
 21
769.9884895097022
 31
0.0
  0
LINE
  5
2625
330
A
100
AcDbEntity
  8
MODEL
  6
Continuous
100
AcDbLine
 10
478.7508544895035
 20
695.723487236679
 30
0.0
 11
478.7508544895035
 21
722.7234897996788
 31
0.0
  0
ARC
  5
2626
330
A
100
AcDbEntity
  8
MODEL
  6
Continuous
100
AcDbCircle
 10
471.2508556815968
 20
726.6072889740473
 30
0.0
 40
0.5000000000000568
100
AcDbArc
 50
174.9999999999746
 51
180.0
  0
LWPOLYLINE
  5
2627
330
A
100
AcDbEntity
  8
MODEL
  6
Continuous
100
AcDbPolyline
 90
        9
 70
   128
 43
0.0
 10
470.7527605268345
 20
726.6508659209613
 10
470.6555826041089
 20
726.6593670334224
 10
470.5621448728429
 20
726.6675440456276
 10
470.4760310623036
 20
726.675076582611
 10
470.4005492302762
 20
726.6816815223102
 10
470.3386051031933
 20
726.6871018196945
 10
470.2925754162651
 20
726.6911288585071
 10
470.2642334076744
 20
726.6936061765556
 10
470.2546594116078
 20
726.6944443668727
  0
ARC
  5
2628
330
A
100
AcDbEntity
  8
MODEL
  6
Continuous
100
AcDbCircle
 10
471.2508556815968
 20
726.6072889740473
 30
0.0
 40
1.000000000000036
100
AcDbArc
 50
175.0000000000003
 51
180.0
  0
LINE
  5
2629
330
A
100
AcDbEntity
  8
MODEL
  6
Continuous
100
AcDbLine
 10
470.2508521649228
 20
726.6072874750499
 30
0.0
 11
470.7508531782013
 21
726.6072874750499
 31
0.0
  0
ARC
  5
262A
330
A
100
AcDbEntity
  8
MODEL
  6
Continuous
100
AcDbCircle
 10
477.2508556815968
 20
726.6072889740486
 30
0.0
 40
0.9999999999999583
100
AcDbArc
 50
0.0
 51
5.000000000000028
  0
LWPOLYLINE
  5
262B
330
A
100
AcDbEntity
  8
MODEL
  6
Continuous
100
AcDbPolyline
 90
        9
 70
   128
 43
0.0
 10
478.2470536801205
 20
726.6944443668727
 10
478.237479684053
 20
726.6936061765556
 10
478.2091376754623
 20
726.6911288585071
 10
478.163107988535
 20
726.6871018196945
 10
478.1011638614522
 20
726.6816815223102
 10
478.0256820294247
 20
726.675076582611
 10
477.9395682188855
 20
726.6675440456276
 10
477.8461304876195
 20
726.6593670334224
 10
477.7489525648938
 20
726.6508659209613
  0
ARC
  5
262C
330
A
100
AcDbEntity
  8
MODEL
  6
Continuous
100
AcDbCircle
 10
477.2508556815968
 20
726.6072889740486
 30
0.0
 40
0.4999999999999791
100
AcDbArc
 50
0.0
 51
5.000000000025983
  0
LINE
  5
262D
330
A
100
AcDbEntity
  8
MODEL
  6
Continuous
100
AcDbLine
 10
477.750852462946
 20
726.6072874750499
 30
0.0
 11
478.250853476225
 21
726.6072874750499
 31
0.0
  0
ARC
  5
262E
330
A
100
AcDbEntity
  8
MODEL
  6
Continuous
100
AcDbCircle
 10
476.5845245075792
 20
734.2234891440277
 30
0.0
 40
1.000000000000036
100
AcDbArc
 50
4.999999999999743
 51
90.0
  0
LINE
  5
262F
330
A
100
AcDbEntity
  8
MODEL
  6
Continuous
100
AcDbLine
 10
476.5845236751419
 20
735.2234890546207
 30
0.0
 11
476.5845236751419
 21
734.7234880413417
 31
0.0
  0
ARC
  5
2630
330
A
100
AcDbEntity
  8
MODEL
  6
Continuous
100
AcDbCircle
 10
476.5845245075792
 20
734.2234891440277
 30
0.0
 40
0.5000000000000567
100
AcDbArc
 50
4.999999999972935
 51
90.0
  0
LWPOLYLINE
  5
2631
330
A
100
AcDbEntity
  8
MODEL
  6
Continuous
100
AcDbPolyline
 90
        9
 70
   128
 43
0.0
 10
477.5807184550148
 20
734.3106439198856
 10
477.5711519095283
 20
734.3098057295684
 10
477.5428024503575
 20
734.30732841152
 10
477.4967727634297
 20
734.3033013727073
 10
477.4348286363464
 20
734.2978810753231
 10
477.359346804319
 20
734.2912761356239
 10
477.2732329937802
 20
734.2837435986404
 10
477.1797952625137
 20
734.2755703117256
 10
477.0826247903691
 20
734.2670654739742
  0
LINE
  5
2632
330
A
100
AcDbEntity
  8
MODEL
  6
Continuous
100
AcDbLine
 10
477.0826247903691
 20
734.2670654739742
 30
0.0
 11
477.7489525648938
 21
726.6508659209613
 31
0.0
  0
LINE
  5
2633
330
A
100
AcDbEntity
  8
MODEL
  6
Continuous
100
AcDbLine
 10
478.2470536801205
 20
726.6944443668727
 30
0.0
 11
477.5807184550148
 21
734.3106439198856
 31
0.0
  0
LINE
  5
2634
330
A
100
AcDbEntity
  8
MODEL
  6
Continuous
100
AcDbLine
 10
470.7508531782013
 20
693.8981620456581
 30
0.0
 11
470.2508521649228
 21
693.8981620456581
 31
0.0
  0
LINE
  5
2635
330
A
100
AcDbEntity
  8
MODEL
  6
Continuous
100
AcDbLine
 10
470.7508531782013
 20
693.8981620456581
 30
0.0
 11
470.7508531782013
 21
726.6072874750499
 31
0.0
  0
LINE
  5
2636
330
A
100
AcDbEntity
  8
MODEL
  6
Continuous
100
AcDbLine
 10
470.2508521649228
 20
726.6072874750499
 30
0.0
 11
470.2508521649228
 21
693.8981620456581
 31
0.0
  0
LINE
  5
2637
330
A
100
AcDbEntity
  8
MODEL
  6
Continuous
100
AcDbLine
 10
471.9171894165855
 20
734.7234880413417
 30
0.0
 11
476.5845236751419
 21
734.7234880413417
 31
0.0
  0
ARC
  5
2638
330
A
100
AcDbEntity
  8
MODEL
  6
Continuous
100
AcDbCircle
 10
471.917186855614
 20
734.2234891440277
 30
0.0
 40
0.4999999999999717
100
AcDbArc
 50
90.0
 51
175.0000000000259
  0
LINE
  5
2639
330
A
100
AcDbEntity
  8
MODEL
  6
Continuous
100
AcDbLine
 10
470.7527605268345
 20
726.6508659209613
 30
0.0
 11
471.4190883013592
 21
734.2670654739742
 31
0.0
  0
ARC
  5
263A
330
A
100
AcDbEntity
  8
MODEL
  6
Continuous
100
AcDbCircle
 10
465.2508556815968
 20
693.8981649304761
 30
0.0
 40
5.500000000000028
100
AcDbArc
 50
316.0544804376917
 51
0.0
  0
ARC
  5
263B
330
A
100
AcDbEntity
  8
MODEL
  6
Continuous
100
AcDbCircle
 10
474.2508556815968
 20
685.2234891440277
 30
0.0
 40
7.000000000000044
100
AcDbArc
 50
136.0544804376904
 51
43.94551956230964
  0
ARC
  5
263C
330
A
100
AcDbEntity
  8
MODEL
  6
Continuous
100
AcDbCircle
 10
483.2508556815966
 20
693.8981649304761
 30
0.0
 40
5.499999999999943
100
AcDbArc
 50
180.0
 51
223.9455195623075
  0
LINE
  5
263D
330
A
100
AcDbEntity
  8
MODEL
  6
Continuous
100
AcDbLine
 10
477.750852462946
 20
726.6072874750499
 30
0.0
 11
477.750852462946
 21
693.8981620456581
 31
0.0
  0
LINE
  5
263E
330
A
100
AcDbEntity
  8
MODEL
  6
Continuous
100
AcDbLine
 10
471.9171894165855
 20
735.2234890546207
 30
0.0
 11
471.9171894165855
 21
734.7234880413417
 31
0.0
  0
ARC
  5
263F
330
A
100
AcDbEntity
  8
MODEL
  6
Continuous
100
AcDbCircle
 10
471.917186855614
 20
734.2234891440277
 30
0.0
 40
1.000000000000028
100
AcDbArc
 50
90.0
 51
175.0000000000003
  0
LWPOLYLINE
  5
2640
330
A
100
AcDbEntity
  8
MODEL
  6
Continuous
100
AcDbPolyline
 90
        9
 70
   128
 43
0.0
 10
471.4190883013592
 20
734.2670654739742
 10
471.3219178292137
 20
734.2755703117256
 10
471.2284726473675
 20
734.2837435986404
 10
471.1423588368283
 20
734.2912761356239
 10
471.066884455381
 20
734.2978810753231
 10
471.0049403282986
 20
734.3033013727073
 10
470.9589106413708
 20
734.30732841152
 10
470.9305611821991
 20
734.3098057295684
 10
470.9209946367126
 20
734.3106439198856
  0
LINE
  5
2641
330
A
100
AcDbEntity
  8
MODEL
  6
Continuous
100
AcDbLine
 10
476.5845236751419
 20
735.2234890546207
 30
0.0
 11
471.9171894165855
 21
735.2234890546207
 31
0.0
  0
LINE
  5
2642
330
A
100
AcDbEntity
  8
MODEL
  6
Continuous
100
AcDbLine
 10
478.250853476225
 20
693.8981620456581
 30
0.0
 11
477.750852462946
 21
693.8981620456581
 31
0.0
  0
LINE
  5
2643
330
A
100
AcDbEntity
  8
MODEL
  6
Continuous
100
AcDbLine
 10
478.250853476225
 20
693.8981620456581
 30
0.0
 11
478.250853476225
 21
726.6072874750499
 31
0.0
  0
LINE
  5
2644
330
A
100
AcDbEntity
  8
MODEL
  6
Continuous
100
AcDbLine
 10
470.9209946367126
 20
734.3106439198856
 30
0.0
 11
470.2546594116078
 21
726.6944443668727
 31
0.0
  0
ARC
  5
2645
330
A
100
AcDbEntity
  8
MODEL
  6
Continuous
100
AcDbCircle
 10
465.2508556815968
 20
693.8981649304761
 30
0.0
 40
5.000000000000057
100
AcDbArc
 50
316.0544804376903
 51
0.0
  0
LWPOLYLINE
  5
2646
330
A
100
AcDbEntity
  8
MODEL
  6
Continuous
100
AcDbPolyline
 90
        9
 70
   128
 43
0.0
 10
469.2108554217206
 20
690.08130411166
 10
469.140626249014
 20
690.1490000869636
 10
469.0730867359024
 20
690.2140958096389
 10
469.0108520361767
 20
690.2740804340248
 10
468.9562988850456
 20
690.3266666318779
 10
468.9115283462387
 20
690.3698203946952
 10
468.8782615038739
 20
690.4018802430038
 10
468.8577724072319
 20
690.4216242815857
 10
468.8508582684384
 20
690.4282925512199
  0
LWPOLYLINE
  5
2647
330
A
100
AcDbEntity
  8
MODEL
  6
Continuous
100
AcDbPolyline
 90
        9
 70
   128
 43
0.0
 10
479.2908576700078
 20
690.08130411166
 10
479.3610868427144
 20
690.1490000869636
 10
479.4286189052449
 20
690.2140958096389
 10
479.4908610555516
 20
690.2740804340248
 10
479.5454142066818
 20
690.3266666318779
 10
479.5901847454887
 20
690.3698203946952
 10
479.6234515878544
 20
690.4018802430038
 10
479.6439406844955
 20
690.4216242815857
 10
479.6508548232899
 20
690.4282925512199
  0
ARC
  5
2648
330
A
100
AcDbEntity
  8
MODEL
  6
Continuous
100
AcDbCircle
 10
483.2508556815966
 20
693.8981649304761
 30
0.0
 40
4.999999999999972
100
AcDbArc
 50
180.0
 51
223.9455195623101
  0
ARC
  5
2649
330
A
100
AcDbEntity
  8
MODEL
  6
Continuous
100
AcDbCircle
 10
474.2508556815968
 20
685.2234891440277
 30
0.0
 40
7.50000000000004
100
AcDbArc
 50
136.0544804376917
 51
43.94551956230739
  0
LINE
  5
264A
330
A
100
AcDbEntity
  8
MODEL
  6
Continuous
100
AcDbLine
 10
473.1008557054387
 20
749.2234876241092
 30
0.0
 11
475.4008573862897
 21
749.2234876241092
 31
0.0
  0
LINE
  5
264B
330
A
100
AcDbEntity
  8
MODEL
  6
Continuous
100
AcDbLine
 10
473.1008557054387
 20
749.2234876241092
 30
0.0
 11
473.1008557054387
 21
735.2234890546207
 31
0.0
  0
LINE
  5
264C
330
A
100
AcDbEntity
  8
MODEL
  6
Continuous
100
AcDbLine
 10
475.4008573862897
 20
749.2234876241092
 30
0.0
 11
475.4008573862897
 21
735.2234890546207
 31
0.0
  0
LINE
  5
264D
330
A
100
AcDbEntity
  8
MODEL
  6
Continuous
100
AcDbLine
 10
461.7508572909218
 20
776.7234893377428
 30
0.0
 11
463.7508538934575
 21
776.7234893377428
 31
0.0
  0
LINE
  5
264E
330
A
100
AcDbEntity
  8
MODEL
  6
Continuous
100
AcDbLine
 10
461.7508572909218
 20
776.7234893377428
 30
0.0
 11
461.7508572909218
 21
692.2234875943069
 31
0.0
  0
LINE
  5
264F
330
A
100
AcDbEntity
  8
MODEL
  6
Continuous
100
AcDbLine
 10
461.7508572909218
 20
692.2234875943069
 30
0.0
 11
463.7508538934575
 21
692.2234875943069
 31
0.0
  0
LINE
  5
2650
330
A
100
AcDbEntity
  8
MODEL
  6
Continuous
100
AcDbLine
 10
463.7508538934575
 20
776.7234893377428
 30
0.0
 11
463.7508538934575
 21
692.2234875943069
 31
0.0
  0
ARC
  5
2651
330
A
100
AcDbEntity
  8
MODEL
  6
Continuous
100
AcDbCircle
 10
460.2508556815968
 20
776.7234891440277
 30
0.0
 40
3.499999999999972
100
AcDbArc
 50
0.0
 51
90.0
  0
LINE
  5
2652
330
A
100
AcDbEntity
  8
MODEL
  6
Continuous
100
AcDbLine
 10
460.2508542510849
 20
778.2234891179506
 30
0.0
 11
460.2508542510849
 21
780.2234890965302
 31
0.0
  0
ARC
  5
2653
330
A
100
AcDbEntity
  8
MODEL
  6
Continuous
100
AcDbCircle
 10
460.2508556815968
 20
776.7234891440277
 30
0.0
 40
1.5
100
AcDbArc
 50
0.0
 51
90.0
  0
LINE
  5
2654
330
A
100
AcDbEntity
  8
MODEL
  6
Continuous
100
AcDbLine
 10
392.7508552941666
 20
780.2234890965302
 30
0.0
 11
460.2508542510849
 21
780.2234890965302
 31
0.0
  0
LINE
  5
2655
330
A
100
AcDbEntity
  8
MODEL
  6
Continuous
100
AcDbLine
 10
392.7508552941666
 20
778.2234891179506
 30
0.0
 11
392.7508552941666
 21
780.2234890965302
 31
0.0
  0
LINE
  5
2656
330
A
100
AcDbEntity
  8
MODEL
  6
Continuous
100
AcDbLine
 10
392.7508552941666
 20
778.2234891179506
 30
0.0
 11
460.2508542510849
 21
778.2234891179506
 31
0.0
  0
LINE
  5
2657
330
A
100
AcDbEntity
  8
MODEL
  6
Continuous
100
AcDbLine
 10
392.7508552941666
 20
780.2234890965302
 30
0.0
 11
383.7508556815964
 21
780.2234890965302
 31
0.0
  0
LINE
  5
2658
102
{ACAD_REACTORS
330
27D8
102
}
330
A
100
AcDbEntity
  8
MODEL
  6
Continuous
100
AcDbLine
 10
383.7508556815964
 20
778.2234891179506
 30
0.0
 11
383.7508556815964
 21
780.2234890965302
 31
0.0
  0
LINE
  5
2659
330
A
100
AcDbEntity
  8
MODEL
  6
Continuous
100
AcDbLine
 10
392.7508552941666
 20
778.2234891179506
 30
0.0
 11
383.7508556815964
 21
778.2234891179506
 31
0.0
  0
DIMENSION
  5
265A
330
A
100
AcDbEntity
  8
DIM
100
AcDbDimension
  2
*D9
 10
383.8508556815967
 20
641.0473460728532
 30
0.0
 11
392.8508556815963
 21
641.0473460728532
 31
0.0
 70
   160
  1
%%c<>
 71
     2
 42
18.0
 73
     0
 74
     0
 75
     0
 52
-90.00000000000001
  3
tfrom線あり
100
AcDbAlignedDimension
 13
401.8508556815967
 23
689.2234891440263
 33
0.0
 14
383.8508556815967
 24
689.2234891440263
 34
0.0
 50
179.9999999999998
100
AcDbRotatedDimension
  0
DIMENSION
  5
265B
330
A
100
AcDbEntity
  8
DIM
100
AcDbDimension
  2
*D10
 10
463.7508556815968
 20
816.9892937601091
 30
0.0
 11
423.7508556815968
 21
816.9892937601093
 31
0.0
 70
   160
 71
     2
 42
80.00000000000041
 73
     0
 74
     0
 75
     0
 52
-90.00000000000001
  3
tfrom線あり
100
AcDbAlignedDimension
 13
383.7508556815964
 23
780.2234891440268
 33
0.0
 14
463.7508556815968
 24
776.7234891440263
 34
0.0
 50
179.9999999999998
100
AcDbRotatedDimension
  0
DIMENSION
  5
2754
102
{ACAD_REACTORS
330
2756
102
}
102
{ACAD_XDICTIONARY
360
2755
102
}
330
A
100
AcDbEntity
  8
DIM
100
AcDbDimension
  2
*D11
 10
94.01817071891274
 20
478.1732070687718
 30
0.0
 11
86.51817071891273
 21
337.1732081714575
 31
0.0
 70
    32
  1
280
 71
     5
 42
281.9999977946286
 73
     0
 74
     0
 75
     0
  3
tfrom線あり
100
AcDbAlignedDimension
 13
130.6329857484267
 23
196.1732092741432
 33
0.0
 14
130.6329857484268
 24
478.1732070687718
 34
0.0
 50
90.0
100
AcDbRotatedDimension
1001
ACAD
1000
DSTYLE
1002
{
1070
   144
1040
1.0
1002
}
  0
LINE
  5
279D
102
{ACAD_REACTORS
330
27A0
102
}
330
A
100
AcDbEntity
  8
DIM
  6
CENTER
 48
0.09
100
AcDbLine
 10
125.6326759444597
 20
196.1732092741432
 30
0.0
 11
137.6332955309733
 21
196.1732092741432
 31
0.0
  0
LINE
  5
279E
102
{ACAD_REACTORS
330
27A0
102
}
330
A
100
AcDbEntity
  8
DIM
  6
CENTER
 48
0.305
100
AcDbLine
 10
128.0265209853775
 20
193.7981608996637
 30
0.0
 11
135.2394504900555
 21
193.7981608996637
 31
0.0
  0
LINE
  5
279F
102
{ACAD_REACTORS
330
27A0
102
}
330
A
100
AcDbEntity
  8
DIM
  6
CENTER
 48
0.305
100
AcDbLine
 10
128.0265209853775
 20
198.5482576486227
 30
0.0
 11
135.2394504900555
 21
198.5482576486227
 31
0.0
  0
LINE
  5
27A1
102
{ACAD_REACTORS
330
27A4
102
}
330
A
100
AcDbEntity
  8
DIM
  6
CENTER
 48
0.09
100
AcDbLine
 10
125.6326759444598
 20
478.1732070687718
 30
0.0
 11
137.6332955309734
 21
478.1732070687718
 31
0.0
  0
LINE
  5
27A2
102
{ACAD_REACTORS
330
27A4
102
}
330
A
100
AcDbEntity
  8
DIM
  6
CENTER
 48
0.305
100
AcDbLine
 10
128.0265209853776
 20
475.7981586942923
 30
0.0
 11
135.2394504900556
 21
475.7981586942923
 31
0.0
  0
LINE
  5
27A3
102
{ACAD_REACTORS
330
27A4
102
}
330
A
100
AcDbEntity
  8
DIM
  6
CENTER
 48
0.305
100
AcDbLine
 10
128.0265209853776
 20
480.5482554432513
 30
0.0
 11
135.2394504900556
 21
480.5482554432513
 31
0.0
  0
LINE
  5
27A5
102
{ACAD_REACTORS
330
27A8
330
27D8
102
}
330
A
100
AcDbEntity
  8
DIM
  6
CENTER
 48
0.09
100
AcDbLine
 10
392.8007088322648
 20
773.4947379827255
 30
0.0
 11
392.8007088322648
 21
785.4953575692391
 31
0.0
  0
LINE
  5
27A6
102
{ACAD_REACTORS
330
27A8
102
}
330
A
100
AcDbEntity
  8
DIM
  6
CENTER
 48
0.305
100
AcDbLine
 10
395.1757572067443
 20
775.8885830236433
 30
0.0
 11
395.1757572067443
 21
783.1015125283212
 31
0.0
  0
LINE
  5
27A7
102
{ACAD_REACTORS
330
27A8
102
}
330
A
100
AcDbEntity
  8
DIM
  6
CENTER
 48
0.305
100
AcDbLine
 10
390.4256604577853
 20
775.8885830236433
 30
0.0
 11
390.4256604577853
 21
783.1015125283212
 31
0.0
  0
DIMENSION
  5
27D6
102
{ACAD_REACTORS
330
27D8
102
}
102
{ACAD_XDICTIONARY
360
27D7
102
}
330
A
100
AcDbEntity
  8
DIM
100
AcDbDimension
  2
*D12
 10
383.7508556815964
 20
803.4650031153789
 30
0.0
 11
388.2757822569306
 21
803.4650031153789
 31
0.0
 70
   160
 71
     5
 42
9.049853150668355
 73
     0
 74
     0
 75
     0
  3
tfrom線あり
100
AcDbAlignedDimension
 13
392.8007088322648
 23
785.4953575692391
 33
0.0
 14
383.7508556815964
 24
780.2234890965302
 34
0.0
100
AcDbRotatedDimension
1001
ACAD
1000
DSTYLE
1002
{
1070
   144
1040
1.0
1002
}
  0
VIEWPORT
  5
349
330
B
100
AcDbEntity
 67
     1
  8
0
100
AcDbViewport
 10
202.5
 20
128.5
 30
0.0
 40
486.0
 41
308.4
 68
     1
 69
     1
 12
202.5
 22
128.5
 13
0.0
 23
0.0
 14
0.5
 24
0.5
 15
0.0
 25
0.0
 16
0.0
 26
0.0
 36
1.0
 17
0.0
 27
0.0
 37
0.0
 42
50.0
 43
0.0
 44
0.0
 45
308.4
 50
0.0
 51
0.0
 72
   100
 90
   557152
  1

281
     0
 71
     1
 74
     0
110
0.0
120
0.0
130
0.0
111
1.0
121
0.0
131
0.0
112
0.0
122
1.0
132
0.0
 79
     0
146
0.0
170
     0
 61
     5
348
26C
292
     1
282
     1
141
0.0
142
0.0
 63
   256
  0
VIEWPORT
  5
34A
330
B
100
AcDbEntity
 67
     1
  8
0
100
AcDbViewport
 10
202.5
 20
128.5
 30
0.0
 40
324.0
 41
205.6
 68
     2
 69
     2
 12
986.6781359294573
 22
1427.077061889956
 13
0.0
 23
0.0
 14
0.5
 24
0.5
 15
0.0
 25
0.0
 16
0.0
 26
0.0
 36
1.0
 17
0.0
 27
0.0
 37
0.0
 42
50.0
 43
0.0
 44
0.0
 45
2890.021615685494
 50
0.0
 51
0.0
 72
   100
 90
   557152
  1

281
     0
 71
     1
 74
     0
110
0.0
120
0.0
130
0.0
111
1.0
121
0.0
131
0.0
112
0.0
122
1.0
132
0.0
 79
     0
146
0.0
170
     0
 61
     5
348
26C
292
     1
282
     1
141
0.0
142
0.0
 63
   256
  0
ENDSEC
  0
SECTION
  2
OBJECTS
  0
DICTIONARY
  5
19
330
0
100
AcDbDictionary
281
     1
  3
ACAD_COLOR
350
674
  3
ACAD_DETAILVIEWSTYLE
350
BBF
  3
ACAD_FIELDLIST
350
16CE
  3
ACAD_GROUP
350
1A
  3
ACAD_IMAGE_VARS
350
27B
  3
ACAD_LAYOUT
350
1E
  3
ACAD_MATERIAL
350
263
  3
ACAD_MLEADERSTYLE
350
336
  3
ACAD_MLINESTYLE
350
1B
  3
ACAD_PLOTSETTINGS
350
22
  3
ACAD_PLOTSTYLENAME
350
1F
  3
ACAD_SCALELIST
350
241
  3
ACAD_SECTIONVIEWSTYLE
350
BC0
  3
ACAD_TABLESTYLE
350
278
  3
ACAD_VISUALSTYLE
350
267
  3
ACDB_RECOMPOSE_DATA
350
27F4
  3
AcDbVariableDictionary
350
330
  3
APPDATA
350
27A
  3
CENTERLINE
350
213F
  3
DimOffsetDictionary
350
E38
  0
SUN
  5
904
330
15
100
AcDbSun
 90
        1
290
     0
 63
     7
421
 16777215
 40
1.0
291
     1
 91
  2455826
 92
 54000000
292
     0
 70
     2
 71
   256
280
     1
  0
DICTIONARY
  5
2E1
330
2
100
AcDbDictionary
280
     1
281
     1
  3
ACAD_LAYERSTATES
360
2E2
  3
ACLYDICTIONARY
360
DDE
  0
DICTIONARY
  5
16F1
330
16F0
100
AcDbDictionary
280
     1
281
     1
  3
ACAD_FIELD
360
16F2
  0
DICTIONARY
  5
2755
330
2754
100
AcDbDictionary
280
     1
281
     1
  3
ACAD_DIMASSOC
360
2756
  0
DICTIONARY
  5
27D7
330
27D6
100
AcDbDictionary
280
     1
281
     1
  3
ACAD_DIMASSOC
360
27D8
  0
DICTIONARY
  5
674
102
{ACAD_REACTORS
330
19
102
}
330
19
100
AcDbDictionary
281
     1
  0
DICTIONARY
  5
BBF
102
{ACAD_REACTORS
330
19
102
}
330
19
100
AcDbDictionary
281
     1
  0
FIELDLIST
  5
16CE
102
{ACAD_REACTORS
330
19
102
}
330
19
100
AcDbIdSet
 90
        1
330
16F3
100
AcDbFieldList
  0
DICTIONARY
  5
1A
102
{ACAD_REACTORS
330
19
102
}
330
19
100
AcDbDictionary
281
     1
  3
*A1
350
27A0
  3
*A2
350
27A4
  3
*A3
350
27A8
  0
RASTERVARIABLES
  5
27B
102
{ACAD_REACTORS
330
19
102
}
330
19
100
AcDbRasterVariables
 90
        0
 70
     1
 71
     1
 72
     1
  0
DICTIONARY
  5
1E
102
{ACAD_REACTORS
330
19
102
}
330
19
100
AcDbDictionary
281
     1
  3
Layout1
350
21
  3
Model
350
20
  0
DICTIONARY
  5
263
102
{ACAD_REACTORS
330
19
102
}
330
19
100
AcDbDictionary
281
     1
  3
ByBlock
350
265
  3
ByLayer
350
264
  3
Global
350
266
  0
DICTIONARY
  5
336
102
{ACAD_REACTORS
330
19
102
}
330
19
100
AcDbDictionary
281
     1
  3
Standard
350
D59
  0
DICTIONARY
  5
1B
102
{ACAD_REACTORS
330
19
102
}
330
19
100
AcDbDictionary
281
     1
  3
Standard
350
1C
  0
DICTIONARY
  5
22
102
{ACAD_REACTORS
330
19
102
}
330
19
100
AcDbDictionary
281
     1
  0
ACDBDICTIONARYWDFLT
  5
1F
102
{ACAD_REACTORS
330
19
102
}
330
19
100
AcDbDictionary
281
     1
  3
Normal
350
1D
100
AcDbDictionaryWithDefault
340
1D
  0
DICTIONARY
  5
241
102
{ACAD_REACTORS
330
19
102
}
330
19
100
AcDbDictionary
281
     1
  3
A0
350
242
  3
A1
350
243
  3
A2
350
244
  3
A3
350
245
  3
A4
350
246
  3
A5
350
247
  3
A6
350
248
  3
A7
350
249
  3
A8
350
24A
  3
A9
350
24B
  3
B0
350
24C
  3
B1
350
24D
  3
B2
350
24E
  3
B3
350
24F
  3
B4
350
250
  3
B5
350
251
  3
B6
350
252
  3
B7
350
253
  3
B8
350
254
  3
B9
350
255
  3
C0
350
256
  3
C1
350
257
  3
C2
350
258
  3
C3
350
259
  3
C4
350
25A
  3
C5
350
25B
  3
C6
350
25C
  3
C7
350
25D
  3
C8
350
25E
  3
C9
350
25F
  3
D0
350
260
  3
D1
350
261
  3
D2
350
262
  0
DICTIONARY
  5
BC0
102
{ACAD_REACTORS
330
19
102
}
330
19
100
AcDbDictionary
281
     1
  0
DICTIONARY
  5
278
102
{ACAD_REACTORS
330
19
102
}
330
19
100
AcDbDictionary
281
     1
  3
Standard
350
279
  0
DICTIONARY
  5
267
102
{ACAD_REACTORS
330
19
102
}
330
19
100
AcDbDictionary
281
     1
  3
*A1
350
213A
  3
2dWireframe
350
26C
  3
3D Hidden
350
26E
  3
3dWireframe
350
26D
  3
Basic
350
26F
  3
Brighten
350
273
  3
ColorChange
350
277
  3
Conceptual
350
271
  3
Dim
350
272
  3
EdgeColorOff
350
8FE
  3
Facepattern
350
276
  3
Flat
350
268
  3
FlatWithEdges
350
269
  3
Gouraud
350
26A
  3
GouraudWithEdges
350
26B
  3
Hidden
350
8FB
  3
JitterOff
350
8FC
  3
Linepattern
350
275
  3
OverhangOff
350
8FD
  3
Realistic
350
270
  3
Shaded
350
903
  3
Shaded with edges
350
902
  3
Shades of Gray
350
8FF
  3
Sketchy
350
900
  3
Thicken
350
274
  3
Wireframe
350
8FA
  3
X-Ray
350
901
  0
XRECORD
  5
27F4
102
{ACAD_REACTORS
330
19
102
}
330
19
100
AcDbXrecord
280
     1
 90
        1
330
279
  0
DICTIONARY
  5
330
102
{ACAD_REACTORS
330
19
102
}
330
19
100
AcDbDictionary
281
     1
  3
CANNOSCALE
350
331
  3
CMLEADERSTYLE
350
D5E
  3
CTABLESTYLE
350
335
  3
HPTRANSPARENCY
350
D52
  3
XCLIPFRAME
350
896
  0
DICTIONARY
  5
27A
102
{ACAD_REACTORS
330
19
102
}
330
19
100
AcDbDictionary
281
     1
  0
DICTIONARY
  5
213F
102
{ACAD_REACTORS
330
19
102
}
330
19
100
AcDbDictionary
281
     1
  3
CLEXTENSION
350
21C9
  0
DICTIONARY
  5
E38
102
{ACAD_REACTORS
330
19
102
}
330
19
100
AcDbDictionary
281
     1
  3
DIMRAILANGLE
350
21C7
  3
DIMRAILFIRSTOFFSET
350
21C5
  3
DIMRAILOFFSET
350
21C6
  3
DIMRAILSENABLED
350
21C8
  0
DICTIONARY
  5
2E2
102
{ACAD_REACTORS
330
2E1
102
}
330
2E1
100
AcDbDictionary
281
     1
  0
DICTIONARY
  5
DDE
102
{ACAD_REACTORS
330
2E1
102
}
330
2E1
100
AcDbDictionary
281
     1
1001
ACAD
1000
<All
  0
DICTIONARY
  5
16F2
102
{ACAD_REACTORS
330
16F1
102
}
330
16F1
100
AcDbDictionary
280
     1
281
     1
  3
TEXT
360
16F3
  0
DIMASSOC
  5
2756
102
{ACAD_REACTORS
330
2755
102
}
330
2755
100
AcDbDimAssoc
330
2754
 90
        3
 70
     0
 71
     1
  1
AcDbOsnapPointRef
 72
     1
331
25E5
 73
     0
 91
        0
 40
0.0
 10
0.0
 20
0.0
 30
0.0
 75
     0
  1
AcDbOsnapPointRef
 72
     1
331
25E9
 73
     0
 91
        0
 40
0.0
 10
0.0
 20
0.0
 30
0.0
 75
     0
  0
DIMASSOC
  5
27D8
102
{ACAD_REACTORS
330
27D7
102
}
330
27D7
100
AcDbDimAssoc
330
27D6
 90
        3
 70
     0
 71
     1
  1
AcDbOsnapPointRef
 72
     1
331
27A5
 73
     0
 91
        0
 40
0.0
 10
0.0
 20
0.0
 30
0.0
 75
     0
  1
AcDbOsnapPointRef
 72
     1
331
2658
 73
     0
 91
        0
 40
0.0
 10
0.0
 20
0.0
 30
0.0
 75
     0
  0
GROUP
  5
27A0
102
{ACAD_REACTORS
330
1A
102
}
330
1A
100
AcDbGroup
300

 70
     1
 71
     1
340
279D
340
279E
340
279F
  0
GROUP
  5
27A4
102
{ACAD_REACTORS
330
1A
102
}
330
1A
100
AcDbGroup
300

 70
     1
 71
     1
340
27A1
340
27A2
340
27A3
  0
GROUP
  5
27A8
102
{ACAD_REACTORS
330
1A
102
}
330
1A
100
AcDbGroup
300

 70
     1
 71
     1
340
27A5
340
27A6
340
27A7
  0
LAYOUT
  5
21
102
{ACAD_REACTORS
330
1E
102
}
330
1E
100
AcDbPlotSettings
  1

  2
none_device
  4
ISO_A3_(420.00_x_297.00_MM)
  6

 40
7.5
 41
20.0
 42
7.5
 43
20.0
 44
420.0
 45
297.0
 46
0.0
 47
0.0
 48
0.0
 49
0.0
140
0.0
141
0.0
142
1.0
143
1.0
 70
     0
 72
     1
 73
     0
 74
     0
  7

 75
     0
 76
     0
 77
     2
 78
   300
147
1.0
148
0.0
149
0.0
100
AcDbLayout
  1
Layout1
 70
     0
 71
     0
 10
-7.5
 20
-20.0
 11
412.5
 21
277.0
 12
0.0
 22
0.0
 32
0.0
 14
0.0
 24
0.0
 34
0.0
 15
0.0
 25
0.0
 35
0.0
146
0.0
 13
0.0
 23
0.0
 33
0.0
 16
0.0
 26
0.0
 36
0.0
 17
0.0
 27
0.0
 37
0.0
 76
     0
330
B
331
349
  0
LAYOUT
  5
20
102
{ACAD_REACTORS
330
1E
102
}
330
1E
100
AcDbPlotSettings
  1

  2
none_device
  4
ISO_A3_(420.00_x_297.00_MM)
  6

 40
7.5
 41
20.0
 42
7.5
 43
20.0
 44
420.0
 45
297.0
 46
0.0
 47
0.0
 48
0.0
 49
0.0
140
0.0
141
0.0
142
1.0
143
1.0
 70
  1024
 72
     1
 73
     0
 74
     0
  7

 75
     0
 76
     0
 77
     2
 78
   300
147
1.0
148
0.0
149
0.0
100
AcDbLayout
  1
Model
 70
     0
 71
     1
 10
0.0
 20
0.0
 11
630.0
 21
891.0
 12
0.0
 22
0.0
 32
0.0
 14
0.0
 24
0.0
 34
-0.0000000000000071
 15
630.0
 25
891.0
 35
0.0000000000000071
146
0.0
 13
0.0
 23
0.0
 33
0.0
 16
0.0
 26
0.0
 36
0.0
 17
0.0
 27
0.0
 37
0.0
 76
     0
330
A
331
15
  0
MATERIAL
  5
265
102
{ACAD_REACTORS
330
263
102
}
330
263
100
AcDbMaterial
  1
ByBlock
 72
     1
 94
      127
  0
MATERIAL
  5
264
102
{ACAD_REACTORS
330
263
102
}
330
263
100
AcDbMaterial
  1
ByLayer
 72
     1
 94
      127
  0
MATERIAL
  5
266
102
{ACAD_REACTORS
330
263
102
}
330
263
100
AcDbMaterial
  1
Global
 72
     1
 94
      127
  0
MLEADERSTYLE
  5
D59
102
{ACAD_REACTORS
330
336
102
}
330
336
100
AcDbMLeaderStyle
170
     2
171
     1
172
     0
 90
        2
 40
0.0
 41
0.0
173
     1
 91
-1056964608
340
11
 92
       -2
290
     1
 42
2.0
291
     1
 43
8.0
  3
Standard
341
0
 44
4.0
300

342
17
174
     1
178
     6
175
     1
176
     0
 93
-1056964608
 45
4.0
292
     0
297
     0
 46
4.0
343
0
 94
-1056964608
 47
1.0
 49
1.0
140
1.0
293
     1
141
0.0
294
     1
177
     0
142
1.0
295
     0
296
     0
143
3.75
1001
ACAD_MLEADERVER
1070
     2
  0
MLINESTYLE
  5
1C
102
{ACAD_REACTORS
330
1B
102
}
330
1B
100
AcDbMlineStyle
  2
Standard
 70
     0
  3

 62
     0
 51
90.0
 52
90.0
 71
     2
 49
0.5
 62
   256
  6
BYLAYER
 49
-0.5
 62
   256
  6
BYLAYER
  0
ACDBPLACEHOLDER
  5
1D
102
{ACAD_REACTORS
330
1F
102
}
330
1F
  0
SCALE
  5
242
102
{ACAD_REACTORS
330
241
102
}
330
241
100
AcDbScale
 70
     0
300
1:1
140
1.0
141
1.0
290
     1
  0
SCALE
  5
243
102
{ACAD_REACTORS
330
241
102
}
330
241
100
AcDbScale
 70
     0
300
1:2
140
1.0
141
2.0
290
     0
  0
SCALE
  5
244
102
{ACAD_REACTORS
330
241
102
}
330
241
100
AcDbScale
 70
     0
300
1:4
140
1.0
141
4.0
290
     0
  0
SCALE
  5
245
102
{ACAD_REACTORS
330
241
102
}
330
241
100
AcDbScale
 70
     0
300
1:5
140
1.0
141
5.0
290
     0
  0
SCALE
  5
246
102
{ACAD_REACTORS
330
241
102
}
330
241
100
AcDbScale
 70
     0
300
1:8
140
1.0
141
8.0
290
     0
  0
SCALE
  5
247
102
{ACAD_REACTORS
330
241
102
}
330
241
100
AcDbScale
 70
     0
300
1:10
140
1.0
141
10.0
290
     0
  0
SCALE
  5
248
102
{ACAD_REACTORS
330
241
102
}
330
241
100
AcDbScale
 70
     0
300
1:16
140
1.0
141
16.0
290
     0
  0
SCALE
  5
249
102
{ACAD_REACTORS
330
241
102
}
330
241
100
AcDbScale
 70
     0
300
1:20
140
1.0
141
20.0
290
     0
  0
SCALE
  5
24A
102
{ACAD_REACTORS
330
241
102
}
330
241
100
AcDbScale
 70
     0
300
1:30
140
1.0
141
30.0
290
     0
  0
SCALE
  5
24B
102
{ACAD_REACTORS
330
241
102
}
330
241
100
AcDbScale
 70
     0
300
1:40
140
1.0
141
40.0
290
     0
  0
SCALE
  5
24C
102
{ACAD_REACTORS
330
241
102
}
330
241
100
AcDbScale
 70
     0
300
1:50
140
1.0
141
50.0
290
     0
  0
SCALE
  5
24D
102
{ACAD_REACTORS
330
241
102
}
330
241
100
AcDbScale
 70
     0
300
1:100
140
1.0
141
100.0
290
     0
  0
SCALE
  5
24E
102
{ACAD_REACTORS
330
241
102
}
330
241
100
AcDbScale
 70
     0
300
2:1
140
2.0
141
1.0
290
     0
  0
SCALE
  5
24F
102
{ACAD_REACTORS
330
241
102
}
330
241
100
AcDbScale
 70
     0
300
4:1
140
4.0
141
1.0
290
     0
  0
SCALE
  5
250
102
{ACAD_REACTORS
330
241
102
}
330
241
100
AcDbScale
 70
     0
300
8:1
140
8.0
141
1.0
290
     0
  0
SCALE
  5
251
102
{ACAD_REACTORS
330
241
102
}
330
241
100
AcDbScale
 70
     0
300
10:1
140
10.0
141
1.0
290
     0
  0
SCALE
  5
252
102
{ACAD_REACTORS
330
241
102
}
330
241
100
AcDbScale
 70
     0
300
100:1
140
100.0
141
1.0
290
     0
  0
SCALE
  5
253
102
{ACAD_REACTORS
330
241
102
}
330
241
100
AcDbScale
 70
     0
300
1/128" = 1'-0"
140
0.0078125
141
12.0
290
     0
  0
SCALE
  5
254
102
{ACAD_REACTORS
330
241
102
}
330
241
100
AcDbScale
 70
     0
300
1/64" = 1'-0"
140
0.015625
141
12.0
290
     0
  0
SCALE
  5
255
102
{ACAD_REACTORS
330
241
102
}
330
241
100
AcDbScale
 70
     0
300
1/32" = 1'-0"
140
0.03125
141
12.0
290
     0
  0
SCALE
  5
256
102
{ACAD_REACTORS
330
241
102
}
330
241
100
AcDbScale
 70
     0
300
1/16" = 1'-0"
140
0.0625
141
12.0
290
     0
  0
SCALE
  5
257
102
{ACAD_REACTORS
330
241
102
}
330
241
100
AcDbScale
 70
     0
300
3/32" = 1'-0"
140
0.09375
141
12.0
290
     0
  0
SCALE
  5
258
102
{ACAD_REACTORS
330
241
102
}
330
241
100
AcDbScale
 70
     0
300
1/8" = 1'-0"
140
0.125
141
12.0
290
     0
  0
SCALE
  5
259
102
{ACAD_REACTORS
330
241
102
}
330
241
100
AcDbScale
 70
     0
300
3/16" = 1'-0"
140
0.1875
141
12.0
290
     0
  0
SCALE
  5
25A
102
{ACAD_REACTORS
330
241
102
}
330
241
100
AcDbScale
 70
     0
300
1/4" = 1'-0"
140
0.25
141
12.0
290
     0
  0
SCALE
  5
25B
102
{ACAD_REACTORS
330
241
102
}
330
241
100
AcDbScale
 70
     0
300
3/8" = 1'-0"
140
0.375
141
12.0
290
     0
  0
SCALE
  5
25C
102
{ACAD_REACTORS
330
241
102
}
330
241
100
AcDbScale
 70
     0
300
1/2" = 1'-0"
140
0.5
141
12.0
290
     0
  0
SCALE
  5
25D
102
{ACAD_REACTORS
330
241
102
}
330
241
100
AcDbScale
 70
     0
300
3/4" = 1'-0"
140
0.75
141
12.0
290
     0
  0
SCALE
  5
25E
102
{ACAD_REACTORS
330
241
102
}
330
241
100
AcDbScale
 70
     0
300
1" = 1'-0"
140
1.0
141
12.0
290
     0
  0
SCALE
  5
25F
102
{ACAD_REACTORS
330
241
102
}
330
241
100
AcDbScale
 70
     0
300
1-1/2" = 1'-0"
140
1.5
141
12.0
290
     0
  0
SCALE
  5
260
102
{ACAD_REACTORS
330
241
102
}
330
241
100
AcDbScale
 70
     0
300
3" = 1'-0"
140
3.0
141
12.0
290
     0
  0
SCALE
  5
261
102
{ACAD_REACTORS
330
241
102
}
330
241
100
AcDbScale
 70
     0
300
6" = 1'-0"
140
6.0
141
12.0
290
     0
  0
SCALE
  5
262
102
{ACAD_REACTORS
330
241
102
}
330
241
100
AcDbScale
 70
     0
300
1'-0" = 1'-0"
140
12.0
141
12.0
290
     0
  0
TABLESTYLE
  5
279
102
{ACAD_REACTORS
330
278
102
}
102
{ACAD_XDICTIONARY
360
27F2
102
}
330
278
100
AcDbTableStyle
  3
Standard
 70
     0
 71
     0
 40
0.06
 41
0.06
280
     0
281
     0
  7
Standard
140
4.5
170
     2
 62
     0
 63
   257
283
     0
 90
        4
 91
        0
  1

274
    -2
284
     1
 64
     0
275
    -2
285
     1
 65
     0
276
    -2
286
     1
 66
     0
277
    -2
287
     1
 67
     0
278
    -2
288
     1
 68
     0
279
    -2
289
     1
 69
     0
  7
Standard
140
6.0
170
     5
 62
     0
 63
   257
283
     0
 90
        4
 91
        0
  1

274
    -2
284
     1
 64
     0
275
    -2
285
     1
 65
     0
276
    -2
286
     1
 66
     0
277
    -2
287
     1
 67
     0
278
    -2
288
     1
 68
     0
279
    -2
289
     1
 69
     0
  7
Standard
140
4.5
170
     5
 62
     0
 63
   257
283
     0
 90
        4
 91
        0
  1

274
    -2
284
     1
 64
     0
275
    -2
285
     1
 65
     0
276
    -2
286
     1
 66
     0
277
    -2
287
     1
 67
     0
278
    -2
288
     1
 68
     0
279
    -2
289
     1
 69
     0
  0
VISUALSTYLE
  5
213A
102
{ACAD_REACTORS
330
267
102
}
330
267
100
AcDbVisualStyle
  2
*
 70
    10
 71
     0
 72
     2
 73
     0
 90
        0
 40
-0.6
 41
-30.0
 62
     5
 63
     7
421
 16777215
 74
     1
 91
        4
 64
     7
 65
   257
 75
     1
175
     1
 42
1.0
 92
        8
 66
     7
 43
1.0
 76
     1
 77
     6
 78
     2
 67
     7
 79
     5
170
     0
171
     0
290
     0
174
     0
 93
        1
 44
0.0
173
     0
291
     0
 45
0.0
  0
VISUALSTYLE
  5
26C
102
{ACAD_REACTORS
330
267
102
}
330
267
100
AcDbVisualStyle
  2
2dWireframe
 70
     4
 71
     0
 72
     2
 73
     0
 90
        0
 40
-0.6
 41
-30.0
 62
     5
 63
     7
421
 16777215
 74
     1
 91
        4
 64
     7
 65
   257
 75
     1
175
     1
 42
1.0
 92
        0
 66
   257
 43
1.0
 76
     1
 77
     6
 78
     2
 67
     7
 79
     5
170
     0
171
     0
290
     0
174
     0
 93
        1
 44
0.0
173
     0
291
     0
 45
0.0
  0
VISUALSTYLE
  5
26E
102
{ACAD_REACTORS
330
267
102
}
330
267
100
AcDbVisualStyle
  2
3D Hidden
 70
     6
 71
     1
 72
     2
 73
     2
 90
        0
 40
-0.6
 41
-30.0
 62
     5
 63
     7
421
 16777215
 74
     2
 91
        2
 64
     7
 65
   257
 75
     2
175
     1
 42
40.0
 92
        0
 66
   257
 43
1.0
 76
     1
 77
     6
 78
     2
 67
     7
 79
     3
170
     0
171
     0
290
     0
174
     0
 93
        1
 44
0.0
173
     0
291
     0
 45
0.0
  0
VISUALSTYLE
  5
26D
102
{ACAD_REACTORS
330
267
102
}
330
267
100
AcDbVisualStyle
  2
3dWireframe
 70
     5
 71
     0
 72
     2
 73
     0
 90
        0
 40
-0.6
 41
-30.0
 62
     5
 63
     7
421
 16777215
 74
     1
 91
        4
 64
     7
 65
   257
 75
     1
175
     1
 42
1.0
 92
        0
 66
   257
 43
1.0
 76
     1
 77
     6
 78
     2
 67
     7
 79
     5
170
     0
171
     0
290
     0
174
     0
 93
        1
 44
0.0
173
     0
291
     0
 45
0.0
  0
VISUALSTYLE
  5
26F
102
{ACAD_REACTORS
330
267
102
}
330
267
100
AcDbVisualStyle
  2
Basic
 70
     7
 71
     1
 72
     0
 73
     1
 90
        0
 40
-0.6
 41
-30.0
 62
     5
 63
     7
421
 16777215
 74
     0
 91
        4
 64
     7
 65
   257
 75
     1
175
     1
 42
1.0
 92
        8
 66
     7
 43
1.0
 76
     1
 77
     6
 78
     2
 67
     7
 79
     5
170
     0
171
     0
290
     0
174
     0
 93
        1
 44
0.0
173
     0
291
     1
 45
0.0
  0
VISUALSTYLE
  5
273
102
{ACAD_REACTORS
330
267
102
}
330
267
100
AcDbVisualStyle
  2
Brighten
 70
    12
 71
     2
 72
     2
 73
     0
 90
        0
 40
-0.6
 41
-30.0
 62
     5
 63
     7
421
 16777215
 74
     1
 91
        4
 64
     7
 65
   257
 75
     1
175
     1
 42
1.0
 92
        8
 66
     7
 43
1.0
 76
     1
 77
     6
 78
     2
 67
     7
 79
     5
170
     0
171
     0
290
     0
174
     0
 93
        1
 44
50.0
173
     0
291
     1
 45
0.0
  0
VISUALSTYLE
  5
277
102
{ACAD_REACTORS
330
267
102
}
330
267
100
AcDbVisualStyle
  2
ColorChange
 70
    16
 71
     2
 72
     2
 73
     3
 90
        0
 40
-0.6
 41
-30.0
 62
     5
 63
     8
421
  8421504
 74
     1
 91
        4
 64
     7
 65
   257
 75
     1
175
     1
 42
1.0
 92
        8
 66
     8
424
  8421504
 43
1.0
 76
     1
 77
     6
 78
     2
 67
     7
 79
     5
170
     0
171
     0
290
     0
174
     0
 93
        1
 44
0.0
173
     0
291
     1
 45
0.0
  0
VISUALSTYLE
  5
271
102
{ACAD_REACTORS
330
267
102
}
330
267
100
AcDbVisualStyle
  2
Conceptual
 70
     9
 71
     3
 72
     2
 73
     0
 90
        0
 40
-0.6
 41
-30.0
 62
     5
 63
     7
421
 16777215
 74
     2
 91
        2
 64
     7
 65
   257
 75
     1
175
     1
 42
40.0
 92
        8
 66
     7
 43
1.0
 76
     1
 77
     6
 78
     2
 67
     7
 79
     3
170
     0
171
     0
290
     0
174
     0
 93
        1
 44
0.0
173
     0
291
     0
 45
0.0
  0
VISUALSTYLE
  5
272
102
{ACAD_REACTORS
330
267
102
}
330
267
100
AcDbVisualStyle
  2
Dim
 70
    11
 71
     2
 72
     2
 73
     0
 90
        0
 40
-0.6
 41
-30.0
 62
     5
 63
     7
421
 16777215
 74
     1
 91
        4
 64
     7
 65
   257
 75
     1
175
     1
 42
1.0
 92
        8
 66
     7
 43
1.0
 76
     1
 77
     6
 78
     2
 67
     7
 79
     5
170
     0
171
     0
290
     0
174
     0
 93
        1
 44
-50.0
173
     0
291
     1
 45
0.0
  0
VISUALSTYLE
  5
8FE
102
{ACAD_REACTORS
330
267
102
}
330
267
100
AcDbVisualStyle
  2
EdgeColorOff
 70
    22
 71
     2
 72
     2
 73
     0
 90
        0
 40
0.6
 41
30.0
 62
     5
 63
     7
421
 16777215
 74
     1
 91
        4
 64
     7
 65
   257
 75
     1
175
     1
 42
1.0
 92
        8
 66
     7
 43
1.0
 76
     1
 77
     6
 78
     2
 67
     7
 79
     5
170
     0
171
     0
290
     0
174
     0
 93
        1
 44
0.0
173
     0
291
     1
 45
0.0
  0
VISUALSTYLE
  5
276
102
{ACAD_REACTORS
330
267
102
}
330
267
100
AcDbVisualStyle
  2
Facepattern
 70
    15
 71
     2
 72
     2
 73
     0
 90
        0
 40
-0.6
 41
-30.0
 62
     5
 63
     7
421
 16777215
 74
     1
 91
        4
 64
     7
 65
   257
 75
     1
175
     1
 42
1.0
 92
        8
 66
     7
 43
1.0
 76
     1
 77
     6
 78
     2
 67
     7
 79
     5
170
     0
171
     0
290
     0
174
     0
 93
        1
 44
0.0
173
     0
291
     1
 45
0.0
  0
VISUALSTYLE
  5
268
102
{ACAD_REACTORS
330
267
102
}
330
267
100
AcDbVisualStyle
  2
Flat
 70
     0
 71
     2
 72
     1
 73
     1
 90
        2
 40
-0.6
 41
30.0
 62
     5
 63
     7
421
 16777215
 74
     0
 91
        4
 64
     7
 65
   257
 75
     1
175
     1
 42
1.0
 92
        8
 66
     7
 43
1.0
 76
     1
 77
     6
 78
     2
 67
     7
 79
     5
170
     0
171
     0
290
     0
174
     0
 93
       13
 44
0.0
173
     0
291
     1
 45
0.0
  0
VISUALSTYLE
  5
269
102
{ACAD_REACTORS
330
267
102
}
330
267
100
AcDbVisualStyle
  2
FlatWithEdges
 70
     1
 71
     2
 72
     1
 73
     1
 90
        2
 40
-0.6
 41
30.0
 62
     5
 63
     7
421
 16777215
 74
     1
 91
        4
 64
     7
 65
   257
 75
     1
175
     1
 42
1.0
 92
        0
 66
   257
 43
1.0
 76
     1
 77
     6
 78
     2
 67
     7
 79
     5
170
     0
171
     0
290
     0
174
     0
 93
       13
 44
0.0
173
     0
291
     1
 45
0.0
  0
VISUALSTYLE
  5
26A
102
{ACAD_REACTORS
330
267
102
}
330
267
100
AcDbVisualStyle
  2
Gouraud
 70
     2
 71
     2
 72
     2
 73
     1
 90
        2
 40
-0.6
 41
30.0
 62
     5
 63
     7
421
 16777215
 74
     0
 91
        4
 64
     7
 65
   257
 75
     1
175
     1
 42
1.0
 92
        0
 66
     7
 43
1.0
 76
     1
 77
     6
 78
     2
 67
     7
 79
     5
170
     0
171
     0
290
     0
174
     0
 93
       13
 44
0.0
173
     0
291
     1
 45
0.0
  0
VISUALSTYLE
  5
26B
102
{ACAD_REACTORS
330
267
102
}
330
267
100
AcDbVisualStyle
  2
GouraudWithEdges
 70
     3
 71
     2
 72
     2
 73
     1
 90
        2
 40
-0.6
 41
30.0
 62
     5
 63
     7
421
 16777215
 74
     1
 91
        4
 64
     7
 65
   257
 75
     1
175
     1
 42
1.0
 92
        0
 66
   257
 43
1.0
 76
     1
 77
     6
 78
     2
 67
     7
 79
     5
170
     0
171
     0
290
     0
174
     0
 93
       13
 44
0.0
173
     0
291
     1
 45
0.0
  0
VISUALSTYLE
  5
8FB
102
{ACAD_REACTORS
330
267
102
}
330
267
100
AcDbVisualStyle
  2
Hidden
 70
     6
 71
     1
 72
     2
 73
     2
 90
        0
 40
0.6
 41
30.0
 62
     5
 63
     7
421
 16777215
 74
     2
 91
        2
 64
     7
 65
   257
 75
     2
175
     1
 42
40.0
 92
        0
 66
   257
 43
1.0
 76
     1
 77
     6
 78
     2
 67
     7
 79
     3
170
     0
171
     0
290
     0
174
     0
 93
        1
 44
0.0
173
     0
291
     0
 45
0.0
  0
VISUALSTYLE
  5
8FC
102
{ACAD_REACTORS
330
267
102
}
330
267
100
AcDbVisualStyle
  2
JitterOff
 70
    20
 71
     2
 72
     2
 73
     0
 90
        0
 40
0.6
 41
30.0
 62
     5
 63
     7
421
 16777215
 74
     1
 91
        4
 64
     7
 65
   257
 75
     1
175
     1
 42
1.0
 92
       10
 66
     7
 43
1.0
 76
     1
 77
     6
 78
     2
 67
     7
 79
     5
170
     0
171
     0
290
     0
174
     0
 93
        1
 44
0.0
173
     0
291
     1
 45
0.0
  0
VISUALSTYLE
  5
275
102
{ACAD_REACTORS
330
267
102
}
330
267
100
AcDbVisualStyle
  2
Linepattern
 70
    14
 71
     2
 72
     2
 73
     0
 90
        0
 40
-0.6
 41
-30.0
 62
     5
 63
     7
421
 16777215
 74
     1
 91
        4
 64
     7
 65
   257
 75
     7
175
     7
 42
1.0
 92
        8
 66
     7
 43
1.0
 76
     1
 77
     6
 78
     2
 67
     7
 79
     5
170
     0
171
     0
290
     0
174
     0
 93
        1
 44
0.0
173
     0
291
     1
 45
0.0
  0
VISUALSTYLE
  5
8FD
102
{ACAD_REACTORS
330
267
102
}
330
267
100
AcDbVisualStyle
  2
OverhangOff
 70
    21
 71
     2
 72
     2
 73
     0
 90
        0
 40
0.6
 41
30.0
 62
     5
 63
     7
421
 16777215
 74
     1
 91
        4
 64
     7
 65
   257
 75
     1
175
     1
 42
1.0
 92
        9
 66
     7
 43
1.0
 76
     1
 77
     6
 78
     2
 67
     7
 79
     5
170
     0
171
     0
290
     0
174
     0
 93
        1
 44
0.0
173
     0
291
     1
 45
0.0
  0
VISUALSTYLE
  5
270
102
{ACAD_REACTORS
330
267
102
}
330
267
100
AcDbVisualStyle
  2
Realistic
 70
     8
 71
     2
 72
     2
 73
     0
 90
        0
 40
-0.6
 41
-30.0
 62
     5
 63
     7
421
 16777215
 74
     1
 91
        0
 64
     7
 65
   257
 75
     1
175
     1
 42
1.0
 92
        8
 66
     8
424
  7895160
 43
1.0
 76
     1
 77
     6
 78
     2
 67
     7
 79
     5
170
     0
171
     0
290
     0
174
     0
 93
       13
 44
0.0
173
     0
291
     0
 45
0.0
  0
VISUALSTYLE
  5
903
102
{ACAD_REACTORS
330
267
102
}
330
267
100
AcDbVisualStyle
  2
Shaded
 70
    27
 71
     2
 72
     2
 73
     1
 90
        2
 40
0.6
 41
30.0
 62
     5
 63
     7
421
 16777215
 74
     0
 91
        4
 64
     7
 65
   257
 75
     1
175
     1
 42
1.0
 92
        8
 66
   257
 43
1.0
 76
     1
 77
     6
 78
     2
 67
     8
425
  7895160
 79
     3
170
     0
171
     0
290
     0
174
     0
 93
        5
 44
0.0
173
     0
291
     0
 45
0.0
  0
VISUALSTYLE
  5
902
102
{ACAD_REACTORS
330
267
102
}
330
267
100
AcDbVisualStyle
  2
Shaded with edges
 70
    26
 71
     2
 72
     2
 73
     1
 90
        2
 40
0.6
 41
30.0
 62
     5
 63
     7
421
 16777215
 74
     1
 91
       10
 64
     7
 65
   257
 75
     2
175
     1
 42
1.0
 92
        8
 66
   257
 43
1.0
 76
     1
 77
     6
 78
     2
 67
     7
 79
     3
170
     0
171
     0
290
     0
174
     0
 93
        5
 44
0.0
173
     0
291
     0
 45
0.0
  0
VISUALSTYLE
  5
8FF
102
{ACAD_REACTORS
330
267
102
}
330
267
100
AcDbVisualStyle
  2
Shades of Gray
 70
    23
 71
     2
 72
     2
 73
     3
 90
        0
 40
0.6
 41
30.0
 62
     5
 63
     7
421
 16777215
 74
     2
 91
        2
 64
     7
 65
     7
 75
     1
175
     1
 42
40.0
 92
        8
 66
     7
 43
1.0
 76
     1
 77
     6
 78
     2
 67
     7
 79
     3
170
     0
171
     0
290
     0
174
     0
 93
        1
 44
0.0
173
     0
291
     0
 45
0.0
  0
VISUALSTYLE
  5
900
102
{ACAD_REACTORS
330
267
102
}
330
267
100
AcDbVisualStyle
  2
Sketchy
 70
    24
 71
     1
 72
     2
 73
     2
 90
        0
 40
0.6
 41
30.0
 62
     5
 63
     7
421
 16777215
 74
     2
 91
        2
 64
     7
 65
     7
 75
     1
175
     1
 42
40.0
 92
       11
 66
     7
 43
1.0
 76
     1
 77
     6
 78
     2
 67
     7
 79
     6
170
     0
171
     0
290
     0
174
     0
 93
        1
 44
0.0
173
     0
291
     0
 45
0.0
  0
VISUALSTYLE
  5
274
102
{ACAD_REACTORS
330
267
102
}
330
267
100
AcDbVisualStyle
  2
Thicken
 70
    13
 71
     2
 72
     2
 73
     0
 90
        0
 40
-0.6
 41
-30.0
 62
     5
 63
     7
421
 16777215
 74
     1
 91
        4
 64
     7
 65
   257
 75
     1
175
     1
 42
1.0
 92
       12
 66
     7
 43
1.0
 76
     1
 77
     6
 78
     2
 67
     7
 79
     5
170
     0
171
     0
290
     0
174
     0
 93
        1
 44
0.0
173
     0
291
     1
 45
0.0
  0
VISUALSTYLE
  5
8FA
102
{ACAD_REACTORS
330
267
102
}
330
267
100
AcDbVisualStyle
  2
Wireframe
 70
     5
 71
     0
 72
     2
 73
     0
 90
        0
 40
0.6
 41
30.0
 62
     5
 63
     7
421
 16777215
 74
     1
 91
        4
 64
     7
 65
   257
 75
     1
175
     1
 42
1.0
 92
        0
 66
   257
 43
1.0
 76
     1
 77
     6
 78
     2
 67
     7
 79
     3
170
     0
171
     0
290
     0
174
     0
 93
        1
 44
0.0
173
     0
291
     0
 45
0.0
  0
VISUALSTYLE
  5
901
102
{ACAD_REACTORS
330
267
102
}
330
267
100
AcDbVisualStyle
  2
X-Ray
 70
    25
 71
     2
 72
     2
 73
     1
 90
        1
 40
0.5
 41
30.0
 62
     5
 63
     7
421
 16777215
 74
     1
 91
        0
 64
     7
 65
   257
 75
     1
175
     1
 42
1.0
 92
        8
 66
     7
 43
1.0
 76
     1
 77
     6
 78
     2
 67
     7
 79
     3
170
     0
171
     0
290
     0
174
     0
 93
       13
 44
0.0
173
     0
291
     0
 45
0.0
  0
DICTIONARYVAR
  5
331
102
{ACAD_REACTORS
330
330
102
}
330
330
100
DictionaryVariables
280
     0
  1
1:1
  0
DICTIONARYVAR
  5
D5E
102
{ACAD_REACTORS
330
330
102
}
330
330
100
DictionaryVariables
280
     0
  1
Standard
  0
DICTIONARYVAR
  5
335
102
{ACAD_REACTORS
330
330
102
}
330
330
100
DictionaryVariables
280
     0
  1
Standard
  0
DICTIONARYVAR
  5
D52
102
{ACAD_REACTORS
330
330
102
}
330
330
100
DictionaryVariables
280
     0
  1
ByLayer
  0
DICTIONARYVAR
  5
896
102
{ACAD_REACTORS
330
330
102
}
330
330
100
DictionaryVariables
280
     0
  1
0
  0
DICTIONARYVAR
  5
21C9
102
{ACAD_REACTORS
330
213F
102
}
330
213F
100
DictionaryVariables
280
     0
  1
0.250000
  0
DICTIONARYVAR
  5
21C7
102
{ACAD_REACTORS
330
E38
102
}
330
E38
100
DictionaryVariables
280
     0
  1
0.261799
  0
DICTIONARYVAR
  5
21C5
102
{ACAD_REACTORS
330
E38
102
}
330
E38
100
DictionaryVariables
280
     0
  1
0.400000
  0
DICTIONARYVAR
  5
21C6
102
{ACAD_REACTORS
330
E38
102
}
330
E38
100
DictionaryVariables
280
     0
  1
0.250000
  0
DICTIONARYVAR
  5
21C8
102
{ACAD_REACTORS
330
E38
102
}
330
E38
100
DictionaryVariables
280
     0
  1
1
  0
FIELD
  5
16F3
102
{ACAD_REACTORS
330
16F2
102
}
330
16F2
100
AcDbField
  1
_text
  2
{%<\_FldIdx 0>%N}
 90
        1
360
16F4
 97
        0
 91
       63
 92
        0
 94
        8
 95
        2
 96
        0
300

 93
        1
  6
ACFD_FIELDTEXT_CHECKSUM
 93
        2
 90
        2
140
4541.0
 94
        0
300

302

304
ACVALUE_END
  7
ACFD_FIELD_VALUE
 93
        6
 90
        4
  1
{20170824N}
 94
        0
300

302

304
ACVALUE_END
301
{20170824N}
 98
       11
  0
DICTIONARY
  5
27F2
330
279
100
AcDbDictionary
280
     1
281
     1
  3
ACAD_ROUNDTRIP_2008_TABLESTYLE_CELLSTYLEMAP
360
27F3
  0
FIELD
  5
16F4
330
16F3
100
AcDbField
  1
AcVar
  2
\AcVar Date \f "yyyyMMdd"
 90
        0
 97
        0
 91
       63
 92
        0
 94
        8
 95
        2
 96
        0
300

 93
        1
  6
Variable
 93
        2
 90
        4
  1
Date
 94
        0
300

302

304
ACVALUE_END
  7
ACFD_FIELD_VALUE
 93
        6
 90
        8
 92
       16
310
E1070800000017000F00390017000000
 94
        0
300
yyyyMMdd
302

304
ACVALUE_END
301
20170824
 98
        8
  0
CELLSTYLEMAP
  5
27F3
102
{ACAD_REACTORS
330
27F2
102
}
330
27F2
100
AcDbCellStyleMap
 90
        3
300
CELLSTYLE
  1
TABLEFORMAT_BEGIN
 90
        5
170
     1
 91
        0
 92
    32768
 62
   257
 93
        1
300
CONTENTFORMAT
  1
CONTENTFORMAT_BEGIN
 90
        0
 91
        0
 92
        4
 93
        0
300

 40
0.0
140
1.0
 94
        5
 62
     0
340
17
144
6.0
309
CONTENTFORMAT_END
171
     1
301
MARGIN
  1
CELLMARGIN_BEGIN
 40
0.06
 40
0.06
 40
0.06
 40
0.06
 40
0.18
 40
0.18
309
CELLMARGIN_END
 94
        6
 95
        1
302
GRIDFORMAT
  1
GRIDFORMAT_BEGIN
 90
        0
 91
        1
 62
     0
 92
       -2
340
0
 93
        0
 40
0.045
309
GRIDFORMAT_END
 95
        2
302
GRIDFORMAT
  1
GRIDFORMAT_BEGIN
 90
        0
 91
        1
 62
     0
 92
       -2
340
0
 93
        0
 40
0.045
309
GRIDFORMAT_END
 95
        4
302
GRIDFORMAT
  1
GRIDFORMAT_BEGIN
 90
        0
 91
        1
 62
     0
 92
       -2
340
0
 93
        0
 40
0.045
309
GRIDFORMAT_END
 95
        8
302
GRIDFORMAT
  1
GRIDFORMAT_BEGIN
 90
        0
 91
        1
 62
     0
 92
       -2
340
0
 93
        0
 40
0.045
309
GRIDFORMAT_END
 95
       16
302
GRIDFORMAT
  1
GRIDFORMAT_BEGIN
 90
        0
 91
        1
 62
     0
 92
       -2
340
0
 93
        0
 40
0.045
309
GRIDFORMAT_END
 95
       32
302
GRIDFORMAT
  1
GRIDFORMAT_BEGIN
 90
        0
 91
        1
 62
     0
 92
       -2
340
0
 93
        0
 40
0.045
309
GRIDFORMAT_END
309
TABLEFORMAT_END
  1
CELLSTYLE_BEGIN
 90
        1
 91
        1
300
_TITLE
309
CELLSTYLE_END
300
CELLSTYLE
  1
TABLEFORMAT_BEGIN
 90
        5
170
     1
 91
        0
 92
        0
 62
   257
 93
        1
300
CONTENTFORMAT
  1
CONTENTFORMAT_BEGIN
 90
        0
 91
        0
 92
        4
 93
        0
300

 40
0.0
140
1.0
 94
        5
 62
     0
340
17
144
4.5
309
CONTENTFORMAT_END
171
     1
301
MARGIN
  1
CELLMARGIN_BEGIN
 40
0.06
 40
0.06
 40
0.06
 40
0.06
 40
0.18
 40
0.18
309
CELLMARGIN_END
 94
        6
 95
        1
302
GRIDFORMAT
  1
GRIDFORMAT_BEGIN
 90
        0
 91
        1
 62
     0
 92
       -2
340
0
 93
        0
 40
0.045
309
GRIDFORMAT_END
 95
        2
302
GRIDFORMAT
  1
GRIDFORMAT_BEGIN
 90
        0
 91
        1
 62
     0
 92
       -2
340
0
 93
        0
 40
0.045
309
GRIDFORMAT_END
 95
        4
302
GRIDFORMAT
  1
GRIDFORMAT_BEGIN
 90
        0
 91
        1
 62
     0
 92
       -2
340
0
 93
        0
 40
0.045
309
GRIDFORMAT_END
 95
        8
302
GRIDFORMAT
  1
GRIDFORMAT_BEGIN
 90
        0
 91
        1
 62
     0
 92
       -2
340
0
 93
        0
 40
0.045
309
GRIDFORMAT_END
 95
       16
302
GRIDFORMAT
  1
GRIDFORMAT_BEGIN
 90
        0
 91
        1
 62
     0
 92
       -2
340
0
 93
        0
 40
0.045
309
GRIDFORMAT_END
 95
       32
302
GRIDFORMAT
  1
GRIDFORMAT_BEGIN
 90
        0
 91
        1
 62
     0
 92
       -2
340
0
 93
        0
 40
0.045
309
GRIDFORMAT_END
309
TABLEFORMAT_END
  1
CELLSTYLE_BEGIN
 90
        2
 91
        1
300
_HEADER
309
CELLSTYLE_END
300
CELLSTYLE
  1
TABLEFORMAT_BEGIN
 90
        5
170
     1
 91
        0
 92
        0
 62
   257
 93
        1
300
CONTENTFORMAT
  1
CONTENTFORMAT_BEGIN
 90
        0
 91
        0
 92
        4
 93
        0
300

 40
0.0
140
1.0
 94
        2
 62
     0
340
17
144
4.5
309
CONTENTFORMAT_END
171
     1
301
MARGIN
  1
CELLMARGIN_BEGIN
 40
0.06
 40
0.06
 40
0.06
 40
0.06
 40
0.18
 40
0.18
309
CELLMARGIN_END
 94
        6
 95
        1
302
GRIDFORMAT
  1
GRIDFORMAT_BEGIN
 90
        0
 91
        1
 62
     0
 92
       -2
340
0
 93
        0
 40
0.045
309
GRIDFORMAT_END
 95
        2
302
GRIDFORMAT
  1
GRIDFORMAT_BEGIN
 90
        0
 91
        1
 62
     0
 92
       -2
340
0
 93
        0
 40
0.045
309
GRIDFORMAT_END
 95
        4
302
GRIDFORMAT
  1
GRIDFORMAT_BEGIN
 90
        0
 91
        1
 62
     0
 92
       -2
340
0
 93
        0
 40
0.045
309
GRIDFORMAT_END
 95
        8
302
GRIDFORMAT
  1
GRIDFORMAT_BEGIN
 90
        0
 91
        1
 62
     0
 92
       -2
340
0
 93
        0
 40
0.045
309
GRIDFORMAT_END
 95
       16
302
GRIDFORMAT
  1
GRIDFORMAT_BEGIN
 90
        0
 91
        1
 62
     0
 92
       -2
340
0
 93
        0
 40
0.045
309
GRIDFORMAT_END
 95
       32
302
GRIDFORMAT
  1
GRIDFORMAT_BEGIN
 90
        0
 91
        1
 62
     0
 92
       -2
340
0
 93
        0
 40
0.045
309
GRIDFORMAT_END
309
TABLEFORMAT_END
  1
CELLSTYLE_BEGIN
 90
        3
 91
        2
300
_DATA
309
CELLSTYLE_END
  0
ENDSEC
  0
EOF
