  0
SECTION
  2
HEADER
  9
$ACADVER
  1
AC1021
  9
$ACADMAINTVER
 70
    25
  9
$DWGCODEPAGE
  3
ANSI_932
  9
$LASTSAVEDBY
  1
Shimosaki
  9
$INSBASE
 10
0.0
 20
0.0
 30
0.0
  9
$EXTMIN
 10
0.0
 20
0.0
 30
0.0
  9
$EXTMAX
 10
1050.0
 20
1485.0
 30
0.0000000000000071
  9
$LIMMIN
 10
0.0
 20
0.0
  9
$LIMMAX
 10
1050.0
 20
1485.0
  9
$ORTHOMODE
 70
     0
  9
$REGENMODE
 70
     1
  9
$FILLMODE
 70
     1
  9
$QTEXTMODE
 70
     0
  9
$MIRRTEXT
 70
     1
  9
$LTSCALE
 40
50.0
  9
$ATTMODE
 70
     1
  9
$TEXTSIZE
 40
2.5
  9
$TRACEWID
 40
1.0
  9
$TEXTSTYLE
  7
ＭＳ ゴシック
  9
$CLAYER
  8
DIM
  9
$CELTYPE
  6
ByLayer
  9
$CECOLOR
 62
   256
  9
$CELTSCALE
 40
0.05
  9
$DISPSILH
 70
     0
  9
$DIMSCALE
 40
1.0
  9
$DIMASZ
 40
6.0
  9
$DIMEXO
 40
5.0
  9
$DIMDLI
 40
0.9999999999999999
  9
$DIMRND
 40
0.0
  9
$DIMDLE
 40
0.0
  9
$DIMEXE
 40
0.0
  9
$DIMTP
 40
0.0
  9
$DIMTM
 40
0.0
  9
$DIMTXT
 40
12.0
  9
$DIMCEN
 40
0.0
  9
$DIMTSZ
 40
0.0
  9
$DIMTOL
 70
     0
  9
$DIMLIM
 70
     0
  9
$DIMTIH
 70
     0
  9
$DIMTOH
 70
     0
  9
$DIMSE1
 70
     0
  9
$DIMSE2
 70
     0
  9
$DIMTAD
 70
     1
  9
$DIMZIN
 70
    11
  9
$DIMBLK
  1
DOT
  9
$DIMASO
 70
     1
  9
$DIMSHO
 70
     1
  9
$DIMPOST
  1
<>
  9
$DIMAPOST
  1
[]
  9
$DIMALT
 70
     0
  9
$DIMALTD
 70
     1
  9
$DIMALTF
 40
1.0
  9
$DIMLFAC
 40
1.0
  9
$DIMTOFL
 70
     0
  9
$DIMTVP
 40
0.0
  9
$DIMTIX
 70
     1
  9
$DIMSOXD
 70
     0
  9
$DIMSAH
 70
     0
  9
$DIMBLK1
  1

  9
$DIMBLK2
  1

  9
$DIMSTYLE
  2
tfrom線あり
  9
$DIMCLRD
 70
     0
  9
$DIMCLRE
 70
     0
  9
$DIMCLRT
 70
     0
  9
$DIMTFAC
 40
1.0
  9
$DIMGAP
 40
10.0
  9
$DIMJUST
 70
     0
  9
$DIMSD1
 70
     0
  9
$DIMSD2
 70
     0
  9
$DIMTOLJ
 70
     1
  9
$DIMTZIN
 70
    11
  9
$DIMALTZ
 70
    11
  9
$DIMALTTZ
 70
    11
  9
$DIMUPT
 70
     0
  9
$DIMDEC
 70
     0
  9
$DIMTDEC
 70
     1
  9
$DIMALTU
 70
     2
  9
$DIMALTTD
 70
     2
  9
$DIMTXSTY
  7
ＭＳ ゴシック
  9
$DIMAUNIT
 70
     0
  9
$DIMADEC
 70
     2
  9
$DIMALTRND
 40
0.0
  9
$DIMAZIN
 70
     0
  9
$DIMDSEP
 70
    46
  9
$DIMATFIT
 70
     0
  9
$DIMFRAC
 70
     2
  9
$DIMLDRBLK
  1
DOT
  9
$DIMLUNIT
 70
     2
  9
$DIMLWD
 70
    -2
  9
$DIMLWE
 70
    -2
  9
$DIMTMOVE
 70
     0
  9
$DIMFXL
 40
1.0
  9
$DIMFXLON
 70
     0
  9
$DIMJOGANG
 40
0.7853981633974483
  9
$DIMTFILL
 70
     0
  9
$DIMTFILLCLR
 70
     0
  9
$DIMARCSYM
 70
     0
  9
$DIMLTYPE
  6

  9
$DIMLTEX1
  6

  9
$DIMLTEX2
  6

  9
$LUNITS
 70
     2
  9
$LUPREC
 70
     0
  9
$SKETCHINC
 40
0.1
  9
$FILLETRAD
 40
0.0
  9
$AUNITS
 70
     0
  9
$AUPREC
 70
     0
  9
$MENU
  1
acad
  9
$ELEVATION
 40
0.0
  9
$PELEVATION
 40
0.0
  9
$THICKNESS
 40
0.0
  9
$LIMCHECK
 70
     0
  9
$CHAMFERA
 40
0.0
  9
$CHAMFERB
 40
0.0
  9
$CHAMFERC
 40
0.0
  9
$CHAMFERD
 40
0.0
  9
$SKPOLY
 70
     0
  9
$TDCREATE
 40
2447893.375
  9
$TDUCREATE
 40
0.0
  9
$TDUPDATE
 40
2457575.487522905
  9
$TDUUPDATE
 40
2457575.112522905
  9
$TDINDWG
 40
0.1212739468
  9
$TDUSRTIMER
 40
2457575.112203947
  9
$USRTIMER
 70
     1
  9
$ANGBASE
 50
0.0
  9
$ANGDIR
 70
     0
  9
$PDMODE
 70
     1
  9
$PDSIZE
 40
-2.0
  9
$PLINEWID
 40
0.0
  9
$SPLFRAME
 70
     0
  9
$SPLINETYPE
 70
     6
  9
$SPLINESEGS
 70
     8
  9
$HANDSEED
  5
11F5
  9
$SURFTAB1
 70
     6
  9
$SURFTAB2
 70
     6
  9
$SURFTYPE
 70
     6
  9
$SURFU
 70
     6
  9
$SURFV
 70
     6
  9
$UCSBASE
  2

  9
$UCSNAME
  2

  9
$UCSORG
 10
0.0
 20
0.0
 30
0.0
  9
$UCSXDIR
 10
1.0
 20
0.0
 30
0.0
  9
$UCSYDIR
 10
0.0
 20
1.0
 30
0.0
  9
$UCSORTHOREF
  2

  9
$UCSORTHOVIEW
 70
     0
  9
$UCSORGTOP
 10
0.0
 20
0.0
 30
0.0
  9
$UCSORGBOTTOM
 10
0.0
 20
0.0
 30
0.0
  9
$UCSORGLEFT
 10
0.0
 20
0.0
 30
0.0
  9
$UCSORGRIGHT
 10
0.0
 20
0.0
 30
0.0
  9
$UCSORGFRONT
 10
0.0
 20
0.0
 30
0.0
  9
$UCSORGBACK
 10
0.0
 20
0.0
 30
0.0
  9
$PUCSBASE
  2

  9
$PUCSNAME
  2

  9
$PUCSORG
 10
0.0
 20
0.0
 30
0.0
  9
$PUCSXDIR
 10
1.0
 20
0.0
 30
0.0
  9
$PUCSYDIR
 10
0.0
 20
1.0
 30
0.0
  9
$PUCSORTHOREF
  2

  9
$PUCSORTHOVIEW
 70
     0
  9
$PUCSORGTOP
 10
0.0
 20
0.0
 30
0.0
  9
$PUCSORGBOTTOM
 10
0.0
 20
0.0
 30
0.0
  9
$PUCSORGLEFT
 10
0.0
 20
0.0
 30
0.0
  9
$PUCSORGRIGHT
 10
0.0
 20
0.0
 30
0.0
  9
$PUCSORGFRONT
 10
0.0
 20
0.0
 30
0.0
  9
$PUCSORGBACK
 10
0.0
 20
0.0
 30
0.0
  9
$USERI1
 70
     0
  9
$USERI2
 70
     0
  9
$USERI3
 70
     0
  9
$USERI4
 70
     0
  9
$USERI5
 70
     0
  9
$USERR1
 40
0.0
  9
$USERR2
 40
0.0
  9
$USERR3
 40
0.0
  9
$USERR4
 40
0.0
  9
$USERR5
 40
0.0
  9
$WORLDVIEW
 70
     1
  9
$SHADEDGE
 70
     3
  9
$SHADEDIF
 70
    70
  9
$TILEMODE
 70
     1
  9
$MAXACTVP
 70
    64
  9
$PINSBASE
 10
0.0
 20
0.0
 30
0.0
  9
$PLIMCHECK
 70
     0
  9
$PEXTMIN
 10
0.0
 20
0.0
 30
0.0
  9
$PEXTMAX
 10
0.0
 20
0.0
 30
0.0
  9
$PLIMMIN
 10
-7.5
 20
-20.0
  9
$PLIMMAX
 10
412.5
 20
277.0
  9
$UNITMODE
 70
     0
  9
$VISRETAIN
 70
     0
  9
$PLINEGEN
 70
     1
  9
$PSLTSCALE
 70
     0
  9
$TREEDEPTH
 70
  3020
  9
$CMLSTYLE
  2
Standard
  9
$CMLJUST
 70
     0
  9
$CMLSCALE
 40
1.0
  9
$PROXYGRAPHICS
 70
     0
  9
$MEASUREMENT
 70
     1
  9
$CELWEIGHT
370
    -1
  9
$ENDCAPS
280
     0
  9
$JOINSTYLE
280
     0
  9
$LWDISPLAY
290
     1
  9
$INSUNITS
 70
     4
  9
$HYPERLINKBASE
  1

  9
$STYLESHEET
  1

  9
$XEDIT
290
     1
  9
$CEPSNTYPE
380
     0
  9
$PSTYLEMODE
290
     1
  9
$FINGERPRINTGUID
  2

  9
$VERSIONGUID
  2

  9
$EXTNAMES
290
     1
  9
$PSVPSCALE
 40
0.0
  9
$OLESTARTUP
290
     0
  9
$SORTENTS
280
   127
  9
$INDEXCTL
280
     0
  9
$HIDETEXT
280
     1
  9
$XCLIPFRAME
290
     0
  9
$HALOGAP
280
     0
  9
$OBSCOLOR
 70
   257
  9
$OBSLTYPE
280
     0
  9
$INTERSECTIONDISPLAY
280
     0
  9
$INTERSECTIONCOLOR
 70
   257
  9
$DIMASSOC
280
     2
  9
$PROJECTNAME
  1

  9
$CAMERADISPLAY
290
     0
  9
$LENSLENGTH
 40
50.0
  9
$CAMERAHEIGHT
 40
0.0
  9
$STEPSPERSEC
 40
2.0
  9
$STEPSIZE
 40
6.0
  9
$3DDWFPREC
 40
2.0
  9
$PSOLWIDTH
 40
0.25
  9
$PSOLHEIGHT
 40
4.0
  9
$LOFTANG1
 40
1.570796326794897
  9
$LOFTANG2
 40
1.570796326794897
  9
$LOFTMAG1
 40
0.0
  9
$LOFTMAG2
 40
0.0
  9
$LOFTPARAM
 70
     7
  9
$LOFTNORMALS
280
     1
  9
$LATITUDE
 40
37.795
  9
$LONGITUDE
 40
-122.394
  9
$NORTHDIRECTION
 40
0.0
  9
$TIMEZONE
 70
 -8000
  9
$LIGHTGLYPHDISPLAY
280
     1
  9
$TILEMODELIGHTSYNCH
280
     1
  9
$SOLIDHIST
280
     1
  9
$SHOWHIST
280
     1
  9
$DWFFRAME
280
     2
  9
$DGNFRAME
280
     2
  9
$REALWORLDSCALE
290
     1
  9
$INTERFERECOLOR
 62
   256
  9
$CSHADOW
280
     0
  9
$SHADOWPLANELOCATION
 40
0.0
  0
ENDSEC
  0
SECTION
  2
CLASSES
  0
CLASS
  1
LWPOLYLINE
  2
AcDbPolyline
  3
ObjectDBX Classes
 90
        0
 91
        1
280
     0
281
     1
  0
CLASS
  1
IMAGE
  2
AcDbRasterImage
  3
ISM
 90
      127
 91
        5
280
     0
281
     1
  0
CLASS
  1
OLE2FRAME
  2
AcDbOle2Frame
  3
ObjectDBX Classes
 90
        0
 91
        1
280
     0
281
     1
  0
CLASS
  1
HATCH
  2
AcDbHatch
  3
ObjectDBX Classes
 90
        0
 91
        1
280
     0
281
     1
  0
CLASS
  1
DICTIONARYVAR
  2
AcDbDictionaryVar
  3
ObjectDBX Classes
 90
        0
 91
        4
280
     0
281
     0
  0
CLASS
  1
RASTERVARIABLES
  2
AcDbRasterVariables
  3
ISM
 90
        0
 91
        4
280
     0
281
     0
  0
CLASS
  1
IMAGEDEF
  2
AcDbRasterImageDef
  3
ISM
 90
        0
 91
        4
280
     0
281
     0
  0
CLASS
  1
IMAGEDEF_REACTOR
  2
AcDbRasterImageDefReactor
  3
ISM
 90
        1
 91
        4
280
     0
281
     0
  0
CLASS
  1
IDBUFFER
  2
AcDbIdBuffer
  3
ObjectDBX Classes
 90
        0
 91
        4
280
     0
281
     0
  0
CLASS
  1
SPATIAL_FILTER
  2
AcDbSpatialFilter
  3
ObjectDBX Classes
 90
        0
 91
        4
280
     0
281
     0
  0
CLASS
  1
XRECORD
  2
AcDbXrecord
  3
ObjectDBX Classes
 90
        0
 91
        1
280
     0
281
     0
  0
CLASS
  1
SORTENTSTABLE
  2
AcDbSortentsTable
  3
ObjectDBX Classes
 90
        0
 91
        4
280
     0
281
     0
  0
CLASS
  1
LAYER_INDEX
  2
AcDbLayerIndex
  3
ObjectDBX Classes
 90
        0
 91
        4
280
     0
281
     0
  0
CLASS
  1
SPATIAL_INDEX
  2
AcDbSpatialIndex
  3
AutoCAD 2000
 90
        0
 91
        4
280
     0
281
     0
  0
CLASS
  1
OBJECT_PTR
  2
CAseDLPNTableRecord
  3
ASE-LPNTableRecord
 90
        1
 91
        4
280
     0
281
     0
  0
CLASS
  1
LAYOUT
  2
AcDbLayout
  3
ObjectDBX Classes
 90
        0
 91
        1
280
     0
281
     0
  0
CLASS
  1
PLOTSETTINGS
  2
AcDbPlotSettings
  3
ObjectDBX Classes
 90
        0
 91
        4
280
     0
281
     0
  0
CLASS
  1
ACDBDICTIONARYWDFLT
  2
AcDbDictionaryWithDefault
  3
ObjectDBX Classes
 90
        0
 91
        4
280
     0
281
     0
  0
CLASS
  1
ACDBPLACEHOLDER
  2
AcDbPlaceHolder
  3
ObjectDBX Classes
 90
        0
 91
        1
280
     0
281
     0
  0
CLASS
  1
SCALE
  2
AcDbScale
  3
ObjectDBX Classes
 90
     1153
 91
        4
280
     0
281
     0
  0
CLASS
  1
MATERIAL
  2
AcDbMaterial
  3
ObjectDBX Classes
 90
     1153
 91
        4
280
     0
281
     0
  0
CLASS
  1
VISUALSTYLE
  2
AcDbVisualStyle
  3
ObjectDBX Classes
 90
     4095
 91
        4
280
     0
281
     0
  0
CLASS
  1
TABLESTYLE
  2
AcDbTableStyle
  3
ObjectDBX Classes
 90
     4095
 91
        4
280
     0
281
     0
  0
CLASS
  1
DIMASSOC
  2
AcDbDimAssoc
  3
"AcDbDimAssoc|Product Desc:     AcDim ARX App For Dimension|Company:          Autodesk, Inc.|WEB Address:      www.autodesk.com"
 90
        0
 91
        4
280
     0
281
     0
  0
CLASS
  1
CELLSTYLEMAP
  2
AcDbCellStyleMap
  3
ObjectDBX Classes
 90
     1152
 91
        4
280
     0
281
     0
  0
CLASS
  1
SUN
  2
AcDbSun
  3
SCENEOE
 90
     1153
 91
        4
280
     0
281
     0
  0
CLASS
  1
MLEADERSTYLE
  2
AcDbMLeaderStyle
  3
ACDB_MLEADERSTYLE_CLASS
 90
     4095
 91
        4
280
     0
281
     0
  0
ENDSEC
  0
SECTION
  2
TABLES
  0
TABLE
  2
VPORT
  5
7
330
0
100
AcDbSymbolTable
 70
     1
  0
VPORT
  5
15
330
7
100
AcDbSymbolTableRecord
100
AcDbViewportTableRecord
  2
*ACTIVE
 70
     0
 10
0.0
 20
0.0
 11
1.0
 21
1.0
 12
1017.742250121627
 22
370.8809289885399
 13
0.0
 23
0.0
 14
1.0
 24
1.0
 15
0.0
 25
0.0
 16
0.0
 26
0.0
 36
1.0
 17
-91.02013567089966
 27
73.59871453016603
 37
-46.86809886248109
 40
984.3176340275803
 41
2.426497277676951
 42
50.0
 43
0.0
 44
0.0
 50
0.0
 51
0.0
 71
    16
 72
  2000
 73
     1
 74
     1
 75
     0
 76
     0
 77
     0
 78
     0
281
     0
 65
     1
110
0.0
120
0.0
130
0.0
111
1.0
121
0.0
131
0.0
112
0.0
122
1.0
132
0.0
 79
     0
146
0.0
348
26C
 60
     3
 61
     5
292
     1
282
     1
141
0.0
142
0.0
 63
   256
361
904
  0
ENDTAB
  0
TABLE
  2
LTYPE
  5
4
330
0
100
AcDbSymbolTable
 70
     2
  0
LTYPE
  5
11
330
4
100
AcDbSymbolTableRecord
100
AcDbLinetypeTableRecord
  2
ByBlock
 70
     0
  3

 72
    65
 73
     0
 40
0.0
  0
LTYPE
  5
12
330
4
100
AcDbSymbolTableRecord
100
AcDbLinetypeTableRecord
  2
ByLayer
 70
     0
  3

 72
    65
 73
     0
 40
0.0
  0
LTYPE
  5
13
330
4
100
AcDbSymbolTableRecord
100
AcDbLinetypeTableRecord
  2
Continuous
 70
     0
  3
Solid line
 72
    65
 73
     0
 40
0.0
  0
LTYPE
  5
D6C
330
4
100
AcDbSymbolTableRecord
100
AcDbLinetypeTableRecord
  2
BORDER
 70
     0
  3
Border __  __  . __  __  . __  __  . __  __  . 
 72
    65
 73
     6
 40
44.45
 49
12.7
 74
     0
 49
-6.35
 74
     0
 49
12.7
 74
     0
 49
-6.35
 74
     0
 49
0.0
 74
     0
 49
-6.35
 74
     0
  0
ENDTAB
  0
TABLE
  2
LAYER
  5
2
102
{ACAD_XDICTIONARY
360
2E1
102
}
330
0
100
AcDbSymbolTable
 70
     7
  0
LAYER
  5
14
330
2
100
AcDbSymbolTableRecord
100
AcDbLayerTableRecord
  2
0
 70
     0
 62
     7
  6
Continuous
370
    -3
390
1D
347
266
  0
LAYER
  5
4B
330
2
100
AcDbSymbolTableRecord
100
AcDbLayerTableRecord
  2
TEMPLATE
 70
     0
 62
     7
  6
Continuous
370
    20
390
1D
347
266
  0
LAYER
  5
4C
330
2
100
AcDbSymbolTableRecord
100
AcDbLayerTableRecord
  2
DIM
 70
     0
 62
     3
  6
Continuous
370
    13
390
1D
347
266
  0
LAYER
  5
4D
330
2
100
AcDbSymbolTableRecord
100
AcDbLayerTableRecord
  2
MODEL
 70
     0
 62
     7
  6
Continuous
370
    20
390
1D
347
266
  0
LAYER
  5
667
330
2
100
AcDbSymbolTableRecord
100
AcDbLayerTableRecord
  2
LOGO
 70
     0
 62
     7
  6
Continuous
370
    -3
390
1D
347
266
  0
LAYER
  5
D6B
330
2
100
AcDbSymbolTableRecord
100
AcDbLayerTableRecord
  2
BORDER
 70
     0
 62
     4
  6
BORDER
290
     0
370
    20
390
1D
347
266
1001
AcAecLayerStandard
1000

1000

  0
LAYER
  5
D8C
330
2
100
AcDbSymbolTableRecord
100
AcDbLayerTableRecord
  2
Defpoints
 70
     0
 62
     7
  6
Continuous
290
     0
370
    -3
390
1D
347
266
  0
ENDTAB
  0
TABLE
  2
STYLE
  5
3
330
0
100
AcDbSymbolTable
 70
     2
  0
STYLE
  5
17
330
3
100
AcDbSymbolTableRecord
100
AcDbTextStyleTableRecord
  2
Standard
 70
     0
 40
0.0
 41
1.0
 50
0.0
 71
     0
 42
2.5
  3
txt
  4
BIGFONT.SHX
  0
STYLE
  5
39
330
3
100
AcDbSymbolTableRecord
100
AcDbTextStyleTableRecord
  2
ＭＳ ゴシック
 70
     0
 40
0.0
 41
1.0
 50
0.0
 71
     0
 42
2.5
  3
msgothic.ttc
  4
ＭＳ ゴシック
1001
ACAD
1000
ＭＳ ゴシック
1071
        0
  0
ENDTAB
  0
TABLE
  2
VIEW
  5
5
330
0
100
AcDbSymbolTable
 70
     0
  0
ENDTAB
  0
TABLE
  2
UCS
  5
6
330
0
100
AcDbSymbolTable
 70
     0
  0
ENDTAB
  0
TABLE
  2
APPID
  5
8
330
0
100
AcDbSymbolTable
 70
     3
  0
APPID
  5
16
330
8
100
AcDbSymbolTableRecord
100
AcDbRegAppTableRecord
  2
ACAD
 70
     0
  0
APPID
  5
7AC
330
8
100
AcDbSymbolTableRecord
100
AcDbRegAppTableRecord
  2
AcAecLayerStandard
 70
     0
  0
APPID
  5
E29
330
8
100
AcDbSymbolTableRecord
100
AcDbRegAppTableRecord
  2
ACAD_MLEADERVER
 70
     0
  0
ENDTAB
  0
TABLE
  2
DIMSTYLE
  5
9
330
0
100
AcDbSymbolTable
 70
     2
100
AcDbDimStyleTable
  0
DIMSTYLE
105
18
330
9
100
AcDbSymbolTableRecord
100
AcDbDimStyleTableRecord
  2
Standard
 70
     0
178
     0
340
17
  0
DIMSTYLE
105
57
102
{ACAD_REACTORS
330
10B0
330
10B1
330
10B2
330
1126
330
1127
330
1128
330
1129
330
1175
102
}
330
9
100
AcDbSymbolTableRecord
100
AcDbDimStyleTableRecord
  2
tfrom線あり
 70
     0
  3
<>
  4
[]
 41
6.0
 42
5.0
 43
0.9999999999999999
 44
0.0
 73
     0
 74
     0
 77
     1
 78
    11
140
12.0
141
0.0
143
1.0
147
10.0
171
     1
174
     1
178
     0
179
     2
271
     0
272
     1
276
     2
284
    11
285
    11
286
    11
289
     0
340
39
341
4E
342
4E
  0
ENDTAB
  0
TABLE
  2
BLOCK_RECORD
  5
1
330
0
100
AcDbSymbolTable
 70
    14
  0
BLOCK_RECORD
  5
A
330
1
100
AcDbSymbolTableRecord
100
AcDbBlockTableRecord
  2
*MODEL_SPACE
340
20
 70
     0
280
     1
281
     0
  0
BLOCK_RECORD
  5
B
330
1
100
AcDbSymbolTableRecord
100
AcDbBlockTableRecord
  2
*PAPER_SPACE
340
21
 70
     0
280
     1
281
     0
  0
BLOCK_RECORD
  5
4E
330
1
100
AcDbSymbolTableRecord
100
AcDbBlockTableRecord
  2
_DOT
340
0
102
{BLKREFS
331
117C
331
117D
331
1188
331
1189
331
1194
331
1195
331
11A0
331
11A1
331
11AC
331
11AD
331
11B8
331
11B9
331
11C4
331
11C5
331
11D0
331
11D1
102
}
 70
     0
280
     1
281
     0
  0
BLOCK_RECORD
  5
68A
330
1
100
AcDbSymbolTableRecord
100
AcDbBlockTableRecord
  2
名称未設定-1
340
0
102
{BLKREFS
331
6B5
102
}
 70
     1
280
     1
281
     0
  0
BLOCK_RECORD
  5
68D
330
1
100
AcDbSymbolTableRecord
100
AcDbBlockTableRecord
  2
block 2
340
0
102
{BLKREFS
331
68C
102
}
 70
     0
280
     1
281
     0
  0
BLOCK_RECORD
  5
690
330
1
100
AcDbSymbolTableRecord
100
AcDbBlockTableRecord
  2
block 3
340
0
102
{BLKREFS
331
68F
102
}
 70
     0
280
     1
281
     0
  0
BLOCK_RECORD
  5
693
330
1
100
AcDbSymbolTableRecord
100
AcDbBlockTableRecord
  2
block 4
340
0
102
{BLKREFS
331
692
102
}
 70
     0
280
     1
281
     0
  0
BLOCK_RECORD
  5
6A2
330
1
100
AcDbSymbolTableRecord
100
AcDbBlockTableRecord
  2
block 5
340
0
102
{BLKREFS
331
6A1
102
}
 70
     0
280
     1
281
     0
  0
BLOCK_RECORD
  5
1176
330
1
100
AcDbSymbolTableRecord
100
AcDbBlockTableRecord
  2
*D6
340
0
 70
     0
280
     1
281
     0
  0
BLOCK_RECORD
  5
1182
330
1
100
AcDbSymbolTableRecord
100
AcDbBlockTableRecord
  2
*D7
340
0
 70
     0
280
     1
281
     0
  0
BLOCK_RECORD
  5
118E
330
1
100
AcDbSymbolTableRecord
100
AcDbBlockTableRecord
  2
*D8
340
0
 70
     0
280
     1
281
     0
  0
BLOCK_RECORD
  5
119A
330
1
100
AcDbSymbolTableRecord
100
AcDbBlockTableRecord
  2
*D9
340
0
 70
     0
280
     1
281
     0
  0
BLOCK_RECORD
  5
11A6
330
1
100
AcDbSymbolTableRecord
100
AcDbBlockTableRecord
  2
*D10
340
0
 70
     0
280
     1
281
     0
  0
BLOCK_RECORD
  5
11B2
330
1
100
AcDbSymbolTableRecord
100
AcDbBlockTableRecord
  2
*D11
340
0
 70
     0
280
     1
281
     0
  0
BLOCK_RECORD
  5
11BE
330
1
100
AcDbSymbolTableRecord
100
AcDbBlockTableRecord
  2
*D12
340
0
 70
     0
280
     1
281
     0
  0
BLOCK_RECORD
  5
11CA
330
1
100
AcDbSymbolTableRecord
100
AcDbBlockTableRecord
  2
*D13
340
0
 70
     0
280
     1
281
     0
  0
ENDTAB
  0
ENDSEC
  0
SECTION
  2
BLOCKS
  0
BLOCK
  5
D
330
A
100
AcDbEntity
  8
0
390
1D
100
AcDbBlockBegin
  2
*MODEL_SPACE
 70
     0
 10
0.0
 20
0.0
 30
0.0
  3
*MODEL_SPACE
  1
*MODEL_SPACE
  0
ENDBLK
  5
E
330
A
100
AcDbEntity
  8
0
390
1D
100
AcDbBlockEnd
  0
BLOCK
  5
F
330
B
100
AcDbEntity
 67
     1
  8
0
390
1D
100
AcDbBlockBegin
  2
*PAPER_SPACE
 70
     0
 10
0.0
 20
0.0
 30
0.0
  3
*PAPER_SPACE
  1
*PAPER_SPACE
  0
ENDBLK
  5
10
330
B
100
AcDbEntity
 67
     1
  8
0
390
1D
100
AcDbBlockEnd
  0
BLOCK
  5
D4A
330
4E
100
AcDbEntity
  8
0
390
1D
100
AcDbBlockBegin
  2
_DOT
 70
     0
 10
0.0
 20
0.0
 30
0.0
  3
_DOT
  1
_DOT
  0
POLYLINE
  5
D4C
330
4E
100
AcDbEntity
  8
0
  6
ByBlock
 62
     0
370
    -2
390
1D
100
AcDb2dPolyline
 66
     1
 10
0.0
 20
0.0
 30
0.0
 70
     1
 40
0.5
 41
0.5
  0
VERTEX
  5
D4D
330
D4C
100
AcDbEntity
  8
0
  6
ByBlock
 62
     0
370
    -2
390
1D
100
AcDbVertex
100
AcDb2dVertex
 10
-0.25
 20
0.0
 30
0.0
 42
1.0
  0
VERTEX
  5
D4E
330
D4C
100
AcDbEntity
  8
0
  6
ByBlock
 62
     0
370
    -2
390
1D
100
AcDbVertex
100
AcDb2dVertex
 10
0.25
 20
0.0
 30
0.0
 42
1.0
  0
SEQEND
  5
D4F
330
D4C
100
AcDbEntity
  8
0
390
1D
  0
LINE
  5
D50
330
4E
100
AcDbEntity
  8
0
  6
ByBlock
 62
     0
370
    -2
390
1D
100
AcDbLine
 10
-0.5
 20
0.0
 30
0.0
 11
-1.0
 21
0.0
 31
0.0
  0
ENDBLK
  5
D51
330
4E
100
AcDbEntity
  8
0
390
1D
100
AcDbBlockEnd
  0
BLOCK
  5
68B
330
68A
100
AcDbEntity
  8
0
100
AcDbBlockBegin
  2
名称未設定-1
 70
     0
 10
0.0
 20
0.0
 30
0.0
  3
名称未設定-1
  1
名称未設定-1
  0
INSERT
  5
68F
330
68A
100
AcDbEntity
  8
LOGO
100
AcDbBlockReference
  2
block 3
 10
0.0
 20
0.0
 30
0.0
  0
ENDBLK
  5
6B1
330
68A
100
AcDbEntity
  8
0
100
AcDbBlockEnd
  0
BLOCK
  5
68E
330
68D
100
AcDbEntity
  8
0
100
AcDbBlockBegin
  2
block 2
 70
     0
 10
0.0
 20
0.0
 30
0.0
  3
block 2
  1
block 2
  0
ENDBLK
  5
6B0
330
68D
100
AcDbEntity
  8
0
100
AcDbBlockEnd
  0
BLOCK
  5
691
330
690
100
AcDbEntity
  8
0
100
AcDbBlockBegin
  2
block 3
 70
     0
 10
0.0
 20
0.0
 30
0.0
  3
block 3
  1
block 3
  0
INSERT
  5
692
330
690
100
AcDbEntity
  8
LOGO
100
AcDbBlockReference
  2
block 4
 10
0.0
 20
0.0
 30
0.0
  0
INSERT
  5
6A1
330
690
100
AcDbEntity
  8
LOGO
100
AcDbBlockReference
  2
block 5
 10
0.0
 20
0.0
 30
0.0
  0
ENDBLK
  5
6AF
330
690
100
AcDbEntity
  8
0
100
AcDbBlockEnd
  0
BLOCK
  5
694
330
693
100
AcDbEntity
  8
0
100
AcDbBlockBegin
  2
block 4
 70
     0
 10
0.0
 20
0.0
 30
0.0
  3
block 4
  1
block 4
  0
POLYLINE
  5
695
330
693
100
AcDbEntity
  8
LOGO
370
     0
100
AcDb2dPolyline
 66
     1
 10
0.0
 20
0.0
 30
0.0
  0
VERTEX
  5
696
330
695
100
AcDbEntity
  8
LOGO
370
     0
100
AcDbVertex
100
AcDb2dVertex
 10
83.79545727667795
 20
167.6444858234922
 30
0.0
  0
VERTEX
  5
697
330
695
100
AcDbEntity
  8
LOGO
370
     0
100
AcDbVertex
100
AcDb2dVertex
 10
83.79545727667795
 20
159.7968976406313
 30
0.0
  0
VERTEX
  5
698
330
695
100
AcDbEntity
  8
LOGO
370
     0
100
AcDbVertex
100
AcDb2dVertex
 10
71.3631329975216
 20
159.7968976406313
 30
0.0
  0
VERTEX
  5
699
330
695
100
AcDbEntity
  8
LOGO
370
     0
100
AcDbVertex
100
AcDb2dVertex
 10
71.3631329975216
 20
127.8027915271048
 30
0.0
  0
VERTEX
  5
69A
330
695
100
AcDbEntity
  8
LOGO
370
     0
100
AcDbVertex
100
AcDb2dVertex
 10
60.43011526263018
 20
127.8027915271048
 30
0.0
  0
VERTEX
  5
69B
330
695
100
AcDbEntity
  8
LOGO
370
     0
100
AcDbVertex
100
AcDb2dVertex
 10
60.43011526263018
 20
159.7968976406313
 30
0.0
  0
VERTEX
  5
69C
330
695
100
AcDbEntity
  8
LOGO
370
     0
100
AcDbVertex
100
AcDb2dVertex
 10
48.21793273020759
 20
159.7968976406313
 30
0.0
  0
VERTEX
  5
69D
330
695
100
AcDbEntity
  8
LOGO
370
     0
100
AcDbVertex
100
AcDb2dVertex
 10
48.21793273020759
 20
167.6444858234922
 30
0.0
  0
VERTEX
  5
69E
330
695
100
AcDbEntity
  8
LOGO
370
     0
100
AcDbVertex
100
AcDb2dVertex
 10
83.79545727667795
 20
167.6444858234922
 30
0.0
  0
SEQEND
  5
69F
330
695
100
AcDbEntity
  8
LOGO
370
     0
  0
HATCH
  5
6A0
330
693
100
AcDbEntity
  8
LOGO
 62
   250
420
  2234388
100
AcDbHatch
 10
0.0
 20
0.0
 30
0.0
210
0.0
220
0.0
230
1.0
  2
SOLID
 70
     1
 71
     0
 91
        1
 92
        1
 93
        8
 72
     1
 10
83.79545727667795
 20
167.6444858234922
 11
83.79545727667795
 21
159.7968976406313
 72
     1
 10
83.79545727667795
 20
159.7968976406313
 11
71.3631329975216
 21
159.7968976406313
 72
     1
 10
71.3631329975216
 20
159.7968976406313
 11
71.3631329975216
 21
127.8027915271048
 72
     1
 10
71.3631329975216
 20
127.8027915271048
 11
60.43011526263018
 21
127.8027915271048
 72
     1
 10
60.43011526263018
 20
127.8027915271048
 11
60.43011526263018
 21
159.7968976406313
 72
     1
 10
60.43011526263018
 20
159.7968976406313
 11
48.21793273020759
 21
159.7968976406313
 72
     1
 10
48.21793273020759
 20
159.7968976406313
 11
48.21793273020759
 21
167.6444858234922
 72
     1
 10
48.21793273020759
 20
167.6444858234922
 11
83.79545727667795
 21
167.6444858234922
 97
        0
 75
     2
 76
     1
 98
        0
  0
ENDBLK
  5
6AE
330
693
100
AcDbEntity
  8
0
100
AcDbBlockEnd
  0
BLOCK
  5
6A3
330
6A2
100
AcDbEntity
  8
0
100
AcDbBlockBegin
  2
block 5
 70
     0
 10
0.0
 20
0.0
 30
0.0
  3
block 5
  1
block 5
  0
SPLINE
  5
6A4
330
6A2
100
AcDbEntity
  8
LOGO
370
     0
100
AcDbSpline
210
0.0
220
0.0
230
1.0
 70
    11
 71
     3
 72
    56
 73
    52
 74
     0
 42
0.000000001
 43
0.0000000001
 40
0.0
 40
0.0
 40
0.0
 40
0.0
 40
1.0
 40
1.0
 40
1.0
 40
2.0
 40
2.0
 40
2.0
 40
3.0
 40
3.0
 40
3.0
 40
4.0
 40
4.0
 40
4.0
 40
5.0
 40
5.0
 40
5.0
 40
6.0
 40
6.0
 40
6.0
 40
7.0
 40
7.0
 40
7.0
 40
8.0
 40
8.0
 40
8.0
 40
9.0
 40
9.0
 40
9.0
 40
10.0
 40
10.0
 40
10.0
 40
11.0
 40
11.0
 40
11.0
 40
12.0
 40
12.0
 40
12.0
 40
13.0
 40
13.0
 40
13.0
 40
14.0
 40
14.0
 40
14.0
 40
15.0
 40
15.0
 40
15.0
 40
16.0
 40
16.0
 40
16.0
 40
17.0
 40
17.0
 40
17.0
 40
17.0
 10
100.4504378777679
 20
166.69157178364
 30
0.0
 10
101.9848844191641
 20
167.1313385124438
 30
0.0
 10
103.9637485713373
 20
166.7649523658846
 30
0.0
 10
103.9637485713373
 20
166.7649523658846
 30
0.0
 10
103.9637485713373
 20
166.7649523658846
 30
0.0
 10
103.0132460999156
 20
163.911205638077
 30
0.0
 10
103.0132460999156
 20
163.911205638077
 30
0.0
 10
103.0132460999156
 20
163.911205638077
 30
0.0
 10
101.0674548862189
 20
164.3601018759394
 30
0.0
 10
99.57090442016032
 20
163.1805004036133
 30
0.0
 10
98.40508333886608
 20
162.258247733807
 30
0.0
 10
97.65301849830304
 20
159.804132345923
 30
0.0
 10
97.3598406791005
 20
158.8699940888517
 30
0.0
 10
97.3598406791005
 20
158.8699940888517
 30
0.0
 10
96.07137411762282
 20
154.9119212747295
 30
0.0
 10
96.07137411762282
 20
154.9119212747295
 30
0.0
 10
96.07137411762282
 20
154.9119212747295
 30
0.0
 10
100.3012651448482
 20
154.9119212747295
 30
0.0
 10
100.3012651448482
 20
154.9119212747295
 30
0.0
 10
100.3012651448482
 20
154.9119212747295
 30
0.0
 10
99.64152892419852
 20
152.4199098115079
 30
0.0
 10
99.64152892419852
 20
152.4199098115079
 30
0.0
 10
99.64152892419852
 20
152.4199098115079
 30
0.0
 10
95.38097652692731
 20
152.4199098115079
 30
0.0
 10
95.38097652692731
 20
152.4199098115079
 30
0.0
 10
95.38097652692731
 20
152.4199098115079
 30
0.0
 10
87.75353009080013
 20
127.8027915271048
 30
0.0
 10
87.75353009080013
 20
127.8027915271048
 30
0.0
 10
87.75353009080013
 20
127.8027915271048
 30
0.0
 10
85.36538832498108
 20
127.8027915271048
 30
0.0
 10
85.36538832498108
 20
127.8027915271048
 30
0.0
 10
85.36538832498108
 20
127.8027915271048
 30
0.0
 10
93.00006946639998
 20
152.4199098115079
 30
0.0
 10
93.00006946639998
 20
152.4199098115079
 30
0.0
 10
93.00006946639998
 20
152.4199098115079
 30
0.0
 10
89.85297266450198
 20
152.4199098115079
 30
0.0
 10
89.85297266450198
 20
152.4199098115079
 30
0.0
 10
89.85297266450198
 20
152.4199098115079
 30
0.0
 10
90.51270888515164
 20
154.9119212747295
 30
0.0
 10
90.51270888515164
 20
154.9119212747295
 30
0.0
 10
90.51270888515164
 20
154.9119212747295
 30
0.0
 10
93.6904670570955
 20
154.9119212747295
 30
0.0
 10
93.6904670570955
 20
154.9119212747295
 30
0.0
 10
93.6904670570955
 20
154.9119212747295
 30
0.0
 10
94.81598049462158
 20
158.3616699146644
 30
0.0
 10
94.81598049462158
 20
158.3616699146644
 30
0.0
 10
95.7237637538445
 20
161.2605474231013
 30
0.0
 10
96.4968436907311
 20
162.8139420021662
 30
0.0
 10
97.15657991138076
 20
163.9844139654337
 30
0.0
 10
97.81183750494507
 20
165.1523021053827
 30
0.0
 10
99.1047826935081
 20
166.3084769129547
 30
0.0
 10
100.4504378777679
 20
166.69157178364
 30
0.0
  0
HATCH
  5
6A5
330
6A2
100
AcDbEntity
  8
LOGO
 62
   250
420
  2234388
100
AcDbHatch
 10
0.0
 20
0.0
 30
0.0
210
0.0
220
0.0
230
1.0
  2
SOLID
 70
     1
 71
     0
 91
        1
 92
        1
 93
        1
 72
     4
 94
        3
 73
     0
 74
     1
 95
       56
 96
       52
 40
0.0
 40
0.0
 40
0.0
 40
0.0
 40
1.0
 40
1.0
 40
1.0
 40
2.0
 40
2.0
 40
2.0
 40
3.0
 40
3.0
 40
3.0
 40
4.0
 40
4.0
 40
4.0
 40
5.0
 40
5.0
 40
5.0
 40
6.0
 40
6.0
 40
6.0
 40
7.0
 40
7.0
 40
7.0
 40
8.0
 40
8.0
 40
8.0
 40
9.0
 40
9.0
 40
9.0
 40
10.0
 40
10.0
 40
10.0
 40
11.0
 40
11.0
 40
11.0
 40
12.0
 40
12.0
 40
12.0
 40
13.0
 40
13.0
 40
13.0
 40
14.0
 40
14.0
 40
14.0
 40
15.0
 40
15.0
 40
15.0
 40
16.0
 40
16.0
 40
16.0
 40
17.0
 40
17.0
 40
17.0
 40
17.0
 10
100.4504378777679
 20
166.69157178364
 10
101.9848844191641
 20
167.1313385124438
 10
103.9637485713373
 20
166.7649523658846
 10
103.9637485713373
 20
166.7649523658846
 10
103.9637485713373
 20
166.7649523658846
 10
103.0132460999156
 20
163.911205638077
 10
103.0132460999156
 20
163.911205638077
 10
103.0132460999156
 20
163.911205638077
 10
101.0674548862189
 20
164.3601018759394
 10
99.57090442016032
 20
163.1805004036133
 10
98.40508333886608
 20
162.258247733807
 10
97.65301849830304
 20
159.804132345923
 10
97.3598406791005
 20
158.8699940888517
 10
97.3598406791005
 20
158.8699940888517
 10
96.07137411762282
 20
154.9119212747295
 10
96.07137411762282
 20
154.9119212747295
 10
96.07137411762282
 20
154.9119212747295
 10
100.3012651448482
 20
154.9119212747295
 10
100.3012651448482
 20
154.9119212747295
 10
100.3012651448482
 20
154.9119212747295
 10
99.64152892419852
 20
152.4199098115079
 10
99.64152892419852
 20
152.4199098115079
 10
99.64152892419852
 20
152.4199098115079
 10
95.38097652692731
 20
152.4199098115079
 10
95.38097652692731
 20
152.4199098115079
 10
95.38097652692731
 20
152.4199098115079
 10
87.75353009080013
 20
127.8027915271048
 10
87.75353009080013
 20
127.8027915271048
 10
87.75353009080013
 20
127.8027915271048
 10
85.36538832498108
 20
127.8027915271048
 10
85.36538832498108
 20
127.8027915271048
 10
85.36538832498108
 20
127.8027915271048
 10
93.00006946639998
 20
152.4199098115079
 10
93.00006946639998
 20
152.4199098115079
 10
93.00006946639998
 20
152.4199098115079
 10
89.85297266450198
 20
152.4199098115079
 10
89.85297266450198
 20
152.4199098115079
 10
89.85297266450198
 20
152.4199098115079
 10
90.51270888515164
 20
154.9119212747295
 10
90.51270888515164
 20
154.9119212747295
 10
90.51270888515164
 20
154.9119212747295
 10
93.6904670570955
 20
154.9119212747295
 10
93.6904670570955
 20
154.9119212747295
 10
93.6904670570955
 20
154.9119212747295
 10
94.81598049462158
 20
158.3616699146644
 10
94.81598049462158
 20
158.3616699146644
 10
95.7237637538445
 20
161.2605474231013
 10
96.4968436907311
 20
162.8139420021662
 10
97.15657991138076
 20
163.9844139654337
 10
97.81183750494507
 20
165.1523021053827
 10
99.1047826935081
 20
166.3084769129547
 10
100.4504378777679
 20
166.69157178364
 97
        0
 75
     2
 76
     1
 98
        0
  0
SPLINE
  5
6A6
330
6A2
100
AcDbEntity
  8
LOGO
370
     0
100
AcDbSpline
210
0.0
220
0.0
230
1.0
 70
    11
 71
     3
 72
    38
 73
    34
 74
     0
 42
0.000000001
 43
0.0000000001
 40
0.0
 40
0.0
 40
0.0
 40
0.0
 40
1.0
 40
1.0
 40
1.0
 40
2.0
 40
2.0
 40
2.0
 40
3.0
 40
3.0
 40
3.0
 40
4.0
 40
4.0
 40
4.0
 40
5.0
 40
5.0
 40
5.0
 40
6.0
 40
6.0
 40
6.0
 40
7.0
 40
7.0
 40
7.0
 40
8.0
 40
8.0
 40
8.0
 40
9.0
 40
9.0
 40
9.0
 40
10.0
 40
10.0
 40
10.0
 40
11.0
 40
11.0
 40
11.0
 40
11.0
 10
126.377554584636
 20
154.8151140277308
 30
0.0
 10
126.377554584636
 20
154.8151140277308
 30
0.0
 10
128.8311532078563
 20
154.8151140277308
 30
0.0
 10
128.8311532078563
 20
154.8151140277308
 30
0.0
 10
128.8311532078563
 20
154.8151140277308
 30
0.0
 10
127.7345785914971
 20
151.3062819612468
 30
0.0
 10
127.7345785914971
 20
151.3062819612468
 30
0.0
 10
128.571392836906
 20
152.2922689395754
 30
0.0
 10
129.8860421413442
 20
153.604506675583
 30
0.0
 10
131.0163787157314
 20
154.2664822097754
 30
0.0
 10
132.7044766171327
 20
155.2500576196734
 30
0.0
 10
133.6642808525008
 20
155.3847609420097
 30
0.0
 10
134.7284715499351
 20
155.3565111403944
 30
0.0
 10
134.7284715499351
 20
155.3565111403944
 30
0.0
 10
133.6877075172549
 20
152.0345756272799
 30
0.0
 10
133.6877075172549
 20
152.0345756272799
 30
0.0
 10
133.011434827367
 20
152.3184516825359
 30
0.0
 10
130.930940291334
 20
151.7768823149844
 30
0.0
 10
129.739280976855
 20
150.9162968950455
 30
0.0
 10
128.66613302525
 20
150.1454562717016
 30
0.0
 10
127.9192358313239
 20
149.4857200510519
 30
0.0
 10
127.0393578639405
 20
147.8282835196966
 30
0.0
 10
126.164647543194
 20
146.1699857139017
 30
0.0
 10
125.4742499524985
 20
143.5262176944419
 30
0.0
 10
124.2822461282437
 20
139.6959580071401
 30
0.0
 10
124.2822461282437
 20
139.6959580071401
 30
0.0
 10
120.5753209406769
 20
127.8027915271048
 30
0.0
 10
120.5753209406769
 20
127.8027915271048
 30
0.0
 10
120.5753209406769
 20
127.8027915271048
 30
0.0
 10
118.1964809388044
 20
127.8027915271048
 30
0.0
 10
118.1964809388044
 20
127.8027915271048
 30
0.0
 10
118.1964809388044
 20
127.8027915271048
 30
0.0
 10
126.377554584636
 20
154.8151140277308
 30
0.0
 10
126.377554584636
 20
154.8151140277308
 30
0.0
  0
HATCH
  5
6A7
330
6A2
100
AcDbEntity
  8
LOGO
 62
   250
420
  2234388
100
AcDbHatch
 10
0.0
 20
0.0
 30
0.0
210
0.0
220
0.0
230
1.0
  2
SOLID
 70
     1
 71
     0
 91
        1
 92
        1
 93
        1
 72
     4
 94
        3
 73
     0
 74
     1
 95
       38
 96
       34
 40
0.0
 40
0.0
 40
0.0
 40
0.0
 40
1.0
 40
1.0
 40
1.0
 40
2.0
 40
2.0
 40
2.0
 40
3.0
 40
3.0
 40
3.0
 40
4.0
 40
4.0
 40
4.0
 40
5.0
 40
5.0
 40
5.0
 40
6.0
 40
6.0
 40
6.0
 40
7.0
 40
7.0
 40
7.0
 40
8.0
 40
8.0
 40
8.0
 40
9.0
 40
9.0
 40
9.0
 40
10.0
 40
10.0
 40
10.0
 40
11.0
 40
11.0
 40
11.0
 40
11.0
 10
126.377554584636
 20
154.8151140277308
 10
126.377554584636
 20
154.8151140277308
 10
128.8311532078563
 20
154.8151140277308
 10
128.8311532078563
 20
154.8151140277308
 10
128.8311532078563
 20
154.8151140277308
 10
127.7345785914971
 20
151.3062819612468
 10
127.7345785914971
 20
151.3062819612468
 10
128.571392836906
 20
152.2922689395754
 10
129.8860421413442
 20
153.604506675583
 10
131.0163787157314
 20
154.2664822097754
 10
132.7044766171327
 20
155.2500576196734
 10
133.6642808525008
 20
155.3847609420097
 10
134.7284715499351
 20
155.3565111403944
 10
134.7284715499351
 20
155.3565111403944
 10
133.6877075172549
 20
152.0345756272799
 10
133.6877075172549
 20
152.0345756272799
 10
133.011434827367
 20
152.3184516825359
 10
130.930940291334
 20
151.7768823149844
 10
129.739280976855
 20
150.9162968950455
 10
128.66613302525
 20
150.1454562717016
 10
127.9192358313239
 20
149.4857200510519
 10
127.0393578639405
 20
147.8282835196966
 10
126.164647543194
 20
146.1699857139017
 10
125.4742499524985
 20
143.5262176944419
 10
124.2822461282437
 20
139.6959580071401
 10
124.2822461282437
 20
139.6959580071401
 10
120.5753209406769
 20
127.8027915271048
 10
120.5753209406769
 20
127.8027915271048
 10
120.5753209406769
 20
127.8027915271048
 10
118.1964809388044
 20
127.8027915271048
 10
118.1964809388044
 20
127.8027915271048
 10
118.1964809388044
 20
127.8027915271048
 10
126.377554584636
 20
154.8151140277308
 10
126.377554584636
 20
154.8151140277308
 97
        0
 75
     2
 76
     1
 98
        0
  0
SPLINE
  5
6A8
330
6A2
100
AcDbEntity
  8
LOGO
370
     0
100
AcDbSpline
210
0.0
220
0.0
230
1.0
 70
    11
 71
     3
 72
   104
 73
   100
 74
     0
 42
0.000000001
 43
0.0000000001
 40
0.0
 40
0.0
 40
0.0
 40
0.0
 40
1.0
 40
1.0
 40
1.0
 40
2.0
 40
2.0
 40
2.0
 40
3.0
 40
3.0
 40
3.0
 40
4.0
 40
4.0
 40
4.0
 40
5.0
 40
5.0
 40
5.0
 40
6.0
 40
6.0
 40
6.0
 40
7.0
 40
7.0
 40
7.0
 40
8.0
 40
8.0
 40
8.0
 40
9.0
 40
9.0
 40
9.0
 40
10.0
 40
10.0
 40
10.0
 40
11.0
 40
11.0
 40
11.0
 40
12.0
 40
12.0
 40
12.0
 40
13.0
 40
13.0
 40
13.0
 40
14.0
 40
14.0
 40
14.0
 40
15.0
 40
15.0
 40
15.0
 40
16.0
 40
16.0
 40
16.0
 40
17.0
 40
17.0
 40
17.0
 40
18.0
 40
18.0
 40
18.0
 40
19.0
 40
19.0
 40
19.0
 40
20.0
 40
20.0
 40
20.0
 40
21.0
 40
21.0
 40
21.0
 40
22.0
 40
22.0
 40
22.0
 40
23.0
 40
23.0
 40
23.0
 40
24.0
 40
24.0
 40
24.0
 40
25.0
 40
25.0
 40
25.0
 40
26.0
 40
26.0
 40
26.0
 40
27.0
 40
27.0
 40
27.0
 40
28.0
 40
28.0
 40
28.0
 40
29.0
 40
29.0
 40
29.0
 40
30.0
 40
30.0
 40
30.0
 40
31.0
 40
31.0
 40
31.0
 40
32.0
 40
32.0
 40
32.0
 40
33.0
 40
33.0
 40
33.0
 40
33.0
 10
139.8926730891197
 20
154.8294111834263
 30
0.0
 10
139.8926730891197
 20
154.8294111834263
 30
0.0
 10
142.0344903652445
 20
154.8294111834263
 30
0.0
 10
142.0344903652445
 20
154.8294111834263
 30
0.0
 10
142.0344903652445
 20
154.8294111834263
 30
0.0
 10
140.9516961399171
 20
151.3157559800812
 30
0.0
 10
140.9516961399171
 20
151.3157559800812
 30
0.0
 10
141.8928968473923
 20
152.7887075264977
 30
0.0
 10
142.7341897198865
 20
153.4484437471474
 30
0.0
 10
143.8552245303272
 20
154.2926649527359
 30
0.0
 10
144.9803934580775
 20
155.1296514530327
 30
0.0
 10
146.3139908001845
 20
155.3044901642492
 30
0.0
 10
147.241066606852
 20
155.3044901642492
 30
0.0
 10
148.3855280820469
 20
155.3044901642492
 30
0.0
 10
149.4969166187653
 20
155.0752189084569
 30
0.0
 10
150.0784491203092
 20
153.8172414621372
 30
0.0
 10
150.5228667310863
 20
152.833838307127
 30
0.0
 10
150.5414702589793
 20
152.7201500811143
 30
0.0
 10
150.4140016419347
 20
150.7765981809602
 30
0.0
 10
151.5818897818837
 20
152.7699317437168
 30
0.0
 10
152.4424752018226
 20
153.6256940267945
 30
0.0
 10
153.9038856707499
 20
154.4507949398263
 30
0.0
 10
155.4455669174378
 20
155.3044901642492
 30
0.0
 10
156.339225275853
 20
155.3659851592288
 30
0.0
 10
157.3748216618963
 20
155.2147453676543
 30
0.0
 10
158.911679771723
 20
154.9877134254046
 30
0.0
 10
159.8859534176746
 20
154.4390816074493
 30
0.0
 10
160.3965169054045
 20
152.7816450760939
 30
0.0
 10
160.9070803931344
 20
151.1219692311958
 30
0.0
 10
160.6328506116007
 20
150.2303779314354
 30
0.0
 10
159.9992971339115
 20
147.597634224801
 30
0.0
 10
159.7105979417943
 20
146.4014962832367
 30
0.0
 10
159.2947746424084
 20
144.9400858143094
 30
0.0
 10
158.7463150793409
 20
143.2092687007094
 30
0.0
 10
158.7463150793409
 20
143.2092687007094
 30
0.0
 10
153.9038856707499
 20
127.8027915271048
 30
0.0
 10
153.9038856707499
 20
127.8027915271048
 30
0.0
 10
153.9038856707499
 20
127.8027915271048
 30
0.0
 10
151.3882752878863
 20
127.8027915271048
 30
0.0
 10
151.3882752878863
 20
127.8027915271048
 30
0.0
 10
151.3882752878863
 20
127.8027915271048
 30
0.0
 10
155.6250565106276
 20
141.2751908193897
 30
0.0
 10
155.6250565106276
 20
141.2751908193897
 30
0.0
 10
156.5094131050963
 20
144.0936252951782
 30
0.0
 10
157.109893644309
 20
146.1506931664571
 30
0.0
 10
157.4220195011804
 20
147.4415712963654
 30
0.0
 10
157.8095929989511
 20
149.0530157726519
 30
0.0
 10
157.9656559273867
 20
149.5826995529385
 30
0.0
 10
157.7816877071116
 20
150.7529992613181
 30
0.0
 10
157.6111553680925
 20
151.8430281919372
 30
0.0
 10
157.0582171779396
 20
152.5547853887321
 30
0.0
 10
156.1170164704645
 20
152.5547853887321
 30
0.0
 10
155.1096698860365
 20
152.5547853887321
 30
0.0
 10
154.2962823053817
 20
152.4412694176073
 30
0.0
 10
153.156643967048
 20
151.2945686288697
 30
0.0
 10
152.0170056287143
 20
150.1476955852443
 30
0.0
 10
151.076149431015
 20
148.7930831468137
 30
0.0
 10
150.3337308641742
 20
147.2290087646991
 30
0.0
 10
149.5957909244188
 20
145.6683794803425
 30
0.0
 10
148.8530278478023
 20
143.6822806228776
 30
0.0
 10
148.0964843801539
 20
141.2751908193897
 30
0.0
 10
148.0964843801539
 20
141.2751908193897
 30
0.0
 10
143.8552245303272
 20
127.8027915271048
 30
0.0
 10
143.8552245303272
 20
127.8027915271048
 30
0.0
 10
143.8552245303272
 20
127.8027915271048
 30
0.0
 10
141.486030802177
 20
127.8027915271048
 30
0.0
 10
141.486030802177
 20
127.8027915271048
 30
0.0
 10
141.486030802177
 20
127.8027915271048
 30
0.0
 10
146.3329388378533
 20
143.2092687007094
 30
0.0
 10
146.3329388378533
 20
143.2092687007094
 30
0.0
 10
146.8483254624444
 20
144.8408669988801
 30
0.0
 10
147.2314203331297
 20
146.1837661049335
 30
0.0
 10
147.4867020769946
 20
147.224185627838
 30
0.0
 10
147.9169947869641
 20
149.0197705792876
 30
0.0
 10
148.0306830129768
 20
150.2400242051577
 30
0.0
 10
147.709255392159
 20
151.3157559800812
 30
0.0
 10
147.3874832615654
 20
152.3916600098926
 30
0.0
 10
146.8245542879144
 20
152.6683013598569
 30
0.0
 10
145.8840425999909
 20
152.6683013598569
 30
0.0
 10
145.0989048209514
 20
152.6683013598569
 30
0.0
 10
144.3282364524954
 20
152.3275811915945
 30
0.0
 10
143.4531816219731
 20
151.6538923250251
 30
0.0
 10
142.34627171234
 20
150.8074318058939
 30
0.0
 10
141.901854101563
 20
150.1097995099067
 30
0.0
 10
141.3578731655808
 20
149.289521733736
 30
0.0
 10
140.6299240093235
 20
148.192602607601
 30
0.0
 10
140.2850697237515
 20
147.455696197173
 30
0.0
 10
139.6652966370942
 20
145.8385673095858
 30
0.0
 10
139.0506911970739
 20
144.2214384219986
 30
0.0
 10
138.463991048893
 20
142.3252566160164
 30
0.0
 10
138.0571250036777
 20
141.0154304484394
 30
0.0
 10
138.0571250036777
 20
141.0154304484394
 30
0.0
 10
133.9009590684727
 20
127.8027915271048
 30
0.0
 10
133.9009590684727
 20
127.8027915271048
 30
0.0
 10
133.9009590684727
 20
127.8027915271048
 30
0.0
 10
131.4180771143097
 20
127.8027915271048
 30
0.0
 10
131.4180771143097
 20
127.8027915271048
 30
0.0
 10
131.4180771143097
 20
127.8027915271048
 30
0.0
 10
139.8926730891197
 20
154.8294111834263
 30
0.0
 10
139.8926730891197
 20
154.8294111834263
 30
0.0
  0
HATCH
  5
6A9
330
6A2
100
AcDbEntity
  8
LOGO
 62
   250
420
  2234388
100
AcDbHatch
 10
0.0
 20
0.0
 30
0.0
210
0.0
220
0.0
230
1.0
  2
SOLID
 70
     1
 71
     0
 91
        1
 92
        1
 93
        1
 72
     4
 94
        3
 73
     0
 74
     1
 95
      104
 96
      100
 40
0.0
 40
0.0
 40
0.0
 40
0.0
 40
1.0
 40
1.0
 40
1.0
 40
2.0
 40
2.0
 40
2.0
 40
3.0
 40
3.0
 40
3.0
 40
4.0
 40
4.0
 40
4.0
 40
5.0
 40
5.0
 40
5.0
 40
6.0
 40
6.0
 40
6.0
 40
7.0
 40
7.0
 40
7.0
 40
8.0
 40
8.0
 40
8.0
 40
9.0
 40
9.0
 40
9.0
 40
10.0
 40
10.0
 40
10.0
 40
11.0
 40
11.0
 40
11.0
 40
12.0
 40
12.0
 40
12.0
 40
13.0
 40
13.0
 40
13.0
 40
14.0
 40
14.0
 40
14.0
 40
15.0
 40
15.0
 40
15.0
 40
16.0
 40
16.0
 40
16.0
 40
17.0
 40
17.0
 40
17.0
 40
18.0
 40
18.0
 40
18.0
 40
19.0
 40
19.0
 40
19.0
 40
20.0
 40
20.0
 40
20.0
 40
21.0
 40
21.0
 40
21.0
 40
22.0
 40
22.0
 40
22.0
 40
23.0
 40
23.0
 40
23.0
 40
24.0
 40
24.0
 40
24.0
 40
25.0
 40
25.0
 40
25.0
 40
26.0
 40
26.0
 40
26.0
 40
27.0
 40
27.0
 40
27.0
 40
28.0
 40
28.0
 40
28.0
 40
29.0
 40
29.0
 40
29.0
 40
30.0
 40
30.0
 40
30.0
 40
31.0
 40
31.0
 40
31.0
 40
32.0
 40
32.0
 40
32.0
 40
33.0
 40
33.0
 40
33.0
 40
33.0
 10
139.8926730891197
 20
154.8294111834263
 10
139.8926730891197
 20
154.8294111834263
 10
142.0344903652445
 20
154.8294111834263
 10
142.0344903652445
 20
154.8294111834263
 10
142.0344903652445
 20
154.8294111834263
 10
140.9516961399171
 20
151.3157559800812
 10
140.9516961399171
 20
151.3157559800812
 10
141.8928968473923
 20
152.7887075264977
 10
142.7341897198865
 20
153.4484437471474
 10
143.8552245303272
 20
154.2926649527359
 10
144.9803934580775
 20
155.1296514530327
 10
146.3139908001845
 20
155.3044901642492
 10
147.241066606852
 20
155.3044901642492
 10
148.3855280820469
 20
155.3044901642492
 10
149.4969166187653
 20
155.0752189084569
 10
150.0784491203092
 20
153.8172414621372
 10
150.5228667310863
 20
152.833838307127
 10
150.5414702589793
 20
152.7201500811143
 10
150.4140016419347
 20
150.7765981809602
 10
151.5818897818837
 20
152.7699317437168
 10
152.4424752018226
 20
153.6256940267945
 10
153.9038856707499
 20
154.4507949398263
 10
155.4455669174378
 20
155.3044901642492
 10
156.339225275853
 20
155.3659851592288
 10
157.3748216618963
 20
155.2147453676543
 10
158.911679771723
 20
154.9877134254046
 10
159.8859534176746
 20
154.4390816074493
 10
160.3965169054045
 20
152.7816450760939
 10
160.9070803931344
 20
151.1219692311958
 10
160.6328506116007
 20
150.2303779314354
 10
159.9992971339115
 20
147.597634224801
 10
159.7105979417943
 20
146.4014962832367
 10
159.2947746424084
 20
144.9400858143094
 10
158.7463150793409
 20
143.2092687007094
 10
158.7463150793409
 20
143.2092687007094
 10
153.9038856707499
 20
127.8027915271048
 10
153.9038856707499
 20
127.8027915271048
 10
153.9038856707499
 20
127.8027915271048
 10
151.3882752878863
 20
127.8027915271048
 10
151.3882752878863
 20
127.8027915271048
 10
151.3882752878863
 20
127.8027915271048
 10
155.6250565106276
 20
141.2751908193897
 10
155.6250565106276
 20
141.2751908193897
 10
156.5094131050963
 20
144.0936252951782
 10
157.109893644309
 20
146.1506931664571
 10
157.4220195011804
 20
147.4415712963654
 10
157.8095929989511
 20
149.0530157726519
 10
157.9656559273867
 20
149.5826995529385
 10
157.7816877071116
 20
150.7529992613181
 10
157.6111553680925
 20
151.8430281919372
 10
157.0582171779396
 20
152.5547853887321
 10
156.1170164704645
 20
152.5547853887321
 10
155.1096698860365
 20
152.5547853887321
 10
154.2962823053817
 20
152.4412694176073
 10
153.156643967048
 20
151.2945686288697
 10
152.0170056287143
 20
150.1476955852443
 10
151.076149431015
 20
148.7930831468137
 10
150.3337308641742
 20
147.2290087646991
 10
149.5957909244188
 20
145.6683794803425
 10
148.8530278478023
 20
143.6822806228776
 10
148.0964843801539
 20
141.2751908193897
 10
148.0964843801539
 20
141.2751908193897
 10
143.8552245303272
 20
127.8027915271048
 10
143.8552245303272
 20
127.8027915271048
 10
143.8552245303272
 20
127.8027915271048
 10
141.486030802177
 20
127.8027915271048
 10
141.486030802177
 20
127.8027915271048
 10
141.486030802177
 20
127.8027915271048
 10
146.3329388378533
 20
143.2092687007094
 10
146.3329388378533
 20
143.2092687007094
 10
146.8483254624444
 20
144.8408669988801
 10
147.2314203331297
 20
146.1837661049335
 10
147.4867020769946
 20
147.224185627838
 10
147.9169947869641
 20
149.0197705792876
 10
148.0306830129768
 20
150.2400242051577
 10
147.709255392159
 20
151.3157559800812
 10
147.3874832615654
 20
152.3916600098926
 10
146.8245542879144
 20
152.6683013598569
 10
145.8840425999909
 20
152.6683013598569
 10
145.0989048209514
 20
152.6683013598569
 10
144.3282364524954
 20
152.3275811915945
 10
143.4531816219731
 20
151.6538923250251
 10
142.34627171234
 20
150.8074318058939
 10
141.901854101563
 20
150.1097995099067
 10
141.3578731655808
 20
149.289521733736
 10
140.6299240093235
 20
148.192602607601
 10
140.2850697237515
 20
147.455696197173
 10
139.6652966370942
 20
145.8385673095858
 10
139.0506911970739
 20
144.2214384219986
 10
138.463991048893
 20
142.3252566160164
 10
138.0571250036777
 20
141.0154304484394
 10
138.0571250036777
 20
141.0154304484394
 10
133.9009590684727
 20
127.8027915271048
 10
133.9009590684727
 20
127.8027915271048
 10
133.9009590684727
 20
127.8027915271048
 10
131.4180771143097
 20
127.8027915271048
 10
131.4180771143097
 20
127.8027915271048
 10
131.4180771143097
 20
127.8027915271048
 10
139.8926730891197
 20
154.8294111834263
 10
139.8926730891197
 20
154.8294111834263
 97
        0
 75
     2
 76
     1
 98
        0
  0
SPLINE
  5
6AA
330
6A2
100
AcDbEntity
  8
LOGO
370
     0
100
AcDbSpline
210
0.0
220
0.0
230
1.0
 70
    11
 71
     3
 72
    29
 73
    25
 74
     0
 42
0.000000001
 43
0.0000000001
 40
0.0
 40
0.0
 40
0.0
 40
0.0
 40
1.0
 40
1.0
 40
1.0
 40
2.0
 40
2.0
 40
2.0
 40
3.0
 40
3.0
 40
3.0
 40
4.0
 40
4.0
 40
4.0
 40
5.0
 40
5.0
 40
5.0
 40
6.0
 40
6.0
 40
6.0
 40
7.0
 40
7.0
 40
7.0
 40
8.0
 40
8.0
 40
8.0
 40
8.0
 10
101.6420971922469
 20
132.8388354296931
 30
0.0
 10
101.630039350094
 20
134.7164137077823
 30
0.0
 10
102.2236296937908
 20
138.0598810818841
 30
0.0
 10
103.7487744712405
 20
142.5378191476827
 30
0.0
 10
105.819967243327
 20
148.5896501242061
 30
0.0
 10
107.0602024361932
 20
150.8074318058939
 30
0.0
 10
108.1522984254671
 20
151.8833358357054
 30
0.0
 10
109.741177511439
 20
153.4532668840085
 30
0.0
 10
111.8740375333931
 20
153.5290590346837
 30
0.0
 10
112.5075910110823
 20
153.4532668840085
 30
0.0
 10
113.4012493694975
 20
153.3490526768302
 30
0.0
 10
114.6683563248758
 20
152.7580461564518
 30
0.0
 10
114.7493161221879
 20
150.7838328862519
 30
0.0
 10
114.8106388622796
 20
149.0909118479895
 30
0.0
 10
114.3186789024427
 20
145.9191825971221
 30
0.0
 10
112.6164561002338
 20
140.9489400617108
 30
0.0
 10
110.6444821435766
 20
135.1746117095912
 30
0.0
 10
109.4669477299053
 20
132.8960240524753
 30
0.0
 10
108.5212683953448
 20
131.9072809959403
 30
0.0
 10
106.7346406980658
 20
130.0538184021569
 30
0.0
 10
104.8222669326213
 20
130.2336525051225
 30
0.0
 10
104.5408024457958
 20
130.2336525051225
 30
0.0
 10
104.1721769856939
 20
130.2336525051225
 30
0.0
 10
101.6465758193322
 20
130.6305277668397
 30
0.0
 10
101.6420971922469
 20
132.8388354296931
 30
0.0
  0
SPLINE
  5
6AB
330
6A2
100
AcDbEntity
  8
LOGO
370
     0
100
AcDbSpline
210
0.0
220
0.0
230
1.0
 70
    11
 71
     3
 72
    32
 73
    28
 74
     0
 42
0.000000001
 43
0.0000000001
 40
0.0
 40
0.0
 40
0.0
 40
0.0
 40
1.0
 40
1.0
 40
1.0
 40
2.0
 40
2.0
 40
2.0
 40
3.0
 40
3.0
 40
3.0
 40
4.0
 40
4.0
 40
4.0
 40
5.0
 40
5.0
 40
5.0
 40
6.0
 40
6.0
 40
6.0
 40
7.0
 40
7.0
 40
7.0
 40
8.0
 40
8.0
 40
8.0
 40
9.0
 40
9.0
 40
9.0
 40
9.0
 10
106.2595617172429
 20
153.4105476718098
 30
0.0
 10
104.8222669326213
 20
151.5474388043041
 30
0.0
 10
103.7177685914188
 20
149.8758773721411
 30
0.0
 10
101.9232171692965
 20
144.6141795664062
 30
0.0
 10
100.2754269116635
 20
139.7999999594306
 30
0.0
 10
99.22777268346732
 20
136.3052927937542
 30
0.0
 10
99.06964269637689
 20
132.039572749846
 30
0.0
 10
98.94665270641765
 20
128.8673267343149
 30
0.0
 10
100.8807305877373
 20
127.8027915271048
 30
0.0
 10
103.7129454545577
 20
127.8027915271048
 30
0.0
 10
104.9352661390825
 20
127.8027915271048
 30
0.0
 10
108.0151835347002
 20
127.8827177950895
 30
0.0
 10
110.2045431598849
 20
130.5926316915021
 30
0.0
 10
111.7417457794874
 20
132.4984597712065
 30
0.0
 10
113.155269389579
 20
134.475256864725
 30
0.0
 10
115.0562743324223
 20
140.9489400617108
 30
0.0
 10
116.6361961642235
 20
146.3680788349845
 30
0.0
 10
117.7282921534974
 20
149.8639917848761
 30
0.0
 10
117.6480213757369
 20
151.8595646611754
 30
0.0
 10
117.6480213757369
 20
151.8595646611754
 30
0.0
 10
117.6480213757369
 20
151.8595646611754
 30
0.0
 10
117.6480213757369
 20
151.8595646611754
 30
0.0
 10
117.13229024137
 20
155.18150017429
 30
0.0
 10
114.7162431837115
 20
155.886194920681
 30
0.0
 10
113.3351034925446
 20
155.886194920681
 30
0.0
 10
111.9829026225447
 20
155.886194920681
 30
0.0
 10
108.3414342923792
 20
156.1251124501957
 30
0.0
 10
106.2595617172429
 20
153.4105476718098
 30
0.0
  0
HATCH
  5
6AC
330
6A2
100
AcDbEntity
  8
LOGO
 62
   250
420
  2234388
100
AcDbHatch
 10
0.0
 20
0.0
 30
0.0
210
0.0
220
0.0
230
1.0
  2
SOLID
 70
     1
 71
     0
 91
        2
 92
        1
 93
        1
 72
     4
 94
        3
 73
     0
 74
     1
 95
       29
 96
       25
 40
0.0
 40
0.0
 40
0.0
 40
0.0
 40
1.0
 40
1.0
 40
1.0
 40
2.0
 40
2.0
 40
2.0
 40
3.0
 40
3.0
 40
3.0
 40
4.0
 40
4.0
 40
4.0
 40
5.0
 40
5.0
 40
5.0
 40
6.0
 40
6.0
 40
6.0
 40
7.0
 40
7.0
 40
7.0
 40
8.0
 40
8.0
 40
8.0
 40
8.0
 10
101.6420971922469
 20
132.8388354296931
 10
101.630039350094
 20
134.7164137077823
 10
102.2236296937908
 20
138.0598810818841
 10
103.7487744712405
 20
142.5378191476827
 10
105.819967243327
 20
148.5896501242061
 10
107.0602024361932
 20
150.8074318058939
 10
108.1522984254671
 20
151.8833358357054
 10
109.741177511439
 20
153.4532668840085
 10
111.8740375333931
 20
153.5290590346837
 10
112.5075910110823
 20
153.4532668840085
 10
113.4012493694975
 20
153.3490526768302
 10
114.6683563248758
 20
152.7580461564518
 10
114.7493161221879
 20
150.7838328862519
 10
114.8106388622796
 20
149.0909118479895
 10
114.3186789024427
 20
145.9191825971221
 10
112.6164561002338
 20
140.9489400617108
 10
110.6444821435766
 20
135.1746117095912
 10
109.4669477299053
 20
132.8960240524753
 10
108.5212683953448
 20
131.9072809959403
 10
106.7346406980658
 20
130.0538184021569
 10
104.8222669326213
 20
130.2336525051225
 10
104.5408024457958
 20
130.2336525051225
 10
104.1721769856939
 20
130.2336525051225
 10
101.6465758193322
 20
130.6305277668397
 10
101.6420971922469
 20
132.8388354296931
 97
        0
 92
        1
 93
        1
 72
     4
 94
        3
 73
     0
 74
     1
 95
       32
 96
       28
 40
0.0
 40
0.0
 40
0.0
 40
0.0
 40
1.0
 40
1.0
 40
1.0
 40
2.0
 40
2.0
 40
2.0
 40
3.0
 40
3.0
 40
3.0
 40
4.0
 40
4.0
 40
4.0
 40
5.0
 40
5.0
 40
5.0
 40
6.0
 40
6.0
 40
6.0
 40
7.0
 40
7.0
 40
7.0
 40
8.0
 40
8.0
 40
8.0
 40
9.0
 40
9.0
 40
9.0
 40
9.0
 10
106.2595617172429
 20
153.4105476718098
 10
104.8222669326213
 20
151.5474388043041
 10
103.7177685914188
 20
149.8758773721411
 10
101.9232171692965
 20
144.6141795664062
 10
100.2754269116635
 20
139.7999999594306
 10
99.22777268346732
 20
136.3052927937542
 10
99.06964269637689
 20
132.039572749846
 10
98.94665270641765
 20
128.8673267343149
 10
100.8807305877373
 20
127.8027915271048
 10
103.7129454545577
 20
127.8027915271048
 10
104.9352661390825
 20
127.8027915271048
 10
108.0151835347002
 20
127.8827177950895
 10
110.2045431598849
 20
130.5926316915021
 10
111.7417457794874
 20
132.4984597712065
 10
113.155269389579
 20
134.475256864725
 10
115.0562743324223
 20
140.9489400617108
 10
116.6361961642235
 20
146.3680788349845
 10
117.7282921534974
 20
149.8639917848761
 10
117.6480213757369
 20
151.8595646611754
 10
117.6480213757369
 20
151.8595646611754
 10
117.6480213757369
 20
151.8595646611754
 10
117.6480213757369
 20
151.8595646611754
 10
117.13229024137
 20
155.18150017429
 10
114.7162431837115
 20
155.886194920681
 10
113.3351034925446
 20
155.886194920681
 10
111.9829026225447
 20
155.886194920681
 10
108.3414342923792
 20
156.1251124501957
 10
106.2595617172429
 20
153.4105476718098
 97
        0
 75
     2
 76
     1
 98
        0
  0
ENDBLK
  5
6AD
330
6A2
100
AcDbEntity
  8
0
100
AcDbBlockEnd
  0
BLOCK
  5
1177
330
1176
100
AcDbEntity
  8
0
100
AcDbBlockBegin
  2
*D6
 70
     1
 10
0.0
 20
0.0
 30
0.0
  3
*D6
  1
*D20
  0
LINE
  5
1179
330
1176
100
AcDbEntity
  8
DIM
 62
     0
370
    -2
100
AcDbLine
 10
258.6927474294108
 20
1003.063718165677
 30
0.0
 11
248.4484580138935
 21
1003.068458890136
 31
0.0
  0
LINE
  5
117A
330
1176
100
AcDbEntity
  8
DIM
 62
     0
370
    -2
100
AcDbLine
 10
258.6811782425235
 20
978.0637208425986
 30
0.0
 11
248.4368888270062
 21
978.0684615670573
 31
0.0
  0
LINE
  5
117B
330
1176
100
AcDbEntity
  8
DIM
 62
     0
370
    -2
100
AcDbLine
 10
248.4456814090406
 20
997.0684595325968
 30
0.0
 11
248.4396654318591
 21
984.068460924596
 31
0.0
  0
INSERT
  5
117C
330
1176
100
AcDbEntity
  8
DIM
 62
     0
370
    -2
100
AcDbBlockReference
  2
_DOT
 10
248.4484580138935
 20
1003.068458890136
 30
0.0
 41
6.0
 42
6.0
 43
6.0
 50
89.97348537581189
  0
INSERT
  5
117D
330
1176
100
AcDbEntity
  8
DIM
 62
     0
370
    -2
100
AcDbBlockReference
  2
_DOT
 10
248.4368888270062
 20
978.0684615670573
 30
0.0
 41
6.0
 42
6.0
 43
6.0
 50
269.9734853758118
  0
MTEXT
  5
117E
330
1176
100
AcDbEntity
  8
DIM
 62
     0
 48
0.05
100
AcDbMText
 10
226.4394493613019
 20
983.6066418595972
 30
0.0
 40
12.0
 41
0.0
 46
0.0
 71
     1
 72
     1
  1
\A1;25
  7
ＭＳ ゴシック
 11
0.0004627674754942733
 21
0.9999998929231261
 31
0.0
 73
     1
 44
1.0
  0
POINT
  5
117F
330
1176
100
AcDbEntity
  8
Defpoints
 62
     0
100
AcDbPoint
 10
263.6927468940264
 20
1003.061404328299
 30
0.0
  0
POINT
  5
1180
330
1176
100
AcDbEntity
  8
Defpoints
 62
     0
100
AcDbPoint
 10
263.6811777071391
 20
978.0614070052211
 30
0.0
  0
POINT
  5
1181
330
1176
100
AcDbEntity
  8
Defpoints
 62
     0
100
AcDbPoint
 10
248.4368888270062
 20
978.0684615670573
 30
0.0
  0
ENDBLK
  5
1178
330
1176
100
AcDbEntity
  8
0
100
AcDbBlockEnd
  0
BLOCK
  5
1183
330
1182
100
AcDbEntity
  8
0
100
AcDbBlockBegin
  2
*D7
 70
     1
 10
0.0
 20
0.0
 30
0.0
  3
*D7
  1
*D21
  0
LINE
  5
1185
330
1182
100
AcDbEntity
  8
DIM
 62
     0
370
    -2
100
AcDbLine
 10
263.6788638697616
 20
973.0614075406055
 30
0.0
 11
263.6639889921096
 21
940.9181026478627
 31
0.0
  0
LINE
  5
1186
330
1182
100
AcDbEntity
  8
DIM
 62
     0
370
    -2
100
AcDbLine
 10
278.6788622636086
 20
973.0544660284733
 30
0.0
 11
278.6639873859565
 21
940.9111611357303
 31
0.0
  0
LINE
  5
1187
330
1182
100
AcDbEntity
  8
DIM
 62
     0
370
    -2
100
AcDbLine
 10
269.6639883496484
 20
940.9153260430097
 30
0.0
 11
272.6639880284178
 21
940.9139377405833
 31
0.0
  0
INSERT
  5
1188
330
1182
100
AcDbEntity
  8
DIM
 62
     0
370
    -2
100
AcDbBlockReference
  2
_DOT
 10
263.6639889921096
 20
940.9181026478627
 30
0.0
 41
6.0
 42
6.0
 43
6.0
 50
179.9734853758117
  0
INSERT
  5
1189
330
1182
100
AcDbEntity
  8
DIM
 62
     0
370
    -2
100
AcDbBlockReference
  2
_DOT
 10
278.6639873859565
 20
940.9111611357303
 30
0.0
 41
6.0
 42
6.0
 43
6.0
 50
359.9734853758118
  0
MTEXT
  5
118A
330
1182
100
AcDbEntity
  8
DIM
 62
     0
 48
0.05
100
AcDbMText
 10
264.610048106985
 20
962.9176671981191
 30
0.0
 40
12.0
 41
0.0
 46
0.0
 71
     1
 72
     1
  1
\A1;15
  7
ＭＳ ゴシック
 11
0.9999998929231261
 21
-0.0004627674754980636
 31
0.0
 73
     1
 44
1.0
  0
POINT
  5
118B
330
1182
100
AcDbEntity
  8
Defpoints
 62
     0
100
AcDbPoint
 10
263.6811777071391
 20
978.0614070052211
 30
0.0
  0
POINT
  5
118C
330
1182
100
AcDbEntity
  8
Defpoints
 62
     0
100
AcDbPoint
 10
278.681176100986
 20
978.0544654930889
 30
0.0
  0
POINT
  5
118D
330
1182
100
AcDbEntity
  8
Defpoints
 62
     0
100
AcDbPoint
 10
278.6639873859565
 20
940.9111611357303
 30
0.0
  0
ENDBLK
  5
1184
330
1182
100
AcDbEntity
  8
0
100
AcDbBlockEnd
  0
BLOCK
  5
118F
330
118E
100
AcDbEntity
  8
0
100
AcDbBlockBegin
  2
*D8
 70
     1
 10
0.0
 20
0.0
 30
0.0
  3
*D8
  1
*D22
  0
LINE
  5
1191
330
118E
100
AcDbEntity
  8
DIM
 62
     0
370
    -2
100
AcDbLine
 10
274.7042050302785
 20
1027.818885755471
 30
0.0
 11
219.5192028777301
 21
1027.844423582337
 31
0.0
  0
LINE
  5
1192
330
118E
100
AcDbEntity
  8
DIM
 62
     0
370
    -2
100
AcDbLine
 10
284.6808696299545
 20
977.3908201945429
 30
0.0
 11
219.4958685481752
 21
977.4209856961637
 31
0.0
  0
LINE
  5
1193
330
118E
100
AcDbEntity
  8
DIM
 62
     0
370
    -2
100
AcDbLine
 10
219.5164262728772
 20
1021.844424224798
 30
0.0
 11
219.4986451530282
 21
983.4209850537025
 31
0.0
  0
INSERT
  5
1194
330
118E
100
AcDbEntity
  8
DIM
 62
     0
370
    -2
100
AcDbBlockReference
  2
_DOT
 10
219.5192028777301
 20
1027.844423582337
 30
0.0
 41
6.0
 42
6.0
 43
6.0
 50
89.97348537581189
  0
INSERT
  5
1195
330
118E
100
AcDbEntity
  8
DIM
 62
     0
370
    -2
100
AcDbBlockReference
  2
_DOT
 10
219.4958685481752
 20
977.4209856961637
 30
0.0
 41
6.0
 42
6.0
 43
6.0
 50
269.9734853758118
  0
MTEXT
  5
1196
330
118E
100
AcDbEntity
  8
DIM
 62
     0
 48
0.05
100
AcDbMText
 10
197.5042193034676
 20
995.4713252981866
 30
0.0
 40
12.0
 41
0.0
 46
0.0
 71
     1
 72
     1
  1
\A1;50
  7
ＭＳ ゴシック
 11
0.0004627674754943806
 21
0.9999998929231261
 31
0.0
 73
     1
 44
1.0
  0
POINT
  5
1197
330
118E
100
AcDbEntity
  8
Defpoints
 62
     0
100
AcDbPoint
 10
279.7042044948942
 20
1027.816571918093
 30
0.0
  0
POINT
  5
1198
330
118E
100
AcDbEntity
  8
Defpoints
 62
     0
100
AcDbPoint
 10
289.6808690945702
 20
977.3885063571654
 30
0.0
  0
POINT
  5
1199
330
118E
100
AcDbEntity
  8
Defpoints
 62
     0
100
AcDbPoint
 10
219.4958685481752
 20
977.4209856961636
 30
0.0
  0
ENDBLK
  5
1190
330
118E
100
AcDbEntity
  8
0
100
AcDbBlockEnd
  0
BLOCK
  5
119B
330
119A
100
AcDbEntity
  8
0
100
AcDbBlockBegin
  2
*D9
 70
     1
 10
0.0
 20
0.0
 30
0.0
  3
*D9
  1
*D23
  0
LINE
  5
119D
330
119A
100
AcDbEntity
  8
DIM
 62
     0
370
    -2
100
AcDbLine
 10
279.6566581860457
 20
597.6296111102034
 30
0.0
 11
279.6566581860457
 21
549.2035382567472
 31
0.0
  0
LINE
  5
119E
330
119A
100
AcDbEntity
  8
DIM
 62
     0
370
    -2
100
AcDbLine
 10
410.1566442125138
 20
597.6296111102034
 30
0.0
 11
410.1566442125138
 21
549.2035382567472
 31
0.0
  0
LINE
  5
119F
330
119A
100
AcDbEntity
  8
DIM
 62
     0
370
    -2
100
AcDbLine
 10
285.6566581860457
 20
549.2035382567472
 30
0.0
 11
404.1566442125138
 21
549.2035382567472
 31
0.0
  0
INSERT
  5
11A0
330
119A
100
AcDbEntity
  8
DIM
 62
     0
370
    -2
100
AcDbBlockReference
  2
_DOT
 10
279.6566581860457
 20
549.2035382567472
 30
0.0
 41
6.0
 42
6.0
 43
6.0
 50
180.0
  0
INSERT
  5
11A1
330
119A
100
AcDbEntity
  8
DIM
 62
     0
370
    -2
100
AcDbBlockReference
  2
_DOT
 10
410.1566442125138
 20
549.2035382567472
 30
0.0
 41
6.0
 42
6.0
 43
6.0
  0
MTEXT
  5
11A2
330
119A
100
AcDbEntity
  8
DIM
 62
     0
 48
0.05
100
AcDbMText
 10
334.2746511992798
 20
571.2035382567472
 30
0.0
 40
12.0
 41
0.0
 46
0.0
 71
     1
 72
     1
  1
\A1;130
  7
ＭＳ ゴシック
 73
     1
 44
1.0
  0
POINT
  5
11A3
330
119A
100
AcDbEntity
  8
Defpoints
 62
     0
100
AcDbPoint
 10
279.6566581860457
 20
602.6296111102034
 30
0.0
  0
POINT
  5
11A4
330
119A
100
AcDbEntity
  8
Defpoints
 62
     0
100
AcDbPoint
 10
410.1566442125138
 20
602.6296111102034
 30
0.0
  0
POINT
  5
11A5
330
119A
100
AcDbEntity
  8
Defpoints
 62
     0
100
AcDbPoint
 10
410.1566442125138
 20
549.2035382567472
 30
0.0
  0
ENDBLK
  5
119C
330
119A
100
AcDbEntity
  8
0
100
AcDbBlockEnd
  0
BLOCK
  5
11A7
330
11A6
100
AcDbEntity
  8
0
100
AcDbBlockBegin
  2
*D10
 70
     1
 10
0.0
 20
0.0
 30
0.0
  3
*D10
  1
*D24
  0
LINE
  5
11A9
330
11A6
100
AcDbEntity
  8
DIM
 62
     0
370
    -2
100
AcDbLine
 10
427.1566665064749
 20
597.5962234960283
 30
0.0
 11
427.1566665064749
 21
549.2035382567472
 31
0.0
  0
LINE
  5
11AA
330
11A6
100
AcDbEntity
  8
DIM
 62
     0
370
    -2
100
AcDbLine
 10
557.6566525329429
 20
597.5962234960283
 30
0.0
 11
557.6566525329429
 21
549.2035382567472
 31
0.0
  0
LINE
  5
11AB
330
11A6
100
AcDbEntity
  8
DIM
 62
     0
370
    -2
100
AcDbLine
 10
433.1566665064749
 20
549.2035382567472
 30
0.0
 11
551.6566525329429
 21
549.2035382567472
 31
0.0
  0
INSERT
  5
11AC
330
11A6
100
AcDbEntity
  8
DIM
 62
     0
370
    -2
100
AcDbBlockReference
  2
_DOT
 10
427.1566665064749
 20
549.2035382567472
 30
0.0
 41
6.0
 42
6.0
 43
6.0
 50
180.0
  0
INSERT
  5
11AD
330
11A6
100
AcDbEntity
  8
DIM
 62
     0
370
    -2
100
AcDbBlockReference
  2
_DOT
 10
557.6566525329429
 20
549.2035382567472
 30
0.0
 41
6.0
 42
6.0
 43
6.0
  0
MTEXT
  5
11AE
330
11A6
100
AcDbEntity
  8
DIM
 62
     0
 48
0.05
100
AcDbMText
 10
481.7746595197089
 20
571.2035382567472
 30
0.0
 40
12.0
 41
0.0
 46
0.0
 71
     1
 72
     1
  1
\A1;130
  7
ＭＳ ゴシック
 73
     1
 44
1.0
  0
POINT
  5
11AF
330
11A6
100
AcDbEntity
  8
Defpoints
 62
     0
100
AcDbPoint
 10
427.1566665064749
 20
602.5962234960283
 30
0.0
  0
POINT
  5
11B0
330
11A6
100
AcDbEntity
  8
Defpoints
 62
     0
100
AcDbPoint
 10
557.6566525329429
 20
602.5962234960283
 30
0.0
  0
POINT
  5
11B1
330
11A6
100
AcDbEntity
  8
Defpoints
 62
     0
100
AcDbPoint
 10
557.6566525329429
 20
549.2035382567472
 30
0.0
  0
ENDBLK
  5
11A8
330
11A6
100
AcDbEntity
  8
0
100
AcDbBlockEnd
  0
BLOCK
  5
11B3
330
11B2
100
AcDbEntity
  8
0
100
AcDbBlockBegin
  2
*D11
 70
     1
 10
0.0
 20
0.0
 30
0.0
  3
*D11
  1
*D25
  0
LINE
  5
11B5
330
11B2
100
AcDbEntity
  8
DIM
 62
     0
370
    -2
100
AcDbLine
 10
578.6927137001951
 20
632.9293759391156
 30
0.0
 11
621.1612710224971
 21
632.9293759391157
 31
0.0
  0
LINE
  5
11B6
330
11B2
100
AcDbEntity
  8
DIM
 62
     0
370
    -2
100
AcDbLine
 10
578.6927137001951
 20
722.9293759391156
 30
0.0
 11
621.1612710224967
 21
722.9293759391157
 31
0.0
  0
LINE
  5
11B7
330
11B2
100
AcDbEntity
  8
DIM
 62
     0
370
    -2
100
AcDbLine
 10
621.1612710224971
 20
638.9293759391157
 30
0.0
 11
621.1612710224967
 21
716.9293759391157
 31
0.0
  0
INSERT
  5
11B8
330
11B2
100
AcDbEntity
  8
DIM
 62
     0
370
    -2
100
AcDbBlockReference
  2
_DOT
 10
621.1612710224971
 20
632.9293759391157
 30
0.0
 41
6.0
 42
6.0
 43
6.0
 50
270.0000000000002
  0
INSERT
  5
11B9
330
11B2
100
AcDbEntity
  8
DIM
 62
     0
370
    -2
100
AcDbBlockReference
  2
_DOT
 10
621.1612710224967
 20
722.9293759391157
 30
0.0
 41
6.0
 42
6.0
 43
6.0
 50
90.00000000000021
  0
MTEXT
  5
11BA
330
11B2
100
AcDbEntity
  8
DIM
 62
     0
 48
0.05
100
AcDbMText
 10
599.161271022497
 20
670.8313759391154
 30
0.0
 40
12.0
 41
0.0
 46
0.0
 71
     1
 72
     1
  1
\A1;90
  7
ＭＳ ゴシック
 11
-3.789561257387196E-15
 21
1.0
 31
0.0
 73
     1
 44
1.0
  0
POINT
  5
11BB
330
11B2
100
AcDbEntity
  8
Defpoints
 62
     0
100
AcDbPoint
 10
573.6927137001951
 20
632.9293759391156
 30
0.0
  0
POINT
  5
11BC
330
11B2
100
AcDbEntity
  8
Defpoints
 62
     0
100
AcDbPoint
 10
573.6927137001951
 20
722.9293759391156
 30
0.0
  0
POINT
  5
11BD
330
11B2
100
AcDbEntity
  8
Defpoints
 62
     0
100
AcDbPoint
 10
621.1612710224967
 20
722.9293759391159
 30
0.0
  0
ENDBLK
  5
11B4
330
11B2
100
AcDbEntity
  8
0
100
AcDbBlockEnd
  0
BLOCK
  5
11BF
330
11BE
100
AcDbEntity
  8
0
100
AcDbBlockBegin
  2
*D12
 70
     1
 10
0.0
 20
0.0
 30
0.0
  3
*D12
  1
*D26
  0
LINE
  5
11C1
330
11BE
100
AcDbEntity
  8
DIM
 62
     0
370
    -2
100
AcDbLine
 10
263.6927468940264
 20
727.9293759391159
 30
0.0
 11
263.6927468940264
 21
762.9293759391159
 31
0.0
  0
LINE
  5
11C2
330
11BE
100
AcDbEntity
  8
DIM
 62
     0
370
    -2
100
AcDbLine
 10
573.6927137001951
 20
727.9293759391156
 30
0.0
 11
573.6927137001951
 21
762.9293759391159
 31
0.0
  0
LINE
  5
11C3
330
11BE
100
AcDbEntity
  8
DIM
 62
     0
370
    -2
100
AcDbLine
 10
269.6927468940264
 20
762.9293759391159
 30
0.0
 11
567.6927137001951
 21
762.9293759391159
 31
0.0
  0
INSERT
  5
11C4
330
11BE
100
AcDbEntity
  8
DIM
 62
     0
370
    -2
100
AcDbBlockReference
  2
_DOT
 10
263.6927468940264
 20
762.9293759391159
 30
0.0
 41
6.0
 42
6.0
 43
6.0
 50
180.0
  0
INSERT
  5
11C5
330
11BE
100
AcDbEntity
  8
DIM
 62
     0
370
    -2
100
AcDbBlockReference
  2
_DOT
 10
573.6927137001951
 20
762.9293759391159
 30
0.0
 41
6.0
 42
6.0
 43
6.0
  0
MTEXT
  5
11C6
330
11BE
100
AcDbEntity
  8
DIM
 62
     0
 48
0.05
100
AcDbMText
 10
407.6347302971108
 20
784.9293759391159
 30
0.0
 40
12.0
 41
0.0
 46
0.0
 71
     1
 72
     1
  1
\A1;310
  7
ＭＳ ゴシック
 73
     1
 44
1.0
  0
POINT
  5
11C7
330
11BE
100
AcDbEntity
  8
Defpoints
 62
     0
100
AcDbPoint
 10
263.6927468940264
 20
722.9293759391159
 30
0.0
  0
POINT
  5
11C8
330
11BE
100
AcDbEntity
  8
Defpoints
 62
     0
100
AcDbPoint
 10
573.6927137001951
 20
722.9293759391156
 30
0.0
  0
POINT
  5
11C9
330
11BE
100
AcDbEntity
  8
Defpoints
 62
     0
100
AcDbPoint
 10
573.6927137001951
 20
762.9293759391159
 30
0.0
  0
ENDBLK
  5
11C0
330
11BE
100
AcDbEntity
  8
0
100
AcDbBlockEnd
  0
BLOCK
  5
11CB
330
11CA
100
AcDbEntity
  8
0
100
AcDbBlockBegin
  2
*D13
 70
     1
 10
0.0
 20
0.0
 30
0.0
  3
*D13
  1
*D27
  0
LINE
  5
11CD
330
11CA
100
AcDbEntity
  8
DIM
 62
     0
370
    -2
100
AcDbLine
 10
688.3107708685127
 20
973.061221898231
 30
0.0
 11
688.3107708685127
 21
934.654331870963
 31
0.0
  0
LINE
  5
11CE
330
11CA
100
AcDbEntity
  8
DIM
 62
     0
370
    -2
100
AcDbLine
 10
810.4904516667068
 20
972.568854637319
 30
0.0
 11
810.4904516667068
 21
934.654331870963
 31
0.0
  0
LINE
  5
11CF
330
11CA
100
AcDbEntity
  8
DIM
 62
     0
370
    -2
100
AcDbLine
 10
694.3107708685127
 20
934.654331870963
 30
0.0
 11
804.4904516667068
 21
934.654331870963
 31
0.0
  0
INSERT
  5
11D0
330
11CA
100
AcDbEntity
  8
DIM
 62
     0
370
    -2
100
AcDbBlockReference
  2
_DOT
 10
688.3107708685127
 20
934.654331870963
 30
0.0
 41
6.0
 42
6.0
 43
6.0
 50
180.0
  0
INSERT
  5
11D1
330
11CA
100
AcDbEntity
  8
DIM
 62
     0
370
    -2
100
AcDbBlockReference
  2
_DOT
 10
810.4904516667068
 20
934.654331870963
 30
0.0
 41
6.0
 42
6.0
 43
6.0
  0
MTEXT
  5
11D2
330
11CA
100
AcDbEntity
  8
DIM
 62
     0
 48
0.05
100
AcDbMText
 10
738.89461126761
 20
956.654331870963
 30
0.0
 40
12.0
 41
0.0
 46
0.0
 71
     1
 72
     1
  1
\A1;122
  7
ＭＳ ゴシック
 73
     1
 44
1.0
  0
POINT
  5
11D3
330
11CA
100
AcDbEntity
  8
Defpoints
 62
     0
100
AcDbPoint
 10
688.3107708685127
 20
978.061221898231
 30
0.0
  0
POINT
  5
11D4
330
11CA
100
AcDbEntity
  8
Defpoints
 62
     0
100
AcDbPoint
 10
810.4904516667068
 20
977.568854637319
 30
0.0
  0
POINT
  5
11D5
330
11CA
100
AcDbEntity
  8
Defpoints
 62
     0
100
AcDbPoint
 10
810.4904516667068
 20
934.654331870963
 30
0.0
  0
ENDBLK
  5
11CC
330
11CA
100
AcDbEntity
  8
0
100
AcDbBlockEnd
  0
ENDSEC
  0
SECTION
  2
ENTITIES
  0
MTEXT
  5
177
330
A
100
AcDbEntity
  8
TEMPLATE
390
1D
100
AcDbMText
 10
39.60107227386538
 20
171.8658758157141
 30
0.0
 40
8.144205729166663
 41
0.0
 46
0.0
 71
     1
 72
     1
  1
品名
  7
ＭＳ ゴシック
 73
     1
 44
0.7828267384257843
  0
MTEXT
  5
178
330
A
100
AcDbEntity
  8
TEMPLATE
390
1D
100
AcDbMText
 10
39.60107227386538
 20
129.365875815714
 30
0.0
 40
8.144205729166663
 41
0.0
 46
0.0
 71
     1
 72
     1
  1
仕様
  7
ＭＳ ゴシック
 73
     1
 44
0.7828267384257843
  0
LINE
  5
179
330
A
100
AcDbEntity
  8
TEMPLATE
390
1D
100
AcDbLine
 10
1011.101072273624
 20
133.5733367532142
 30
0.0
 11
36.10107227362437
 21
133.5733367532142
 31
0.0
  0
LWPOLYLINE
  5
17A
330
A
100
AcDbEntity
  8
TEMPLATE
390
1D
100
AcDbPolyline
 90
        5
 70
   128
 43
0.0
 10
1011.101072273624
 20
1448.573336753213
 10
36.10107227362437
 20
1448.573336753213
 10
36.10107227362437
 20
48.57333675321413
 10
1011.101072273624
 20
48.57333675321413
 10
1011.101072273624
 20
1448.573336753213
  0
LINE
  5
17B
330
A
100
AcDbEntity
  8
TEMPLATE
390
1D
100
AcDbLine
 10
1011.101072273624
 20
176.0733367532141
 30
0.0
 11
36.10107227362437
 21
176.0733367532141
 31
0.0
  0
LINE
  5
17C
330
A
100
AcDbEntity
  8
TEMPLATE
390
1D
100
AcDbLine
 10
1011.101072273866
 20
91.07333675321412
 30
0.0
 11
634.601072273865
 21
91.07333675321412
 31
0.0
  0
MTEXT
  5
17D
330
A
100
AcDbEntity
  8
TEMPLATE
390
1D
100
AcDbMText
 10
36.10107227396725
 20
42.64642572478557
 30
0.0
 40
10.85894097222222
 41
0.0
 46
10.85894097222222
 71
     1
 72
     1
  1
{20160701S}
  7
ＭＳ ゴシック
 73
     1
 44
0.7828267384257843
1001
ACAD
1000
ACAD_MTEXT_DEFINED_HEIGHT_BEGIN
1070
    46
1040
10.85894097222222
1000
ACAD_MTEXT_DEFINED_HEIGHT_END
  0
MTEXT
  5
17E
330
A
100
AcDbEntity
  8
TEMPLATE
390
1D
100
AcDbMText
 10
649.5367753999956
 20
76.11813951656006
 30
0.0
 40
12.21630859375
 41
0.0
 46
0.0
 71
     1
 72
     1
  1
大洋金物株式会社 ティーフォルム事業部
  7
ＭＳ ゴシック
 73
     1
 44
0.7828267384257843
  0
MTEXT
  5
180
330
A
100
AcDbEntity
  8
TEMPLATE
390
1D
100
AcDbMText
 10
915.601072273995
 20
115.0746453469641
 30
0.0
 40
12.21630859375
 41
0.0
 46
12.21630859375
 71
     1
 72
     1
  1
{1:5}
  7
ＭＳ ゴシック
 73
     1
 44
0.7828267384257843
1001
ACAD
1000
ACAD_MTEXT_DEFINED_HEIGHT_BEGIN
1070
    46
1040
12.21630859375
1000
ACAD_MTEXT_DEFINED_HEIGHT_END
  0
MTEXT
  5
181
330
A
100
AcDbEntity
  8
TEMPLATE
390
1D
100
AcDbMText
 10
889.101072273995
 20
129.365875815714
 30
0.0
 40
8.144205729166663
 41
0.0
 46
0.0
 71
     1
 72
     1
  1
縮尺
  7
ＭＳ ゴシック
 73
     1
 44
0.7828267384257843
  0
LINE
  5
182
330
A
100
AcDbEntity
  8
TEMPLATE
390
1D
100
AcDbLine
 10
885.601072273995
 20
91.07333675321412
 30
0.0
 11
885.601072273995
 21
133.5733367532142
 31
0.0
  0
MTEXT
  5
183
330
A
100
AcDbEntity
  8
TEMPLATE
390
1D
100
AcDbMText
 10
763.601072273995
 20
129.365875815714
 30
0.0
 40
8.144205729166663
 41
0.0
 46
0.0
 71
     1
 72
     1
  1
容量
  7
ＭＳ ゴシック
 73
     1
 44
0.7828267384257843
  0
LINE
  5
184
330
A
100
AcDbEntity
  8
TEMPLATE
390
1D
100
AcDbLine
 10
760.101072273995
 20
91.07333675321412
 30
0.0
 11
760.101072273995
 21
133.5733367532142
 31
0.0
  0
MTEXT
  5
185
330
A
100
AcDbEntity
  8
TEMPLATE
390
1D
100
AcDbMText
 10
638.101072273995
 20
171.8658758157141
 30
0.0
 40
8.144205729166663
 41
0.0
 46
0.0
 71
     1
 72
     1
  1
品番
  7
ＭＳ ゴシック
 73
     1
 44
0.7828267384257843
  0
MTEXT
  5
186
330
A
100
AcDbEntity
  8
TEMPLATE
390
1D
100
AcDbMText
 10
638.101072273995
 20
129.365875815714
 30
0.0
 40
8.144205729166663
 41
0.0
 46
0.0
 71
     1
 72
     1
  1
重量
  7
ＭＳ ゴシック
 73
     1
 44
0.7828267384257843
  0
MTEXT
  5
187
330
A
100
AcDbEntity
  8
TEMPLATE
390
1D
100
AcDbMText
 10
664.601072273995
 20
157.5746453469641
 30
0.0
 40
12.21630859375
 41
0.0
 46
12.21630859375
 71
     1
 72
     1
  1
{FRF74-2302}
  7
ＭＳ ゴシック
 73
     1
 44
0.7828267384257843
1001
ACAD
1000
ACAD_MTEXT_DEFINED_HEIGHT_BEGIN
1070
    46
1040
12.21630859375
1000
ACAD_MTEXT_DEFINED_HEIGHT_END
  0
LINE
  5
188
330
A
100
AcDbEntity
  8
TEMPLATE
390
1D
100
AcDbLine
 10
634.601072273995
 20
48.57333675321413
 30
0.0
 11
634.601072273995
 21
176.0733367532141
 31
0.0
  0
MTEXT
  5
189
330
A
100
AcDbEntity
  8
TEMPLATE
390
1D
100
AcDbMText
 10
66.10107227386537
 20
157.5746453469641
 30
0.0
 40
12.21630859375
 41
0.0
 46
13.76777978515625
 71
     1
 72
     1
  1
{ペーパーホルダー　-LANGBERGER,Noci-}
  7
ＭＳ ゴシック
 73
     1
 44
0.7828267384257843
1001
ACAD
1000
ACAD_MTEXT_DEFINED_HEIGHT_BEGIN
1070
    46
1040
13.76777978515625
1000
ACAD_MTEXT_DEFINED_HEIGHT_END
  0
INSERT
  5
6B5
330
A
100
AcDbEntity
  8
TEMPLATE
100
AcDbBlockReference
  2
名称未設定-1
 10
935.3753740442249
 20
12.97338287832691
 30
0.0
 41
0.3809999999999999
 42
0.3809999999999999
 43
0.3809999999999999
  0
MTEXT
  5
7D9
330
A
100
AcDbEntity
  8
TEMPLATE
390
1D
100
AcDbMText
 10
62.62717263801819
 20
113.4059880146976
 30
0.0
 40
12.21630859375
 41
0.0
 46
12.39955322265625
 71
     1
 72
     1
  1
{クローム}
  7
ＭＳ ゴシック
 73
     1
 44
0.7828267384257843
1001
ACAD
1000
ACAD_MTEXT_DEFINED_HEIGHT_BEGIN
1070
    46
1040
12.39955322265625
1000
ACAD_MTEXT_DEFINED_HEIGHT_END
  0
INSERT
  5
68C
330
A
100
AcDbEntity
  8
TEMPLATE
100
AcDbBlockReference
  2
block 2
 10
919.2743017702577
 20
8.373076514336368
 30
0.0
 41
0.3809999999999999
 42
0.3809999999999999
 43
0.3809999999999999
  0
LWPOLYLINE
  5
D69
330
A
100
AcDbEntity
  8
BORDER
 48
0.05
100
AcDbPolyline
 90
        4
 70
     1
 43
0.0
 10
0.0
 20
0.0
 10
0.0
 20
1485.0
 10
1050.0
 20
1485.0
 10
1050.0
 20
0.0
  0
LINE
  5
103F
330
A
100
AcDbEntity
  8
MODEL
  6
Continuous
100
AcDbLine
 10
557.7041938059622
 20
1027.740031381936
 30
0.0
 11
427.2042124622155
 21
1027.800422062964
 31
0.0
  0
LINE
  5
1040
330
A
100
AcDbEntity
  8
MODEL
  6
Continuous
100
AcDbLine
 10
410.2041901179243
 20
1027.75618051538
 30
0.0
 11
279.7042115681461
 21
1027.816571196408
 31
0.0
  0
ARC
  5
1041
330
A
100
AcDbEntity
  8
MODEL
  6
Continuous
100
AcDbCircle
 10
410.2904173591794
 20
997.9935631517764
 30
0.0
 40
0.4999999999999868
100
AcDbArc
 50
359.9734853758255
 51
89.97348537582556
  0
ARC
  5
1042
330
A
100
AcDbEntity
  8
MODEL
  6
Continuous
100
AcDbCircle
 10
410.2834758470469
 20
982.9935647579293
 30
0.0
 40
0.5000000000000081
100
AcDbArc
 50
269.9734853758254
 51
359.9734853758255
  0
LINE
  5
1043
330
A
100
AcDbEntity
  8
MODEL
  6
Continuous
100
AcDbLine
 10
410.2906485178166
 20
998.4935632849641
 30
0.0
 11
410.1906486876894
 21
998.4936093854316
 31
0.0
  0
LINE
  5
1044
330
A
100
AcDbEntity
  8
MODEL
  6
Continuous
100
AcDbLine
 10
409.2832443394357
 20
982.4940272549695
 30
0.0
 11
410.2832445033484
 21
982.4935643876499
 31
0.0
  0
ARC
  5
1045
330
A
100
AcDbEntity
  8
MODEL
  6
Continuous
100
AcDbCircle
 10
410.9881757104333
 20
993.149395014488
 30
0.0
 40
0.2000000000000007
100
AcDbArc
 50
179.9734853758256
 51
255.9372419079344
  0
ARC
  5
1046
330
A
100
AcDbEntity
  8
MODEL
  6
Continuous
100
AcDbCircle
 10
410.9857173458856
 20
987.8370850207519
 30
0.0
 40
0.2000000000000245
100
AcDbArc
 50
104.0097288438506
 51
179.9734853758256
  0
LINE
  5
1047
330
A
100
AcDbEntity
  8
MODEL
  6
Continuous
100
AcDbLine
 10
410.937300240307
 20
988.0311360059835
 30
0.0
 11
411.185835776537
 21
988.093147653953
 31
0.0
  0
LINE
  5
1048
330
A
100
AcDbEntity
  8
MODEL
  6
Continuous
100
AcDbLine
 10
411.1880569808775
 20
992.8931471834488
 30
0.0
 11
410.9395787209858
 21
992.9553888680942
 31
0.0
  0
LINE
  5
1049
330
A
100
AcDbEntity
  8
MODEL
  6
Continuous
100
AcDbLine
 10
557.7906354420472
 20
998.4253047908254
 30
0.0
 11
557.6906337492753
 21
998.4253513569541
 31
0.0
  0
LINE
  5
104A
330
A
100
AcDbEntity
  8
MODEL
  6
Continuous
100
AcDbLine
 10
556.783227538376
 20
982.4257696921534
 30
0.0
 11
557.7832295649343
 21
982.4253068248338
 31
0.0
  0
ARC
  5
104B
330
A
100
AcDbEntity
  8
MODEL
  6
Continuous
100
AcDbCircle
 10
557.7904015653401
 20
997.9253049491407
 30
0.0
 40
0.5000000000000081
100
AcDbArc
 50
359.9734853758255
 51
89.97348537582558
  0
ARC
  5
104C
330
A
100
AcDbEntity
  8
MODEL
  6
Continuous
100
AcDbCircle
 10
557.7834600532076
 20
982.9253065552941
 30
0.0
 40
0.5000000000000081
100
AcDbArc
 50
269.9734853758254
 51
359.9734853757736
  0
ARC
  5
104D
330
A
100
AcDbEntity
  8
MODEL
  6
Continuous
100
AcDbCircle
 10
558.488159916594
 20
993.0811368118528
 30
0.0
 40
0.2000000000000058
100
AcDbArc
 50
179.9734853758256
 51
255.9372419079344
  0
ARC
  5
104E
330
A
100
AcDbEntity
  8
MODEL
  6
Continuous
100
AcDbCircle
 10
558.4857015520463
 20
987.7688268181163
 30
0.0
 40
0.2000000000000459
100
AcDbArc
 50
104.0097288437242
 51
179.9734853756953
  0
LINE
  5
104F
330
A
100
AcDbEntity
  8
MODEL
  6
Continuous
100
AcDbLine
 10
558.4372862332159
 20
987.9628777446754
 30
0.0
 11
558.6858227007676
 21
988.0248896254756
 31
0.0
  0
LINE
  5
1050
330
A
100
AcDbEntity
  8
MODEL
  6
Continuous
100
AcDbLine
 10
558.6880429737855
 20
992.8248889221408
 30
0.0
 11
558.4395661108786
 21
992.8871308396168
 31
0.0
  0
LINE
  5
1051
330
A
100
AcDbEntity
  8
MODEL
  6
Continuous
100
AcDbLine
 10
556.4324393027116
 20
982.4259317422814
 30
0.0
 11
556.783227538376
 21
982.4257696921534
 31
0.0
  0
LINE
  5
1052
330
A
100
AcDbEntity
  8
MODEL
  6
Continuous
100
AcDbLine
 10
408.9916630738073
 20
982.4941622967428
 30
0.0
 11
409.2832443394357
 21
982.4940272549695
 31
0.0
  0
LINE
  5
1053
330
A
100
AcDbEntity
  8
MODEL
  6
Continuous
100
AcDbLine
 10
429.6823165469457
 20
980.4845870415277
 30
0.0
 11
429.9705143176604
 21
980.4844538623995
 31
0.0
  0
LINE
  5
1054
330
A
100
AcDbEntity
  8
MODEL
  6
Continuous
100
AcDbLine
 10
282.1823342793275
 20
980.5528455356664
 30
0.0
 11
282.3446079247285
 21
980.5527700985378
 31
0.0
  0
LINE
  5
1055
330
A
100
AcDbEntity
  8
MODEL
  6
Continuous
100
AcDbLine
 10
280.6823386900717
 20
980.5535393709845
 30
0.0
 11
282.1823342793275
 21
980.5528455356664
 31
0.0
  0
ARC
  5
1056
330
A
100
AcDbEntity
  8
MODEL
  6
Continuous
100
AcDbCircle
 10
280.6827955729966
 20
981.5535395833688
 30
0.0
 40
1.000000000000016
100
AcDbArc
 50
179.9734853758125
 51
269.9734853758254
  0
ARC
  5
1057
330
A
100
AcDbEntity
  8
MODEL
  6
Continuous
100
AcDbCircle
 10
279.4907553020673
 20
998.7540930626172
 30
0.0
 40
0.2000000000000032
100
AcDbArc
 50
269.9734853758254
 51
359.9734853756952
  0
ARC
  5
1058
330
A
100
AcDbEntity
  8
MODEL
  6
Continuous
100
AcDbCircle
 10
279.4831659154693
 20
982.3540948186778
 30
0.0
 40
0.199999999999982
100
AcDbArc
 50
359.9734853757604
 51
89.97348537589072
  0
ARC
  5
1059
330
A
100
AcDbEntity
  8
MODEL
  6
Continuous
100
AcDbCircle
 10
278.8905702593233
 20
998.3543707659331
 30
0.0
 40
0.2000000000000245
100
AcDbArc
 50
89.97348537589072
 51
179.9734853758256
  0
ARC
  5
105A
330
A
100
AcDbEntity
  8
MODEL
  6
Continuous
100
AcDbCircle
 10
278.8833510867055
 20
982.7543724363322
 30
0.0
 40
0.2000000000000246
100
AcDbArc
 50
179.9734853757604
 51
269.9734853758254
  0
LINE
  5
105B
330
A
100
AcDbEntity
  8
MODEL
  6
Continuous
100
AcDbLine
 10
279.4906630270771
 20
998.5540927330561
 30
0.0
 11
278.890667771607
 21
998.5543711985059
 31
0.0
  0
LINE
  5
105C
330
A
100
AcDbEntity
  8
MODEL
  6
Continuous
100
AcDbLine
 10
278.8832618944932
 20
982.5543723011917
 30
0.0
 11
279.4832571499639
 21
982.5540947670645
 31
0.0
  0
LINE
  5
105D
330
A
100
AcDbEntity
  8
MODEL
  6
Continuous
100
AcDbLine
 10
428.1823172323991
 20
980.4852818081683
 30
0.0
 11
429.6823165469457
 21
980.4845870415277
 31
0.0
  0
ARC
  5
105E
330
A
100
AcDbEntity
  8
MODEL
  6
Continuous
100
AcDbCircle
 10
428.1827797791573
 20
981.4852813807331
 30
0.0
 40
0.9999999999999736
100
AcDbArc
 50
179.9734853758125
 51
269.9734853758254
  0
ARC
  5
105F
330
A
100
AcDbEntity
  8
MODEL
  6
Continuous
100
AcDbCircle
 10
426.990739508228
 20
998.6858348599816
 30
0.0
 40
0.2000000000000459
100
AcDbArc
 50
269.9734853758254
 51
359.9734853758255
  0
ARC
  5
1060
330
A
100
AcDbEntity
  8
MODEL
  6
Continuous
100
AcDbCircle
 10
426.9831501216302
 20
982.2858366160424
 30
0.0
 40
0.2000000000000032
100
AcDbArc
 50
359.9734853758255
 51
89.97348537582556
  0
ARC
  5
1061
330
A
100
AcDbEntity
  8
MODEL
  6
Continuous
100
AcDbCircle
 10
426.3905544654842
 20
998.2861125632979
 30
0.0
 40
0.2000000000000032
100
AcDbArc
 50
89.97348537582556
 51
179.9734853759558
  0
ARC
  5
1062
330
A
100
AcDbEntity
  8
MODEL
  6
Continuous
100
AcDbCircle
 10
426.3833352928666
 20
982.6861142336968
 30
0.0
 40
0.2000000000000032
100
AcDbArc
 50
179.9734853758256
 51
269.9734853756952
  0
LINE
  5
1063
330
A
100
AcDbEntity
  8
MODEL
  6
Continuous
100
AcDbLine
 10
426.9906471573402
 20
998.4858347045787
 30
0.0
 11
426.3906472452575
 21
998.4861127043672
 31
0.0
  0
LINE
  5
1064
330
A
100
AcDbEntity
  8
MODEL
  6
Continuous
100
AcDbLine
 10
426.3832427651275
 20
982.486113807053
 30
0.0
 11
426.9832422115499
 21
982.4858362729258
 31
0.0
  0
LINE
  5
1065
330
A
100
AcDbEntity
  8
MODEL
  6
Continuous
100
AcDbLine
 10
279.6922310345462
 20
1001.954000344367
 30
0.0
 11
278.6922290079885
 21
1001.954463211686
 31
0.0
  0
LINE
  5
1066
330
A
100
AcDbEntity
  8
MODEL
  6
Continuous
100
AcDbLine
 10
558.6922003977586
 20
1001.82488830188
 30
0.0
 11
557.6922132723623
 21
1001.8253511692
 31
0.0
  0
LINE
  5
1067
330
A
100
AcDbEntity
  8
MODEL
  6
Continuous
100
AcDbLine
 10
411.1922218554307
 20
1001.893145864696
 30
0.0
 11
410.192222622841
 21
1001.893608732016
 31
0.0
  0
LINE
  5
1068
330
A
100
AcDbEntity
  8
MODEL
  6
Continuous
100
AcDbLine
 10
427.1922207527448
 20
1001.885741850228
 30
0.0
 11
426.192220588832
 21
1001.886204717547
 31
0.0
  0
LINE
  5
1069
330
A
100
AcDbEntity
  8
MODEL
  6
Continuous
100
AcDbLine
 10
426.1811602019359
 20
977.9862071330256
 30
0.0
 11
426.1927295566195
 21
1002.986204711587
 31
0.0
  0
LINE
  5
106A
330
A
100
AcDbEntity
  8
MODEL
  6
Continuous
100
AcDbLine
 10
411.1811619341959
 20
977.9931492114968
 30
0.0
 11
426.1811602019359
 21
977.9862071330256
 31
0.0
  0
LINE
  5
106B
330
A
100
AcDbEntity
  8
MODEL
  6
Continuous
100
AcDbLine
 10
411.1927312888795
 20
1002.993145858736
 30
0.0
 11
411.1811619341959
 21
977.9931492114968
 31
0.0
  0
LINE
  5
106C
330
A
100
AcDbEntity
  8
MODEL
  6
Continuous
100
AcDbLine
 10
426.1927295566195
 20
1002.986204711587
 30
0.0
 11
411.1927312888795
 21
1002.993145858736
 31
0.0
  0
LINE
  5
106D
330
A
100
AcDbEntity
  8
MODEL
  6
Continuous
100
AcDbLine
 10
558.6927219384008
 20
1002.924888295919
 30
0.0
 11
558.6811437361532
 21
977.924890717358
 31
0.0
  0
LINE
  5
106E
330
A
100
AcDbEntity
  8
MODEL
  6
Continuous
100
AcDbLine
 10
573.6927076332861
 20
1002.917946217448
 30
0.0
 11
558.6927219384008
 21
1002.924888295919
 31
0.0
  0
LINE
  5
106F
330
A
100
AcDbEntity
  8
MODEL
  6
Continuous
100
AcDbLine
 10
558.6811437361532
 20
977.924890717358
 30
0.0
 11
573.6811443321992
 21
977.9179486388869
 31
0.0
  0
LINE
  5
1070
330
A
100
AcDbEntity
  8
MODEL
  6
Continuous
100
AcDbLine
 10
573.6811443321992
 20
977.9179486388869
 30
0.0
 11
573.6927076332861
 21
1002.917946217448
 31
0.0
  0
LWPOLYLINE
  5
1071
330
A
100
AcDbEntity
  8
MODEL
  6
Continuous
100
AcDbPolyline
 90
       28
 70
   128
 43
0.0
 10
557.7041938059622
 20
1027.740031381936
 10
557.7041640036393
 20
1027.67854919085
 10
557.7040894978334
 20
1027.490962197871
 10
557.7039404862214
 20
1027.177642932028
 10
557.7037318699647
 20
1026.739247044415
 10
557.7034785502249
 20
1026.176676055283
 10
557.7031507246782
 20
1025.491095980496
 10
557.7027781956483
 20
1024.683926155657
 10
557.7023609631353
 20
1023.756839236111
 10
557.7018692248159
 20
1022.711750021071
 10
557.701332783013
 20
1021.5508229042
 10
557.7007516377264
 20
1020.276458835096
 10
557.7001108877946
 20
1018.89129904458
 10
557.699410533219
 20
1017.398208280892
 10
557.69868037632
 20
1015.800274809689
 10
557.6978906147772
 20
1014.100808551402
 10
557.6970561497499
 20
1012.303326180071
 10
557.6961769812394
 20
1010.411545535416
 10
557.6952680104066
 20
1008.429383760185
 10
557.694299434929
 20
1006.360943330318
 10
557.6933159582902
 20
1004.210503673048
 10
557.6922728770066
 20
1001.982515578956
 10
557.6912148945619
 20
999.6815909574337
 10
557.690112208634
 20
997.3124916608043
 10
557.6889946215445
 20
994.8801197054394
 10
557.6878323309713
 20
992.3895094719313
 10
557.6866700403982
 20
989.8458158307307
 10
557.6854630463415
 20
987.2543030826904
  0
SPLINE
  5
1072
330
A
100
AcDbEntity
  8
MODEL
  6
Continuous
100
AcDbSpline
210
0.0
220
0.0
230
1.0
 70
     8
 71
     3
 72
    17
 73
    13
 74
     0
 42
0.000000001
 43
0.00000001
 40
0.0
 40
0.0
 40
0.0
 40
0.0
 40
0.1070602265183256
 40
0.2141194557081532
 40
0.3211840715522535
 40
0.4282466240967654
 40
0.5351855874358558
 40
0.6421218436822536
 40
0.7485570941455416
 40
0.8549952263103747
 40
0.9274964519765061
 40
1.0
 40
1.0
 40
1.0
 40
1.0
 10
547.6809724324037
 20
977.5638476888246
 30
0.0
 10
548.2430206711595
 20
977.591163186444
 30
0.0
 10
549.3671119128624
 20
977.6457939272229
 30
0.0
 10
551.0065807957915
 20
978.0749531870993
 30
0.0
 10
552.5498587250038
 20
978.7526317372708
 30
0.0
 10
553.9573327916339
 20
979.6729108149223
 30
0.0
 10
555.1824785139286
 20
980.809727102517
 30
0.0
 10
556.1968638915985
 20
982.1192089116362
 30
0.0
 10
556.9654648587928
 20
983.5662022016744
 30
0.0
 10
557.4198746881837
 20
984.9382283169369
 30
0.0
 10
557.6478560895146
 20
986.1773880637451
 30
0.0
 10
557.6729272602213
 20
986.895327576933
 30
0.0
 10
557.6854630463415
 20
987.2543030826904
 30
0.0
  0
LINE
  5
1073
330
A
100
AcDbEntity
  8
MODEL
  6
Continuous
100
AcDbLine
 10
547.6809724324037
 20
977.5638476888246
 30
0.0
 11
437.1809887789775
 21
977.614983817429
 31
0.0
  0
SPLINE
  5
1074
330
A
100
AcDbEntity
  8
MODEL
  6
Continuous
100
AcDbSpline
210
0.0
220
0.0
230
1.0
 70
     8
 71
     3
 72
    17
 73
    13
 74
     0
 42
0.000000001
 43
0.00000001
 40
0.0
 40
0.0
 40
0.0
 40
0.0
 40
0.1069723393622372
 40
0.2139352296949414
 40
0.3209517653467012
 40
0.4279677308251058
 40
0.5342322097735712
 40
0.6404992449401119
 40
0.7470835323089499
 40
0.8536686972317039
 40
0.9268343821186348
 40
1.0
 40
1.0
 40
1.0
 40
1.0
 10
427.185477045982
 20
987.31469422938
 30
0.0
 10
427.2124569402956
 20
986.7842389562278
 30
0.0
 10
427.2664143457475
 20
985.7233752658457
 30
0.0
 10
427.6940866686093
 20
984.1563322398928
 30
0.0
 10
428.3752846417085
 20
982.6681517970958
 30
0.0
 10
429.304649458282
 20
981.3025775501112
 30
0.0
 10
430.4573313745675
 20
980.1074073868508
 30
0.0
 10
431.7936567637446
 20
979.1095138854391
 30
0.0
 10
433.2857042997268
 20
978.3446736018534
 30
0.0
 10
434.719867365229
 20
977.8863404011288
 30
0.0
 10
436.0292750196224
 20
977.6537526819195
 30
0.0
 10
436.7970843097198
 20
977.627906768314
 30
0.0
 10
437.1809887789775
 20
977.614983817429
 30
0.0
  0
LWPOLYLINE
  5
1075
330
A
100
AcDbEntity
  8
MODEL
  6
Continuous
100
AcDbPolyline
 90
       28
 70
   128
 43
0.0
 10
427.185477045982
 20
987.31469422938
 10
427.1866765894586
 20
989.9062069774203
 10
427.1878537811924
 20
992.449900618621
 10
427.1890067585402
 20
994.940510852129
 10
427.1901317962099
 20
997.372882807494
 10
427.1912279628807
 20
999.7419825697847
 10
427.1922933959056
 20
1002.042907191307
 10
427.1933243699957
 20
1004.270895285399
 10
427.1943190225054
 20
1006.421334942669
 10
427.1952764221126
 20
1008.489776303858
 10
427.1961937748481
 20
1010.471936216445
 10
427.1970692180682
 20
1012.3637168611
 10
427.1979008891274
 20
1014.161201095075
 10
427.1986878567034
 20
1015.860667353363
 10
427.1994273268272
 20
1017.45859896192
 10
427.200118368178
 20
1018.951689725608
 10
427.2007591181089
 20
1020.336851378769
 10
427.2013486452986
 20
1021.611213585228
 10
427.2018860184241
 20
1022.772140702099
 10
427.2023693748404
 20
1023.81722991714
 10
427.2027987145473
 20
1024.744316836686
 10
427.2031721749001
 20
1025.551486661524
 10
427.2034897558976
 20
1026.237066736312
 10
427.203749594896
 20
1026.799637725444
 10
427.2039526232172
 20
1027.238033613057
 10
427.2040979095389
 20
1027.551352878899
 10
427.2041845225383
 20
1027.738939871878
 10
427.2042124622155
 20
1027.800422062964
  0
SPLINE
  5
1076
330
A
100
AcDbEntity
  8
MODEL
  6
Continuous
100
AcDbSpline
210
0.0
220
0.0
230
1.0
 70
     8
 71
     3
 72
    17
 73
    13
 74
     0
 42
0.000000001
 43
0.00000001
 40
0.0
 40
0.0
 40
0.0
 40
0.0
 40
0.1069586348705216
 40
0.2139077065898302
 40
0.320912111239798
 40
0.4279155514342031
 40
0.5341430987537522
 40
0.6403734659919549
 40
0.7469305180105605
 40
0.8534891014807839
 40
0.9267448260999042
 40
1.0
 40
1.0
 40
1.0
 40
1.0
 10
557.6853736393743
 20
987.0744656248547
 30
0.0
 10
557.6579315986121
 20
986.5445404882001
 30
0.0
 10
557.6030499706756
 20
985.4847375953976
 30
0.0
 10
557.1742221975089
 20
983.9190757605555
 30
0.0
 10
556.4919667676502
 20
982.432130136106
 30
0.0
 10
555.5617199275155
 20
981.0677926870749
 30
0.0
 10
554.4083873112693
 20
979.8739142259408
 30
0.0
 10
553.0716800145722
 20
978.8772960029007
 30
0.0
 10
551.5794210678589
 20
978.1136317067712
 30
0.0
 10
550.1446593258354
 20
977.6561329087147
 30
0.0
 10
548.8341672922545
 20
977.424289734591
 30
0.0
 10
548.065320085145
 20
977.399086383331
 30
0.0
 10
547.6808979265977
 20
977.3864847550697
 30
0.0
  0
SPLINE
  5
1077
330
A
100
AcDbEntity
  8
MODEL
  6
Continuous
100
AcDbSpline
210
0.0
220
0.0
230
1.0
 70
     8
 71
     3
 72
    17
 73
    13
 74
     0
 42
0.000000001
 43
0.00000001
 40
0.0
 40
0.0
 40
0.0
 40
0.0
 40
0.1070488073210618
 40
0.2140974942166297
 40
0.321151471920715
 40
0.4282038044830135
 40
0.5351278036566434
 40
0.6420493043102621
 40
0.7484528257588137
 40
0.854859851854403
 40
0.9274287652632126
 40
1.0
 40
1.0
 40
1.0
 40
1.0
 10
437.1809068225909
 20
977.4376199523515
 30
0.0
 10
436.6188924161822
 20
977.4654557487293
 30
0.0
 10
435.4948642356087
 20
977.5211273101706
 30
0.0
 10
433.8558071966888
 20
977.9517896628115
 30
0.0
 10
432.3131656831276
 20
978.6308652329192
 30
0.0
 10
430.9065668883188
 20
979.5523375098439
 30
0.0
 10
429.6825258969372
 20
980.6900805000921
 30
0.0
 10
428.6694628037437
 20
982.000029904573
 30
0.0
 10
427.9023292473705
 20
983.4469463084641
 30
0.0
 10
427.4490566730744
 20
984.8187306149993
 30
0.0
 10
427.2220563796325
 20
986.0578146327006
 30
0.0
 10
427.1976150290291
 20
986.7758388973083
 30
0.0
 10
427.1853941582733
 20
987.1348567715444
 30
0.0
  0
LINE
  5
1078
330
A
100
AcDbEntity
  8
MODEL
  6
Continuous
100
AcDbLine
 10
547.6808979265977
 20
977.3864847550697
 30
0.0
 11
437.1809068225909
 21
977.4376199523515
 31
0.0
  0
LINE
  5
1079
330
A
100
AcDbEntity
  8
MODEL
  6
Continuous
100
AcDbLine
 10
437.1809887789775
 20
977.614983817429
 30
0.0
 11
437.1809068225909
 21
977.4376199523515
 31
0.0
  0
LINE
  5
107A
330
A
100
AcDbEntity
  8
MODEL
  6
Continuous
100
AcDbLine
 10
427.1853941582733
 20
987.1348567715444
 30
0.0
 11
427.185477045982
 21
987.31469422938
 31
0.0
  0
LINE
  5
107B
330
A
100
AcDbEntity
  8
MODEL
  6
Continuous
100
AcDbLine
 10
547.6808979265977
 20
977.3864847550697
 30
0.0
 11
547.6809724324037
 21
977.5638476888246
 31
0.0
  0
LINE
  5
107C
330
A
100
AcDbEntity
  8
MODEL
  6
Continuous
100
AcDbLine
 10
557.6854630463415
 20
987.2543030826904
 30
0.0
 11
557.6853736393743
 21
987.0744656248547
 31
0.0
  0
LWPOLYLINE
  5
107D
330
A
100
AcDbEntity
  8
MODEL
  6
Continuous
100
AcDbPolyline
 90
       29
 70
   128
 43
0.0
 10
410.2041901179243
 20
1027.75618051538
 10
410.2041901179243
 20
1027.756173064799
 10
410.2041603156019
 20
1027.691636135668
 10
410.2040727712799
 20
1027.500986954064
 10
410.2039256223131
 20
1027.184624126048
 10
410.2037216626693
 20
1026.743199577422
 10
410.2034599610263
 20
1026.177626004309
 10
410.2031414487058
 20
1025.489073147864
 10
410.2027661257077
 20
1024.67897151956
 10
410.2023358546783
 20
1023.748993774743
 10
410.2018515669395
 20
1022.701062163205
 10
410.2013123311688
 20
1021.537350391836
 10
410.2007218726569
 20
1020.260264998169
 10
410.2000792600804
 20
1018.872447213025
 10
410.199387287407
 20
1017.376772960515
 10
410.1986468859602
 20
1015.776334231586
 10
410.1978589870621
 20
1014.074442809314
 10
410.1970263846804
 20
1012.274624680967
 10
410.1961500101377
 20
1010.380603274197
 10
410.1952317260796
 20
1008.396295731754
 10
410.1942733951503
 20
1006.325811048836
 10
410.193276879995
 20
1004.173435171933
 10
410.1922449745828
 20
1001.94361982295
 10
410.1911795415569
 20
999.6409824992128
 10
410.1900824435645
 20
997.2702869156905
 10
410.1889564745718
 20
994.8364402110286
 10
410.187803497224
 20
992.3444792105414
 10
410.1866253741671
 20
989.7995612294011
 10
410.185425830691
 20
987.2069532460131
  0
SPLINE
  5
107E
330
A
100
AcDbEntity
  8
MODEL
  6
Continuous
100
AcDbSpline
210
0.0
220
0.0
230
1.0
 70
     8
 71
     3
 72
    17
 73
    13
 74
     0
 42
0.000000001
 43
0.00000001
 40
0.0
 40
0.0
 40
0.0
 40
0.0
 40
0.1070596745494233
 40
0.2141191070514897
 40
0.3211836654964685
 40
0.4282466681095937
 40
0.5351854849866574
 40
0.6421218646183086
 40
0.7485569635422089
 40
0.8549952253220274
 40
0.9274964788706295
 40
1.0
 40
1.0
 40
1.0
 40
1.0
 10
400.1809380107213
 20
977.5136466080851
 30
0.0
 10
400.7429830817625
 20
977.5409673311331
 30
0.0
 10
401.8670719531372
 20
977.5956087154607
 30
0.0
 10
403.5065386875237
 20
978.0248545399752
 30
0.0
 10
405.0498187235432
 20
978.7026801409097
 30
0.0
 10
406.4572961238657
 20
979.6231637173196
 30
0.0
 10
407.6824392036831
 20
980.7602708709683
 30
0.0
 10
408.6968267765235
 20
982.0701039684445
 30
0.0
 10
409.4654199484278
 20
983.517539043375
 30
0.0
 10
409.9198468876309
 20
984.8900168436811
 30
0.0
 10
410.1478087273665
 20
986.1296212927604
 30
0.0
 10
410.1728866655269
 20
986.8478388511065
 30
0.0
 10
410.185425830691
 20
987.2069532460131
 30
0.0
  0
LINE
  5
107F
330
A
100
AcDbEntity
  8
MODEL
  6
Continuous
100
AcDbLine
 10
400.1809380107213
 20
977.5136466080851
 30
0.0
 11
289.6809562199405
 21
977.5647827366895
 31
0.0
  0
SPLINE
  5
1080
330
A
100
AcDbEntity
  8
MODEL
  6
Continuous
100
AcDbSpline
210
0.0
220
0.0
230
1.0
 70
     8
 71
     3
 72
    17
 73
    13
 74
     0
 42
0.000000001
 43
0.00000001
 40
0.0
 40
0.0
 40
0.0
 40
0.0
 40
0.1069724048142729
 40
0.213935097731882
 40
0.3209517184019571
 40
0.4279677478310921
 40
0.5342317291076618
 40
0.640498647732277
 40
0.747082898057546
 40
0.8536687488532784
 40
0.9268341722694854
 40
1.0
 40
1.0
 40
1.0
 40
1.0
 10
279.6854361050418
 20
987.2673443927027
 30
0.0
 10
279.7124189870453
 20
986.7366861250056
 30
0.0
 10
279.7663823013088
 20
985.6754177674405
 30
0.0
 10
280.1940481741758
 20
984.1078333016798
 30
0.0
 10
280.8752503888002
 20
982.6191941174277
 30
0.0
 10
281.8046170276291
 20
981.2532358343644
 30
0.0
 10
282.9572885571172
 20
980.0577535478494
 30
0.0
 10
284.2936123683019
 20
979.0596271773481
 30
0.0
 10
285.7856641490073
 20
978.2946177023414
 30
0.0
 10
287.2198299775289
 20
977.8361955303194
 30
0.0
 10
288.5292411451098
 20
977.6035584823969
 30
0.0
 10
289.2970504878429
 20
977.577708009067
 30
0.0
 10
289.6809562199405
 20
977.5647827366895
 30
0.0
  0
LWPOLYLINE
  5
1081
330
A
100
AcDbEntity
  8
MODEL
  6
Continuous
100
AcDbPolyline
 90
       29
 70
   128
 43
0.0
 10
279.6854361050418
 20
987.2673443927027
 10
279.6866430990985
 20
989.8599523760907
 10
279.6878202908331
 20
992.4048703572311
 10
279.6889676802448
 20
994.8968313577183
 10
279.6901001684957
 20
997.3306780623801
 10
279.6911879532624
 20
999.7013731802411
 10
279.6922608368684
 20
1002.004011435301
 10
279.6932890169908
 20
1004.233825852961
 10
279.694287394791
 20
1006.386201729865
 10
279.6952410691076
 20
1008.456686412782
 10
279.6961649411014
 20
1010.440993955226
 10
279.6970441096116
 20
1012.335015361995
 10
279.6978785746389
 20
1014.134835352988
 10
279.6986534350206
 20
1015.836724912614
 10
279.6993984930807
 20
1017.437163641543
 10
279.7000988476566
 20
1018.932839756698
 10
279.7007395975882
 20
1020.320655679197
 10
279.7013207428747
 20
1021.597741072864
 10
279.7018720858384
 20
1022.761452844233
 10
279.7023489229971
 20
1023.809384455771
 10
279.7027810566715
 20
1024.739362200589
 10
279.7031535857016
 20
1025.549463828892
 10
279.7034814112474
 20
1026.238016685338
 10
279.7037347309881
 20
1026.80359025845
 10
279.7039433472446
 20
1027.245014807076
 10
279.7040923588568
 20
1027.561377635092
 10
279.7041817658239
 20
1027.752026816697
 10
279.7042115681461
 20
1027.816563745827
 10
279.7042115681461
 20
1027.816571196408
  0
SPLINE
  5
1082
330
A
100
AcDbEntity
  8
MODEL
  6
Continuous
100
AcDbSpline
210
0.0
220
0.0
230
1.0
 70
     8
 71
     3
 72
    17
 73
    13
 74
     0
 42
0.000000001
 43
0.00000001
 40
0.0
 40
0.0
 40
0.0
 40
0.0
 40
0.1069587960434411
 40
0.2139076200627818
 40
0.3209120007498876
 40
0.4279157656973167
 40
0.5341430774944519
 40
0.6403731177044507
 40
0.7469303439176134
 40
0.8534885666149093
 40
0.9267442568215023
 40
1.0
 40
1.0
 40
1.0
 40
1.0
 10
410.1853429429818
 20
987.0282184741058
 30
0.0
 10
410.1578985535123
 20
986.4980890416376
 30
0.0
 10
410.1030123332791
 20
985.4378796019358
 30
0.0
 10
409.6741933072983
 20
983.8716723920451
 30
0.0
 10
408.9919328837784
 20
982.3842602256661
 30
0.0
 10
408.0616784403599
 20
981.0195421535911
 30
0.0
 10
406.9083480589231
 20
979.8253516372001
 30
0.0
 10
405.5716464631075
 20
978.8284954527603
 30
0.0
 10
404.0793865105295
 20
978.064668524634
 30
0.0
 10
402.6446273757626
 20
977.6070732043279
 30
0.0
 10
401.3341333437941
 20
977.3751823482173
 30
0.0
 10
400.5652831519121
 20
977.3499744709602
 30
0.0
 10
400.1808579169804
 20
977.3373705277747
 30
0.0
  0
SPLINE
  5
1083
330
A
100
AcDbEntity
  8
MODEL
  6
Continuous
100
AcDbSpline
210
0.0
220
0.0
230
1.0
 70
     8
 71
     3
 72
    17
 73
    13
 74
     0
 42
0.000000001
 43
0.00000001
 40
0.0
 40
0.0
 40
0.0
 40
0.0
 40
0.1070482492904537
 40
0.2140972309775009
 40
0.3211510404994639
 40
0.4282035478480276
 40
0.5351274300572567
 40
0.6420490069964693
 40
0.7484529643707166
 40
0.8548598241223814
 40
0.9274286249326191
 40
1.0
 40
1.0
 40
1.0
 40
1.0
 10
289.6808668129734
 20
977.3885066563791
 30
0.0
 10
289.1188556637203
 20
977.416348257957
 30
0.0
 10
287.9948295200786
 20
977.4720316515977
 30
0.0
 10
286.3557733482073
 20
977.9027776153941
 30
0.0
 10
284.8131337282448
 20
978.5820017268982
 30
0.0
 10
283.4065312684431
 20
979.5036813329218
 30
0.0
 10
282.1824943416127
 20
980.6417108557293
 30
0.0
 10
281.1694301320556
 20
981.9520215878572
 30
0.0
 10
280.402284444295
 20
983.3993682386825
 30
0.0
 10
279.9490184065555
 20
984.7716160036447
 30
0.0
 10
279.7220288330439
 20
986.0111490677635
 30
0.0
 10
279.697584155025
 20
986.7294520116474
 30
0.0
 10
279.6853615992361
 20
987.088609853626
 30
0.0
  0
LINE
  5
1084
330
A
100
AcDbEntity
  8
MODEL
  6
Continuous
100
AcDbLine
 10
400.1808579169804
 20
977.3373705277747
 30
0.0
 11
289.6808668129734
 21
977.3885066563791
 31
0.0
  0
LINE
  5
1085
330
A
100
AcDbEntity
  8
MODEL
  6
Continuous
100
AcDbLine
 10
289.6809562199405
 20
977.5647827366895
 30
0.0
 11
289.6808668129734
 21
977.3885066563791
 31
0.0
  0
LINE
  5
1086
330
A
100
AcDbEntity
  8
MODEL
  6
Continuous
100
AcDbLine
 10
279.6853615992361
 20
987.088609853626
 30
0.0
 11
279.6854361050418
 21
987.2673443927027
 31
0.0
  0
LINE
  5
1087
330
A
100
AcDbEntity
  8
MODEL
  6
Continuous
100
AcDbLine
 10
400.1808579169804
 20
977.3373705277747
 30
0.0
 11
400.1809380107213
 21
977.5136466080851
 31
0.0
  0
LINE
  5
1088
330
A
100
AcDbEntity
  8
MODEL
  6
Continuous
100
AcDbLine
 10
410.185425830691
 20
987.2069532460131
 30
0.0
 11
410.1853429429818
 21
987.0282184741058
 31
0.0
  0
LWPOLYLINE
  5
1089
330
A
100
AcDbEntity
  8
MODEL
  6
Continuous
100
AcDbPolyline
 90
       26
 70
   128
 43
0.0
 10
410.7904176317741
 20
997.993331769348
 10
410.7903934173871
 20
997.9412000569113
 10
410.7903105296784
 20
997.7622599283762
 10
410.7901698999692
 20
997.4589463266142
 10
410.7899743222285
 20
997.0364490466721
 10
410.7897275217463
 20
996.5019970143743
 10
410.7894322924901
 20
995.8647353517421
 10
410.7890951537186
 20
995.1355675178178
 10
410.7887207620436
 20
994.3269697426416
 10
410.7883156367236
 20
993.4527775215514
 10
410.7878881596619
 20
992.5279481279262
 10
410.7874439187938
 20
991.5683059546694
 10
410.7869912960225
 20
990.5902707280887
 10
410.7865377419282
 20
989.6105769033142
 10
410.7860916384154
 20
988.6459872535028
 10
410.7856595047404
 20
987.7130059933819
 10
410.7852497228075
 20
986.827596923203
 10
410.7848697431971
 20
986.0049098672874
 10
410.7845242225224
 20
985.2590210678585
 10
410.7842206113626
 20
984.6026924381562
 10
410.783963566332
 20
984.0471543314464
 10
410.783757744043
 20
983.6019122915872
 10
410.7836059384633
 20
983.2745840715774
 10
410.7835118748833
 20
983.0707711110421
 10
410.7834764846259
 20
982.9939598160393
 10
410.7834755533029
 20
982.9933335016078
  0
LWPOLYLINE
  5
108A
330
A
100
AcDbEntity
  8
MODEL
  6
Continuous
100
AcDbPolyline
 90
        5
 70
   128
 43
0.0
 10
409.2835218735624
 20
983.0934627855726
 10
409.2834343292409
 20
982.9048094282455
 10
409.2833160512735
 20
982.6474887261695
 10
409.283253652661
 20
982.5139119232601
 10
409.2832443394357
 20
982.4940272549695
  0
LWPOLYLINE
  5
108B
330
A
100
AcDbEntity
  8
MODEL
  6
Continuous
100
AcDbPolyline
 90
        5
 70
   128
 43
0.0
 10
556.7835553639222
 20
983.1326872984476
 10
556.7834361546331
 20
982.8812208900756
 10
556.7833169453431
 20
982.6072267199463
 10
556.7832424395372
 20
982.4565359334058
 10
556.783227538376
 20
982.4257696921534
  0
LWPOLYLINE
  5
108C
330
A
100
AcDbEntity
  8
MODEL
  6
Continuous
100
AcDbPolyline
 90
       26
 70
   128
 43
0.0
 10
558.2904054873277
 20
997.9250737408705
 10
558.2903756850053
 20
997.8829770291753
 10
558.2903011791998
 20
997.7155978734203
 10
558.290167068749
 20
997.4234759750374
 10
558.2899733536531
 20
997.0116097422846
 10
558.289734935074
 20
996.4870460274227
 10
558.2894518130117
 20
995.8587599861033
 10
558.2891090863038
 20
995.1375023404665
 10
558.2887365572744
 20
994.3356138131179
 10
558.2883342259222
 20
993.4668146482267
 10
558.2879169934083
 20
992.5459706167288
 10
558.2874699585725
 20
991.5888374264881
 10
558.2870229237367
 20
990.6117919193179
 10
558.2865609877397
 20
989.631551568263
 10
558.2861139529039
 20
988.6648886779852
 10
558.2856818192292
 20
987.7283430135407
 10
558.2852645867158
 20
986.8379392603941
 10
558.2848920576864
 20
986.0089122260518
 10
558.2845344298178
 20
985.2554471174784
 10
558.2842364065934
 20
984.5904357674129
 10
558.283968185692
 20
984.0252566094108
 10
558.2837595694352
 20
983.5695800314255
 10
558.2835956566626
 20
983.2312030660518
 10
558.2835062496954
 20
983.0159148144132
 10
558.2834615462118
 20
982.9273995886153
 10
558.2834615462118
 20
982.9250750074691
  0
LWPOLYLINE
  5
108D
330
A
100
AcDbEntity
  8
MODEL
  6
Continuous
100
AcDbPolyline
 90
        5
 70
   128
 43
0.0
 10
556.783227538376
 20
982.4257696921534
 10
556.7832424395372
 20
982.4565359334058
 10
556.7833169453431
 20
982.6072267199463
 10
556.7834361546331
 20
982.8812208900756
 10
556.7835553639222
 20
983.1205218973167
  0
LWPOLYLINE
  5
108E
330
A
100
AcDbEntity
  8
MODEL
  6
Continuous
100
AcDbPolyline
 90
        5
 70
   128
 43
0.0
 10
409.2832443394357
 20
982.4940272549695
 10
409.283253652661
 20
982.5139119232601
 10
409.2833160512735
 20
982.6474887261695
 10
409.2834343292409
 20
982.9048094282455
 10
409.2835265301758
 20
983.1035909185715
  0
LWPOLYLINE
  5
108F
330
A
100
AcDbEntity
  8
MODEL
  6
Continuous
100
AcDbPolyline
 90
        4
 70
   128
 43
0.0
 10
429.6823165469457
 20
980.4845870415277
 10
429.6823184095913
 20
980.487686483056
 10
429.6823603191071
 20
980.5784196535653
 10
429.682445069461
 20
980.761913483829
  0
LWPOLYLINE
  5
1090
330
A
100
AcDbEntity
  8
MODEL
  6
Continuous
100
AcDbPolyline
 90
       12
 70
   128
 43
0.0
 10
279.6853615992361
 20
987.088609853626
 10
279.6852572911075
 20
986.8771109207131
 10
279.6848251574331
 20
985.9313460941024
 10
279.6844079249195
 20
985.0504732633539
 10
279.6840353958894
 20
984.2468578311212
 10
279.6837075703436
 20
983.5317809077509
 10
279.6834244482807
 20
982.9152802879519
 10
279.6831860297013
 20
982.4060107524103
 10
279.683007215767
 20
982.0111215988702
 10
279.6828731053163
 20
981.736155127973
 10
279.682813500672
 20
981.5849716717905
 10
279.6827985995105
 20
981.5540024022168
  0
LWPOLYLINE
  5
1091
330
A
100
AcDbEntity
  8
MODEL
  6
Continuous
100
AcDbPolyline
 90
        4
 70
   128
 43
0.0
 10
429.6824180611063
 20
980.7033360878534
 10
429.6824040912677
 20
980.6723714748925
 10
429.6823323794299
 20
980.5181072036332
 10
429.6823165469457
 20
980.4845870415277
  0
LWPOLYLINE
  5
1092
330
A
100
AcDbEntity
  8
MODEL
  6
Continuous
100
AcDbPolyline
 90
       12
 70
   128
 43
0.0
 10
427.1853913643056
 20
987.1297738457628
 10
427.1853364162732
 20
987.0097158885159
 10
427.1848931067277
 20
986.0522527190454
 10
427.184478668182
 20
985.1570258791156
 10
427.1840996198941
 20
984.3366024027176
 10
427.1837596871549
 20
983.6024994904704
 10
427.1834644578983
 20
982.9650222266621
 10
427.1832185887386
 20
982.4331196899122
 10
427.1830248736435
 20
982.0142582933015
 10
427.1828861065794
 20
981.7143174762434
 10
427.1828041501933
 20
981.5375086794204
 10
427.1827799358059
 20
981.4857439080781
  0
LINE
  5
1093
330
A
100
AcDbEntity
  8
MODEL
  6
Continuous
100
AcDbLine
 10
278.6927505486301
 20
1003.054463205726
 30
0.0
 11
263.6927499525834
 21
1003.061404352874
 31
0.0
  0
LINE
  5
1094
330
A
100
AcDbEntity
  8
MODEL
  6
Continuous
100
AcDbLine
 10
263.6927499525834
 20
1003.061404352874
 30
0.0
 11
263.6811717503358
 21
978.0614067743129
 31
0.0
  0
LINE
  5
1095
330
A
100
AcDbEntity
  8
MODEL
  6
Continuous
100
AcDbLine
 10
263.6811717503358
 20
978.0614067743129
 30
0.0
 11
278.6811723463825
 21
978.0544656271643
 31
0.0
  0
LINE
  5
1096
330
A
100
AcDbEntity
  8
MODEL
  6
Continuous
100
AcDbLine
 10
278.6811723463825
 20
978.0544656271643
 30
0.0
 11
278.6927505486301
 21
1003.054463205726
 31
0.0
  0
LINE
  5
1097
330
A
100
AcDbEntity
  8
MODEL
  6
Continuous
100
AcDbLine
 10
279.3856694453054
 20
1001.954141905398
 30
0.0
 11
279.3856694453054
 21
1003.239677188785
 31
0.0
  0
LINE
  5
1098
330
A
100
AcDbEntity
  8
MODEL
  6
Continuous
100
AcDbLine
 10
557.9856767409135
 20
1003.239677188785
 30
0.0
 11
557.6928540222932
 21
1003.239677188785
 31
0.0
  0
LINE
  5
1099
330
A
100
AcDbEntity
  8
MODEL
  6
Continuous
100
AcDbLine
 10
427.1928466015149
 20
1003.239677188785
 30
0.0
 11
410.1928447463204
 21
1003.239677188785
 31
0.0
  0
LINE
  5
109A
330
A
100
AcDbEntity
  8
MODEL
  6
Continuous
100
AcDbLine
 10
279.6928270809942
 20
1003.239677188785
 30
0.0
 11
279.3856694453054
 21
1003.239677188785
 31
0.0
  0
LINE
  5
109B
330
A
100
AcDbEntity
  8
MODEL
  6
Continuous
100
AcDbLine
 10
557.9856767409135
 20
1001.825215196104
 30
0.0
 11
557.9856767409135
 21
1003.239677188785
 31
0.0
  0
LINE
  5
109C
330
A
100
AcDbEntity
  8
MODEL
  6
Continuous
100
AcDbLine
 10
557.9856767409135
 20
981.4896768833107
 30
0.0
 11
558.6827977650457
 21
981.4896768833107
 31
0.0
  0
LINE
  5
109D
330
A
100
AcDbEntity
  8
MODEL
  6
Continuous
100
AcDbLine
 10
557.9856767409135
 20
978.2396768162555
 30
0.0
 11
557.9856767409135
 21
981.4896768833107
 31
0.0
  0
LINE
  5
109E
330
A
100
AcDbEntity
  8
MODEL
  6
Continuous
100
AcDbLine
 10
557.9856767409135
 20
978.2396768162555
 30
0.0
 11
551.7249389641572
 21
978.2396768162555
 31
0.0
  0
LINE
  5
109F
330
A
100
AcDbEntity
  8
MODEL
  6
Continuous
100
AcDbLine
 10
433.3135348834687
 20
978.2396768162555
 30
0.0
 11
426.1812775485803
 21
978.2396768162555
 31
0.0
  0
LINE
  5
10A0
330
A
100
AcDbEntity
  8
MODEL
  6
Continuous
100
AcDbLine
 10
411.1812760212117
 20
978.2396768162555
 30
0.0
 11
404.3204126038247
 21
978.2396768162555
 31
0.0
  0
LINE
  5
10A1
330
A
100
AcDbEntity
  8
MODEL
  6
Continuous
100
AcDbLine
 10
285.7026442044069
 20
978.2396768162555
 30
0.0
 11
279.3856694453054
 21
978.2396768162555
 31
0.0
  0
LINE
  5
10A2
330
A
100
AcDbEntity
  8
MODEL
  6
Continuous
100
AcDbLine
 10
279.3856694453054
 20
978.2396768162555
 30
0.0
 11
279.3856694453054
 21
981.4896768833107
 31
0.0
  0
LINE
  5
10A3
330
A
100
AcDbEntity
  8
MODEL
  6
Continuous
100
AcDbLine
 10
279.3856694453054
 20
981.4896768833107
 30
0.0
 11
278.68276677063
 21
981.4896768833107
 31
0.0
  0
LWPOLYLINE
  5
10A4
330
A
100
AcDbEntity
  8
MODEL
  6
Continuous
100
AcDbPolyline
 90
       27
 70
   128
 43
0.0
 10
410.2832445033484
 20
982.4935643876499
 10
410.2832538165737
 20
982.5134499872631
 10
410.2833152838637
 20
982.6470258588499
 10
410.2834344931537
 20
982.9043465609259
 10
410.2836086504747
 20
983.2813543210335
 10
410.2838358931829
 20
983.7721021788724
 10
410.2841124959875
 20
984.3688522408314
 10
410.2844328709532
 20
985.0621920953103
 10
410.2847932927896
 20
985.8411880152829
 10
410.2851881735612
 20
986.6935549246676
 10
410.2856100626875
 20
987.6058501134224
 10
410.286053372233
 20
988.563686277584
 10
410.2865106516176
 20
989.5519578306534
 10
410.2869753815819
 20
990.5550790311366
 10
410.2874391802241
 20
991.5572300845355
 10
410.287894596963
 20
992.5426064467587
 10
410.2883360438634
 20
993.4956681857415
 10
410.288755139022
 20
994.4013849774905
 10
410.2891453631812
 20
995.2454733605094
 10
410.2895011284043
 20
996.0146210099168
 10
410.289816846757
 20
996.6966983805008
 10
410.2900878616263
 20
997.2809482308634
 10
410.2903085850764
 20
997.7581574524351
 10
410.2904762231399
 20
998.1207995618291
 10
410.2905879818488
 20
998.3631557727762
 10
410.2906429298812
 20
998.4814034717687
 10
410.2906485178166
 20
998.4935632849641
  0
LWPOLYLINE
  5
10A5
330
A
100
AcDbEntity
  8
MODEL
  6
Continuous
100
AcDbPolyline
 90
        8
 70
   128
 43
0.0
 10
410.938305137365
 20
990.2034682630159
 10
410.9380480923344
 20
989.6474209556885
 10
410.9378115364004
 20
989.1369732970901
 10
410.9376094394017
 20
988.6996435409941
 10
410.9374515802253
 20
988.3590081183769
 10
410.9373472720974
 20
988.1334308477648
 10
410.9373016372908
 20
988.035072939337
 10
410.937300240307
 20
988.0311360059835
  0
LWPOLYLINE
  5
10A6
330
A
100
AcDbEntity
  8
MODEL
  6
Continuous
100
AcDbPolyline
 90
        9
 70
   128
 43
0.0
 10
410.9395787209858
 20
992.9553888680942
 10
410.9395768583411
 20
992.9509883689292
 10
410.9395302922119
 20
992.8508076293923
 10
410.939425052761
 20
992.6235306950815
 10
410.9392667279237
 20
992.2814106278651
 10
410.9390641652637
 20
991.8428909907647
 10
410.938827143668
 20
991.331612534222
 10
410.9385696329766
 20
990.7751384010311
 10
410.938305137365
 20
990.2034682630159
  0
LWPOLYLINE
  5
10A7
330
A
100
AcDbEntity
  8
MODEL
  6
Continuous
100
AcDbPolyline
 90
       27
 70
   128
 43
0.0
 10
557.7832295649343
 20
982.4253068248338
 10
557.7832444660951
 20
982.4560730660862
 10
557.7833189719015
 20
982.6067638526267
 10
557.7834381811906
 20
982.880758022756
 10
557.7836169951249
 20
983.273734239728
 10
557.7838554137045
 20
983.7794950174697
 10
557.7841385357667
 20
984.3900635781296
 10
557.784466361313
 20
985.0958123745926
 10
557.7848239891816
 20
985.8856097737856
 10
557.7852263205339
 20
986.7470011989184
 10
557.7856584542085
 20
987.6664016804256
 10
557.7861054890443
 20
988.6293116899736
 10
557.7865525238801
 20
989.6205456637375
 10
557.7870293610388
 20
990.6244711412995
 10
557.7874912970353
 20
991.6252556316152
 10
557.7879383318711
 20
992.6071162511192
 10
557.788385366707
 20
993.5545682849892
 10
557.7887876980592
 20
994.4526701177068
 10
557.7891751282507
 20
995.2872580791421
 10
557.7895327561193
 20
996.0451697873481
 10
557.7898456805044
 20
996.7144531140633
 10
557.7900990002443
 20
997.2845529148884
 10
557.7903225176622
 20
997.7464782016881
 10
557.7904864304353
 20
998.0929441692837
 10
557.7905907385637
 20
998.3184872137912
 10
557.7906354420472
 20
998.4195496829756
 10
557.7906354420472
 20
998.4253047908254
  0
LWPOLYLINE
  5
10A8
330
A
100
AcDbEntity
  8
MODEL
  6
Continuous
100
AcDbPolyline
 90
        8
 70
   128
 43
0.0
 10
558.438448523789
 20
990.486300567963
 10
558.4381952040483
 20
989.917018875812
 10
558.437941884308
 20
989.3751227239676
 10
558.4377183668901
 20
988.8898260135733
 10
558.4375246517945
 20
988.4872912837722
 10
558.4373905413438
 20
988.1892189326294
 10
558.4373011343766
 20
988.011678581924
 10
558.4372862332159
 20
987.9628777446754
  0
LWPOLYLINE
  5
10A9
330
A
100
AcDbEntity
  8
MODEL
  6
Continuous
100
AcDbPolyline
 90
        8
 70
   128
 43
0.0
 10
558.4395661108786
 20
992.8871308396168
 10
558.4395512097169
 20
992.8596179409482
 10
558.4394767039114
 20
992.7093460167356
 10
558.4393574946214
 20
992.4359244935744
 10
558.4391786806871
 20
992.0540938795142
 10
558.4389551632692
 20
991.5844384989299
 10
558.4387167446905
 20
991.0522777821001
 10
558.438448523789
 20
990.486300567963
  0
LWPOLYLINE
  5
10AA
330
A
100
AcDbEntity
  8
MODEL
  6
Continuous
100
AcDbPolyline
 90
        8
 70
   128
 43
0.0
 10
280.6834264748384
 20
982.9248524213738
 10
280.6831731550983
 20
982.3698353896445
 10
280.6829049341968
 20
981.777842989058
 10
280.6826814167789
 20
981.2962104509181
 10
280.6825026028446
 20
980.9309932346052
 10
280.682398294716
 20
980.6867855543799
 10
280.6823386900717
 20
980.5666579807705
 10
280.6823386900717
 20
980.5535393709845
  0
LWPOLYLINE
  5
10AB
330
A
100
AcDbEntity
  8
MODEL
  6
Continuous
100
AcDbPolyline
 90
       27
 70
   128
 43
0.0
 10
279.4832571499639
 20
982.5540947670645
 10
279.4832869522861
 20
982.6102432737655
 10
279.4833614580918
 20
982.7914684022373
 10
279.483510469704
 20
983.0951154174812
 10
279.4837041847998
 20
983.5163945274957
 10
279.4839575045398
 20
984.0486621426948
 10
279.4842406266027
 20
984.6835247183748
 10
279.48458335331
 20
985.4109691398747
 10
279.48495588234
 20
986.2195243070431
 10
279.4853582136923
 20
987.0964378526963
 10
279.4857903473667
 20
988.0278808007546
 10
279.4862373822025
 20
988.9991636330791
 10
279.4866993181997
 20
989.9949687126622
 10
279.4871612541963
 20
990.999591496174
 10
279.4876231901935
 20
991.9971884403907
 10
279.4880851261908
 20
992.9720269458898
 10
279.4885172598651
 20
993.9087332634784
 10
279.4889195912174
 20
994.7925348708935
 10
279.4893070214082
 20
995.6094938273139
 10
279.4896348469547
 20
996.3467259834118
 10
279.4899328701783
 20
996.992605173827
 10
279.4901861899191
 20
997.5369445922382
 10
279.4903948061756
 20
997.9711607041367
 10
279.4905438177877
 20
998.2884050289698
 10
279.4906332247549
 20
998.4836749675281
 10
279.4906630270771
 20
998.5538906360574
 10
279.4906630270771
 20
998.5540927330561
  0
LWPOLYLINE
  5
10AC
330
A
100
AcDbEntity
  8
MODEL
  6
Continuous
100
AcDbPolyline
 90
       27
 70
   128
 43
0.0
 10
278.890667771607
 20
998.5543711985059
 10
278.890667771607
 20
998.5541681701847
 10
278.8906230681234
 20
998.4839525016554
 10
278.8905336611563
 20
998.2886830287583
 10
278.8903995507055
 20
997.9714382382639
 10
278.8901909344484
 20
997.5372225920268
 10
278.8899376147083
 20
996.9928827079542
 10
278.8896395914846
 20
996.3470035175391
 10
278.8892968647767
 20
995.6097713614412
 10
278.8889243357473
 20
994.7928124050208
 10
278.8885071032337
 20
993.9090110304363
 10
278.8880749695593
 20
992.9723047128476
 10
278.8876279347235
 20
991.9974662073486
 10
278.8871659987262
 20
990.9998691467166
 10
278.886704062729
 20
989.9952463632047
 10
278.8862421267324
 20
988.999441400037
 10
278.8857950918966
 20
988.0281585677125
 10
278.8853629582215
 20
987.0967156196542
 10
278.8849606268693
 20
986.2198018411704
 10
278.8845731966785
 20
985.4112471396633
 10
278.884245371132
 20
984.683802252502
 10
278.8839473479084
 20
984.048939676822
 10
278.883708929329
 20
983.5166720616229
 10
278.883515214234
 20
983.0953929516085
 10
278.8833662026218
 20
982.7917459363646
 10
278.8832916968161
 20
982.6105208078927
 10
278.8832618944932
 20
982.5543723011917
  0
LWPOLYLINE
  5
10AD
330
A
100
AcDbEntity
  8
MODEL
  6
Continuous
100
AcDbPolyline
 90
        8
 70
   128
 43
0.0
 10
428.1834720723921
 20
982.9805841612226
 10
428.1832411043931
 20
982.4816732610172
 10
428.1829533257176
 20
981.8607502559728
 10
428.1827167697836
 20
981.3482862840003
 10
428.1825323679138
 20
980.950724234671
 10
428.1824038453985
 20
980.6730662415332
 10
428.1823321335607
 20
980.5188010389513
 10
428.1823172323991
 20
980.4852818081683
  0
LWPOLYLINE
  5
10AE
330
A
100
AcDbEntity
  8
MODEL
  6
Continuous
100
AcDbPolyline
 90
       27
 70
   128
 43
0.0
 10
426.9832422115499
 20
982.4858362729258
 10
426.983243142872
 20
982.4862441922135
 10
426.9832766704847
 20
982.5594433526105
 10
426.9833688714195
 20
982.757645560295
 10
426.9835169517089
 20
983.0777266936906
 10
426.9837190487076
 20
983.5146380531199
 10
426.9839714371258
 20
984.0614892485149
 10
426.9842713229943
 20
984.7096562328346
 10
426.9846140497023
 20
985.4489172751613
 10
426.9849930979897
 20
986.2676131481834
 10
426.9854019486004
 20
987.152832927049
 10
426.9858359449197
 20
988.0906163191952
 10
426.9862876363688
 20
989.0661738057219
 10
426.9867495723654
 20
990.064120170527
 10
426.9872143023301
 20
991.0687171971489
 10
426.9876753070046
 20
992.064121778921
 10
426.9881242044855
 20
993.0346360372909
 10
426.988554475515
 20
993.964953947679
 10
426.988959600835
 20
994.8404043855675
 10
426.9893330611878
 20
995.647180260957
 10
426.9896692686368
 20
996.3725590089865
 10
426.9899617039257
 20
997.0051002631493
 10
426.9902066417624
 20
997.53482909301
 10
426.9904003568583
 20
997.953391069413
 10
426.9905400552445
 20
998.2541854436107
 10
426.9906220116306
 20
998.4324680584081
 10
426.9906471573402
 20
998.4858347045787
  0
LWPOLYLINE
  5
10AF
330
A
100
AcDbEntity
  8
MODEL
  6
Continuous
100
AcDbPolyline
 90
       27
 70
   128
 43
0.0
 10
426.3906472452575
 20
998.4861127043672
 10
426.390622099548
 20
998.4327455925353
 10
426.3905396775001
 20
998.254462977738
 10
426.3904004447747
 20
997.9536690692015
 10
426.3902067296792
 20
997.5351070927985
 10
426.3899617918421
 20
997.0053782629378
 10
426.3896688908924
 20
996.3728365431137
 10
426.3893331491042
 20
995.6474577950843
 10
426.3889601544131
 20
994.8406819196947
 10
426.3885550290931
 20
993.9652317146368
 10
426.3881242924028
 20
993.0349135714181
 10
426.3876753949214
 20
992.0643995458789
 10
426.387214390247
 20
991.0689948476914
 10
426.3867496602827
 20
990.0643978210695
 10
426.3862877242852
 20
989.0664514562644
 10
426.3858364984978
 20
988.0908940861531
 10
426.3854025021781
 20
987.1531106940068
 10
426.3849927202452
 20
986.2678906823106
 10
426.3846141376187
 20
985.4491948092885
 10
426.3842718765725
 20
984.7099337669619
 10
426.3839719907035
 20
984.0617667826422
 10
426.3837186709632
 20
983.5149155872472
 10
426.3835165739645
 20
983.0780042278178
 10
426.3833684936751
 20
982.7579230944223
 10
426.383276758402
 20
982.5597208867378
 10
426.3832427651275
 20
982.4865217263407
 10
426.3832427651275
 20
982.486113807053
  0
DIMENSION
  5
10B0
330
A
100
AcDbEntity
  8
DIM
100
AcDbDimension
  2
*D6
 10
248.4368888270062
 20
978.0684615670573
 30
0.0
 11
248.4426734204499
 21
990.5684602285963
 31
0.0
 70
   160
 71
     1
 42
25.00000000000007
 73
     0
 74
     0
 75
     0
  3
tfrom線あり
100
AcDbAlignedDimension
 13
263.6927468940264
 23
1003.061404328299
 33
0.0
 14
263.6811777071391
 24
978.0614070052211
 34
0.0
 50
89.97348537581188
100
AcDbRotatedDimension
  0
DIMENSION
  5
10B1
330
A
100
AcDbEntity
  8
DIM
100
AcDbDimension
  2
*D7
 10
278.6639873859565
 20
940.9111611357303
 30
0.0
 11
271.1758665183866
 21
940.9146263948915
 31
0.0
 70
   160
 71
     1
 42
15.00000000000002
 73
     0
 74
     0
 75
     0
  3
tfrom線あり
100
AcDbAlignedDimension
 13
263.6811777071391
 23
978.0614070052211
 33
0.0
 14
278.681176100986
 24
978.0544654930889
 34
0.0
 50
-0.0265146241881134
100
AcDbRotatedDimension
  0
DIMENSION
  5
10B2
330
A
100
AcDbEntity
  8
DIM
100
AcDbDimension
  2
*D8
 10
219.4958685481752
 20
977.4209856961637
 30
0.0
 11
219.507529437366
 21
1002.619143647269
 31
0.0
 70
   160
 71
     1
 42
50.4234432853577
 73
     0
 74
     0
 75
     0
  3
tfrom線あり
100
AcDbAlignedDimension
 13
279.7042044948942
 23
1027.816571918093
 33
0.0
 14
289.6808690945702
 24
977.3885063571654
 34
0.0
 50
89.97348537581188
100
AcDbRotatedDimension
  0
LINE
  5
10B3
330
A
100
AcDbEntity
  8
MODEL
  6
Continuous
100
AcDbLine
 10
557.6899333946997
 20
712.9293754771799
 30
0.0
 11
427.1899529822756
 21
712.9293754771799
 31
0.0
  0
LINE
  5
10B4
330
A
100
AcDbEntity
  8
MODEL
  6
Continuous
100
AcDbLine
 10
427.1899529822756
 20
702.9293757006973
 30
0.0
 11
427.195736495464
 21
702.9293757006973
 31
0.0
  0
LINE
  5
10B5
330
A
100
AcDbEntity
  8
MODEL
  6
Continuous
100
AcDbLine
 10
410.1899548523713
 20
712.9293754771799
 30
0.0
 11
279.689966058045
 21
712.9293754771799
 31
0.0
  0
LINE
  5
10B6
330
A
100
AcDbEntity
  8
MODEL
  6
Continuous
100
AcDbLine
 10
279.689966058045
 20
702.9293757006973
 30
0.0
 11
279.6957477085878
 21
702.9293757006973
 31
0.0
  0
LINE
  5
10B7
330
A
100
AcDbEntity
  8
MODEL
  6
Continuous
100
AcDbLine
 10
410.2869465105825
 20
651.4293756410926
 30
0.0
 11
410.20385577312
 21
651.4293756410926
 31
0.0
  0
LINE
  5
10B8
330
A
100
AcDbEntity
  8
MODEL
  6
Continuous
100
AcDbLine
 10
410.2016345687796
 20
635.4293730184883
 30
0.0
 11
410.2869465105825
 21
635.4293730184883
 31
0.0
  0
SPLINE
  5
10B9
330
A
100
AcDbEntity
  8
MODEL
  6
Continuous
100
AcDbSpline
210
0.0
220
0.0
230
1.0
 70
     8
 71
     3
 72
    14
 73
    10
 74
     0
 42
0.000000001
 43
0.00000001
 40
0.0
 40
0.0
 40
0.0
 40
0.0
 40
0.0510397176219253
 40
0.301072690311714
 40
0.4994816259113319
 40
0.666048015160296
 40
0.8061144079647887
 40
0.9196007832222218
 40
1.0
 40
1.0
 40
1.0
 40
1.0
 10
410.2866801523257
 20
635.4346554801315
 30
0.0
 10
410.2987406171003
 20
635.4329920107604
 30
0.0
 10
410.3698827931382
 20
635.4231795505399
 30
0.0
 10
410.4882588680337
 20
635.4648779619193
 30
0.0
 10
410.6124998908715
 20
635.5418638668622
 30
0.0
 10
410.6941072428979
 20
635.6323216939508
 30
0.0
 10
410.7436085040388
 20
635.719422457924
 30
0.0
 10
410.7706414062916
 20
635.7949162187339
 30
0.0
 10
410.7784331155551
 20
635.8393488977646
 30
0.0
 10
410.7816641308953
 20
635.8577739522308
 30
0.0
  0
SPLINE
  5
10BA
330
A
100
AcDbEntity
  8
MODEL
  6
Continuous
100
AcDbSpline
210
0.0
220
0.0
230
1.0
 70
     8
 71
     3
 72
    18
 73
    14
 74
     0
 42
0.000000001
 43
0.00000001
 40
0.0
 40
0.0
 40
0.0
 40
0.0
 40
0.3036111393465016
 40
0.4546491347267109
 40
0.5151641933310782
 40
0.5301336434773827
 40
0.544702185198138
 40
0.5783124451764544
 40
0.6346581426268828
 40
0.705018878922621
 40
0.8102095985937255
 40
0.9181479242367847
 40
0.9999999999999999
 40
0.9999999999999999
 40
0.9999999999999999
 40
0.9999999999999999
 10
410.7873517178589
 20
650.8791949674934
 30
0.0
 10
410.7873309390736
 20
650.8953515821726
 30
0.0
 10
410.7872998234282
 20
650.9195456578574
 30
0.0
 10
410.7868195262392
 20
650.9349290592676
 30
0.0
 10
410.7869684231257
 20
650.9432222557035
 30
0.0
 10
410.7857404215417
 20
650.965280831129
 30
0.0
 10
410.7834140141138
 20
650.9920717804963
 30
0.0
 10
410.7746983656996
 20
651.0474149589651
 30
0.0
 10
410.7493205629833
 20
651.1282647939985
 30
0.0
 10
410.68950756144
 20
651.2373569717766
 30
0.0
 10
410.5811592361372
 20
651.3443178731108
 30
0.0
 10
410.4374049051523
 20
651.4189292872999
 30
0.0
 10
410.3358456062499
 20
651.4215897707089
 30
0.0
 10
410.2920455016786
 20
651.4227371737808
 30
0.0
  0
SPLINE
  5
10BB
330
A
100
AcDbEntity
  8
MODEL
  6
Continuous
100
AcDbSpline
210
0.0
220
0.0
230
1.0
 70
     8
 71
     3
 72
    13
 73
     9
 74
     0
 42
0.000000001
 43
0.00000001
 40
0.0
 40
0.0
 40
0.0
 40
0.0
 40
0.100495997918335
 40
0.3658474858344866
 40
0.5851688427735935
 40
0.7705349248059697
 40
0.9230199698281657
 40
0.9999999999999999
 40
0.9999999999999999
 40
0.9999999999999999
 40
0.9999999999999999
 10
410.9451103114181
 20
645.8932366297096
 30
0.0
 10
410.9374555001871
 20
645.893913493289
 30
0.0
 10
410.9095887840856
 20
645.8963775599578
 30
0.0
 10
410.8702157134182
 20
645.9209225898536
 30
0.0
 10
410.8325846616392
 20
645.9552786686828
 30
0.0
 10
410.8093913196742
 20
645.991153144411
 30
0.0
 10
410.7968481333339
 20
646.0203764357044
 30
0.0
 10
410.7931697102929
 20
646.0372951313019
 30
0.0
 10
410.7919356875707
 20
646.042970947966
 30
0.0
  0
SPLINE
  5
10BC
330
A
100
AcDbEntity
  8
MODEL
  6
Continuous
100
AcDbSpline
210
0.0
220
0.0
230
1.0
 70
     8
 71
     3
 72
    10
 73
     6
 74
     0
 42
0.000000001
 43
0.00000001
 40
0.0
 40
0.0
 40
0.0
 40
0.0
 40
0.2622199931082364
 40
0.7987722500651516
 40
1.0
 40
1.0
 40
1.0
 40
1.0
 10
410.838241045981
 20
640.9032400772422
 30
0.0
 10
410.8451390214225
 20
640.9116634774424
 30
0.0
 10
410.8661515738943
 20
640.9373227654756
 30
0.0
 10
410.9039374226211
 20
640.9600371064854
 30
0.0
 10
410.9343801130556
 20
640.9641104597657
 30
0.0
 10
410.9426832847882
 20
640.965221457228
 30
0.0
  0
LINE
  5
10BD
330
A
100
AcDbEntity
  8
MODEL
  6
Continuous
100
AcDbLine
 10
410.9384397134775
 20
640.9672480151504
 30
0.0
 11
411.1881254330867
 21
641.0296689793914
 31
0.0
  0
LINE
  5
10BE
330
A
100
AcDbEntity
  8
MODEL
  6
Continuous
100
AcDbLine
 10
411.1881254330867
 20
645.8290796801895
 30
0.0
 11
410.9384397134775
 21
645.8915006444305
 31
0.0
  0
LINE
  5
10BF
330
A
100
AcDbEntity
  8
MODEL
  6
Continuous
100
AcDbLine
 10
557.78692505291
 20
651.4293756410926
 30
0.0
 11
557.7038659804155
 21
651.4293756410926
 31
0.0
  0
LINE
  5
10C0
330
A
100
AcDbEntity
  8
MODEL
  6
Continuous
100
AcDbLine
 10
557.701645707398
 20
635.4293730184883
 30
0.0
 11
557.78692505291
 21
635.4293730184883
 31
0.0
  0
SPLINE
  5
10C1
330
A
100
AcDbEntity
  8
MODEL
  6
Continuous
100
AcDbSpline
210
0.0
220
0.0
230
1.0
 70
     8
 71
     3
 72
    13
 73
     9
 74
     0
 42
0.000000001
 43
0.00000001
 40
0.0
 40
0.0
 40
0.0
 40
0.0
 40
0.0090170521356416
 40
0.147125735087326
 40
0.3132284078930307
 40
0.5618991676914248
 40
0.8155555818000574
 40
1.0
 40
1.0
 40
1.0
 40
1.0
 10
558.2762493841935
 20
651.0308515355438
 30
0.0
 10
558.2759343014093
 20
651.0327901342627
 30
0.0
 10
558.2707932879596
 20
651.064421066109
 30
0.0
 10
558.2466266168801
 20
651.1335240036766
 30
0.0
 10
558.1853122358368
 20
651.2432420903968
 30
0.0
 10
558.0736275382935
 20
651.3496589726764
 30
0.0
 10
557.9291017468142
 20
651.4214169814937
 30
0.0
 10
557.8287338230095
 20
651.4221100918968
 30
0.0
 10
557.7864780180741
 20
651.4224018976539
 30
0.0
  0
SPLINE
  5
10C2
330
A
100
AcDbEntity
  8
MODEL
  6
Continuous
100
AcDbSpline
210
0.0
220
0.0
230
1.0
 70
     8
 71
     3
 72
    14
 73
    10
 74
     0
 42
0.000000001
 43
0.00000001
 40
0.0
 40
0.0
 40
0.0
 40
0.0
 40
0.2306240935943514
 40
0.4460188166309546
 40
0.6245195484987739
 40
0.7753009795197316
 40
0.8991540879890404
 40
0.9939471172628662
 40
1.0
 40
1.0
 40
1.0
 40
1.0
 10
557.7952697031785
 20
635.4347821400016
 30
0.0
 10
557.8493067176203
 20
635.4385243757393
 30
0.0
 10
557.9538123868249
 20
635.4457617269169
 30
0.0
 10
558.0832789408576
 20
635.5195820042078
 30
0.0
 10
558.1752287735601
 20
635.6072221975975
 30
0.0
 10
558.232978089474
 20
635.6966662340607
 30
0.0
 10
558.2645373911766
 20
635.7756750357472
 30
0.0
 10
558.2775943819686
 20
635.8280731398803
 30
0.0
 10
558.2804303078658
 20
635.8494219708879
 30
0.0
 10
558.2806005232626
 20
635.8507033512443
 30
0.0
  0
SPLINE
  5
10C3
330
A
100
AcDbEntity
  8
MODEL
  6
Continuous
100
AcDbSpline
210
0.0
220
0.0
230
1.0
 70
     8
 71
     3
 72
    10
 73
     6
 74
     0
 42
0.000000001
 43
0.00000001
 40
0.0
 40
0.0
 40
0.0
 40
0.0
 40
0.2344145742374904
 40
0.8871173835006654
 40
1.0
 40
1.0
 40
1.0
 40
1.0
 10
558.3448245280076
 20
640.9105863497108
 30
0.0
 10
558.3499896787332
 20
640.9167073088698
 30
0.0
 10
558.3695366502122
 20
640.9398714371731
 30
0.0
 10
558.4009812715319
 20
640.9590520059011
 30
0.0
 10
558.4269460233247
 20
640.9627924036973
 30
0.0
 10
558.4307744257737
 20
640.9633439109176
 30
0.0
  0
SPLINE
  5
10C4
330
A
100
AcDbEntity
  8
MODEL
  6
Continuous
100
AcDbSpline
210
0.0
220
0.0
230
1.0
 70
     8
 71
     3
 72
    11
 73
     7
 74
     0
 42
0.000000001
 43
0.00000001
 40
0.0
 40
0.0
 40
0.0
 40
0.0
 40
0.1462198840187674
 40
0.5748024642329068
 40
0.9295715084679997
 40
1.0
 40
1.0
 40
1.0
 40
1.0
 10
558.4411456339647
 20
645.8938848302215
 30
0.0
 10
558.4342917978654
 20
645.8945747229576
 30
0.0
 10
558.4073488009824
 20
645.8972867483945
 30
0.0
 10
558.3696825920099
 20
645.9221941592385
 30
0.0
 10
558.3386424027801
 20
645.9480258908469
 30
0.0
 10
558.3280559020438
 20
645.9649215377855
 30
0.0
 10
558.3263023846437
 20
645.967720083937
 30
0.0
  0
LINE
  5
10C5
330
A
100
AcDbEntity
  8
MODEL
  6
Continuous
100
AcDbLine
 10
558.4384187214662
 20
640.9672480151504
 30
0.0
 11
558.6881025784303
 21
641.0296689793914
 31
0.0
  0
LINE
  5
10C6
330
A
100
AcDbEntity
  8
MODEL
  6
Continuous
100
AcDbLine
 10
558.6881025784303
 20
645.8290796801895
 30
0.0
 11
558.4384187214662
 21
645.8915006444305
 31
0.0
  0
SPLINE
  5
10C7
330
A
100
AcDbEntity
  8
MODEL
  6
Continuous
100
AcDbSpline
210
0.0
220
0.0
230
1.0
 70
     8
 71
     3
 72
    11
 73
     7
 74
     0
 42
0.000000001
 43
0.00000001
 40
0.0
 40
0.0
 40
0.0
 40
0.0
 40
0.2620202095925386
 40
0.6111001338951635
 40
0.8958584874831553
 40
1.0
 40
1.0
 40
1.0
 40
1.0
 10
279.4842555277635
 20
635.4264449403137
 30
0.0
 10
279.5005283880255
 20
635.4267147676998
 30
0.0
 10
279.538480983744
 20
635.4273440762255
 30
0.0
 10
279.5897031788961
 20
635.4032752628383
 30
0.0
 10
279.6266773377145
 20
635.375804114074
 30
0.0
 10
279.6404906850066
 20
635.3562453527526
 30
0.0
 10
279.6441896908575
 20
635.3510078117698
 30
0.0
  0
SPLINE
  5
10C8
330
A
100
AcDbEntity
  8
MODEL
  6
Continuous
100
AcDbSpline
210
0.0
220
0.0
230
1.0
 70
     8
 71
     3
 72
    10
 73
     6
 74
     0
 42
0.000000001
 43
0.00000001
 40
0.0
 40
0.0
 40
0.0
 40
0.0
 40
0.4093152975145998
 40
0.9504710789990619
 40
1.0
 40
1.0
 40
1.0
 40
1.0
 10
279.6120478861624
 20
651.4773648307174
 30
0.0
 10
279.5978313167284
 20
651.4662488179378
 30
0.0
 10
279.5648190199211
 20
651.4404363239388
 30
0.0
 10
279.5190268705733
 20
651.4261662111552
 30
0.0
 10
279.4931735547013
 20
651.4302478410067
 30
0.0
 10
279.4910057537843
 20
651.4305900857299
 30
0.0
  0
SPLINE
  5
10C9
330
A
100
AcDbEntity
  8
MODEL
  6
Continuous
100
AcDbSpline
210
0.0
220
0.0
230
1.0
 70
     8
 71
     3
 72
    13
 73
     9
 74
     0
 42
0.000000001
 43
0.00000001
 40
0.0
 40
0.0
 40
0.0
 40
0.0
 40
0.0913645005738661
 40
0.3717635147790572
 40
0.5952311878392158
 40
0.7832345571681937
 40
0.9410981256344731
 40
1.0
 40
1.0
 40
1.0
 40
1.0
 10
278.8905932658006
 20
651.4264922664016
 30
0.0
 10
278.8829876858028
 20
651.4274448158982
 30
0.0
 10
278.8520404674171
 20
651.4313207539991
 30
0.0
 10
278.8029670195162
 20
651.4137173517846
 30
0.0
 10
278.7542831340238
 20
651.3822750743358
 30
0.0
 10
278.7228955649812
 20
651.3460574595309
 30
0.0
 10
278.7055684757222
 20
651.316534562943
 30
0.0
 10
278.7001410964233
 20
651.2995871928443
 30
0.0
 10
278.6986663096243
 20
651.2949820682853
 30
0.0
  0
SPLINE
  5
10CA
330
A
100
AcDbEntity
  8
MODEL
  6
Continuous
100
AcDbSpline
210
0.0
220
0.0
230
1.0
 70
     8
 71
     3
 72
    11
 73
     7
 74
     0
 42
0.000000001
 43
0.00000001
 40
0.0
 40
0.0
 40
0.0
 40
0.0
 40
0.2257430752783724
 40
0.518660037428822
 40
0.8270431827643917
 40
1.0
 40
1.0
 40
1.0
 40
1.0
 10
278.7062360995103
 20
635.5469878837913
 30
0.0
 10
278.7139976532037
 20
635.5316775860957
 30
0.0
 10
278.7318303496174
 20
635.4965011379767
 30
0.0
 10
278.7812620737338
 20
635.456072075113
 30
0.0
 10
278.8363623318112
 20
635.4308383574408
 30
0.0
 10
278.8730349768741
 20
635.4321720475826
 30
0.0
 10
278.8862123244096
 20
635.4326512739509
 30
0.0
  0
LINE
  5
10CB
330
A
100
AcDbEntity
  8
MODEL
  6
Continuous
100
AcDbLine
 10
279.4869675391012
 20
651.4293756410926
 30
0.0
 11
278.8869573824697
 21
651.4293756410926
 31
0.0
  0
LINE
  5
10CC
330
A
100
AcDbEntity
  8
MODEL
  6
Continuous
100
AcDbLine
 10
278.8869573824697
 20
635.4293730184883
 30
0.0
 11
279.4869675391012
 21
635.4293730184883
 31
0.0
  0
SPLINE
  5
10CD
330
A
100
AcDbEntity
  8
MODEL
  6
Continuous
100
AcDbSpline
210
0.0
220
0.0
230
1.0
 70
     8
 71
     3
 72
    10
 73
     6
 74
     0
 42
0.000000001
 43
0.00000001
 40
0.0
 40
0.0
 40
0.0
 40
0.0
 40
0.0007176708790071
 40
0.5917683736040563
 40
1.0
 40
1.0
 40
1.0
 40
1.0
 10
426.9938546322871
 20
635.4292389080375
 30
0.0
 10
426.9938838131695
 20
635.429243881308
 30
0.0
 10
427.017945432249
 20
635.4333446806623
 30
0.0
 10
427.0605302650226
 20
635.4188456650912
 30
0.0
 10
427.094558205157
 20
635.3963010203657
 30
0.0
 10
427.1084594630295
 20
635.3870909736007
 30
0.0
  0
SPLINE
  5
10CE
330
A
100
AcDbEntity
  8
MODEL
  6
Continuous
100
AcDbSpline
210
0.0
220
0.0
230
1.0
 70
     8
 71
     3
 72
    11
 73
     7
 74
     0
 42
0.000000001
 43
0.00000001
 40
0.0
 40
0.0
 40
0.0
 40
0.0
 40
0.0536174611680426
 40
0.5013433654441088
 40
0.9519995097489148
 40
1.0
 40
1.0
 40
1.0
 40
1.0
 10
427.1288451828648
 20
651.490090422377
 30
0.0
 10
427.1271317547423
 20
651.4878078282035
 30
0.0
 10
427.1111105593534
 20
651.4664647168389
 30
0.0
 10
427.0641961556723
 20
651.4433695816334
 30
0.0
 10
427.0145103515049
 20
651.4255686669791
 30
0.0
 10
426.9883461214456
 20
651.4302511139471
 30
0.0
 10
426.9858275630165
 20
651.4307018444389
 30
0.0
  0
SPLINE
  5
10CF
330
A
100
AcDbEntity
  8
MODEL
  6
Continuous
100
AcDbSpline
210
0.0
220
0.0
230
1.0
 70
     8
 71
     3
 72
    10
 73
     6
 74
     0
 42
0.000000001
 43
0.00000001
 40
0.0
 40
0.0
 40
0.0
 40
0.0
 40
0.3655316085993113
 40
0.7293968411662276
 40
0.9999999999999999
 40
0.9999999999999999
 40
0.9999999999999999
 40
0.9999999999999999
 10
426.3822974727148
 20
651.4266263768524
 30
0.0
 10
426.3619076308166
 20
651.425397958997
 30
0.0
 10
426.321220899704
 20
651.422946723366
 30
0.0
 10
426.2707258989442
 20
651.3957366291962
 30
0.0
 10
426.2463242445599
 20
651.370420661238
 30
0.0
 10
426.2359168470491
 20
651.3596233055442
 30
0.0
  0
SPLINE
  5
10D0
330
A
100
AcDbEntity
  8
MODEL
  6
Continuous
100
AcDbSpline
210
0.0
220
0.0
230
1.0
 70
     8
 71
     3
 72
    12
 73
     8
 74
     0
 42
0.000000001
 43
0.00000001
 40
0.0
 40
0.0
 40
0.0
 40
0.0
 40
0.0520677055657879
 40
0.3516973094272209
 40
0.6239971646453203
 40
0.9092684117311479
 40
1.0
 40
1.0
 40
1.0
 40
1.0
 10
426.1994774543334
 20
635.5623211786598
 30
0.0
 10
426.2006710152853
 20
635.5582629080722
 30
0.0
 10
426.2087330600946
 20
635.5308508523445
 30
0.0
 10
426.2413019664743
 20
635.4864825831581
 30
0.0
 10
426.2997164407391
 20
635.4457822493406
 30
0.0
 10
426.3535064706246
 20
635.4270931832704
 30
0.0
 10
426.3847210567335
 20
635.4312646871182
 30
0.0
 10
426.3922533110369
 20
635.4322712943405
 30
0.0
  0
LINE
  5
10D1
330
A
100
AcDbEntity
  8
MODEL
  6
Continuous
100
AcDbLine
 10
426.9869451501061
 20
651.4293756410926
 30
0.0
 11
426.3869447723616
 21
651.4293756410926
 31
0.0
  0
LINE
  5
10D2
330
A
100
AcDbEntity
  8
MODEL
  6
Continuous
100
AcDbLine
 10
426.3869447723616
 20
635.4293730184883
 30
0.0
 11
426.9869451501061
 21
635.4293730184883
 31
0.0
  0
LINE
  5
10D3
330
A
100
AcDbEntity
  8
MODEL
  6
Continuous
100
AcDbLine
 10
278.6927505486301
 20
703.029375530824
 30
0.0
 11
279.689966058045
 21
703.029375530824
 31
0.0
  0
LINE
  5
10D4
330
A
100
AcDbEntity
  8
MODEL
  6
Continuous
100
AcDbLine
 10
279.689966058045
 20
712.8293756470529
 30
0.0
 11
278.6927505486301
 21
712.8293756470529
 31
0.0
  0
LINE
  5
10D5
330
A
100
AcDbEntity
  8
MODEL
  6
Continuous
100
AcDbLine
 10
558.6899354212571
 20
712.8293756470529
 30
0.0
 11
557.6903953306962
 21
712.8293756470529
 31
0.0
  0
LINE
  5
10D6
330
A
100
AcDbEntity
  8
MODEL
  6
Continuous
100
AcDbLine
 10
557.6963259928518
 20
703.029375530824
 30
0.0
 11
558.6899354212571
 21
703.029375530824
 31
0.0
  0
LINE
  5
10D7
330
A
100
AcDbEntity
  8
MODEL
  6
Continuous
100
AcDbLine
 10
411.1899545506228
 20
712.8293756470529
 30
0.0
 11
410.1904149257236
 21
712.8293756470529
 31
0.0
  0
LINE
  5
10D8
330
A
100
AcDbEntity
  8
MODEL
  6
Continuous
100
AcDbLine
 10
410.196329755395
 20
703.029375530824
 30
0.0
 11
411.1899545506228
 21
703.029375530824
 31
0.0
  0
LINE
  5
10D9
330
A
100
AcDbEntity
  8
MODEL
  6
Continuous
100
AcDbLine
 10
426.1927295566195
 20
703.029375530824
 30
0.0
 11
427.1899529822756
 21
703.029375530824
 31
0.0
  0
LINE
  5
10DA
330
A
100
AcDbEntity
  8
MODEL
  6
Continuous
100
AcDbLine
 10
427.1899529822756
 20
712.8293756470529
 30
0.0
 11
426.1927295566195
 21
712.8293756470529
 31
0.0
  0
LINE
  5
10DB
330
A
100
AcDbEntity
  8
MODEL
  6
Continuous
100
AcDbLine
 10
411.1927312888795
 20
632.929375402674
 30
0.0
 11
411.1927312888795
 21
719.9293759260773
 31
0.0
  0
LINE
  5
10DC
330
A
100
AcDbEntity
  8
MODEL
  6
Continuous
100
AcDbLine
 10
411.1927312888795
 20
632.929375402674
 30
0.0
 11
411.1811619341959
 21
632.929375402674
 31
0.0
  0
LINE
  5
10DD
330
A
100
AcDbEntity
  8
MODEL
  6
Continuous
100
AcDbLine
 10
411.1811619341959
 20
632.929375402674
 30
0.0
 11
411.1811619341959
 21
641.0279329941123
 31
0.0
  0
LINE
  5
10DE
330
A
100
AcDbEntity
  8
MODEL
  6
Continuous
100
AcDbLine
 10
411.1811619341959
 20
645.8308231160491
 30
0.0
 11
411.1811619341959
 21
703.029375530824
 31
0.0
  0
LINE
  5
10DF
330
A
100
AcDbEntity
  8
MODEL
  6
Continuous
100
AcDbLine
 10
411.1811619341959
 20
712.8293756470529
 30
0.0
 11
411.1811619341959
 21
719.9293759260773
 31
0.0
  0
LWPOLYLINE
  5
10E0
330
A
100
AcDbEntity
  8
MODEL
  6
Continuous
100
AcDbPolyline
 90
       14
 70
   128
 43
0.0
 10
411.1885664143254
 20
643.4293743297904
 10
411.1885370776643
 20
642.7669953629821
 10
411.1884499990035
 20
642.1285551116317
 10
411.1883089036335
 20
641.5371354744285
 10
411.1881189138282
 20
641.0140972659439
 10
411.1878860831846
 20
640.5783575103134
 10
411.187619259267
 20
640.2456667349189
 10
411.1873282209624
 20
640.0280352756828
 10
411.1870236784805
 20
639.9333383962959
 10
411.18671587637
 20
639.9650033638328
 10
411.1864169218236
 20
640.121875338301
 10
411.1861365937282
 20
640.3982844278663
 10
411.1858860679561
 20
640.7842543051094
 10
411.1857677899886
 20
641.0290803835243
  0
LWPOLYLINE
  5
10E1
330
A
100
AcDbEntity
  8
MODEL
  6
Continuous
100
AcDbPolyline
 90
       14
 70
   128
 43
0.0
 10
411.1857677899886
 20
645.8296682760566
 10
411.1858860679561
 20
646.0745018050521
 10
411.1861365937282
 20
646.4604642317146
 10
411.1864169218236
 20
646.7368807718605
 10
411.18671587637
 20
646.8937527463287
 10
411.1870236784805
 20
646.925410263285
 10
411.1873282209624
 20
646.8307133838981
 10
411.187619259267
 20
646.6130893752426
 10
411.1878860831846
 20
646.2803911492675
 10
411.1881189138282
 20
645.844651393637
 10
411.1883089036335
 20
645.321620635733
 10
411.1884499990035
 20
644.7301935479492
 10
411.1885370776643
 20
644.0917532965988
 10
411.1885664143254
 20
643.4293743297904
  0
LINE
  5
10E2
330
A
100
AcDbEntity
  8
MODEL
  6
Continuous
100
AcDbLine
 10
426.1927295566195
 20
632.929375402674
 30
0.0
 11
426.1927295566195
 21
719.9293759260773
 31
0.0
  0
LINE
  5
10E3
330
A
100
AcDbEntity
  8
MODEL
  6
Continuous
100
AcDbLine
 10
426.1927295566195
 20
632.929375402674
 30
0.0
 11
411.1927312888795
 21
632.929375402674
 31
0.0
  0
LINE
  5
10E4
330
A
100
AcDbEntity
  8
MODEL
  6
Continuous
100
AcDbLine
 10
573.6927076332861
 20
632.929375402674
 30
0.0
 11
573.6927076332861
 21
722.9293759521544
 31
0.0
  0
LINE
  5
10E5
330
A
100
AcDbEntity
  8
MODEL
  6
Continuous
100
AcDbLine
 10
573.6927076332861
 20
632.929375402674
 30
0.0
 11
558.6927219384008
 21
632.929375402674
 31
0.0
  0
LINE
  5
10E6
330
A
100
AcDbEntity
  8
MODEL
  6
Continuous
100
AcDbLine
 10
558.6927219384008
 20
632.929375402674
 30
0.0
 11
558.6927219384008
 21
722.9293759521544
 31
0.0
  0
LINE
  5
10E7
330
A
100
AcDbEntity
  8
MODEL
  6
Continuous
100
AcDbLine
 10
573.6927076332861
 20
722.9293759521544
 30
0.0
 11
558.6927219384008
 21
722.9293759521544
 31
0.0
  0
LINE
  5
10E8
330
A
100
AcDbEntity
  8
MODEL
  6
Continuous
100
AcDbLine
 10
558.6917831652456
 20
719.9293759260773
 30
0.0
 11
558.6917831652456
 21
722.9293759521544
 31
0.0
  0
LINE
  5
10E9
330
A
100
AcDbEntity
  8
MODEL
  6
Continuous
100
AcDbLine
 10
558.6927219384008
 20
722.9293759521544
 30
0.0
 11
558.6917831652456
 21
722.9293759521544
 31
0.0
  0
LINE
  5
10EA
330
A
100
AcDbEntity
  8
MODEL
  6
Continuous
100
AcDbLine
 10
558.6927219384008
 20
632.929375402674
 30
0.0
 11
558.6811437361532
 21
632.929375402674
 31
0.0
  0
LINE
  5
10EB
330
A
100
AcDbEntity
  8
MODEL
  6
Continuous
100
AcDbLine
 10
558.6811437361532
 20
632.929375402674
 30
0.0
 11
558.6811437361532
 21
641.0279329941123
 31
0.0
  0
LINE
  5
10EC
330
A
100
AcDbEntity
  8
MODEL
  6
Continuous
100
AcDbLine
 10
558.6811437361532
 20
645.8308231160491
 30
0.0
 11
558.6811437361532
 21
703.029375530824
 31
0.0
  0
LINE
  5
10ED
330
A
100
AcDbEntity
  8
MODEL
  6
Continuous
100
AcDbLine
 10
558.6811437361532
 20
712.8293756470529
 30
0.0
 11
558.6811437361532
 21
719.9293759260773
 31
0.0
  0
LINE
  5
10EE
330
A
100
AcDbEntity
  8
MODEL
  6
Continuous
100
AcDbLine
 10
558.6913510315705
 20
719.9293759260773
 30
0.0
 11
558.6917831652456
 21
719.9293759260773
 31
0.0
  0
ARC
  5
10EF
330
A
100
AcDbEntity
  8
MODEL
  6
Continuous
100
AcDbCircle
 10
1052.351727232011
 20
645.8510717224241
 30
0.0
 40
493.6659795010349
100
AcDbArc
 50
179.874850162574
 51
180.0024841232646
  0
LWPOLYLINE
  5
10F0
330
A
100
AcDbEntity
  8
MODEL
  6
Continuous
100
AcDbPolyline
 90
       23
 70
   128
 43
0.0
 10
558.6857481949621
 20
641.0290803835243
 10
558.6859270088964
 20
640.6781878397315
 10
558.6861952297979
 20
640.3184514567703
 10
558.6864783518602
 20
640.0711517855972
 10
558.6867763750845
 20
639.945222072348
 10
558.6870892994696
 20
639.945222072348
 10
558.687387322693
 20
640.0711517855972
 10
558.6876704447561
 20
640.3184514567703
 10
558.6879386656576
 20
640.6781878397315
 10
558.6881621830755
 20
641.1373596713394
 10
558.6883260958482
 20
641.6793745086044
 10
558.6884602062989
 20
642.2846373245567
 10
558.6885347121049
 20
642.9312732145637
 10
558.6885496132661
 20
643.5959097072929
 10
558.6885049097825
 20
644.2545335814804
 10
558.6884006016542
 20
644.8833253309577
 10
558.6882515900427
 20
645.4595755860656
 10
558.6880429737855
 20
645.9624450728744
 10
558.6878045552069
 20
646.3737618253082
 10
558.6875363343054
 20
646.6786619350761
 10
558.687238311081
 20
646.8661259934753
 10
558.686925386696
 20
646.9293739721626
 10
558.686925386696
 20
646.9293739721626
  0
LINE
  5
10F1
330
A
100
AcDbEntity
  8
MODEL
  6
Continuous
100
AcDbLine
 10
557.69118509224
 20
712.1408293098658
 30
0.0
 11
427.1912000232035
 21
712.1408293098658
 31
0.0
  0
LWPOLYLINE
  5
10F2
330
A
100
AcDbEntity
  8
MODEL
  6
Continuous
100
AcDbPolyline
 90
       50
 70
   128
 43
0.0
 10
557.69118509224
 20
712.1408293098658
 10
557.6922579758459
 20
710.5922326520532
 10
557.6932861559683
 20
708.9405059889406
 10
557.6942845337678
 20
707.1890682056993
 10
557.6952382080842
 20
705.3415440097898
 10
557.6961620800782
 20
703.4017574117034
 10
557.6970263474275
 20
701.3737224117368
 10
557.6978608124543
 20
699.2616355494112
 10
557.6986505739981
 20
697.0698703155368
 10
557.6993956320573
 20
694.8029603884071
 10
557.7000810854727
 20
692.4655977711528
 10
557.7007218354036
 20
690.0626216158718
 10
557.7013178818513
 20
687.599001459822
 10
557.7018543236543
 20
685.0798409507125
 10
557.7023460619737
 20
682.5103480443805
 10
557.7027781956483
 20
679.8958461806625
 10
557.7031507246782
 20
677.2417407557815
 10
557.7034636490632
 20
674.5535302982181
 10
557.7037318699647
 20
671.8367729410976
 10
557.7039404862214
 20
669.0970938727706
 10
557.7040745966722
 20
666.3401629850715
 10
557.7041640036393
 20
663.5716874227375
 10
557.7041938059622
 20
660.7973929569572
 10
557.7041640036393
 20
658.0230277106613
 10
557.7040894978334
 20
655.254324905619
 10
557.7039404862214
 20
652.4970140383094
 10
557.7037318699647
 20
649.756817154631
 10
557.7034785502249
 20
647.0393892452568
 10
557.7031507246782
 20
644.3503554985374
 10
557.7027781956483
 20
641.6952889487594
 10
557.7023609631353
 20
639.0796806738227
 10
557.7018692248159
 20
636.5089472458213
 10
557.701332783013
 20
633.9884009287208
 10
557.7007516377264
 20
631.5232645795196
 10
557.7001108877946
 20
629.118634395346
 10
557.699410533219
 20
626.7794948146194
 10
557.69868037632
 20
624.5106812641471
 10
557.6978906147772
 20
622.3168876097053
 10
557.6970561497499
 20
620.2026661560386
 10
557.6961769812394
 20
618.1723754927963
 10
557.6952680104066
 20
616.2302326485961
 10
557.694299434929
 20
614.3802460357994
 10
557.6933159582902
 20
612.6262452528327
 10
557.6922728770066
 20
610.9718661830276
 10
557.6912148945619
 20
609.4205286428779
 10
557.690112208634
 20
607.975443832621
 10
557.6889946215445
 20
606.6396068856567
 10
557.6878323309713
 20
605.415774516806
 10
557.6866700403982
 20
604.3064873740524
 10
557.6854630463415
 20
603.3140327856391
  0
SPLINE
  5
10F3
330
A
100
AcDbEntity
  8
MODEL
  6
Continuous
100
AcDbSpline
210
0.0
220
0.0
230
1.0
 70
     8
 71
     3
 72
    17
 73
    13
 74
     0
 42
0.000000001
 43
0.00000001
 40
0.0
 40
0.0
 40
0.0
 40
0.0
 40
0.1070602265183256
 40
0.2141194557081532
 40
0.3211840715522535
 40
0.4282466240967654
 40
0.5351855874358558
 40
0.6421218436822536
 40
0.7485570941455416
 40
0.8549952263103747
 40
0.9274964519765061
 40
1.0
 40
1.0
 40
1.0
 40
1.0
 10
547.6809724324037
 20
600.7282268330902
 30
0.0
 10
548.2430206711595
 20
600.7330821593827
 30
0.0
 10
549.3671119128619
 20
600.7427927667376
 30
0.0
 10
551.0065807957915
 20
600.8220893629224
 30
0.0
 10
552.5498587250038
 20
600.9532078663489
 30
0.0
 10
553.9573327916339
 20
601.1443094335319
 30
0.0
 10
555.1824785139286
 20
601.401337618093
 30
0.0
 10
556.1968638915985
 20
601.7254952126799
 30
0.0
 10
556.9654648587928
 20
602.1210309994973
 30
0.0
 10
557.4198746881837
 20
602.5336074963819
 30
0.0
 10
557.6478560895141
 20
602.9361764787394
 30
0.0
 10
557.6729272602213
 20
603.1880793385363
 30
0.0
 10
557.6854630463415
 20
603.3140327856391
 30
0.0
  0
LINE
  5
10F4
330
A
100
AcDbEntity
  8
MODEL
  6
Continuous
100
AcDbLine
 10
547.6809724324037
 20
600.7282268330902
 30
0.0
 11
437.1809887789775
 21
600.7282268330902
 31
0.0
  0
SPLINE
  5
10F5
330
A
100
AcDbEntity
  8
MODEL
  6
Continuous
100
AcDbSpline
210
0.0
220
0.0
230
1.0
 70
     8
 71
     3
 72
    17
 73
    13
 74
     0
 42
0.000000001
 43
0.00000001
 40
0.0
 40
0.0
 40
0.0
 40
0.0
 40
0.1069723393622372
 40
0.2139352296949414
 40
0.3209517653467012
 40
0.4279677308251058
 40
0.5342322097735712
 40
0.6404992449401119
 40
0.7470835323089499
 40
0.8536686972317039
 40
0.9268343821186348
 40
1.0
 40
1.0
 40
1.0
 40
1.0
 10
427.185477045982
 20
603.3140327856391
 30
0.0
 10
427.2124569402956
 20
603.1295948530243
 30
0.0
 10
427.2664143457475
 20
602.7607352794781
 30
0.0
 10
427.6940866686093
 20
602.275383212732
 30
0.0
 10
428.3752846417085
 20
601.8552389197363
 30
0.0
 10
429.304649458282
 20
601.505274730294
 30
0.0
 10
430.4573313745675
 20
601.227141825187
 30
0.0
 10
431.7936567637446
 20
601.0141128256397
 30
0.0
 10
433.2857042997268
 20
600.8626683992394
 30
0.0
 10
434.719867365229
 20
600.7773372323896
 30
0.0
 10
436.0292750196224
 20
600.7350379670344
 30
0.0
 10
436.7970843097198
 20
600.7304972103785
 30
0.0
 10
437.1809887789775
 20
600.7282268330902
 30
0.0
  0
LWPOLYLINE
  5
10F6
330
A
100
AcDbEntity
  8
MODEL
  6
Continuous
100
AcDbPolyline
 90
       50
 70
   128
 43
0.0
 10
427.185477045982
 20
603.3140327856391
 10
427.1866765894586
 20
604.3064873740524
 10
427.1878537811924
 20
605.415774516806
 10
427.1890067585402
 20
606.6396068856567
 10
427.1901317962099
 20
607.975443832621
 10
427.1912279628807
 20
609.4205286428779
 10
427.1922933959056
 20
610.9718661830276
 10
427.1933243699957
 20
612.6262452528327
 10
427.1943190225054
 20
614.3802460357994
 10
427.1952764221126
 20
616.2302326485961
 10
427.1961937748481
 20
618.1723754927963
 10
427.1970692180682
 20
620.2026661560386
 10
427.1979008891274
 20
622.3168876097053
 10
427.1986878567034
 20
624.5106812641471
 10
427.1994273268272
 20
626.7794948146194
 10
427.200118368178
 20
629.118634395346
 10
427.2007591181089
 20
631.5232645795196
 10
427.2013486452986
 20
633.9884009287208
 10
427.2018860184241
 20
636.5089472458213
 10
427.2023693748404
 20
639.0796806738227
 10
427.2027987145473
 20
641.6952889487594
 10
427.2031721749001
 20
644.3503554985374
 10
427.2034897558976
 20
647.0393892452568
 10
427.203749594896
 20
649.756817154631
 10
427.2039526232172
 20
652.4970140383094
 10
427.2040979095389
 20
655.254324905619
 10
427.2041845225383
 20
658.0230277106613
 10
427.2042124622155
 20
660.7973929569572
 10
427.2041826598931
 20
663.5716874227375
 10
427.204094184249
 20
666.3401629850715
 10
427.2039479666043
 20
669.0970938727706
 10
427.2037440069605
 20
671.8367729410976
 10
427.2034813739945
 20
674.5535302982181
 10
427.2031628616739
 20
677.2417407557815
 10
427.2027884699989
 20
679.8958461806625
 10
427.2023572676469
 20
682.5103480443805
 10
427.2018729799086
 20
685.0798409507125
 10
427.2013337441379
 20
687.599001459822
 10
427.2007423543025
 20
690.0626216158718
 10
427.2001006730486
 20
692.4655977711528
 10
427.1994077690531
 20
694.8029603884071
 10
427.1986673676063
 20
697.0698703155368
 10
427.1978794687082
 20
699.2616355494112
 10
427.1970468663264
 20
701.3737224117368
 10
427.1961704917842
 20
703.4017574117034
 10
427.1952522077252
 20
705.3415440097898
 10
427.1942938767959
 20
707.1890682056993
 10
427.193297361641
 20
708.9405059889406
 10
427.1922654562284
 20
710.5922326520532
 10
427.1912000232035
 20
712.1408293098658
  0
LINE
  5
10F7
330
A
100
AcDbEntity
  8
MODEL
  6
Continuous
100
AcDbLine
 10
427.1853941582733
 20
604.3119039461463
 30
0.0
 11
427.185477045982
 21
603.3140327856391
 31
0.0
  0
LWPOLYLINE
  5
10F8
330
A
100
AcDbEntity
  8
MODEL
  6
Continuous
100
AcDbPolyline
 90
       48
 70
   128
 43
0.0
 10
427.1853941582733
 20
604.3119039461463
 10
427.1865955643946
 20
605.315534405455
 10
427.187773687451
 20
606.4384486601203
 10
427.1889266647984
 20
607.6782252714485
 10
427.190051702469
 20
609.0321969315856
 10
427.1911469378167
 20
610.4974653646797
 10
427.1922086455518
 20
612.0708566233963
 10
427.1932368256741
 20
613.7490030453056
 10
427.1942268215705
 20
615.5282910988182
 10
427.1951777019192
 20
617.4048837349266
 10
427.1960876040746
 20
619.3747576401084
 10
427.196953734069
 20
621.4336659834236
 10
427.1977751605798
 20
623.5771756694168
 10
427.1985500209619
 20
625.8006822392791
 10
427.1992755212475
 20
628.0994024202674
 10
427.1999516614367
 20
630.4683890268653
 10
427.2005756475617
 20
632.9025384113639
 10
427.2011465483004
 20
635.3966277167648
 10
427.2016643636514
 20
637.9452850744575
 10
427.2021262996484
 20
640.5430268571228
 10
427.2025323562914
 20
643.1842651293128
 10
427.2028806709338
 20
645.8633150980323
 10
427.2031712435771
 20
648.5744100138992
 10
427.2034031428982
 20
651.3117309734672
 10
427.2035763688971
 20
654.0693771169036
 10
427.2036909215738
 20
656.8414177820533
 10
427.2037449382835
 20
659.621896229729
 10
427.2037393503481
 20
662.4048221931308
 10
427.2036741577674
 20
665.1842128560394
 10
427.2035493605429
 20
667.9540854022354
 10
427.2033658899952
 20
670.7084868178218
 10
427.2031228148032
 20
673.4414864406436
 10
427.2028219976116
 20
676.1472057626098
 10
427.2024625070983
 20
678.8198258802742
 10
427.2020462059074
 20
681.4535949454158
 10
427.2015749566842
 20
684.0428467914909
 10
427.201047828107
 20
686.5820121095031
 10
427.2004666828204
 20
689.0656258985847
 10
427.1998324521471
 20
691.4883498177379
 10
427.1991479300548
 20
693.8449684605449
 10
427.1984131165434
 20
696.1304117069095
 10
427.1976298742582
 20
698.3397640362829
 10
427.1968000658442
 20
700.4682719782442
 10
427.1959255539466
 20
702.5113571510166
 10
427.1950082012111
 20
704.4646218494028
 10
427.1940498702818
 20
706.3238676712364
 10
427.1930524238044
 20
708.0850908607691
 10
427.192074535101
 20
709.6596853882521
  0
ARC
  5
10F9
330
A
100
AcDbEntity
  8
MODEL
  6
Continuous
100
AcDbCircle
 10
398.7525468259739
 20
712.282812385091
 30
0.0
 40
158.9387016844185
100
AcDbArc
 50
359.9488165439357
 51
0.2330800374534966
  0
LWPOLYLINE
  5
10FA
330
A
100
AcDbEntity
  8
MODEL
  6
Continuous
100
AcDbPolyline
 90
        6
 70
   128
 43
0.0
 10
427.1912000232035
 20
712.1408293098658
 10
427.1908731289798
 20
712.5166719854323
 10
427.1905229516913
 20
712.7751438022107
 10
427.1901578732425
 20
712.9096323699204
 10
427.1897881381799
 20
712.9166973829716
 10
427.1894919776012
 20
712.8293756470529
  0
LINE
  5
10FB
330
A
100
AcDbEntity
  8
MODEL
  6
Continuous
100
AcDbLine
 10
427.1912829109122
 20
703.838471330747
 30
0.0
 11
427.1910174839784
 21
704.6566531137079
 31
0.0
  0
LINE
  5
10FC
330
A
100
AcDbEntity
  8
MODEL
  6
Continuous
100
AcDbLine
 10
410.1912037559439
 20
712.1378481463045
 30
0.0
 11
279.6912177555853
 21
712.1378481463045
 31
0.0
  0
LWPOLYLINE
  5
10FD
330
A
100
AcDbEntity
  8
MODEL
  6
Continuous
100
AcDbPolyline
 90
       50
 70
   128
 43
0.0
 10
410.1912037559439
 20
712.1378481463045
 10
410.1922691889692
 20
710.586707115218
 10
410.1933001630593
 20
708.9325171038953
 10
410.194294815569
 20
707.1787016541213
 10
410.1952522151757
 20
705.3288910612911
 10
410.1961695679117
 20
703.3869121298641
 10
410.1970450111323
 20
701.3567853793949
 10
410.197877613514
 20
699.242711074695
 10
410.1986636497666
 20
697.0490645692199
 10
410.1994031198913
 20
694.7803888544887
 10
410.2000941612412
 20
692.4413740709871
 10
410.2007358424955
 20
690.0368649587482
 10
410.2013253696853
 20
687.5718366429656
 10
410.2018627428104
 20
685.0513909087032
 10
410.2023460992266
 20
682.4807394370883
 10
410.2027754389339
 20
679.8652131185382
 10
410.2031488992859
 20
677.2102136239856
 10
410.2034664802839
 20
674.5212432072013
 10
410.2037272506047
 20
671.8038600013107
 10
410.203930278926
 20
669.0636966452449
 10
410.2040746339255
 20
666.3064155802577
 10
410.2041621782471
 20
663.537731401667
 10
410.2041901179243
 20
660.763366155371
 10
410.2041603156019
 20
657.9890679643005
 10
410.2040727712799
 20
655.2205737755149
 10
410.2039256223131
 20
652.463620536074
 10
410.2037216626693
 20
649.7239004895538
 10
410.2034599610263
 20
647.0070984289497
 10
410.2031414487058
 20
644.3188246414512
 10
410.2027661257077
 20
641.6646521613449
 10
410.2023358546783
 20
639.0500720665306
 10
410.2018515669395
 20
636.4804934785217
 10
410.2013123311688
 20
633.9612286612838
 10
410.2007218726569
 20
631.4975004718154
 10
410.2000792600804
 20
629.0944051072448
 10
410.199387287407
 20
626.7569195554107
 10
410.1986468859602
 20
624.4898717925399
 10
410.1978589870621
 20
622.2979631349891
 10
410.1970263846804
 20
620.1857235357612
 10
410.1961500101377
 20
618.1575264856666
 10
410.1952317260796
 20
616.217574112162
 10
410.1942733951503
 20
614.3698748276084
 10
410.193276879995
 20
612.6182507798522
 10
410.1922449745828
 20
610.9663378522247
 10
410.1911795415569
 20
609.4175409600585
 10
410.1900824435645
 20
607.9750787541717
 10
410.1889564745718
 20
606.6419314668029
 10
410.187803497224
 20
605.4208483621925
 10
410.1866253741671
 20
604.3143700883239
 10
410.185425830691
 20
603.3247839734405
  0
SPLINE
  5
10FE
330
A
100
AcDbEntity
  8
MODEL
  6
Continuous
100
AcDbSpline
210
0.0
220
0.0
230
1.0
 70
     8
 71
     3
 72
    17
 73
    13
 74
     0
 42
0.000000001
 43
0.00000001
 40
0.0
 40
0.0
 40
0.0
 40
0.0
 40
0.1070596745494233
 40
0.2141191070514897
 40
0.3211836654964685
 40
0.4282466681095937
 40
0.5351854849866574
 40
0.6421218646183086
 40
0.7485569635422089
 40
0.8549952253220274
 40
0.9274964788706295
 40
1.0
 40
1.0
 40
1.0
 40
1.0
 10
400.1809380107213
 20
600.7496919557899
 30
0.0
 10
400.7429830817625
 20
600.7545199457041
 30
0.0
 10
401.8670719531372
 20
600.7641759146173
 30
0.0
 10
403.5065386875237
 20
600.8429890171725
 30
0.0
 10
405.0498187235432
 20
600.973350882612
 30
0.0
 10
406.4572961238657
 20
601.1634494394717
 30
0.0
 10
407.6824392036831
 20
601.4192102990686
 30
0.0
 10
408.6968267765235
 20
601.7419330898366
 30
0.0
 10
409.4654199484278
 20
602.1358590236897
 30
0.0
 10
409.9198468876309
 20
602.5469135985626
 30
0.0
 10
410.1478087273665
 20
602.9481227458765
 30
0.0
 10
410.1728866655269
 20
603.1992289219885
 30
0.0
 10
410.185425830691
 20
603.3247839734405
 30
0.0
  0
LINE
  5
10FF
330
A
100
AcDbEntity
  8
MODEL
  6
Continuous
100
AcDbLine
 10
400.1809380107213
 20
600.7496919557899
 30
0.0
 11
289.6809562199405
 21
600.7496919557899
 31
0.0
  0
SPLINE
  5
1100
330
A
100
AcDbEntity
  8
MODEL
  6
Continuous
100
AcDbSpline
210
0.0
220
0.0
230
1.0
 70
     8
 71
     3
 72
    17
 73
    13
 74
     0
 42
0.000000001
 43
0.00000001
 40
0.0
 40
0.0
 40
0.0
 40
0.0
 40
0.1069724048142729
 40
0.213935097731882
 40
0.3209517184019571
 40
0.4279677478310921
 40
0.5342317291076618
 40
0.640498647732277
 40
0.747082898057546
 40
0.8536687488532784
 40
0.9268341722694854
 40
1.0
 40
1.0
 40
1.0
 40
1.0
 10
279.6854361050418
 20
603.3247839734405
 30
0.0
 10
279.7124189870453
 20
603.1409300154374
 30
0.0
 10
279.7663823013088
 20
602.7732387913128
 30
0.0
 10
280.1940481741758
 20
602.2896328963847
 30
0.0
 10
280.8752503888002
 20
601.8711198934603
 30
0.0
 10
281.8046170276291
 20
601.5226719837887
 30
0.0
 10
282.9572885571172
 20
601.245855917463
 30
0.0
 10
284.2936123683019
 20
601.0339272941286
 30
0.0
 10
285.7856641490073
 20
600.8833454066668
 30
0.0
 10
287.2198299775289
 20
600.7984968113329
 30
0.0
 10
288.5292411451098
 20
600.7564590335058
 30
0.0
 10
289.2970504878424
 20
600.7519476525168
 30
0.0
 10
289.6809562199405
 20
600.7496919557899
 30
0.0
  0
LWPOLYLINE
  5
1101
330
A
100
AcDbEntity
  8
MODEL
  6
Continuous
100
AcDbPolyline
 90
       50
 70
   128
 43
0.0
 10
279.6854361050418
 20
603.3247839734405
 10
279.6866430990985
 20
604.3143700883239
 10
279.6878202908331
 20
605.4208483621925
 10
279.6889676802448
 20
606.6419314668029
 10
279.6901001684957
 20
607.9750787541717
 10
279.6911879532624
 20
609.4175409600585
 10
279.6922608368684
 20
610.9663378522247
 10
279.6932890169908
 20
612.6182507798522
 10
279.694287394791
 20
614.3698748276084
 10
279.6952410691076
 20
616.217574112162
 10
279.6961649411014
 20
618.1575264856666
 10
279.6970441096116
 20
620.1857235357612
 10
279.6978785746389
 20
622.2979631349891
 10
279.6986534350206
 20
624.4898717925399
 10
279.6993984930807
 20
626.7569195554107
 10
279.7000988476566
 20
629.0944051072448
 10
279.7007395975882
 20
631.4975004718154
 10
279.7013207428747
 20
633.9612286612838
 10
279.7018720858384
 20
636.4804934785217
 10
279.7023489229971
 20
639.0500720665306
 10
279.7027810566715
 20
641.6646521613449
 10
279.7031535857016
 20
644.3188246414512
 10
279.7034814112474
 20
647.0070984289497
 10
279.7037347309881
 20
649.7239004895538
 10
279.7039433472446
 20
652.463620536074
 10
279.7040923588568
 20
655.2205737755149
 10
279.7041817658239
 20
657.9890679643005
 10
279.7042115681461
 20
660.763366155371
 10
279.7041817658239
 20
663.537731401667
 10
279.7040923588568
 20
666.3064155802577
 10
279.7039433472446
 20
669.0636966452449
 10
279.7037347309881
 20
671.8038600013107
 10
279.7034814112474
 20
674.5212432072013
 10
279.7031684868623
 20
677.2102136239856
 10
279.7027959578329
 20
679.8652131185382
 10
279.7023638241578
 20
682.4807394370883
 10
279.7018720858384
 20
685.0513909087032
 10
279.7013356440355
 20
687.5718366429656
 10
279.7007544987489
 20
690.0368649587482
 10
279.700113748818
 20
692.4413740709871
 10
279.6994133942414
 20
694.7803888544887
 10
279.6986832373434
 20
697.0490645692199
 10
279.6978934757997
 20
699.242711074695
 10
279.697059010773
 20
701.3567853793949
 10
279.6961798422628
 20
703.3869121298641
 10
279.6952708714298
 20
705.3288910612911
 10
279.6943022959524
 20
707.1787016541213
 10
279.6933188193136
 20
708.9325171038953
 10
279.6922757380298
 20
710.586707115218
 10
279.6912177555853
 20
712.1378481463045
  0
LINE
  5
1102
330
A
100
AcDbEntity
  8
MODEL
  6
Continuous
100
AcDbLine
 10
279.6853615992361
 20
604.3228562996238
 30
0.0
 11
279.6854361050418
 21
603.3247839734405
 31
0.0
  0
LWPOLYLINE
  5
1103
330
A
100
AcDbEntity
  8
MODEL
  6
Continuous
100
AcDbPolyline
 90
       48
 70
   128
 43
0.0
 10
279.6853615992361
 20
604.3228562996238
 10
279.6865536921314
 20
605.3236182854026
 10
279.6877308838659
 20
606.4437087700218
 10
279.688893174439
 20
607.6807361171096
 10
279.6900107615286
 20
609.0320255682319
 10
279.6911134474567
 20
610.4946713969558
 10
279.6921714299012
 20
612.0655294582695
 10
279.6931996100236
 20
613.7412246391624
 10
279.6941979878238
 20
615.5181434080451
 10
279.6951516621405
 20
617.3924636170715
 10
279.6960606329728
 20
619.3601619527191
 10
279.6969249003223
 20
621.4169990346282
 10
279.6977444641882
 20
623.5585492179245
 10
279.6985193245698
 20
625.7802005932182
 10
279.6992494814685
 20
628.0771847889274
 10
279.6999349348837
 20
630.4445546195358
 10
279.7005458824924
 20
632.8772213384956
 10
279.701127027779
 20
635.3699397370666
 10
279.7016485684205
 20
637.9173602983802
 10
279.7021105044178
 20
640.5139993951171
 10
279.70251283577
 20
643.154261641249
 10
279.7028704636386
 20
645.8324771449417
 10
279.7031535857016
 20
648.542879156813
 10
279.7033920042802
 20
651.2796413228363
 10
279.7035708182145
 20
654.0368776843399
 10
279.7036751263431
 20
656.8086426780075
 10
279.7037347309881
 20
659.5889870152324
 10
279.7037347309881
 20
662.3719241545051
 10
279.7036751263431
 20
665.1514712796062
 10
279.7035410158924
 20
667.9216418490261
 10
279.703362201958
 20
670.6764791235775
 10
279.7031237833787
 20
673.4100561663955
 10
279.7028257601551
 20
676.1164944693893
 10
279.7024681322864
 20
678.789967678532
 10
279.7020508997728
 20
681.424727670893
 10
279.7015740626148
 20
684.0151082799285
 10
279.7010525219732
 20
686.5555290207714
 10
279.7004713766867
 20
689.0405323431343
 10
279.6998455279165
 20
691.4647650048584
 10
279.6991600745014
 20
693.8230190501064
 10
279.6984299176027
 20
696.1102150455564
 10
279.6976401560596
 20
698.3214374706596
 10
279.696805691033
 20
700.4519254044145
 10
279.6959414236835
 20
702.497096739754
 10
279.6950175516897
 20
704.4525519088357
 10
279.6940638773731
 20
706.31408412759
 10
279.6930654995729
 20
708.0776877776235
 10
279.6920969240955
 20
709.6546161994785
  0
ARC
  5
1104
330
A
100
AcDbEntity
  8
MODEL
  6
Continuous
100
AcDbCircle
 10
247.9212159538511
 20
712.2775767012664
 30
0.0
 40
162.2700479612936
100
AcDbArc
 50
359.9506633690777
 51
0.2301436392300371
  0
LWPOLYLINE
  5
1105
330
A
100
AcDbEntity
  8
MODEL
  6
Continuous
100
AcDbPolyline
 90
        6
 70
   128
 43
0.0
 10
279.6912177555853
 20
712.1378481463045
 10
279.6908899300388
 20
712.5144703388659
 10
279.6905472033316
 20
712.773778483316
 10
279.6901746743015
 20
712.909138768956
 10
279.6898021452714
 20
712.9170866758076
 10
279.6895041220478
 20
712.8293756470529
  0
LINE
  5
1106
330
A
100
AcDbEntity
  8
MODEL
  6
Continuous
100
AcDbLine
 10
279.691292261391
 20
703.8352973834127
 30
0.0
 11
279.6910240404895
 21
704.6541124657243
 31
0.0
  0
LWPOLYLINE
  5
1107
330
A
100
AcDbEntity
  8
MODEL
  6
Continuous
100
AcDbPolyline
 90
       25
 70
   128
 43
0.0
 10
410.7873554431487
 20
650.877242915377
 10
410.7878015466624
 20
650.6983023211807
 10
410.788232749014
 20
650.3949891850799
 10
410.7886425309473
 20
649.9724965617507
 10
410.7890234418799
 20
649.4380440637916
 10
410.7893689625555
 20
648.8007810041755
 10
410.7896725737144
 20
648.0716150328964
 10
410.789929618745
 20
647.2630109712928
 10
410.790135441034
 20
646.3888194486946
 10
410.7902872466136
 20
645.4639937803596
 10
410.7903813101937
 20
644.5043515488952
 10
410.7904167004519
 20
643.526313833937
 10
410.7903934173871
 20
642.5466220900863
 10
410.7903105296784
 20
641.5820326731056
 10
410.7901698999692
 20
640.649048619017
 10
410.7899743222285
 20
639.7636365220397
 10
410.7897275217463
 20
638.940950863108
 10
410.7894322924901
 20
638.1950657889694
 10
410.7890951537186
 20
637.5387366936058
 10
410.7887207620436
 20
636.9831990525573
 10
410.7883156367236
 20
636.5379523560852
 10
410.7878881596619
 20
636.2106259987205
 10
410.7874439187938
 20
636.0068153664917
 10
410.7869912960225
 20
635.9299998805374
 10
410.7869559057642
 20
635.9294038340896
  0
LWPOLYLINE
  5
1108
330
A
100
AcDbEntity
  8
MODEL
  6
Continuous
100
AcDbPolyline
 90
       26
 70
   128
 43
0.0
 10
558.2869335167695
 20
650.9293746278137
 10
558.2872911446382
 20
650.887278847441
 10
558.287738179474
 20
650.7199015543312
 10
558.2881852143098
 20
650.427779190287
 10
558.288587545662
 20
650.015911094889
 10
558.2889749758531
 20
649.491345517382
 10
558.289317702561
 20
648.8630604073852
 10
558.2896306269461
 20
648.1418069527
 10
558.2898988478476
 20
647.3399158642143
 10
558.2901074641038
 20
646.4711185619682
 10
558.2902564757162
 20
645.550271503672
 10
558.2903607838441
 20
644.5931401178688
 10
558.2904054873277
 20
643.61609333013
 10
558.2903756850053
 20
642.6358502433151
 10
558.2903011791998
 20
641.6691895649284
 10
558.290167068749
 20
640.7326441333145
 10
558.2899733536531
 20
639.8422401473373
 10
558.289734935074
 20
639.0132140443176
 10
558.2894518130117
 20
638.2597517297119
 10
558.2891090863038
 20
637.5947352573722
 10
558.2887365572744
 20
637.0295565650314
 10
558.2883342259222
 20
636.5738790557235
 10
558.2879169934083
 20
636.2355034873336
 10
558.2874699585725
 20
636.0202189609855
 10
558.2870229237367
 20
635.9316986129135
 10
558.2869484179312
 20
635.929433636412
  0
LINE
  5
1109
330
A
100
AcDbEntity
  8
MODEL
  6
Continuous
100
AcDbLine
 10
558.438448523789
 20
640.9680154249519
 30
0.0
 11
558.4384187214662
 21
640.9672480151504
 31
0.0
  0
LWPOLYLINE
  5
110A
330
A
100
AcDbEntity
  8
MODEL
  6
Continuous
100
AcDbPolyline
 90
       21
 70
   128
 43
0.0
 10
558.6899354212571
 20
712.8293756470529
 10
558.6901887409974
 20
712.799836888954
 10
558.6905463688661
 20
712.6505887210816
 10
558.690889095574
 20
712.3790634870974
 10
558.6912020199591
 20
711.992293603763
 10
558.6914851420213
 20
711.5002973080128
 10
558.691738461762
 20
710.9158150926677
 10
558.6919321768571
 20
710.2539856061784
 10
558.692081188469
 20
709.5319498405307
 10
558.6921705954362
 20
708.7684087530225
 10
558.6922003977586
 20
707.9831371158808
 10
558.6921854965979
 20
707.1964731514901
 10
558.6920960896307
 20
706.4287904724926
 10
558.69196197918
 20
705.6999728158563
 10
558.691768264084
 20
705.0288952962011
 10
558.6915298455049
 20
704.4329382554143
 10
558.6912467234426
 20
703.9275374338478
 10
558.6909337990576
 20
703.525781638965
 10
558.6905910723497
 20
703.2380774692148
 10
558.690233444481
 20
703.071875505194
 10
558.6899354212571
 20
703.029375530824
  0
LWPOLYLINE
  5
110B
330
A
100
AcDbEntity
  8
MODEL
  6
Continuous
100
AcDbPolyline
 90
       21
 70
   128
 43
0.0
 10
411.1899545506228
 20
712.8293756470529
 10
411.1902032137502
 20
712.799836888954
 10
411.1905613072802
 20
712.6505887210816
 10
411.1909040339881
 20
712.3790634870974
 10
411.1912220806469
 20
711.992293603763
 10
411.1915070653547
 20
711.5002973080128
 10
411.1917520031923
 20
710.9158150926677
 10
411.1919508405615
 20
710.2539856061784
 10
411.192097523867
 20
709.5319498405307
 10
411.1921887934793
 20
708.7684087530225
 10
411.1922218554307
 20
707.9831371158808
 10
411.1921967097212
 20
707.1964731514901
 10
411.1921128906895
 20
706.4287904724926
 10
411.1919736579646
 20
705.6999728158563
 10
411.1917822711755
 20
705.0288952962011
 10
411.1915429212738
 20
704.4329382554143
 10
411.1912630588406
 20
703.9275374338478
 10
411.1909492031325
 20
703.525781638965
 10
411.1906092703932
 20
703.2380774692148
 10
411.1902525738467
 20
703.071875505194
 10
411.1899545506228
 20
703.029375530824
  0
LINE
  5
110C
330
A
100
AcDbEntity
  8
MODEL
  6
Continuous
100
AcDbLine
 10
278.6927505486301
 20
632.929375402674
 30
0.0
 11
278.6927505486301
 21
722.9293759521544
 31
0.0
  0
LINE
  5
110D
330
A
100
AcDbEntity
  8
MODEL
  6
Continuous
100
AcDbLine
 10
278.6927505486301
 20
632.929375402674
 30
0.0
 11
263.6927499525834
 21
632.929375402674
 31
0.0
  0
LINE
  5
110E
330
A
100
AcDbEntity
  8
MODEL
  6
Continuous
100
AcDbLine
 10
263.6927499525834
 20
632.929375402674
 30
0.0
 11
263.6927499525834
 21
722.9293759521544
 31
0.0
  0
LINE
  5
110F
330
A
100
AcDbEntity
  8
MODEL
  6
Continuous
100
AcDbLine
 10
278.6927505486301
 20
722.9293759521544
 30
0.0
 11
263.6927499525834
 21
722.9293759521544
 31
0.0
  0
LINE
  5
1110
330
A
100
AcDbEntity
  8
MODEL
  6
Continuous
100
AcDbLine
 10
263.6927499525834
 20
632.929375402674
 30
0.0
 11
263.6811717503358
 21
632.929375402674
 31
0.0
  0
LINE
  5
1111
330
A
100
AcDbEntity
  8
MODEL
  6
Continuous
100
AcDbLine
 10
263.6811717503358
 20
632.929375402674
 30
0.0
 11
263.6811717503358
 21
722.9293759521544
 31
0.0
  0
LINE
  5
1112
330
A
100
AcDbEntity
  8
MODEL
  6
Continuous
100
AcDbLine
 10
263.6927499525834
 20
722.9293759521544
 30
0.0
 11
263.6811717503358
 21
722.9293759521544
 31
0.0
  0
LINE
  5
1113
330
A
100
AcDbEntity
  8
MODEL
  6
Continuous
100
AcDbLine
 10
557.9856767409135
 20
722.9293759521544
 30
0.0
 11
279.3856694453054
 21
722.9293759521544
 31
0.0
  0
LINE
  5
1114
330
A
100
AcDbEntity
  8
MODEL
  6
Continuous
100
AcDbLine
 10
557.9856767409135
 20
719.9293759260773
 30
0.0
 11
557.9856767409135
 21
722.9293759521544
 31
0.0
  0
LINE
  5
1115
330
A
100
AcDbEntity
  8
MODEL
  6
Continuous
100
AcDbLine
 10
557.9856767409135
 20
719.9293759260773
 30
0.0
 11
279.3856694453054
 21
719.9293759260773
 31
0.0
  0
LINE
  5
1116
330
A
100
AcDbEntity
  8
MODEL
  6
Continuous
100
AcDbLine
 10
279.3856694453054
 20
719.9293759260773
 30
0.0
 11
279.3856694453054
 21
722.9293759521544
 31
0.0
  0
LINE
  5
1117
330
A
100
AcDbEntity
  8
MODEL
  6
Continuous
100
AcDbLine
 10
278.6927505486301
 20
719.9293759260773
 30
0.0
 11
279.3856694453054
 21
719.9293759260773
 31
0.0
  0
LINE
  5
1118
330
A
100
AcDbEntity
  8
MODEL
  6
Continuous
100
AcDbLine
 10
278.6927505486301
 20
722.9293759521544
 30
0.0
 11
279.3856694453054
 21
722.9293759521544
 31
0.0
  0
LINE
  5
1119
330
A
100
AcDbEntity
  8
MODEL
  6
Continuous
100
AcDbLine
 10
558.6913510315705
 20
719.9293759260773
 30
0.0
 11
557.9856767409135
 21
719.9293759260773
 31
0.0
  0
LINE
  5
111A
330
A
100
AcDbEntity
  8
MODEL
  6
Continuous
100
AcDbLine
 10
558.6917831652456
 20
722.9293759521544
 30
0.0
 11
557.9856767409135
 21
722.9293759521544
 31
0.0
  0
LINE
  5
111B
330
A
100
AcDbEntity
  8
MODEL
  6
Continuous
100
AcDbLine
 10
427.1912000232035
 20
712.1408293098658
 30
0.0
 11
427.1911748774939
 21
712.0566004962174
 31
0.0
  0
LINE
  5
111C
330
A
100
AcDbEntity
  8
MODEL
  6
Continuous
100
AcDbLine
 10
279.6912177555853
 20
712.1378481463045
 30
0.0
 11
279.6911879532624
 21
712.053678937301
 31
0.0
  0
LINE
  5
111D
330
A
100
AcDbEntity
  8
MODEL
  6
Continuous
100
AcDbLine
 10
410.2873823695475
 20
651.3737719580978
 30
0.0
 11
410.2869465105825
 21
651.4293756410926
 31
0.0
  0
LWPOLYLINE
  5
111E
330
A
100
AcDbEntity
  8
MODEL
  6
Continuous
100
AcDbPolyline
 90
       26
 70
   128
 43
0.0
 10
410.2869465105825
 20
635.4293730184883
 10
410.2869753815819
 20
635.4296114370674
 10
410.2874391802241
 20
635.5003994033187
 10
410.287894596963
 20
635.6962379143089
 10
410.2883360438634
 20
636.0140275285095
 10
410.288755139022
 20
636.4487614557594
 10
410.2891453631812
 20
636.99359261249
 10
410.2895011284043
 20
637.6399081275314
 10
410.289816846757
 20
638.377530507788
 10
410.2900878616263
 20
639.1948293969482
 10
410.2903085850764
 20
640.078900389418
 10
410.2904762231399
 20
641.0158183500617
 10
410.2905879818488
 20
641.9907938763946
 10
410.2906429298812
 20
642.9884638712257
 10
410.2906392045904
 20
643.9930778071731
 10
410.2905777373005
 20
644.988810651049
 10
410.2904585280114
 20
645.9599416777938
 10
410.2902843706895
 20
646.8911673948616
 10
410.2900571279813
 20
647.7678027078956
 10
410.2897805251766
 20
648.5760118887275
 10
410.289460150211
 20
649.3030618951171
 10
410.2890997283746
 20
649.9374788329452
 10
410.288704847603
 20
650.46925657247
 10
410.2882829584767
 20
650.8900132105201
 10
410.2878396489311
 20
651.1931102797836
 10
410.2873823695475
 20
651.3737719580978
  0
LWPOLYLINE
  5
111F
330
A
100
AcDbEntity
  8
MODEL
  6
Continuous
100
AcDbPolyline
 90
       16
 70
   128
 43
0.0
 10
410.9384397134775
 20
645.8915006444305
 10
410.9384411104613
 20
645.8915006444305
 10
410.9387037434274
 20
645.8242144510597
 10
410.9389524065548
 20
645.6278245971054
 10
410.939173130005
 20
645.3129109070152
 10
410.9393542722453
 20
644.8964532539695
 10
410.9394865200509
 20
644.4009151384681
 10
410.9395619571794
 20
643.8529919907897
 10
410.9395768583411
 20
643.2822402641624
 10
410.9395302922119
 20
642.7194159552902
 10
410.939425052761
 20
642.1948652789443
 10
410.9392667279237
 20
641.7368631884902
 10
410.9390641652637
 20
641.3701083586067
 10
410.938827143668
 20
641.1143746301979
 10
410.9385696329766
 20
640.9834381267875
 10
410.9384392478157
 20
640.9672480151504
  0
LWPOLYLINE
  5
1120
330
A
100
AcDbEntity
  8
MODEL
  6
Continuous
100
AcDbPolyline
 90
       27
 70
   128
 43
0.0
 10
557.78692505291
 20
635.4293730184883
 10
557.7870293610388
 20
635.431854061827
 10
557.7874912970353
 20
635.5198826715797
 10
557.7879383318711
 20
635.7326414511055
 10
557.788385366707
 20
636.0667850897163
 10
557.7887876980592
 20
636.5170460269302
 10
557.7891751282507
 20
637.0763089582771
 10
557.7895327561193
 20
637.735774748072
 10
557.7898456805044
 20
638.4850274846405
 10
557.7900990002443
 20
639.3122505471557
 10
557.7903225176622
 20
640.2044054195732
 10
557.7904864304353
 20
641.1474254057258
 10
557.7905907385637
 20
642.126424245581
 10
557.7906354420472
 20
643.1259792373031
 10
557.790620540886
 20
644.1303175017684
 10
557.7905460350801
 20
645.1235991046279
 10
557.790426825791
 20
646.0901629254669
 10
557.790233110695
 20
647.0147650763839
 10
557.7900095932771
 20
647.8828247711509
 10
557.7897264712144
 20
648.6806478426307
 10
557.7893986456686
 20
649.3956577107757
 10
557.7890261166383
 20
650.0165741965621
 10
557.7886386864477
 20
650.5336072370857
 10
557.7882065527726
 20
650.9385984465927
 10
557.7877595179368
 20
651.2251701280921
 10
557.7872975819403
 20
651.3887923285812
 10
557.78692505291
 20
651.4293756410926
  0
LWPOLYLINE
  5
1121
330
A
100
AcDbEntity
  8
MODEL
  6
Continuous
100
AcDbPolyline
 90
       15
 70
   128
 43
0.0
 10
558.4384187214662
 20
645.8915006444305
 10
558.4385230295945
 20
645.8812113926261
 10
558.438791250496
 20
645.7632687017768
 10
558.4390296690756
 20
645.5195006058067
 10
558.4392382853318
 20
645.1630499288887
 10
558.439402198105
 20
644.7131391689628
 10
558.4395065062333
 20
644.1940274164527
 10
558.4395661108786
 20
643.6336841509193
 10
558.4395512097169
 20
643.0623289272636
 10
558.4394767039114
 20
642.5107624456733
 10
558.4393574946214
 20
642.0087199733108
 10
558.4391786806871
 20
641.5832620189041
 10
558.4389551632692
 20
641.257328920111
 10
558.4387167446905
 20
641.0484965965599
 10
558.438448523789
 20
640.9680154249519
  0
LWPOLYLINE
  5
1122
330
A
100
AcDbEntity
  8
MODEL
  6
Continuous
100
AcDbPolyline
 90
       27
 70
   128
 43
0.0
 10
279.4869675391012
 20
635.4293730184883
 10
279.4871612541963
 20
635.4417931363433
 10
279.4876231901935
 20
635.5606075451225
 10
279.4880851261908
 20
635.8035262749046
 10
279.4885172598651
 20
636.1667048261016
 10
279.4889195912174
 20
636.6444211528152
 10
279.4893070214082
 20
637.2291427180618
 10
279.4896348469547
 20
637.9116382524818
 10
279.4899328701783
 20
638.6811565682739
 10
279.4901861899191
 20
639.5255606696456
 10
279.4903948061756
 20
640.4315289184898
 10
279.4905438177877
 20
641.3847711012214
 10
279.4906332247549
 20
642.3702593967765
 10
279.4906630270771
 20
643.37245189403
 10
279.4906332247549
 20
644.375538460955
 10
279.4905587189485
 20
645.363708965525
 10
279.490409707337
 20
646.3213693425506
 10
279.4902159922412
 20
647.2334247157424
 10
279.4899775736619
 20
648.0854880139678
 10
279.4896795504383
 20
648.86411838983
 10
279.489336823731
 20
649.5570372865051
 10
279.488964294701
 20
650.1533221528381
 10
279.4885619633487
 20
650.6435703561157
 10
279.4881298296743
 20
651.0200407430976
 10
279.4876827948385
 20
651.2768101022094
 10
279.4872208588413
 20
651.4098104164451
 10
279.4869675391012
 20
651.4293756410926
  0
LWPOLYLINE
  5
1123
330
A
100
AcDbEntity
  8
MODEL
  6
Continuous
100
AcDbPolyline
 90
       27
 70
   128
 43
0.0
 10
278.8869573824697
 20
651.4293756410926
 10
278.8872256033712
 20
651.4098104164451
 10
278.8876875393678
 20
651.2768101022094
 10
278.8881345742036
 20
651.0200407430976
 10
278.8885667078787
 20
650.6435703561157
 10
278.8889690392309
 20
650.1533221528381
 10
278.8893415682603
 20
649.5570372865051
 10
278.8896842949682
 20
648.86411838983
 10
278.8899674170304
 20
648.0854880139678
 10
278.8902207367712
 20
647.2334247157424
 10
278.8904144518663
 20
646.3213693425506
 10
278.890548562317
 20
645.363708965525
 10
278.8906379692842
 20
644.375538460955
 10
278.890667771607
 20
643.37245189403
 10
278.8906230681234
 20
642.3702593967765
 10
278.8905336611563
 20
641.3847711012214
 10
278.8903995507055
 20
640.4315289184898
 10
278.8901909344484
 20
639.5255606696456
 10
278.8899376147083
 20
638.6811565682739
 10
278.8896395914846
 20
637.9116382524818
 10
278.8892968647767
 20
637.2291427180618
 10
278.8889243357473
 20
636.6444211528152
 10
278.8885071032337
 20
636.1667048261016
 10
278.8880749695593
 20
635.8035262749046
 10
278.8876279347235
 20
635.5606075451225
 10
278.8871659987262
 20
635.4417931363433
 10
278.8869573824697
 20
635.4293730184883
  0
LWPOLYLINE
  5
1124
330
A
100
AcDbEntity
  8
MODEL
  6
Continuous
100
AcDbPolyline
 90
       27
 70
   128
 43
0.0
 10
426.9869451501061
 20
635.4293730184883
 10
426.9872143023301
 20
635.4506369755119
 10
426.9876753070046
 20
635.5866100714057
 10
426.9881242044855
 20
635.8462628052085
 10
426.988554475515
 20
636.2255048081726
 10
426.988959600835
 20
636.7183607146591
 10
426.9893330611878
 20
637.3170521185249
 10
426.9896692686368
 20
638.0121391341537
 10
426.9899617039257
 20
638.7926545069068
 10
426.9902066417624
 20
639.6462973282188
 10
426.9904003568583
 20
640.5596043989509
 10
426.9905400552445
 20
641.5181662962287
 10
426.9906220116306
 20
642.5068657920211
 10
426.9906471573402
 20
643.5101162717193
 10
426.9906126984054
 20
644.5120927021354
 10
426.9905214287926
 20
645.496999852404
 10
426.9903733485032
 20
646.4492958113998
 10
426.990171251505
 20
647.3539676592201
 10
426.9899179317642
 20
648.1967400834411
 10
426.9896180458957
 20
648.9643361494392
 10
426.9892753191878
 20
649.6446337625831
 10
426.9888972022229
 20
650.2269189879745
 10
426.9884874202896
 20
650.7020052597373
 10
426.9880534239703
 20
651.0623898432106
 10
426.9876017325212
 20
651.3024028465599
 10
426.9871397965246
 20
651.4182519242614
 10
426.9869460814286
 20
651.4293756410926
  0
LWPOLYLINE
  5
1125
330
A
100
AcDbEntity
  8
MODEL
  6
Continuous
100
AcDbPolyline
 90
       27
 70
   128
 43
0.0
 10
426.3869452380234
 20
651.4293756410926
 10
426.387139884441
 20
651.4182519242614
 10
426.3876018204385
 20
651.3024028465599
 10
426.3880535118867
 20
651.0623898432106
 10
426.3884875082069
 20
650.7020052597373
 10
426.3888968244785
 20
650.2269189879745
 10
426.3892758727659
 20
649.6446337625831
 10
426.3896181338121
 20
648.9643361494392
 10
426.3899180196815
 20
648.1967400834411
 10
426.3901708737606
 20
647.3539676592201
 10
426.3903729707588
 20
646.4492958113998
 10
426.3905210510482
 20
645.496999852404
 10
426.3906127863218
 20
644.5120927021354
 10
426.3906467795957
 20
643.5101162717193
 10
426.390622099548
 20
642.5068657920211
 10
426.3905396775001
 20
641.5181662962287
 10
426.3904004447747
 20
640.5596043989509
 10
426.3902067296792
 20
639.6462973282188
 10
426.3899617918421
 20
638.7926545069068
 10
426.3896688908924
 20
638.0121391341537
 10
426.3893331491042
 20
637.3170521185249
 10
426.3889601544131
 20
636.7183607146591
 10
426.3885550290931
 20
636.2255048081726
 10
426.3881242924028
 20
635.8462628052085
 10
426.3876753949214
 20
635.5866100714057
 10
426.387214390247
 20
635.4506369755119
 10
426.3869452380234
 20
635.4293730184883
  0
DIMENSION
  5
1126
330
A
100
AcDbEntity
  8
DIM
100
AcDbDimension
  2
*D9
 10
410.1566442125138
 20
549.2035382567472
 30
0.0
 11
344.9066511992798
 21
549.2035382567472
 31
0.0
 70
   160
 71
     1
 42
130.4999860264682
 73
     0
 74
     0
 75
     0
  3
tfrom線あり
100
AcDbAlignedDimension
 13
279.6566581860457
 23
602.6296111102034
 33
0.0
 14
410.1566442125138
 24
602.6296111102034
 34
0.0
100
AcDbRotatedDimension
  0
DIMENSION
  5
1127
330
A
100
AcDbEntity
  8
DIM
100
AcDbDimension
  2
*D10
 10
557.6566525329429
 20
549.2035382567472
 30
0.0
 11
492.4066595197089
 21
549.2035382567472
 31
0.0
 70
   160
 71
     1
 42
130.4999860264679
 73
     0
 74
     0
 75
     0
  3
tfrom線あり
100
AcDbAlignedDimension
 13
427.1566665064749
 23
602.5962234960283
 33
0.0
 14
557.6566525329429
 24
602.5962234960283
 34
0.0
 50
0.0000000000000187
100
AcDbRotatedDimension
  0
DIMENSION
  5
1128
330
A
100
AcDbEntity
  8
DIM
100
AcDbDimension
  2
*D11
 10
621.1612710224967
 20
722.9293759391157
 30
0.0
 11
621.161271022497
 21
677.9293759391156
 31
0.0
 70
   160
 71
     1
 42
90.0
 73
     0
 74
     0
 75
     0
 52
-270.0
  3
tfrom線あり
100
AcDbAlignedDimension
 13
573.6927137001951
 23
632.9293759391156
 33
0.0
 14
573.6927137001951
 24
722.9293759391156
 34
0.0
 50
90.0000000000002
100
AcDbRotatedDimension
  0
DIMENSION
  5
1129
330
A
100
AcDbEntity
  8
DIM
100
AcDbDimension
  2
*D12
 10
573.6927137001951
 20
762.9293759391159
 30
0.0
 11
418.6927302971108
 21
762.9293759391159
 31
0.0
 70
   160
 71
     1
 42
309.9999668061687
 73
     0
 74
     0
 75
     0
  3
tfrom線あり
100
AcDbAlignedDimension
 13
263.6927468940264
 23
722.9293759391159
 33
0.0
 14
573.6927137001951
 24
722.9293759391156
 34
0.0
 50
-0.0000000000000158
100
AcDbRotatedDimension
  0
LINE
  5
112A
330
A
100
AcDbEntity
  8
MODEL
  6
Continuous
100
AcDbLine
 10
698.8100580193125
 20
977.9903906340307
 30
0.0
 11
698.8107714124046
 21
977.9896772409386
 31
0.0
  0
LINE
  5
112B
330
A
100
AcDbEntity
  8
MODEL
  6
Continuous
100
AcDbLine
 10
702.8107702054106
 20
977.9896772409386
 30
0.0
 11
702.8114835985027
 21
977.9903906340307
 31
0.0
  0
LINE
  5
112C
330
A
100
AcDbEntity
  8
MODEL
  6
Continuous
100
AcDbLine
 10
698.810002139958
 20
978.0587050075239
 30
0.0
 11
698.8107714124046
 21
978.0579357350773
 31
0.0
  0
LINE
  5
112D
330
A
100
AcDbEntity
  8
MODEL
  6
Continuous
100
AcDbLine
 10
702.8107702054106
 20
978.0579357350773
 30
0.0
 11
702.8115394778572
 21
978.0587050075239
 31
0.0
  0
LINE
  5
112E
330
A
100
AcDbEntity
  8
MODEL
  6
Continuous
100
AcDbLine
 10
698.8100580193125
 20
977.9221330712146
 30
0.0
 11
698.8107714124046
 21
977.9214196781224
 31
0.0
  0
LINE
  5
112F
330
A
100
AcDbEntity
  8
MODEL
  6
Continuous
100
AcDbLine
 10
702.8107702054106
 20
977.9214196781224
 30
0.0
 11
702.8114835985027
 21
977.9221330712146
 31
0.0
  0
LINE
  5
1130
330
A
100
AcDbEntity
  8
MODEL
  6
Continuous
100
AcDbLine
 10
778.310771404954
 20
978.0544656271643
 30
0.0
 11
778.310771404954
 21
977.9931492114968
 31
0.0
  0
LINE
  5
1131
330
A
100
AcDbEntity
  8
MODEL
  6
Continuous
100
AcDbLine
 10
778.310771404954
 20
977.9931492114968
 30
0.0
 11
691.3107708815508
 21
977.9931492114968
 31
0.0
  0
LINE
  5
1132
330
A
100
AcDbEntity
  8
MODEL
  6
Continuous
100
AcDbLine
 10
691.3107708815508
 20
978.0544656271643
 30
0.0
 11
691.3107708815508
 21
977.9931492114968
 31
0.0
  0
LINE
  5
1133
330
A
100
AcDbEntity
  8
MODEL
  6
Continuous
100
AcDbLine
 10
778.310771404954
 20
977.9931492114968
 30
0.0
 11
778.310771404954
 21
977.9862071330256
 31
0.0
  0
LINE
  5
1134
330
A
100
AcDbEntity
  8
MODEL
  6
Continuous
100
AcDbLine
 10
778.310771404954
 20
977.9862071330256
 30
0.0
 11
691.3107708815508
 21
977.9862071330256
 31
0.0
  0
ARC
  5
1135
330
A
100
AcDbEntity
  8
MODEL
  6
Continuous
100
AcDbCircle
 10
699.9796756174821
 20
573.0022172583353
 30
0.0
 40
405.0013665060679
100
AcDbArc
 50
89.52520583595425
 51
90.239644517934
  0
LINE
  5
1136
330
A
100
AcDbEntity
  8
MODEL
  6
Continuous
100
AcDbLine
 10
691.3107708815508
 20
977.9931492114968
 30
0.0
 11
691.3107708815508
 21
977.9862071330256
 31
0.0
  0
LINE
  5
1137
330
A
100
AcDbEntity
  8
MODEL
  6
Continuous
100
AcDbLine
 10
778.310771404954
 20
977.9862071330256
 30
0.0
 11
778.310771404954
 21
977.924890717358
 31
0.0
  0
LINE
  5
1138
330
A
100
AcDbEntity
  8
MODEL
  6
Continuous
100
AcDbLine
 10
778.310771404954
 20
977.924890717358
 30
0.0
 11
688.3107708554737
 21
977.924890717358
 31
0.0
  0
LINE
  5
1139
330
A
100
AcDbEntity
  8
MODEL
  6
Continuous
100
AcDbLine
 10
688.3107708554737
 20
978.0544656271643
 30
0.0
 11
688.3107708554737
 21
977.924890717358
 31
0.0
  0
LINE
  5
113A
330
A
100
AcDbEntity
  8
MODEL
  6
Continuous
100
AcDbLine
 10
778.310771404954
 20
977.924890717358
 30
0.0
 11
778.310771404954
 21
977.9179486388869
 31
0.0
  0
LINE
  5
113B
330
A
100
AcDbEntity
  8
MODEL
  6
Continuous
100
AcDbLine
 10
778.310771404954
 20
977.9179486388869
 30
0.0
 11
688.3107708554737
 21
977.9179486388869
 31
0.0
  0
ARC
  5
113C
330
A
100
AcDbEntity
  8
MODEL
  6
Continuous
100
AcDbCircle
 10
701.6419128342075
 20
1382.897470080943
 30
0.0
 40
404.9899567748581
100
AcDbArc
 50
269.5251858333028
 51
270.2396446441105
  0
LINE
  5
113D
330
A
100
AcDbEntity
  8
MODEL
  6
Continuous
100
AcDbLine
 10
688.3107708554737
 20
977.924890717358
 30
0.0
 11
688.3107708554737
 21
977.9179486388869
 31
0.0
  0
LINE
  5
113E
330
A
100
AcDbEntity
  8
MODEL
  6
Continuous
100
AcDbLine
 10
810.5119199745379
 20
977.614983817429
 30
0.0
 11
810.4824529282771
 21
977.6096734161085
 31
0.0
  0
SPLINE
  5
113F
330
A
100
AcDbEntity
  8
MODEL
  6
Continuous
100
AcDbSpline
210
0.0
220
0.0
230
1.0
 70
     8
 71
     3
 72
    17
 73
    13
 74
     0
 42
0.000000001
 43
0.00000001
 40
0.0
 40
0.0
 40
0.0
 40
0.0
 40
0.1054541735914973
 40
0.2139365587546543
 40
0.3194024871300771
 40
0.4279709254907998
 40
0.5327267305289966
 40
0.6405034625225369
 40
0.7455770039858346
 40
0.8536736888848597
 40
0.9263505206362536
 40
1.0
 40
1.0
 40
1.0
 40
1.0
 10
807.926114021989
 20
987.31469422938
 30
0.0
 10
808.1081753161836
 20
986.7917692090872
 30
0.0
 10
808.4775259586102
 20
985.730902905574
 30
0.0
 10
808.9601236239625
 20
984.1711607147571
 30
0.0
 10
809.3836840988427
 20
982.6743997345218
 30
0.0
 10
809.7316065513739
 20
981.3153542047858
 30
0.0
 10
810.0122727841815
 20
980.1113290966077
 30
0.0
 10
810.2241603457385
 20
979.1186218603082
 30
0.0
 10
810.3770809881519
 20
978.3460513926532
 30
0.0
 10
810.4623745524357
 20
977.8889452700143
 30
0.0
 10
810.5050749121945
 20
977.6536481680384
 30
0.0
 10
810.5096281983535
 20
977.627928920552
 30
0.0
 10
810.5119199745379
 20
977.614983817429
 30
0.0
  0
ARC
  5
1140
330
A
100
AcDbEntity
  8
MODEL
  6
Continuous
100
AcDbCircle
 10
750.479048823245
 20
966.7400336769722
 30
0.0
 40
59.99999837233807
100
AcDbArc
 50
64.20493969803152
 51
142.7455222914475
  0
ARC
  5
1141
330
A
100
AcDbEntity
  8
MODEL
  6
Continuous
100
AcDbCircle
 10
750.4790494345109
 20
966.8004156240195
 30
0.0
 40
61.00000701980444
100
AcDbArc
 50
19.65158597933315
 51
64.20463577353684
  0
LINE
  5
1142
330
A
100
AcDbEntity
  8
MODEL
  6
Continuous
100
AcDbLine
 10
810.4904548518382
 20
977.5599789748496
 30
0.0
 11
810.5119199745379
 21
977.5638476888246
 31
0.0
  0
LINE
  5
1143
330
A
100
AcDbEntity
  8
MODEL
  6
Continuous
100
AcDbLine
 10
810.4904548518382
 20
977.5647827366895
 30
0.0
 11
809.506113945695
 21
977.3885066563791
 31
0.0
  0
SPLINE
  5
1144
330
A
100
AcDbEntity
  8
MODEL
  6
Continuous
100
AcDbSpline
210
0.0
220
0.0
230
1.0
 70
     8
 71
     3
 72
    17
 73
    13
 74
     0
 42
0.000000001
 43
0.00000001
 40
0.0
 40
0.0
 40
0.0
 40
0.0
 40
0.1055198472032762
 40
0.2140981113853334
 40
0.3196187663132426
 40
0.4282054197890635
 40
0.5335870455238171
 40
0.6420523840104396
 40
0.7469348303230626
 40
0.8548648028215884
 40
0.9269615490769548
 40
1.0
 40
1.0
 40
1.0
 40
1.0
 10
809.506113945695
 20
977.3885066563791
 30
0.0
 10
809.5014345615207
 20
977.4150452941367
 30
0.0
 10
809.4919401645832
 20
977.4688917730057
 30
0.0
 10
809.4137144228991
 20
977.8983774238436
 30
0.0
 10
809.2833090091337
 20
978.57632354274
 30
0.0
 10
809.0937334797643
 20
979.4946086488994
 30
0.0
 10
808.8371513089317
 20
980.6343518757055
 30
0.0
 10
808.5142514448819
 20
981.9393328466799
 30
0.0
 10
808.117870917715
 20
983.391432471646
 30
0.0
 10
807.704398481744
 20
984.7619540475556
 30
0.0
 10
807.2981468010041
 20
986.0087742149457
 30
0.0
 10
807.0447905700287
 20
986.7271110063224
 30
0.0
 10
806.9172905080043
 20
987.088609853626
 30
0.0
  0
LINE
  5
1145
330
A
100
AcDbEntity
  8
MODEL
  6
Continuous
100
AcDbLine
 10
806.9172905080043
 20
987.088609853626
 30
0.0
 11
807.9153628341876
 21
987.2673443927027
 31
0.0
  0
SPLINE
  5
1146
330
A
100
AcDbEntity
  8
MODEL
  6
Continuous
100
AcDbSpline
210
0.0
220
0.0
230
1.0
 70
     8
 71
     3
 72
    17
 73
    13
 74
     0
 42
0.000000001
 43
0.00000001
 40
0.0
 40
0.0
 40
0.0
 40
0.0
 40
0.1054542083152575
 40
0.213936427889355
 40
0.3194024548150363
 40
0.4279709506297779
 40
0.5327262007722693
 40
0.6405028828742113
 40
0.7455770004008284
 40
0.8536737341121885
 40
0.9263499528339888
 40
1.0
 40
1.0
 40
1.0
 40
1.0
 10
807.9153628341876
 20
987.2673443927027
 30
0.0
 10
808.0968471689227
 20
986.7442187515074
 30
0.0
 10
808.4650269780689
 20
985.6829464438155
 30
0.0
 10
808.9458913916408
 20
984.1226673303544
 30
0.0
 10
809.3678094007439
 20
982.6254431204543
 30
0.0
 10
809.7142240251189
 20
981.2660165519483
 30
0.0
 10
809.9935610608338
 20
980.0616757263756
 30
0.0
 10
810.204355018421
 20
979.0687340390605
 30
0.0
 10
810.356412994531
 20
978.2960009035974
 30
0.0
 10
810.4412215899181
 20
977.8388008435056
 30
0.0
 10
810.4836412173702
 20
977.6034517144033
 30
0.0
 10
810.4881735857646
 20
977.5777294580566
 30
0.0
 10
810.4904548518382
 20
977.5647827366895
 30
0.0
  0
SPLINE
  5
1147
330
A
100
AcDbEntity
  8
MODEL
  6
Continuous
100
AcDbSpline
210
0.0
220
0.0
230
1.0
 70
     8
 71
     3
 72
    17
 73
    13
 74
     0
 42
0.000000001
 43
0.00000001
 40
0.0
 40
0.0
 40
0.0
 40
0.0
 40
0.1069587960434411
 40
0.2139076200627818
 40
0.3209120007498876
 40
0.4279157656973167
 40
0.5341430774944519
 40
0.6403731177044507
 40
0.7469303439176134
 40
0.8534885666149093
 40
0.9267442568215023
 40
1.0
 40
1.0
 40
1.0
 40
1.0
 10
806.9172905080043
 20
987.0282184741058
 30
0.0
 10
807.1025348369101
 20
986.4980890416376
 30
0.0
 10
807.4730062239503
 20
985.4378796019358
 30
0.0
 10
807.9598538964108
 20
983.8716723920451
 30
0.0
 10
808.3808291274934
 20
982.3842602256661
 30
0.0
 10
808.7309803717583
 20
981.0195421535911
 30
0.0
 10
809.0088186013438
 20
979.8253516372001
 30
0.0
 10
809.2213427737627
 20
978.8284954527603
 30
0.0
 10
809.372201213687
 20
978.064668524634
 30
0.0
 10
809.4572048085085
 20
977.6070732043279
 30
0.0
 10
809.4993201788523
 20
977.3751823482173
 30
0.0
 10
809.5038493562017
 20
977.3499744709602
 30
0.0
 10
809.506113945695
 20
977.3373705277747
 30
0.0
  0
ARC
  5
1148
330
A
100
AcDbEntity
  8
MODEL
  6
Continuous
100
AcDbCircle
 10
750.4456631105706
 20
966.7561787680843
 30
0.0
 40
60.00000245630905
100
AcDbArc
 50
19.7469925075892
 51
142.7648924953182
  0
ARC
  5
1149
330
A
100
AcDbEntity
  8
MODEL
  6
Continuous
100
AcDbCircle
 10
750.4456627093061
 20
966.8165678190755
 30
0.0
 40
60.00000362071019
100
AcDbArc
 50
19.74699447094612
 51
142.8372904478276
  0
LINE
  5
114A
330
A
100
AcDbEntity
  8
MODEL
  6
Continuous
100
AcDbLine
 10
809.506113945695
 20
977.3373705277747
 30
0.0
 11
809.506113945695
 21
977.3885066563791
 31
0.0
  0
ARC
  5
114B
330
A
100
AcDbEntity
  8
MODEL
  6
Continuous
100
AcDbCircle
 10
750.445663989479
 20
966.8165676476945
 30
0.0
 40
61.00000454734143
100
AcDbArc
 50
19.58826465799805
 51
143.5459722798255
  0
LINE
  5
114C
330
A
100
AcDbEntity
  8
MODEL
  6
Continuous
100
AcDbLine
 10
809.506113945695
 20
977.3373705277747
 30
0.0
 11
810.4904548518382
 21
977.5136466080851
 31
0.0
  0
LINE
  5
114D
330
A
100
AcDbEntity
  8
MODEL
  6
Continuous
100
AcDbLine
 10
810.4904548518382
 20
977.5136466080851
 30
0.0
 11
810.4904548518382
 21
977.5647827366895
 31
0.0
  0
ARC
  5
114E
330
A
100
AcDbEntity
  8
MODEL
  6
Continuous
100
AcDbCircle
 10
701.501678490258
 20
1444.155940821175
 30
0.0
 40
466.1740666273203
100
AcDbArc
 50
269.6700966148682
 51
270.1606650763824
  0
LINE
  5
114F
330
A
100
AcDbEntity
  8
MODEL
  6
Continuous
100
AcDbLine
 10
700.0353469766699
 20
977.9891147221035
 30
0.0
 11
701.4773537658177
 21
977.9890858511037
 31
0.0
  0
LINE
  5
1150
330
A
100
AcDbEntity
  8
MODEL
  6
Continuous
100
AcDbLine
 10
701.4773537658177
 20
977.9890858511037
 30
0.0
 11
702.2527775980554
 21
977.9896493012614
 31
0.0
  0
LINE
  5
1151
330
A
100
AcDbEntity
  8
MODEL
  6
Continuous
100
AcDbLine
 10
702.2527775980554
 20
977.9896493012614
 30
0.0
 11
701.5861946411453
 21
977.9902416224188
 31
0.0
  0
LINE
  5
1152
330
A
100
AcDbEntity
  8
MODEL
  6
Continuous
100
AcDbLine
 10
701.5861946411453
 20
977.9902416224188
 30
0.0
 11
700.1441878519975
 21
977.9902704934186
 31
0.0
  0
LINE
  5
1153
330
A
100
AcDbEntity
  8
MODEL
  6
Continuous
100
AcDbLine
 10
700.1441878519975
 20
977.9902704934186
 30
0.0
 11
699.3687640197597
 21
977.989707043261
 31
0.0
  0
LINE
  5
1154
330
A
100
AcDbEntity
  8
MODEL
  6
Continuous
100
AcDbLine
 10
699.3687640197597
 20
977.989707043261
 30
0.0
 11
700.0353469766699
 21
977.9891147221035
 31
0.0
  0
LINE
  5
1155
330
A
100
AcDbEntity
  8
MODEL
  6
Continuous
100
AcDbLine
 10
700.0353469766699
 20
977.9901913309998
 30
0.0
 11
700.0353469766699
 21
977.9891147221035
 31
0.0
  0
LINE
  5
1156
330
A
100
AcDbEntity
  8
MODEL
  6
Continuous
100
AcDbLine
 10
701.4773537658177
 20
977.990243485064
 30
0.0
 11
701.4773537658177
 21
977.9890858511037
 31
0.0
  0
ARC
  5
1157
330
A
100
AcDbEntity
  8
MODEL
  6
Continuous
100
AcDbCircle
 10
701.5016969214
 20
1446.120099112273
 30
0.0
 40
468.0699352295793
100
AcDbArc
 50
269.6714306127365
 51
270.1600120446606
  0
LINE
  5
1158
330
A
100
AcDbEntity
  8
MODEL
  6
Continuous
100
AcDbLine
 10
700.0353469766699
 20
978.0573732162422
 30
0.0
 11
701.4773537658177
 21
978.0573434139199
 31
0.0
  0
LINE
  5
1159
330
A
100
AcDbEntity
  8
MODEL
  6
Continuous
100
AcDbLine
 10
701.4773537658177
 20
978.0573434139199
 30
0.0
 11
702.2527775980554
 21
978.0579068640775
 31
0.0
  0
LINE
  5
115A
330
A
100
AcDbEntity
  8
MODEL
  6
Continuous
100
AcDbLine
 10
702.2527775980554
 20
978.0579068640775
 30
0.0
 11
701.5861946411453
 21
978.058499185235
 31
0.0
  0
LINE
  5
115B
330
A
100
AcDbEntity
  8
MODEL
  6
Continuous
100
AcDbLine
 10
701.5861946411453
 20
978.058499185235
 30
0.0
 11
700.1441878519975
 21
978.0585289875573
 31
0.0
  0
LINE
  5
115C
330
A
100
AcDbEntity
  8
MODEL
  6
Continuous
100
AcDbLine
 10
700.1441878519975
 20
978.0585289875573
 30
0.0
 11
699.3687640197597
 21
978.0579655373997
 31
0.0
  0
LINE
  5
115D
330
A
100
AcDbEntity
  8
MODEL
  6
Continuous
100
AcDbLine
 10
699.3687640197597
 20
978.0579655373997
 30
0.0
 11
700.0353469766699
 21
978.0573732162422
 31
0.0
  0
LINE
  5
115E
330
A
100
AcDbEntity
  8
MODEL
  6
Continuous
100
AcDbLine
 10
700.0353469766699
 20
978.0584498251385
 30
0.0
 11
700.0353469766699
 21
978.0573732162422
 31
0.0
  0
LINE
  5
115F
330
A
100
AcDbEntity
  8
MODEL
  6
Continuous
100
AcDbLine
 10
701.4773537658177
 20
978.0585019792027
 30
0.0
 11
701.4773537658177
 21
978.0573434139199
 31
0.0
  0
LWPOLYLINE
  5
1160
330
A
100
AcDbEntity
  8
MODEL
  6
Continuous
100
AcDbPolyline
 90
       26
 70
   128
 43
0.0
 10
700.7138927720509
 20
977.9204958061284
 10
701.2137317352019
 20
977.9205135012573
 10
701.6882517628394
 20
977.9205880070633
 10
702.1076365627371
 20
977.920715598256
 10
702.4455343626462
 20
977.9208869616098
 10
702.6807138018332
 20
977.9210918525762
 10
702.7983985163294
 20
977.9213172326392
 10
702.7911928735696
 20
977.9215491319603
 10
702.6595494963251
 20
977.9217726493782
 10
702.4117413230263
 20
977.9219747463769
 10
702.0633372731529
 20
977.9221414531178
 10
701.6362308777891
 20
977.9222625250525
 10
701.1572572655998
 20
977.922331442923
 10
700.6565130569063
 20
977.9223426187939
 10
700.1654611222468
 20
977.9222960526652
 10
699.7149561785184
 20
977.9221945385045
 10
699.3333057753764
 20
977.9220436642474
 10
699.0444896064721
 20
977.9218536744422
 10
698.8666554234944
 20
977.9216366762823
 10
698.8109772346936
 20
977.9214066396064
 10
698.8809540189825
 20
977.9211766029305
 10
699.0721871398412
 20
977.9209623987383
 10
699.3726625360571
 20
977.920777065546
 10
699.7634995050751
 20
977.9206317792243
 10
700.2201400019251
 20
977.9205358529991
 10
700.7138927720509
 20
977.9204958061284
  0
LINE
  5
1161
330
A
100
AcDbEntity
  8
MODEL
  6
Continuous
100
AcDbLine
 10
699.5971960268937
 20
977.9217810312814
 30
0.0
 11
699.5272797785722
 21
977.921114204318
 31
0.0
  0
LINE
  5
1162
330
A
100
AcDbEntity
  8
MODEL
  6
Continuous
100
AcDbLine
 10
699.5272797785722
 20
977.921114204318
 30
0.0
 11
700.7408545605861
 21
977.920752851159
 31
0.0
  0
LINE
  5
1163
330
A
100
AcDbEntity
  8
MODEL
  6
Continuous
100
AcDbLine
 10
700.7408545605861
 20
977.920752851159
 30
0.0
 11
702.0243455909215
 21
977.9210583249635
 31
0.0
  0
LINE
  5
1164
330
A
100
AcDbEntity
  8
MODEL
  6
Continuous
100
AcDbLine
 10
702.0243455909215
 20
977.9210583249635
 30
0.0
 11
702.094261839243
 21
977.9217251519269
 31
0.0
  0
LINE
  5
1165
330
A
100
AcDbEntity
  8
MODEL
  6
Continuous
100
AcDbLine
 10
702.094261839243
 20
977.9217251519269
 30
0.0
 11
700.8806870572291
 21
977.9220874364084
 31
0.0
  0
LINE
  5
1166
330
A
100
AcDbEntity
  8
MODEL
  6
Continuous
100
AcDbLine
 10
700.8806870572291
 20
977.9220874364084
 30
0.0
 11
699.5971960268937
 21
977.9217810312814
 31
0.0
  0
LINE
  5
1167
330
A
100
AcDbEntity
  8
MODEL
  6
Continuous
100
AcDbLine
 10
702.0243455909215
 20
977.9217465723461
 30
0.0
 11
702.0243455909215
 21
977.9210583249635
 31
0.0
  0
LINE
  5
1168
330
A
100
AcDbEntity
  8
MODEL
  6
Continuous
100
AcDbLine
 10
700.7408545605861
 20
977.9220539087958
 30
0.0
 11
700.7408545605861
 21
977.920752851159
 31
0.0
  0
LINE
  5
1169
330
A
100
AcDbEntity
  8
MODEL
  6
Continuous
100
AcDbLine
 10
778.310771404954
 20
978.0614067743129
 30
0.0
 11
688.3107708554737
 21
978.0614067743129
 31
0.0
  0
LINE
  5
116A
330
A
100
AcDbEntity
  8
MODEL
  6
Continuous
100
AcDbLine
 10
778.310771404954
 20
978.0614067743129
 30
0.0
 11
778.310771404954
 21
978.0544656271643
 31
0.0
  0
LINE
  5
116B
330
A
100
AcDbEntity
  8
MODEL
  6
Continuous
100
AcDbLine
 10
778.310771404954
 20
978.0544656271643
 30
0.0
 11
688.3107708554737
 21
978.0544656271643
 31
0.0
  0
LINE
  5
116C
330
A
100
AcDbEntity
  8
MODEL
  6
Continuous
100
AcDbLine
 10
688.3107708554737
 20
978.0614067743129
 30
0.0
 11
688.3107708554737
 21
978.0544656271643
 31
0.0
  0
ARC
  5
116D
330
A
100
AcDbEntity
  8
MODEL
  6
Continuous
100
AcDbCircle
 10
699.9549602412833
 20
560.6255206645408
 30
0.0
 40
417.4467206213108
100
AcDbArc
 50
89.52567447299658
 51
90.2394019282798
  0
LINE
  5
116E
330
A
100
AcDbEntity
  8
MODEL
  6
Continuous
100
AcDbLine
 10
778.310771404954
 20
1003.061404352874
 30
0.0
 11
688.3107708554737
 21
1003.061404352874
 31
0.0
  0
LINE
  5
116F
330
A
100
AcDbEntity
  8
MODEL
  6
Continuous
100
AcDbLine
 10
778.310771404954
 20
1003.061404352874
 30
0.0
 11
778.310771404954
 21
978.0614067743129
 31
0.0
  0
LINE
  5
1170
330
A
100
AcDbEntity
  8
MODEL
  6
Continuous
100
AcDbLine
 10
688.3107708554737
 20
1003.061404352874
 30
0.0
 11
688.3107708554737
 21
978.0614067743129
 31
0.0
  0
LINE
  5
1171
330
A
100
AcDbEntity
  8
MODEL
  6
Continuous
100
AcDbLine
 10
691.3107708815508
 20
1003.239677188785
 30
0.0
 11
688.3107708554737
 21
1003.239677188785
 31
0.0
  0
LINE
  5
1172
330
A
100
AcDbEntity
  8
MODEL
  6
Continuous
100
AcDbLine
 10
691.3107708815508
 20
1003.061404352874
 30
0.0
 11
691.3107708815508
 21
1003.239677188785
 31
0.0
  0
LINE
  5
1173
330
A
100
AcDbEntity
  8
MODEL
  6
Continuous
100
AcDbLine
 10
688.3107708554737
 20
1003.061404352874
 30
0.0
 11
688.3107708554737
 21
1003.239677188785
 31
0.0
  0
LINE
  5
1174
330
A
100
AcDbEntity
  8
MODEL
  6
Continuous
100
AcDbLine
 10
807.9001561991893
 20
987.310016661749
 30
0.0
 11
807.926114021989
 21
987.31469422938
 31
0.0
  0
DIMENSION
  5
1175
330
A
100
AcDbEntity
  8
DIM
100
AcDbDimension
  2
*D13
 10
810.4904516667068
 20
934.654331870963
 30
0.0
 11
749.40061126761
 21
934.654331870963
 31
0.0
 70
   160
 71
     1
 42
122.1796807981941
 73
     0
 74
     0
 75
     0
  3
tfrom線あり
100
AcDbAlignedDimension
 13
688.3107708685127
 23
978.061221898231
 33
0.0
 14
810.4904516667068
 24
977.568854637319
 34
0.0
100
AcDbRotatedDimension
  0
VIEWPORT
  5
349
330
B
100
AcDbEntity
 67
     1
  8
0
100
AcDbViewport
 10
202.5
 20
128.5
 30
0.0
 40
486.0
 41
308.4
 68
     1
 69
     1
 12
202.5
 22
128.5
 13
0.0
 23
0.0
 14
0.5
 24
0.5
 15
0.0
 25
0.0
 16
0.0
 26
0.0
 36
1.0
 17
0.0
 27
0.0
 37
0.0
 42
50.0
 43
0.0
 44
0.0
 45
308.4
 50
0.0
 51
0.0
 72
   100
 90
   557152
  1

281
     0
 71
     1
 74
     0
110
0.0
120
0.0
130
0.0
111
1.0
121
0.0
131
0.0
112
0.0
122
1.0
132
0.0
 79
     0
146
0.0
170
     0
 61
     5
348
26C
292
     1
282
     1
141
0.0
142
0.0
 63
   256
  0
VIEWPORT
  5
34A
330
B
100
AcDbEntity
 67
     1
  8
0
100
AcDbViewport
 10
202.5
 20
128.5
 30
0.0
 40
324.0
 41
205.6
 68
     2
 69
     2
 12
986.6781359294573
 22
1427.077061889956
 13
0.0
 23
0.0
 14
0.5
 24
0.5
 15
0.0
 25
0.0
 16
0.0
 26
0.0
 36
1.0
 17
0.0
 27
0.0
 37
0.0
 42
50.0
 43
0.0
 44
0.0
 45
2890.021615685494
 50
0.0
 51
0.0
 72
   100
 90
   557152
  1

281
     0
 71
     1
 74
     0
110
0.0
120
0.0
130
0.0
111
1.0
121
0.0
131
0.0
112
0.0
122
1.0
132
0.0
 79
     0
146
0.0
170
     0
 61
     5
348
26C
292
     1
282
     1
141
0.0
142
0.0
 63
   256
  0
ENDSEC
  0
SECTION
  2
OBJECTS
  0
DICTIONARY
  5
19
330
0
100
AcDbDictionary
281
     1
  3
ACAD_COLOR
350
674
  3
ACAD_DETAILVIEWSTYLE
350
BBF
  3
ACAD_GROUP
350
1A
  3
ACAD_IMAGE_VARS
350
27B
  3
ACAD_LAYOUT
350
1E
  3
ACAD_MATERIAL
350
263
  3
ACAD_MLEADERSTYLE
350
336
  3
ACAD_MLINESTYLE
350
1B
  3
ACAD_PLOTSETTINGS
350
22
  3
ACAD_PLOTSTYLENAME
350
1F
  3
ACAD_SCALELIST
350
241
  3
ACAD_SECTIONVIEWSTYLE
350
BC0
  3
ACAD_TABLESTYLE
350
278
  3
ACAD_VISUALSTYLE
350
267
  3
ACDB_RECOMPOSE_DATA
350
11F4
  3
AcDbVariableDictionary
350
330
  3
APPDATA
350
27A
  0
SUN
  5
904
330
15
100
AcDbSun
 90
        1
290
     0
 63
     7
421
 16777215
 40
1.0
291
     1
 91
  2455826
 92
 54000000
292
     0
 70
     2
 71
   256
280
     1
  0
DICTIONARY
  5
2E1
330
2
100
AcDbDictionary
280
     1
281
     1
  3
ACAD_LAYERSTATES
360
2E2
  3
ACLYDICTIONARY
360
DDE
  0
DICTIONARY
  5
674
102
{ACAD_REACTORS
330
19
102
}
330
19
100
AcDbDictionary
281
     1
  0
DICTIONARY
  5
BBF
102
{ACAD_REACTORS
330
19
102
}
330
19
100
AcDbDictionary
281
     1
  0
DICTIONARY
  5
1A
102
{ACAD_REACTORS
330
19
102
}
330
19
100
AcDbDictionary
281
     1
  0
RASTERVARIABLES
  5
27B
102
{ACAD_REACTORS
330
19
102
}
330
19
100
AcDbRasterVariables
 90
        0
 70
     1
 71
     1
 72
     1
  0
DICTIONARY
  5
1E
102
{ACAD_REACTORS
330
19
102
}
330
19
100
AcDbDictionary
281
     1
  3
Layout1
350
21
  3
Model
350
20
  0
DICTIONARY
  5
263
102
{ACAD_REACTORS
330
19
102
}
330
19
100
AcDbDictionary
281
     1
  3
ByLayer
350
264
  3
Global
350
266
  0
DICTIONARY
  5
336
102
{ACAD_REACTORS
330
19
102
}
330
19
100
AcDbDictionary
281
     1
  3
Standard
350
D59
  0
DICTIONARY
  5
1B
102
{ACAD_REACTORS
330
19
102
}
330
19
100
AcDbDictionary
281
     1
  3
Standard
350
1C
  0
DICTIONARY
  5
22
102
{ACAD_REACTORS
330
19
102
}
330
19
100
AcDbDictionary
281
     1
  0
ACDBDICTIONARYWDFLT
  5
1F
102
{ACAD_REACTORS
330
19
102
}
330
19
100
AcDbDictionary
281
     1
  3
Normal
350
1D
100
AcDbDictionaryWithDefault
340
1D
  0
DICTIONARY
  5
241
102
{ACAD_REACTORS
330
19
102
}
330
19
100
AcDbDictionary
281
     1
  3
*A1
350
E8C
  3
A0
350
242
  3
A1
350
243
  3
A2
350
244
  3
A3
350
245
  3
A4
350
246
  3
A5
350
247
  3
A6
350
248
  3
A7
350
249
  3
A8
350
24A
  3
A9
350
24B
  3
B0
350
24C
  3
B1
350
24D
  3
B2
350
24E
  3
B3
350
24F
  3
B4
350
250
  3
B5
350
251
  3
B6
350
252
  3
B7
350
253
  3
B8
350
254
  3
B9
350
255
  3
C0
350
256
  3
C1
350
257
  3
C2
350
258
  3
C3
350
259
  3
C4
350
25A
  3
C5
350
25B
  3
C6
350
25C
  3
C7
350
25D
  3
C8
350
25E
  3
C9
350
25F
  3
D0
350
260
  3
D1
350
261
  3
D2
350
262
  0
DICTIONARY
  5
BC0
102
{ACAD_REACTORS
330
19
102
}
330
19
100
AcDbDictionary
281
     1
  0
DICTIONARY
  5
278
102
{ACAD_REACTORS
330
19
102
}
330
19
100
AcDbDictionary
281
     1
  3
Standard
350
279
  0
DICTIONARY
  5
267
102
{ACAD_REACTORS
330
19
102
}
330
19
100
AcDbDictionary
281
     1
  3
2dWireframe
350
26C
  3
3D Hidden
350
26E
  3
3dWireframe
350
26D
  3
Basic
350
26F
  3
Brighten
350
273
  3
ColorChange
350
277
  3
Conceptual
350
271
  3
Dim
350
272
  3
EdgeColorOff
350
8FE
  3
Facepattern
350
276
  3
Flat
350
268
  3
FlatWithEdges
350
269
  3
Gouraud
350
26A
  3
GouraudWithEdges
350
26B
  3
Hidden
350
8FB
  3
JitterOff
350
8FC
  3
Linepattern
350
275
  3
OverhangOff
350
8FD
  3
Realistic
350
270
  3
Shaded
350
903
  3
Shaded with edges
350
902
  3
Shades of Gray
350
8FF
  3
Sketchy
350
900
  3
Thicken
350
274
  3
Wireframe
350
8FA
  3
X-Ray
350
901
  0
XRECORD
  5
11F4
102
{ACAD_REACTORS
330
19
102
}
330
19
100
AcDbXrecord
280
     1
 90
        1
330
279
  0
DICTIONARY
  5
330
102
{ACAD_REACTORS
330
19
102
}
330
19
100
AcDbDictionary
281
     1
  3
CANNOSCALE
350
331
  3
CMLEADERSTYLE
350
D5E
  3
CTABLESTYLE
350
335
  3
HPTRANSPARENCY
350
D52
  3
XCLIPFRAME
350
896
  0
DICTIONARY
  5
27A
102
{ACAD_REACTORS
330
19
102
}
330
19
100
AcDbDictionary
281
     1
  0
DICTIONARY
  5
2E2
102
{ACAD_REACTORS
330
2E1
102
}
330
2E1
100
AcDbDictionary
281
     1
  3
ARGON_LAYERP_9
350
7AA
  0
DICTIONARY
  5
DDE
102
{ACAD_REACTORS
330
2E1
102
}
330
2E1
100
AcDbDictionary
281
     1
1001
ACAD
1000
<All
  0
LAYOUT
  5
21
102
{ACAD_REACTORS
330
1E
102
}
330
1E
100
AcDbPlotSettings
  1

  2
none_device
  4
ISO_A3_(420.00_x_297.00_MM)
  6

 40
7.5
 41
20.0
 42
7.5
 43
20.0
 44
420.0
 45
297.0
 46
0.0
 47
0.0
 48
0.0
 49
0.0
140
0.0
141
0.0
142
1.0
143
1.0
 70
     0
 72
     1
 73
     0
 74
     0
  7

 75
     0
 76
     0
 77
     2
 78
   300
147
1.0
148
0.0
149
0.0
100
AcDbLayout
  1
Layout1
 70
     0
 71
     0
 10
-7.5
 20
-20.0
 11
412.5
 21
277.0
 12
0.0
 22
0.0
 32
0.0
 14
0.0
 24
0.0
 34
0.0
 15
0.0
 25
0.0
 35
0.0
146
0.0
 13
0.0
 23
0.0
 33
0.0
 16
0.0
 26
0.0
 36
0.0
 17
0.0
 27
0.0
 37
0.0
 76
     0
330
B
331
349
  0
LAYOUT
  5
20
102
{ACAD_REACTORS
330
1E
102
}
330
1E
100
AcDbPlotSettings
  1

  2
none_device
  4
ISO_A3_(420.00_x_297.00_MM)
  6

 40
7.5
 41
20.0
 42
7.5
 43
20.0
 44
420.0
 45
297.0
 46
0.0
 47
0.0
 48
0.0
 49
0.0
140
0.0
141
0.0
142
1.0
143
1.0
 70
  1024
 72
     1
 73
     0
 74
     0
  7

 75
     0
 76
     0
 77
     2
 78
   300
147
1.0
148
0.0
149
0.0
100
AcDbLayout
  1
Model
 70
     0
 71
     1
 10
0.0
 20
0.0
 11
1050.0
 21
1485.0
 12
0.0
 22
0.0
 32
0.0
 14
0.0
 24
0.0
 34
0.0
 15
1050.0
 25
1485.0
 35
0.0000000000000071
146
0.0
 13
0.0
 23
0.0
 33
0.0
 16
0.0
 26
0.0
 36
0.0
 17
0.0
 27
0.0
 37
0.0
 76
     0
330
A
331
15
  0
MATERIAL
  5
264
102
{ACAD_REACTORS
330
263
102
}
330
263
100
AcDbMaterial
  1
ByLayer
 72
     1
 94
      127
  0
MATERIAL
  5
266
102
{ACAD_REACTORS
330
263
102
}
330
263
100
AcDbMaterial
  1
Global
 72
     1
 94
      127
  0
MLEADERSTYLE
  5
D59
102
{ACAD_REACTORS
330
336
102
}
330
336
100
AcDbMLeaderStyle
170
     2
171
     1
172
     0
 90
        2
 40
0.0
 41
0.0
173
     1
 91
-1056964608
340
11
 92
       -2
290
     1
 42
2.0
291
     1
 43
8.0
  3
Standard
341
0
 44
4.0
300

342
17
174
     1
178
     6
175
     1
176
     0
 93
-1056964608
 45
4.0
292
     0
297
     0
 46
4.0
343
0
 94
-1056964608
 47
1.0
 49
1.0
140
1.0
293
     1
141
0.0
294
     1
177
     0
142
1.0
295
     0
296
     0
143
3.75
1001
ACAD_MLEADERVER
1070
     2
  0
MLINESTYLE
  5
1C
102
{ACAD_REACTORS
330
1B
102
}
330
1B
100
AcDbMlineStyle
  2
Standard
 70
     0
  3

 62
     0
 51
90.0
 52
90.0
 71
     2
 49
0.5
 62
   256
  6
BYLAYER
 49
-0.5
 62
   256
  6
BYLAYER
  0
ACDBPLACEHOLDER
  5
1D
102
{ACAD_REACTORS
330
1F
102
}
330
1F
  0
SCALE
  5
E8C
102
{ACAD_REACTORS
330
241
102
}
330
241
100
AcDbScale
 70
     0
300
1:1_XREF_XREF
140
1.0
141
1.0
290
     0
  0
SCALE
  5
242
102
{ACAD_REACTORS
330
241
102
}
330
241
100
AcDbScale
 70
     0
300
1:1
140
1.0
141
1.0
290
     1
  0
SCALE
  5
243
102
{ACAD_REACTORS
330
241
102
}
330
241
100
AcDbScale
 70
     0
300
1:2
140
1.0
141
2.0
290
     0
  0
SCALE
  5
244
102
{ACAD_REACTORS
330
241
102
}
330
241
100
AcDbScale
 70
     0
300
1:4
140
1.0
141
4.0
290
     0
  0
SCALE
  5
245
102
{ACAD_REACTORS
330
241
102
}
330
241
100
AcDbScale
 70
     0
300
1:5
140
1.0
141
5.0
290
     0
  0
SCALE
  5
246
102
{ACAD_REACTORS
330
241
102
}
330
241
100
AcDbScale
 70
     0
300
1:8
140
1.0
141
8.0
290
     0
  0
SCALE
  5
247
102
{ACAD_REACTORS
330
241
102
}
330
241
100
AcDbScale
 70
     0
300
1:10
140
1.0
141
10.0
290
     0
  0
SCALE
  5
248
102
{ACAD_REACTORS
330
241
102
}
330
241
100
AcDbScale
 70
     0
300
1:16
140
1.0
141
16.0
290
     0
  0
SCALE
  5
249
102
{ACAD_REACTORS
330
241
102
}
330
241
100
AcDbScale
 70
     0
300
1:20
140
1.0
141
20.0
290
     0
  0
SCALE
  5
24A
102
{ACAD_REACTORS
330
241
102
}
330
241
100
AcDbScale
 70
     0
300
1:30
140
1.0
141
30.0
290
     0
  0
SCALE
  5
24B
102
{ACAD_REACTORS
330
241
102
}
330
241
100
AcDbScale
 70
     0
300
1:40
140
1.0
141
40.0
290
     0
  0
SCALE
  5
24C
102
{ACAD_REACTORS
330
241
102
}
330
241
100
AcDbScale
 70
     0
300
1:50
140
1.0
141
50.0
290
     0
  0
SCALE
  5
24D
102
{ACAD_REACTORS
330
241
102
}
330
241
100
AcDbScale
 70
     0
300
1:100
140
1.0
141
100.0
290
     0
  0
SCALE
  5
24E
102
{ACAD_REACTORS
330
241
102
}
330
241
100
AcDbScale
 70
     0
300
2:1
140
2.0
141
1.0
290
     0
  0
SCALE
  5
24F
102
{ACAD_REACTORS
330
241
102
}
330
241
100
AcDbScale
 70
     0
300
4:1
140
4.0
141
1.0
290
     0
  0
SCALE
  5
250
102
{ACAD_REACTORS
330
241
102
}
330
241
100
AcDbScale
 70
     0
300
8:1
140
8.0
141
1.0
290
     0
  0
SCALE
  5
251
102
{ACAD_REACTORS
330
241
102
}
330
241
100
AcDbScale
 70
     0
300
10:1
140
10.0
141
1.0
290
     0
  0
SCALE
  5
252
102
{ACAD_REACTORS
330
241
102
}
330
241
100
AcDbScale
 70
     0
300
100:1
140
100.0
141
1.0
290
     0
  0
SCALE
  5
253
102
{ACAD_REACTORS
330
241
102
}
330
241
100
AcDbScale
 70
     0
300
1/128" = 1'-0"
140
0.0078125
141
12.0
290
     0
  0
SCALE
  5
254
102
{ACAD_REACTORS
330
241
102
}
330
241
100
AcDbScale
 70
     0
300
1/64" = 1'-0"
140
0.015625
141
12.0
290
     0
  0
SCALE
  5
255
102
{ACAD_REACTORS
330
241
102
}
330
241
100
AcDbScale
 70
     0
300
1/32" = 1'-0"
140
0.03125
141
12.0
290
     0
  0
SCALE
  5
256
102
{ACAD_REACTORS
330
241
102
}
330
241
100
AcDbScale
 70
     0
300
1/16" = 1'-0"
140
0.0625
141
12.0
290
     0
  0
SCALE
  5
257
102
{ACAD_REACTORS
330
241
102
}
330
241
100
AcDbScale
 70
     0
300
3/32" = 1'-0"
140
0.09375
141
12.0
290
     0
  0
SCALE
  5
258
102
{ACAD_REACTORS
330
241
102
}
330
241
100
AcDbScale
 70
     0
300
1/8" = 1'-0"
140
0.125
141
12.0
290
     0
  0
SCALE
  5
259
102
{ACAD_REACTORS
330
241
102
}
330
241
100
AcDbScale
 70
     0
300
3/16" = 1'-0"
140
0.1875
141
12.0
290
     0
  0
SCALE
  5
25A
102
{ACAD_REACTORS
330
241
102
}
330
241
100
AcDbScale
 70
     0
300
1/4" = 1'-0"
140
0.25
141
12.0
290
     0
  0
SCALE
  5
25B
102
{ACAD_REACTORS
330
241
102
}
330
241
100
AcDbScale
 70
     0
300
3/8" = 1'-0"
140
0.375
141
12.0
290
     0
  0
SCALE
  5
25C
102
{ACAD_REACTORS
330
241
102
}
330
241
100
AcDbScale
 70
     0
300
1/2" = 1'-0"
140
0.5
141
12.0
290
     0
  0
SCALE
  5
25D
102
{ACAD_REACTORS
330
241
102
}
330
241
100
AcDbScale
 70
     0
300
3/4" = 1'-0"
140
0.75
141
12.0
290
     0
  0
SCALE
  5
25E
102
{ACAD_REACTORS
330
241
102
}
330
241
100
AcDbScale
 70
     0
300
1" = 1'-0"
140
1.0
141
12.0
290
     0
  0
SCALE
  5
25F
102
{ACAD_REACTORS
330
241
102
}
330
241
100
AcDbScale
 70
     0
300
1-1/2" = 1'-0"
140
1.5
141
12.0
290
     0
  0
SCALE
  5
260
102
{ACAD_REACTORS
330
241
102
}
330
241
100
AcDbScale
 70
     0
300
3" = 1'-0"
140
3.0
141
12.0
290
     0
  0
SCALE
  5
261
102
{ACAD_REACTORS
330
241
102
}
330
241
100
AcDbScale
 70
     0
300
6" = 1'-0"
140
6.0
141
12.0
290
     0
  0
SCALE
  5
262
102
{ACAD_REACTORS
330
241
102
}
330
241
100
AcDbScale
 70
     0
300
1'-0" = 1'-0"
140
12.0
141
12.0
290
     0
  0
TABLESTYLE
  5
279
102
{ACAD_REACTORS
330
278
102
}
102
{ACAD_XDICTIONARY
360
11F2
102
}
330
278
100
AcDbTableStyle
  3
Standard
 70
     0
 71
     0
 40
0.06
 41
0.06
280
     0
281
     0
  7
Standard
140
4.5
170
     2
 62
     0
 63
   257
283
     0
 90
        4
 91
        0
  1

274
    -2
284
     1
 64
     0
275
    -2
285
     1
 65
     0
276
    -2
286
     1
 66
     0
277
    -2
287
     1
 67
     0
278
    -2
288
     1
 68
     0
279
    -2
289
     1
 69
     0
  7
Standard
140
6.0
170
     5
 62
     0
 63
   257
283
     0
 90
        4
 91
        0
  1

274
    -2
284
     1
 64
     0
275
    -2
285
     1
 65
     0
276
    -2
286
     1
 66
     0
277
    -2
287
     1
 67
     0
278
    -2
288
     1
 68
     0
279
    -2
289
     1
 69
     0
  7
Standard
140
4.5
170
     5
 62
     0
 63
   257
283
     0
 90
        4
 91
        0
  1

274
    -2
284
     1
 64
     0
275
    -2
285
     1
 65
     0
276
    -2
286
     1
 66
     0
277
    -2
287
     1
 67
     0
278
    -2
288
     1
 68
     0
279
    -2
289
     1
 69
     0
  0
VISUALSTYLE
  5
26C
102
{ACAD_REACTORS
330
267
102
}
330
267
100
AcDbVisualStyle
  2
2dWireframe
 70
     4
 71
     0
 72
     2
 73
     0
 90
        0
 40
-0.6
 41
-30.0
 62
     5
 63
     7
421
 16777215
 74
     1
 91
        4
 64
     7
 65
   257
 75
     1
175
     1
 42
1.0
 92
        0
 66
   257
 43
1.0
 76
     1
 77
     6
 78
     2
 67
     7
 79
     5
170
     0
171
     0
290
     0
174
     0
 93
        1
 44
0.0
173
     0
291
     0
 45
0.0
  0
VISUALSTYLE
  5
26E
102
{ACAD_REACTORS
330
267
102
}
330
267
100
AcDbVisualStyle
  2
3D Hidden
 70
     6
 71
     1
 72
     2
 73
     2
 90
        0
 40
-0.6
 41
-30.0
 62
     5
 63
     7
421
 16777215
 74
     2
 91
        2
 64
     7
 65
   257
 75
     2
175
     1
 42
40.0
 92
        0
 66
   257
 43
1.0
 76
     1
 77
     6
 78
     2
 67
     7
 79
     3
170
     0
171
     0
290
     0
174
     0
 93
        1
 44
0.0
173
     0
291
     0
 45
0.0
  0
VISUALSTYLE
  5
26D
102
{ACAD_REACTORS
330
267
102
}
330
267
100
AcDbVisualStyle
  2
3dWireframe
 70
     5
 71
     0
 72
     2
 73
     0
 90
        0
 40
-0.6
 41
-30.0
 62
     5
 63
     7
421
 16777215
 74
     1
 91
        4
 64
     7
 65
   257
 75
     1
175
     1
 42
1.0
 92
        0
 66
   257
 43
1.0
 76
     1
 77
     6
 78
     2
 67
     7
 79
     5
170
     0
171
     0
290
     0
174
     0
 93
        1
 44
0.0
173
     0
291
     0
 45
0.0
  0
VISUALSTYLE
  5
26F
102
{ACAD_REACTORS
330
267
102
}
330
267
100
AcDbVisualStyle
  2
Basic
 70
     7
 71
     1
 72
     0
 73
     1
 90
        0
 40
-0.6
 41
-30.0
 62
     5
 63
     7
421
 16777215
 74
     0
 91
        4
 64
     7
 65
   257
 75
     1
175
     1
 42
1.0
 92
        8
 66
     7
 43
1.0
 76
     1
 77
     6
 78
     2
 67
     7
 79
     5
170
     0
171
     0
290
     0
174
     0
 93
        1
 44
0.0
173
     0
291
     1
 45
0.0
  0
VISUALSTYLE
  5
273
102
{ACAD_REACTORS
330
267
102
}
330
267
100
AcDbVisualStyle
  2
Brighten
 70
    12
 71
     2
 72
     2
 73
     0
 90
        0
 40
-0.6
 41
-30.0
 62
     5
 63
     7
421
 16777215
 74
     1
 91
        4
 64
     7
 65
   257
 75
     1
175
     1
 42
1.0
 92
        8
 66
     7
 43
1.0
 76
     1
 77
     6
 78
     2
 67
     7
 79
     5
170
     0
171
     0
290
     0
174
     0
 93
        1
 44
50.0
173
     0
291
     1
 45
0.0
  0
VISUALSTYLE
  5
277
102
{ACAD_REACTORS
330
267
102
}
330
267
100
AcDbVisualStyle
  2
ColorChange
 70
    16
 71
     2
 72
     2
 73
     3
 90
        0
 40
-0.6
 41
-30.0
 62
     5
 63
     8
421
  8421504
 74
     1
 91
        4
 64
     7
 65
   257
 75
     1
175
     1
 42
1.0
 92
        8
 66
     8
424
  8421504
 43
1.0
 76
     1
 77
     6
 78
     2
 67
     7
 79
     5
170
     0
171
     0
290
     0
174
     0
 93
        1
 44
0.0
173
     0
291
     1
 45
0.0
  0
VISUALSTYLE
  5
271
102
{ACAD_REACTORS
330
267
102
}
330
267
100
AcDbVisualStyle
  2
Conceptual
 70
     9
 71
     3
 72
     2
 73
     0
 90
        0
 40
-0.6
 41
-30.0
 62
     5
 63
     7
421
 16777215
 74
     2
 91
        2
 64
     7
 65
   257
 75
     1
175
     1
 42
40.0
 92
        8
 66
     7
 43
1.0
 76
     1
 77
     6
 78
     2
 67
     7
 79
     3
170
     0
171
     0
290
     0
174
     0
 93
        1
 44
0.0
173
     0
291
     0
 45
0.0
  0
VISUALSTYLE
  5
272
102
{ACAD_REACTORS
330
267
102
}
330
267
100
AcDbVisualStyle
  2
Dim
 70
    11
 71
     2
 72
     2
 73
     0
 90
        0
 40
-0.6
 41
-30.0
 62
     5
 63
     7
421
 16777215
 74
     1
 91
        4
 64
     7
 65
   257
 75
     1
175
     1
 42
1.0
 92
        8
 66
     7
 43
1.0
 76
     1
 77
     6
 78
     2
 67
     7
 79
     5
170
     0
171
     0
290
     0
174
     0
 93
        1
 44
-50.0
173
     0
291
     1
 45
0.0
  0
VISUALSTYLE
  5
8FE
102
{ACAD_REACTORS
330
267
102
}
330
267
100
AcDbVisualStyle
  2
EdgeColorOff
 70
    22
 71
     2
 72
     2
 73
     0
 90
        0
 40
0.6
 41
30.0
 62
     5
 63
     7
421
 16777215
 74
     1
 91
        4
 64
     7
 65
   257
 75
     1
175
     1
 42
1.0
 92
        8
 66
     7
 43
1.0
 76
     1
 77
     6
 78
     2
 67
     7
 79
     5
170
     0
171
     0
290
     0
174
     0
 93
        1
 44
0.0
173
     0
291
     1
 45
0.0
  0
VISUALSTYLE
  5
276
102
{ACAD_REACTORS
330
267
102
}
330
267
100
AcDbVisualStyle
  2
Facepattern
 70
    15
 71
     2
 72
     2
 73
     0
 90
        0
 40
-0.6
 41
-30.0
 62
     5
 63
     7
421
 16777215
 74
     1
 91
        4
 64
     7
 65
   257
 75
     1
175
     1
 42
1.0
 92
        8
 66
     7
 43
1.0
 76
     1
 77
     6
 78
     2
 67
     7
 79
     5
170
     0
171
     0
290
     0
174
     0
 93
        1
 44
0.0
173
     0
291
     1
 45
0.0
  0
VISUALSTYLE
  5
268
102
{ACAD_REACTORS
330
267
102
}
330
267
100
AcDbVisualStyle
  2
Flat
 70
     0
 71
     2
 72
     1
 73
     1
 90
        2
 40
-0.6
 41
30.0
 62
     5
 63
     7
421
 16777215
 74
     0
 91
        4
 64
     7
 65
   257
 75
     1
175
     1
 42
1.0
 92
        8
 66
     7
 43
1.0
 76
     1
 77
     6
 78
     2
 67
     7
 79
     5
170
     0
171
     0
290
     0
174
     0
 93
       13
 44
0.0
173
     0
291
     1
 45
0.0
  0
VISUALSTYLE
  5
269
102
{ACAD_REACTORS
330
267
102
}
330
267
100
AcDbVisualStyle
  2
FlatWithEdges
 70
     1
 71
     2
 72
     1
 73
     1
 90
        2
 40
-0.6
 41
30.0
 62
     5
 63
     7
421
 16777215
 74
     1
 91
        4
 64
     7
 65
   257
 75
     1
175
     1
 42
1.0
 92
        0
 66
   257
 43
1.0
 76
     1
 77
     6
 78
     2
 67
     7
 79
     5
170
     0
171
     0
290
     0
174
     0
 93
       13
 44
0.0
173
     0
291
     1
 45
0.0
  0
VISUALSTYLE
  5
26A
102
{ACAD_REACTORS
330
267
102
}
330
267
100
AcDbVisualStyle
  2
Gouraud
 70
     2
 71
     2
 72
     2
 73
     1
 90
        2
 40
-0.6
 41
30.0
 62
     5
 63
     7
421
 16777215
 74
     0
 91
        4
 64
     7
 65
   257
 75
     1
175
     1
 42
1.0
 92
        0
 66
     7
 43
1.0
 76
     1
 77
     6
 78
     2
 67
     7
 79
     5
170
     0
171
     0
290
     0
174
     0
 93
       13
 44
0.0
173
     0
291
     1
 45
0.0
  0
VISUALSTYLE
  5
26B
102
{ACAD_REACTORS
330
267
102
}
330
267
100
AcDbVisualStyle
  2
GouraudWithEdges
 70
     3
 71
     2
 72
     2
 73
     1
 90
        2
 40
-0.6
 41
30.0
 62
     5
 63
     7
421
 16777215
 74
     1
 91
        4
 64
     7
 65
   257
 75
     1
175
     1
 42
1.0
 92
        0
 66
   257
 43
1.0
 76
     1
 77
     6
 78
     2
 67
     7
 79
     5
170
     0
171
     0
290
     0
174
     0
 93
       13
 44
0.0
173
     0
291
     1
 45
0.0
  0
VISUALSTYLE
  5
8FB
102
{ACAD_REACTORS
330
267
102
}
330
267
100
AcDbVisualStyle
  2
Hidden
 70
     6
 71
     1
 72
     2
 73
     2
 90
        0
 40
0.6
 41
30.0
 62
     5
 63
     7
421
 16777215
 74
     2
 91
        2
 64
     7
 65
   257
 75
     2
175
     1
 42
40.0
 92
        0
 66
   257
 43
1.0
 76
     1
 77
     6
 78
     2
 67
     7
 79
     3
170
     0
171
     0
290
     0
174
     0
 93
        1
 44
0.0
173
     0
291
     0
 45
0.0
  0
VISUALSTYLE
  5
8FC
102
{ACAD_REACTORS
330
267
102
}
330
267
100
AcDbVisualStyle
  2
JitterOff
 70
    20
 71
     2
 72
     2
 73
     0
 90
        0
 40
0.6
 41
30.0
 62
     5
 63
     7
421
 16777215
 74
     1
 91
        4
 64
     7
 65
   257
 75
     1
175
     1
 42
1.0
 92
       10
 66
     7
 43
1.0
 76
     1
 77
     6
 78
     2
 67
     7
 79
     5
170
     0
171
     0
290
     0
174
     0
 93
        1
 44
0.0
173
     0
291
     1
 45
0.0
  0
VISUALSTYLE
  5
275
102
{ACAD_REACTORS
330
267
102
}
330
267
100
AcDbVisualStyle
  2
Linepattern
 70
    14
 71
     2
 72
     2
 73
     0
 90
        0
 40
-0.6
 41
-30.0
 62
     5
 63
     7
421
 16777215
 74
     1
 91
        4
 64
     7
 65
   257
 75
     7
175
     7
 42
1.0
 92
        8
 66
     7
 43
1.0
 76
     1
 77
     6
 78
     2
 67
     7
 79
     5
170
     0
171
     0
290
     0
174
     0
 93
        1
 44
0.0
173
     0
291
     1
 45
0.0
  0
VISUALSTYLE
  5
8FD
102
{ACAD_REACTORS
330
267
102
}
330
267
100
AcDbVisualStyle
  2
OverhangOff
 70
    21
 71
     2
 72
     2
 73
     0
 90
        0
 40
0.6
 41
30.0
 62
     5
 63
     7
421
 16777215
 74
     1
 91
        4
 64
     7
 65
   257
 75
     1
175
     1
 42
1.0
 92
        9
 66
     7
 43
1.0
 76
     1
 77
     6
 78
     2
 67
     7
 79
     5
170
     0
171
     0
290
     0
174
     0
 93
        1
 44
0.0
173
     0
291
     1
 45
0.0
  0
VISUALSTYLE
  5
270
102
{ACAD_REACTORS
330
267
102
}
330
267
100
AcDbVisualStyle
  2
Realistic
 70
     8
 71
     2
 72
     2
 73
     0
 90
        0
 40
-0.6
 41
-30.0
 62
     5
 63
     7
421
 16777215
 74
     1
 91
        0
 64
     7
 65
   257
 75
     1
175
     1
 42
1.0
 92
        8
 66
     8
424
  7895160
 43
1.0
 76
     1
 77
     6
 78
     2
 67
     7
 79
     5
170
     0
171
     0
290
     0
174
     0
 93
       13
 44
0.0
173
     0
291
     0
 45
0.0
  0
VISUALSTYLE
  5
903
102
{ACAD_REACTORS
330
267
102
}
330
267
100
AcDbVisualStyle
  2
Shaded
 70
    27
 71
     2
 72
     2
 73
     1
 90
        2
 40
0.6
 41
30.0
 62
     5
 63
     7
421
 16777215
 74
     0
 91
        4
 64
     7
 65
   257
 75
     1
175
     1
 42
1.0
 92
        8
 66
   257
 43
1.0
 76
     1
 77
     6
 78
     2
 67
     8
425
  7895160
 79
     3
170
     0
171
     0
290
     0
174
     0
 93
        5
 44
0.0
173
     0
291
     0
 45
0.0
  0
VISUALSTYLE
  5
902
102
{ACAD_REACTORS
330
267
102
}
330
267
100
AcDbVisualStyle
  2
Shaded with edges
 70
    26
 71
     2
 72
     2
 73
     1
 90
        2
 40
0.6
 41
30.0
 62
     5
 63
     7
421
 16777215
 74
     1
 91
       10
 64
     7
 65
   257
 75
     2
175
     1
 42
1.0
 92
        8
 66
   257
 43
1.0
 76
     1
 77
     6
 78
     2
 67
     7
 79
     3
170
     0
171
     0
290
     0
174
     0
 93
        5
 44
0.0
173
     0
291
     0
 45
0.0
  0
VISUALSTYLE
  5
8FF
102
{ACAD_REACTORS
330
267
102
}
330
267
100
AcDbVisualStyle
  2
Shades of Gray
 70
    23
 71
     2
 72
     2
 73
     3
 90
        0
 40
0.6
 41
30.0
 62
     5
 63
     7
421
 16777215
 74
     2
 91
        2
 64
     7
 65
     7
 75
     1
175
     1
 42
40.0
 92
        8
 66
     7
 43
1.0
 76
     1
 77
     6
 78
     2
 67
     7
 79
     3
170
     0
171
     0
290
     0
174
     0
 93
        1
 44
0.0
173
     0
291
     0
 45
0.0
  0
VISUALSTYLE
  5
900
102
{ACAD_REACTORS
330
267
102
}
330
267
100
AcDbVisualStyle
  2
Sketchy
 70
    24
 71
     1
 72
     2
 73
     2
 90
        0
 40
0.6
 41
30.0
 62
     5
 63
     7
421
 16777215
 74
     2
 91
        2
 64
     7
 65
     7
 75
     1
175
     1
 42
40.0
 92
       11
 66
     7
 43
1.0
 76
     1
 77
     6
 78
     2
 67
     7
 79
     6
170
     0
171
     0
290
     0
174
     0
 93
        1
 44
0.0
173
     0
291
     0
 45
0.0
  0
VISUALSTYLE
  5
274
102
{ACAD_REACTORS
330
267
102
}
330
267
100
AcDbVisualStyle
  2
Thicken
 70
    13
 71
     2
 72
     2
 73
     0
 90
        0
 40
-0.6
 41
-30.0
 62
     5
 63
     7
421
 16777215
 74
     1
 91
        4
 64
     7
 65
   257
 75
     1
175
     1
 42
1.0
 92
       12
 66
     7
 43
1.0
 76
     1
 77
     6
 78
     2
 67
     7
 79
     5
170
     0
171
     0
290
     0
174
     0
 93
        1
 44
0.0
173
     0
291
     1
 45
0.0
  0
VISUALSTYLE
  5
8FA
102
{ACAD_REACTORS
330
267
102
}
330
267
100
AcDbVisualStyle
  2
Wireframe
 70
     5
 71
     0
 72
     2
 73
     0
 90
        0
 40
0.6
 41
30.0
 62
     5
 63
     7
421
 16777215
 74
     1
 91
        4
 64
     7
 65
   257
 75
     1
175
     1
 42
1.0
 92
        0
 66
   257
 43
1.0
 76
     1
 77
     6
 78
     2
 67
     7
 79
     3
170
     0
171
     0
290
     0
174
     0
 93
        1
 44
0.0
173
     0
291
     0
 45
0.0
  0
VISUALSTYLE
  5
901
102
{ACAD_REACTORS
330
267
102
}
330
267
100
AcDbVisualStyle
  2
X-Ray
 70
    25
 71
     2
 72
     2
 73
     1
 90
        1
 40
0.5
 41
30.0
 62
     5
 63
     7
421
 16777215
 74
     1
 91
        0
 64
     7
 65
   257
 75
     1
175
     1
 42
1.0
 92
        8
 66
     7
 43
1.0
 76
     1
 77
     6
 78
     2
 67
     7
 79
     3
170
     0
171
     0
290
     0
174
     0
 93
       13
 44
0.0
173
     0
291
     0
 45
0.0
  0
DICTIONARYVAR
  5
331
102
{ACAD_REACTORS
330
330
102
}
330
330
100
DictionaryVariables
280
     0
  1
1:1
  0
DICTIONARYVAR
  5
D5E
102
{ACAD_REACTORS
330
330
102
}
330
330
100
DictionaryVariables
280
     0
  1
Standard
  0
DICTIONARYVAR
  5
335
102
{ACAD_REACTORS
330
330
102
}
330
330
100
DictionaryVariables
280
     0
  1
Standard
  0
DICTIONARYVAR
  5
D52
102
{ACAD_REACTORS
330
330
102
}
330
330
100
DictionaryVariables
280
     0
  1
ByLayer
  0
DICTIONARYVAR
  5
896
102
{ACAD_REACTORS
330
330
102
}
330
330
100
DictionaryVariables
280
     0
  1
0
  0
XRECORD
  5
7AA
102
{ACAD_REACTORS
330
2E2
102
}
330
2E2
100
AcDbXrecord
280
     1
 91
    34815
301

290
     0
302
HIDDEN
330
14
 90
        8
 62
     7
370
    -3
331
13
  1
Color_7
440
 33554687
330
4B
 90
        8
 62
     7
370
    20
331
13
  1
Color_7
440
 33554687
330
4C
 90
        8
 62
     3
370
    13
331
13
  1
Color_3
440
 33554687
330
4D
 90
        8
 62
     7
370
    20
331
13
  1
Color_7
440
 33554687
330
667
 90
        8
 62
     7
370
    -3
331
13
  1
Color_7
440
 33554687
330
0
 90
        8
 62
     8
370
    20
331
0
  1
Color_8
440
 33554687
330
D6B
 90
        0
 62
     4
370
    20
331
D6C
  1
Color_4
440
 33554687
330
D8C
 90
        0
 62
     7
370
    -3
331
13
  1
Color_7
440
 33554687
  0
DICTIONARY
  5
11F2
330
279
100
AcDbDictionary
280
     1
281
     1
  3
ACAD_ROUNDTRIP_2008_TABLESTYLE_CELLSTYLEMAP
360
11F3
  0
CELLSTYLEMAP
  5
11F3
102
{ACAD_REACTORS
330
11F2
102
}
330
11F2
100
AcDbCellStyleMap
 90
        3
300
CELLSTYLE
  1
TABLEFORMAT_BEGIN
 90
        5
170
     1
 91
        0
 92
    32768
 62
   257
 93
        1
300
CONTENTFORMAT
  1
CONTENTFORMAT_BEGIN
 90
        0
 91
        0
 92
        4
 93
        0
300

 40
0.0
140
1.0
 94
        5
 62
     0
340
17
144
6.0
309
CONTENTFORMAT_END
171
     1
301
MARGIN
  1
CELLMARGIN_BEGIN
 40
0.06
 40
0.06
 40
0.06
 40
0.06
 40
0.18
 40
0.18
309
CELLMARGIN_END
 94
        6
 95
        1
302
GRIDFORMAT
  1
GRIDFORMAT_BEGIN
 90
        0
 91
        1
 62
     0
 92
       -2
340
0
 93
        0
 40
0.045
309
GRIDFORMAT_END
 95
        2
302
GRIDFORMAT
  1
GRIDFORMAT_BEGIN
 90
        0
 91
        1
 62
     0
 92
       -2
340
0
 93
        0
 40
0.045
309
GRIDFORMAT_END
 95
        4
302
GRIDFORMAT
  1
GRIDFORMAT_BEGIN
 90
        0
 91
        1
 62
     0
 92
       -2
340
0
 93
        0
 40
0.045
309
GRIDFORMAT_END
 95
        8
302
GRIDFORMAT
  1
GRIDFORMAT_BEGIN
 90
        0
 91
        1
 62
     0
 92
       -2
340
0
 93
        0
 40
0.045
309
GRIDFORMAT_END
 95
       16
302
GRIDFORMAT
  1
GRIDFORMAT_BEGIN
 90
        0
 91
        1
 62
     0
 92
       -2
340
0
 93
        0
 40
0.045
309
GRIDFORMAT_END
 95
       32
302
GRIDFORMAT
  1
GRIDFORMAT_BEGIN
 90
        0
 91
        1
 62
     0
 92
       -2
340
0
 93
        0
 40
0.045
309
GRIDFORMAT_END
309
TABLEFORMAT_END
  1
CELLSTYLE_BEGIN
 90
        1
 91
        1
300
_TITLE
309
CELLSTYLE_END
300
CELLSTYLE
  1
TABLEFORMAT_BEGIN
 90
        5
170
     1
 91
        0
 92
        0
 62
   257
 93
        1
300
CONTENTFORMAT
  1
CONTENTFORMAT_BEGIN
 90
        0
 91
        0
 92
        4
 93
        0
300

 40
0.0
140
1.0
 94
        5
 62
     0
340
17
144
4.5
309
CONTENTFORMAT_END
171
     1
301
MARGIN
  1
CELLMARGIN_BEGIN
 40
0.06
 40
0.06
 40
0.06
 40
0.06
 40
0.18
 40
0.18
309
CELLMARGIN_END
 94
        6
 95
        1
302
GRIDFORMAT
  1
GRIDFORMAT_BEGIN
 90
        0
 91
        1
 62
     0
 92
       -2
340
0
 93
        0
 40
0.045
309
GRIDFORMAT_END
 95
        2
302
GRIDFORMAT
  1
GRIDFORMAT_BEGIN
 90
        0
 91
        1
 62
     0
 92
       -2
340
0
 93
        0
 40
0.045
309
GRIDFORMAT_END
 95
        4
302
GRIDFORMAT
  1
GRIDFORMAT_BEGIN
 90
        0
 91
        1
 62
     0
 92
       -2
340
0
 93
        0
 40
0.045
309
GRIDFORMAT_END
 95
        8
302
GRIDFORMAT
  1
GRIDFORMAT_BEGIN
 90
        0
 91
        1
 62
     0
 92
       -2
340
0
 93
        0
 40
0.045
309
GRIDFORMAT_END
 95
       16
302
GRIDFORMAT
  1
GRIDFORMAT_BEGIN
 90
        0
 91
        1
 62
     0
 92
       -2
340
0
 93
        0
 40
0.045
309
GRIDFORMAT_END
 95
       32
302
GRIDFORMAT
  1
GRIDFORMAT_BEGIN
 90
        0
 91
        1
 62
     0
 92
       -2
340
0
 93
        0
 40
0.045
309
GRIDFORMAT_END
309
TABLEFORMAT_END
  1
CELLSTYLE_BEGIN
 90
        2
 91
        1
300
_HEADER
309
CELLSTYLE_END
300
CELLSTYLE
  1
TABLEFORMAT_BEGIN
 90
        5
170
     1
 91
        0
 92
        0
 62
   257
 93
        1
300
CONTENTFORMAT
  1
CONTENTFORMAT_BEGIN
 90
        0
 91
        0
 92
        4
 93
        0
300

 40
0.0
140
1.0
 94
        2
 62
     0
340
17
144
4.5
309
CONTENTFORMAT_END
171
     1
301
MARGIN
  1
CELLMARGIN_BEGIN
 40
0.06
 40
0.06
 40
0.06
 40
0.06
 40
0.18
 40
0.18
309
CELLMARGIN_END
 94
        6
 95
        1
302
GRIDFORMAT
  1
GRIDFORMAT_BEGIN
 90
        0
 91
        1
 62
     0
 92
       -2
340
0
 93
        0
 40
0.045
309
GRIDFORMAT_END
 95
        2
302
GRIDFORMAT
  1
GRIDFORMAT_BEGIN
 90
        0
 91
        1
 62
     0
 92
       -2
340
0
 93
        0
 40
0.045
309
GRIDFORMAT_END
 95
        4
302
GRIDFORMAT
  1
GRIDFORMAT_BEGIN
 90
        0
 91
        1
 62
     0
 92
       -2
340
0
 93
        0
 40
0.045
309
GRIDFORMAT_END
 95
        8
302
GRIDFORMAT
  1
GRIDFORMAT_BEGIN
 90
        0
 91
        1
 62
     0
 92
       -2
340
0
 93
        0
 40
0.045
309
GRIDFORMAT_END
 95
       16
302
GRIDFORMAT
  1
GRIDFORMAT_BEGIN
 90
        0
 91
        1
 62
     0
 92
       -2
340
0
 93
        0
 40
0.045
309
GRIDFORMAT_END
 95
       32
302
GRIDFORMAT
  1
GRIDFORMAT_BEGIN
 90
        0
 91
        1
 62
     0
 92
       -2
340
0
 93
        0
 40
0.045
309
GRIDFORMAT_END
309
TABLEFORMAT_END
  1
CELLSTYLE_BEGIN
 90
        3
 91
        2
300
_DATA
309
CELLSTYLE_END
  0
ENDSEC
  0
EOF
