  0
SECTION
  2
HEADER
  9
$ACADVER
  1
AC1021
  9
$ACADMAINTVER
 70
    25
  9
$DWGCODEPAGE
  3
ANSI_932
  9
$LASTSAVEDBY
  1
howeNelson
  9
$INSBASE
 10
0.0
 20
0.0
 30
0.0
  9
$EXTMIN
 10
0.0
 20
0.0
 30
-0.0000000000000071
  9
$EXTMAX
 10
420.0
 20
594.0
 30
0.0000000000000071
  9
$LIMMIN
 10
0.0
 20
0.0
  9
$LIMMAX
 10
420.0
 20
594.0
  9
$ORTHOMODE
 70
     0
  9
$REGENMODE
 70
     1
  9
$FILLMODE
 70
     1
  9
$QTEXTMODE
 70
     0
  9
$MIRRTEXT
 70
     1
  9
$LTSCALE
 40
1.0
  9
$ATTMODE
 70
     1
  9
$TEXTSIZE
 40
2.5
  9
$TRACEWID
 40
1.0
  9
$TEXTSTYLE
  7
ＭＳ ゴシック
  9
$CLAYER
  8
DIM
  9
$CELTYPE
  6
ByLayer
  9
$CECOLOR
 62
   256
  9
$CELTSCALE
 40
1.0
  9
$DISPSILH
 70
     0
  9
$DIMSCALE
 40
1.0
  9
$DIMASZ
 40
2.0
  9
$DIMEXO
 40
5.0
  9
$DIMDLI
 40
0.9999999999999999
  9
$DIMRND
 40
0.0
  9
$DIMDLE
 40
0.0
  9
$DIMEXE
 40
0.0
  9
$DIMTP
 40
0.0
  9
$DIMTM
 40
0.0
  9
$DIMTXT
 40
5.0
  9
$DIMCEN
 40
0.0
  9
$DIMTSZ
 40
0.0
  9
$DIMTOL
 70
     0
  9
$DIMLIM
 70
     0
  9
$DIMTIH
 70
     0
  9
$DIMTOH
 70
     0
  9
$DIMSE1
 70
     0
  9
$DIMSE2
 70
     0
  9
$DIMTAD
 70
     1
  9
$DIMZIN
 70
    11
  9
$DIMBLK
  1
DOT
  9
$DIMASO
 70
     1
  9
$DIMSHO
 70
     1
  9
$DIMPOST
  1
<>
  9
$DIMAPOST
  1
[]
  9
$DIMALT
 70
     0
  9
$DIMALTD
 70
     1
  9
$DIMALTF
 40
1.0
  9
$DIMLFAC
 40
1.0
  9
$DIMTOFL
 70
     0
  9
$DIMTVP
 40
0.0
  9
$DIMTIX
 70
     1
  9
$DIMSOXD
 70
     0
  9
$DIMSAH
 70
     0
  9
$DIMBLK1
  1

  9
$DIMBLK2
  1

  9
$DIMSTYLE
  2
tfrom線あり
  9
$DIMCLRD
 70
     0
  9
$DIMCLRE
 70
     0
  9
$DIMCLRT
 70
     0
  9
$DIMTFAC
 40
1.0
  9
$DIMGAP
 40
3.0
  9
$DIMJUST
 70
     0
  9
$DIMSD1
 70
     0
  9
$DIMSD2
 70
     0
  9
$DIMTOLJ
 70
     1
  9
$DIMTZIN
 70
    11
  9
$DIMALTZ
 70
    11
  9
$DIMALTTZ
 70
    11
  9
$DIMUPT
 70
     0
  9
$DIMDEC
 70
     0
  9
$DIMTDEC
 70
     1
  9
$DIMALTU
 70
     2
  9
$DIMALTTD
 70
     2
  9
$DIMTXSTY
  7
ＭＳ ゴシック
  9
$DIMAUNIT
 70
     0
  9
$DIMADEC
 70
     2
  9
$DIMALTRND
 40
0.0
  9
$DIMAZIN
 70
     0
  9
$DIMDSEP
 70
    46
  9
$DIMATFIT
 70
     0
  9
$DIMFRAC
 70
     2
  9
$DIMLDRBLK
  1
DOT
  9
$DIMLUNIT
 70
     2
  9
$DIMLWD
 70
    -2
  9
$DIMLWE
 70
    -2
  9
$DIMTMOVE
 70
     0
  9
$DIMFXL
 40
1.0
  9
$DIMFXLON
 70
     0
  9
$DIMJOGANG
 40
0.7853981633974483
  9
$DIMTFILL
 70
     0
  9
$DIMTFILLCLR
 70
     0
  9
$DIMARCSYM
 70
     0
  9
$DIMLTYPE
  6

  9
$DIMLTEX1
  6

  9
$DIMLTEX2
  6

  9
$LUNITS
 70
     2
  9
$LUPREC
 70
     0
  9
$SKETCHINC
 40
0.1
  9
$FILLETRAD
 40
0.0
  9
$AUNITS
 70
     0
  9
$AUPREC
 70
     0
  9
$MENU
  1
acad
  9
$ELEVATION
 40
0.0
  9
$PELEVATION
 40
0.0
  9
$THICKNESS
 40
0.0
  9
$LIMCHECK
 70
     0
  9
$CHAMFERA
 40
0.0
  9
$CHAMFERB
 40
0.0
  9
$CHAMFERC
 40
0.0
  9
$CHAMFERD
 40
0.0
  9
$SKPOLY
 70
     0
  9
$TDCREATE
 40
2447893.375
  9
$TDUCREATE
 40
0.0
  9
$TDUPDATE
 40
2458662.635132269
  9
$TDUUPDATE
 40
2458662.260132269
  9
$TDINDWG
 40
0.1416488889
  9
$TDUSRTIMER
 40
0.0013176273
  9
$USRTIMER
 70
     1
  9
$ANGBASE
 50
0.0
  9
$ANGDIR
 70
     0
  9
$PDMODE
 70
     1
  9
$PDSIZE
 40
-2.0
  9
$PLINEWID
 40
0.0
  9
$SPLFRAME
 70
     0
  9
$SPLINETYPE
 70
     6
  9
$SPLINESEGS
 70
     8
  9
$HANDSEED
  5
423C
  9
$SURFTAB1
 70
     6
  9
$SURFTAB2
 70
     6
  9
$SURFTYPE
 70
     6
  9
$SURFU
 70
     6
  9
$SURFV
 70
     6
  9
$UCSBASE
  2

  9
$UCSNAME
  2

  9
$UCSORG
 10
0.0
 20
0.0
 30
0.0
  9
$UCSXDIR
 10
1.0
 20
0.0
 30
0.0
  9
$UCSYDIR
 10
0.0
 20
1.0
 30
0.0
  9
$UCSORTHOREF
  2

  9
$UCSORTHOVIEW
 70
     0
  9
$UCSORGTOP
 10
0.0
 20
0.0
 30
0.0
  9
$UCSORGBOTTOM
 10
0.0
 20
0.0
 30
0.0
  9
$UCSORGLEFT
 10
0.0
 20
0.0
 30
0.0
  9
$UCSORGRIGHT
 10
0.0
 20
0.0
 30
0.0
  9
$UCSORGFRONT
 10
0.0
 20
0.0
 30
0.0
  9
$UCSORGBACK
 10
0.0
 20
0.0
 30
0.0
  9
$PUCSBASE
  2

  9
$PUCSNAME
  2

  9
$PUCSORG
 10
0.0
 20
0.0
 30
0.0
  9
$PUCSXDIR
 10
1.0
 20
0.0
 30
0.0
  9
$PUCSYDIR
 10
0.0
 20
1.0
 30
0.0
  9
$PUCSORTHOREF
  2

  9
$PUCSORTHOVIEW
 70
     0
  9
$PUCSORGTOP
 10
0.0
 20
0.0
 30
0.0
  9
$PUCSORGBOTTOM
 10
0.0
 20
0.0
 30
0.0
  9
$PUCSORGLEFT
 10
0.0
 20
0.0
 30
0.0
  9
$PUCSORGRIGHT
 10
0.0
 20
0.0
 30
0.0
  9
$PUCSORGFRONT
 10
0.0
 20
0.0
 30
0.0
  9
$PUCSORGBACK
 10
0.0
 20
0.0
 30
0.0
  9
$USERI1
 70
     0
  9
$USERI2
 70
     0
  9
$USERI3
 70
     0
  9
$USERI4
 70
     0
  9
$USERI5
 70
     0
  9
$USERR1
 40
0.0
  9
$USERR2
 40
0.0
  9
$USERR3
 40
0.0
  9
$USERR4
 40
0.0
  9
$USERR5
 40
0.0
  9
$WORLDVIEW
 70
     1
  9
$SHADEDGE
 70
     3
  9
$SHADEDIF
 70
    70
  9
$TILEMODE
 70
     1
  9
$MAXACTVP
 70
    64
  9
$PINSBASE
 10
0.0
 20
0.0
 30
0.0
  9
$PLIMCHECK
 70
     0
  9
$PEXTMIN
 10
0.0
 20
0.0
 30
0.0
  9
$PEXTMAX
 10
0.0
 20
0.0
 30
0.0
  9
$PLIMMIN
 10
-7.5
 20
-20.0
  9
$PLIMMAX
 10
412.5
 20
277.0
  9
$UNITMODE
 70
     0
  9
$VISRETAIN
 70
     0
  9
$PLINEGEN
 70
     1
  9
$PSLTSCALE
 70
     0
  9
$TREEDEPTH
 70
  3020
  9
$CMLSTYLE
  2
Standard
  9
$CMLJUST
 70
     0
  9
$CMLSCALE
 40
1.0
  9
$PROXYGRAPHICS
 70
     0
  9
$MEASUREMENT
 70
     1
  9
$CELWEIGHT
370
    -1
  9
$ENDCAPS
280
     0
  9
$JOINSTYLE
280
     0
  9
$LWDISPLAY
290
     1
  9
$INSUNITS
 70
     4
  9
$HYPERLINKBASE
  1

  9
$STYLESHEET
  1

  9
$XEDIT
290
     1
  9
$CEPSNTYPE
380
     0
  9
$PSTYLEMODE
290
     1
  9
$FINGERPRINTGUID
  2

  9
$VERSIONGUID
  2

  9
$EXTNAMES
290
     1
  9
$PSVPSCALE
 40
0.0
  9
$OLESTARTUP
290
     0
  9
$SORTENTS
280
   127
  9
$INDEXCTL
280
     0
  9
$HIDETEXT
280
     1
  9
$XCLIPFRAME
290
     0
  9
$HALOGAP
280
     0
  9
$OBSCOLOR
 70
   257
  9
$OBSLTYPE
280
     0
  9
$INTERSECTIONDISPLAY
280
     0
  9
$INTERSECTIONCOLOR
 70
   257
  9
$DIMASSOC
280
     2
  9
$PROJECTNAME
  1

  9
$CAMERADISPLAY
290
     0
  9
$LENSLENGTH
 40
50.0
  9
$CAMERAHEIGHT
 40
0.0
  9
$STEPSPERSEC
 40
2.0
  9
$STEPSIZE
 40
6.0
  9
$3DDWFPREC
 40
2.0
  9
$PSOLWIDTH
 40
0.25
  9
$PSOLHEIGHT
 40
4.0
  9
$LOFTANG1
 40
1.570796326794897
  9
$LOFTANG2
 40
1.570796326794897
  9
$LOFTMAG1
 40
0.0
  9
$LOFTMAG2
 40
0.0
  9
$LOFTPARAM
 70
     7
  9
$LOFTNORMALS
280
     1
  9
$LATITUDE
 40
37.795
  9
$LONGITUDE
 40
-122.394
  9
$NORTHDIRECTION
 40
0.0
  9
$TIMEZONE
 70
 -8000
  9
$LIGHTGLYPHDISPLAY
280
     1
  9
$TILEMODELIGHTSYNCH
280
     1
  9
$SOLIDHIST
280
     1
  9
$SHOWHIST
280
     1
  9
$DWFFRAME
280
     2
  9
$DGNFRAME
280
     2
  9
$REALWORLDSCALE
290
     1
  9
$INTERFERECOLOR
 62
   256
  9
$CSHADOW
280
     0
  9
$SHADOWPLANELOCATION
 40
0.0
  0
ENDSEC
  0
SECTION
  2
CLASSES
  0
CLASS
  1
LWPOLYLINE
  2
AcDbPolyline
  3
ObjectDBX Classes
 90
        0
 91
        1
280
     0
281
     1
  0
CLASS
  1
IMAGE
  2
AcDbRasterImage
  3
ISM
 90
      127
 91
        6
280
     0
281
     1
  0
CLASS
  1
OLE2FRAME
  2
AcDbOle2Frame
  3
ObjectDBX Classes
 90
        0
 91
        1
280
     0
281
     1
  0
CLASS
  1
HATCH
  2
AcDbHatch
  3
ObjectDBX Classes
 90
        0
 91
        1
280
     0
281
     1
  0
CLASS
  1
DICTIONARYVAR
  2
AcDbDictionaryVar
  3
ObjectDBX Classes
 90
        0
 91
        5
280
     0
281
     0
  0
CLASS
  1
RASTERVARIABLES
  2
AcDbRasterVariables
  3
ISM
 90
        0
 91
        5
280
     0
281
     0
  0
CLASS
  1
IMAGEDEF
  2
AcDbRasterImageDef
  3
ISM
 90
        0
 91
        5
280
     0
281
     0
  0
CLASS
  1
IMAGEDEF_REACTOR
  2
AcDbRasterImageDefReactor
  3
ISM
 90
        1
 91
        5
280
     0
281
     0
  0
CLASS
  1
IDBUFFER
  2
AcDbIdBuffer
  3
ObjectDBX Classes
 90
        0
 91
        5
280
     0
281
     0
  0
CLASS
  1
SPATIAL_FILTER
  2
AcDbSpatialFilter
  3
ObjectDBX Classes
 90
        0
 91
        5
280
     0
281
     0
  0
CLASS
  1
XRECORD
  2
AcDbXrecord
  3
ObjectDBX Classes
 90
        0
 91
        1
280
     0
281
     0
  0
CLASS
  1
SORTENTSTABLE
  2
AcDbSortentsTable
  3
ObjectDBX Classes
 90
        0
 91
        5
280
     0
281
     0
  0
CLASS
  1
LAYER_INDEX
  2
AcDbLayerIndex
  3
ObjectDBX Classes
 90
        0
 91
        5
280
     0
281
     0
  0
CLASS
  1
SPATIAL_INDEX
  2
AcDbSpatialIndex
  3
AutoCAD 2000
 90
        0
 91
        5
280
     0
281
     0
  0
CLASS
  1
OBJECT_PTR
  2
CAseDLPNTableRecord
  3
ASE-LPNTableRecord
 90
        1
 91
        5
280
     0
281
     0
  0
CLASS
  1
LAYOUT
  2
AcDbLayout
  3
ObjectDBX Classes
 90
        0
 91
        1
280
     0
281
     0
  0
CLASS
  1
PLOTSETTINGS
  2
AcDbPlotSettings
  3
ObjectDBX Classes
 90
        0
 91
        5
280
     0
281
     0
  0
CLASS
  1
ACDBDICTIONARYWDFLT
  2
AcDbDictionaryWithDefault
  3
ObjectDBX Classes
 90
        0
 91
        5
280
     0
281
     0
  0
CLASS
  1
ACDBPLACEHOLDER
  2
AcDbPlaceHolder
  3
ObjectDBX Classes
 90
        0
 91
        1
280
     0
281
     0
  0
CLASS
  1
SCALE
  2
AcDbScale
  3
ObjectDBX Classes
 90
     1153
 91
        5
280
     0
281
     0
  0
CLASS
  1
MATERIAL
  2
AcDbMaterial
  3
ObjectDBX Classes
 90
     1153
 91
        5
280
     0
281
     0
  0
CLASS
  1
VISUALSTYLE
  2
AcDbVisualStyle
  3
ObjectDBX Classes
 90
     4095
 91
        5
280
     0
281
     0
  0
CLASS
  1
TABLESTYLE
  2
AcDbTableStyle
  3
ObjectDBX Classes
 90
     4095
 91
        5
280
     0
281
     0
  0
CLASS
  1
DIMASSOC
  2
AcDbDimAssoc
  3
"AcDbDimAssoc|Product Desc:     AcDim ARX App For Dimension|Company:          Autodesk, Inc.|WEB Address:      www.autodesk.com"
 90
        0
 91
        5
280
     0
281
     0
  0
CLASS
  1
CELLSTYLEMAP
  2
AcDbCellStyleMap
  3
ObjectDBX Classes
 90
     1152
 91
        5
280
     0
281
     0
  0
CLASS
  1
SUN
  2
AcDbSun
  3
SCENEOE
 90
     1153
 91
        5
280
     0
281
     0
  0
CLASS
  1
MLEADERSTYLE
  2
AcDbMLeaderStyle
  3
ACDB_MLEADERSTYLE_CLASS
 90
     4095
 91
        5
280
     0
281
     0
  0
CLASS
  1
FIELD
  2
AcDbField
  3
ObjectDBX Classes
 90
     1152
 91
        5
280
     0
281
     0
  0
CLASS
  1
FIELDLIST
  2
AcDbFieldList
  3
ObjectDBX Classes
 90
     1152
 91
        5
280
     0
281
     0
  0
ENDSEC
  0
SECTION
  2
TABLES
  0
TABLE
  2
VPORT
  5
7
330
0
100
AcDbSymbolTable
 70
     1
  0
VPORT
  5
15
330
7
100
AcDbSymbolTableRecord
100
AcDbViewportTableRecord
  2
*ACTIVE
 70
     0
 10
0.0
 20
0.0
 11
1.0
 21
1.0
 12
301.0201356709
 22
223.401285469834
 13
0.0
 23
0.0
 14
1.0
 24
1.0
 15
0.0
 25
0.0
 16
0.0
 26
0.0
 36
1.0
 17
-91.0201356709
 27
73.59871453016603
 37
-46.86809886248109
 40
605.88
 41
2.310294117647059
 42
50.0
 43
0.0
 44
0.0
 50
0.0
 51
0.0
 71
    16
 72
  2000
 73
     1
 74
     1
 75
     0
 76
     0
 77
     0
 78
     0
281
     0
 65
     1
110
0.0
120
0.0
130
0.0
111
1.0
121
0.0
131
0.0
112
0.0
122
1.0
132
0.0
 79
     0
146
0.0
348
26C
 60
     3
 61
     5
292
     1
282
     1
141
0.0
142
0.0
 63
   256
361
904
  0
ENDTAB
  0
TABLE
  2
LTYPE
  5
4
330
0
100
AcDbSymbolTable
 70
     4
  0
LTYPE
  5
11
330
4
100
AcDbSymbolTableRecord
100
AcDbLinetypeTableRecord
  2
ByBlock
 70
     0
  3

 72
    65
 73
     0
 40
0.0
  0
LTYPE
  5
12
330
4
100
AcDbSymbolTableRecord
100
AcDbLinetypeTableRecord
  2
ByLayer
 70
     0
  3

 72
    65
 73
     0
 40
0.0
  0
LTYPE
  5
13
330
4
100
AcDbSymbolTableRecord
100
AcDbLinetypeTableRecord
  2
Continuous
 70
     0
  3
Solid line
 72
    65
 73
     0
 40
0.0
  0
LTYPE
  5
D6C
330
4
100
AcDbSymbolTableRecord
100
AcDbLinetypeTableRecord
  2
BORDER
 70
     0
  3
Border __  __  . __  __  . __  __  . __  __  . 
 72
    65
 73
     6
 40
44.45
 49
12.7
 74
     0
 49
-6.35
 74
     0
 49
12.7
 74
     0
 49
-6.35
 74
     0
 49
0.0
 74
     0
 49
-6.35
 74
     0
  0
LTYPE
  5
D6D
330
4
100
AcDbSymbolTableRecord
100
AcDbLinetypeTableRecord
  2
HIDDEN
 70
     0
  3
Hidden _ _ _ _ _ _ _ _ _ _ _ _ _ _ _ _ _ _ _ _ 
 72
    65
 73
     2
 40
9.524999999999999
 49
6.35
 74
     0
 49
-3.175
 74
     0
  0
LTYPE
  5
3E4E
330
4
100
AcDbSymbolTableRecord
100
AcDbLinetypeTableRecord
  2
CENTERX2
 70
     0
  3
Center (2x) ________  __  ________  __  _____
 72
    65
 73
     4
 40
20.32
 49
12.7
 74
     0
 49
-2.54
 74
     0
 49
2.54
 74
     0
 49
-2.54
 74
     0
  0
ENDTAB
  0
TABLE
  2
LAYER
  5
2
102
{ACAD_XDICTIONARY
360
2E1
102
}
330
0
100
AcDbSymbolTable
 70
    10
  0
LAYER
  5
14
330
2
100
AcDbSymbolTableRecord
100
AcDbLayerTableRecord
  2
0
 70
     0
 62
     7
  6
Continuous
370
    -3
390
1D
347
266
  0
LAYER
  5
4B
330
2
100
AcDbSymbolTableRecord
100
AcDbLayerTableRecord
  2
TEMPLATE
 70
     0
 62
     7
  6
Continuous
370
    20
390
1D
347
266
  0
LAYER
  5
4C
330
2
100
AcDbSymbolTableRecord
100
AcDbLayerTableRecord
  2
DIM
 70
     0
 62
     3
  6
Continuous
370
    13
390
1D
347
266
  0
LAYER
  5
4D
330
2
100
AcDbSymbolTableRecord
100
AcDbLayerTableRecord
  2
MODEL
 70
     0
 62
     7
  6
Continuous
370
    20
390
1D
347
266
  0
LAYER
  5
88C
330
2
100
AcDbSymbolTableRecord
100
AcDbLayerTableRecord
  2
HIDDEN
 70
     0
 62
     8
  6
HIDDEN
370
    20
390
1D
347
266
1001
AcAecLayerStandard
1000

1000

  0
LAYER
  5
D6B
330
2
100
AcDbSymbolTableRecord
100
AcDbLayerTableRecord
  2
BORDER
 70
     0
 62
     4
  6
BORDER
290
     0
370
    20
390
1D
347
266
1001
AcAecLayerStandard
1000

1000

  0
LAYER
  5
D8C
330
2
100
AcDbSymbolTableRecord
100
AcDbLayerTableRecord
  2
Defpoints
 70
     0
 62
     7
  6
Continuous
290
     0
370
    -3
390
1D
347
266
  0
LAYER
  5
3653
330
2
100
AcDbSymbolTableRecord
100
AcDbLayerTableRecord
  2
Standard
 70
     0
 62
     7
  6
Continuous
370
    -3
390
1D
347
266
  0
LAYER
  5
3D4C
330
2
100
AcDbSymbolTableRecord
100
AcDbLayerTableRecord
  2
注释
 70
     0
 62
     7
  6
Continuous
370
    -3
390
1D
347
266
  0
LAYER
  5
3E4C
330
2
100
AcDbSymbolTableRecord
100
AcDbLayerTableRecord
  2
SLD-0
 70
     0
 62
   179
  6
Continuous
370
    -3
390
1D
347
266
  0
ENDTAB
  0
TABLE
  2
STYLE
  5
3
330
0
100
AcDbSymbolTable
 70
     3
  0
STYLE
  5
17
330
3
100
AcDbSymbolTableRecord
100
AcDbTextStyleTableRecord
  2
Standard
 70
     0
 40
0.0
 41
1.0
 50
0.0
 71
     0
 42
2.5
  3
txt
  4
BIGFONT.SHX
  0
STYLE
  5
39
330
3
100
AcDbSymbolTableRecord
100
AcDbTextStyleTableRecord
  2
ＭＳ ゴシック
 70
     0
 40
0.0
 41
1.0
 50
0.0
 71
     0
 42
2.5
  3
msgothic.ttc
  4
ＭＳ ゴシック
1001
ACAD
1000
ＭＳ ゴシック
1071
        0
  0
STYLE
  5
3D51
330
3
100
AcDbSymbolTableRecord
100
AcDbTextStyleTableRecord
  2
SLDTEXTSTYLE0
 70
     0
 40
0.0
 41
0.75
 50
0.0
 71
     0
 42
2.5
  3
TXT
  4

  0
ENDTAB
  0
TABLE
  2
VIEW
  5
5
330
0
100
AcDbSymbolTable
 70
     0
  0
ENDTAB
  0
TABLE
  2
UCS
  5
6
330
0
100
AcDbSymbolTable
 70
     0
  0
ENDTAB
  0
TABLE
  2
APPID
  5
8
330
0
100
AcDbSymbolTable
 70
     3
  0
APPID
  5
16
330
8
100
AcDbSymbolTableRecord
100
AcDbRegAppTableRecord
  2
ACAD
 70
     0
  0
APPID
  5
7AC
330
8
100
AcDbSymbolTableRecord
100
AcDbRegAppTableRecord
  2
AcAecLayerStandard
 70
     0
  0
APPID
  5
E29
330
8
100
AcDbSymbolTableRecord
100
AcDbRegAppTableRecord
  2
ACAD_MLEADERVER
 70
     0
  0
ENDTAB
  0
TABLE
  2
DIMSTYLE
  5
9
330
0
100
AcDbSymbolTable
 70
     6
100
AcDbDimStyleTable
  0
DIMSTYLE
105
18
330
9
100
AcDbSymbolTableRecord
100
AcDbDimStyleTableRecord
  2
Standard
 70
     0
178
     0
340
17
  0
DIMSTYLE
105
57
102
{ACAD_REACTORS
330
3FEB
330
4009
330
4018
330
402F
330
4060
330
409F
330
40AC
330
40EA
330
40EB
330
41C7
330
41DB
102
}
330
9
100
AcDbSymbolTableRecord
100
AcDbDimStyleTableRecord
  2
tfrom線あり
 70
     0
  3
<>
  4
[]
 41
2.0
 42
5.0
 43
0.9999999999999999
 44
0.0
 73
     0
 74
     0
 77
     1
 78
    11
140
5.0
141
0.0
143
1.0
147
3.0
171
     1
174
     1
178
     0
179
     2
271
     0
272
     1
276
     2
284
    11
285
    11
286
    11
289
     0
340
39
341
4E
342
4E
  0
DIMSTYLE
105
3D4E
330
9
100
AcDbSymbolTableRecord
100
AcDbDimStyleTableRecord
  2
ISO-25
 70
     0
 41
2.5
 42
0.625
 43
3.75
 44
1.25
 73
     0
 74
     0
 77
     1
 78
     8
140
2.5
141
2.5
143
0.03937007874016
147
0.625
171
     3
172
     1
178
     0
271
     2
272
     2
274
     3
278
    44
283
     0
284
     8
340
17
  0
DIMSTYLE
105
3D50
330
9
100
AcDbSymbolTableRecord
100
AcDbDimStyleTableRecord
  2
SLDDIMSTYLE0
 70
     0
 41
2.0
 44
0.0
 45
0.000000001
 73
     0
 74
     0
 77
     1
 78
    12
 79
     3
140
2.5
144
1.5
147
0.625
173
     1
178
     0
271
     2
272
     2
276
     2
284
    12
340
3D51
  0
DIMSTYLE
105
3D52
330
9
100
AcDbSymbolTableRecord
100
AcDbDimStyleTableRecord
  2
SLDDIMSTYLE1
 70
     0
 41
2.0
 44
0.0
 45
0.000000001
 73
     0
 74
     0
 77
     1
 78
    12
 79
     3
140
2.5
144
1.5
147
0.625
172
     1
173
     1
178
     0
271
     1
272
     1
276
     2
284
    12
289
     0
340
3D51
  0
DIMSTYLE
105
3D53
330
9
100
AcDbSymbolTableRecord
100
AcDbDimStyleTableRecord
  2
SLDDIMSTYLE2
 70
     0
 41
2.0
 44
0.0
 45
0.000000001
 73
     0
 74
     0
 77
     1
 78
    12
 79
     3
140
2.5
144
1.5
147
0.625
173
     1
178
     0
271
     1
272
     1
276
     2
284
    12
340
3D51
  0
ENDTAB
  0
TABLE
  2
BLOCK_RECORD
  5
1
330
0
100
AcDbSymbolTable
 70
    51
  0
BLOCK_RECORD
  5
A
102
{ACAD_XDICTIONARY
360
3D3D
102
}
330
1
100
AcDbSymbolTableRecord
100
AcDbBlockTableRecord
  2
*MODEL_SPACE
340
20
 70
     0
280
     1
281
     0
  0
BLOCK_RECORD
  5
B
330
1
100
AcDbSymbolTableRecord
100
AcDbBlockTableRecord
  2
*PAPER_SPACE
340
21
 70
     0
280
     1
281
     0
  0
BLOCK_RECORD
  5
4E
330
1
100
AcDbSymbolTableRecord
100
AcDbBlockTableRecord
  2
_DOT
340
0
102
{BLKREFS
331
3B8C
331
3B8D
331
3B98
331
3B99
331
3BA4
331
3BA5
331
3BB0
331
3BB1
331
3BBC
331
3BBD
331
3BC8
331
3BC9
331
3BD4
331
3BD5
331
3CFD
331
3CFE
331
3D0C
331
3D0D
331
3D2A
331
3D2B
331
3D36
331
3D37
331
3FE4
331
3FE5
331
3FF4
331
3FF5
331
4003
331
4004
331
4012
331
4013
331
4021
331
4022
331
4038
331
4039
331
4047
331
4048
331
0
331
406A
331
4120
331
4121
331
412C
331
412D
331
41E6
331
41E7
102
}
 70
     0
280
     1
281
     0
  0
BLOCK_RECORD
  5
68D
330
1
100
AcDbSymbolTableRecord
100
AcDbBlockTableRecord
  2
block 2
340
0
102
{BLKREFS
331
68C
331
1343
102
}
 70
     0
280
     1
281
     0
  0
BLOCK_RECORD
  5
3B86
330
1
100
AcDbSymbolTableRecord
100
AcDbBlockTableRecord
  2
*D2
340
0
 70
     0
280
     1
281
     0
  0
BLOCK_RECORD
  5
3B92
330
1
100
AcDbSymbolTableRecord
100
AcDbBlockTableRecord
  2
*D3
340
0
 70
     0
280
     1
281
     0
  0
BLOCK_RECORD
  5
3B9E
330
1
100
AcDbSymbolTableRecord
100
AcDbBlockTableRecord
  2
*D4
340
0
 70
     0
280
     1
281
     0
  0
BLOCK_RECORD
  5
3BAA
330
1
100
AcDbSymbolTableRecord
100
AcDbBlockTableRecord
  2
*D5
340
0
 70
     0
280
     1
281
     0
  0
BLOCK_RECORD
  5
3BB6
330
1
100
AcDbSymbolTableRecord
100
AcDbBlockTableRecord
  2
*D6
340
0
 70
     0
280
     1
281
     0
  0
BLOCK_RECORD
  5
3BC2
330
1
100
AcDbSymbolTableRecord
100
AcDbBlockTableRecord
  2
*D7
340
0
 70
     0
280
     1
281
     0
  0
BLOCK_RECORD
  5
3BCE
330
1
100
AcDbSymbolTableRecord
100
AcDbBlockTableRecord
  2
*D8
340
0
 70
     0
280
     1
281
     0
  0
BLOCK_RECORD
  5
3CF8
330
1
100
AcDbSymbolTableRecord
100
AcDbBlockTableRecord
  2
*D9
340
0
 70
     0
280
     1
281
     0
  0
BLOCK_RECORD
  5
3D07
330
1
100
AcDbSymbolTableRecord
100
AcDbBlockTableRecord
  2
*D10
340
0
 70
     0
280
     1
281
     0
  0
BLOCK_RECORD
  5
3D24
330
1
100
AcDbSymbolTableRecord
100
AcDbBlockTableRecord
  2
*D11
340
0
 70
     0
280
     1
281
     0
  0
BLOCK_RECORD
  5
3D30
330
1
100
AcDbSymbolTableRecord
100
AcDbBlockTableRecord
  2
*D12
340
0
 70
     0
280
     1
281
     0
  0
BLOCK_RECORD
  5
3D7B
330
1
100
AcDbSymbolTableRecord
100
AcDbBlockTableRecord
  2
*D13
340
0
 70
     0
280
     1
281
     0
  0
BLOCK_RECORD
  5
3D85
330
1
100
AcDbSymbolTableRecord
100
AcDbBlockTableRecord
  2
*D14
340
0
 70
     0
280
     1
281
     0
  0
BLOCK_RECORD
  5
3DA2
330
1
100
AcDbSymbolTableRecord
100
AcDbBlockTableRecord
  2
*D15
340
0
 70
     0
280
     1
281
     0
  0
BLOCK_RECORD
  5
3DAC
330
1
100
AcDbSymbolTableRecord
100
AcDbBlockTableRecord
  2
*D16
340
0
 70
     0
280
     1
281
     0
  0
BLOCK_RECORD
  5
3E1B
330
1
100
AcDbSymbolTableRecord
100
AcDbBlockTableRecord
  2
*D17
340
0
 70
     0
280
     1
281
     0
  0
BLOCK_RECORD
  5
3E27
330
1
100
AcDbSymbolTableRecord
100
AcDbBlockTableRecord
  2
*D18
340
0
 70
     0
280
     1
281
     0
  0
BLOCK_RECORD
  5
3E33
330
1
100
AcDbSymbolTableRecord
100
AcDbBlockTableRecord
  2
*D19
340
0
 70
     0
280
     1
281
     0
  0
BLOCK_RECORD
  5
3E3F
330
1
100
AcDbSymbolTableRecord
100
AcDbBlockTableRecord
  2
*D20
340
0
 70
     0
280
     1
281
     0
  0
BLOCK_RECORD
  5
3EA9
330
1
100
AcDbSymbolTableRecord
100
AcDbBlockTableRecord
  2
*D21
340
0
 70
     0
280
     1
281
     0
  0
BLOCK_RECORD
  5
3EB3
330
1
100
AcDbSymbolTableRecord
100
AcDbBlockTableRecord
  2
*D22
340
0
 70
     0
280
     1
281
     0
  0
BLOCK_RECORD
  5
3ED7
330
1
100
AcDbSymbolTableRecord
100
AcDbBlockTableRecord
  2
*D23
340
0
 70
     0
280
     1
281
     0
  0
BLOCK_RECORD
  5
3EE1
330
1
100
AcDbSymbolTableRecord
100
AcDbBlockTableRecord
  2
*D24
340
0
 70
     0
280
     1
281
     0
  0
BLOCK_RECORD
  5
3EFD
330
1
100
AcDbSymbolTableRecord
100
AcDbBlockTableRecord
  2
*D25
340
0
 70
     0
280
     1
281
     0
  0
BLOCK_RECORD
  5
3F09
330
1
100
AcDbSymbolTableRecord
100
AcDbBlockTableRecord
  2
*D26
340
0
 70
     0
280
     1
281
     0
  0
BLOCK_RECORD
  5
3F8D
330
1
100
AcDbSymbolTableRecord
100
AcDbBlockTableRecord
  2
*D27
340
0
 70
     0
280
     1
281
     0
  0
BLOCK_RECORD
  5
3F99
330
1
100
AcDbSymbolTableRecord
100
AcDbBlockTableRecord
  2
*D28
340
0
 70
     0
280
     1
281
     0
  0
BLOCK_RECORD
  5
3FA5
330
1
100
AcDbSymbolTableRecord
100
AcDbBlockTableRecord
  2
*D29
340
0
 70
     0
280
     1
281
     0
  0
BLOCK_RECORD
  5
3FB1
330
1
100
AcDbSymbolTableRecord
100
AcDbBlockTableRecord
  2
*D30
340
0
 70
     0
280
     1
281
     0
  0
BLOCK_RECORD
  5
3FBD
330
1
100
AcDbSymbolTableRecord
100
AcDbBlockTableRecord
  2
*D31
340
0
 70
     0
280
     1
281
     0
  0
BLOCK_RECORD
  5
3FC9
330
1
100
AcDbSymbolTableRecord
100
AcDbBlockTableRecord
  2
*D32
340
0
 70
     0
280
     1
281
     0
  0
BLOCK_RECORD
  5
3FDE
330
1
100
AcDbSymbolTableRecord
100
AcDbBlockTableRecord
  2
*D33
340
0
 70
     0
280
     1
281
     0
  0
BLOCK_RECORD
  5
3FEE
330
1
100
AcDbSymbolTableRecord
100
AcDbBlockTableRecord
  2
*D34
340
0
 70
     0
280
     1
281
     0
  0
BLOCK_RECORD
  5
3FFD
330
1
100
AcDbSymbolTableRecord
100
AcDbBlockTableRecord
  2
*D35
340
0
 70
     0
280
     1
281
     0
  0
BLOCK_RECORD
  5
400C
330
1
100
AcDbSymbolTableRecord
100
AcDbBlockTableRecord
  2
*D36
340
0
 70
     0
280
     1
281
     0
  0
BLOCK_RECORD
  5
401B
330
1
100
AcDbSymbolTableRecord
100
AcDbBlockTableRecord
  2
*D37
340
0
 70
     0
280
     1
281
     0
  0
BLOCK_RECORD
  5
4032
330
1
100
AcDbSymbolTableRecord
100
AcDbBlockTableRecord
  2
*D38
340
0
 70
     0
280
     1
281
     0
  0
BLOCK_RECORD
  5
4041
330
1
100
AcDbSymbolTableRecord
100
AcDbBlockTableRecord
  2
*D39
340
0
 70
     0
280
     1
281
     0
  0
BLOCK_RECORD
  5
4063
330
1
100
AcDbSymbolTableRecord
100
AcDbBlockTableRecord
  2
*D40
340
0
 70
     0
280
     1
281
     0
  0
BLOCK_RECORD
  5
40A0
330
1
100
AcDbSymbolTableRecord
100
AcDbBlockTableRecord
  2
*D42
340
0
 70
     0
280
     1
281
     0
  0
BLOCK_RECORD
  5
40AD
330
1
100
AcDbSymbolTableRecord
100
AcDbBlockTableRecord
  2
*D43
340
0
 70
     0
280
     1
281
     0
  0
BLOCK_RECORD
  5
411A
330
1
100
AcDbSymbolTableRecord
100
AcDbBlockTableRecord
  2
*D44
340
0
 70
     0
280
     1
281
     0
  0
BLOCK_RECORD
  5
4126
330
1
100
AcDbSymbolTableRecord
100
AcDbBlockTableRecord
  2
*D45
340
0
 70
     0
280
     1
281
     0
  0
BLOCK_RECORD
  5
41CC
330
1
100
AcDbSymbolTableRecord
100
AcDbBlockTableRecord
  2
*D48
340
0
 70
     0
280
     1
281
     0
  0
BLOCK_RECORD
  5
41E0
330
1
100
AcDbSymbolTableRecord
100
AcDbBlockTableRecord
  2
*D49
340
0
 70
     0
280
     1
281
     0
  0
ENDTAB
  0
ENDSEC
  0
SECTION
  2
BLOCKS
  0
BLOCK
  5
D
330
A
100
AcDbEntity
  8
0
390
1D
100
AcDbBlockBegin
  2
*MODEL_SPACE
 70
     0
 10
0.0
 20
0.0
 30
0.0
  3
*MODEL_SPACE
  1
*MODEL_SPACE
  0
ENDBLK
  5
E
330
A
100
AcDbEntity
  8
0
390
1D
100
AcDbBlockEnd
  0
BLOCK
  5
F
330
B
100
AcDbEntity
 67
     1
  8
0
390
1D
100
AcDbBlockBegin
  2
*PAPER_SPACE
 70
     0
 10
0.0
 20
0.0
 30
0.0
  3
*PAPER_SPACE
  1
*PAPER_SPACE
  0
ENDBLK
  5
10
330
B
100
AcDbEntity
 67
     1
  8
0
390
1D
100
AcDbBlockEnd
  0
BLOCK
  5
2462
330
4E
100
AcDbEntity
  8
0
390
1D
100
AcDbBlockBegin
  2
_DOT
 70
     0
 10
0.0
 20
0.0
 30
0.0
  3
_DOT
  1
_DOT
  0
POLYLINE
  5
2464
330
4E
100
AcDbEntity
  8
0
  6
ByBlock
 62
     0
370
    -2
390
1D
100
AcDb2dPolyline
 66
     1
 10
0.0
 20
0.0
 30
0.0
 70
     1
 40
0.5
 41
0.5
  0
VERTEX
  5
2465
330
2464
100
AcDbEntity
  8
0
  6
ByBlock
 62
     0
370
    -2
390
1D
100
AcDbVertex
100
AcDb2dVertex
 10
-0.25
 20
0.0
 30
0.0
 42
1.0
  0
VERTEX
  5
2466
330
2464
100
AcDbEntity
  8
0
  6
ByBlock
 62
     0
370
    -2
390
1D
100
AcDbVertex
100
AcDb2dVertex
 10
0.25
 20
0.0
 30
0.0
 42
1.0
  0
SEQEND
  5
2467
330
2464
100
AcDbEntity
  8
0
390
1D
  0
LINE
  5
2468
330
4E
100
AcDbEntity
  8
0
  6
ByBlock
 62
     0
370
    -2
390
1D
100
AcDbLine
 10
-0.5
 20
0.0
 30
0.0
 11
-1.0
 21
0.0
 31
0.0
  0
ENDBLK
  5
2469
330
4E
100
AcDbEntity
  8
0
390
1D
100
AcDbBlockEnd
  0
BLOCK
  5
68E
330
68D
100
AcDbEntity
  8
0
100
AcDbBlockBegin
  2
block 2
 70
     0
 10
0.0
 20
0.0
 30
0.0
  3
block 2
  1
block 2
  0
ENDBLK
  5
6B0
330
68D
100
AcDbEntity
  8
0
100
AcDbBlockEnd
  0
BLOCK
  5
3B87
330
3B86
100
AcDbEntity
  8
0
100
AcDbBlockBegin
  2
*D2
 70
     1
 10
0.0
 20
0.0
 30
0.0
  3
*D2
  1

  0
LINE
  5
3B89
330
3B86
100
AcDbEntity
  8
DIM
 62
     0
370
    -2
100
AcDbLine
 10
120.4165303244005
 20
319.2077009873063
 30
0.0
 11
80.41653032440028
 21
319.2077009873061
 31
0.0
  0
LINE
  5
3B8A
330
3B86
100
AcDbEntity
  8
DIM
 62
     0
370
    -2
100
AcDbLine
 10
95.2823248987792
 20
182.2077009873063
 30
0.0
 11
80.41653032440077
 21
182.2077009873062
 31
0.0
  0
LINE
  5
3B8B
330
3B86
100
AcDbEntity
  8
DIM
 62
     0
370
    -2
100
AcDbLine
 10
80.41653032440028
 20
317.2077009873061
 30
0.0
 11
80.41653032440077
 21
184.2077009873062
 31
0.0
  0
INSERT
  5
3B8C
330
3B86
100
AcDbEntity
  8
DIM
 62
     0
370
    -2
100
AcDbBlockReference
  2
_DOT
 10
80.41653032440028
 20
319.2077009873061
 30
0.0
 41
2.0
 42
2.0
 43
2.0
 50
90.0000000000002
  0
INSERT
  5
3B8D
330
3B86
100
AcDbEntity
  8
DIM
 62
     0
370
    -2
100
AcDbBlockReference
  2
_DOT
 10
80.41653032440077
 20
182.2077009873062
 30
0.0
 41
2.0
 42
2.0
 43
2.0
 50
270.0000000000002
  0
MTEXT
  5
3B8E
330
3B86
100
AcDbEntity
  8
DIM
 62
     0
 48
0.05
100
AcDbMText
 10
72.41653032440053
 20
250.7077009873063
 30
0.0
 40
5.0
 41
0.0
 46
0.0
 71
     2
 72
     1
  1
\A1;137
  7
ＭＳ ゴシック
 11
-3.526781462166923E-15
 21
1.0
 31
0.0
 73
     1
 44
1.0
  0
POINT
  5
3B8F
330
3B86
100
AcDbEntity
  8
Defpoints
 62
     0
100
AcDbPoint
 10
125.4165303244005
 20
319.2077009873063
 30
0.0
  0
POINT
  5
3B90
330
3B86
100
AcDbEntity
  8
Defpoints
 62
     0
100
AcDbPoint
 10
100.2823248987792
 20
182.2077009873063
 30
0.0
  0
POINT
  5
3B91
330
3B86
100
AcDbEntity
  8
Defpoints
 62
     0
100
AcDbPoint
 10
80.41653032440077
 20
182.2077009873062
 30
0.0
  0
ENDBLK
  5
3B88
330
3B86
100
AcDbEntity
  8
0
100
AcDbBlockEnd
  0
BLOCK
  5
3B93
330
3B92
100
AcDbEntity
  8
0
100
AcDbBlockBegin
  2
*D3
 70
     1
 10
0.0
 20
0.0
 30
0.0
  3
*D3
  1

  0
LINE
  5
3B95
330
3B92
100
AcDbEntity
  8
DIM
 62
     0
370
    -2
100
AcDbLine
 10
100.4165303244005
 20
456.7854077805792
 30
0.0
 11
100.4165303244005
 21
469.9574301222169
 31
0.0
  0
LINE
  5
3B96
330
3B92
100
AcDbEntity
  8
DIM
 62
     0
370
    -2
100
AcDbLine
 10
172.4165303244005
 20
456.7854077805792
 30
0.0
 11
172.4165303244005
 21
469.9574301222169
 31
0.0
  0
LINE
  5
3B97
330
3B92
100
AcDbEntity
  8
DIM
 62
     0
370
    -2
100
AcDbLine
 10
102.4165303244005
 20
469.9574301222169
 30
0.0
 11
170.4165303244005
 21
469.9574301222169
 31
0.0
  0
INSERT
  5
3B98
330
3B92
100
AcDbEntity
  8
DIM
 62
     0
370
    -2
100
AcDbBlockReference
  2
_DOT
 10
100.4165303244005
 20
469.9574301222169
 30
0.0
 41
2.0
 42
2.0
 43
2.0
 50
180.0
  0
INSERT
  5
3B99
330
3B92
100
AcDbEntity
  8
DIM
 62
     0
370
    -2
100
AcDbBlockReference
  2
_DOT
 10
172.4165303244005
 20
469.9574301222169
 30
0.0
 41
2.0
 42
2.0
 43
2.0
  0
MTEXT
  5
3B9A
330
3B92
100
AcDbEntity
  8
DIM
 62
     0
 48
0.05
100
AcDbMText
 10
136.4165303244005
 20
477.9574301222169
 30
0.0
 40
5.0
 41
0.0
 46
0.0
 71
     2
 72
     1
  1
\A1;72
  7
ＭＳ ゴシック
 73
     1
 44
1.0
  0
POINT
  5
3B9B
330
3B92
100
AcDbEntity
  8
Defpoints
 62
     0
100
AcDbPoint
 10
100.4165303244005
 20
451.7854077805792
 30
0.0
  0
POINT
  5
3B9C
330
3B92
100
AcDbEntity
  8
Defpoints
 62
     0
100
AcDbPoint
 10
172.4165303244005
 20
451.7854077805792
 30
0.0
  0
POINT
  5
3B9D
330
3B92
100
AcDbEntity
  8
Defpoints
 62
     0
100
AcDbPoint
 10
172.4165303244005
 20
469.9574301222169
 30
0.0
  0
ENDBLK
  5
3B94
330
3B92
100
AcDbEntity
  8
0
100
AcDbBlockEnd
  0
BLOCK
  5
3B9F
330
3B9E
100
AcDbEntity
  8
0
100
AcDbBlockBegin
  2
*D4
 70
     1
 10
0.0
 20
0.0
 30
0.0
  3
*D4
  1

  0
LINE
  5
3BA1
330
3B9E
100
AcDbEntity
  8
DIM
 62
     0
370
    -2
100
AcDbLine
 10
95.4165303244005
 20
448.3104475998533
 30
0.0
 11
80.41653032440041
 21
448.3104475998533
 31
0.0
  0
LINE
  5
3BA2
330
3B9E
100
AcDbEntity
  8
DIM
 62
     0
370
    -2
100
AcDbLine
 10
120.4165303244005
 20
380.0604475998529
 30
0.0
 11
80.41653032440065
 21
380.0604475998528
 31
0.0
  0
LINE
  5
3BA3
330
3B9E
100
AcDbEntity
  8
DIM
 62
     0
370
    -2
100
AcDbLine
 10
80.41653032440041
 20
446.3104475998533
 30
0.0
 11
80.41653032440065
 21
382.0604475998528
 31
0.0
  0
INSERT
  5
3BA4
330
3B9E
100
AcDbEntity
  8
DIM
 62
     0
370
    -2
100
AcDbBlockReference
  2
_DOT
 10
80.41653032440041
 20
448.3104475998533
 30
0.0
 41
2.0
 42
2.0
 43
2.0
 50
90.0000000000002
  0
INSERT
  5
3BA5
330
3B9E
100
AcDbEntity
  8
DIM
 62
     0
370
    -2
100
AcDbBlockReference
  2
_DOT
 10
80.41653032440065
 20
380.0604475998528
 30
0.0
 41
2.0
 42
2.0
 43
2.0
 50
270.0000000000002
  0
MTEXT
  5
3BA6
330
3B9E
100
AcDbEntity
  8
DIM
 62
     0
 48
0.05
100
AcDbMText
 10
72.41653032440053
 20
414.1854475998531
 30
0.0
 40
5.0
 41
0.0
 46
0.0
 71
     2
 72
     1
  1
\A1;68
  7
ＭＳ ゴシック
 11
-3.539700075581425E-15
 21
1.0
 31
0.0
 73
     1
 44
1.0
  0
POINT
  5
3BA7
330
3B9E
100
AcDbEntity
  8
Defpoints
 62
     0
100
AcDbPoint
 10
100.4165303244005
 20
448.3104475998533
 30
0.0
  0
POINT
  5
3BA8
330
3B9E
100
AcDbEntity
  8
Defpoints
 62
     0
100
AcDbPoint
 10
125.4165303244005
 20
380.0604475998529
 30
0.0
  0
POINT
  5
3BA9
330
3B9E
100
AcDbEntity
  8
Defpoints
 62
     0
100
AcDbPoint
 10
80.41653032440065
 20
380.0604475998528
 30
0.0
  0
ENDBLK
  5
3BA0
330
3B9E
100
AcDbEntity
  8
0
100
AcDbBlockEnd
  0
BLOCK
  5
3BAB
330
3BAA
100
AcDbEntity
  8
0
100
AcDbBlockBegin
  2
*D5
 70
     1
 10
0.0
 20
0.0
 30
0.0
  3
*D5
  1

  0
LINE
  5
3BAD
330
3BAA
100
AcDbEntity
  8
DIM
 62
     0
370
    -2
100
AcDbLine
 10
125.4165303244005
 20
375.0604475998529
 30
0.0
 11
125.4165303244005
 21
361.7949884833052
 31
0.0
  0
LINE
  5
3BAE
330
3BAA
100
AcDbEntity
  8
DIM
 62
     0
370
    -2
100
AcDbLine
 10
147.4165303244005
 20
375.0604475998529
 30
0.0
 11
147.4165303244005
 21
361.7949884833052
 31
0.0
  0
LINE
  5
3BAF
330
3BAA
100
AcDbEntity
  8
DIM
 62
     0
370
    -2
100
AcDbLine
 10
127.4165303244005
 20
361.7949884833052
 30
0.0
 11
145.4165303244005
 21
361.7949884833052
 31
0.0
  0
INSERT
  5
3BB0
330
3BAA
100
AcDbEntity
  8
DIM
 62
     0
370
    -2
100
AcDbBlockReference
  2
_DOT
 10
125.4165303244005
 20
361.7949884833052
 30
0.0
 41
2.0
 42
2.0
 43
2.0
 50
180.0
  0
INSERT
  5
3BB1
330
3BAA
100
AcDbEntity
  8
DIM
 62
     0
370
    -2
100
AcDbBlockReference
  2
_DOT
 10
147.4165303244005
 20
361.7949884833052
 30
0.0
 41
2.0
 42
2.0
 43
2.0
  0
MTEXT
  5
3BB2
330
3BAA
100
AcDbEntity
  8
DIM
 62
     0
 48
0.05
100
AcDbMText
 10
136.4165303244005
 20
369.7949884833052
 30
0.0
 40
5.0
 41
0.0
 46
0.0
 71
     2
 72
     1
  1
\A1;22
  7
ＭＳ ゴシック
 73
     1
 44
1.0
  0
POINT
  5
3BB3
330
3BAA
100
AcDbEntity
  8
Defpoints
 62
     0
100
AcDbPoint
 10
125.4165303244005
 20
380.0604475998529
 30
0.0
  0
POINT
  5
3BB4
330
3BAA
100
AcDbEntity
  8
Defpoints
 62
     0
100
AcDbPoint
 10
147.4165303244005
 20
380.0604475998529
 30
0.0
  0
POINT
  5
3BB5
330
3BAA
100
AcDbEntity
  8
Defpoints
 62
     0
100
AcDbPoint
 10
147.4165303244005
 20
361.7949884833052
 30
0.0
  0
ENDBLK
  5
3BAC
330
3BAA
100
AcDbEntity
  8
0
100
AcDbBlockEnd
  0
BLOCK
  5
3BB7
330
3BB6
100
AcDbEntity
  8
0
100
AcDbBlockBegin
  2
*D6
 70
     1
 10
0.0
 20
0.0
 30
0.0
  3
*D6
  1

  0
LINE
  5
3BB9
330
3BB6
100
AcDbEntity
  8
DIM
 62
     0
370
    -2
100
AcDbLine
 10
176.6454837165862
 20
212.2077009873064
 30
0.0
 11
193.3903881603889
 21
212.2077009873063
 31
0.0
  0
LINE
  5
3BBA
330
3BB6
100
AcDbEntity
  8
DIM
 62
     0
370
    -2
100
AcDbLine
 10
176.6454837165862
 20
182.2077009873063
 30
0.0
 11
193.3903881603889
 21
182.2077009873062
 31
0.0
  0
LINE
  5
3BBB
330
3BB6
100
AcDbEntity
  8
DIM
 62
     0
370
    -2
100
AcDbLine
 10
193.3903881603889
 20
210.2077009873063
 30
0.0
 11
193.3903881603889
 21
184.2077009873062
 31
0.0
  0
INSERT
  5
3BBC
330
3BB6
100
AcDbEntity
  8
DIM
 62
     0
370
    -2
100
AcDbBlockReference
  2
_DOT
 10
193.3903881603889
 20
212.2077009873063
 30
0.0
 41
2.0
 42
2.0
 43
2.0
 50
89.99999999999982
  0
INSERT
  5
3BBD
330
3BB6
100
AcDbEntity
  8
DIM
 62
     0
370
    -2
100
AcDbBlockReference
  2
_DOT
 10
193.3903881603889
 20
182.2077009873062
 30
0.0
 41
2.0
 42
2.0
 43
2.0
 50
269.9999999999998
  0
MTEXT
  5
3BBE
330
3BB6
100
AcDbEntity
  8
DIM
 62
     0
 48
0.05
100
AcDbMText
 10
185.3903881603889
 20
197.2077009873064
 30
0.0
 40
5.0
 41
0.0
 46
0.0
 71
     2
 72
     1
  1
\A1;30
  7
ＭＳ ゴシック
 11
2.842170943040393E-15
 21
1.0
 31
0.0
 73
     1
 44
1.0
  0
POINT
  5
3BBF
330
3BB6
100
AcDbEntity
  8
Defpoints
 62
     0
100
AcDbPoint
 10
171.6454837165862
 20
212.2077009873064
 30
0.0
  0
POINT
  5
3BC0
330
3BB6
100
AcDbEntity
  8
Defpoints
 62
     0
100
AcDbPoint
 10
171.6454837165862
 20
182.2077009873063
 30
0.0
  0
POINT
  5
3BC1
330
3BB6
100
AcDbEntity
  8
Defpoints
 62
     0
100
AcDbPoint
 10
193.3903881603888
 20
182.2077009873062
 30
0.0
  0
ENDBLK
  5
3BB8
330
3BB6
100
AcDbEntity
  8
0
100
AcDbBlockEnd
  0
BLOCK
  5
3BC3
330
3BC2
100
AcDbEntity
  8
0
100
AcDbBlockBegin
  2
*D7
 70
     1
 10
0.0
 20
0.0
 30
0.0
  3
*D7
  1

  0
LINE
  5
3BC5
330
3BC2
100
AcDbEntity
  8
DIM
 62
     0
370
    -2
100
AcDbLine
 10
177.9901558885232
 20
438.06044758632
 30
0.0
 11
190.3107608583836
 21
438.06044758632
 31
0.0
  0
LINE
  5
3BC6
330
3BC2
100
AcDbEntity
  8
DIM
 62
     0
370
    -2
100
AcDbLine
 10
177.4165317216699
 20
448.31044758632
 30
0.0
 11
190.3107608583836
 21
448.31044758632
 31
0.0
  0
LINE
  5
3BC7
330
3BC2
100
AcDbEntity
  8
DIM
 62
     0
370
    -2
100
AcDbLine
 10
190.3107608583836
 20
440.06044758632
 30
0.0
 11
190.3107608583836
 21
446.31044758632
 31
0.0
  0
INSERT
  5
3BC8
330
3BC2
100
AcDbEntity
  8
DIM
 62
     0
370
    -2
100
AcDbBlockReference
  2
_DOT
 10
190.3107608583836
 20
438.06044758632
 30
0.0
 41
2.0
 42
2.0
 43
2.0
 50
270.0
  0
INSERT
  5
3BC9
330
3BC2
100
AcDbEntity
  8
DIM
 62
     0
370
    -2
100
AcDbBlockReference
  2
_DOT
 10
190.3107608583836
 20
448.31044758632
 30
0.0
 41
2.0
 42
2.0
 43
2.0
 50
90.0
  0
MTEXT
  5
3BCA
330
3BC2
100
AcDbEntity
  8
DIM
 62
     0
 48
0.05
100
AcDbMText
 10
182.3107608583836
 20
443.18544758632
 30
0.0
 40
5.0
 41
0.0
 46
0.0
 71
     2
 72
     1
  1
\A1;10
  7
ＭＳ ゴシック
 11
0.0
 21
1.0
 31
0.0
 73
     1
 44
1.0
  0
POINT
  5
3BCB
330
3BC2
100
AcDbEntity
  8
Defpoints
 62
     0
100
AcDbPoint
 10
172.9901558885232
 20
438.06044758632
 30
0.0
  0
POINT
  5
3BCC
330
3BC2
100
AcDbEntity
  8
Defpoints
 62
     0
100
AcDbPoint
 10
172.4165317216699
 20
448.31044758632
 30
0.0
  0
POINT
  5
3BCD
330
3BC2
100
AcDbEntity
  8
Defpoints
 62
     0
100
AcDbPoint
 10
190.3107608583836
 20
448.31044758632
 30
0.0
  0
ENDBLK
  5
3BC4
330
3BC2
100
AcDbEntity
  8
0
100
AcDbBlockEnd
  0
BLOCK
  5
3BCF
330
3BCE
100
AcDbEntity
  8
0
100
AcDbBlockBegin
  2
*D8
 70
     1
 10
0.0
 20
0.0
 30
0.0
  3
*D8
  1

  0
LINE
  5
3BD1
330
3BCE
100
AcDbEntity
  8
DIM
 62
     0
370
    -2
100
AcDbLine
 10
182.9901558885232
 20
438.06044758632
 30
0.0
 11
190.3107608583836
 21
438.06044758632
 31
0.0
  0
LINE
  5
3BD2
330
3BCE
100
AcDbEntity
  8
DIM
 62
     0
370
    -2
100
AcDbLine
 10
150.8011504144714
 20
380.0604500198659
 30
0.0
 11
190.3107608583836
 21
380.0604500198659
 31
0.0
  0
LINE
  5
3BD3
330
3BCE
100
AcDbEntity
  8
DIM
 62
     0
370
    -2
100
AcDbLine
 10
190.3107608583836
 20
436.06044758632
 30
0.0
 11
190.3107608583836
 21
382.0604500198659
 31
0.0
  0
INSERT
  5
3BD4
330
3BCE
100
AcDbEntity
  8
DIM
 62
     0
370
    -2
100
AcDbBlockReference
  2
_DOT
 10
190.3107608583836
 20
438.06044758632
 30
0.0
 41
2.0
 42
2.0
 43
2.0
 50
90.0
  0
INSERT
  5
3BD5
330
3BCE
100
AcDbEntity
  8
DIM
 62
     0
370
    -2
100
AcDbBlockReference
  2
_DOT
 10
190.3107608583836
 20
380.0604500198659
 30
0.0
 41
2.0
 42
2.0
 43
2.0
 50
270.0
  0
MTEXT
  5
3BD6
330
3BCE
100
AcDbEntity
  8
DIM
 62
     0
 48
0.05
100
AcDbMText
 10
184.8107608583836
 20
409.060448803093
 30
0.0
 40
5.0
 41
0.0
 46
0.0
 71
     5
 72
     1
  1
\A1;58
  7
ＭＳ ゴシック
 11
0.0
 21
1.0
 31
0.0
 73
     1
 44
1.0
  0
POINT
  5
3BD7
330
3BCE
100
AcDbEntity
  8
Defpoints
 62
     0
100
AcDbPoint
 10
177.9901558885232
 20
438.06044758632
 30
0.0
  0
POINT
  5
3BD8
330
3BCE
100
AcDbEntity
  8
Defpoints
 62
     0
100
AcDbPoint
 10
145.8011504144714
 20
380.0604500198659
 30
0.0
  0
POINT
  5
3BD9
330
3BCE
100
AcDbEntity
  8
Defpoints
 62
     0
100
AcDbPoint
 10
190.3107608583836
 20
380.0604500198659
 30
0.0
  0
ENDBLK
  5
3BD0
330
3BCE
100
AcDbEntity
  8
0
100
AcDbBlockEnd
  0
BLOCK
  5
3CF9
330
3CF8
100
AcDbEntity
  8
0
100
AcDbBlockBegin
  2
*D9
 70
     1
 10
0.0
 20
0.0
 30
0.0
  3
*D9
  1

  0
LINE
  5
3CFA
330
3CF8
100
AcDbEntity
  8
DIM
 62
     0
370
    -2
100
AcDbLine
 10
0.5
 20
67.50177050455927
 30
0.0
 11
0.5
 21
97.57489301398171
 31
0.0
  0
LINE
  5
3CFB
330
3CF8
100
AcDbEntity
  8
DIM
 62
     0
370
    -2
100
AcDbLine
 10
57.58899696048613
 20
67.50177050455927
 30
0.0
 11
57.58899696048613
 21
97.57489301398171
 31
0.0
  0
LINE
  5
3CFC
330
3CF8
100
AcDbEntity
  8
DIM
 62
     0
370
    -2
100
AcDbLine
 10
2.5
 20
97.57489301398171
 30
0.0
 11
55.58899696048613
 21
97.57489301398171
 31
0.0
  0
INSERT
  5
3CFD
330
3CF8
100
AcDbEntity
  8
DIM
 62
     0
370
    -2
100
AcDbBlockReference
  2
_DOT
 10
0.5
 20
97.57489301398171
 30
0.0
 41
2.0
 42
2.0
 43
2.0
 50
180.0
  0
INSERT
  5
3CFE
330
3CF8
100
AcDbEntity
  8
DIM
 62
     0
370
    -2
100
AcDbBlockReference
  2
_DOT
 10
57.58899696048613
 20
97.57489301398171
 30
0.0
 41
2.0
 42
2.0
 43
2.0
  0
MTEXT
  5
3CFF
330
3CF8
100
AcDbEntity
  8
DIM
 62
     0
100
AcDbMText
 10
29.04449848024305
 20
103.0748930139817
 30
0.0
 40
5.0
 41
0.0
 46
0.0
 71
     5
 72
     1
  1
\A1;57
  7
ＭＳ ゴシック
 73
     1
 44
1.0
  0
POINT
  5
3D00
330
3CF8
100
AcDbEntity
  8
Defpoints
 62
     0
100
AcDbPoint
 10
0.5
 20
62.50177050455927
 30
0.0
  0
POINT
  5
3D01
330
3CF8
100
AcDbEntity
  8
Defpoints
 62
     0
100
AcDbPoint
 10
57.58899696048613
 20
62.50177050455927
 30
0.0
  0
POINT
  5
3D02
330
3CF8
100
AcDbEntity
  8
Defpoints
 62
     0
100
AcDbPoint
 10
57.58899696048613
 20
97.57489301398171
 30
0.0
  0
ENDBLK
  5
3D03
330
3CF8
100
AcDbEntity
  8
0
100
AcDbBlockEnd
  0
BLOCK
  5
3D08
330
3D07
100
AcDbEntity
  8
0
100
AcDbBlockBegin
  2
*D10
 70
     1
 10
0.0
 20
0.0
 30
0.0
  3
*D10
  1

  0
LINE
  5
3D09
330
3D07
100
AcDbEntity
  8
DIM
 62
     0
370
    -2
100
AcDbLine
 10
10.10104278775087
 20
57.50177050455927
 30
0.0
 11
10.10104278775087
 21
19.15243768996962
 31
0.0
  0
LINE
  5
3D0A
330
3D07
100
AcDbEntity
  8
DIM
 62
     0
370
    -2
100
AcDbLine
 10
47.98795417273527
 20
57.50177050455927
 30
0.0
 11
47.98795417273527
 21
19.15243768996962
 31
0.0
  0
LINE
  5
3D0B
330
3D07
100
AcDbEntity
  8
DIM
 62
     0
370
    -2
100
AcDbLine
 10
12.10104278775087
 20
19.15243768996962
 30
0.0
 11
45.98795417273527
 21
19.15243768996962
 31
0.0
  0
INSERT
  5
3D0C
330
3D07
100
AcDbEntity
  8
DIM
 62
     0
370
    -2
100
AcDbBlockReference
  2
_DOT
 10
10.10104278775087
 20
19.15243768996962
 30
0.0
 41
2.0
 42
2.0
 43
2.0
 50
180.0
  0
INSERT
  5
3D0D
330
3D07
100
AcDbEntity
  8
DIM
 62
     0
370
    -2
100
AcDbBlockReference
  2
_DOT
 10
47.98795417273527
 20
19.15243768996962
 30
0.0
 41
2.0
 42
2.0
 43
2.0
  0
MTEXT
  5
3D0E
330
3D07
100
AcDbEntity
  8
DIM
 62
     0
100
AcDbMText
 10
29.04449848024307
 20
24.65243768996962
 30
0.0
 40
5.0
 41
0.0
 46
0.0
 71
     5
 72
     1
  1
\A1;38
  7
ＭＳ ゴシック
 73
     1
 44
1.0
  0
POINT
  5
3D0F
330
3D07
100
AcDbEntity
  8
Defpoints
 62
     0
100
AcDbPoint
 10
10.10104278775087
 20
62.50177050455927
 30
0.0
  0
POINT
  5
3D10
330
3D07
100
AcDbEntity
  8
Defpoints
 62
     0
100
AcDbPoint
 10
47.98795417273527
 20
62.50177050455927
 30
0.0
  0
POINT
  5
3D11
330
3D07
100
AcDbEntity
  8
Defpoints
 62
     0
100
AcDbPoint
 10
47.98795417273527
 20
19.15243768996962
 30
0.0
  0
ENDBLK
  5
3D12
330
3D07
100
AcDbEntity
  8
0
100
AcDbBlockEnd
  0
BLOCK
  5
3D25
330
3D24
100
AcDbEntity
  8
0
100
AcDbBlockBegin
  2
*D11
 70
     1
 10
0.0
 20
0.0
 30
0.0
  3
*D11
  1

  0
LINE
  5
3D27
330
3D24
100
AcDbEntity
  8
DIM
 62
     0
370
    -2
100
AcDbLine
 10
-214.8106995524892
 20
338.6076747477204
 30
0.0
 11
-214.8106995524892
 21
403.7539197665653
 31
0.0
  0
LINE
  5
3D28
330
3D24
100
AcDbEntity
  8
DIM
 62
     0
370
    -2
100
AcDbLine
 10
-100.6327056315168
 20
338.6076747477204
 30
0.0
 11
-100.6327056315168
 21
403.7539197665653
 31
0.0
  0
LINE
  5
3D29
330
3D24
100
AcDbEntity
  8
DIM
 62
     0
370
    -2
100
AcDbLine
 10
-212.8106995524892
 20
403.7539197665653
 30
0.0
 11
-102.6327056315168
 21
403.7539197665653
 31
0.0
  0
INSERT
  5
3D2A
330
3D24
100
AcDbEntity
  8
DIM
 62
     0
370
    -2
100
AcDbBlockReference
  2
_DOT
 10
-214.8106995524892
 20
403.7539197665653
 30
0.0
 41
2.0
 42
2.0
 43
2.0
 50
180.0
  0
INSERT
  5
3D2B
330
3D24
100
AcDbEntity
  8
DIM
 62
     0
370
    -2
100
AcDbBlockReference
  2
_DOT
 10
-100.6327056315168
 20
403.7539197665653
 30
0.0
 41
2.0
 42
2.0
 43
2.0
  0
MTEXT
  5
3D2C
330
3D24
100
AcDbEntity
  8
DIM
 62
     0
100
AcDbMText
 10
-157.7217025920031
 20
409.2539197665653
 30
0.0
 40
5.0
 41
0.0
 46
0.0
 71
     5
 72
     1
  1
\A1;114
  7
ＭＳ ゴシック
 73
     1
 44
1.0
  0
POINT
  5
3D2D
330
3D24
100
AcDbEntity
  8
Defpoints
 62
     0
100
AcDbPoint
 10
-214.8106995524892
 20
333.6076747477204
 30
0.0
  0
POINT
  5
3D2E
330
3D24
100
AcDbEntity
  8
Defpoints
 62
     0
100
AcDbPoint
 10
-100.6327056315168
 20
333.6076747477204
 30
0.0
  0
POINT
  5
3D2F
330
3D24
100
AcDbEntity
  8
Defpoints
 62
     0
100
AcDbPoint
 10
-100.6327056315168
 20
403.7539197665653
 30
0.0
  0
ENDBLK
  5
3D26
330
3D24
100
AcDbEntity
  8
0
100
AcDbBlockEnd
  0
BLOCK
  5
3D31
330
3D30
100
AcDbEntity
  8
0
100
AcDbBlockBegin
  2
*D12
 70
     1
 10
0.0
 20
0.0
 30
0.0
  3
*D12
  1

  0
LINE
  5
3D33
330
3D30
100
AcDbEntity
  8
DIM
 62
     0
370
    -2
100
AcDbLine
 10
-195.6086139769875
 20
328.6076747477204
 30
0.0
 11
-195.6086139769875
 21
246.9090091185411
 31
0.0
  0
LINE
  5
3D34
330
3D30
100
AcDbEntity
  8
DIM
 62
     0
370
    -2
100
AcDbLine
 10
-119.8347912070187
 20
328.6076747477204
 30
0.0
 11
-119.8347912070187
 21
246.9090091185411
 31
0.0
  0
LINE
  5
3D35
330
3D30
100
AcDbEntity
  8
DIM
 62
     0
370
    -2
100
AcDbLine
 10
-193.6086139769875
 20
246.9090091185411
 30
0.0
 11
-121.8347912070187
 21
246.9090091185411
 31
0.0
  0
INSERT
  5
3D36
330
3D30
100
AcDbEntity
  8
DIM
 62
     0
370
    -2
100
AcDbBlockReference
  2
_DOT
 10
-195.6086139769875
 20
246.9090091185411
 30
0.0
 41
2.0
 42
2.0
 43
2.0
 50
180.0
  0
INSERT
  5
3D37
330
3D30
100
AcDbEntity
  8
DIM
 62
     0
370
    -2
100
AcDbBlockReference
  2
_DOT
 10
-119.8347912070187
 20
246.9090091185411
 30
0.0
 41
2.0
 42
2.0
 43
2.0
  0
MTEXT
  5
3D38
330
3D30
100
AcDbEntity
  8
DIM
 62
     0
100
AcDbMText
 10
-157.7217025920031
 20
252.4090091185411
 30
0.0
 40
5.0
 41
0.0
 46
0.0
 71
     5
 72
     1
  1
\A1;76
  7
ＭＳ ゴシック
 73
     1
 44
1.0
  0
POINT
  5
3D39
330
3D30
100
AcDbEntity
  8
Defpoints
 62
     0
100
AcDbPoint
 10
-195.6086139769875
 20
333.6076747477204
 30
0.0
  0
POINT
  5
3D3A
330
3D30
100
AcDbEntity
  8
Defpoints
 62
     0
100
AcDbPoint
 10
-119.8347912070187
 20
333.6076747477204
 30
0.0
  0
POINT
  5
3D3B
330
3D30
100
AcDbEntity
  8
Defpoints
 62
     0
100
AcDbPoint
 10
-119.8347912070187
 20
246.9090091185411
 30
0.0
  0
ENDBLK
  5
3D32
330
3D30
100
AcDbEntity
  8
0
100
AcDbBlockEnd
  0
BLOCK
  5
3D7C
330
3D7B
100
AcDbEntity
  8
0
100
AcDbBlockBegin
  2
*D13
 70
     1
 10
0.0
 20
0.0
 30
0.0
  3
*D13
  1

  0
LINE
  5
3D7D
330
3D7B
100
AcDbEntity
  8
注释
 62
     0
370
    -2
100
AcDbLine
 10
28.11598384533224
 20
185.006446689063
 30
0.0
 11
17.84515051199875
 21
185.006446689063
 31
0.0
  0
LINE
  5
3D7E
330
3D7B
100
AcDbEntity
  8
注释
 62
     0
370
    -2
100
AcDbLine
 10
28.11598384533224
 20
78.3397800223963
 30
0.0
 11
17.84515051199913
 21
78.33978002239627
 31
0.0
  0
LINE
  5
3D7F
330
3D7B
100
AcDbEntity
  8
注释
 62
     0
370
    -2
100
AcDbLine
 10
17.84515051199876
 20
183.006446689063
 30
0.0
 11
17.84515051199912
 21
80.33978002239627
 31
0.0
  0
SOLID
  5
3D80
330
3D7B
100
AcDbEntity
  8
注释
 62
     0
100
AcDbTrace
 10
18.17848384533209
 20
183.006446689063
 30
0.0
 11
17.51181717866543
 21
183.006446689063
 31
0.0
 12
17.84515051199875
 22
185.006446689063
 32
0.0
 13
17.84515051199875
 23
185.006446689063
 33
0.0
  0
SOLID
  5
3D81
330
3D7B
100
AcDbEntity
  8
注释
 62
     0
100
AcDbTrace
 10
17.51181717866579
 20
80.33978002239627
 30
0.0
 11
18.17848384533245
 21
80.33978002239627
 31
0.0
 12
17.84515051199913
 22
78.33978002239627
 32
0.0
 13
17.84515051199913
 23
78.33978002239627
 33
0.0
  0
MTEXT
  5
3D82
330
3D7B
100
AcDbEntity
  8
注释
 62
     0
100
AcDbMText
 10
14.72015051199894
 20
131.6731133557296
 30
0.0
 40
2.5
 41
0.0
 46
0.0
 71
     2
 72
     1
  1
\A1;160
  7
SLDTEXTSTYLE0
 11
-3.497202527569242E-15
 21
1.0
 31
0.0
 73
     1
 44
1.0
  0
POINT
  5
3DD5
330
3D7B
100
AcDbEntity
  8
Defpoints
 62
     0
100
AcDbPoint
 10
28.17848384533224
 20
185.006446689063
 30
0.0
  0
POINT
  5
3DD6
330
3D7B
100
AcDbEntity
  8
Defpoints
 62
     0
100
AcDbPoint
 10
28.17848384533224
 20
78.3397800223963
 30
0.0
  0
POINT
  5
3DD7
330
3D7B
100
AcDbEntity
  8
Defpoints
 62
     0
100
AcDbPoint
 10
17.84515051199894
 20
78.33978002239625
 30
0.0
  0
ENDBLK
  5
3D83
330
3D7B
100
AcDbEntity
  8
0
100
AcDbBlockEnd
  0
BLOCK
  5
3D86
330
3D85
100
AcDbEntity
  8
0
100
AcDbBlockBegin
  2
*D14
 70
     1
 10
0.0
 20
0.0
 30
0.0
  3
*D14
  1

  0
LINE
  5
3D87
330
3D85
100
AcDbEntity
  8
注释
 62
     0
370
    -2
100
AcDbLine
 10
28.17848384533224
 20
78.2772800223963
 30
0.0
 11
28.17848384533224
 21
71.78290395683854
 31
0.0
  0
LINE
  5
3D88
330
3D85
100
AcDbEntity
  8
注释
 62
     0
370
    -2
100
AcDbLine
 10
37.64515051199891
 20
78.2772800223963
 30
0.0
 11
37.64515051199891
 21
71.78290395683854
 31
0.0
  0
LINE
  5
3D89
330
3D85
100
AcDbEntity
  8
注释
 62
     0
370
    -2
100
AcDbLine
 10
30.17848384533224
 20
71.78290395683854
 30
0.0
 11
35.64515051199891
 21
71.78290395683854
 31
0.0
  0
SOLID
  5
3D8A
330
3D85
100
AcDbEntity
  8
注释
 62
     0
100
AcDbTrace
 10
30.17848384533224
 20
72.11623729017187
 30
0.0
 11
30.17848384533224
 21
71.44957062350521
 31
0.0
 12
28.17848384533224
 22
71.78290395683854
 32
0.0
 13
28.17848384533224
 23
71.78290395683854
 33
0.0
  0
SOLID
  5
3D8B
330
3D85
100
AcDbEntity
  8
注释
 62
     0
100
AcDbTrace
 10
35.64515051199891
 20
71.44957062350521
 30
0.0
 11
35.64515051199891
 21
72.11623729017187
 31
0.0
 12
37.64515051199891
 22
71.78290395683854
 32
0.0
 13
37.64515051199891
 23
71.78290395683854
 33
0.0
  0
MTEXT
  5
3D8C
330
3D85
100
AcDbEntity
  8
注释
 62
     0
100
AcDbMText
 10
32.91181717866557
 20
74.90790395683854
 30
0.0
 40
2.5
 41
0.0
 46
0.0
 71
     2
 72
     1
  1
\A1;14.2
  7
SLDTEXTSTYLE0
 73
     1
 44
1.0
  0
POINT
  5
3D8D
330
3D85
100
AcDbEntity
  8
Defpoints
 62
     0
100
AcDbPoint
 10
28.17848384533224
 20
78.3397800223963
 30
0.0
  0
POINT
  5
3D8E
330
3D85
100
AcDbEntity
  8
Defpoints
 62
     0
100
AcDbPoint
 10
37.64515051199891
 20
78.3397800223963
 30
0.0
  0
POINT
  5
3DD8
330
3D85
100
AcDbEntity
  8
Defpoints
 62
     0
100
AcDbPoint
 10
37.64515051199891
 20
71.78290395683854
 30
0.0
  0
ENDBLK
  5
3D8F
330
3D85
100
AcDbEntity
  8
0
100
AcDbBlockEnd
  0
BLOCK
  5
3DA3
330
3DA2
100
AcDbEntity
  8
0
100
AcDbBlockBegin
  2
*D15
 70
     1
 10
0.0
 20
0.0
 30
0.0
  3
*D15
  1

  0
LINE
  5
3DA4
330
3DA2
100
AcDbEntity
  8
注释
 62
     0
370
    -2
100
AcDbLine
 10
96.2479838419548
 20
98.40644668906296
 30
0.0
 11
86.31048384195475
 21
98.40644668906292
 31
0.0
  0
LINE
  5
3DA5
330
3DA2
100
AcDbEntity
  8
注释
 62
     0
370
    -2
100
AcDbLine
 10
96.2479838419548
 20
78.40644668906296
 30
0.0
 11
86.31048384195482
 21
78.40644668906292
 31
0.0
  0
LINE
  5
3DA6
330
3DA2
100
AcDbEntity
  8
注释
 62
     0
370
    -2
100
AcDbLine
 10
86.31048384195475
 20
96.40644668906292
 30
0.0
 11
86.3104838419548
 21
80.40644668906292
 31
0.0
  0
SOLID
  5
3DA7
330
3DA2
100
AcDbEntity
  8
注释
 62
     0
100
AcDbTrace
 10
86.64381717528808
 20
96.40644668906292
 30
0.0
 11
85.97715050862142
 21
96.40644668906292
 31
0.0
 12
86.31048384195475
 22
98.40644668906292
 32
0.0
 13
86.31048384195475
 23
98.40644668906292
 33
0.0
  0
SOLID
  5
3DA8
330
3DA2
100
AcDbEntity
  8
注释
 62
     0
100
AcDbTrace
 10
85.97715050862148
 20
80.40644668906292
 30
0.0
 11
86.64381717528813
 21
80.40644668906292
 31
0.0
 12
86.31048384195482
 22
78.40644668906292
 32
0.0
 13
86.31048384195482
 23
78.40644668906292
 33
0.0
  0
MTEXT
  5
3DA9
330
3DA2
100
AcDbEntity
  8
注释
 62
     0
100
AcDbMText
 10
83.18548384195478
 20
88.40644668906296
 30
0.0
 40
2.5
 41
0.0
 46
0.0
 71
     2
 72
     1
  1
\A1;30
  7
SLDTEXTSTYLE0
 11
-3.552713678800501E-15
 21
1.0
 31
0.0
 73
     1
 44
1.0
  0
POINT
  5
3DD9
330
3DA2
100
AcDbEntity
  8
Defpoints
 62
     0
100
AcDbPoint
 10
96.3104838419548
 20
98.40644668906296
 30
0.0
  0
POINT
  5
3DDA
330
3DA2
100
AcDbEntity
  8
Defpoints
 62
     0
100
AcDbPoint
 10
96.3104838419548
 20
78.40644668906296
 30
0.0
  0
POINT
  5
3DDB
330
3DA2
100
AcDbEntity
  8
Defpoints
 62
     0
100
AcDbPoint
 10
86.31048384195478
 20
78.40644668906292
 30
0.0
  0
ENDBLK
  5
3DAA
330
3DA2
100
AcDbEntity
  8
0
100
AcDbBlockEnd
  0
BLOCK
  5
3DAD
330
3DAC
100
AcDbEntity
  8
0
100
AcDbBlockBegin
  2
*D16
 70
     1
 10
0.0
 20
0.0
 30
0.0
  3
*D16
  1

  0
LINE
  5
3DAE
330
3DAC
100
AcDbEntity
  8
注释
 62
     0
370
    -2
100
AcDbLine
 10
96.3104838419548
 20
78.34394668906296
 30
0.0
 11
96.3104838419548
 21
68.33978002239627
 31
0.0
  0
LINE
  5
3DAF
330
3DAC
100
AcDbEntity
  8
注释
 62
     0
370
    -2
100
AcDbLine
 10
136.4438171752881
 20
78.2772800223963
 30
0.0
 11
136.4438171752881
 21
68.33978002239627
 31
0.0
  0
LINE
  5
3DB0
330
3DAC
100
AcDbEntity
  8
注释
 62
     0
370
    -2
100
AcDbLine
 10
98.3104838419548
 20
68.33978002239627
 30
0.0
 11
134.4438171752881
 21
68.33978002239627
 31
0.0
  0
SOLID
  5
3DB1
330
3DAC
100
AcDbEntity
  8
注释
 62
     0
100
AcDbTrace
 10
98.3104838419548
 20
68.6731133557296
 30
0.0
 11
98.3104838419548
 21
68.00644668906294
 31
0.0
 12
96.3104838419548
 22
68.33978002239627
 32
0.0
 13
96.3104838419548
 23
68.33978002239627
 33
0.0
  0
SOLID
  5
3DB2
330
3DAC
100
AcDbEntity
  8
注释
 62
     0
100
AcDbTrace
 10
134.4438171752881
 20
68.00644668906294
 30
0.0
 11
134.4438171752881
 21
68.6731133557296
 31
0.0
 12
136.4438171752881
 22
68.33978002239627
 32
0.0
 13
136.4438171752881
 23
68.33978002239627
 33
0.0
  0
MTEXT
  5
3DB3
330
3DAC
100
AcDbEntity
  8
注释
 62
     0
100
AcDbMText
 10
116.3771505086214
 20
71.46478002239627
 30
0.0
 40
2.5
 41
0.0
 46
0.0
 71
     2
 72
     1
  1
\A1;60.2
  7
SLDTEXTSTYLE0
 73
     1
 44
1.0
  0
POINT
  5
3DDC
330
3DAC
100
AcDbEntity
  8
Defpoints
 62
     0
100
AcDbPoint
 10
96.3104838419548
 20
78.40644668906296
 30
0.0
  0
POINT
  5
3DDD
330
3DAC
100
AcDbEntity
  8
Defpoints
 62
     0
100
AcDbPoint
 10
136.4438171752881
 20
78.3397800223963
 30
0.0
  0
POINT
  5
3DDE
330
3DAC
100
AcDbEntity
  8
Defpoints
 62
     0
100
AcDbPoint
 10
136.4438171752881
 20
68.33978002239627
 30
0.0
  0
ENDBLK
  5
3DB4
330
3DAC
100
AcDbEntity
  8
0
100
AcDbBlockEnd
  0
BLOCK
  5
3E1C
330
3E1B
100
AcDbEntity
  8
0
100
AcDbBlockBegin
  2
*D17
 70
     1
 10
0.0
 20
0.0
 30
0.0
  3
*D17
  1

  0
LINE
  5
3E1E
330
3E1B
100
AcDbEntity
  8
MODEL
  6
Continuous
 62
     0
370
    -2
100
AcDbLine
 10
102.5356393835245
 20
407.611444549722
 30
0.0
 11
81.93147271685743
 21
407.6114445497219
 31
0.0
  0
LINE
  5
3E1F
330
3E1B
100
AcDbEntity
  8
MODEL
  6
Continuous
 62
     0
370
    -2
100
AcDbLine
 10
102.5356393835245
 20
194.2781112163887
 30
0.0
 11
81.93147271685817
 21
194.2781112163886
 31
0.0
  0
LINE
  5
3E20
330
3E1B
100
AcDbEntity
  8
MODEL
  6
Continuous
 62
     0
370
    -2
100
AcDbLine
 10
81.93147271685743
 20
405.6114445497219
 30
0.0
 11
81.93147271685817
 21
196.2781112163886
 31
0.0
  0
SOLID
  5
3E21
330
3E1B
100
AcDbEntity
  8
MODEL
 62
     0
100
AcDbTrace
 10
82.26480605019076
 20
405.6114445497219
 30
0.0
 11
81.5981393835241
 21
405.6114445497219
 31
0.0
 12
81.93147271685743
 22
407.6114445497219
 32
0.0
 13
81.93147271685743
 23
407.6114445497219
 33
0.0
  0
SOLID
  5
3E22
330
3E1B
100
AcDbEntity
  8
MODEL
 62
     0
100
AcDbTrace
 10
81.59813938352484
 20
196.2781112163886
 30
0.0
 11
82.2648060501915
 21
196.2781112163886
 31
0.0
 12
81.93147271685817
 22
194.2781112163886
 32
0.0
 13
81.93147271685817
 23
194.2781112163886
 33
0.0
  0
MTEXT
  5
3E23
330
3E1B
100
AcDbEntity
  8
MODEL
 62
     0
100
AcDbMText
 10
78.8064727168578
 20
300.9447778830554
 30
0.0
 40
2.5
 41
0.0
 46
0.0
 71
     2
 72
     1
  1
\A1;213.33
  7
SLDTEXTSTYLE0
 11
-3.463895836830489E-15
 21
1.0
 31
0.0
 73
     1
 44
1.0
  0
POINT
  5
3E24
330
3E1B
100
AcDbEntity
  8
Defpoints
 62
     0
100
AcDbPoint
 10
102.5981393835245
 20
407.611444549722
 30
0.0
  0
POINT
  5
3E25
330
3E1B
100
AcDbEntity
  8
Defpoints
 62
     0
100
AcDbPoint
 10
102.5981393835245
 20
194.2781112163887
 30
0.0
  0
POINT
  5
3E26
330
3E1B
100
AcDbEntity
  8
Defpoints
 62
     0
100
AcDbPoint
 10
81.93147271685817
 20
194.2781112163886
 30
0.0
  0
ENDBLK
  5
3E1D
330
3E1B
100
AcDbEntity
  8
0
100
AcDbBlockEnd
  0
BLOCK
  5
3E28
330
3E27
100
AcDbEntity
  8
0
100
AcDbBlockBegin
  2
*D18
 70
     1
 10
0.0
 20
0.0
 30
0.0
  3
*D18
  1

  0
LINE
  5
3E2A
330
3E27
100
AcDbEntity
  8
MODEL
  6
Continuous
 62
     0
370
    -2
100
AcDbLine
 10
131.2569339312977
 20
215.4363059806967
 30
0.0
 11
131.2569339312977
 21
205.66349188236
 31
0.0
  0
LINE
  5
3E2B
330
3E27
100
AcDbEntity
  8
MODEL
  6
Continuous
 62
     0
370
    -2
100
AcDbLine
 10
145.4569339312978
 20
215.4363059806967
 30
0.0
 11
145.4569339312978
 21
205.66349188236
 31
0.0
  0
LINE
  5
3E2C
330
3E27
100
AcDbEntity
  8
MODEL
  6
Continuous
 62
     0
370
    -2
100
AcDbLine
 10
133.2569339312977
 20
205.66349188236
 30
0.0
 11
143.4569339312978
 21
205.66349188236
 31
0.0
  0
SOLID
  5
3E2D
330
3E27
100
AcDbEntity
  8
MODEL
 62
     0
100
AcDbTrace
 10
133.2569339312977
 20
205.9968252156933
 30
0.0
 11
133.2569339312977
 21
205.3301585490267
 31
0.0
 12
131.2569339312977
 22
205.66349188236
 32
0.0
 13
131.2569339312977
 23
205.66349188236
 33
0.0
  0
SOLID
  5
3E2E
330
3E27
100
AcDbEntity
  8
MODEL
 62
     0
100
AcDbTrace
 10
143.4569339312978
 20
205.3301585490267
 30
0.0
 11
143.4569339312978
 21
205.9968252156933
 31
0.0
 12
145.4569339312978
 22
205.66349188236
 32
0.0
 13
145.4569339312978
 23
205.66349188236
 33
0.0
  0
MTEXT
  5
3E2F
330
3E27
100
AcDbEntity
  8
MODEL
 62
     0
100
AcDbMText
 10
138.3569339312977
 20
208.78849188236
 30
0.0
 40
2.5
 41
0.0
 46
0.0
 71
     2
 72
     1
  1
\A1;14.2
  7
SLDTEXTSTYLE0
 73
     1
 44
1.0
  0
POINT
  5
3E30
330
3E27
100
AcDbEntity
  8
Defpoints
 62
     0
100
AcDbPoint
 10
131.2569339312977
 20
215.4988059806967
 30
0.0
  0
POINT
  5
3E31
330
3E27
100
AcDbEntity
  8
Defpoints
 62
     0
100
AcDbPoint
 10
145.4569339312978
 20
215.4988059806967
 30
0.0
  0
POINT
  5
3E32
330
3E27
100
AcDbEntity
  8
Defpoints
 62
     0
100
AcDbPoint
 10
145.4569339312978
 20
205.66349188236
 30
0.0
  0
ENDBLK
  5
3E29
330
3E27
100
AcDbEntity
  8
0
100
AcDbBlockEnd
  0
BLOCK
  5
3E34
330
3E33
100
AcDbEntity
  8
0
100
AcDbBlockBegin
  2
*D19
 70
     1
 10
0.0
 20
0.0
 30
0.0
  3
*D19
  1

  0
LINE
  5
3E36
330
3E33
100
AcDbEntity
  8
MODEL
  6
Continuous
 62
     0
370
    -2
100
AcDbLine
 10
238.7996393767696
 20
234.411444549722
 30
0.0
 11
218.8621393767696
 21
234.4114445497219
 31
0.0
  0
LINE
  5
3E37
330
3E33
100
AcDbEntity
  8
MODEL
  6
Continuous
 62
     0
370
    -2
100
AcDbLine
 10
238.7996393767696
 20
194.411444549722
 30
0.0
 11
218.8621393767697
 21
194.4114445497219
 31
0.0
  0
LINE
  5
3E38
330
3E33
100
AcDbEntity
  8
MODEL
  6
Continuous
 62
     0
370
    -2
100
AcDbLine
 10
218.8621393767696
 20
232.4114445497219
 30
0.0
 11
218.8621393767697
 21
196.4114445497219
 31
0.0
  0
SOLID
  5
3E39
330
3E33
100
AcDbEntity
  8
MODEL
 62
     0
100
AcDbTrace
 10
219.1954727101029
 20
232.4114445497219
 30
0.0
 11
218.5288060434362
 21
232.4114445497219
 31
0.0
 12
218.8621393767696
 22
234.4114445497219
 32
0.0
 13
218.8621393767696
 23
234.4114445497219
 33
0.0
  0
SOLID
  5
3E3A
330
3E33
100
AcDbEntity
  8
MODEL
 62
     0
100
AcDbTrace
 10
218.5288060434364
 20
196.4114445497219
 30
0.0
 11
219.195472710103
 21
196.4114445497219
 31
0.0
 12
218.8621393767697
 22
194.4114445497219
 32
0.0
 13
218.8621393767697
 23
194.4114445497219
 33
0.0
  0
MTEXT
  5
3E3B
330
3E33
100
AcDbEntity
  8
MODEL
 62
     0
100
AcDbMText
 10
215.7371393767696
 20
214.411444549722
 30
0.0
 40
2.5
 41
0.0
 46
0.0
 71
     2
 72
     1
  1
\A1;40
  7
SLDTEXTSTYLE0
 11
-3.552713678800501E-15
 21
1.0
 31
0.0
 73
     1
 44
1.0
  0
POINT
  5
3E3C
330
3E33
100
AcDbEntity
  8
Defpoints
 62
     0
100
AcDbPoint
 10
238.8621393767696
 20
234.411444549722
 30
0.0
  0
POINT
  5
3E3D
330
3E33
100
AcDbEntity
  8
Defpoints
 62
     0
100
AcDbPoint
 10
238.8621393767696
 20
194.411444549722
 30
0.0
  0
POINT
  5
3E3E
330
3E33
100
AcDbEntity
  8
Defpoints
 62
     0
100
AcDbPoint
 10
218.8621393767697
 20
194.4114445497219
 30
0.0
  0
ENDBLK
  5
3E35
330
3E33
100
AcDbEntity
  8
0
100
AcDbBlockEnd
  0
BLOCK
  5
3E40
330
3E3F
100
AcDbEntity
  8
0
100
AcDbBlockBegin
  2
*D20
 70
     1
 10
0.0
 20
0.0
 30
0.0
  3
*D20
  1

  0
LINE
  5
3E42
330
3E3F
100
AcDbEntity
  8
MODEL
  6
Continuous
 62
     0
370
    -2
100
AcDbLine
 10
238.8621393767696
 20
194.348944549722
 30
0.0
 11
238.8621393767696
 21
174.2781112163887
 31
0.0
  0
LINE
  5
3E43
330
3E3F
100
AcDbEntity
  8
MODEL
  6
Continuous
 62
     0
370
    -2
100
AcDbLine
 10
319.1288060434363
 20
194.2156112163887
 30
0.0
 11
319.1288060434363
 21
174.2781112163887
 31
0.0
  0
LINE
  5
3E44
330
3E3F
100
AcDbEntity
  8
MODEL
  6
Continuous
 62
     0
370
    -2
100
AcDbLine
 10
240.8621393767696
 20
174.2781112163887
 30
0.0
 11
317.1288060434363
 21
174.2781112163887
 31
0.0
  0
SOLID
  5
3E45
330
3E3F
100
AcDbEntity
  8
MODEL
 62
     0
100
AcDbTrace
 10
240.8621393767696
 20
174.6114445497221
 30
0.0
 11
240.8621393767696
 21
173.9447778830554
 31
0.0
 12
238.8621393767696
 22
174.2781112163887
 32
0.0
 13
238.8621393767696
 23
174.2781112163887
 33
0.0
  0
SOLID
  5
3E46
330
3E3F
100
AcDbEntity
  8
MODEL
 62
     0
100
AcDbTrace
 10
317.1288060434363
 20
173.9447778830554
 30
0.0
 11
317.1288060434363
 21
174.6114445497221
 31
0.0
 12
319.1288060434363
 22
174.2781112163887
 32
0.0
 13
319.1288060434363
 23
174.2781112163887
 33
0.0
  0
MTEXT
  5
3E47
330
3E3F
100
AcDbEntity
  8
MODEL
 62
     0
100
AcDbMText
 10
278.9954727101028
 20
177.4031112163887
 30
0.0
 40
2.5
 41
0.0
 46
0.0
 71
     2
 72
     1
  1
\A1;80.3
  7
SLDTEXTSTYLE0
 73
     1
 44
1.0
  0
POINT
  5
3E48
330
3E3F
100
AcDbEntity
  8
Defpoints
 62
     0
100
AcDbPoint
 10
238.8621393767696
 20
194.411444549722
 30
0.0
  0
POINT
  5
3E49
330
3E3F
100
AcDbEntity
  8
Defpoints
 62
     0
100
AcDbPoint
 10
319.1288060434363
 20
194.2781112163887
 30
0.0
  0
POINT
  5
3E4A
330
3E3F
100
AcDbEntity
  8
Defpoints
 62
     0
100
AcDbPoint
 10
319.1288060434363
 20
174.2781112163887
 30
0.0
  0
ENDBLK
  5
3E41
330
3E3F
100
AcDbEntity
  8
0
100
AcDbBlockEnd
  0
BLOCK
  5
3EAA
330
3EA9
100
AcDbEntity
  8
0
100
AcDbBlockBegin
  2
*D21
 70
     1
 10
0.0
 20
0.0
 30
0.0
  3
*D21
  1

  0
LINE
  5
3EAB
330
3EA9
100
AcDbEntity
  8
SLD-0
 62
     0
370
    -2
100
AcDbLine
 10
19.57317705136249
 20
172.132784023813
 30
0.0
 11
19.57317705136251
 21
151.6551394156618
 31
0.0
  0
LINE
  5
3EAC
330
3EA9
100
AcDbEntity
  8
SLD-0
 62
     0
370
    -2
100
AcDbLine
 10
246.2398437180292
 20
171.4661173571465
 30
0.0
 11
246.2398437180292
 21
151.6551394156618
 31
0.0
  0
LINE
  5
3EAD
330
3EA9
100
AcDbEntity
  8
SLD-0
 62
     0
370
    -2
100
AcDbLine
 10
21.57317705136251
 20
151.6551394156618
 30
0.0
 11
244.2398437180292
 21
151.6551394156618
 31
0.0
  0
SOLID
  5
3EAE
330
3EA9
100
AcDbEntity
  8
SLD-0
 62
     0
100
AcDbTrace
 10
21.57317705136251
 20
151.9884727489952
 30
0.0
 11
21.57317705136251
 21
151.3218060823285
 31
0.0
 12
19.57317705136251
 22
151.6551394156618
 32
0.0
 13
19.57317705136251
 23
151.6551394156618
 33
0.0
  0
SOLID
  5
3EAF
330
3EA9
100
AcDbEntity
  8
SLD-0
 62
     0
100
AcDbTrace
 10
244.2398437180292
 20
151.3218060823285
 30
0.0
 11
244.2398437180292
 21
151.9884727489952
 31
0.0
 12
246.2398437180292
 22
151.6551394156618
 32
0.0
 13
246.2398437180292
 23
151.6551394156618
 33
0.0
  0
MTEXT
  5
3EB0
330
3EA9
100
AcDbEntity
  8
SLD-0
 62
     0
100
AcDbMText
 10
130.5627603846959
 20
154.7801394156618
 30
0.0
 40
2.5
 41
0.0
 46
0.0
 71
     1
 72
     1
  1
\A1;340
  7
SLDTEXTSTYLE0
 73
     1
 44
1.0
  0
POINT
  5
3F14
330
3EA9
100
AcDbEntity
  8
Defpoints
 62
     0
100
AcDbPoint
 10
19.57317705136249
 20
172.195284023813
 30
0.0
  0
POINT
  5
3F15
330
3EA9
100
AcDbEntity
  8
Defpoints
 62
     0
100
AcDbPoint
 10
246.2398437180292
 20
171.5286173571465
 30
0.0
  0
POINT
  5
3F16
330
3EA9
100
AcDbEntity
  8
Defpoints
 62
     0
100
AcDbPoint
 10
246.2398437180292
 20
151.6551394156618
 30
0.0
  0
ENDBLK
  5
3EB1
330
3EA9
100
AcDbEntity
  8
0
100
AcDbBlockEnd
  0
BLOCK
  5
3EB4
330
3EB3
100
AcDbEntity
  8
0
100
AcDbBlockBegin
  2
*D22
 70
     1
 10
0.0
 20
0.0
 30
0.0
  3
*D22
  1

  0
LINE
  5
3EB5
330
3EB3
100
AcDbEntity
  8
SLD-0
 62
     0
370
    -2
100
AcDbLine
 10
20.84401038469582
 20
200.195284023813
 30
0.0
 11
6.445338349613841
 21
200.195284023813
 31
0.0
  0
LINE
  5
3EB6
330
3EB3
100
AcDbEntity
  8
SLD-0
 62
     0
370
    -2
100
AcDbLine
 10
20.84401038469582
 20
170.8619506904797
 30
0.0
 11
6.445338349613943
 21
170.8619506904797
 31
0.0
  0
LINE
  5
3EB7
330
3EB3
100
AcDbEntity
  8
SLD-0
 62
     0
370
    -2
100
AcDbLine
 10
6.445338349613848
 20
198.195284023813
 30
0.0
 11
6.445338349613936
 21
172.8619506904797
 31
0.0
  0
SOLID
  5
3EB8
330
3EB3
100
AcDbEntity
  8
SLD-0
 62
     0
100
AcDbTrace
 10
6.778671682947181
 20
198.195284023813
 30
0.0
 11
6.112005016280515
 21
198.195284023813
 31
0.0
 12
6.445338349613841
 22
200.195284023813
 32
0.0
 13
6.445338349613841
 23
200.195284023813
 33
0.0
  0
SOLID
  5
3EB9
330
3EB3
100
AcDbEntity
  8
SLD-0
 62
     0
100
AcDbTrace
 10
6.112005016280603
 20
172.8619506904797
 30
0.0
 11
6.778671682947269
 21
172.8619506904797
 31
0.0
 12
6.445338349613943
 22
170.8619506904797
 32
0.0
 13
6.445338349613943
 23
170.8619506904797
 33
0.0
  0
MTEXT
  5
3EBA
330
3EB3
100
AcDbEntity
  8
SLD-0
 62
     0
100
AcDbMText
 10
3.320338349613897
 20
183.9661173571464
 30
0.0
 40
2.5
 41
0.0
 46
0.0
 71
     1
 72
     1
  1
\A1;44
  7
SLDTEXTSTYLE0
 11
-3.482063122687993E-15
 21
1.0
 31
0.0
 73
     1
 44
1.0
  0
POINT
  5
3F17
330
3EB3
100
AcDbEntity
  8
Defpoints
 62
     0
100
AcDbPoint
 10
20.90651038469582
 20
200.195284023813
 30
0.0
  0
POINT
  5
3F18
330
3EB3
100
AcDbEntity
  8
Defpoints
 62
     0
100
AcDbPoint
 10
20.90651038469582
 20
170.8619506904797
 30
0.0
  0
POINT
  5
3F19
330
3EB3
100
AcDbEntity
  8
Defpoints
 62
     0
100
AcDbPoint
 10
6.445338349613898
 20
170.8619506904797
 30
0.0
  0
ENDBLK
  5
3EBB
330
3EB3
100
AcDbEntity
  8
0
100
AcDbBlockEnd
  0
BLOCK
  5
3ED8
330
3ED7
100
AcDbEntity
  8
0
100
AcDbBlockBegin
  2
*D23
 70
     1
 10
0.0
 20
0.0
 30
0.0
  3
*D23
  1

  0
LINE
  5
3ED9
330
3ED7
100
AcDbEntity
  8
SLD-0
 62
     0
370
    -2
100
AcDbLine
 10
246.1065103846958
 20
99.60961336119556
 30
0.0
 11
246.1065103846958
 21
112.8047297231221
 31
0.0
  0
LINE
  5
3EDA
330
3ED7
100
AcDbEntity
  8
SLD-0
 62
     0
370
    -2
100
AcDbLine
 10
206.1065103846958
 20
99.60961336119556
 30
0.0
 11
206.1065103846958
 21
112.8047297231221
 31
0.0
  0
LINE
  5
3EDB
330
3ED7
100
AcDbEntity
  8
SLD-0
 62
     0
370
    -2
100
AcDbLine
 10
244.1065103846958
 20
112.8047297231221
 30
0.0
 11
208.1065103846958
 21
112.8047297231221
 31
0.0
  0
SOLID
  5
3EDC
330
3ED7
100
AcDbEntity
  8
SLD-0
 62
     0
100
AcDbTrace
 10
244.1065103846958
 20
112.4713963897888
 30
0.0
 11
244.1065103846958
 21
113.1380630564554
 31
0.0
 12
246.1065103846958
 22
112.8047297231221
 32
0.0
 13
246.1065103846958
 23
112.8047297231221
 33
0.0
  0
SOLID
  5
3EDD
330
3ED7
100
AcDbEntity
  8
SLD-0
 62
     0
100
AcDbTrace
 10
208.1065103846958
 20
113.1380630564554
 30
0.0
 11
208.1065103846958
 21
112.4713963897888
 31
0.0
 12
206.1065103846958
 22
112.8047297231221
 32
0.0
 13
206.1065103846958
 23
112.8047297231221
 33
0.0
  0
MTEXT
  5
3EDE
330
3ED7
100
AcDbEntity
  8
SLD-0
 62
     0
100
AcDbMText
 10
224.7002603846958
 20
115.9297297231221
 30
0.0
 40
2.5
 41
0.0
 46
0.0
 71
     1
 72
     1
  1
\A1;60
  7
SLDTEXTSTYLE0
 73
     1
 44
1.0
  0
POINT
  5
3F1A
330
3ED7
100
AcDbEntity
  8
Defpoints
 62
     0
100
AcDbPoint
 10
246.1065103846958
 20
99.54711336119556
 30
0.0
  0
POINT
  5
3F1B
330
3ED7
100
AcDbEntity
  8
Defpoints
 62
     0
100
AcDbPoint
 10
206.1065103846958
 20
99.54711336119556
 30
0.0
  0
POINT
  5
3F1C
330
3ED7
100
AcDbEntity
  8
Defpoints
 62
     0
100
AcDbPoint
 10
206.1065103846958
 20
112.8047297231221
 30
0.0
  0
ENDBLK
  5
3EDF
330
3ED7
100
AcDbEntity
  8
0
100
AcDbBlockEnd
  0
BLOCK
  5
3EE2
330
3EE1
100
AcDbEntity
  8
0
100
AcDbBlockBegin
  2
*D24
 70
     1
 10
0.0
 20
0.0
 30
0.0
  3
*D24
  1

  0
LINE
  5
3EE3
330
3EE1
100
AcDbEntity
  8
SLD-0
 62
     0
370
    -2
100
AcDbLine
 10
246.1690103846958
 20
99.54711336119556
 30
0.0
 11
262.8314161398117
 21
99.54711336119561
 31
0.0
  0
LINE
  5
3EE4
330
3EE1
100
AcDbEntity
  8
SLD-0
 62
     0
370
    -2
100
AcDbLine
 10
246.1690103846958
 20
27.54711336119556
 30
0.0
 11
262.8314161398119
 21
27.54711336119561
 31
0.0
  0
LINE
  5
3EE5
330
3EE1
100
AcDbEntity
  8
SLD-0
 62
     0
370
    -2
100
AcDbLine
 10
262.8314161398117
 20
97.54711336119561
 30
0.0
 11
262.8314161398119
 21
29.54711336119561
 31
0.0
  0
SOLID
  5
3EE6
330
3EE1
100
AcDbEntity
  8
SLD-0
 62
     0
100
AcDbTrace
 10
263.164749473145
 20
97.54711336119561
 30
0.0
 11
262.4980828064784
 21
97.54711336119561
 31
0.0
 12
262.8314161398117
 22
99.54711336119561
 32
0.0
 13
262.8314161398117
 23
99.54711336119561
 33
0.0
  0
SOLID
  5
3EE7
330
3EE1
100
AcDbEntity
  8
SLD-0
 62
     0
100
AcDbTrace
 10
262.4980828064786
 20
29.54711336119561
 30
0.0
 11
263.1647494731453
 21
29.54711336119561
 31
0.0
 12
262.8314161398119
 22
27.54711336119561
 32
0.0
 13
262.8314161398119
 23
27.54711336119561
 33
0.0
  0
MTEXT
  5
3EE8
330
3EE1
100
AcDbEntity
  8
SLD-0
 62
     0
100
AcDbMText
 10
259.7064161398118
 20
61.51586336119554
 30
0.0
 40
2.5
 41
0.0
 46
0.0
 71
     1
 72
     1
  1
\A1;108
  7
SLDTEXTSTYLE0
 11
-3.157967714489334E-15
 21
1.0
 31
0.0
 73
     1
 44
1.0
  0
POINT
  5
3F1D
330
3EE1
100
AcDbEntity
  8
Defpoints
 62
     0
100
AcDbPoint
 10
246.1065103846958
 20
99.54711336119556
 30
0.0
  0
POINT
  5
3F1E
330
3EE1
100
AcDbEntity
  8
Defpoints
 62
     0
100
AcDbPoint
 10
246.1065103846958
 20
27.54711336119556
 30
0.0
  0
POINT
  5
3F1F
330
3EE1
100
AcDbEntity
  8
Defpoints
 62
     0
100
AcDbPoint
 10
262.8314161398118
 20
27.54711336119562
 30
0.0
  0
ENDBLK
  5
3EE9
330
3EE1
100
AcDbEntity
  8
0
100
AcDbBlockEnd
  0
BLOCK
  5
3EFE
330
3EFD
100
AcDbEntity
  8
0
100
AcDbBlockBegin
  2
*D25
 70
     1
 10
0.0
 20
0.0
 30
0.0
  3
*D25
  1

  0
LINE
  5
3EFF
330
3EFD
100
AcDbEntity
  8
SLD-0
 62
     0
370
    -2
100
AcDbLine
 10
324.1692093663067
 20
190.9952840238132
 30
0.0
 11
314.5734788559
 21
190.9952840238131
 31
0.0
  0
LINE
  5
3F00
330
3EFD
100
AcDbEntity
  8
SLD-0
 62
     0
370
    -2
100
AcDbLine
 10
324.1692093663067
 20
170.9952840238132
 30
0.0
 11
314.5734788559001
 21
170.9952840238131
 31
0.0
  0
LINE
  5
3F01
330
3EFD
100
AcDbEntity
  8
SLD-0
 62
     0
370
    -2
100
AcDbLine
 10
314.5734788559
 20
188.9952840238131
 30
0.0
 11
314.5734788559001
 21
172.9952840238131
 31
0.0
  0
SOLID
  5
3F02
330
3EFD
100
AcDbEntity
  8
SLD-0
 62
     0
100
AcDbTrace
 10
314.9068121892333
 20
188.9952840238131
 30
0.0
 11
314.2401455225667
 21
188.9952840238131
 31
0.0
 12
314.5734788559
 22
190.9952840238131
 32
0.0
 13
314.5734788559
 23
190.9952840238131
 33
0.0
  0
SOLID
  5
3F03
330
3EFD
100
AcDbEntity
  8
SLD-0
 62
     0
100
AcDbTrace
 10
314.2401455225668
 20
172.9952840238131
 30
0.0
 11
314.9068121892334
 21
172.9952840238131
 31
0.0
 12
314.5734788559001
 22
170.9952840238131
 32
0.0
 13
314.5734788559001
 23
170.9952840238131
 33
0.0
  0
MTEXT
  5
3F04
330
3EFD
100
AcDbEntity
  8
SLD-0
 62
     0
100
AcDbMText
 10
311.4484788559
 20
179.5890340238132
 30
0.0
 40
2.5
 41
0.0
 46
0.0
 71
     1
 72
     1
  1
\A1;30
  7
SLDTEXTSTYLE0
 11
-2.842170943040401E-15
 21
1.0
 31
0.0
 73
     1
 44
1.0
  0
POINT
  5
3F05
330
3EFD
100
AcDbEntity
  8
Defpoints
 62
     0
100
AcDbPoint
 10
324.2317093663067
 20
190.9952840238132
 30
0.0
  0
POINT
  5
3F06
330
3EFD
100
AcDbEntity
  8
Defpoints
 62
     0
100
AcDbPoint
 10
324.2317093663067
 20
170.9952840238132
 30
0.0
  0
POINT
  5
3F20
330
3EFD
100
AcDbEntity
  8
Defpoints
 62
     0
100
AcDbPoint
 10
314.5734788559
 20
170.9952840238131
 30
0.0
  0
ENDBLK
  5
3F07
330
3EFD
100
AcDbEntity
  8
0
100
AcDbBlockEnd
  0
BLOCK
  5
3F0A
330
3F09
100
AcDbEntity
  8
0
100
AcDbBlockBegin
  2
*D26
 70
     1
 10
0.0
 20
0.0
 30
0.0
  3
*D26
  1

  0
LINE
  5
3F0B
330
3F09
100
AcDbEntity
  8
SLD-0
 62
     0
370
    -2
100
AcDbLine
 10
324.2317093663067
 20
170.9327840238132
 30
0.0
 11
324.2317093663067
 21
155.4066087041168
 31
0.0
  0
LINE
  5
3F0C
330
3F09
100
AcDbEntity
  8
SLD-0
 62
     0
370
    -2
100
AcDbLine
 10
404.4983760329741
 20
170.7994506904797
 30
0.0
 11
404.4983760329741
 21
155.4066087041168
 31
0.0
  0
LINE
  5
3F0D
330
3F09
100
AcDbEntity
  8
SLD-0
 62
     0
370
    -2
100
AcDbLine
 10
326.2317093663067
 20
155.4066087041168
 30
0.0
 11
402.4983760329741
 21
155.4066087041168
 31
0.0
  0
SOLID
  5
3F0E
330
3F09
100
AcDbEntity
  8
SLD-0
 62
     0
100
AcDbTrace
 10
326.2317093663067
 20
155.7399420374501
 30
0.0
 11
326.2317093663067
 21
155.0732753707834
 31
0.0
 12
324.2317093663067
 22
155.4066087041168
 32
0.0
 13
324.2317093663067
 23
155.4066087041168
 33
0.0
  0
SOLID
  5
3F0F
330
3F09
100
AcDbEntity
  8
SLD-0
 62
     0
100
AcDbTrace
 10
402.4983760329741
 20
155.0732753707834
 30
0.0
 11
402.4983760329741
 21
155.7399420374501
 31
0.0
 12
404.4983760329741
 22
155.4066087041168
 32
0.0
 13
404.4983760329741
 23
155.4066087041168
 33
0.0
  0
MTEXT
  5
3F10
330
3F09
100
AcDbEntity
  8
SLD-0
 62
     0
100
AcDbMText
 10
361.0837926996404
 20
158.5316087041168
 30
0.0
 40
2.5
 41
0.0
 46
0.0
 71
     1
 72
     1
  1
\A1;120.4
  7
SLDTEXTSTYLE0
 73
     1
 44
1.0
  0
POINT
  5
3F21
330
3F09
100
AcDbEntity
  8
Defpoints
 62
     0
100
AcDbPoint
 10
324.2317093663067
 20
170.9952840238132
 30
0.0
  0
POINT
  5
3F22
330
3F09
100
AcDbEntity
  8
Defpoints
 62
     0
100
AcDbPoint
 10
404.4983760329741
 20
170.8619506904797
 30
0.0
  0
POINT
  5
3F23
330
3F09
100
AcDbEntity
  8
Defpoints
 62
     0
100
AcDbPoint
 10
404.4983760329741
 20
155.4066087041168
 30
0.0
  0
ENDBLK
  5
3F11
330
3F09
100
AcDbEntity
  8
0
100
AcDbBlockEnd
  0
BLOCK
  5
3F8E
330
3F8D
100
AcDbEntity
  8
0
100
AcDbBlockBegin
  2
*D27
 70
     1
 10
0.0
 20
0.0
 30
0.0
  3
*D27
  1

  0
LINE
  5
3F90
330
3F8D
100
AcDbEntity
  8
SLD-0
 62
     0
370
    -2
100
AcDbLine
 10
926.495269247083
 20
376.3333620084936
 30
0.0
 11
926.495269247083
 21
355.8557174003424
 31
0.0
  0
LINE
  5
3F91
330
3F8D
100
AcDbEntity
  8
SLD-0
 62
     0
370
    -2
100
AcDbLine
 10
1153.16193591375
 20
375.666695341827
 30
0.0
 11
1153.16193591375
 21
355.8557174003424
 31
0.0
  0
LINE
  5
3F92
330
3F8D
100
AcDbEntity
  8
SLD-0
 62
     0
370
    -2
100
AcDbLine
 10
928.495269247083
 20
355.8557174003424
 30
0.0
 11
1151.16193591375
 21
355.8557174003424
 31
0.0
  0
SOLID
  5
3F93
330
3F8D
100
AcDbEntity
  8
SLD-0
 62
     0
100
AcDbTrace
 10
928.495269247083
 20
356.1890507336757
 30
0.0
 11
928.495269247083
 21
355.5223840670091
 31
0.0
 12
926.495269247083
 22
355.8557174003424
 32
0.0
 13
926.495269247083
 23
355.8557174003424
 33
0.0
  0
SOLID
  5
3F94
330
3F8D
100
AcDbEntity
  8
SLD-0
 62
     0
100
AcDbTrace
 10
1151.16193591375
 20
355.5223840670091
 30
0.0
 11
1151.16193591375
 21
356.1890507336757
 31
0.0
 12
1153.16193591375
 22
355.8557174003424
 32
0.0
 13
1153.16193591375
 23
355.8557174003424
 33
0.0
  0
MTEXT
  5
3F95
330
3F8D
100
AcDbEntity
  8
SLD-0
 62
     0
100
AcDbMText
 10
1037.484852580416
 20
358.9807174003424
 30
0.0
 40
2.5
 41
0.0
 46
0.0
 71
     1
 72
     1
  1
\A1;340
  7
SLDTEXTSTYLE0
 73
     1
 44
1.0
  0
POINT
  5
3F96
330
3F8D
100
AcDbEntity
  8
Defpoints
 62
     0
100
AcDbPoint
 10
926.495269247083
 20
376.3958620084936
 30
0.0
  0
POINT
  5
3F97
330
3F8D
100
AcDbEntity
  8
Defpoints
 62
     0
100
AcDbPoint
 10
1153.16193591375
 20
375.729195341827
 30
0.0
  0
POINT
  5
3F98
330
3F8D
100
AcDbEntity
  8
Defpoints
 62
     0
100
AcDbPoint
 10
1153.16193591375
 20
355.8557174003424
 30
0.0
  0
ENDBLK
  5
3F8F
330
3F8D
100
AcDbEntity
  8
0
100
AcDbBlockEnd
  0
BLOCK
  5
3F9A
330
3F99
100
AcDbEntity
  8
0
100
AcDbBlockBegin
  2
*D28
 70
     1
 10
0.0
 20
0.0
 30
0.0
  3
*D28
  1

  0
LINE
  5
3F9C
330
3F99
100
AcDbEntity
  8
SLD-0
 62
     0
370
    -2
100
AcDbLine
 10
927.7661025804164
 20
404.3958620084936
 30
0.0
 11
913.3674305453344
 21
404.3958620084935
 31
0.0
  0
LINE
  5
3F9D
330
3F99
100
AcDbEntity
  8
SLD-0
 62
     0
370
    -2
100
AcDbLine
 10
927.7661025804164
 20
375.0625286751603
 30
0.0
 11
913.3674305453345
 21
375.0625286751602
 31
0.0
  0
LINE
  5
3F9E
330
3F99
100
AcDbEntity
  8
SLD-0
 62
     0
370
    -2
100
AcDbLine
 10
913.3674305453344
 20
402.3958620084935
 30
0.0
 11
913.3674305453345
 21
377.0625286751602
 31
0.0
  0
SOLID
  5
3F9F
330
3F99
100
AcDbEntity
  8
SLD-0
 62
     0
100
AcDbTrace
 10
913.7007638786678
 20
402.3958620084935
 30
0.0
 11
913.034097212001
 21
402.3958620084935
 31
0.0
 12
913.3674305453344
 22
404.3958620084935
 32
0.0
 13
913.3674305453344
 23
404.3958620084935
 33
0.0
  0
SOLID
  5
3FA0
330
3F99
100
AcDbEntity
  8
SLD-0
 62
     0
100
AcDbTrace
 10
913.0340972120011
 20
377.0625286751602
 30
0.0
 11
913.7007638786679
 21
377.0625286751602
 31
0.0
 12
913.3674305453345
 22
375.0625286751602
 32
0.0
 13
913.3674305453345
 23
375.0625286751602
 33
0.0
  0
MTEXT
  5
3FA1
330
3F99
100
AcDbEntity
  8
SLD-0
 62
     0
100
AcDbMText
 10
910.2424305453344
 20
388.1666953418269
 30
0.0
 40
2.5
 41
0.0
 46
0.0
 71
     1
 72
     1
  1
\A1;44
  7
SLDTEXTSTYLE0
 11
-3.875687649600549E-15
 21
1.0
 31
0.0
 73
     1
 44
1.0
  0
POINT
  5
3FA2
330
3F99
100
AcDbEntity
  8
Defpoints
 62
     0
100
AcDbPoint
 10
927.8286025804164
 20
404.3958620084936
 30
0.0
  0
POINT
  5
3FA3
330
3F99
100
AcDbEntity
  8
Defpoints
 62
     0
100
AcDbPoint
 10
927.8286025804164
 20
375.0625286751603
 30
0.0
  0
POINT
  5
3FA4
330
3F99
100
AcDbEntity
  8
Defpoints
 62
     0
100
AcDbPoint
 10
913.3674305453345
 20
375.0625286751602
 30
0.0
  0
ENDBLK
  5
3F9B
330
3F99
100
AcDbEntity
  8
0
100
AcDbBlockEnd
  0
BLOCK
  5
3FA6
330
3FA5
100
AcDbEntity
  8
0
100
AcDbBlockBegin
  2
*D29
 70
     1
 10
0.0
 20
0.0
 30
0.0
  3
*D29
  1

  0
LINE
  5
3FA8
330
3FA5
100
AcDbEntity
  8
SLD-0
 62
     0
370
    -2
100
AcDbLine
 10
1153.028602580416
 20
303.8101913458761
 30
0.0
 11
1153.028602580416
 21
317.0053077078027
 31
0.0
  0
LINE
  5
3FA9
330
3FA5
100
AcDbEntity
  8
SLD-0
 62
     0
370
    -2
100
AcDbLine
 10
1113.028602580416
 20
303.8101913458761
 30
0.0
 11
1113.028602580416
 21
317.0053077078027
 31
0.0
  0
LINE
  5
3FAA
330
3FA5
100
AcDbEntity
  8
SLD-0
 62
     0
370
    -2
100
AcDbLine
 10
1151.028602580416
 20
317.0053077078027
 30
0.0
 11
1115.028602580416
 21
317.0053077078027
 31
0.0
  0
SOLID
  5
3FAB
330
3FA5
100
AcDbEntity
  8
SLD-0
 62
     0
100
AcDbTrace
 10
1151.028602580416
 20
316.6719743744694
 30
0.0
 11
1151.028602580416
 21
317.338641041136
 31
0.0
 12
1153.028602580416
 22
317.0053077078027
 32
0.0
 13
1153.028602580416
 23
317.0053077078027
 33
0.0
  0
SOLID
  5
3FAC
330
3FA5
100
AcDbEntity
  8
SLD-0
 62
     0
100
AcDbTrace
 10
1115.028602580416
 20
317.338641041136
 30
0.0
 11
1115.028602580416
 21
316.6719743744694
 31
0.0
 12
1113.028602580416
 22
317.0053077078027
 32
0.0
 13
1113.028602580416
 23
317.0053077078027
 33
0.0
  0
MTEXT
  5
3FAD
330
3FA5
100
AcDbEntity
  8
SLD-0
 62
     0
100
AcDbMText
 10
1131.622352580416
 20
320.1303077078027
 30
0.0
 40
2.5
 41
0.0
 46
0.0
 71
     1
 72
     1
  1
\A1;60
  7
SLDTEXTSTYLE0
 73
     1
 44
1.0
  0
POINT
  5
3FAE
330
3FA5
100
AcDbEntity
  8
Defpoints
 62
     0
100
AcDbPoint
 10
1153.028602580416
 20
303.7476913458761
 30
0.0
  0
POINT
  5
3FAF
330
3FA5
100
AcDbEntity
  8
Defpoints
 62
     0
100
AcDbPoint
 10
1113.028602580416
 20
303.7476913458761
 30
0.0
  0
POINT
  5
3FB0
330
3FA5
100
AcDbEntity
  8
Defpoints
 62
     0
100
AcDbPoint
 10
1113.028602580416
 20
317.0053077078027
 30
0.0
  0
ENDBLK
  5
3FA7
330
3FA5
100
AcDbEntity
  8
0
100
AcDbBlockEnd
  0
BLOCK
  5
3FB2
330
3FB1
100
AcDbEntity
  8
0
100
AcDbBlockBegin
  2
*D30
 70
     1
 10
0.0
 20
0.0
 30
0.0
  3
*D30
  1

  0
LINE
  5
3FB4
330
3FB1
100
AcDbEntity
  8
SLD-0
 62
     0
370
    -2
100
AcDbLine
 10
1153.091102580416
 20
303.7476913458761
 30
0.0
 11
1169.753508335532
 21
303.7476913458761
 31
0.0
  0
LINE
  5
3FB5
330
3FB1
100
AcDbEntity
  8
SLD-0
 62
     0
370
    -2
100
AcDbLine
 10
1153.091102580416
 20
231.7476913458761
 30
0.0
 11
1169.753508335532
 21
231.7476913458761
 31
0.0
  0
LINE
  5
3FB6
330
3FB1
100
AcDbEntity
  8
SLD-0
 62
     0
370
    -2
100
AcDbLine
 10
1169.753508335532
 20
301.7476913458761
 30
0.0
 11
1169.753508335532
 21
233.7476913458761
 31
0.0
  0
SOLID
  5
3FB7
330
3FB1
100
AcDbEntity
  8
SLD-0
 62
     0
100
AcDbTrace
 10
1170.086841668865
 20
301.7476913458761
 30
0.0
 11
1169.420175002199
 21
301.7476913458761
 31
0.0
 12
1169.753508335532
 22
303.7476913458761
 32
0.0
 13
1169.753508335532
 23
303.7476913458761
 33
0.0
  0
SOLID
  5
3FB8
330
3FB1
100
AcDbEntity
  8
SLD-0
 62
     0
100
AcDbTrace
 10
1169.420175002199
 20
233.7476913458761
 30
0.0
 11
1170.086841668866
 21
233.7476913458761
 31
0.0
 12
1169.753508335532
 22
231.7476913458761
 32
0.0
 13
1169.753508335532
 23
231.7476913458761
 33
0.0
  0
MTEXT
  5
3FB9
330
3FB1
100
AcDbEntity
  8
SLD-0
 62
     0
100
AcDbMText
 10
1166.628508335532
 20
265.7164413458761
 30
0.0
 40
2.5
 41
0.0
 46
0.0
 71
     1
 72
     1
  1
\A1;108
  7
SLDTEXTSTYLE0
 11
-3.157967714489334E-15
 21
1.0
 31
0.0
 73
     1
 44
1.0
  0
POINT
  5
3FBA
330
3FB1
100
AcDbEntity
  8
Defpoints
 62
     0
100
AcDbPoint
 10
1153.028602580416
 20
303.7476913458761
 30
0.0
  0
POINT
  5
3FBB
330
3FB1
100
AcDbEntity
  8
Defpoints
 62
     0
100
AcDbPoint
 10
1153.028602580416
 20
231.7476913458761
 30
0.0
  0
POINT
  5
3FBC
330
3FB1
100
AcDbEntity
  8
Defpoints
 62
     0
100
AcDbPoint
 10
1169.753508335532
 20
231.7476913458761
 30
0.0
  0
ENDBLK
  5
3FB3
330
3FB1
100
AcDbEntity
  8
0
100
AcDbBlockEnd
  0
BLOCK
  5
3FBE
330
3FBD
100
AcDbEntity
  8
0
100
AcDbBlockBegin
  2
*D31
 70
     1
 10
0.0
 20
0.0
 30
0.0
  3
*D31
  1

  0
LINE
  5
3FC0
330
3FBD
100
AcDbEntity
  8
SLD-0
 62
     0
370
    -2
100
AcDbLine
 10
1231.091301562027
 20
395.1958620084937
 30
0.0
 11
1221.495571051621
 21
395.1958620084936
 31
0.0
  0
LINE
  5
3FC1
330
3FBD
100
AcDbEntity
  8
SLD-0
 62
     0
370
    -2
100
AcDbLine
 10
1231.091301562027
 20
375.1958620084937
 30
0.0
 11
1221.495571051621
 21
375.1958620084936
 31
0.0
  0
LINE
  5
3FC2
330
3FBD
100
AcDbEntity
  8
SLD-0
 62
     0
370
    -2
100
AcDbLine
 10
1221.495571051621
 20
393.1958620084936
 30
0.0
 11
1221.495571051621
 21
377.1958620084936
 31
0.0
  0
SOLID
  5
3FC3
330
3FBD
100
AcDbEntity
  8
SLD-0
 62
     0
100
AcDbTrace
 10
1221.828904384954
 20
393.1958620084936
 30
0.0
 11
1221.162237718287
 21
393.1958620084936
 31
0.0
 12
1221.495571051621
 22
395.1958620084936
 32
0.0
 13
1221.495571051621
 23
395.1958620084936
 33
0.0
  0
SOLID
  5
3FC4
330
3FBD
100
AcDbEntity
  8
SLD-0
 62
     0
100
AcDbTrace
 10
1221.162237718287
 20
377.1958620084936
 30
0.0
 11
1221.828904384954
 21
377.1958620084936
 31
0.0
 12
1221.495571051621
 22
375.1958620084936
 32
0.0
 13
1221.495571051621
 23
375.1958620084936
 33
0.0
  0
MTEXT
  5
3FC5
330
3FBD
100
AcDbEntity
  8
SLD-0
 62
     0
100
AcDbMText
 10
1218.370571051621
 20
383.7896120084937
 30
0.0
 40
2.5
 41
0.0
 46
0.0
 71
     1
 72
     1
  1
\A1;30
  7
SLDTEXTSTYLE0
 11
0.0
 21
1.0
 31
0.0
 73
     1
 44
1.0
  0
POINT
  5
3FC6
330
3FBD
100
AcDbEntity
  8
Defpoints
 62
     0
100
AcDbPoint
 10
1231.153801562027
 20
395.1958620084937
 30
0.0
  0
POINT
  5
3FC7
330
3FBD
100
AcDbEntity
  8
Defpoints
 62
     0
100
AcDbPoint
 10
1231.153801562027
 20
375.1958620084937
 30
0.0
  0
POINT
  5
3FC8
330
3FBD
100
AcDbEntity
  8
Defpoints
 62
     0
100
AcDbPoint
 10
1221.495571051621
 20
375.1958620084936
 30
0.0
  0
ENDBLK
  5
3FBF
330
3FBD
100
AcDbEntity
  8
0
100
AcDbBlockEnd
  0
BLOCK
  5
3FCA
330
3FC9
100
AcDbEntity
  8
0
100
AcDbBlockBegin
  2
*D32
 70
     1
 10
0.0
 20
0.0
 30
0.0
  3
*D32
  1

  0
LINE
  5
3FCC
330
3FC9
100
AcDbEntity
  8
SLD-0
 62
     0
370
    -2
100
AcDbLine
 10
1231.153801562027
 20
375.1333620084937
 30
0.0
 11
1231.153801562027
 21
359.6071866887973
 31
0.0
  0
LINE
  5
3FCD
330
3FC9
100
AcDbEntity
  8
SLD-0
 62
     0
370
    -2
100
AcDbLine
 10
1311.420468228695
 20
375.0000286751603
 30
0.0
 11
1311.420468228695
 21
359.6071866887973
 31
0.0
  0
LINE
  5
3FCE
330
3FC9
100
AcDbEntity
  8
SLD-0
 62
     0
370
    -2
100
AcDbLine
 10
1233.153801562027
 20
359.6071866887973
 30
0.0
 11
1309.420468228695
 21
359.6071866887973
 31
0.0
  0
SOLID
  5
3FCF
330
3FC9
100
AcDbEntity
  8
SLD-0
 62
     0
100
AcDbTrace
 10
1233.153801562027
 20
359.9405200221306
 30
0.0
 11
1233.153801562027
 21
359.273853355464
 31
0.0
 12
1231.153801562027
 22
359.6071866887973
 32
0.0
 13
1231.153801562027
 23
359.6071866887973
 33
0.0
  0
SOLID
  5
3FD0
330
3FC9
100
AcDbEntity
  8
SLD-0
 62
     0
100
AcDbTrace
 10
1309.420468228695
 20
359.273853355464
 30
0.0
 11
1309.420468228695
 21
359.9405200221306
 31
0.0
 12
1311.420468228695
 22
359.6071866887973
 32
0.0
 13
1311.420468228695
 23
359.6071866887973
 33
0.0
  0
MTEXT
  5
3FD1
330
3FC9
100
AcDbEntity
  8
SLD-0
 62
     0
100
AcDbMText
 10
1268.005884895361
 20
362.7321866887973
 30
0.0
 40
2.5
 41
0.0
 46
0.0
 71
     1
 72
     1
  1
\A1;120.4
  7
SLDTEXTSTYLE0
 73
     1
 44
1.0
  0
POINT
  5
3FD2
330
3FC9
100
AcDbEntity
  8
Defpoints
 62
     0
100
AcDbPoint
 10
1231.153801562027
 20
375.1958620084937
 30
0.0
  0
POINT
  5
3FD3
330
3FC9
100
AcDbEntity
  8
Defpoints
 62
     0
100
AcDbPoint
 10
1311.420468228695
 20
375.0625286751603
 30
0.0
  0
POINT
  5
3FD4
330
3FC9
100
AcDbEntity
  8
Defpoints
 62
     0
100
AcDbPoint
 10
1311.420468228695
 20
359.6071866887973
 30
0.0
  0
ENDBLK
  5
3FCB
330
3FC9
100
AcDbEntity
  8
0
100
AcDbBlockEnd
  0
BLOCK
  5
3FDF
330
3FDE
100
AcDbEntity
  8
0
100
AcDbBlockBegin
  2
*D33
 70
     1
 10
0.0
 20
0.0
 30
0.0
  3
*D33
  1

  0
LINE
  5
3FE1
330
3FDE
100
AcDbEntity
  8
DIM
 62
     0
370
    -2
100
AcDbLine
 10
287.4549339262315
 20
380.4988059806967
 30
0.0
 11
287.4549339262315
 21
384.8563201341959
 31
0.0
  0
LINE
  5
3FE2
330
3FDE
100
AcDbEntity
  8
DIM
 62
     0
370
    -2
100
AcDbLine
 10
293.6549339262315
 20
380.4988059806967
 30
0.0
 11
293.6549339262315
 21
384.8563201341959
 31
0.0
  0
LINE
  5
3FE3
330
3FDE
100
AcDbEntity
  8
DIM
 62
     0
370
    -2
100
AcDbLine
 10
289.4549339262315
 20
384.8563201341959
 30
0.0
 11
291.6549339262315
 21
384.8563201341959
 31
0.0
  0
INSERT
  5
3FE4
330
3FDE
100
AcDbEntity
  8
DIM
 62
     0
370
    -2
100
AcDbBlockReference
  2
_DOT
 10
287.4549339262315
 20
384.8563201341959
 30
0.0
 41
2.0
 42
2.0
 43
2.0
 50
180.0
  0
INSERT
  5
3FE5
330
3FDE
100
AcDbEntity
  8
DIM
 62
     0
370
    -2
100
AcDbBlockReference
  2
_DOT
 10
293.6549339262315
 20
384.8563201341959
 30
0.0
 41
2.0
 42
2.0
 43
2.0
  0
MTEXT
  5
3FE6
330
3FDE
100
AcDbEntity
  8
DIM
 62
     0
100
AcDbMText
 10
290.5549339262315
 20
390.3563201341959
 30
0.0
 40
5.0
 41
0.0
 46
0.0
 71
     5
 72
     1
  1
\A1;6
  7
ＭＳ ゴシック
 73
     1
 44
1.0
  0
POINT
  5
3FE7
330
3FDE
100
AcDbEntity
  8
Defpoints
 62
     0
100
AcDbPoint
 10
287.4549339262315
 20
375.4988059806967
 30
0.0
  0
POINT
  5
3FE8
330
3FDE
100
AcDbEntity
  8
Defpoints
 62
     0
100
AcDbPoint
 10
293.6549339262315
 20
375.4988059806967
 30
0.0
  0
POINT
  5
3FE9
330
3FDE
100
AcDbEntity
  8
Defpoints
 62
     0
100
AcDbPoint
 10
293.6549339262315
 20
384.8563201341959
 30
0.0
  0
ENDBLK
  5
3FE0
330
3FDE
100
AcDbEntity
  8
0
100
AcDbBlockEnd
  0
BLOCK
  5
3FEF
330
3FEE
100
AcDbEntity
  8
0
100
AcDbBlockBegin
  2
*D34
 70
     1
 10
0.0
 20
0.0
 30
0.0
  3
*D34
  1

  0
LINE
  5
3FF1
330
3FEE
100
AcDbEntity
  8
DIM
 62
     0
370
    -2
100
AcDbLine
 10
111.0198376435714
 20
363.9158059806965
 30
0.0
 11
84.77521306181121
 21
363.9158059806965
 31
0.0
  0
LINE
  5
3FF2
330
3FEE
100
AcDbEntity
  8
DIM
 62
     0
370
    -2
100
AcDbLine
 10
111.0198376435723
 20
203.9158059806965
 30
0.0
 11
84.7752130618112
 21
203.9158059806965
 31
0.0
  0
LINE
  5
3FF3
330
3FEE
100
AcDbEntity
  8
DIM
 62
     0
370
    -2
100
AcDbLine
 10
84.77521306181121
 20
361.9158059806965
 30
0.0
 11
84.7752130618112
 21
205.9158059806965
 31
0.0
  0
INSERT
  5
3FF4
330
3FEE
100
AcDbEntity
  8
DIM
 62
     0
370
    -2
100
AcDbBlockReference
  2
_DOT
 10
84.77521306181121
 20
363.9158059806965
 30
0.0
 41
2.0
 42
2.0
 43
2.0
 50
90.0
  0
INSERT
  5
3FF5
330
3FEE
100
AcDbEntity
  8
DIM
 62
     0
370
    -2
100
AcDbBlockReference
  2
_DOT
 10
84.7752130618112
 20
203.9158059806965
 30
0.0
 41
2.0
 42
2.0
 43
2.0
 50
270.0
  0
MTEXT
  5
3FF6
330
3FEE
100
AcDbEntity
  8
DIM
 62
     0
100
AcDbMText
 10
79.2752130618112
 20
283.9158059806965
 30
0.0
 40
5.0
 41
0.0
 46
0.0
 71
     5
 72
     1
  1
\A1;160
  7
ＭＳ ゴシック
 11
8.881784197001254E-17
 21
1.0
 31
0.0
 73
     1
 44
1.0
  0
POINT
  5
3FF7
330
3FEE
100
AcDbEntity
  8
Defpoints
 62
     0
100
AcDbPoint
 10
116.0198376435714
 20
363.9158059806965
 30
0.0
  0
POINT
  5
3FF8
330
3FEE
100
AcDbEntity
  8
Defpoints
 62
     0
100
AcDbPoint
 10
116.0198376435723
 20
203.9158059806965
 30
0.0
  0
POINT
  5
3FF9
330
3FEE
100
AcDbEntity
  8
Defpoints
 62
     0
100
AcDbPoint
 10
84.7752130618112
 20
203.9158059806965
 30
0.0
  0
ENDBLK
  5
3FF0
330
3FEE
100
AcDbEntity
  8
0
100
AcDbBlockEnd
  0
BLOCK
  5
3FFE
330
3FFD
100
AcDbEntity
  8
0
100
AcDbBlockBegin
  2
*D35
 70
     1
 10
0.0
 20
0.0
 30
0.0
  3
*D35
  1

  0
LINE
  5
4000
330
3FFD
100
AcDbEntity
  8
DIM
 62
     0
370
    -2
100
AcDbLine
 10
248.5709863000096
 20
234.0158059806967
 30
0.0
 11
232.4370075737342
 21
234.0158059806967
 31
0.0
  0
LINE
  5
4001
330
3FFD
100
AcDbEntity
  8
DIM
 62
     0
370
    -2
100
AcDbLine
 10
248.5709863000097
 20
204.0158059806967
 30
0.0
 11
232.4370075737342
 21
204.0158059806967
 31
0.0
  0
LINE
  5
4002
330
3FFD
100
AcDbEntity
  8
DIM
 62
     0
370
    -2
100
AcDbLine
 10
232.4370075737342
 20
232.0158059806967
 30
0.0
 11
232.4370075737342
 21
206.0158059806967
 31
0.0
  0
INSERT
  5
4003
330
3FFD
100
AcDbEntity
  8
DIM
 62
     0
370
    -2
100
AcDbBlockReference
  2
_DOT
 10
232.4370075737342
 20
234.0158059806967
 30
0.0
 41
2.0
 42
2.0
 43
2.0
 50
90.0
  0
INSERT
  5
4004
330
3FFD
100
AcDbEntity
  8
DIM
 62
     0
370
    -2
100
AcDbBlockReference
  2
_DOT
 10
232.4370075737342
 20
204.0158059806967
 30
0.0
 41
2.0
 42
2.0
 43
2.0
 50
270.0
  0
MTEXT
  5
4005
330
3FFD
100
AcDbEntity
  8
DIM
 62
     0
100
AcDbMText
 10
226.9370075737342
 20
219.0158059806967
 30
0.0
 40
5.0
 41
0.0
 46
0.0
 71
     5
 72
     1
  1
\A1;30
  7
ＭＳ ゴシック
 11
0.0
 21
1.0
 31
0.0
 73
     1
 44
1.0
  0
POINT
  5
4006
330
3FFD
100
AcDbEntity
  8
Defpoints
 62
     0
100
AcDbPoint
 10
253.5709863000096
 20
234.0158059806967
 30
0.0
  0
POINT
  5
4007
330
3FFD
100
AcDbEntity
  8
Defpoints
 62
     0
100
AcDbPoint
 10
253.5709863000097
 20
204.0158059806967
 30
0.0
  0
POINT
  5
4008
330
3FFD
100
AcDbEntity
  8
Defpoints
 62
     0
100
AcDbPoint
 10
232.4370075737342
 20
204.0158059806967
 30
0.0
  0
ENDBLK
  5
3FFF
330
3FFD
100
AcDbEntity
  8
0
100
AcDbBlockEnd
  0
BLOCK
  5
400D
330
400C
100
AcDbEntity
  8
0
100
AcDbBlockBegin
  2
*D36
 70
     1
 10
0.0
 20
0.0
 30
0.0
  3
*D36
  1

  0
LINE
  5
400F
330
400C
100
AcDbEntity
  8
DIM
 62
     0
370
    -2
100
AcDbLine
 10
265.5309339262315
 20
197.4314237387387
 30
0.0
 11
265.5309339262315
 21
183.5940937563279
 31
0.0
  0
LINE
  5
4010
330
400C
100
AcDbEntity
  8
DIM
 62
     0
370
    -2
100
AcDbLine
 10
325.7309339262315
 20
197.4314237387387
 30
0.0
 11
325.7309339262315
 21
183.5940937563279
 31
0.0
  0
LINE
  5
4011
330
400C
100
AcDbEntity
  8
DIM
 62
     0
370
    -2
100
AcDbLine
 10
267.5309339262315
 20
183.5940937563279
 30
0.0
 11
323.7309339262315
 21
183.5940937563279
 31
0.0
  0
INSERT
  5
4012
330
400C
100
AcDbEntity
  8
DIM
 62
     0
370
    -2
100
AcDbBlockReference
  2
_DOT
 10
265.5309339262315
 20
183.5940937563279
 30
0.0
 41
2.0
 42
2.0
 43
2.0
 50
180.0
  0
INSERT
  5
4013
330
400C
100
AcDbEntity
  8
DIM
 62
     0
370
    -2
100
AcDbBlockReference
  2
_DOT
 10
325.7309339262315
 20
183.5940937563279
 30
0.0
 41
2.0
 42
2.0
 43
2.0
  0
MTEXT
  5
4014
330
400C
100
AcDbEntity
  8
DIM
 62
     0
100
AcDbMText
 10
295.6309339262315
 20
189.0940937563279
 30
0.0
 40
5.0
 41
0.0
 46
0.0
 71
     5
 72
     1
  1
\A1;60
  7
ＭＳ ゴシック
 73
     1
 44
1.0
  0
POINT
  5
4015
330
400C
100
AcDbEntity
  8
Defpoints
 62
     0
100
AcDbPoint
 10
265.5309339262315
 20
202.4314237387387
 30
0.0
  0
POINT
  5
4016
330
400C
100
AcDbEntity
  8
Defpoints
 62
     0
100
AcDbPoint
 10
325.7309339262315
 20
202.4314237387387
 30
0.0
  0
POINT
  5
4017
330
400C
100
AcDbEntity
  8
Defpoints
 62
     0
100
AcDbPoint
 10
325.7309339262315
 20
183.5940937563279
 30
0.0
  0
ENDBLK
  5
400E
330
400C
100
AcDbEntity
  8
0
100
AcDbBlockEnd
  0
BLOCK
  5
401C
330
401B
100
AcDbEntity
  8
0
100
AcDbBlockBegin
  2
*D37
 70
     1
 10
0.0
 20
0.0
 30
0.0
  3
*D37
  1

  0
LINE
  5
401E
330
401B
100
AcDbEntity
  8
DIM
 62
     0
370
    -2
100
AcDbLine
 10
117.9265339312977
 20
199.8946296298497
 30
0.0
 11
117.9265339312977
 21
183.5940937563277
 31
0.0
  0
LINE
  5
401F
330
401B
100
AcDbEntity
  8
DIM
 62
     0
370
    -2
100
AcDbLine
 10
133.1265339312977
 20
199.8946296298497
 30
0.0
 11
133.1265339312977
 21
183.5940937563277
 31
0.0
  0
LINE
  5
4020
330
401B
100
AcDbEntity
  8
DIM
 62
     0
370
    -2
100
AcDbLine
 10
119.9265339312977
 20
183.5940937563277
 30
0.0
 11
131.1265339312977
 21
183.5940937563277
 31
0.0
  0
INSERT
  5
4021
330
401B
100
AcDbEntity
  8
DIM
 62
     0
370
    -2
100
AcDbBlockReference
  2
_DOT
 10
117.9265339312977
 20
183.5940937563277
 30
0.0
 41
2.0
 42
2.0
 43
2.0
 50
180.0
  0
INSERT
  5
4022
330
401B
100
AcDbEntity
  8
DIM
 62
     0
370
    -2
100
AcDbBlockReference
  2
_DOT
 10
133.1265339312977
 20
183.5940937563277
 30
0.0
 41
2.0
 42
2.0
 43
2.0
  0
MTEXT
  5
4023
330
401B
100
AcDbEntity
  8
DIM
 62
     0
100
AcDbMText
 10
125.5265339312977
 20
189.0940937563277
 30
0.0
 40
5.0
 41
0.0
 46
0.0
 71
     5
 72
     1
  1
\A1;15
  7
ＭＳ ゴシック
 73
     1
 44
1.0
  0
POINT
  5
4024
330
401B
100
AcDbEntity
  8
Defpoints
 62
     0
100
AcDbPoint
 10
117.9265339312977
 20
204.8946296298497
 30
0.0
  0
POINT
  5
4025
330
401B
100
AcDbEntity
  8
Defpoints
 62
     0
100
AcDbPoint
 10
133.1265339312977
 20
204.8946296298497
 30
0.0
  0
POINT
  5
4026
330
401B
100
AcDbEntity
  8
Defpoints
 62
     0
100
AcDbPoint
 10
133.1265339312977
 20
183.5940937563277
 30
0.0
  0
ENDBLK
  5
401D
330
401B
100
AcDbEntity
  8
0
100
AcDbBlockEnd
  0
BLOCK
  5
4033
330
4032
100
AcDbEntity
  8
0
100
AcDbBlockBegin
  2
*D38
 70
     1
 10
0.0
 20
0.0
 30
0.0
  3
*D38
  1

  0
LINE
  5
4035
330
4032
100
AcDbEntity
  8
DIM
 62
     0
370
    -2
100
AcDbLine
 10
138.0265339312977
 20
486.8886004154875
 30
0.0
 11
150.0103205681883
 21
486.8886004154875
 31
0.0
  0
LINE
  5
4036
330
4032
100
AcDbEntity
  8
DIM
 62
     0
370
    -2
100
AcDbLine
 10
138.0265339312977
 20
432.8886004154875
 30
0.0
 11
150.0103205681883
 21
432.8886004154875
 31
0.0
  0
LINE
  5
4037
330
4032
100
AcDbEntity
  8
DIM
 62
     0
370
    -2
100
AcDbLine
 10
150.0103205681883
 20
484.8886004154875
 30
0.0
 11
150.0103205681883
 21
434.8886004154875
 31
0.0
  0
INSERT
  5
4038
330
4032
100
AcDbEntity
  8
DIM
 62
     0
370
    -2
100
AcDbBlockReference
  2
_DOT
 10
150.0103205681883
 20
486.8886004154875
 30
0.0
 41
2.0
 42
2.0
 43
2.0
 50
90.0
  0
INSERT
  5
4039
330
4032
100
AcDbEntity
  8
DIM
 62
     0
370
    -2
100
AcDbBlockReference
  2
_DOT
 10
150.0103205681883
 20
432.8886004154875
 30
0.0
 41
2.0
 42
2.0
 43
2.0
 50
270.0
  0
MTEXT
  5
403A
330
4032
100
AcDbEntity
  8
DIM
 62
     0
100
AcDbMText
 10
144.5103205681883
 20
459.8886004154875
 30
0.0
 40
5.0
 41
0.0
 46
0.0
 71
     5
 72
     1
  1
\A1;54
  7
ＭＳ ゴシック
 11
0.0
 21
1.0
 31
0.0
 73
     1
 44
1.0
  0
POINT
  5
403B
330
4032
100
AcDbEntity
  8
Defpoints
 62
     0
100
AcDbPoint
 10
133.0265339312977
 20
486.8886004154875
 30
0.0
  0
POINT
  5
403C
330
4032
100
AcDbEntity
  8
Defpoints
 62
     0
100
AcDbPoint
 10
133.0265339312977
 20
432.8886004154875
 30
0.0
  0
POINT
  5
403D
330
4032
100
AcDbEntity
  8
Defpoints
 62
     0
100
AcDbPoint
 10
150.0103205681883
 20
432.8886004154875
 30
0.0
  0
ENDBLK
  5
4034
330
4032
100
AcDbEntity
  8
0
100
AcDbBlockEnd
  0
BLOCK
  5
4042
330
4041
100
AcDbEntity
  8
0
100
AcDbBlockBegin
  2
*D39
 70
     1
 10
0.0
 20
0.0
 30
0.0
  3
*D39
  1

  0
LINE
  5
4044
330
4041
100
AcDbEntity
  8
DIM
 62
     0
370
    -2
100
AcDbLine
 10
152.2929339312977
 20
432.8886004154876
 30
0.0
 11
159.2767205681883
 21
432.8886004154876
 31
0.0
  0
LINE
  5
4045
330
4041
100
AcDbEntity
  8
DIM
 62
     0
370
    -2
100
AcDbLine
 10
147.2929339312977
 20
426.6886004154876
 30
0.0
 11
159.2767205681883
 21
426.6886004154876
 31
0.0
  0
LINE
  5
4046
330
4041
100
AcDbEntity
  8
DIM
 62
     0
370
    -2
100
AcDbLine
 10
159.2767205681883
 20
430.8886004154876
 30
0.0
 11
159.2767205681883
 21
428.6886004154876
 31
0.0
  0
INSERT
  5
4047
330
4041
100
AcDbEntity
  8
DIM
 62
     0
370
    -2
100
AcDbBlockReference
  2
_DOT
 10
159.2767205681883
 20
432.8886004154876
 30
0.0
 41
2.0
 42
2.0
 43
2.0
 50
90.0
  0
INSERT
  5
4048
330
4041
100
AcDbEntity
  8
DIM
 62
     0
370
    -2
100
AcDbBlockReference
  2
_DOT
 10
159.2767205681883
 20
426.6886004154876
 30
0.0
 41
2.0
 42
2.0
 43
2.0
 50
270.0
  0
MTEXT
  5
4049
330
4041
100
AcDbEntity
  8
DIM
 62
     0
100
AcDbMText
 10
153.7767205681883
 20
429.7886004154875
 30
0.0
 40
5.0
 41
0.0
 46
0.0
 71
     5
 72
     1
  1
\A1;6
  7
ＭＳ ゴシック
 11
0.0
 21
1.0
 31
0.0
 73
     1
 44
1.0
  0
POINT
  5
404A
330
4041
100
AcDbEntity
  8
Defpoints
 62
     0
100
AcDbPoint
 10
147.2929339312977
 20
432.8886004154876
 30
0.0
  0
POINT
  5
404B
330
4041
100
AcDbEntity
  8
Defpoints
 62
     0
100
AcDbPoint
 10
142.2929339312977
 20
426.6886004154876
 30
0.0
  0
POINT
  5
404C
330
4041
100
AcDbEntity
  8
Defpoints
 62
     0
100
AcDbPoint
 10
159.2767205681883
 20
426.6886004154876
 30
0.0
  0
ENDBLK
  5
4043
330
4041
100
AcDbEntity
  8
0
100
AcDbBlockEnd
  0
BLOCK
  5
4064
330
4063
100
AcDbEntity
  8
0
100
AcDbBlockBegin
  2
*D40
 70
     1
 10
0.0
 20
0.0
 30
0.0
  3
*D40
  1

  0
LINE
  5
4066
330
4063
100
AcDbEntity
  8
DIM
 62
     0
370
    -2
100
AcDbLine
 10
319.5309339262316
 20
368.6658059806967
 30
0.0
 11
319.5309339262316
 21
376.8907233221221
 31
0.0
  0
LINE
  5
4067
330
4063
100
AcDbEntity
  8
DIM
 62
     0
370
    -2
100
AcDbLine
 10
325.7309339262315
 20
368.4158059806967
 30
0.0
 11
325.7309339262315
 21
376.8907233221221
 31
0.0
  0
LINE
  5
4068
330
4063
100
AcDbEntity
  8
DIM
 62
     0
370
    -2
100
AcDbLine
 10
321.5309339262316
 20
376.8907233221221
 30
0.0
 11
323.7309339262315
 21
376.8907233221221
 31
0.0
  0
INSERT
  5
4069
330
4063
100
AcDbEntity
  8
DIM
 62
     0
370
    -2
100
AcDbBlockReference
  2
_DOT
 10
319.5309339262316
 20
376.8907233221221
 30
0.0
 41
2.0
 42
2.0
 43
2.0
 50
180.0
  0
INSERT
  5
406A
330
4063
100
AcDbEntity
  8
DIM
 62
     0
370
    -2
100
AcDbBlockReference
  2
_DOT
 10
325.7309339262315
 20
376.8907233221221
 30
0.0
 41
2.0
 42
2.0
 43
2.0
  0
MTEXT
  5
406B
330
4063
100
AcDbEntity
  8
DIM
 62
     0
100
AcDbMText
 10
322.6309339262316
 20
382.3907233221221
 30
0.0
 40
5.0
 41
0.0
 46
0.0
 71
     5
 72
     1
  1
\A1;6
  7
ＭＳ ゴシック
 73
     1
 44
1.0
  0
POINT
  5
406C
330
4063
100
AcDbEntity
  8
Defpoints
 62
     0
100
AcDbPoint
 10
319.5309339262316
 20
363.6658059806967
 30
0.0
  0
POINT
  5
406D
330
4063
100
AcDbEntity
  8
Defpoints
 62
     0
100
AcDbPoint
 10
325.7309339262315
 20
363.4158059806967
 30
0.0
  0
POINT
  5
406E
330
4063
100
AcDbEntity
  8
Defpoints
 62
     0
100
AcDbPoint
 10
325.7309339262315
 20
376.8907233221221
 30
0.0
  0
ENDBLK
  5
4065
330
4063
100
AcDbEntity
  8
0
100
AcDbBlockEnd
  0
BLOCK
  5
40A1
330
40A0
100
AcDbEntity
  8
0
100
AcDbBlockBegin
  2
*D42
 70
     1
 10
0.0
 20
0.0
 30
0.0
  3
*D42
  1

  0
LINE
  5
40A2
330
40A0
100
AcDbEntity
  8
DIM
 62
     0
370
    -2
100
AcDbLine
 10
31.0
 20
5.0
 30
0.0
 11
31.0
 21
61.28310676910252
 31
0.0
  0
LINE
  5
40A3
330
40A0
100
AcDbEntity
  8
DIM
 62
     0
370
    -2
100
AcDbLine
 10
1.0
 20
5.0
 30
0.0
 11
1.0
 21
61.28310676910252
 31
0.0
  0
LINE
  5
40A4
330
40A0
100
AcDbEntity
  8
DIM
 62
     0
370
    -2
100
AcDbLine
 10
29.0
 20
61.28310676910252
 30
0.0
 11
3.0
 21
61.28310676910252
 31
0.0
  0
INSERT
  5
40A5
330
40A0
100
AcDbEntity
  8
DIM
 62
     0
370
    -2
100
AcDbBlockReference
  2
_DOT
 10
31.0
 20
61.28310676910252
 30
0.0
 41
2.0
 42
2.0
 43
2.0
  0
INSERT
  5
40A6
330
40A0
100
AcDbEntity
  8
DIM
 62
     0
370
    -2
100
AcDbBlockReference
  2
_DOT
 10
1.0
 20
61.28310676910252
 30
0.0
 41
2.0
 42
2.0
 43
2.0
 50
180.0
  0
MTEXT
  5
40A7
330
40A0
100
AcDbEntity
  8
DIM
 62
     0
100
AcDbMText
 10
13.01750000000003
 20
69.28310676910252
 30
0.0
 40
5.0
 41
0.0
 46
0.0
 71
     1
 72
     1
  1
\A1;30
  7
ＭＳ ゴシック
 73
     1
 44
1.0
  0
POINT
  5
40A8
330
40A0
100
AcDbEntity
  8
Defpoints
 62
     0
100
AcDbPoint
 10
31.0
 20
0.0
 30
0.0
  0
POINT
  5
40A9
330
40A0
100
AcDbEntity
  8
Defpoints
 62
     0
100
AcDbPoint
 10
1.0
 20
0.0
 30
0.0
  0
POINT
  5
40AA
330
40A0
100
AcDbEntity
  8
Defpoints
 62
     0
100
AcDbPoint
 10
1.0
 20
61.28310676910252
 30
0.0
  0
ENDBLK
  5
40AB
330
40A0
100
AcDbEntity
  8
0
100
AcDbBlockEnd
  0
BLOCK
  5
40AE
330
40AD
100
AcDbEntity
  8
0
100
AcDbBlockBegin
  2
*D43
 70
     1
 10
0.0
 20
0.0
 30
0.0
  3
*D43
  1

  0
LINE
  5
40AF
330
40AD
100
AcDbEntity
  8
DIM
 62
     0
370
    -2
100
AcDbLine
 10
9.000000000000057
 20
40.88905291185523
 30
0.0
 11
9.000000000000057
 21
48.9038806571026
 31
0.0
  0
LINE
  5
40B0
330
40AD
100
AcDbEntity
  8
DIM
 62
     0
370
    -2
100
AcDbLine
 10
23.00000000000006
 20
40.88905291185529
 30
0.0
 11
23.00000000000006
 21
48.9038806571026
 31
0.0
  0
LINE
  5
40B1
330
40AD
100
AcDbEntity
  8
DIM
 62
     0
370
    -2
100
AcDbLine
 10
11.00000000000006
 20
48.9038806571026
 30
0.0
 11
21.00000000000006
 21
48.9038806571026
 31
0.0
  0
INSERT
  5
40B2
330
40AD
100
AcDbEntity
  8
DIM
 62
     0
370
    -2
100
AcDbBlockReference
  2
_DOT
 10
9.000000000000057
 20
48.9038806571026
 30
0.0
 41
2.0
 42
2.0
 43
2.0
 50
180.0
  0
INSERT
  5
40B3
330
40AD
100
AcDbEntity
  8
DIM
 62
     0
370
    -2
100
AcDbBlockReference
  2
_DOT
 10
23.00000000000006
 20
48.9038806571026
 30
0.0
 41
2.0
 42
2.0
 43
2.0
  0
MTEXT
  5
40B4
330
40AD
100
AcDbEntity
  8
DIM
 62
     0
100
AcDbMText
 10
16.00000000000006
 20
54.4038806571026
 30
0.0
 40
5.0
 41
0.0
 46
0.0
 71
     5
 72
     1
  1
\A1;14
  7
ＭＳ ゴシック
 73
     1
 44
1.0
  0
POINT
  5
40B5
330
40AD
100
AcDbEntity
  8
Defpoints
 62
     0
100
AcDbPoint
 10
9.000000000000057
 20
35.88905291185523
 30
0.0
  0
POINT
  5
40B6
330
40AD
100
AcDbEntity
  8
Defpoints
 62
     0
100
AcDbPoint
 10
23.00000000000006
 20
35.88905291185529
 30
0.0
  0
POINT
  5
40B7
330
40AD
100
AcDbEntity
  8
Defpoints
 62
     0
100
AcDbPoint
 10
23.00000000000006
 20
48.9038806571026
 30
0.0
  0
ENDBLK
  5
40B8
330
40AD
100
AcDbEntity
  8
0
100
AcDbBlockEnd
  0
BLOCK
  5
411B
330
411A
100
AcDbEntity
  8
0
100
AcDbBlockBegin
  2
*D44
 70
     1
 10
0.0
 20
0.0
 30
0.0
  3
*D44
  1

  0
LINE
  5
411D
330
411A
100
AcDbEntity
  8
DIM
 62
     0
370
    -2
100
AcDbLine
 10
260.5309339262316
 20
234.0158059806967
 30
0.0
 11
204.2478271571291
 21
234.0158059806967
 31
0.0
  0
LINE
  5
411E
330
411A
100
AcDbEntity
  8
DIM
 62
     0
370
    -2
100
AcDbLine
 10
260.5309339262316
 20
204.0158059806967
 30
0.0
 11
204.2478271571291
 21
204.0158059806967
 31
0.0
  0
LINE
  5
411F
330
411A
100
AcDbEntity
  8
DIM
 62
     0
370
    -2
100
AcDbLine
 10
204.2478271571291
 20
232.0158059806967
 30
0.0
 11
204.2478271571291
 21
206.0158059806967
 31
0.0
  0
INSERT
  5
4120
330
411A
100
AcDbEntity
  8
DIM
 62
     0
370
    -2
100
AcDbBlockReference
  2
_DOT
 10
204.2478271571291
 20
234.0158059806967
 30
0.0
 41
2.0
 42
2.0
 43
2.0
 50
90.0
  0
INSERT
  5
4121
330
411A
100
AcDbEntity
  8
DIM
 62
     0
370
    -2
100
AcDbBlockReference
  2
_DOT
 10
204.2478271571291
 20
204.0158059806967
 30
0.0
 41
2.0
 42
2.0
 43
2.0
 50
270.0
  0
MTEXT
  5
4122
330
411A
100
AcDbEntity
  8
DIM
 62
     0
100
AcDbMText
 10
196.2478271571291
 20
216.0333059806967
 30
0.0
 40
5.0
 41
0.0
 46
0.0
 71
     1
 72
     1
  1
\A1;30
  7
ＭＳ ゴシック
 11
0.0
 21
1.0
 31
0.0
 73
     1
 44
1.0
  0
POINT
  5
4123
330
411A
100
AcDbEntity
  8
Defpoints
 62
     0
100
AcDbPoint
 10
265.5309339262316
 20
234.0158059806967
 30
0.0
  0
POINT
  5
4124
330
411A
100
AcDbEntity
  8
Defpoints
 62
     0
100
AcDbPoint
 10
265.5309339262316
 20
204.0158059806967
 30
0.0
  0
POINT
  5
4125
330
411A
100
AcDbEntity
  8
Defpoints
 62
     0
100
AcDbPoint
 10
204.2478271571291
 20
204.0158059806967
 30
0.0
  0
ENDBLK
  5
411C
330
411A
100
AcDbEntity
  8
0
100
AcDbBlockEnd
  0
BLOCK
  5
4127
330
4126
100
AcDbEntity
  8
0
100
AcDbBlockBegin
  2
*D45
 70
     1
 10
0.0
 20
0.0
 30
0.0
  3
*D45
  1

  0
LINE
  5
4129
330
4126
100
AcDbEntity
  8
DIM
 62
     0
370
    -2
100
AcDbLine
 10
221.8662682226781
 20
212.0158059806967
 30
0.0
 11
216.0558727819899
 21
212.0158059806967
 31
0.0
  0
LINE
  5
412A
330
4126
100
AcDbEntity
  8
DIM
 62
     0
370
    -2
100
AcDbLine
 10
221.8662682226781
 20
226.0158059806967
 30
0.0
 11
216.0558727819899
 21
226.0158059806967
 31
0.0
  0
LINE
  5
412B
330
4126
100
AcDbEntity
  8
DIM
 62
     0
370
    -2
100
AcDbLine
 10
216.0558727819899
 20
214.0158059806967
 30
0.0
 11
216.0558727819899
 21
224.0158059806967
 31
0.0
  0
INSERT
  5
412C
330
4126
100
AcDbEntity
  8
DIM
 62
     0
370
    -2
100
AcDbBlockReference
  2
_DOT
 10
216.0558727819899
 20
212.0158059806967
 30
0.0
 41
2.0
 42
2.0
 43
2.0
 50
270.0
  0
INSERT
  5
412D
330
4126
100
AcDbEntity
  8
DIM
 62
     0
370
    -2
100
AcDbBlockReference
  2
_DOT
 10
216.0558727819899
 20
226.0158059806967
 30
0.0
 41
2.0
 42
2.0
 43
2.0
 50
90.0
  0
MTEXT
  5
412E
330
4126
100
AcDbEntity
  8
DIM
 62
     0
100
AcDbMText
 10
210.5558727819899
 20
219.0158059806967
 30
0.0
 40
5.0
 41
0.0
 46
0.0
 71
     5
 72
     1
  1
\A1;14
  7
ＭＳ ゴシック
 11
0.0
 21
1.0
 31
0.0
 73
     1
 44
1.0
  0
POINT
  5
412F
330
4126
100
AcDbEntity
  8
Defpoints
 62
     0
100
AcDbPoint
 10
226.8662682226781
 20
212.0158059806967
 30
0.0
  0
POINT
  5
4130
330
4126
100
AcDbEntity
  8
Defpoints
 62
     0
100
AcDbPoint
 10
226.8662682226781
 20
226.0158059806967
 30
0.0
  0
POINT
  5
4131
330
4126
100
AcDbEntity
  8
Defpoints
 62
     0
100
AcDbPoint
 10
216.0558727819899
 20
226.0158059806967
 30
0.0
  0
ENDBLK
  5
4128
330
4126
100
AcDbEntity
  8
0
100
AcDbBlockEnd
  0
BLOCK
  5
41CD
330
41CC
100
AcDbEntity
  8
0
100
AcDbBlockBegin
  2
*D48
 70
     1
 10
0.0
 20
0.0
 30
0.0
  3
*D48
  1

  0
LINE
  5
41CE
330
41CC
100
AcDbEntity
  8
DIM
 62
     0
370
    -2
100
AcDbLine
 10
1.0
 20
5.0
 30
0.0
 11
1.0
 21
26.13057470085135
 31
0.0
  0
LINE
  5
41CF
330
41CC
100
AcDbEntity
  8
DIM
 62
     0
370
    -2
100
AcDbLine
 10
39.66466570355351
 20
12.50000000000102
 30
0.0
 11
39.66466570355351
 21
26.13057470085135
 31
0.0
  0
LINE
  5
41D0
330
41CC
100
AcDbEntity
  8
DIM
 62
     0
370
    -2
100
AcDbLine
 10
3.0
 20
26.13057470085135
 30
0.0
 11
37.66466570355351
 21
26.13057470085135
 31
0.0
  0
INSERT
  5
41D1
330
41CC
100
AcDbEntity
  8
DIM
 62
     0
370
    -2
100
AcDbBlockReference
  2
_DOT
 10
1.0
 20
26.13057470085135
 30
0.0
 41
2.0
 42
2.0
 43
2.0
 50
180.0
  0
INSERT
  5
41D2
330
41CC
100
AcDbEntity
  8
DIM
 62
     0
370
    -2
100
AcDbBlockReference
  2
_DOT
 10
39.66466570355351
 20
26.13057470085135
 30
0.0
 41
2.0
 42
2.0
 43
2.0
  0
MTEXT
  5
41D3
330
41CC
100
AcDbEntity
  8
DIM
 62
     0
100
AcDbMText
 10
20.33233285177675
 20
31.63057470085135
 30
0.0
 40
5.0
 41
0.0
 46
0.0
 71
     5
 72
     1
  1
\A1;50
  7
ＭＳ ゴシック
 73
     1
 44
1.0
  0
POINT
  5
41D4
330
41CC
100
AcDbEntity
  8
Defpoints
 62
     0
100
AcDbPoint
 10
1.0
 20
0.0
 30
0.0
  0
POINT
  5
41D5
330
41CC
100
AcDbEntity
  8
Defpoints
 62
     0
100
AcDbPoint
 10
39.66466570355351
 20
7.500000000001023
 30
0.0
  0
POINT
  5
41D6
330
41CC
100
AcDbEntity
  8
Defpoints
 62
     0
100
AcDbPoint
 10
39.66466570355351
 20
26.13057470085135
 30
0.0
  0
ENDBLK
  5
41D7
330
41CC
100
AcDbEntity
  8
0
100
AcDbBlockEnd
  0
BLOCK
  5
41E1
330
41E0
100
AcDbEntity
  8
0
100
AcDbBlockBegin
  2
*D49
 70
     1
 10
0.0
 20
0.0
 30
0.0
  3
*D49
  1

  0
LINE
  5
41E3
330
41E0
100
AcDbEntity
  8
DIM
 62
     0
370
    -2
100
AcDbLine
 10
226.8662682226781
 20
231.5158059806957
 30
0.0
 11
226.8662682226781
 21
252.646380681547
 31
0.0
  0
LINE
  5
41E4
330
41E0
100
AcDbEntity
  8
DIM
 62
     0
370
    -2
100
AcDbLine
 10
265.5309339262316
 20
239.0158059806967
 30
0.0
 11
265.5309339262316
 21
252.646380681547
 31
0.0
  0
LINE
  5
41E5
330
41E0
100
AcDbEntity
  8
DIM
 62
     0
370
    -2
100
AcDbLine
 10
228.8662682226781
 20
252.646380681547
 30
0.0
 11
263.5309339262316
 21
252.646380681547
 31
0.0
  0
INSERT
  5
41E6
330
41E0
100
AcDbEntity
  8
DIM
 62
     0
370
    -2
100
AcDbBlockReference
  2
_DOT
 10
226.8662682226781
 20
252.646380681547
 30
0.0
 41
2.0
 42
2.0
 43
2.0
 50
180.0
  0
INSERT
  5
41E7
330
41E0
100
AcDbEntity
  8
DIM
 62
     0
370
    -2
100
AcDbBlockReference
  2
_DOT
 10
265.5309339262316
 20
252.646380681547
 30
0.0
 41
2.0
 42
2.0
 43
2.0
  0
MTEXT
  5
41E8
330
41E0
100
AcDbEntity
  8
DIM
 62
     0
100
AcDbMText
 10
246.1986010744548
 20
258.146380681547
 30
0.0
 40
5.0
 41
0.0
 46
0.0
 71
     5
 72
     1
  1
\A1;50
  7
ＭＳ ゴシック
 73
     1
 44
1.0
  0
POINT
  5
41E9
330
41E0
100
AcDbEntity
  8
Defpoints
 62
     0
100
AcDbPoint
 10
226.8662682226781
 20
226.5158059806957
 30
0.0
  0
POINT
  5
41EA
330
41E0
100
AcDbEntity
  8
Defpoints
 62
     0
100
AcDbPoint
 10
265.5309339262316
 20
234.0158059806967
 30
0.0
  0
POINT
  5
41EB
330
41E0
100
AcDbEntity
  8
Defpoints
 62
     0
100
AcDbPoint
 10
265.5309339262316
 20
252.646380681547
 30
0.0
  0
ENDBLK
  5
41E2
330
41E0
100
AcDbEntity
  8
0
100
AcDbBlockEnd
  0
ENDSEC
  0
SECTION
  2
ENTITIES
  0
MTEXT
  5
177
330
A
100
AcDbEntity
  8
TEMPLATE
390
1D
100
AcDbMText
 10
15.84042890954615
 20
68.74635032628565
 30
0.0
 40
3.257682291666665
 41
0.0
 46
0.0
 71
     1
 72
     1
  1
品名
  7
ＭＳ ゴシック
 73
     1
 44
0.7828267384257843
  0
MTEXT
  5
178
330
A
100
AcDbEntity
  8
TEMPLATE
390
1D
100
AcDbMText
 10
15.84042890954615
 20
51.7463503262856
 30
0.0
 40
3.257682291666665
 41
0.0
 46
0.0
 71
     1
 72
     1
  1
仕様
  7
ＭＳ ゴシック
 73
     1
 44
0.7828267384257843
  0
LINE
  5
179
330
A
100
AcDbEntity
  8
TEMPLATE
390
1D
100
AcDbLine
 10
404.4404289094496
 20
53.42933470128568
 30
0.0
 11
14.44042890944975
 21
53.42933470128568
 31
0.0
  0
LWPOLYLINE
  5
17A
330
A
100
AcDbEntity
  8
TEMPLATE
390
1D
100
AcDbPolyline
 90
        5
 70
   128
 43
0.0
 10
404.4404289094496
 20
579.4293347012853
 10
14.44042890944975
 20
579.4293347012853
 10
14.44042890944975
 20
19.42933470128565
 10
404.4404289094496
 20
19.42933470128565
 10
404.4404289094496
 20
579.4293347012853
  0
LINE
  5
17B
330
A
100
AcDbEntity
  8
TEMPLATE
390
1D
100
AcDbLine
 10
404.4404289094496
 20
70.42933470128564
 30
0.0
 11
14.44042890944975
 21
70.42933470128564
 31
0.0
  0
LINE
  5
17C
330
A
100
AcDbEntity
  8
TEMPLATE
390
1D
100
AcDbLine
 10
404.4404289095464
 20
36.42933470128565
 30
0.0
 11
253.840428909546
 21
36.42933470128565
 31
0.0
  0
MTEXT
  5
17E
330
A
100
AcDbEntity
  8
TEMPLATE
390
1D
100
AcDbMText
 10
259.8147101599982
 20
30.44725580662403
 30
0.0
 40
4.8865234375
 41
0.0
 46
0.0
 71
     1
 72
     1
  1
大洋金物株式会社 ティーフォルム事業部
  7
ＭＳ ゴシック
 73
     1
 44
0.7828267384257843
  0
MTEXT
  5
180
330
A
100
AcDbEntity
  8
TEMPLATE
390
1D
100
AcDbMText
 10
366.240428909598
 20
46.02985813878564
 30
0.0
 40
4.8865234375
 41
0.0
 46
4.8865234375
 71
     1
 72
     1
  1
{1:2}
  7
ＭＳ ゴシック
 73
     1
 44
0.7828267384257843
1001
ACAD
1000
ACAD_MTEXT_DEFINED_HEIGHT_BEGIN
1070
    46
1040
4.8865234375
1000
ACAD_MTEXT_DEFINED_HEIGHT_END
  0
MTEXT
  5
181
330
A
100
AcDbEntity
  8
TEMPLATE
390
1D
100
AcDbMText
 10
355.640428909598
 20
51.7463503262856
 30
0.0
 40
3.257682291666665
 41
0.0
 46
0.0
 71
     1
 72
     1
  1
縮尺
  7
ＭＳ ゴシック
 73
     1
 44
0.7828267384257843
  0
LINE
  5
182
330
A
100
AcDbEntity
  8
TEMPLATE
390
1D
100
AcDbLine
 10
354.240428909598
 20
36.42933470128565
 30
0.0
 11
354.240428909598
 21
53.42933470128568
 31
0.0
  0
MTEXT
  5
183
330
A
100
AcDbEntity
  8
TEMPLATE
390
1D
100
AcDbMText
 10
305.440428909598
 20
51.7463503262856
 30
0.0
 40
3.257682291666665
 41
0.0
 46
0.0
 71
     1
 72
     1
  1
容量
  7
ＭＳ ゴシック
 73
     1
 44
0.7828267384257843
  0
LINE
  5
184
330
A
100
AcDbEntity
  8
TEMPLATE
390
1D
100
AcDbLine
 10
304.040428909598
 20
36.42933470128565
 30
0.0
 11
304.040428909598
 21
53.42933470128568
 31
0.0
  0
MTEXT
  5
185
330
A
100
AcDbEntity
  8
TEMPLATE
390
1D
100
AcDbMText
 10
255.240428909598
 20
68.74635032628565
 30
0.0
 40
3.257682291666665
 41
0.0
 46
0.0
 71
     1
 72
     1
  1
品番
  7
ＭＳ ゴシック
 73
     1
 44
0.7828267384257843
  0
MTEXT
  5
186
330
A
100
AcDbEntity
  8
TEMPLATE
390
1D
100
AcDbMText
 10
255.240428909598
 20
51.7463503262856
 30
0.0
 40
3.257682291666665
 41
0.0
 46
0.0
 71
     1
 72
     1
  1
重量
  7
ＭＳ ゴシック
 73
     1
 44
0.7828267384257843
  0
MTEXT
  5
187
330
A
100
AcDbEntity
  8
TEMPLATE
390
1D
100
AcDbMText
 10
265.840428909598
 20
63.02985813878564
 30
0.0
 40
4.8865234375
 41
0.0
 46
4.8865234375
 71
     1
 72
     1
  1
{FRF74-2507}
  7
ＭＳ ゴシック
 73
     1
 44
0.7828267384257843
1001
ACAD
1000
ACAD_MTEXT_DEFINED_HEIGHT_BEGIN
1070
    46
1040
4.8865234375
1000
ACAD_MTEXT_DEFINED_HEIGHT_END
  0
LINE
  5
188
330
A
100
AcDbEntity
  8
TEMPLATE
390
1D
100
AcDbLine
 10
253.840428909598
 20
19.42933470128565
 30
0.0
 11
253.840428909598
 21
70.42933470128564
 31
0.0
  0
MTEXT
  5
189
330
A
100
AcDbEntity
  8
TEMPLATE
390
1D
100
AcDbMText
 10
26.44042890954615
 20
63.02985813878564
 30
0.0
 40
4.8865234375
 41
0.0
 46
5.5071119140625
 71
     1
 72
     1
  1
{ペーパーストッカー　-LANGBERGER, Cecita-}
  7
ＭＳ ゴシック
 73
     1
 44
0.7828267384257843
1001
ACAD
1000
ACAD_MTEXT_DEFINED_HEIGHT_BEGIN
1070
    46
1040
5.5071119140625
1000
ACAD_MTEXT_DEFINED_HEIGHT_END
  0
INSERT
  5
68C
330
A
100
AcDbEntity
  8
TEMPLATE
100
AcDbBlockReference
  2
block 2
 10
367.7097207081031
 20
3.349230605734547
 30
0.0
 41
0.1524
 42
0.1524
 43
0.1524
  0
LWPOLYLINE
  5
D69
330
A
100
AcDbEntity
  8
BORDER
100
AcDbPolyline
 90
        4
 70
     1
 43
0.0
 10
0.0
 20
0.0
 10
0.0
 20
594.0
 10
420.0
 20
594.0
 10
420.0
 20
0.0
  0
INSERT
  5
1343
330
A
100
AcDbEntity
  8
TEMPLATE
100
AcDbBlockReference
  2
block 2
 10
838.6973883465873
 20
9.774128564918277
 30
0.0
 41
0.1524
 42
0.1524
 43
0.1524
  0
HATCH
  5
3C64
102
{ACAD_REACTORS
330
3C75
102
}
330
A
100
AcDbEntity
  8
TEMPLATE
100
AcDbHatch
 10
0.0
 20
0.0
 30
0.0
210
0.0
220
0.0
230
1.0
  2
SOLID
 70
     1
 71
     1
 91
        6
 92
        1
 93
        8
 72
     1
 10
386.9584116981973
 20
30.78695932253559
 11
386.9584116981973
 21
29.60507779640349
 72
     1
 10
386.9584116981973
 20
29.60507779640349
 11
385.086293388135
 21
29.60507779640349
 72
     1
 10
385.086293388135
 20
29.60507779640349
 11
385.086293388135
 21
24.78695932282479
 72
     1
 10
385.086293388135
 20
24.78695932282479
 11
383.4397707574798
 21
24.78695932282479
 72
     1
 10
383.4397707574798
 20
24.78695932282479
 11
383.4397707574798
 21
29.60507779640349
 72
     1
 10
383.4397707574798
 20
29.60507779640349
 11
381.6008304705712
 21
29.60507779640349
 72
     1
 10
381.6008304705712
 20
29.60507779640349
 11
381.6008304705712
 21
30.78695932253559
 72
     1
 10
381.6008304705712
 20
30.78695932253559
 11
386.9584116981973
 21
30.78695932253559
 97
        1
330
3C65
 92
        1
 93
        1
 72
     4
 94
        3
 73
     0
 74
     1
 95
       56
 96
       52
 40
0.0
 40
0.0
 40
0.0
 40
0.0
 40
1.0
 40
1.0
 40
1.0
 40
2.0
 40
2.0
 40
2.0
 40
3.0
 40
3.0
 40
3.0
 40
4.0
 40
4.0
 40
4.0
 40
5.0
 40
5.0
 40
5.0
 40
6.0
 40
6.0
 40
6.0
 40
7.0
 40
7.0
 40
7.0
 40
8.0
 40
8.0
 40
8.0
 40
9.0
 40
9.0
 40
9.0
 40
10.0
 40
10.0
 40
10.0
 40
11.0
 40
11.0
 40
11.0
 40
12.0
 40
12.0
 40
12.0
 40
13.0
 40
13.0
 40
13.0
 40
14.0
 40
14.0
 40
14.0
 40
15.0
 40
15.0
 40
15.0
 40
16.0
 40
16.0
 40
16.0
 40
17.0
 40
17.0
 40
17.0
 40
17.0
 10
389.4668487850558
 20
30.64408553045313
 10
389.6976220214394
 20
30.70904304125516
 10
389.9955398401064
 20
30.65470844907718
 10
389.9955398401064
 20
30.65470844907718
 10
389.9955398401064
 20
30.65470844907718
 10
389.85241312139
 20
30.22519439059248
 10
389.85241312139
 20
30.22519439059248
 10
389.85241312139
 20
30.22519439059248
 10
389.5599406643706
 20
30.29287458221835
 10
389.3343598630008
 20
30.1149927683958
 10
389.1590668276665
 20
29.97588311974736
 10
389.0455027690426
 20
29.60625316134929
 10
389.0019398758616
 20
29.46571522112114
 10
389.0019398758616
 20
29.46571522112114
 10
388.8077219770962
 20
28.86958202304137
 10
388.8077219770962
 20
28.86958202304137
 10
388.8077219770962
 20
28.86958202304137
 10
389.4445466071603
 20
28.86958202304137
 10
389.4445466071603
 20
28.86958202304137
 10
389.4445466071603
 20
28.86958202304137
 10
389.34550351293
 20
28.49438767869736
 10
389.34550351293
 20
28.49438767869736
 10
389.34550351293
 20
28.49438767869736
 10
388.7034864478522
 20
28.49438767869736
 10
388.7034864478522
 20
28.49438767869736
 10
388.7034864478522
 20
28.49438767869736
 10
387.5547978229109
 20
24.78695932282479
 10
387.5547978229109
 20
24.78695932282479
 10
387.5547978229109
 20
24.78695932282479
 10
387.1951510275336
 20
24.78695932282479
 10
387.1951510275336
 20
24.78695932282479
 10
387.1951510275336
 20
24.78695932282479
 10
388.3448811150849
 20
28.49438767869736
 10
388.3448811150849
 20
28.49438767869736
 10
388.3448811150849
 20
28.49438767869736
 10
387.8711346517413
 20
28.49438767869736
 10
387.8711346517413
 20
28.49438767869736
 10
387.8711346517413
 20
28.49438767869736
 10
387.9704455506427
 20
28.86958202304137
 10
387.9704455506427
 20
28.86958202304137
 10
387.9704455506427
 20
28.86958202304137
 10
388.4491166443289
 20
28.86958202304137
 10
388.4491166443289
 20
28.86958202304137
 10
388.4491166443289
 20
28.86958202304137
 10
388.6184287086733
 20
29.38948015805433
 10
388.6184287086733
 20
29.38948015805433
 10
388.7553364078029
 20
29.82536201649855
 10
388.8715041229524
 20
30.059378665011
 10
388.971082826525
 20
30.23581730921654
 10
389.0696051894502
 20
30.41240473379499
 10
389.2645967461546
 20
30.58586777054282
 10
389.4668487850558
 20
30.64408553045313
 97
        1
330
3C70
 92
        1
 93
        1
 72
     4
 94
        3
 73
     0
 74
     1
 95
       32
 96
       28
 40
0.0
 40
0.0
 40
0.0
 40
0.0
 40
1.0
 40
1.0
 40
1.0
 40
2.0
 40
2.0
 40
2.0
 40
3.0
 40
3.0
 40
3.0
 40
4.0
 40
4.0
 40
4.0
 40
5.0
 40
5.0
 40
5.0
 40
6.0
 40
6.0
 40
6.0
 40
7.0
 40
7.0
 40
7.0
 40
8.0
 40
8.0
 40
8.0
 40
9.0
 40
9.0
 40
9.0
 40
9.0
 10
390.3419600603343
 20
28.64284073476305
 10
390.1254548617105
 20
28.36279143887966
 10
389.9587315758544
 20
28.11075748721071
 10
389.6888142233646
 20
27.31860614785359
 10
389.4406634394279
 20
26.59401597582401
 10
389.2827479516467
 20
26.06685735861421
 10
389.2588984578731
 20
25.42484029353638
 10
389.240747252381
 20
24.94707676012474
 10
389.5316723935223
 20
24.78695932282479
 10
389.9582257225866
 20
24.78695932282479
 10
390.1420587513246
 20
24.78695932282479
 10
390.6059559539832
 20
24.79865346013363
 10
390.9363078939394
 20
25.20702582763122
 10
391.1675721055534
 20
25.49393389870466
 10
391.38071486775
 20
25.79134586410385
 10
391.6664624519149
 20
26.76695828126675
 10
391.9042432438614
 20
27.58257228542799
 10
392.068883604497
 20
28.10971602460051
 10
392.056713369995
 20
28.40985067082352
 10
392.056713369995
 20
28.40985067082352
 10
392.056713369995
 20
28.40985067082352
 10
392.056713369995
 20
28.40985067082352
 10
391.9791690396468
 20
28.91055613773418
 10
391.615639076537
 20
29.01635386089345
 10
391.4079416759881
 20
29.01635386089345
 10
391.2033686632698
 20
29.01635386089345
 10
390.6552022574085
 20
29.05174871160303
 10
390.3419600603343
 20
28.64284073476305
 97
        1
330
3C73
 92
        1
 93
        1
 72
     4
 94
        3
 73
     0
 74
     1
 95
       38
 96
       34
 40
0.0
 40
0.0
 40
0.0
 40
0.0
 40
1.0
 40
1.0
 40
1.0
 40
2.0
 40
2.0
 40
2.0
 40
3.0
 40
3.0
 40
3.0
 40
4.0
 40
4.0
 40
4.0
 40
5.0
 40
5.0
 40
5.0
 40
6.0
 40
6.0
 40
6.0
 40
7.0
 40
7.0
 40
7.0
 40
8.0
 40
8.0
 40
8.0
 40
9.0
 40
9.0
 40
9.0
 40
10.0
 40
10.0
 40
10.0
 40
11.0
 40
11.0
 40
11.0
 40
11.0
 10
393.3716045494872
 20
28.85519496098328
 10
393.3716045494872
 20
28.85519496098328
 10
393.7413535321836
 20
28.85519496098328
 10
393.7413535321836
 20
28.85519496098328
 10
393.7413535321836
 20
28.85519496098328
 10
393.5761775622055
 20
28.32635512555987
 10
393.5761775622055
 20
28.32635512555987
 10
393.7016886847722
 20
28.47480818162555
 10
393.8997748732327
 20
28.67252241915381
 10
394.0698903515905
 20
28.77222014702475
 10
394.3240072284799
 20
28.92067320309043
 10
394.4692168724166
 20
28.94025270016223
 10
394.6289177246725
 20
28.93635465439262
 10
394.6289177246725
 20
28.93635465439262
 10
394.4728471135151
 20
28.43630382112264
 10
394.4728471135151
 20
28.43630382112264
 10
394.3712003627593
 20
28.47934598299858
 10
394.057958165685
 20
28.39741263165024
 10
393.8782612313133
 20
28.26815224368685
 10
393.7162096491659
 20
28.15159769956793
 10
393.6041780283826
 20
28.0524207030021
 10
393.4714361796937
 20
27.80309455411968
 10
393.3397060375404
 20
27.55339645430504
 10
393.2357383129677
 20
27.15524529842472
 10
393.0568150365349
 20
26.57765013480655
 10
393.0568150365349
 20
26.57765013480655
 10
392.4980257120495
 20
24.78695932282479
 10
392.4980257120495
 20
24.78695932282479
 10
392.4980257120495
 20
24.78695932282479
 10
392.1391674526484
 20
24.78695932282479
 10
392.1391674526484
 20
24.78695932282479
 10
392.1391674526484
 20
24.78695932282479
 10
393.3716045494872
 20
28.85519496098328
 10
393.3716045494872
 20
28.85519496098328
 97
        1
330
3C71
 92
        1
 93
        1
 72
     4
 94
        3
 73
     0
 74
     1
 95
      104
 96
      100
 40
0.0
 40
0.0
 40
0.0
 40
0.0
 40
1.0
 40
1.0
 40
1.0
 40
2.0
 40
2.0
 40
2.0
 40
3.0
 40
3.0
 40
3.0
 40
4.0
 40
4.0
 40
4.0
 40
5.0
 40
5.0
 40
5.0
 40
6.0
 40
6.0
 40
6.0
 40
7.0
 40
7.0
 40
7.0
 40
8.0
 40
8.0
 40
8.0
 40
9.0
 40
9.0
 40
9.0
 40
10.0
 40
10.0
 40
10.0
 40
11.0
 40
11.0
 40
11.0
 40
12.0
 40
12.0
 40
12.0
 40
13.0
 40
13.0
 40
13.0
 40
14.0
 40
14.0
 40
14.0
 40
15.0
 40
15.0
 40
15.0
 40
16.0
 40
16.0
 40
16.0
 40
17.0
 40
17.0
 40
17.0
 40
18.0
 40
18.0
 40
18.0
 40
19.0
 40
19.0
 40
19.0
 40
20.0
 40
20.0
 40
20.0
 40
21.0
 40
21.0
 40
21.0
 40
22.0
 40
22.0
 40
22.0
 40
23.0
 40
23.0
 40
23.0
 40
24.0
 40
24.0
 40
24.0
 40
25.0
 40
25.0
 40
25.0
 40
26.0
 40
26.0
 40
26.0
 40
27.0
 40
27.0
 40
27.0
 40
28.0
 40
28.0
 40
28.0
 40
29.0
 40
29.0
 40
29.0
 40
30.0
 40
30.0
 40
30.0
 40
31.0
 40
31.0
 40
31.0
 40
32.0
 40
32.0
 40
32.0
 40
33.0
 40
33.0
 40
33.0
 40
33.0
 10
395.4068307823444
 20
28.857396910502
 10
395.4068307823444
 20
28.857396910502
 10
395.7296544354325
 20
28.857396910502
 10
395.7296544354325
 20
28.857396910502
 10
395.7296544354325
 20
28.857396910502
 10
395.5665613906749
 20
28.32805122181077
 10
395.5665613906749
 20
28.32805122181077
 10
395.7081110374387
 20
28.55000178208216
 10
395.8351694758834
 20
28.64892585201409
 10
396.0039756869598
 20
28.77675794839777
 10
396.1732877513042
 20
28.90277492423224
 10
396.3742602789986
 20
28.92845441659237
 10
396.5137567566165
 20
28.92845441659237
 10
396.6864610134627
 20
28.92845441659237
 10
396.8531842993187
 20
28.8943539551269
 10
396.9408159389486
 20
28.70506068670399
 10
397.0079753992694
 20
28.55662250867558
 10
397.0110997871
 20
28.5391110587869
 10
396.9919071189977
 20
28.24610299242514
 10
397.1674382029287
 20
28.54650544331934
 10
397.2970854198616
 20
28.67589973361832
 10
397.5174886642549
 20
28.80022061320189
 10
397.7487826319435
 20
28.92845441659237
 10
397.8836074058529
 20
28.93805075064353
 10
398.0402433824273
 20
28.9149600367716
 10
398.2710017407735
 20
28.88087445334342
 10
398.4182943099307
 20
28.79853939498828
 10
398.4953030309365
 20
28.54832056386854
 10
398.5725795566135
 20
28.29887539068781
 10
398.5308317839817
 20
28.16507720135141
 10
398.4354040528126
 20
27.76796750808128
 10
398.3918411596316
 20
27.58711008680102
 10
398.3288177936771
 20
27.36812025595006
 10
398.2463637110236
 20
27.10754631087745
 10
398.2463637110236
 20
27.10754631087745
 10
397.5174886642549
 20
24.78695932282479
 10
397.5174886642549
 20
24.78695932282479
 10
397.5174886642549
 20
24.78695932282479
 10
397.1383962741413
 20
24.78695932282479
 10
397.1383962741413
 20
24.78695932282479
 10
397.1383962741413
 20
24.78695932282479
 10
397.7765450495241
 20
26.81569873142421
 10
397.7765450495241
 20
26.81569873142421
 10
397.9098225075554
 20
27.24016913526807
 10
398.0000429256735
 20
27.55015304217612
 10
398.0467302066851
 20
27.74450484327716
 10
398.1053199175276
 20
27.98694246089495
 10
398.1286486799962
 20
28.06694166739577
 10
398.1009160184902
 20
28.24339518963862
 10
398.0755043308013
 20
28.4076487213048
 10
397.9925146388055
 20
28.51460693137258
 10
397.8504293826993
 20
28.51460693137258
 10
397.6990007191758
 20
28.51460693137258
 10
397.5763461797686
 20
28.49775011512458
 10
397.4047131416073
 20
28.32532854098695
 10
397.2330503473714
 20
28.15159769956793
 10
397.0912031398618
 20
27.94766444245305
 10
396.9799749330922
 20
27.71312706263549
 10
396.8689847749192
 20
27.47716139123824
 10
396.7564473008682
 20
27.17806820762544
 10
396.6423625109393
 20
26.81569873142421
 10
396.6423625109393
 20
26.81569873142421
 10
396.0039756869598
 20
24.78695932282479
 10
396.0039756869598
 20
24.78695932282479
 10
396.0039756869598
 20
24.78695932282479
 10
395.6474384013758
 20
24.78695932282479
 10
395.6474384013758
 20
24.78695932282479
 10
395.6474384013758
 20
24.78695932282479
 10
396.3773549107547
 20
27.10650484826726
 10
396.3773549107547
 20
27.10650484826726
 10
396.4543636317604
 20
27.35336124295977
 10
396.5122094407385
 20
27.55457181925085
 10
396.5503269722719
 20
27.71183267339138
 10
396.6151357027011
 20
27.98253856185753
 10
396.6332869081932
 20
28.1655979326565
 10
396.5842786533645
 20
28.32805122181077
 10
396.5360440564749
 20
28.48998377965993
 10
396.4512690000045
 20
28.53134472332225
 10
396.3096895971661
 20
28.53134472332225
 10
396.1909331035284
 20
28.53134472332225
 10
396.0750331930502
 20
28.48038744560878
 10
395.9427971976291
 20
28.37899362148695
 10
395.7763119603696
 20
28.25142932977446
 10
395.7096881093912
 20
28.1466730692254
 10
395.6280076846768
 20
28.02220340926895
 10
395.5177911844429
 20
27.85754817059597
 10
395.4661941511259
 20
27.74670679279587
 10
395.3731171498484
 20
27.50348063920177
 10
395.2800103924964
 20
27.25882619402798
 10
395.1918728995987
 20
26.97412007247326
 10
395.1303968495222
 20
26.77719437092129
 10
395.1303968495222
 20
26.77719437092129
 10
394.5042100161195
 20
24.78695932282479
 10
394.5042100161195
 20
24.78695932282479
 10
394.5042100161195
 20
24.78695932282479
 10
394.1308307923247
 20
24.78695932282479
 10
394.1308307923247
 20
24.78695932282479
 10
394.1308307923247
 20
24.78695932282479
 10
395.4068307823444
 20
28.857396910502
 10
395.4068307823444
 20
28.857396910502
 97
        1
330
3C72
 92
       16
 93
        1
 72
     4
 94
        3
 73
     0
 74
     1
 95
       29
 96
       25
 40
0.0
 40
0.0
 40
0.0
 40
0.0
 40
1.0
 40
1.0
 40
1.0
 40
2.0
 40
2.0
 40
2.0
 40
3.0
 40
3.0
 40
3.0
 40
4.0
 40
4.0
 40
4.0
 40
5.0
 40
5.0
 40
5.0
 40
6.0
 40
6.0
 40
6.0
 40
7.0
 40
7.0
 40
7.0
 40
8.0
 40
8.0
 40
8.0
 40
8.0
 10
389.6462927927937
 20
25.54487629838084
 10
389.6447157208412
 20
25.82830290872873
 10
389.7341922370948
 20
26.33186495879882
 10
389.9634032795631
 20
27.00563175545052
 10
390.2756040140271
 20
27.91796788002499
 10
390.4628292352669
 20
28.25142932977446
 10
390.6266661818889
 20
28.41374871659313
 10
390.866024045788
 20
28.65010121695988
 10
391.1878062362659
 20
28.66188462249246
 10
391.2827281141673
 20
28.65010121695988
 10
391.4178206927478
 20
28.6338841563153
 10
391.6086463990114
 20
28.54546398070914
 10
391.6200429755745
 20
28.24779908867604
 10
391.629148334395
 20
27.99304245618328
 10
391.5557400984131
 20
27.51593355641234
 10
391.2987963944389
 20
26.76695828126675
 10
391.0026639402465
 20
25.896622855958
 10
390.824782126424
 20
25.55448751046927
 10
390.6821910170501
 20
25.40537982076289
 10
390.413553175767
 20
25.1258512561846
 10
390.1254548617105
 20
25.15269123545324
 10
390.0829334311396
 20
25.15269123545324
 10
390.0277061567243
 20
25.15269123545324
 10
389.6470664507327
 20
25.21261996965174
 10
389.6462927927937
 20
25.54487629838084
 97
        1
330
3C74
 75
     0
 76
     1
 98
        1
 10
371.9300318427923
 20
14.61939790801677
1001
ACAD
1010
0.0
1020
0.0
1030
0.0
  0
POLYLINE
  5
3C65
102
{ACAD_REACTORS
330
3C64
330
3C75
102
}
330
A
100
AcDbEntity
  8
TEMPLATE
100
AcDb2dPolyline
 66
     1
 10
0.0
 20
0.0
 30
0.0
  0
VERTEX
  5
3C66
330
3C65
100
AcDbEntity
  8
TEMPLATE
100
AcDbVertex
100
AcDb2dVertex
 10
386.9584116981973
 20
30.78695932253559
 30
0.0
  0
VERTEX
  5
3C67
330
3C65
100
AcDbEntity
  8
TEMPLATE
100
AcDbVertex
100
AcDb2dVertex
 10
386.9584116981973
 20
29.60507779640349
 30
0.0
  0
VERTEX
  5
3C68
330
3C65
100
AcDbEntity
  8
TEMPLATE
100
AcDbVertex
100
AcDb2dVertex
 10
385.086293388135
 20
29.60507779640349
 30
0.0
  0
VERTEX
  5
3C69
330
3C65
100
AcDbEntity
  8
TEMPLATE
100
AcDbVertex
100
AcDb2dVertex
 10
385.086293388135
 20
24.78695932282479
 30
0.0
  0
VERTEX
  5
3C6A
330
3C65
100
AcDbEntity
  8
TEMPLATE
100
AcDbVertex
100
AcDb2dVertex
 10
383.4397707574798
 20
24.78695932282479
 30
0.0
  0
VERTEX
  5
3C6B
330
3C65
100
AcDbEntity
  8
TEMPLATE
100
AcDbVertex
100
AcDb2dVertex
 10
383.4397707574798
 20
29.60507779640349
 30
0.0
  0
VERTEX
  5
3C6C
330
3C65
100
AcDbEntity
  8
TEMPLATE
100
AcDbVertex
100
AcDb2dVertex
 10
381.6008304705712
 20
29.60507779640349
 30
0.0
  0
VERTEX
  5
3C6D
330
3C65
100
AcDbEntity
  8
TEMPLATE
100
AcDbVertex
100
AcDb2dVertex
 10
381.6008304705712
 20
30.78695932253559
 30
0.0
  0
VERTEX
  5
3C6E
330
3C65
100
AcDbEntity
  8
TEMPLATE
100
AcDbVertex
100
AcDb2dVertex
 10
386.9584116981973
 20
30.78695932253559
 30
0.0
  0
SEQEND
  5
3C6F
330
3C65
100
AcDbEntity
  8
TEMPLATE
  0
SPLINE
  5
3C70
102
{ACAD_REACTORS
330
3C64
330
3C75
102
}
330
A
100
AcDbEntity
  8
TEMPLATE
100
AcDbSpline
210
0.0
220
0.0
230
1.0
 70
    11
 71
     3
 72
    56
 73
    52
 74
     0
 42
0.000000001
 43
0.0000000001
 40
0.0
 40
0.0
 40
0.0
 40
0.0
 40
1.0
 40
1.0
 40
1.0
 40
2.0
 40
2.0
 40
2.0
 40
3.0
 40
3.0
 40
3.0
 40
4.0
 40
4.0
 40
4.0
 40
5.0
 40
5.0
 40
5.0
 40
6.0
 40
6.0
 40
6.0
 40
7.0
 40
7.0
 40
7.0
 40
8.0
 40
8.0
 40
8.0
 40
9.0
 40
9.0
 40
9.0
 40
10.0
 40
10.0
 40
10.0
 40
11.0
 40
11.0
 40
11.0
 40
12.0
 40
12.0
 40
12.0
 40
13.0
 40
13.0
 40
13.0
 40
14.0
 40
14.0
 40
14.0
 40
15.0
 40
15.0
 40
15.0
 40
16.0
 40
16.0
 40
16.0
 40
17.0
 40
17.0
 40
17.0
 40
17.0
 10
389.4668487850558
 20
30.64408553045313
 30
0.0
 10
389.6976220214394
 20
30.70904304125516
 30
0.0
 10
389.9955398401064
 20
30.65470844907718
 30
0.0
 10
389.9955398401064
 20
30.65470844907718
 30
0.0
 10
389.9955398401064
 20
30.65470844907718
 30
0.0
 10
389.85241312139
 20
30.22519439059248
 30
0.0
 10
389.85241312139
 20
30.22519439059248
 30
0.0
 10
389.85241312139
 20
30.22519439059248
 30
0.0
 10
389.5599406643706
 20
30.29287458221835
 30
0.0
 10
389.3343598630008
 20
30.1149927683958
 30
0.0
 10
389.1590668276665
 20
29.97588311974736
 30
0.0
 10
389.0455027690426
 20
29.60625316134929
 30
0.0
 10
389.0019398758616
 20
29.46571522112114
 30
0.0
 10
389.0019398758616
 20
29.46571522112114
 30
0.0
 10
388.8077219770962
 20
28.86958202304137
 30
0.0
 10
388.8077219770962
 20
28.86958202304137
 30
0.0
 10
388.8077219770962
 20
28.86958202304137
 30
0.0
 10
389.4445466071603
 20
28.86958202304137
 30
0.0
 10
389.4445466071603
 20
28.86958202304137
 30
0.0
 10
389.4445466071603
 20
28.86958202304137
 30
0.0
 10
389.34550351293
 20
28.49438767869736
 30
0.0
 10
389.34550351293
 20
28.49438767869736
 30
0.0
 10
389.34550351293
 20
28.49438767869736
 30
0.0
 10
388.7034864478522
 20
28.49438767869736
 30
0.0
 10
388.7034864478522
 20
28.49438767869736
 30
0.0
 10
388.7034864478522
 20
28.49438767869736
 30
0.0
 10
387.5547978229109
 20
24.78695932282479
 30
0.0
 10
387.5547978229109
 20
24.78695932282479
 30
0.0
 10
387.5547978229109
 20
24.78695932282479
 30
0.0
 10
387.1951510275336
 20
24.78695932282479
 30
0.0
 10
387.1951510275336
 20
24.78695932282479
 30
0.0
 10
387.1951510275336
 20
24.78695932282479
 30
0.0
 10
388.3448811150849
 20
28.49438767869736
 30
0.0
 10
388.3448811150849
 20
28.49438767869736
 30
0.0
 10
388.3448811150849
 20
28.49438767869736
 30
0.0
 10
387.8711346517413
 20
28.49438767869736
 30
0.0
 10
387.8711346517413
 20
28.49438767869736
 30
0.0
 10
387.8711346517413
 20
28.49438767869736
 30
0.0
 10
387.9704455506427
 20
28.86958202304137
 30
0.0
 10
387.9704455506427
 20
28.86958202304137
 30
0.0
 10
387.9704455506427
 20
28.86958202304137
 30
0.0
 10
388.4491166443289
 20
28.86958202304137
 30
0.0
 10
388.4491166443289
 20
28.86958202304137
 30
0.0
 10
388.4491166443289
 20
28.86958202304137
 30
0.0
 10
388.6184287086733
 20
29.38948015805433
 30
0.0
 10
388.6184287086733
 20
29.38948015805433
 30
0.0
 10
388.7553364078029
 20
29.82536201649855
 30
0.0
 10
388.8715041229524
 20
30.059378665011
 30
0.0
 10
388.971082826525
 20
30.23581730921654
 30
0.0
 10
389.0696051894502
 20
30.41240473379499
 30
0.0
 10
389.2645967461546
 20
30.58586777054282
 30
0.0
 10
389.4668487850558
 20
30.64408553045313
 30
0.0
  0
SPLINE
  5
3C71
102
{ACAD_REACTORS
330
3C64
330
3C75
102
}
330
A
100
AcDbEntity
  8
TEMPLATE
100
AcDbSpline
210
0.0
220
0.0
230
1.0
 70
    11
 71
     3
 72
    38
 73
    34
 74
     0
 42
0.000000001
 43
0.0000000001
 40
0.0
 40
0.0
 40
0.0
 40
0.0
 40
1.0
 40
1.0
 40
1.0
 40
2.0
 40
2.0
 40
2.0
 40
3.0
 40
3.0
 40
3.0
 40
4.0
 40
4.0
 40
4.0
 40
5.0
 40
5.0
 40
5.0
 40
6.0
 40
6.0
 40
6.0
 40
7.0
 40
7.0
 40
7.0
 40
8.0
 40
8.0
 40
8.0
 40
9.0
 40
9.0
 40
9.0
 40
10.0
 40
10.0
 40
10.0
 40
11.0
 40
11.0
 40
11.0
 40
11.0
 10
393.3716045494872
 20
28.85519496098328
 30
0.0
 10
393.3716045494872
 20
28.85519496098328
 30
0.0
 10
393.7413535321836
 20
28.85519496098328
 30
0.0
 10
393.7413535321836
 20
28.85519496098328
 30
0.0
 10
393.7413535321836
 20
28.85519496098328
 30
0.0
 10
393.5761775622055
 20
28.32635512555987
 30
0.0
 10
393.5761775622055
 20
28.32635512555987
 30
0.0
 10
393.7016886847722
 20
28.47480818162555
 30
0.0
 10
393.8997748732327
 20
28.67252241915381
 30
0.0
 10
394.0698903515905
 20
28.77222014702475
 30
0.0
 10
394.3240072284799
 20
28.92067320309043
 30
0.0
 10
394.4692168724166
 20
28.94025270016223
 30
0.0
 10
394.6289177246725
 20
28.93635465439262
 30
0.0
 10
394.6289177246725
 20
28.93635465439262
 30
0.0
 10
394.4728471135151
 20
28.43630382112264
 30
0.0
 10
394.4728471135151
 20
28.43630382112264
 30
0.0
 10
394.3712003627593
 20
28.47934598299858
 30
0.0
 10
394.057958165685
 20
28.39741263165024
 30
0.0
 10
393.8782612313133
 20
28.26815224368685
 30
0.0
 10
393.7162096491659
 20
28.15159769956793
 30
0.0
 10
393.6041780283826
 20
28.0524207030021
 30
0.0
 10
393.4714361796937
 20
27.80309455411968
 30
0.0
 10
393.3397060375404
 20
27.55339645430504
 30
0.0
 10
393.2357383129677
 20
27.15524529842472
 30
0.0
 10
393.0568150365349
 20
26.57765013480655
 30
0.0
 10
393.0568150365349
 20
26.57765013480655
 30
0.0
 10
392.4980257120495
 20
24.78695932282479
 30
0.0
 10
392.4980257120495
 20
24.78695932282479
 30
0.0
 10
392.4980257120495
 20
24.78695932282479
 30
0.0
 10
392.1391674526484
 20
24.78695932282479
 30
0.0
 10
392.1391674526484
 20
24.78695932282479
 30
0.0
 10
392.1391674526484
 20
24.78695932282479
 30
0.0
 10
393.3716045494872
 20
28.85519496098328
 30
0.0
 10
393.3716045494872
 20
28.85519496098328
 30
0.0
  0
SPLINE
  5
3C72
102
{ACAD_REACTORS
330
3C64
330
3C75
102
}
330
A
100
AcDbEntity
  8
TEMPLATE
100
AcDbSpline
210
0.0
220
0.0
230
1.0
 70
    11
 71
     3
 72
   104
 73
   100
 74
     0
 42
0.000000001
 43
0.0000000001
 40
0.0
 40
0.0
 40
0.0
 40
0.0
 40
1.0
 40
1.0
 40
1.0
 40
2.0
 40
2.0
 40
2.0
 40
3.0
 40
3.0
 40
3.0
 40
4.0
 40
4.0
 40
4.0
 40
5.0
 40
5.0
 40
5.0
 40
6.0
 40
6.0
 40
6.0
 40
7.0
 40
7.0
 40
7.0
 40
8.0
 40
8.0
 40
8.0
 40
9.0
 40
9.0
 40
9.0
 40
10.0
 40
10.0
 40
10.0
 40
11.0
 40
11.0
 40
11.0
 40
12.0
 40
12.0
 40
12.0
 40
13.0
 40
13.0
 40
13.0
 40
14.0
 40
14.0
 40
14.0
 40
15.0
 40
15.0
 40
15.0
 40
16.0
 40
16.0
 40
16.0
 40
17.0
 40
17.0
 40
17.0
 40
18.0
 40
18.0
 40
18.0
 40
19.0
 40
19.0
 40
19.0
 40
20.0
 40
20.0
 40
20.0
 40
21.0
 40
21.0
 40
21.0
 40
22.0
 40
22.0
 40
22.0
 40
23.0
 40
23.0
 40
23.0
 40
24.0
 40
24.0
 40
24.0
 40
25.0
 40
25.0
 40
25.0
 40
26.0
 40
26.0
 40
26.0
 40
27.0
 40
27.0
 40
27.0
 40
28.0
 40
28.0
 40
28.0
 40
29.0
 40
29.0
 40
29.0
 40
30.0
 40
30.0
 40
30.0
 40
31.0
 40
31.0
 40
31.0
 40
32.0
 40
32.0
 40
32.0
 40
33.0
 40
33.0
 40
33.0
 40
33.0
 10
395.4068307823444
 20
28.857396910502
 30
0.0
 10
395.4068307823444
 20
28.857396910502
 30
0.0
 10
395.7296544354325
 20
28.857396910502
 30
0.0
 10
395.7296544354325
 20
28.857396910502
 30
0.0
 10
395.7296544354325
 20
28.857396910502
 30
0.0
 10
395.5665613906749
 20
28.32805122181077
 30
0.0
 10
395.5665613906749
 20
28.32805122181077
 30
0.0
 10
395.7081110374387
 20
28.55000178208216
 30
0.0
 10
395.8351694758834
 20
28.64892585201409
 30
0.0
 10
396.0039756869598
 20
28.77675794839777
 30
0.0
 10
396.1732877513042
 20
28.90277492423224
 30
0.0
 10
396.3742602789986
 20
28.92845441659237
 30
0.0
 10
396.5137567566165
 20
28.92845441659237
 30
0.0
 10
396.6864610134627
 20
28.92845441659237
 30
0.0
 10
396.8531842993187
 20
28.8943539551269
 30
0.0
 10
396.9408159389486
 20
28.70506068670399
 30
0.0
 10
397.0079753992694
 20
28.55662250867558
 30
0.0
 10
397.0110997871
 20
28.5391110587869
 30
0.0
 10
396.9919071189977
 20
28.24610299242514
 30
0.0
 10
397.1674382029287
 20
28.54650544331934
 30
0.0
 10
397.2970854198616
 20
28.67589973361832
 30
0.0
 10
397.5174886642549
 20
28.80022061320189
 30
0.0
 10
397.7487826319435
 20
28.92845441659237
 30
0.0
 10
397.8836074058529
 20
28.93805075064353
 30
0.0
 10
398.0402433824273
 20
28.9149600367716
 30
0.0
 10
398.2710017407735
 20
28.88087445334342
 30
0.0
 10
398.4182943099307
 20
28.79853939498828
 30
0.0
 10
398.4953030309365
 20
28.54832056386854
 30
0.0
 10
398.5725795566135
 20
28.29887539068781
 30
0.0
 10
398.5308317839817
 20
28.16507720135141
 30
0.0
 10
398.4354040528126
 20
27.76796750808128
 30
0.0
 10
398.3918411596316
 20
27.58711008680102
 30
0.0
 10
398.3288177936771
 20
27.36812025595006
 30
0.0
 10
398.2463637110236
 20
27.10754631087745
 30
0.0
 10
398.2463637110236
 20
27.10754631087745
 30
0.0
 10
397.5174886642549
 20
24.78695932282479
 30
0.0
 10
397.5174886642549
 20
24.78695932282479
 30
0.0
 10
397.5174886642549
 20
24.78695932282479
 30
0.0
 10
397.1383962741413
 20
24.78695932282479
 30
0.0
 10
397.1383962741413
 20
24.78695932282479
 30
0.0
 10
397.1383962741413
 20
24.78695932282479
 30
0.0
 10
397.7765450495241
 20
26.81569873142421
 30
0.0
 10
397.7765450495241
 20
26.81569873142421
 30
0.0
 10
397.9098225075554
 20
27.24016913526807
 30
0.0
 10
398.0000429256735
 20
27.55015304217612
 30
0.0
 10
398.0467302066851
 20
27.74450484327716
 30
0.0
 10
398.1053199175276
 20
27.98694246089495
 30
0.0
 10
398.1286486799962
 20
28.06694166739577
 30
0.0
 10
398.1009160184902
 20
28.24339518963862
 30
0.0
 10
398.0755043308013
 20
28.4076487213048
 30
0.0
 10
397.9925146388055
 20
28.51460693137258
 30
0.0
 10
397.8504293826993
 20
28.51460693137258
 30
0.0
 10
397.6990007191758
 20
28.51460693137258
 30
0.0
 10
397.5763461797686
 20
28.49775011512458
 30
0.0
 10
397.4047131416073
 20
28.32532854098695
 30
0.0
 10
397.2330503473714
 20
28.15159769956793
 30
0.0
 10
397.0912031398618
 20
27.94766444245305
 30
0.0
 10
396.9799749330922
 20
27.71312706263549
 30
0.0
 10
396.8689847749192
 20
27.47716139123824
 30
0.0
 10
396.7564473008682
 20
27.17806820762544
 30
0.0
 10
396.6423625109393
 20
26.81569873142421
 30
0.0
 10
396.6423625109393
 20
26.81569873142421
 30
0.0
 10
396.0039756869598
 20
24.78695932282479
 30
0.0
 10
396.0039756869598
 20
24.78695932282479
 30
0.0
 10
396.0039756869598
 20
24.78695932282479
 30
0.0
 10
395.6474384013758
 20
24.78695932282479
 30
0.0
 10
395.6474384013758
 20
24.78695932282479
 30
0.0
 10
395.6474384013758
 20
24.78695932282479
 30
0.0
 10
396.3773549107547
 20
27.10650484826726
 30
0.0
 10
396.3773549107547
 20
27.10650484826726
 30
0.0
 10
396.4543636317604
 20
27.35336124295977
 30
0.0
 10
396.5122094407385
 20
27.55457181925085
 30
0.0
 10
396.5503269722719
 20
27.71183267339138
 30
0.0
 10
396.6151357027011
 20
27.98253856185753
 30
0.0
 10
396.6332869081932
 20
28.1655979326565
 30
0.0
 10
396.5842786533645
 20
28.32805122181077
 30
0.0
 10
396.5360440564749
 20
28.48998377965993
 30
0.0
 10
396.4512690000045
 20
28.53134472332225
 30
0.0
 10
396.3096895971661
 20
28.53134472332225
 30
0.0
 10
396.1909331035284
 20
28.53134472332225
 30
0.0
 10
396.0750331930502
 20
28.48038744560878
 30
0.0
 10
395.9427971976291
 20
28.37899362148695
 30
0.0
 10
395.7763119603696
 20
28.25142932977446
 30
0.0
 10
395.7096881093912
 20
28.1466730692254
 30
0.0
 10
395.6280076846768
 20
28.02220340926895
 30
0.0
 10
395.5177911844429
 20
27.85754817059597
 30
0.0
 10
395.4661941511259
 20
27.74670679279587
 30
0.0
 10
395.3731171498484
 20
27.50348063920177
 30
0.0
 10
395.2800103924964
 20
27.25882619402798
 30
0.0
 10
395.1918728995987
 20
26.97412007247326
 30
0.0
 10
395.1303968495222
 20
26.77719437092129
 30
0.0
 10
395.1303968495222
 20
26.77719437092129
 30
0.0
 10
394.5042100161195
 20
24.78695932282479
 30
0.0
 10
394.5042100161195
 20
24.78695932282479
 30
0.0
 10
394.5042100161195
 20
24.78695932282479
 30
0.0
 10
394.1308307923247
 20
24.78695932282479
 30
0.0
 10
394.1308307923247
 20
24.78695932282479
 30
0.0
 10
394.1308307923247
 20
24.78695932282479
 30
0.0
 10
395.4068307823444
 20
28.857396910502
 30
0.0
 10
395.4068307823444
 20
28.857396910502
 30
0.0
  0
SPLINE
  5
3C73
102
{ACAD_REACTORS
330
3C64
330
3C75
102
}
330
A
100
AcDbEntity
  8
TEMPLATE
100
AcDbSpline
210
0.0
220
0.0
230
1.0
 70
    11
 71
     3
 72
    32
 73
    28
 74
     0
 42
0.000000001
 43
0.0000000001
 40
0.0
 40
0.0
 40
0.0
 40
0.0
 40
1.0
 40
1.0
 40
1.0
 40
2.0
 40
2.0
 40
2.0
 40
3.0
 40
3.0
 40
3.0
 40
4.0
 40
4.0
 40
4.0
 40
5.0
 40
5.0
 40
5.0
 40
6.0
 40
6.0
 40
6.0
 40
7.0
 40
7.0
 40
7.0
 40
8.0
 40
8.0
 40
8.0
 40
9.0
 40
9.0
 40
9.0
 40
9.0
 10
390.3419600603343
 20
28.64284073476305
 30
0.0
 10
390.1254548617105
 20
28.36279143887966
 30
0.0
 10
389.9587315758544
 20
28.11075748721071
 30
0.0
 10
389.6888142233646
 20
27.31860614785359
 30
0.0
 10
389.4406634394279
 20
26.59401597582401
 30
0.0
 10
389.2827479516467
 20
26.06685735861421
 30
0.0
 10
389.2588984578731
 20
25.42484029353638
 30
0.0
 10
389.240747252381
 20
24.94707676012474
 30
0.0
 10
389.5316723935223
 20
24.78695932282479
 30
0.0
 10
389.9582257225866
 20
24.78695932282479
 30
0.0
 10
390.1420587513246
 20
24.78695932282479
 30
0.0
 10
390.6059559539832
 20
24.79865346013363
 30
0.0
 10
390.9363078939394
 20
25.20702582763122
 30
0.0
 10
391.1675721055534
 20
25.49393389870466
 30
0.0
 10
391.38071486775
 20
25.79134586410385
 30
0.0
 10
391.6664624519149
 20
26.76695828126675
 30
0.0
 10
391.9042432438614
 20
27.58257228542799
 30
0.0
 10
392.068883604497
 20
28.10971602460051
 30
0.0
 10
392.056713369995
 20
28.40985067082352
 30
0.0
 10
392.056713369995
 20
28.40985067082352
 30
0.0
 10
392.056713369995
 20
28.40985067082352
 30
0.0
 10
392.056713369995
 20
28.40985067082352
 30
0.0
 10
391.9791690396468
 20
28.91055613773418
 30
0.0
 10
391.615639076537
 20
29.01635386089345
 30
0.0
 10
391.4079416759881
 20
29.01635386089345
 30
0.0
 10
391.2033686632698
 20
29.01635386089345
 30
0.0
 10
390.6552022574085
 20
29.05174871160303
 30
0.0
 10
390.3419600603343
 20
28.64284073476305
 30
0.0
  0
SPLINE
  5
3C74
102
{ACAD_REACTORS
330
3C64
330
3C75
102
}
330
A
100
AcDbEntity
  8
TEMPLATE
100
AcDbSpline
210
0.0
220
0.0
230
1.0
 70
    11
 71
     3
 72
    29
 73
    25
 74
     0
 42
0.000000001
 43
0.0000000001
 40
0.0
 40
0.0
 40
0.0
 40
0.0
 40
1.0
 40
1.0
 40
1.0
 40
2.0
 40
2.0
 40
2.0
 40
3.0
 40
3.0
 40
3.0
 40
4.0
 40
4.0
 40
4.0
 40
5.0
 40
5.0
 40
5.0
 40
6.0
 40
6.0
 40
6.0
 40
7.0
 40
7.0
 40
7.0
 40
8.0
 40
8.0
 40
8.0
 40
8.0
 10
389.6462927927937
 20
25.54487629838084
 30
0.0
 10
389.6447157208412
 20
25.82830290872873
 30
0.0
 10
389.7341922370948
 20
26.33186495879882
 30
0.0
 10
389.9634032795631
 20
27.00563175545052
 30
0.0
 10
390.2756040140271
 20
27.91796788002499
 30
0.0
 10
390.4628292352669
 20
28.25142932977446
 30
0.0
 10
390.6266661818889
 20
28.41374871659313
 30
0.0
 10
390.866024045788
 20
28.65010121695988
 30
0.0
 10
391.1878062362659
 20
28.66188462249246
 30
0.0
 10
391.2827281141673
 20
28.65010121695988
 30
0.0
 10
391.4178206927478
 20
28.6338841563153
 30
0.0
 10
391.6086463990114
 20
28.54546398070914
 30
0.0
 10
391.6200429755745
 20
28.24779908867604
 30
0.0
 10
391.629148334395
 20
27.99304245618328
 30
0.0
 10
391.5557400984131
 20
27.51593355641234
 30
0.0
 10
391.2987963944389
 20
26.76695828126675
 30
0.0
 10
391.0026639402465
 20
25.896622855958
 30
0.0
 10
390.824782126424
 20
25.55448751046927
 30
0.0
 10
390.6821910170501
 20
25.40537982076289
 30
0.0
 10
390.413553175767
 20
25.1258512561846
 30
0.0
 10
390.1254548617105
 20
25.15269123545324
 30
0.0
 10
390.0829334311396
 20
25.15269123545324
 30
0.0
 10
390.0277061567243
 20
25.15269123545324
 30
0.0
 10
389.6470664507327
 20
25.21261996965174
 30
0.0
 10
389.6462927927937
 20
25.54487629838084
 30
0.0
  0
MTEXT
  5
3CB5
102
{ACAD_XDICTIONARY
360
3CB7
102
}
330
A
100
AcDbEntity
  8
TEMPLATE
100
AcDbMText
 10
15.00779663219942
 20
17.57619761830519
 30
0.0
 40
4.0
 41
0.0
 46
4.0
 71
     1
 72
     1
  1
{20190627N}
  7
ＭＳ ゴシック
 73
     1
 44
1.0
1001
ACAD
1000
ACAD_MTEXT_DEFINED_HEIGHT_BEGIN
1070
    46
1040
4.0
1000
ACAD_MTEXT_DEFINED_HEIGHT_END
  0
LINE
  5
3DE0
330
A
100
AcDbEntity
  8
MODEL
  6
Continuous
100
AcDbLine
 10
118.4265339312977
 20
363.9158059806965
 30
0.0
 11
132.6265339312978
 21
363.9158059806965
 31
0.0
  0
LINE
  5
3DE1
102
{ACAD_REACTORS
330
401A
102
}
330
A
100
AcDbEntity
  8
MODEL
  6
Continuous
100
AcDbLine
 10
133.1265339312977
 20
363.4158059806965
 30
0.0
 11
133.1265339312977
 21
204.4158059806965
 31
0.0
  0
LINE
  5
3DE2
102
{ACAD_REACTORS
330
401A
102
}
330
A
100
AcDbEntity
  8
MODEL
  6
Continuous
100
AcDbLine
 10
117.9265339312977
 20
363.4158059806965
 30
0.0
 11
117.9265339312977
 21
204.4158059806965
 31
0.0
  0
ARC
  5
3DE3
330
A
100
AcDbEntity
  8
MODEL
  6
Continuous
100
AcDbCircle
 10
132.6265339312978
 20
363.4158059806965
 30
0.0
 40
0.5000000000000142
100
AcDbArc
 50
0.0
 51
90.0
  0
ARC
  5
3DE4
330
A
100
AcDbEntity
  8
MODEL
  6
Continuous
100
AcDbCircle
 10
118.4265339312977
 20
363.4158059806965
 30
0.0
 40
0.5000000000000142
100
AcDbArc
 50
90.0
 51
180.0
  0
ARC
  5
3DE5
330
A
100
AcDbEntity
  8
MODEL
  6
Continuous
100
AcDbCircle
 10
132.6265339312978
 20
204.4158059806965
 30
0.0
 40
0.4999999999999716
100
AcDbArc
 50
270.0
 51
0.0
  0
ARC
  5
3DE6
330
A
100
AcDbEntity
  8
MODEL
  6
Continuous
100
AcDbCircle
 10
118.4265339312977
 20
204.4158059806965
 30
0.0
 40
0.4999999999999929
100
AcDbArc
 50
180.0
 51
270.0
  0
LINE
  5
3DE7
330
A
100
AcDbEntity
  8
MODEL
  6
Continuous
100
AcDbLine
 10
118.4265339312977
 20
203.9158059806966
 30
0.0
 11
132.6265339312978
 21
203.9158059806966
 31
0.0
  0
LINE
  5
3DEA
330
A
100
AcDbEntity
  8
MODEL
  6
Continuous
100
AcDbLine
 10
319.5309339262316
 20
204.4158059806967
 30
0.0
 11
325.7309339262315
 21
204.4158059806967
 31
0.0
  0
LINE
  5
3DEB
330
A
100
AcDbEntity
  8
MODEL
  6
Continuous
100
AcDbLine
 10
325.7309339262315
 20
204.4158059806967
 30
0.0
 11
325.7309339262315
 21
203.9158059806968
 31
0.0
  0
LINE
  5
3DEC
330
A
100
AcDbEntity
  8
MODEL
  6
Continuous
100
AcDbLine
 10
325.7309339262315
 20
203.9158059806968
 30
0.0
 11
319.5309339262316
 21
203.9158059806968
 31
0.0
  0
LINE
  5
3DED
330
A
100
AcDbEntity
  8
MODEL
  6
Continuous
100
AcDbLine
 10
319.5309339262316
 20
203.9158059806968
 30
0.0
 11
319.5309339262316
 21
204.4158059806967
 31
0.0
  0
LINE
  5
3DEE
330
A
100
AcDbEntity
  8
MODEL
  6
Continuous
100
AcDbLine
 10
319.5309339262316
 20
363.9158059806967
 30
0.0
 11
325.7309339262315
 21
363.9158059806967
 31
0.0
  0
LINE
  5
3DEF
102
{ACAD_REACTORS
330
4062
102
}
330
A
100
AcDbEntity
  8
MODEL
  6
Continuous
100
AcDbLine
 10
325.7309339262315
 20
363.9158059806967
 30
0.0
 11
325.7309339262315
 21
363.4158059806967
 31
0.0
  0
LINE
  5
3DF0
330
A
100
AcDbEntity
  8
MODEL
  6
Continuous
100
AcDbLine
 10
325.7309339262315
 20
363.4158059806967
 30
0.0
 11
319.5309339262316
 21
363.4158059806967
 31
0.0
  0
LINE
  5
3DF1
102
{ACAD_REACTORS
330
4062
102
}
330
A
100
AcDbEntity
  8
MODEL
  6
Continuous
100
AcDbLine
 10
319.5309339262316
 20
363.4158059806967
 30
0.0
 11
319.5309339262316
 21
363.9158059806967
 31
0.0
  0
LINE
  5
3DF2
330
A
100
AcDbEntity
  8
MODEL
  6
Continuous
100
AcDbLine
 10
325.7309339262315
 20
363.4158059806967
 30
0.0
 11
325.7309339262315
 21
204.4158059806967
 31
0.0
  0
LINE
  5
3DF3
330
A
100
AcDbEntity
  8
MODEL
  6
Continuous
100
AcDbLine
 10
319.5309339262316
 20
363.4158059806967
 30
0.0
 11
319.5309339262316
 21
204.4158059806967
 31
0.0
  0
LINE
  5
3DF4
330
A
100
AcDbEntity
  8
MODEL
  6
Continuous
100
AcDbLine
 10
319.5309339262316
 20
233.5158059806968
 30
0.0
 11
265.5309339262316
 21
233.5158059806968
 31
0.0
  0
LINE
  5
3DF5
330
A
100
AcDbEntity
  8
MODEL
  6
Continuous
100
AcDbLine
 10
265.5309339262316
 20
234.0158059806967
 30
0.0
 11
319.5309339262316
 21
234.0158059806967
 31
0.0
  0
LINE
  5
3DF6
330
A
100
AcDbEntity
  8
MODEL
  6
Continuous
100
AcDbLine
 10
265.5309339262316
 20
233.5158059806968
 30
0.0
 11
265.5309339262316
 21
234.0158059806967
 31
0.0
  0
LINE
  5
3DF7
330
A
100
AcDbEntity
  8
MODEL
  6
Continuous
100
AcDbLine
 10
265.5309339262316
 20
204.5158059806967
 30
0.0
 11
319.5309339262316
 21
204.5158059806967
 31
0.0
  0
LINE
  5
3DF8
330
A
100
AcDbEntity
  8
MODEL
  6
Continuous
100
AcDbLine
 10
265.5309339262316
 20
233.5158059806968
 30
0.0
 11
265.5309339262316
 21
204.5158059806967
 31
0.0
  0
LINE
  5
3DF9
330
A
100
AcDbEntity
  8
MODEL
  6
Continuous
100
AcDbLine
 10
319.5309339262316
 20
204.0158059806968
 30
0.0
 11
265.5309339262316
 21
204.0158059806968
 31
0.0
  0
LINE
  5
3DFA
330
A
100
AcDbEntity
  8
MODEL
  6
Continuous
100
AcDbLine
 10
265.5309339262316
 20
204.0158059806968
 30
0.0
 11
265.5309339262316
 21
204.5158059806967
 31
0.0
  0
DIMENSION
  5
3FEB
102
{ACAD_XDICTIONARY
360
3FEC
102
}
330
A
100
AcDbEntity
  8
DIM
100
AcDbDimension
  2
*D34
 10
84.7752130618112
 20
203.9158059806965
 30
0.0
 11
79.2752130618112
 21
283.9158059806965
 31
0.0
 70
    32
 71
     5
 42
160.0
 73
     0
 74
     0
 75
     0
  3
tfrom線あり
100
AcDbAlignedDimension
 13
116.0198376435714
 23
363.9158059806965
 33
0.0
 14
116.0198376435723
 24
203.9158059806965
 34
0.0
 50
90.0
100
AcDbRotatedDimension
1001
ACAD
1000
DSTYLE
1002
{
1070
   144
1040
1.0
1002
}
  0
DIMENSION
  5
4009
102
{ACAD_XDICTIONARY
360
400A
102
}
330
A
100
AcDbEntity
  8
DIM
100
AcDbDimension
  2
*D36
 10
325.7309339262315
 20
183.5940937563279
 30
0.0
 11
295.6309339262315
 21
189.0940937563279
 31
0.0
 70
    32
 71
     5
 42
60.19999999999999
 73
     0
 74
     0
 75
     0
  3
tfrom線あり
100
AcDbAlignedDimension
 13
265.5309339262315
 23
202.4314237387387
 33
0.0
 14
325.7309339262315
 24
202.4314237387387
 34
0.0
100
AcDbRotatedDimension
1001
ACAD
1000
DSTYLE
1002
{
1070
   144
1040
1.0
1002
}
  0
DIMENSION
  5
4018
102
{ACAD_REACTORS
330
401A
102
}
102
{ACAD_XDICTIONARY
360
4019
102
}
330
A
100
AcDbEntity
  8
DIM
100
AcDbDimension
  2
*D37
 10
133.1265339312977
 20
183.5940937563277
 30
0.0
 11
125.5265339312977
 21
189.0940937563277
 31
0.0
 70
    32
 71
     5
 42
15.2
 73
     0
 74
     0
 75
     0
  3
tfrom線あり
100
AcDbAlignedDimension
 13
117.9265339312977
 23
204.8946296298497
 33
0.0
 14
133.1265339312977
 24
204.8946296298497
 34
0.0
100
AcDbRotatedDimension
1001
ACAD
1000
DSTYLE
1002
{
1070
   144
1040
1.0
1002
}
  0
LINE
  5
4028
102
{ACAD_REACTORS
330
4031
102
}
330
A
100
AcDbEntity
  8
MODEL
100
AcDbLine
 10
118.0265339312977
 20
486.8886004154875
 30
0.0
 11
133.0265339312977
 21
486.8886004154875
 31
0.0
  0
LINE
  5
4029
102
{ACAD_REACTORS
102
}
330
A
100
AcDbEntity
  8
MODEL
100
AcDbLine
 10
118.0265339312977
 20
426.6886004154875
 30
0.0
 11
133.0265339312977
 21
426.6886004154875
 31
0.0
  0
LINE
  5
402A
102
{ACAD_REACTORS
330
4031
102
}
330
A
100
AcDbEntity
  8
MODEL
100
AcDbLine
 10
118.0265339312977
 20
432.8886004154875
 30
0.0
 11
133.0265339312977
 21
432.8886004154875
 31
0.0
  0
LINE
  5
402B
330
A
100
AcDbEntity
  8
MODEL
100
AcDbLine
 10
118.0265339312977
 20
426.6886004154875
 30
0.0
 11
118.0265339312977
 21
486.8886004154875
 31
0.0
  0
LINE
  5
402D
330
A
100
AcDbEntity
  8
MODEL
100
AcDbLine
 10
133.0265339312977
 20
486.8886004154875
 30
0.0
 11
133.0265339312977
 21
426.6886004154875
 31
0.0
  0
DIMENSION
  5
402F
102
{ACAD_REACTORS
330
4031
102
}
102
{ACAD_XDICTIONARY
360
4030
102
}
330
A
100
AcDbEntity
  8
DIM
100
AcDbDimension
  2
*D38
 10
150.0103205681883
 20
432.8886004154875
 30
0.0
 11
144.5103205681883
 21
459.8886004154875
 31
0.0
 70
    32
 71
     5
 42
54.0
 73
     0
 74
     0
 75
     0
  3
tfrom線あり
100
AcDbAlignedDimension
 13
133.0265339312977
 23
486.8886004154875
 33
0.0
 14
133.0265339312977
 24
432.8886004154875
 34
0.0
 50
90.0
100
AcDbRotatedDimension
1001
ACAD
1000
DSTYLE
1002
{
1070
   144
1040
1.0
1002
}
  0
MTEXT
  5
4051
330
A
100
AcDbEntity
  8
TEMPLATE
390
1D
100
AcDbMText
 10
265.840428909598
 20
79.67174229878565
 30
0.0
 40
4.8865234375
 41
0.0
 46
5.3556296875
 71
     1
 72
     1
  1
{FRF74-2507-025 マットブラック}
  7
ＭＳ ゴシック
 73
     1
 44
0.7828267384257843
1001
ACAD
1000
ACAD_MTEXT_DEFINED_HEIGHT_BEGIN
1070
    46
1040
5.3556296875
1000
ACAD_MTEXT_DEFINED_HEIGHT_END
  0
MTEXT
  5
4052
330
A
100
AcDbEntity
  8
TEMPLATE
390
1D
100
AcDbMText
 10
265.840428909598
 20
87.26277717878567
 30
0.0
 40
4.8865234375
 41
0.0
 46
4.9598212890625
 71
     1
 72
     1
  1
{FRF74-2507-001 クローム}
  7
ＭＳ ゴシック
 73
     1
 44
0.7828267384257843
1001
ACAD
1000
ACAD_MTEXT_DEFINED_HEIGHT_BEGIN
1070
    46
1040
4.9598212890625
1000
ACAD_MTEXT_DEFINED_HEIGHT_END
  0
DIMENSION
  5
4060
102
{ACAD_REACTORS
330
4062
102
}
102
{ACAD_XDICTIONARY
360
4061
102
}
330
A
100
AcDbEntity
  8
DIM
100
AcDbDimension
  2
*D40
 10
325.7309339262315
 20
376.8907233221221
 30
0.0
 11
322.6309339262316
 21
376.8907233221221
 31
0.0
 70
   160
 71
     5
 42
6.199999999999875
 73
     0
 74
     0
 75
     0
  3
tfrom線あり
100
AcDbAlignedDimension
 13
319.5309339262316
 23
363.6658059806967
 33
0.0
 14
325.7309339262315
 24
363.4158059806967
 34
0.0
100
AcDbRotatedDimension
1001
ACAD
1000
DSTYLE
1002
{
1070
   144
1040
1.0
1002
}
  0
DIMENSION
  5
40EA
330
A
100
AcDbEntity
  8
DIM
100
AcDbDimension
  2
*D44
 10
204.2478271571291
 20
204.0158059806967
 30
0.0
 11
204.2478271571291
 21
219.0158059806967
 31
0.0
 70
   160
 71
     1
 42
30.00000000000003
 73
     0
 74
     0
 75
     0
  3
tfrom線あり
100
AcDbAlignedDimension
 13
265.5309339262316
 23
234.0158059806967
 33
0.0
 14
265.5309339262316
 24
204.0158059806967
 34
0.0
 50
90.0
100
AcDbRotatedDimension
1001
ACAD
1000
DSTYLE
1002
{
1070
   271
1070
     8
1002
}
  0
DIMENSION
  5
40EB
330
A
100
AcDbEntity
  8
DIM
100
AcDbDimension
  2
*D45
 10
216.0558727819899
 20
226.0158059806967
 30
0.0
 11
216.0558727819899
 21
219.0158059806967
 31
0.0
 70
   160
 71
     5
 42
13.99999999999997
 73
     0
 74
     0
 75
     0
  3
tfrom線あり
100
AcDbAlignedDimension
 13
226.8662682226781
 23
212.0158059806967
 33
0.0
 14
226.8662682226781
 24
226.0158059806967
 34
0.0
 50
90.0
100
AcDbRotatedDimension
1001
ACAD
1000
DSTYLE
1002
{
1070
   144
1040
1.0
1002
}
  0
LINE
  5
40EC
102
{ACAD_REACTORS
330
4132
102
}
330
A
100
AcDbEntity
  8
DIM
100
AcDbLine
 10
263.855615668696
 20
224.1080154859989
 30
0.0
 11
262.8203394882859
 21
227.9717187911552
 31
0.0
  0
LINE
  5
40ED
102
{ACAD_REACTORS
330
4132
102
}
330
A
100
AcDbEntity
  8
DIM
100
AcDbLine
 10
261.855615668696
 20
224.1080154859989
 30
0.0
 11
260.8203394882859
 21
227.9717187911552
 31
0.0
  0
LINE
  5
40EE
102
{ACAD_REACTORS
330
4132
102
}
330
A
100
AcDbEntity
  8
DIM
100
AcDbLine
 10
259.855615668696
 20
224.1080154859989
 30
0.0
 11
258.8203394882859
 21
227.9717187911552
 31
0.0
  0
LINE
  5
40EF
102
{ACAD_REACTORS
330
4132
102
}
330
A
100
AcDbEntity
  8
DIM
100
AcDbLine
 10
257.855615668696
 20
224.1080154859989
 30
0.0
 11
256.8203394882859
 21
227.9717187911552
 31
0.0
  0
LINE
  5
40F0
102
{ACAD_REACTORS
330
4132
102
}
330
A
100
AcDbEntity
  8
DIM
100
AcDbLine
 10
255.855615668696
 20
224.1080154859989
 30
0.0
 11
254.8203394882859
 21
227.9717187911552
 31
0.0
  0
LINE
  5
40F1
102
{ACAD_REACTORS
330
4132
102
}
330
A
100
AcDbEntity
  8
DIM
100
AcDbLine
 10
253.855615668696
 20
224.1080154859989
 30
0.0
 11
252.8203394882859
 21
227.9717187911552
 31
0.0
  0
LINE
  5
40F2
102
{ACAD_REACTORS
330
4132
102
}
330
A
100
AcDbEntity
  8
DIM
100
AcDbLine
 10
251.855615668696
 20
224.1080154859989
 30
0.0
 11
250.8203394882859
 21
227.9717187911552
 31
0.0
  0
LINE
  5
40F3
102
{ACAD_REACTORS
330
4132
102
}
330
A
100
AcDbEntity
  8
DIM
100
AcDbLine
 10
249.855615668696
 20
224.1080154859989
 30
0.0
 11
248.8203394882859
 21
227.9717187911552
 31
0.0
  0
LINE
  5
40F4
102
{ACAD_REACTORS
330
4132
102
}
330
A
100
AcDbEntity
  8
DIM
100
AcDbLine
 10
247.855615668696
 20
224.1080154859989
 30
0.0
 11
246.8203394882859
 21
227.9717187911552
 31
0.0
  0
LINE
  5
40F5
102
{ACAD_REACTORS
330
4132
102
}
330
A
100
AcDbEntity
  8
DIM
100
AcDbLine
 10
245.855615668696
 20
224.1080154859989
 30
0.0
 11
244.8203394882859
 21
227.9717187911552
 31
0.0
  0
LINE
  5
40F6
102
{ACAD_REACTORS
330
4132
102
}
330
A
100
AcDbEntity
  8
DIM
100
AcDbLine
 10
243.855615668696
 20
224.1080154859989
 30
0.0
 11
242.8203394882859
 21
227.9717187911552
 31
0.0
  0
LINE
  5
40F7
102
{ACAD_REACTORS
330
4132
102
}
330
A
100
AcDbEntity
  8
DIM
100
AcDbLine
 10
241.855615668696
 20
224.1080154859989
 30
0.0
 11
240.8203394882859
 21
227.9717187911552
 31
0.0
  0
LINE
  5
40F8
102
{ACAD_REACTORS
330
4132
102
}
330
A
100
AcDbEntity
  8
DIM
100
AcDbLine
 10
239.855615668696
 20
224.1080154859989
 30
0.0
 11
238.8203394882859
 21
227.9717187911552
 31
0.0
  0
LINE
  5
40F9
102
{ACAD_REACTORS
330
4132
102
}
330
A
100
AcDbEntity
  8
DIM
100
AcDbLine
 10
237.855615668696
 20
224.1080154859989
 30
0.0
 11
236.8203394882859
 21
227.9717187911552
 31
0.0
  0
LINE
  5
40FA
102
{ACAD_REACTORS
330
4132
102
}
330
A
100
AcDbEntity
  8
DIM
100
AcDbLine
 10
235.855615668696
 20
224.1080154859989
 30
0.0
 11
234.8203394882859
 21
227.9717187911552
 31
0.0
  0
LINE
  5
40FB
102
{ACAD_REACTORS
330
4132
102
}
330
A
100
AcDbEntity
  8
DIM
100
AcDbLine
 10
233.855615668696
 20
224.1080154859989
 30
0.0
 11
232.8203394882859
 21
227.9717187911552
 31
0.0
  0
LINE
  5
40FC
102
{ACAD_REACTORS
330
4132
102
}
330
A
100
AcDbEntity
  8
DIM
100
AcDbLine
 10
231.855615668696
 20
224.2083331676985
 30
0.0
 11
230.9267682849718
 21
227.6748387962346
 31
0.0
  0
LINE
  5
40FD
102
{ACAD_REACTORS
330
4132
102
}
330
A
100
AcDbEntity
  8
DIM
100
AcDbLine
 10
229.5967966235935
 20
225.073941312288
 30
0.0
 11
229.1323729317314
 21
226.807194126556
 31
0.0
  0
LINE
  5
40FE
102
{ACAD_REACTORS
330
4132
102
}
330
A
100
AcDbEntity
  8
DIM
100
AcDbLine
 10
230.587630707959
 20
224.6489757072866
 30
0.0
 11
226.8662682226781
 21
226.0158059806967
 31
0.0
  0
LINE
  5
40FF
102
{ACAD_REACTORS
330
4132
102
}
330
A
100
AcDbEntity
  8
DIM
100
AcDbLine
 10
230.5876307079585
 20
227.382636254107
 30
0.0
 11
226.8662682226781
 21
226.0158059806967
 31
0.0
  0
LINE
  5
4100
102
{ACAD_REACTORS
330
4132
102
}
330
A
100
AcDbEntity
  8
DIM
100
AcDbLine
 10
265.5309339262316
 20
227.3826362541088
 30
0.0
 11
230.5876307079585
 21
227.382636254107
 31
0.0
  0
LINE
  5
4101
102
{ACAD_REACTORS
330
4132
102
}
330
A
100
AcDbEntity
  8
DIM
100
AcDbLine
 10
265.5309339262316
 20
224.6489757072866
 30
0.0
 11
230.587630707959
 21
224.6489757072866
 31
0.0
  0
LINE
  5
4102
102
{ACAD_REACTORS
330
4132
102
}
330
A
100
AcDbEntity
  8
DIM
100
AcDbLine
 10
265.5309339262316
 20
225.319744245166
 30
0.0
 11
264.8203394882859
 21
227.9717187911552
 31
0.0
  0
LINE
  5
4103
102
{ACAD_REACTORS
330
4132
102
}
330
A
100
AcDbEntity
  8
DIM
100
AcDbLine
 10
263.855615668696
 20
210.1080154859989
 30
0.0
 11
262.8203394882859
 21
213.9717187911552
 31
0.0
  0
LINE
  5
4104
102
{ACAD_REACTORS
330
4132
102
}
330
A
100
AcDbEntity
  8
DIM
100
AcDbLine
 10
261.855615668696
 20
210.1080154859989
 30
0.0
 11
260.8203394882859
 21
213.9717187911552
 31
0.0
  0
LINE
  5
4105
102
{ACAD_REACTORS
330
4132
102
}
330
A
100
AcDbEntity
  8
DIM
100
AcDbLine
 10
259.855615668696
 20
210.1080154859989
 30
0.0
 11
258.8203394882859
 21
213.9717187911552
 31
0.0
  0
LINE
  5
4106
102
{ACAD_REACTORS
330
4132
102
}
330
A
100
AcDbEntity
  8
DIM
100
AcDbLine
 10
257.855615668696
 20
210.1080154859989
 30
0.0
 11
256.8203394882859
 21
213.9717187911552
 31
0.0
  0
LINE
  5
4107
102
{ACAD_REACTORS
330
4132
102
}
330
A
100
AcDbEntity
  8
DIM
100
AcDbLine
 10
255.855615668696
 20
210.1080154859989
 30
0.0
 11
254.8203394882859
 21
213.9717187911552
 31
0.0
  0
LINE
  5
4108
102
{ACAD_REACTORS
330
4132
102
}
330
A
100
AcDbEntity
  8
DIM
100
AcDbLine
 10
253.855615668696
 20
210.1080154859989
 30
0.0
 11
252.8203394882859
 21
213.9717187911552
 31
0.0
  0
LINE
  5
4109
102
{ACAD_REACTORS
330
4132
102
}
330
A
100
AcDbEntity
  8
DIM
100
AcDbLine
 10
251.855615668696
 20
210.1080154859989
 30
0.0
 11
250.8203394882859
 21
213.9717187911552
 31
0.0
  0
LINE
  5
410A
102
{ACAD_REACTORS
330
4132
102
}
330
A
100
AcDbEntity
  8
DIM
100
AcDbLine
 10
249.855615668696
 20
210.1080154859989
 30
0.0
 11
248.8203394882859
 21
213.9717187911552
 31
0.0
  0
LINE
  5
410B
102
{ACAD_REACTORS
330
4132
102
}
330
A
100
AcDbEntity
  8
DIM
100
AcDbLine
 10
247.855615668696
 20
210.1080154859989
 30
0.0
 11
246.8203394882859
 21
213.9717187911552
 31
0.0
  0
LINE
  5
410C
102
{ACAD_REACTORS
330
4132
102
}
330
A
100
AcDbEntity
  8
DIM
100
AcDbLine
 10
245.855615668696
 20
210.1080154859989
 30
0.0
 11
244.8203394882859
 21
213.9717187911552
 31
0.0
  0
LINE
  5
410D
102
{ACAD_REACTORS
330
4132
102
}
330
A
100
AcDbEntity
  8
DIM
100
AcDbLine
 10
243.855615668696
 20
210.1080154859989
 30
0.0
 11
242.8203394882859
 21
213.9717187911552
 31
0.0
  0
LINE
  5
410E
102
{ACAD_REACTORS
330
4132
102
}
330
A
100
AcDbEntity
  8
DIM
100
AcDbLine
 10
241.855615668696
 20
210.1080154859989
 30
0.0
 11
240.8203394882859
 21
213.9717187911552
 31
0.0
  0
LINE
  5
410F
102
{ACAD_REACTORS
330
4132
102
}
330
A
100
AcDbEntity
  8
DIM
100
AcDbLine
 10
239.855615668696
 20
210.1080154859989
 30
0.0
 11
238.8203394882859
 21
213.9717187911552
 31
0.0
  0
LINE
  5
4110
102
{ACAD_REACTORS
330
4132
102
}
330
A
100
AcDbEntity
  8
DIM
100
AcDbLine
 10
237.855615668696
 20
210.1080154859989
 30
0.0
 11
236.8203394882859
 21
213.9717187911552
 31
0.0
  0
LINE
  5
4111
102
{ACAD_REACTORS
330
4132
102
}
330
A
100
AcDbEntity
  8
DIM
100
AcDbLine
 10
235.855615668696
 20
210.1080154859989
 30
0.0
 11
234.8203394882859
 21
213.9717187911552
 31
0.0
  0
LINE
  5
4112
102
{ACAD_REACTORS
330
4132
102
}
330
A
100
AcDbEntity
  8
DIM
100
AcDbLine
 10
233.855615668696
 20
210.1080154859989
 30
0.0
 11
232.8203394882859
 21
213.9717187911552
 31
0.0
  0
LINE
  5
4113
102
{ACAD_REACTORS
330
4132
102
}
330
A
100
AcDbEntity
  8
DIM
100
AcDbLine
 10
231.855615668696
 20
210.2083331676986
 30
0.0
 11
230.9267682849718
 21
213.6748387962346
 31
0.0
  0
LINE
  5
4114
102
{ACAD_REACTORS
330
4132
102
}
330
A
100
AcDbEntity
  8
DIM
100
AcDbLine
 10
229.5967966235935
 20
211.073941312288
 30
0.0
 11
229.1323729317314
 21
212.8071941265561
 31
0.0
  0
LINE
  5
4115
102
{ACAD_REACTORS
330
4132
102
}
330
A
100
AcDbEntity
  8
DIM
100
AcDbLine
 10
230.587630707959
 20
210.6489757072867
 30
0.0
 11
226.8662682226781
 21
212.0158059806967
 31
0.0
  0
LINE
  5
4116
102
{ACAD_REACTORS
330
4132
102
}
330
A
100
AcDbEntity
  8
DIM
100
AcDbLine
 10
230.5876307079585
 20
213.382636254107
 30
0.0
 11
226.8662682226781
 21
212.0158059806967
 31
0.0
  0
LINE
  5
4117
102
{ACAD_REACTORS
330
4132
102
}
330
A
100
AcDbEntity
  8
DIM
100
AcDbLine
 10
265.5309339262316
 20
213.3826362541089
 30
0.0
 11
230.5876307079585
 21
213.382636254107
 31
0.0
  0
LINE
  5
4118
102
{ACAD_REACTORS
330
4132
102
}
330
A
100
AcDbEntity
  8
DIM
100
AcDbLine
 10
265.5309339262316
 20
210.6489757072866
 30
0.0
 11
230.587630707959
 21
210.6489757072867
 31
0.0
  0
LINE
  5
4119
102
{ACAD_REACTORS
330
4132
102
}
330
A
100
AcDbEntity
  8
DIM
100
AcDbLine
 10
265.5309339262316
 20
211.319744245166
 30
0.0
 11
264.8203394882859
 21
213.9717187911552
 31
0.0
  0
LINE
  5
417B
330
A
100
AcDbEntity
  8
DIM
100
AcDbLine
 10
123.6187434365999
 20
488.5639186730231
 30
0.0
 11
127.4824467417561
 21
489.5991948534332
 31
0.0
  0
LINE
  5
417C
330
A
100
AcDbEntity
  8
DIM
100
AcDbLine
 10
123.6187434365999
 20
490.5639186730231
 30
0.0
 11
127.4824467417561
 21
491.5991948534332
 31
0.0
  0
LINE
  5
417D
330
A
100
AcDbEntity
  8
DIM
100
AcDbLine
 10
123.6187434365999
 20
492.5639186730231
 30
0.0
 11
127.4824467417561
 21
493.5991948534332
 31
0.0
  0
LINE
  5
417E
330
A
100
AcDbEntity
  8
DIM
100
AcDbLine
 10
123.6187434365999
 20
494.5639186730231
 30
0.0
 11
127.4824467417561
 21
495.5991948534332
 31
0.0
  0
LINE
  5
417F
330
A
100
AcDbEntity
  8
DIM
100
AcDbLine
 10
123.6187434365999
 20
496.5639186730231
 30
0.0
 11
127.4824467417561
 21
497.5991948534332
 31
0.0
  0
LINE
  5
4180
330
A
100
AcDbEntity
  8
DIM
100
AcDbLine
 10
123.6187434365999
 20
498.5639186730231
 30
0.0
 11
127.4824467417561
 21
499.5991948534332
 31
0.0
  0
LINE
  5
4181
330
A
100
AcDbEntity
  8
DIM
100
AcDbLine
 10
123.6187434365999
 20
500.5639186730231
 30
0.0
 11
127.4824467417561
 21
501.5991948534332
 31
0.0
  0
LINE
  5
4182
330
A
100
AcDbEntity
  8
DIM
100
AcDbLine
 10
123.6187434365999
 20
502.5639186730231
 30
0.0
 11
127.4824467417561
 21
503.5991948534332
 31
0.0
  0
LINE
  5
4183
330
A
100
AcDbEntity
  8
DIM
100
AcDbLine
 10
123.6187434365999
 20
504.5639186730231
 30
0.0
 11
127.4824467417561
 21
505.5991948534332
 31
0.0
  0
LINE
  5
4184
330
A
100
AcDbEntity
  8
DIM
100
AcDbLine
 10
123.6187434365999
 20
506.5639186730231
 30
0.0
 11
127.4824467417561
 21
507.5991948534332
 31
0.0
  0
LINE
  5
4185
330
A
100
AcDbEntity
  8
DIM
100
AcDbLine
 10
123.6187434365999
 20
508.5639186730231
 30
0.0
 11
127.4824467417561
 21
509.5991948534332
 31
0.0
  0
LINE
  5
4186
330
A
100
AcDbEntity
  8
DIM
100
AcDbLine
 10
123.6187434365999
 20
510.5639186730231
 30
0.0
 11
127.4824467417561
 21
511.5991948534332
 31
0.0
  0
LINE
  5
4187
330
A
100
AcDbEntity
  8
DIM
100
AcDbLine
 10
123.6187434365999
 20
512.5639186730232
 30
0.0
 11
127.4824467417561
 21
513.5991948534331
 31
0.0
  0
LINE
  5
4188
330
A
100
AcDbEntity
  8
DIM
100
AcDbLine
 10
123.6187434365999
 20
514.5639186730232
 30
0.0
 11
127.4824467417561
 21
515.5991948534331
 31
0.0
  0
LINE
  5
4189
330
A
100
AcDbEntity
  8
DIM
100
AcDbLine
 10
123.6187434365999
 20
516.5639186730232
 30
0.0
 11
127.4824467417561
 21
517.5991948534331
 31
0.0
  0
LINE
  5
418A
330
A
100
AcDbEntity
  8
DIM
100
AcDbLine
 10
123.6187434365999
 20
518.5639186730232
 30
0.0
 11
127.4824467417561
 21
519.5991948534331
 31
0.0
  0
LINE
  5
418B
330
A
100
AcDbEntity
  8
DIM
100
AcDbLine
 10
123.7190611182995
 20
520.5639186730232
 30
0.0
 11
127.1855667468356
 21
521.4927660567473
 31
0.0
  0
LINE
  5
418C
330
A
100
AcDbEntity
  8
DIM
100
AcDbLine
 10
124.584669262889
 20
522.8227377181256
 30
0.0
 11
126.317922077157
 21
523.2871614099877
 31
0.0
  0
LINE
  5
418D
330
A
100
AcDbEntity
  8
DIM
100
AcDbLine
 10
124.1597036578877
 20
521.83190363376
 30
0.0
 11
125.5265339312977
 21
525.5532661190409
 31
0.0
  0
LINE
  5
418E
330
A
100
AcDbEntity
  8
DIM
100
AcDbLine
 10
126.893364204708
 20
521.8319036337607
 30
0.0
 11
125.5265339312977
 21
525.5532661190409
 31
0.0
  0
LINE
  5
418F
330
A
100
AcDbEntity
  8
DIM
100
AcDbLine
 10
126.8933642047098
 20
486.8886004154875
 30
0.0
 11
126.893364204708
 21
521.8319036337607
 31
0.0
  0
LINE
  5
4190
330
A
100
AcDbEntity
  8
DIM
100
AcDbLine
 10
124.1597036578876
 20
486.8886004154875
 30
0.0
 11
124.1597036578877
 21
521.83190363376
 31
0.0
  0
LINE
  5
4191
330
A
100
AcDbEntity
  8
DIM
100
AcDbLine
 10
124.830472195767
 20
486.8886004154875
 30
0.0
 11
127.4824467417561
 21
487.5991948534332
 31
0.0
  0
DIMENSION
  5
41DB
102
{ACAD_XDICTIONARY
360
41DC
102
}
330
A
100
AcDbEntity
  8
DIM
100
AcDbDimension
  2
*D49
 10
265.5309339262316
 20
252.646380681547
 30
0.0
 11
246.1986010744548
 21
258.146380681547
 31
0.0
 70
    32
  1
50
 71
     5
 42
38.66466570355351
 73
     0
 74
     0
 75
     0
  3
tfrom線あり
100
AcDbAlignedDimension
 13
226.8662682226781
 23
226.5158059806957
 33
0.0
 14
265.5309339262316
 24
234.0158059806967
 34
0.0
100
AcDbRotatedDimension
1001
ACAD
1000
DSTYLE
1002
{
1070
   144
1040
1.0
1002
}
  0
MTEXT
  5
422F
330
A
100
AcDbEntity
  8
TEMPLATE
390
1D
100
AcDbMText
 10
26.71668105599989
 20
45.3276705572501
 30
0.0
 40
4.8865234375
 41
0.0
 46
5.4582466796875
 71
     1
 72
     1
  1
{ナベタッピング4x65、プラグ^Z^Z^Z^Z^Z^Z^Z^Z^Z^Z付属}
  7
ＭＳ ゴシック
 73
     1
 44
0.7828267384257843
1001
ACAD
1000
ACAD_MTEXT_DEFINED_HEIGHT_BEGIN
1070
    46
1040
5.4582466796875
1000
ACAD_MTEXT_DEFINED_HEIGHT_END
  0
VIEWPORT
  5
349
330
B
100
AcDbEntity
 67
     1
  8
0
100
AcDbViewport
 10
202.5
 20
128.5
 30
0.0
 40
486.0
 41
308.4
 68
     1
 69
     1
 12
202.5
 22
128.5
 13
0.0
 23
0.0
 14
0.5
 24
0.5
 15
0.0
 25
0.0
 16
0.0
 26
0.0
 36
1.0
 17
0.0
 27
0.0
 37
0.0
 42
50.0
 43
0.0
 44
0.0
 45
308.4
 50
0.0
 51
0.0
 72
   100
 90
   557152
  1

281
     0
 71
     1
 74
     0
110
0.0
120
0.0
130
0.0
111
1.0
121
0.0
131
0.0
112
0.0
122
1.0
132
0.0
 79
     0
146
0.0
170
     0
 61
     5
348
26C
292
     1
282
     1
141
0.0
142
0.0
 63
   256
  0
VIEWPORT
  5
34A
330
B
100
AcDbEntity
 67
     1
  8
0
100
AcDbViewport
 10
202.5
 20
128.5
 30
0.0
 40
324.0
 41
205.6
 68
     2
 69
     2
 12
986.6781359294573
 22
1427.077061889956
 13
0.0
 23
0.0
 14
0.5
 24
0.5
 15
0.0
 25
0.0
 16
0.0
 26
0.0
 36
1.0
 17
0.0
 27
0.0
 37
0.0
 42
50.0
 43
0.0
 44
0.0
 45
2890.021615685494
 50
0.0
 51
0.0
 72
   100
 90
   557152
  1

281
     0
 71
     1
 74
     0
110
0.0
120
0.0
130
0.0
111
1.0
121
0.0
131
0.0
112
0.0
122
1.0
132
0.0
 79
     0
146
0.0
170
     0
 61
     5
348
26C
292
     1
282
     1
141
0.0
142
0.0
 63
   256
  0
ENDSEC
  0
SECTION
  2
OBJECTS
  0
DICTIONARY
  5
19
330
0
100
AcDbDictionary
281
     1
  3
ACAD_COLOR
350
674
  3
ACAD_DETAILVIEWSTYLE
350
BBF
  3
ACAD_FIELDLIST
350
3BE4
  3
ACAD_GROUP
350
1A
  3
ACAD_IMAGE_VARS
350
27B
  3
ACAD_LAYOUT
350
1E
  3
ACAD_MATERIAL
350
263
  3
ACAD_MLEADERSTYLE
350
336
  3
ACAD_MLINESTYLE
350
1B
  3
ACAD_PLOTSETTINGS
350
22
  3
ACAD_PLOTSTYLENAME
350
1F
  3
ACAD_SCALELIST
350
241
  3
ACAD_SECTIONVIEWSTYLE
350
BC0
  3
ACAD_TABLESTYLE
350
278
  3
ACAD_VISUALSTYLE
350
267
  3
ACDB_RECOMPOSE_DATA
350
423B
  3
AcDbVariableDictionary
350
330
  3
APPDATA
350
27A
  3
DimOffsetDictionary
350
E38
  0
SUN
  5
904
330
15
100
AcDbSun
 90
        1
290
     0
 63
     7
421
 16777215
 40
1.0
291
     1
 91
  2455826
 92
 54000000
292
     0
 70
     2
 71
   256
280
     1
  0
DICTIONARY
  5
2E1
330
2
100
AcDbDictionary
280
     1
281
     1
  3
ACAD_LAYERSTATES
360
2E2
  3
ACLYDICTIONARY
360
DDE
  0
DICTIONARY
  5
3D3D
330
A
100
AcDbDictionary
280
     1
281
     1
  3
ACAD_SORTENTS
360
3D3E
  0
DICTIONARY
  5
3CB7
330
3CB5
100
AcDbDictionary
280
     1
281
     1
  3
ACAD_FIELD
360
41F5
  0
DICTIONARY
  5
3FEC
330
3FEB
100
AcDbDictionary
280
     1
281
     1
  0
DICTIONARY
  5
400A
330
4009
100
AcDbDictionary
280
     1
281
     1
  0
DICTIONARY
  5
4019
330
4018
100
AcDbDictionary
280
     1
281
     1
  3
ACAD_DIMASSOC
360
401A
  0
DICTIONARY
  5
4030
330
402F
100
AcDbDictionary
280
     1
281
     1
  3
ACAD_DIMASSOC
360
4031
  0
DICTIONARY
  5
4061
330
4060
100
AcDbDictionary
280
     1
281
     1
  3
ACAD_DIMASSOC
360
4062
  0
DICTIONARY
  5
41DC
330
41DB
100
AcDbDictionary
280
     1
281
     1
  3
*A1
360
41DE
  3
*A2
360
41DF
  0
DICTIONARY
  5
674
102
{ACAD_REACTORS
330
19
102
}
330
19
100
AcDbDictionary
281
     1
  0
DICTIONARY
  5
BBF
102
{ACAD_REACTORS
330
19
102
}
330
19
100
AcDbDictionary
281
     1
  0
FIELDLIST
  5
3BE4
102
{ACAD_REACTORS
330
19
102
}
330
19
100
AcDbIdSet
 90
        2
330
3CB9
330
3CB6
100
AcDbFieldList
  0
DICTIONARY
  5
1A
102
{ACAD_REACTORS
330
19
102
}
330
19
100
AcDbDictionary
281
     1
  3
*A1
350
3C75
  3
*A3
350
4132
  0
RASTERVARIABLES
  5
27B
102
{ACAD_REACTORS
330
19
102
}
330
19
100
AcDbRasterVariables
 90
        0
 70
     1
 71
     1
 72
     1
  0
DICTIONARY
  5
1E
102
{ACAD_REACTORS
330
19
102
}
330
19
100
AcDbDictionary
281
     1
  3
Layout1
350
21
  3
Model
350
20
  0
DICTIONARY
  5
263
102
{ACAD_REACTORS
330
19
102
}
330
19
100
AcDbDictionary
281
     1
  3
ByBlock
350
265
  3
ByLayer
350
264
  3
Global
350
266
  0
DICTIONARY
  5
336
102
{ACAD_REACTORS
330
19
102
}
330
19
100
AcDbDictionary
281
     1
  3
Standard
350
D59
  0
DICTIONARY
  5
1B
102
{ACAD_REACTORS
330
19
102
}
330
19
100
AcDbDictionary
281
     1
  3
Standard
350
1C
  0
DICTIONARY
  5
22
102
{ACAD_REACTORS
330
19
102
}
330
19
100
AcDbDictionary
281
     1
  0
ACDBDICTIONARYWDFLT
  5
1F
102
{ACAD_REACTORS
330
19
102
}
330
19
100
AcDbDictionary
281
     1
  3
Normal
350
1D
100
AcDbDictionaryWithDefault
340
1D
  0
DICTIONARY
  5
241
102
{ACAD_REACTORS
330
19
102
}
330
19
100
AcDbDictionary
281
     1
  3
A0
350
242
  3
A1
350
243
  3
A2
350
244
  3
A3
350
245
  3
A4
350
246
  3
A5
350
247
  3
A6
350
248
  3
A7
350
249
  3
A8
350
24A
  3
A9
350
24B
  3
B0
350
24C
  3
B1
350
24D
  3
B2
350
24E
  3
B3
350
24F
  3
B4
350
250
  3
B5
350
251
  3
B6
350
252
  3
B7
350
253
  3
B8
350
254
  3
B9
350
255
  3
C0
350
256
  3
C1
350
257
  3
C2
350
258
  3
C3
350
259
  3
C4
350
25A
  3
C5
350
25B
  3
C6
350
25C
  3
C7
350
25D
  3
C8
350
25E
  3
C9
350
25F
  3
D0
350
260
  3
D1
350
261
  3
D2
350
262
  0
DICTIONARY
  5
BC0
102
{ACAD_REACTORS
330
19
102
}
330
19
100
AcDbDictionary
281
     1
  0
DICTIONARY
  5
278
102
{ACAD_REACTORS
330
19
102
}
330
19
100
AcDbDictionary
281
     1
  3
Standard
350
279
  0
DICTIONARY
  5
267
102
{ACAD_REACTORS
330
19
102
}
330
19
100
AcDbDictionary
281
     1
  3
2dWireframe
350
26C
  3
3D Hidden
350
26E
  3
3dWireframe
350
26D
  3
Basic
350
26F
  3
Brighten
350
273
  3
ColorChange
350
277
  3
Conceptual
350
271
  3
Dim
350
272
  3
EdgeColorOff
350
8FE
  3
Facepattern
350
276
  3
Flat
350
268
  3
FlatWithEdges
350
269
  3
Gouraud
350
26A
  3
GouraudWithEdges
350
26B
  3
Hidden
350
8FB
  3
JitterOff
350
8FC
  3
Linepattern
350
275
  3
OverhangOff
350
8FD
  3
Realistic
350
270
  3
Shaded
350
903
  3
Shaded with edges
350
902
  3
Shades of Gray
350
8FF
  3
Sketchy
350
900
  3
Thicken
350
274
  3
Wireframe
350
8FA
  3
X-Ray
350
901
  0
XRECORD
  5
423B
102
{ACAD_REACTORS
330
19
102
}
330
19
100
AcDbXrecord
280
     1
 90
        1
330
279
  0
DICTIONARY
  5
330
102
{ACAD_REACTORS
330
19
102
}
330
19
100
AcDbDictionary
281
     1
  3
CANNOSCALE
350
331
  3
CMLEADERSTYLE
350
D5E
  3
CTABLESTYLE
350
335
  3
HPTRANSPARENCY
350
D52
  3
XCLIPFRAME
350
896
  0
DICTIONARY
  5
27A
102
{ACAD_REACTORS
330
19
102
}
330
19
100
AcDbDictionary
281
     1
  0
DICTIONARY
  5
E38
102
{ACAD_REACTORS
330
19
102
}
330
19
100
AcDbDictionary
281
     1
  3
DIMRAILANGLE
350
246C
  3
DIMRAILFIRSTOFFSET
350
246A
  3
DIMRAILOFFSET
350
246B
  3
DIMRAILSENABLED
350
246D
  0
DICTIONARY
  5
2E2
102
{ACAD_REACTORS
330
2E1
102
}
330
2E1
100
AcDbDictionary
281
     1
  0
DICTIONARY
  5
DDE
102
{ACAD_REACTORS
330
2E1
102
}
330
2E1
100
AcDbDictionary
281
     1
1001
ACAD
1000
<All
  0
SORTENTSTABLE
  5
3D3E
102
{ACAD_REACTORS
330
3D3D
102
}
330
3D3D
100
AcDbSortentsTable
330
A
331
0
  5
3C1E
331
3C64
  5
3C1F
331
3C65
  5
3C63
331
3C70
  5
3C64
331
3C71
  5
3C65
331
3C72
  5
3C70
331
3C73
  5
3C71
331
3C74
  5
3C72
331
3CB5
  5
3C92
  0
DICTIONARY
  5
41F5
102
{ACAD_REACTORS
330
3CB7
102
}
330
3CB7
100
AcDbDictionary
280
     1
281
     1
  3
TEXT
360
3CB6
  0
DIMASSOC
  5
401A
102
{ACAD_REACTORS
330
4019
102
}
330
4019
100
AcDbDimAssoc
330
4018
 90
        3
 70
     0
 71
     1
  1
AcDbOsnapPointRef
 72
    10
331
3DE2
 73
     0
 91
        0
 40
0.9969885305084706
 10
0.0
 20
0.0
 30
0.0
 75
     0
  1
AcDbOsnapPointRef
 72
     8
331
3DE1
 73
     0
 91
        0
 40
0.9969885305084706
 10
0.0
 20
0.0
 30
0.0
 75
     1
  1
AcDbOsnapPointRef
 72
    10
331
3DE2
 73
     0
 91
        0
 40
0.9969885305084706
 10
0.0
 20
0.0
 30
0.0
 75
     0
  0
DIMASSOC
  5
4031
102
{ACAD_REACTORS
330
4030
102
}
330
4030
100
AcDbDimAssoc
330
402F
 90
        3
 70
     0
 71
     1
  1
AcDbOsnapPointRef
 72
     1
331
4028
 73
     0
 91
        0
 40
0.0
 10
0.0
 20
0.0
 30
0.0
 75
     0
  1
AcDbOsnapPointRef
 72
     1
331
402A
 73
     0
 91
        0
 40
0.0
 10
0.0
 20
0.0
 30
0.0
 75
     0
  0
DIMASSOC
  5
4062
102
{ACAD_REACTORS
330
4061
102
}
330
4061
100
AcDbDimAssoc
330
4060
 90
        3
 70
     0
 71
     1
  1
AcDbOsnapPointRef
 72
     2
331
3DF1
 73
     0
 91
        0
 40
0.5
 10
0.0
 20
0.0
 30
0.0
 75
     0
  1
AcDbOsnapPointRef
 72
     1
331
3DEF
 73
     0
 91
        0
 40
0.0
 10
0.0
 20
0.0
 30
0.0
 75
     0
  0
LINE
  5
41DE
102
{ACAD_REACTORS
330
41DC
102
}
330
41DC
100
AcDbEntity
  8
DIM
100
AcDbLine
 10
285.08002513383
 20
276.3659295746979
 30
0.0
 11
281.3586626485491
 21
277.7327598481079
 31
0.0
  0
LINE
  5
41DF
102
{ACAD_REACTORS
330
41DC
102
}
330
41DC
100
AcDbEntity
  8
MODEL
100
AcDbLine
 10
320.0233283521026
 20
284.732759848109
 30
0.0
 11
320.0233283521026
 21
285.2327598481089
 31
0.0
  0
GROUP
  5
3C75
102
{ACAD_REACTORS
330
1A
102
}
330
1A
100
AcDbGroup
300

 70
     1
 71
     1
340
3C64
340
3C65
340
3C70
340
3C71
340
3C72
340
3C73
340
3C74
  0
GROUP
  5
4132
102
{ACAD_REACTORS
330
1A
102
}
330
1A
100
AcDbGroup
300

 70
     1
 71
     1
340
40EC
340
40ED
340
40EE
340
40EF
340
40F0
340
40F1
340
40F2
340
40F3
340
40F4
340
40F5
340
40F6
340
40F7
340
40F8
340
40F9
340
40FA
340
40FB
340
40FC
340
40FD
340
40FE
340
40FF
340
4100
340
4101
340
4102
340
4103
340
4104
340
4105
340
4106
340
4107
340
4108
340
4109
340
410A
340
410B
340
410C
340
410D
340
410E
340
410F
340
4110
340
4111
340
4112
340
4113
340
4114
340
4115
340
4116
340
4117
340
4118
340
4119
  0
LAYOUT
  5
21
102
{ACAD_REACTORS
330
1E
102
}
330
1E
100
AcDbPlotSettings
  1

  2
none_device
  4
ISO_A3_(420.00_x_297.00_MM)
  6

 40
7.5
 41
20.0
 42
7.5
 43
20.0
 44
420.0
 45
297.0
 46
0.0
 47
0.0
 48
0.0
 49
0.0
140
0.0
141
0.0
142
1.0
143
1.0
 70
     0
 72
     1
 73
     0
 74
     0
  7

 75
     0
 76
     0
 77
     2
 78
   300
147
1.0
148
0.0
149
0.0
100
AcDbLayout
  1
Layout1
 70
     0
 71
     0
 10
-7.5
 20
-20.0
 11
412.5
 21
277.0
 12
0.0
 22
0.0
 32
0.0
 14
0.0
 24
0.0
 34
0.0
 15
0.0
 25
0.0
 35
0.0
146
0.0
 13
0.0
 23
0.0
 33
0.0
 16
0.0
 26
0.0
 36
0.0
 17
0.0
 27
0.0
 37
0.0
 76
     0
330
B
331
349
  0
LAYOUT
  5
20
102
{ACAD_REACTORS
330
1E
102
}
330
1E
100
AcDbPlotSettings
  1

  2
none_device
  4
ISO_A3_(420.00_x_297.00_MM)
  6

 40
7.5
 41
20.0
 42
7.5
 43
20.0
 44
420.0
 45
297.0
 46
0.0
 47
0.0
 48
0.0
 49
0.0
140
0.0
141
0.0
142
1.0
143
1.0
 70
  1024
 72
     1
 73
     0
 74
     0
  7

 75
     0
 76
     0
 77
     2
 78
   300
147
1.0
148
0.0
149
0.0
100
AcDbLayout
  1
Model
 70
     0
 71
     1
 10
0.0
 20
0.0
 11
420.0
 21
594.0
 12
0.0
 22
0.0
 32
0.0
 14
0.0
 24
0.0
 34
-0.0000000000000071
 15
420.0
 25
594.0
 35
0.0000000000000071
146
0.0
 13
0.0
 23
0.0
 33
0.0
 16
0.0
 26
0.0
 36
0.0
 17
0.0
 27
0.0
 37
0.0
 76
     0
330
A
331
15
  0
MATERIAL
  5
265
102
{ACAD_REACTORS
330
263
102
}
330
263
100
AcDbMaterial
  1
ByBlock
 72
     1
 94
      127
  0
MATERIAL
  5
264
102
{ACAD_REACTORS
330
263
102
}
330
263
100
AcDbMaterial
  1
ByLayer
 72
     1
 94
      127
  0
MATERIAL
  5
266
102
{ACAD_REACTORS
330
263
102
}
330
263
100
AcDbMaterial
  1
Global
 72
     1
 94
      127
  0
MLEADERSTYLE
  5
D59
102
{ACAD_REACTORS
330
336
102
}
330
336
100
AcDbMLeaderStyle
170
     2
171
     1
172
     0
 90
        2
 40
0.0
 41
0.0
173
     1
 91
-1056964608
340
11
 92
       -2
290
     1
 42
2.0
291
     1
 43
8.0
  3
Standard
341
0
 44
4.0
300

342
17
174
     1
178
     6
175
     1
176
     0
 93
-1056964608
 45
4.0
292
     0
297
     0
 46
4.0
343
0
 94
-1056964608
 47
1.0
 49
1.0
140
1.0
293
     1
141
0.0
294
     1
177
     0
142
1.0
295
     0
296
     0
143
3.75
1001
ACAD_MLEADERVER
1070
     2
  0
MLINESTYLE
  5
1C
102
{ACAD_REACTORS
330
1B
102
}
330
1B
100
AcDbMlineStyle
  2
Standard
 70
     0
  3

 62
     0
 51
90.0
 52
90.0
 71
     2
 49
0.5
 62
   256
  6
BYLAYER
 49
-0.5
 62
   256
  6
BYLAYER
  0
ACDBPLACEHOLDER
  5
1D
102
{ACAD_REACTORS
330
1F
102
}
330
1F
  0
SCALE
  5
242
102
{ACAD_REACTORS
330
241
102
}
330
241
100
AcDbScale
 70
     0
300
1:1
140
1.0
141
1.0
290
     1
  0
SCALE
  5
243
102
{ACAD_REACTORS
330
241
102
}
330
241
100
AcDbScale
 70
     0
300
1:2
140
1.0
141
2.0
290
     0
  0
SCALE
  5
244
102
{ACAD_REACTORS
330
241
102
}
330
241
100
AcDbScale
 70
     0
300
1:4
140
1.0
141
4.0
290
     0
  0
SCALE
  5
245
102
{ACAD_REACTORS
330
241
102
}
330
241
100
AcDbScale
 70
     0
300
1:5
140
1.0
141
5.0
290
     0
  0
SCALE
  5
246
102
{ACAD_REACTORS
330
241
102
}
330
241
100
AcDbScale
 70
     0
300
1:8
140
1.0
141
8.0
290
     0
  0
SCALE
  5
247
102
{ACAD_REACTORS
330
241
102
}
330
241
100
AcDbScale
 70
     0
300
1:10
140
1.0
141
10.0
290
     0
  0
SCALE
  5
248
102
{ACAD_REACTORS
330
241
102
}
330
241
100
AcDbScale
 70
     0
300
1:16
140
1.0
141
16.0
290
     0
  0
SCALE
  5
249
102
{ACAD_REACTORS
330
241
102
}
330
241
100
AcDbScale
 70
     0
300
1:20
140
1.0
141
20.0
290
     0
  0
SCALE
  5
24A
102
{ACAD_REACTORS
330
241
102
}
330
241
100
AcDbScale
 70
     0
300
1:30
140
1.0
141
30.0
290
     0
  0
SCALE
  5
24B
102
{ACAD_REACTORS
330
241
102
}
330
241
100
AcDbScale
 70
     0
300
1:40
140
1.0
141
40.0
290
     0
  0
SCALE
  5
24C
102
{ACAD_REACTORS
330
241
102
}
330
241
100
AcDbScale
 70
     0
300
1:50
140
1.0
141
50.0
290
     0
  0
SCALE
  5
24D
102
{ACAD_REACTORS
330
241
102
}
330
241
100
AcDbScale
 70
     0
300
1:100
140
1.0
141
100.0
290
     0
  0
SCALE
  5
24E
102
{ACAD_REACTORS
330
241
102
}
330
241
100
AcDbScale
 70
     0
300
2:1
140
2.0
141
1.0
290
     0
  0
SCALE
  5
24F
102
{ACAD_REACTORS
330
241
102
}
330
241
100
AcDbScale
 70
     0
300
4:1
140
4.0
141
1.0
290
     0
  0
SCALE
  5
250
102
{ACAD_REACTORS
330
241
102
}
330
241
100
AcDbScale
 70
     0
300
8:1
140
8.0
141
1.0
290
     0
  0
SCALE
  5
251
102
{ACAD_REACTORS
330
241
102
}
330
241
100
AcDbScale
 70
     0
300
10:1
140
10.0
141
1.0
290
     0
  0
SCALE
  5
252
102
{ACAD_REACTORS
330
241
102
}
330
241
100
AcDbScale
 70
     0
300
100:1
140
100.0
141
1.0
290
     0
  0
SCALE
  5
253
102
{ACAD_REACTORS
330
241
102
}
330
241
100
AcDbScale
 70
     0
300
1/128" = 1'-0"
140
0.0078125
141
12.0
290
     0
  0
SCALE
  5
254
102
{ACAD_REACTORS
330
241
102
}
330
241
100
AcDbScale
 70
     0
300
1/64" = 1'-0"
140
0.015625
141
12.0
290
     0
  0
SCALE
  5
255
102
{ACAD_REACTORS
330
241
102
}
330
241
100
AcDbScale
 70
     0
300
1/32" = 1'-0"
140
0.03125
141
12.0
290
     0
  0
SCALE
  5
256
102
{ACAD_REACTORS
330
241
102
}
330
241
100
AcDbScale
 70
     0
300
1/16" = 1'-0"
140
0.0625
141
12.0
290
     0
  0
SCALE
  5
257
102
{ACAD_REACTORS
330
241
102
}
330
241
100
AcDbScale
 70
     0
300
3/32" = 1'-0"
140
0.09375
141
12.0
290
     0
  0
SCALE
  5
258
102
{ACAD_REACTORS
330
241
102
}
330
241
100
AcDbScale
 70
     0
300
1/8" = 1'-0"
140
0.125
141
12.0
290
     0
  0
SCALE
  5
259
102
{ACAD_REACTORS
330
241
102
}
330
241
100
AcDbScale
 70
     0
300
3/16" = 1'-0"
140
0.1875
141
12.0
290
     0
  0
SCALE
  5
25A
102
{ACAD_REACTORS
330
241
102
}
330
241
100
AcDbScale
 70
     0
300
1/4" = 1'-0"
140
0.25
141
12.0
290
     0
  0
SCALE
  5
25B
102
{ACAD_REACTORS
330
241
102
}
330
241
100
AcDbScale
 70
     0
300
3/8" = 1'-0"
140
0.375
141
12.0
290
     0
  0
SCALE
  5
25C
102
{ACAD_REACTORS
330
241
102
}
330
241
100
AcDbScale
 70
     0
300
1/2" = 1'-0"
140
0.5
141
12.0
290
     0
  0
SCALE
  5
25D
102
{ACAD_REACTORS
330
241
102
}
330
241
100
AcDbScale
 70
     0
300
3/4" = 1'-0"
140
0.75
141
12.0
290
     0
  0
SCALE
  5
25E
102
{ACAD_REACTORS
330
241
102
}
330
241
100
AcDbScale
 70
     0
300
1" = 1'-0"
140
1.0
141
12.0
290
     0
  0
SCALE
  5
25F
102
{ACAD_REACTORS
330
241
102
}
330
241
100
AcDbScale
 70
     0
300
1-1/2" = 1'-0"
140
1.5
141
12.0
290
     0
  0
SCALE
  5
260
102
{ACAD_REACTORS
330
241
102
}
330
241
100
AcDbScale
 70
     0
300
3" = 1'-0"
140
3.0
141
12.0
290
     0
  0
SCALE
  5
261
102
{ACAD_REACTORS
330
241
102
}
330
241
100
AcDbScale
 70
     0
300
6" = 1'-0"
140
6.0
141
12.0
290
     0
  0
SCALE
  5
262
102
{ACAD_REACTORS
330
241
102
}
330
241
100
AcDbScale
 70
     0
300
1'-0" = 1'-0"
140
12.0
141
12.0
290
     0
  0
TABLESTYLE
  5
279
102
{ACAD_REACTORS
330
278
102
}
102
{ACAD_XDICTIONARY
360
4239
102
}
330
278
100
AcDbTableStyle
  3
Standard
 70
     0
 71
     0
 40
0.06
 41
0.06
280
     0
281
     0
  7
Standard
140
4.5
170
     2
 62
     0
 63
   257
283
     0
 90
        4
 91
        0
  1

274
    -2
284
     1
 64
     0
275
    -2
285
     1
 65
     0
276
    -2
286
     1
 66
     0
277
    -2
287
     1
 67
     0
278
    -2
288
     1
 68
     0
279
    -2
289
     1
 69
     0
  7
Standard
140
6.0
170
     5
 62
     0
 63
   257
283
     0
 90
        4
 91
        0
  1

274
    -2
284
     1
 64
     0
275
    -2
285
     1
 65
     0
276
    -2
286
     1
 66
     0
277
    -2
287
     1
 67
     0
278
    -2
288
     1
 68
     0
279
    -2
289
     1
 69
     0
  7
Standard
140
4.5
170
     5
 62
     0
 63
   257
283
     0
 90
        4
 91
        0
  1

274
    -2
284
     1
 64
     0
275
    -2
285
     1
 65
     0
276
    -2
286
     1
 66
     0
277
    -2
287
     1
 67
     0
278
    -2
288
     1
 68
     0
279
    -2
289
     1
 69
     0
  0
VISUALSTYLE
  5
26C
102
{ACAD_REACTORS
330
267
102
}
330
267
100
AcDbVisualStyle
  2
2dWireframe
 70
     4
 71
     0
 72
     2
 73
     0
 90
        0
 40
-0.6
 41
-30.0
 62
     5
 63
     7
421
 16777215
 74
     1
 91
        4
 64
     7
 65
   257
 75
     1
175
     1
 42
1.0
 92
        0
 66
   257
 43
1.0
 76
     1
 77
     6
 78
     2
 67
     7
 79
     5
170
     0
171
     0
290
     0
174
     0
 93
        1
 44
0.0
173
     0
291
     0
 45
0.0
  0
VISUALSTYLE
  5
26E
102
{ACAD_REACTORS
330
267
102
}
330
267
100
AcDbVisualStyle
  2
3D Hidden
 70
     6
 71
     1
 72
     2
 73
     2
 90
        0
 40
-0.6
 41
-30.0
 62
     5
 63
     7
421
 16777215
 74
     2
 91
        2
 64
     7
 65
   257
 75
     2
175
     1
 42
40.0
 92
        0
 66
   257
 43
1.0
 76
     1
 77
     6
 78
     2
 67
     7
 79
     3
170
     0
171
     0
290
     0
174
     0
 93
        1
 44
0.0
173
     0
291
     0
 45
0.0
  0
VISUALSTYLE
  5
26D
102
{ACAD_REACTORS
330
267
102
}
330
267
100
AcDbVisualStyle
  2
3dWireframe
 70
     5
 71
     0
 72
     2
 73
     0
 90
        0
 40
-0.6
 41
-30.0
 62
     5
 63
     7
421
 16777215
 74
     1
 91
        4
 64
     7
 65
   257
 75
     1
175
     1
 42
1.0
 92
        0
 66
   257
 43
1.0
 76
     1
 77
     6
 78
     2
 67
     7
 79
     5
170
     0
171
     0
290
     0
174
     0
 93
        1
 44
0.0
173
     0
291
     0
 45
0.0
  0
VISUALSTYLE
  5
26F
102
{ACAD_REACTORS
330
267
102
}
330
267
100
AcDbVisualStyle
  2
Basic
 70
     7
 71
     1
 72
     0
 73
     1
 90
        0
 40
-0.6
 41
-30.0
 62
     5
 63
     7
421
 16777215
 74
     0
 91
        4
 64
     7
 65
   257
 75
     1
175
     1
 42
1.0
 92
        8
 66
     7
 43
1.0
 76
     1
 77
     6
 78
     2
 67
     7
 79
     5
170
     0
171
     0
290
     0
174
     0
 93
        1
 44
0.0
173
     0
291
     1
 45
0.0
  0
VISUALSTYLE
  5
273
102
{ACAD_REACTORS
330
267
102
}
330
267
100
AcDbVisualStyle
  2
Brighten
 70
    12
 71
     2
 72
     2
 73
     0
 90
        0
 40
-0.6
 41
-30.0
 62
     5
 63
     7
421
 16777215
 74
     1
 91
        4
 64
     7
 65
   257
 75
     1
175
     1
 42
1.0
 92
        8
 66
     7
 43
1.0
 76
     1
 77
     6
 78
     2
 67
     7
 79
     5
170
     0
171
     0
290
     0
174
     0
 93
        1
 44
50.0
173
     0
291
     1
 45
0.0
  0
VISUALSTYLE
  5
277
102
{ACAD_REACTORS
330
267
102
}
330
267
100
AcDbVisualStyle
  2
ColorChange
 70
    16
 71
     2
 72
     2
 73
     3
 90
        0
 40
-0.6
 41
-30.0
 62
     5
 63
     8
421
  8421504
 74
     1
 91
        4
 64
     7
 65
   257
 75
     1
175
     1
 42
1.0
 92
        8
 66
     8
424
  8421504
 43
1.0
 76
     1
 77
     6
 78
     2
 67
     7
 79
     5
170
     0
171
     0
290
     0
174
     0
 93
        1
 44
0.0
173
     0
291
     1
 45
0.0
  0
VISUALSTYLE
  5
271
102
{ACAD_REACTORS
330
267
102
}
330
267
100
AcDbVisualStyle
  2
Conceptual
 70
     9
 71
     3
 72
     2
 73
     0
 90
        0
 40
-0.6
 41
-30.0
 62
     5
 63
     7
421
 16777215
 74
     2
 91
        2
 64
     7
 65
   257
 75
     1
175
     1
 42
40.0
 92
        8
 66
     7
 43
1.0
 76
     1
 77
     6
 78
     2
 67
     7
 79
     3
170
     0
171
     0
290
     0
174
     0
 93
        1
 44
0.0
173
     0
291
     0
 45
0.0
  0
VISUALSTYLE
  5
272
102
{ACAD_REACTORS
330
267
102
}
330
267
100
AcDbVisualStyle
  2
Dim
 70
    11
 71
     2
 72
     2
 73
     0
 90
        0
 40
-0.6
 41
-30.0
 62
     5
 63
     7
421
 16777215
 74
     1
 91
        4
 64
     7
 65
   257
 75
     1
175
     1
 42
1.0
 92
        8
 66
     7
 43
1.0
 76
     1
 77
     6
 78
     2
 67
     7
 79
     5
170
     0
171
     0
290
     0
174
     0
 93
        1
 44
-50.0
173
     0
291
     1
 45
0.0
  0
VISUALSTYLE
  5
8FE
102
{ACAD_REACTORS
330
267
102
}
330
267
100
AcDbVisualStyle
  2
EdgeColorOff
 70
    22
 71
     2
 72
     2
 73
     0
 90
        0
 40
0.6
 41
30.0
 62
     5
 63
     7
421
 16777215
 74
     1
 91
        4
 64
     7
 65
   257
 75
     1
175
     1
 42
1.0
 92
        8
 66
     7
 43
1.0
 76
     1
 77
     6
 78
     2
 67
     7
 79
     5
170
     0
171
     0
290
     0
174
     0
 93
        1
 44
0.0
173
     0
291
     1
 45
0.0
  0
VISUALSTYLE
  5
276
102
{ACAD_REACTORS
330
267
102
}
330
267
100
AcDbVisualStyle
  2
Facepattern
 70
    15
 71
     2
 72
     2
 73
     0
 90
        0
 40
-0.6
 41
-30.0
 62
     5
 63
     7
421
 16777215
 74
     1
 91
        4
 64
     7
 65
   257
 75
     1
175
     1
 42
1.0
 92
        8
 66
     7
 43
1.0
 76
     1
 77
     6
 78
     2
 67
     7
 79
     5
170
     0
171
     0
290
     0
174
     0
 93
        1
 44
0.0
173
     0
291
     1
 45
0.0
  0
VISUALSTYLE
  5
268
102
{ACAD_REACTORS
330
267
102
}
330
267
100
AcDbVisualStyle
  2
Flat
 70
     0
 71
     2
 72
     1
 73
     1
 90
        2
 40
-0.6
 41
30.0
 62
     5
 63
     7
421
 16777215
 74
     0
 91
        4
 64
     7
 65
   257
 75
     1
175
     1
 42
1.0
 92
        8
 66
     7
 43
1.0
 76
     1
 77
     6
 78
     2
 67
     7
 79
     5
170
     0
171
     0
290
     0
174
     0
 93
       13
 44
0.0
173
     0
291
     1
 45
0.0
  0
VISUALSTYLE
  5
269
102
{ACAD_REACTORS
330
267
102
}
330
267
100
AcDbVisualStyle
  2
FlatWithEdges
 70
     1
 71
     2
 72
     1
 73
     1
 90
        2
 40
-0.6
 41
30.0
 62
     5
 63
     7
421
 16777215
 74
     1
 91
        4
 64
     7
 65
   257
 75
     1
175
     1
 42
1.0
 92
        0
 66
   257
 43
1.0
 76
     1
 77
     6
 78
     2
 67
     7
 79
     5
170
     0
171
     0
290
     0
174
     0
 93
       13
 44
0.0
173
     0
291
     1
 45
0.0
  0
VISUALSTYLE
  5
26A
102
{ACAD_REACTORS
330
267
102
}
330
267
100
AcDbVisualStyle
  2
Gouraud
 70
     2
 71
     2
 72
     2
 73
     1
 90
        2
 40
-0.6
 41
30.0
 62
     5
 63
     7
421
 16777215
 74
     0
 91
        4
 64
     7
 65
   257
 75
     1
175
     1
 42
1.0
 92
        0
 66
     7
 43
1.0
 76
     1
 77
     6
 78
     2
 67
     7
 79
     5
170
     0
171
     0
290
     0
174
     0
 93
       13
 44
0.0
173
     0
291
     1
 45
0.0
  0
VISUALSTYLE
  5
26B
102
{ACAD_REACTORS
330
267
102
}
330
267
100
AcDbVisualStyle
  2
GouraudWithEdges
 70
     3
 71
     2
 72
     2
 73
     1
 90
        2
 40
-0.6
 41
30.0
 62
     5
 63
     7
421
 16777215
 74
     1
 91
        4
 64
     7
 65
   257
 75
     1
175
     1
 42
1.0
 92
        0
 66
   257
 43
1.0
 76
     1
 77
     6
 78
     2
 67
     7
 79
     5
170
     0
171
     0
290
     0
174
     0
 93
       13
 44
0.0
173
     0
291
     1
 45
0.0
  0
VISUALSTYLE
  5
8FB
102
{ACAD_REACTORS
330
267
102
}
330
267
100
AcDbVisualStyle
  2
Hidden
 70
     6
 71
     1
 72
     2
 73
     2
 90
        0
 40
0.6
 41
30.0
 62
     5
 63
     7
421
 16777215
 74
     2
 91
        2
 64
     7
 65
   257
 75
     2
175
     1
 42
40.0
 92
        0
 66
   257
 43
1.0
 76
     1
 77
     6
 78
     2
 67
     7
 79
     3
170
     0
171
     0
290
     0
174
     0
 93
        1
 44
0.0
173
     0
291
     0
 45
0.0
  0
VISUALSTYLE
  5
8FC
102
{ACAD_REACTORS
330
267
102
}
330
267
100
AcDbVisualStyle
  2
JitterOff
 70
    20
 71
     2
 72
     2
 73
     0
 90
        0
 40
0.6
 41
30.0
 62
     5
 63
     7
421
 16777215
 74
     1
 91
        4
 64
     7
 65
   257
 75
     1
175
     1
 42
1.0
 92
       10
 66
     7
 43
1.0
 76
     1
 77
     6
 78
     2
 67
     7
 79
     5
170
     0
171
     0
290
     0
174
     0
 93
        1
 44
0.0
173
     0
291
     1
 45
0.0
  0
VISUALSTYLE
  5
275
102
{ACAD_REACTORS
330
267
102
}
330
267
100
AcDbVisualStyle
  2
Linepattern
 70
    14
 71
     2
 72
     2
 73
     0
 90
        0
 40
-0.6
 41
-30.0
 62
     5
 63
     7
421
 16777215
 74
     1
 91
        4
 64
     7
 65
   257
 75
     7
175
     7
 42
1.0
 92
        8
 66
     7
 43
1.0
 76
     1
 77
     6
 78
     2
 67
     7
 79
     5
170
     0
171
     0
290
     0
174
     0
 93
        1
 44
0.0
173
     0
291
     1
 45
0.0
  0
VISUALSTYLE
  5
8FD
102
{ACAD_REACTORS
330
267
102
}
330
267
100
AcDbVisualStyle
  2
OverhangOff
 70
    21
 71
     2
 72
     2
 73
     0
 90
        0
 40
0.6
 41
30.0
 62
     5
 63
     7
421
 16777215
 74
     1
 91
        4
 64
     7
 65
   257
 75
     1
175
     1
 42
1.0
 92
        9
 66
     7
 43
1.0
 76
     1
 77
     6
 78
     2
 67
     7
 79
     5
170
     0
171
     0
290
     0
174
     0
 93
        1
 44
0.0
173
     0
291
     1
 45
0.0
  0
VISUALSTYLE
  5
270
102
{ACAD_REACTORS
330
267
102
}
330
267
100
AcDbVisualStyle
  2
Realistic
 70
     8
 71
     2
 72
     2
 73
     0
 90
        0
 40
-0.6
 41
-30.0
 62
     5
 63
     7
421
 16777215
 74
     1
 91
        0
 64
     7
 65
   257
 75
     1
175
     1
 42
1.0
 92
        8
 66
     8
424
  7895160
 43
1.0
 76
     1
 77
     6
 78
     2
 67
     7
 79
     5
170
     0
171
     0
290
     0
174
     0
 93
       13
 44
0.0
173
     0
291
     0
 45
0.0
  0
VISUALSTYLE
  5
903
102
{ACAD_REACTORS
330
267
102
}
330
267
100
AcDbVisualStyle
  2
Shaded
 70
    27
 71
     2
 72
     2
 73
     1
 90
        2
 40
0.6
 41
30.0
 62
     5
 63
     7
421
 16777215
 74
     0
 91
        4
 64
     7
 65
   257
 75
     1
175
     1
 42
1.0
 92
        8
 66
   257
 43
1.0
 76
     1
 77
     6
 78
     2
 67
     8
425
  7895160
 79
     3
170
     0
171
     0
290
     0
174
     0
 93
        5
 44
0.0
173
     0
291
     0
 45
0.0
  0
VISUALSTYLE
  5
902
102
{ACAD_REACTORS
330
267
102
}
330
267
100
AcDbVisualStyle
  2
Shaded with edges
 70
    26
 71
     2
 72
     2
 73
     1
 90
        2
 40
0.6
 41
30.0
 62
     5
 63
     7
421
 16777215
 74
     1
 91
       10
 64
     7
 65
   257
 75
     2
175
     1
 42
1.0
 92
        8
 66
   257
 43
1.0
 76
     1
 77
     6
 78
     2
 67
     7
 79
     3
170
     0
171
     0
290
     0
174
     0
 93
        5
 44
0.0
173
     0
291
     0
 45
0.0
  0
VISUALSTYLE
  5
8FF
102
{ACAD_REACTORS
330
267
102
}
330
267
100
AcDbVisualStyle
  2
Shades of Gray
 70
    23
 71
     2
 72
     2
 73
     3
 90
        0
 40
0.6
 41
30.0
 62
     5
 63
     7
421
 16777215
 74
     2
 91
        2
 64
     7
 65
     7
 75
     1
175
     1
 42
40.0
 92
        8
 66
     7
 43
1.0
 76
     1
 77
     6
 78
     2
 67
     7
 79
     3
170
     0
171
     0
290
     0
174
     0
 93
        1
 44
0.0
173
     0
291
     0
 45
0.0
  0
VISUALSTYLE
  5
900
102
{ACAD_REACTORS
330
267
102
}
330
267
100
AcDbVisualStyle
  2
Sketchy
 70
    24
 71
     1
 72
     2
 73
     2
 90
        0
 40
0.6
 41
30.0
 62
     5
 63
     7
421
 16777215
 74
     2
 91
        2
 64
     7
 65
     7
 75
     1
175
     1
 42
40.0
 92
       11
 66
     7
 43
1.0
 76
     1
 77
     6
 78
     2
 67
     7
 79
     6
170
     0
171
     0
290
     0
174
     0
 93
        1
 44
0.0
173
     0
291
     0
 45
0.0
  0
VISUALSTYLE
  5
274
102
{ACAD_REACTORS
330
267
102
}
330
267
100
AcDbVisualStyle
  2
Thicken
 70
    13
 71
     2
 72
     2
 73
     0
 90
        0
 40
-0.6
 41
-30.0
 62
     5
 63
     7
421
 16777215
 74
     1
 91
        4
 64
     7
 65
   257
 75
     1
175
     1
 42
1.0
 92
       12
 66
     7
 43
1.0
 76
     1
 77
     6
 78
     2
 67
     7
 79
     5
170
     0
171
     0
290
     0
174
     0
 93
        1
 44
0.0
173
     0
291
     1
 45
0.0
  0
VISUALSTYLE
  5
8FA
102
{ACAD_REACTORS
330
267
102
}
330
267
100
AcDbVisualStyle
  2
Wireframe
 70
     5
 71
     0
 72
     2
 73
     0
 90
        0
 40
0.6
 41
30.0
 62
     5
 63
     7
421
 16777215
 74
     1
 91
        4
 64
     7
 65
   257
 75
     1
175
     1
 42
1.0
 92
        0
 66
   257
 43
1.0
 76
     1
 77
     6
 78
     2
 67
     7
 79
     3
170
     0
171
     0
290
     0
174
     0
 93
        1
 44
0.0
173
     0
291
     0
 45
0.0
  0
VISUALSTYLE
  5
901
102
{ACAD_REACTORS
330
267
102
}
330
267
100
AcDbVisualStyle
  2
X-Ray
 70
    25
 71
     2
 72
     2
 73
     1
 90
        1
 40
0.5
 41
30.0
 62
     5
 63
     7
421
 16777215
 74
     1
 91
        0
 64
     7
 65
   257
 75
     1
175
     1
 42
1.0
 92
        8
 66
     7
 43
1.0
 76
     1
 77
     6
 78
     2
 67
     7
 79
     3
170
     0
171
     0
290
     0
174
     0
 93
       13
 44
0.0
173
     0
291
     0
 45
0.0
  0
DICTIONARYVAR
  5
331
102
{ACAD_REACTORS
330
330
102
}
330
330
100
DictionaryVariables
280
     0
  1
1:1
  0
DICTIONARYVAR
  5
D5E
102
{ACAD_REACTORS
330
330
102
}
330
330
100
DictionaryVariables
280
     0
  1
Standard
  0
DICTIONARYVAR
  5
335
102
{ACAD_REACTORS
330
330
102
}
330
330
100
DictionaryVariables
280
     0
  1
Standard
  0
DICTIONARYVAR
  5
D52
102
{ACAD_REACTORS
330
330
102
}
330
330
100
DictionaryVariables
280
     0
  1
ByLayer
  0
DICTIONARYVAR
  5
896
102
{ACAD_REACTORS
330
330
102
}
330
330
100
DictionaryVariables
280
     0
  1
0
  0
DICTIONARYVAR
  5
246C
102
{ACAD_REACTORS
330
E38
102
}
330
E38
100
DictionaryVariables
280
     0
  1
0.261799
  0
DICTIONARYVAR
  5
246A
102
{ACAD_REACTORS
330
E38
102
}
330
E38
100
DictionaryVariables
280
     0
  1
0.400000
  0
DICTIONARYVAR
  5
246B
102
{ACAD_REACTORS
330
E38
102
}
330
E38
100
DictionaryVariables
280
     0
  1
0.250000
  0
DICTIONARYVAR
  5
246D
102
{ACAD_REACTORS
330
E38
102
}
330
E38
100
DictionaryVariables
280
     0
  1
1
  0
FIELD
  5
3CB6
102
{ACAD_REACTORS
330
3CBA
330
405F
330
41F5
102
}
330
41F5
100
AcDbField
  1
_text
  2
{%<\_FldIdx 0>%N}
 90
        1
360
3CB9
 97
        0
 91
       63
 92
        0
 94
       11
 95
        2
 96
        0
300

 93
        1
  6
ACFD_FIELDTEXT_CHECKSUM
 93
        2
 90
        2
140
4564.0
 94
        0
300

302

304
ACVALUE_END
  7
ACFD_FIELD_VALUE
 93
        6
 90
        4
  1
{20190627N}
 94
        0
300

302

304
ACVALUE_END
301
{20190627N}
 98
       11
  0
DICTIONARY
  5
4239
330
279
100
AcDbDictionary
280
     1
281
     1
  3
ACAD_ROUNDTRIP_2008_TABLESTYLE_CELLSTYLEMAP
360
423A
  0
FIELD
  5
3CB9
330
3CB6
100
AcDbField
  1
AcVar
  2
\AcVar CreateDate \f "yyyyMMdd"
 90
        0
 97
        0
 91
       63
 92
        0
 94
       11
 95
        2
 96
        0
300

 93
        1
  6
Variable
 93
        2
 90
        4
  1
CreateDate
 94
        0
300

302

304
ACVALUE_END
  7
ACFD_FIELD_VALUE
 93
        6
 90
        8
 92
       16
310
E307060000001B0006000B000E000000
 94
        0
300
yyyyMMdd
302

304
ACVALUE_END
301
20190627
 98
        8
  0
CELLSTYLEMAP
  5
423A
102
{ACAD_REACTORS
330
4239
102
}
330
4239
100
AcDbCellStyleMap
 90
        3
300
CELLSTYLE
  1
TABLEFORMAT_BEGIN
 90
        5
170
     1
 91
        0
 92
    32768
 62
   257
 93
        1
300
CONTENTFORMAT
  1
CONTENTFORMAT_BEGIN
 90
        0
 91
        0
 92
        4
 93
        0
300

 40
0.0
140
1.0
 94
        5
 62
     0
340
17
144
6.0
309
CONTENTFORMAT_END
171
     1
301
MARGIN
  1
CELLMARGIN_BEGIN
 40
0.06
 40
0.06
 40
0.06
 40
0.06
 40
0.18
 40
0.18
309
CELLMARGIN_END
 94
        6
 95
        1
302
GRIDFORMAT
  1
GRIDFORMAT_BEGIN
 90
        0
 91
        1
 62
     0
 92
       -2
340
0
 93
        0
 40
0.045
309
GRIDFORMAT_END
 95
        2
302
GRIDFORMAT
  1
GRIDFORMAT_BEGIN
 90
        0
 91
        1
 62
     0
 92
       -2
340
0
 93
        0
 40
0.045
309
GRIDFORMAT_END
 95
        4
302
GRIDFORMAT
  1
GRIDFORMAT_BEGIN
 90
        0
 91
        1
 62
     0
 92
       -2
340
0
 93
        0
 40
0.045
309
GRIDFORMAT_END
 95
        8
302
GRIDFORMAT
  1
GRIDFORMAT_BEGIN
 90
        0
 91
        1
 62
     0
 92
       -2
340
0
 93
        0
 40
0.045
309
GRIDFORMAT_END
 95
       16
302
GRIDFORMAT
  1
GRIDFORMAT_BEGIN
 90
        0
 91
        1
 62
     0
 92
       -2
340
0
 93
        0
 40
0.045
309
GRIDFORMAT_END
 95
       32
302
GRIDFORMAT
  1
GRIDFORMAT_BEGIN
 90
        0
 91
        1
 62
     0
 92
       -2
340
0
 93
        0
 40
0.045
309
GRIDFORMAT_END
309
TABLEFORMAT_END
  1
CELLSTYLE_BEGIN
 90
        1
 91
        1
300
_TITLE
309
CELLSTYLE_END
300
CELLSTYLE
  1
TABLEFORMAT_BEGIN
 90
        5
170
     1
 91
        0
 92
        0
 62
   257
 93
        1
300
CONTENTFORMAT
  1
CONTENTFORMAT_BEGIN
 90
        0
 91
        0
 92
        4
 93
        0
300

 40
0.0
140
1.0
 94
        5
 62
     0
340
17
144
4.5
309
CONTENTFORMAT_END
171
     1
301
MARGIN
  1
CELLMARGIN_BEGIN
 40
0.06
 40
0.06
 40
0.06
 40
0.06
 40
0.18
 40
0.18
309
CELLMARGIN_END
 94
        6
 95
        1
302
GRIDFORMAT
  1
GRIDFORMAT_BEGIN
 90
        0
 91
        1
 62
     0
 92
       -2
340
0
 93
        0
 40
0.045
309
GRIDFORMAT_END
 95
        2
302
GRIDFORMAT
  1
GRIDFORMAT_BEGIN
 90
        0
 91
        1
 62
     0
 92
       -2
340
0
 93
        0
 40
0.045
309
GRIDFORMAT_END
 95
        4
302
GRIDFORMAT
  1
GRIDFORMAT_BEGIN
 90
        0
 91
        1
 62
     0
 92
       -2
340
0
 93
        0
 40
0.045
309
GRIDFORMAT_END
 95
        8
302
GRIDFORMAT
  1
GRIDFORMAT_BEGIN
 90
        0
 91
        1
 62
     0
 92
       -2
340
0
 93
        0
 40
0.045
309
GRIDFORMAT_END
 95
       16
302
GRIDFORMAT
  1
GRIDFORMAT_BEGIN
 90
        0
 91
        1
 62
     0
 92
       -2
340
0
 93
        0
 40
0.045
309
GRIDFORMAT_END
 95
       32
302
GRIDFORMAT
  1
GRIDFORMAT_BEGIN
 90
        0
 91
        1
 62
     0
 92
       -2
340
0
 93
        0
 40
0.045
309
GRIDFORMAT_END
309
TABLEFORMAT_END
  1
CELLSTYLE_BEGIN
 90
        2
 91
        1
300
_HEADER
309
CELLSTYLE_END
300
CELLSTYLE
  1
TABLEFORMAT_BEGIN
 90
        5
170
     1
 91
        0
 92
        0
 62
   257
 93
        1
300
CONTENTFORMAT
  1
CONTENTFORMAT_BEGIN
 90
        0
 91
        0
 92
        4
 93
        0
300

 40
0.0
140
1.0
 94
        2
 62
     0
340
17
144
4.5
309
CONTENTFORMAT_END
171
     1
301
MARGIN
  1
CELLMARGIN_BEGIN
 40
0.06
 40
0.06
 40
0.06
 40
0.06
 40
0.18
 40
0.18
309
CELLMARGIN_END
 94
        6
 95
        1
302
GRIDFORMAT
  1
GRIDFORMAT_BEGIN
 90
        0
 91
        1
 62
     0
 92
       -2
340
0
 93
        0
 40
0.045
309
GRIDFORMAT_END
 95
        2
302
GRIDFORMAT
  1
GRIDFORMAT_BEGIN
 90
        0
 91
        1
 62
     0
 92
       -2
340
0
 93
        0
 40
0.045
309
GRIDFORMAT_END
 95
        4
302
GRIDFORMAT
  1
GRIDFORMAT_BEGIN
 90
        0
 91
        1
 62
     0
 92
       -2
340
0
 93
        0
 40
0.045
309
GRIDFORMAT_END
 95
        8
302
GRIDFORMAT
  1
GRIDFORMAT_BEGIN
 90
        0
 91
        1
 62
     0
 92
       -2
340
0
 93
        0
 40
0.045
309
GRIDFORMAT_END
 95
       16
302
GRIDFORMAT
  1
GRIDFORMAT_BEGIN
 90
        0
 91
        1
 62
     0
 92
       -2
340
0
 93
        0
 40
0.045
309
GRIDFORMAT_END
 95
       32
302
GRIDFORMAT
  1
GRIDFORMAT_BEGIN
 90
        0
 91
        1
 62
     0
 92
       -2
340
0
 93
        0
 40
0.045
309
GRIDFORMAT_END
309
TABLEFORMAT_END
  1
CELLSTYLE_BEGIN
 90
        3
 91
        2
300
_DATA
309
CELLSTYLE_END
  0
ENDSEC
  0
EOF
