  0
SECTION
  2
HEADER
  9
$ACADVER
  1
AC1021
  9
$ACADMAINTVER
 70
    25
  9
$DWGCODEPAGE
  3
ANSI_932
  9
$LASTSAVEDBY
  1
howeNelson
  9
$INSBASE
 10
0.0
 20
0.0
 30
0.0
  9
$EXTMIN
 10
-0.0000000000000568
 20
0.0
 30
0.0
  9
$EXTMAX
 10
630.0
 20
891.0
 30
0.0
  9
$LIMMIN
 10
0.0
 20
0.0
  9
$LIMMAX
 10
630.0
 20
891.0
  9
$ORTHOMODE
 70
     0
  9
$REGENMODE
 70
     1
  9
$FILLMODE
 70
     1
  9
$QTEXTMODE
 70
     0
  9
$MIRRTEXT
 70
     1
  9
$LTSCALE
 40
1.0
  9
$ATTMODE
 70
     1
  9
$TEXTSIZE
 40
2.5
  9
$TRACEWID
 40
1.0
  9
$TEXTSTYLE
  7
ＭＳ ゴシック
  9
$CLAYER
  8
DIM
  9
$CELTYPE
  6
ByLayer
  9
$CECOLOR
 62
   256
  9
$CELTSCALE
 40
0.05
  9
$DISPSILH
 70
     0
  9
$DIMSCALE
 40
1.0
  9
$DIMASZ
 40
3.0
  9
$DIMEXO
 40
10.0
  9
$DIMDLI
 40
0.9999999999999999
  9
$DIMRND
 40
0.0
  9
$DIMDLE
 40
0.0
  9
$DIMEXE
 40
0.0
  9
$DIMTP
 40
0.0
  9
$DIMTM
 40
0.0
  9
$DIMTXT
 40
7.0
  9
$DIMCEN
 40
0.0
  9
$DIMTSZ
 40
0.0
  9
$DIMTOL
 70
     0
  9
$DIMLIM
 70
     0
  9
$DIMTIH
 70
     0
  9
$DIMTOH
 70
     0
  9
$DIMSE1
 70
     0
  9
$DIMSE2
 70
     0
  9
$DIMTAD
 70
     1
  9
$DIMZIN
 70
    11
  9
$DIMBLK
  1
DOT
  9
$DIMASO
 70
     1
  9
$DIMSHO
 70
     1
  9
$DIMPOST
  1
<>
  9
$DIMAPOST
  1
[]
  9
$DIMALT
 70
     0
  9
$DIMALTD
 70
     1
  9
$DIMALTF
 40
1.0
  9
$DIMLFAC
 40
1.0
  9
$DIMTOFL
 70
     0
  9
$DIMTVP
 40
0.0
  9
$DIMTIX
 70
     1
  9
$DIMSOXD
 70
     0
  9
$DIMSAH
 70
     0
  9
$DIMBLK1
  1

  9
$DIMBLK2
  1

  9
$DIMSTYLE
  2
tfrom線あり
  9
$DIMCLRD
 70
     0
  9
$DIMCLRE
 70
     0
  9
$DIMCLRT
 70
     0
  9
$DIMTFAC
 40
1.0
  9
$DIMGAP
 40
3.0
  9
$DIMJUST
 70
     0
  9
$DIMSD1
 70
     0
  9
$DIMSD2
 70
     0
  9
$DIMTOLJ
 70
     1
  9
$DIMTZIN
 70
    11
  9
$DIMALTZ
 70
    11
  9
$DIMALTTZ
 70
    11
  9
$DIMUPT
 70
     0
  9
$DIMDEC
 70
     0
  9
$DIMTDEC
 70
     1
  9
$DIMALTU
 70
     2
  9
$DIMALTTD
 70
     2
  9
$DIMTXSTY
  7
ＭＳ ゴシック
  9
$DIMAUNIT
 70
     0
  9
$DIMADEC
 70
     2
  9
$DIMALTRND
 40
0.0
  9
$DIMAZIN
 70
     0
  9
$DIMDSEP
 70
    46
  9
$DIMATFIT
 70
     0
  9
$DIMFRAC
 70
     2
  9
$DIMLDRBLK
  1
DOT
  9
$DIMLUNIT
 70
     2
  9
$DIMLWD
 70
    -2
  9
$DIMLWE
 70
    -2
  9
$DIMTMOVE
 70
     0
  9
$DIMFXL
 40
1.0
  9
$DIMFXLON
 70
     0
  9
$DIMJOGANG
 40
0.7853981633974483
  9
$DIMTFILL
 70
     0
  9
$DIMTFILLCLR
 70
     0
  9
$DIMARCSYM
 70
     0
  9
$DIMLTYPE
  6

  9
$DIMLTEX1
  6

  9
$DIMLTEX2
  6

  9
$LUNITS
 70
     2
  9
$LUPREC
 70
     0
  9
$SKETCHINC
 40
0.1
  9
$FILLETRAD
 40
0.0
  9
$AUNITS
 70
     0
  9
$AUPREC
 70
     0
  9
$MENU
  1
acad
  9
$ELEVATION
 40
0.0
  9
$PELEVATION
 40
0.0
  9
$THICKNESS
 40
0.0
  9
$LIMCHECK
 70
     0
  9
$CHAMFERA
 40
0.0
  9
$CHAMFERB
 40
0.0
  9
$CHAMFERC
 40
0.0
  9
$CHAMFERD
 40
0.0
  9
$SKPOLY
 70
     0
  9
$TDCREATE
 40
2447893.375
  9
$TDUCREATE
 40
0.0
  9
$TDUPDATE
 40
2457765.440577488
  9
$TDUUPDATE
 40
2457765.065577488
  9
$TDINDWG
 40
0.00651
  9
$TDUSRTIMER
 40
2457765.065573715
  9
$USRTIMER
 70
     1
  9
$ANGBASE
 50
0.0
  9
$ANGDIR
 70
     0
  9
$PDMODE
 70
     1
  9
$PDSIZE
 40
-2.0
  9
$PLINEWID
 40
0.0
  9
$SPLFRAME
 70
     0
  9
$SPLINETYPE
 70
     6
  9
$SPLINESEGS
 70
     8
  9
$HANDSEED
  5
2587
  9
$SURFTAB1
 70
     6
  9
$SURFTAB2
 70
     6
  9
$SURFTYPE
 70
     6
  9
$SURFU
 70
     6
  9
$SURFV
 70
     6
  9
$UCSBASE
  2

  9
$UCSNAME
  2

  9
$UCSORG
 10
0.0
 20
0.0
 30
0.0
  9
$UCSXDIR
 10
1.0
 20
0.0
 30
0.0
  9
$UCSYDIR
 10
0.0
 20
1.0
 30
0.0
  9
$UCSORTHOREF
  2

  9
$UCSORTHOVIEW
 70
     0
  9
$UCSORGTOP
 10
0.0
 20
0.0
 30
0.0
  9
$UCSORGBOTTOM
 10
0.0
 20
0.0
 30
0.0
  9
$UCSORGLEFT
 10
0.0
 20
0.0
 30
0.0
  9
$UCSORGRIGHT
 10
0.0
 20
0.0
 30
0.0
  9
$UCSORGFRONT
 10
0.0
 20
0.0
 30
0.0
  9
$UCSORGBACK
 10
0.0
 20
0.0
 30
0.0
  9
$PUCSBASE
  2

  9
$PUCSNAME
  2

  9
$PUCSORG
 10
0.0
 20
0.0
 30
0.0
  9
$PUCSXDIR
 10
1.0
 20
0.0
 30
0.0
  9
$PUCSYDIR
 10
0.0
 20
1.0
 30
0.0
  9
$PUCSORTHOREF
  2

  9
$PUCSORTHOVIEW
 70
     0
  9
$PUCSORGTOP
 10
0.0
 20
0.0
 30
0.0
  9
$PUCSORGBOTTOM
 10
0.0
 20
0.0
 30
0.0
  9
$PUCSORGLEFT
 10
0.0
 20
0.0
 30
0.0
  9
$PUCSORGRIGHT
 10
0.0
 20
0.0
 30
0.0
  9
$PUCSORGFRONT
 10
0.0
 20
0.0
 30
0.0
  9
$PUCSORGBACK
 10
0.0
 20
0.0
 30
0.0
  9
$USERI1
 70
     0
  9
$USERI2
 70
     0
  9
$USERI3
 70
     0
  9
$USERI4
 70
     0
  9
$USERI5
 70
     0
  9
$USERR1
 40
0.0
  9
$USERR2
 40
0.0
  9
$USERR3
 40
0.0
  9
$USERR4
 40
0.0
  9
$USERR5
 40
0.0
  9
$WORLDVIEW
 70
     1
  9
$SHADEDGE
 70
     3
  9
$SHADEDIF
 70
    70
  9
$TILEMODE
 70
     1
  9
$MAXACTVP
 70
    64
  9
$PINSBASE
 10
0.0
 20
0.0
 30
0.0
  9
$PLIMCHECK
 70
     0
  9
$PEXTMIN
 10
0.0
 20
0.0
 30
0.0
  9
$PEXTMAX
 10
0.0
 20
0.0
 30
0.0
  9
$PLIMMIN
 10
-95.87226993865028
 20
-25.69999999999999
  9
$PLIMMAX
 10
201.1277300613497
 20
184.3
  9
$UNITMODE
 70
     0
  9
$VISRETAIN
 70
     0
  9
$PLINEGEN
 70
     1
  9
$PSLTSCALE
 70
     0
  9
$TREEDEPTH
 70
  3020
  9
$CMLSTYLE
  2
Standard
  9
$CMLJUST
 70
     0
  9
$CMLSCALE
 40
1.0
  9
$PROXYGRAPHICS
 70
     0
  9
$MEASUREMENT
 70
     1
  9
$CELWEIGHT
370
    -1
  9
$ENDCAPS
280
     0
  9
$JOINSTYLE
280
     0
  9
$LWDISPLAY
290
     1
  9
$INSUNITS
 70
     4
  9
$HYPERLINKBASE
  1

  9
$STYLESHEET
  1

  9
$XEDIT
290
     1
  9
$CEPSNTYPE
380
     0
  9
$PSTYLEMODE
290
     1
  9
$FINGERPRINTGUID
  2

  9
$VERSIONGUID
  2

  9
$EXTNAMES
290
     1
  9
$PSVPSCALE
 40
0.0
  9
$OLESTARTUP
290
     0
  9
$SORTENTS
280
   127
  9
$INDEXCTL
280
     0
  9
$HIDETEXT
280
     1
  9
$XCLIPFRAME
290
     0
  9
$HALOGAP
280
     0
  9
$OBSCOLOR
 70
   257
  9
$OBSLTYPE
280
     0
  9
$INTERSECTIONDISPLAY
280
     0
  9
$INTERSECTIONCOLOR
 70
   257
  9
$DIMASSOC
280
     2
  9
$PROJECTNAME
  1

  9
$CAMERADISPLAY
290
     0
  9
$LENSLENGTH
 40
50.0
  9
$CAMERAHEIGHT
 40
0.0
  9
$STEPSPERSEC
 40
2.0
  9
$STEPSIZE
 40
6.0
  9
$3DDWFPREC
 40
2.0
  9
$PSOLWIDTH
 40
0.25
  9
$PSOLHEIGHT
 40
4.0
  9
$LOFTANG1
 40
1.570796326794897
  9
$LOFTANG2
 40
1.570796326794897
  9
$LOFTMAG1
 40
0.0
  9
$LOFTMAG2
 40
0.0
  9
$LOFTPARAM
 70
     7
  9
$LOFTNORMALS
280
     1
  9
$LATITUDE
 40
37.795
  9
$LONGITUDE
 40
-122.394
  9
$NORTHDIRECTION
 40
0.0
  9
$TIMEZONE
 70
 -8000
  9
$LIGHTGLYPHDISPLAY
280
     1
  9
$TILEMODELIGHTSYNCH
280
     1
  9
$SOLIDHIST
280
     1
  9
$SHOWHIST
280
     1
  9
$DWFFRAME
280
     2
  9
$DGNFRAME
280
     2
  9
$REALWORLDSCALE
290
     1
  9
$INTERFERECOLOR
 62
   256
  9
$CSHADOW
280
     0
  9
$SHADOWPLANELOCATION
 40
0.0
  0
ENDSEC
  0
SECTION
  2
CLASSES
  0
CLASS
  1
LWPOLYLINE
  2
AcDbPolyline
  3
ObjectDBX Classes
 90
        0
 91
        1
280
     0
281
     1
  0
CLASS
  1
IMAGE
  2
AcDbRasterImage
  3
ISM
 90
      127
 91
        7
280
     0
281
     1
  0
CLASS
  1
OLE2FRAME
  2
AcDbOle2Frame
  3
ObjectDBX Classes
 90
        0
 91
        1
280
     0
281
     1
  0
CLASS
  1
HATCH
  2
AcDbHatch
  3
ObjectDBX Classes
 90
        0
 91
        1
280
     0
281
     1
  0
CLASS
  1
DICTIONARYVAR
  2
AcDbDictionaryVar
  3
ObjectDBX Classes
 90
        0
 91
        6
280
     0
281
     0
  0
CLASS
  1
RASTERVARIABLES
  2
AcDbRasterVariables
  3
ISM
 90
        0
 91
        6
280
     0
281
     0
  0
CLASS
  1
IMAGEDEF
  2
AcDbRasterImageDef
  3
ISM
 90
        0
 91
        6
280
     0
281
     0
  0
CLASS
  1
IMAGEDEF_REACTOR
  2
AcDbRasterImageDefReactor
  3
ISM
 90
        1
 91
        6
280
     0
281
     0
  0
CLASS
  1
IDBUFFER
  2
AcDbIdBuffer
  3
ObjectDBX Classes
 90
        0
 91
        6
280
     0
281
     0
  0
CLASS
  1
SPATIAL_FILTER
  2
AcDbSpatialFilter
  3
ObjectDBX Classes
 90
        0
 91
        6
280
     0
281
     0
  0
CLASS
  1
XRECORD
  2
AcDbXrecord
  3
ObjectDBX Classes
 90
        0
 91
        1
280
     0
281
     0
  0
CLASS
  1
SORTENTSTABLE
  2
AcDbSortentsTable
  3
ObjectDBX Classes
 90
        0
 91
        6
280
     0
281
     0
  0
CLASS
  1
LAYER_INDEX
  2
AcDbLayerIndex
  3
ObjectDBX Classes
 90
        0
 91
        6
280
     0
281
     0
  0
CLASS
  1
SPATIAL_INDEX
  2
AcDbSpatialIndex
  3
AutoCAD 2000
 90
        0
 91
        6
280
     0
281
     0
  0
CLASS
  1
OBJECT_PTR
  2
CAseDLPNTableRecord
  3
ASE-LPNTableRecord
 90
        1
 91
        6
280
     0
281
     0
  0
CLASS
  1
LAYOUT
  2
AcDbLayout
  3
ObjectDBX Classes
 90
        0
 91
        1
280
     0
281
     0
  0
CLASS
  1
PLOTSETTINGS
  2
AcDbPlotSettings
  3
ObjectDBX Classes
 90
        0
 91
        6
280
     0
281
     0
  0
CLASS
  1
ACDBDICTIONARYWDFLT
  2
AcDbDictionaryWithDefault
  3
ObjectDBX Classes
 90
        0
 91
        6
280
     0
281
     0
  0
CLASS
  1
ACDBPLACEHOLDER
  2
AcDbPlaceHolder
  3
ObjectDBX Classes
 90
        0
 91
        1
280
     0
281
     0
  0
CLASS
  1
SCALE
  2
AcDbScale
  3
ObjectDBX Classes
 90
     1153
 91
        6
280
     0
281
     0
  0
CLASS
  1
MATERIAL
  2
AcDbMaterial
  3
ObjectDBX Classes
 90
     1153
 91
        6
280
     0
281
     0
  0
CLASS
  1
VISUALSTYLE
  2
AcDbVisualStyle
  3
ObjectDBX Classes
 90
     4095
 91
        6
280
     0
281
     0
  0
CLASS
  1
TABLESTYLE
  2
AcDbTableStyle
  3
ObjectDBX Classes
 90
     4095
 91
        6
280
     0
281
     0
  0
CLASS
  1
DIMASSOC
  2
AcDbDimAssoc
  3
"AcDbDimAssoc|Product Desc:     AcDim ARX App For Dimension|Company:          Autodesk, Inc.|WEB Address:      www.autodesk.com"
 90
        0
 91
        6
280
     0
281
     0
  0
CLASS
  1
CELLSTYLEMAP
  2
AcDbCellStyleMap
  3
ObjectDBX Classes
 90
     1152
 91
        6
280
     0
281
     0
  0
CLASS
  1
SUN
  2
AcDbSun
  3
SCENEOE
 90
     1153
 91
        6
280
     0
281
     0
  0
CLASS
  1
MLEADERSTYLE
  2
AcDbMLeaderStyle
  3
ACDB_MLEADERSTYLE_CLASS
 90
     4095
 91
        6
280
     0
281
     0
  0
CLASS
  1
FIELD
  2
AcDbField
  3
ObjectDBX Classes
 90
     1152
 91
        6
280
     0
281
     0
  0
CLASS
  1
FIELDLIST
  2
AcDbFieldList
  3
ObjectDBX Classes
 90
     1152
 91
        6
280
     0
281
     0
  0
ENDSEC
  0
SECTION
  2
TABLES
  0
TABLE
  2
VPORT
  5
7
330
0
100
AcDbSymbolTable
 70
     1
  0
VPORT
  5
15
330
7
100
AcDbSymbolTableRecord
100
AcDbViewportTableRecord
  2
*ACTIVE
 70
     0
 10
0.0
 20
0.0
 11
1.0
 21
1.0
 12
406.0201356709006
 22
371.901285469834
 13
0.0
 23
0.0
 14
1.0
 24
1.0
 15
0.0
 25
0.0
 16
0.0
 26
0.0
 36
1.0
 17
-91.02013567090057
 27
73.59871453016603
 37
-46.86809886248109
 40
908.8200000000012
 41
2.295518207282913
 42
50.0
 43
0.0
 44
0.0
 50
0.0
 51
0.0
 71
    16
 72
  2000
 73
     1
 74
     1
 75
     0
 76
     0
 77
     0
 78
     0
281
     0
 65
     1
110
0.0
120
0.0
130
0.0
111
1.0
121
0.0
131
0.0
112
0.0
122
1.0
132
0.0
 79
     0
146
0.0
348
26C
 60
     3
 61
     5
292
     1
282
     1
141
0.0
142
0.0
 63
   256
361
904
  0
ENDTAB
  0
TABLE
  2
LTYPE
  5
4
330
0
100
AcDbSymbolTable
 70
    22
  0
LTYPE
  5
11
330
4
100
AcDbSymbolTableRecord
100
AcDbLinetypeTableRecord
  2
ByBlock
 70
     0
  3

 72
    65
 73
     0
 40
0.0
  0
LTYPE
  5
12
330
4
100
AcDbSymbolTableRecord
100
AcDbLinetypeTableRecord
  2
ByLayer
 70
     0
  3

 72
    65
 73
     0
 40
0.0
  0
LTYPE
  5
13
330
4
100
AcDbSymbolTableRecord
100
AcDbLinetypeTableRecord
  2
Continuous
 70
     0
  3
Solid line
 72
    65
 73
     0
 40
0.0
  0
LTYPE
  5
3A
330
4
100
AcDbSymbolTableRecord
100
AcDbLinetypeTableRecord
  2
STYLE_01
 70
     0
  3

 72
    65
 73
     2
 40
0.2460629921259842
 49
0.1230314960629921
 74
     0
 49
-0.1230314960629921
 74
     0
  0
LTYPE
  5
3B
330
4
100
AcDbSymbolTableRecord
100
AcDbLinetypeTableRecord
  2
STYLE_02
 70
     0
  3

 72
    65
 73
     2
 40
0.6944250000000001
 49
0.48607
 74
     0
 49
-0.2083550000000001
 74
     0
  0
LTYPE
  5
3C
330
4
100
AcDbSymbolTableRecord
100
AcDbLinetypeTableRecord
  2
STYLE_03
 70
     0
  3

 72
    65
 73
     2
 40
1.25
 49
1.04164
 74
     0
 49
-0.2083599999999999
 74
     0
  0
LTYPE
  5
3D
330
4
100
AcDbSymbolTableRecord
100
AcDbLinetypeTableRecord
  2
STYLE_04
 70
     0
  3

 72
    65
 73
     2
 40
1.52771
 49
1.319425
 74
     0
 49
-0.208285
 74
     0
  0
LTYPE
  5
3E
330
4
100
AcDbSymbolTableRecord
100
AcDbLinetypeTableRecord
  2
STYLE_05
 70
     0
  3

 72
    65
 73
     2
 40
0.20828
 49
0.069425
 74
     0
 49
-0.138855
 74
     0
  0
LTYPE
  5
3F
330
4
100
AcDbSymbolTableRecord
100
AcDbLinetypeTableRecord
  2
STYLE_06
 70
     0
  3

 72
    65
 73
     4
 40
1.04164
 49
0.625
 74
     0
 49
-0.20828
 74
     0
 49
0.06943
 74
     0
 49
-0.13893
 74
     0
  0
LTYPE
  5
40
330
4
100
AcDbSymbolTableRecord
100
AcDbLinetypeTableRecord
  2
STYLE_07
 70
     0
  3

 72
    65
 73
     6
 40
1.875
 49
0.625
 74
     0
 49
-0.20828
 74
     0
 49
0.6250000000000001
 74
     0
 49
-0.2083599999999999
 74
     0
 49
0.06943
 74
     0
 49
-0.1389299999999999
 74
     0
  0
LTYPE
  5
41
330
4
100
AcDbSymbolTableRecord
100
AcDbLinetypeTableRecord
  2
STYLE_08
 70
     0
  3

 72
    65
 73
     6
 40
1.25
 49
0.625
 74
     0
 49
-0.20828
 74
     0
 49
0.06943
 74
     0
 49
-0.13893
 74
     0
 49
0.0694299999999999
 74
     0
 49
-0.13893
 74
     0
  0
LTYPE
  5
42
330
4
100
AcDbSymbolTableRecord
100
AcDbLinetypeTableRecord
  2
STYLE_09
 70
     0
  3

 72
    65
 73
     4
 40
5.0
 49
3.75
 74
     0
 49
-0.2777849999999998
 74
     0
 49
0.6944300000000003
 74
     0
 49
-0.2777849999999998
 74
     0
  0
LTYPE
  5
43
330
4
100
AcDbSymbolTableRecord
100
AcDbLinetypeTableRecord
  2
STYLE_10
 70
     0
  3

 72
    65
 73
     6
 40
5.9375
 49
3.75
 74
     0
 49
-0.2777849999999998
 74
     0
 49
0.6944300000000003
 74
     0
 49
-0.2777849999999998
 74
     0
 49
0.625
 74
     0
 49
-0.3125
 74
     0
  0
LTYPE
  5
44
330
4
100
AcDbSymbolTableRecord
100
AcDbLinetypeTableRecord
  2
STYLE_11
 70
     0
  3

 72
    65
 73
     2
 40
0.0694444881889764
 49
0.0347222440944882
 74
     0
 49
-0.0347222440944882
 74
     0
  0
LTYPE
  5
45
330
4
100
AcDbSymbolTableRecord
100
AcDbLinetypeTableRecord
  2
STYLE_12
 70
     0
  3

 72
    65
 73
     2
 40
0.3937007874015748
 49
0.1968503937007874
 74
     0
 49
-0.1968503937007874
 74
     0
  0
LTYPE
  5
46
330
4
100
AcDbSymbolTableRecord
100
AcDbLinetypeTableRecord
  2
STYLE_13
 70
     0
  3

 72
    65
 73
     2
 40
0.5905511811023622
 49
0.2952755905511811
 74
     0
 49
-0.2952755905511811
 74
     0
  0
LTYPE
  5
47
330
4
100
AcDbSymbolTableRecord
100
AcDbLinetypeTableRecord
  2
STYLE_14
 70
     0
  3

 72
    65
 73
     2
 40
1.968503937007874
 49
0.9842519685039369
 74
     0
 49
-0.9842519685039369
 74
     0
  0
LTYPE
  5
48
330
4
100
AcDbSymbolTableRecord
100
AcDbLinetypeTableRecord
  2
STYLE_15
 70
     0
  3

 72
    65
 73
     2
 40
0.1875
 49
0.125
 74
     0
 49
-0.0625
 74
     0
  0
LTYPE
  5
49
330
4
100
AcDbSymbolTableRecord
100
AcDbLinetypeTableRecord
  2
STYLE_16
 70
     0
  3

 72
    65
 73
     2
 40
0.3690944881889764
 49
0.2460629921259843
 74
     0
 49
-0.1230314960629922
 74
     0
  0
LTYPE
  5
908
330
4
100
AcDbSymbolTableRecord
100
AcDbLinetypeTableRecord
  2
AI-LINETYPE-1
 70
     0
  3
Adobe Illustrator Linetype No. 1
 72
    65
 73
     4
 40
2.116668062491661
 49
1.058334031245831
 74
     0
 49
-0.3527780104152769
 74
     0
 49
0.3527780104152769
 74
     0
 49
-0.3527780104152769
 74
     0
  0
LTYPE
  5
909
330
4
100
AcDbSymbolTableRecord
100
AcDbLinetypeTableRecord
  2
AI-LINETYPE-2
 70
     0
  3
Adobe Illustrator Linetype No. 2
 72
    65
 73
     4
 40
2.116668062491661
 49
1.058334031245831
 74
     0
 49
-0.3527780104152769
 74
     0
 49
0.3527780104152769
 74
     0
 49
-0.3527780104152769
 74
     0
  0
LTYPE
  5
D6C
330
4
100
AcDbSymbolTableRecord
100
AcDbLinetypeTableRecord
  2
BORDER
 70
     0
  3
Border __  __  . __  __  . __  __  . __  __  . 
 72
    65
 73
     6
 40
44.45
 49
12.7
 74
     0
 49
-6.35
 74
     0
 49
12.7
 74
     0
 49
-6.35
 74
     0
 49
0.0
 74
     0
 49
-6.35
 74
     0
  0
LTYPE
  5
D6D
330
4
100
AcDbSymbolTableRecord
100
AcDbLinetypeTableRecord
  2
HIDDEN
 70
     0
  3
Hidden _ _ _ _ _ _ _ _ _ _ _ _ _ _ _ _ _ _ _ _ 
 72
    65
 73
     2
 40
9.524999999999999
 49
6.35
 74
     0
 49
-3.175
 74
     0
  0
LTYPE
  5
162D
330
4
100
AcDbSymbolTableRecord
100
AcDbLinetypeTableRecord
  2
CENTERX2
 70
     0
  3
Center (2x) ________  __  ________  __  _____
 72
    65
 73
     4
 40
20.32
 49
12.7
 74
     0
 49
-2.54
 74
     0
 49
2.54
 74
     0
 49
-2.54
 74
     0
  0
ENDTAB
  0
TABLE
  2
LAYER
  5
2
102
{ACAD_XDICTIONARY
360
2E1
102
}
330
0
100
AcDbSymbolTable
 70
    11
  0
LAYER
  5
14
330
2
100
AcDbSymbolTableRecord
100
AcDbLayerTableRecord
  2
0
 70
     0
 62
     7
  6
Continuous
370
    -3
390
1D
347
266
  0
LAYER
  5
4B
330
2
100
AcDbSymbolTableRecord
100
AcDbLayerTableRecord
  2
TEMPLATE
 70
     0
 62
     7
  6
Continuous
370
    20
390
1D
347
266
  0
LAYER
  5
4C
330
2
100
AcDbSymbolTableRecord
100
AcDbLayerTableRecord
  2
DIM
 70
     0
 62
     3
  6
Continuous
370
    13
390
1D
347
266
  0
LAYER
  5
4D
330
2
100
AcDbSymbolTableRecord
100
AcDbLayerTableRecord
  2
MODEL
 70
     0
 62
     7
  6
Continuous
370
    20
390
1D
347
266
  0
LAYER
  5
667
330
2
100
AcDbSymbolTableRecord
100
AcDbLayerTableRecord
  2
LOGO
 70
     0
 62
     7
  6
Continuous
370
    -3
390
1D
347
266
  0
LAYER
  5
88C
330
2
100
AcDbSymbolTableRecord
100
AcDbLayerTableRecord
  2
HIDDEN
 70
     0
 62
     8
  6
HIDDEN
370
    20
390
1D
347
266
1001
AcAecLayerStandard
1000

1000

  0
LAYER
  5
D6B
330
2
100
AcDbSymbolTableRecord
100
AcDbLayerTableRecord
  2
BORDER
 70
     0
 62
     4
  6
BORDER
290
     0
370
    20
390
1D
347
266
1001
AcAecLayerStandard
1000

1000

  0
LAYER
  5
D8C
330
2
100
AcDbSymbolTableRecord
100
AcDbLayerTableRecord
  2
Defpoints
 70
     0
 62
     7
  6
Continuous
290
     0
370
    -3
390
1D
347
266
  0
LAYER
  5
1160
330
2
100
AcDbSymbolTableRecord
100
AcDbLayerTableRecord
  2
PRINT BORDER
 70
     0
 62
     4
  6
BORDER
290
     0
370
    20
390
1D
347
266
1001
AcAecLayerStandard
1000

1000

  0
LAYER
  5
162B
330
2
100
AcDbSymbolTableRecord
100
AcDbLayerTableRecord
  2
尺寸
 70
     0
 62
     7
  6
Continuous
370
    -3
390
1D
347
266
  0
LAYER
  5
1B9F
330
2
100
AcDbSymbolTableRecord
100
AcDbLayerTableRecord
  2
SLD-0
 70
     0
 62
   179
  6
Continuous
370
    -3
390
1D
347
266
  0
ENDTAB
  0
TABLE
  2
STYLE
  5
3
330
0
100
AcDbSymbolTable
 70
     7
  0
STYLE
  5
17
330
3
100
AcDbSymbolTableRecord
100
AcDbTextStyleTableRecord
  2
Standard
 70
     0
 40
0.0
 41
1.0
 50
0.0
 71
     0
 42
2.5
  3
txt
  4
BIGFONT.SHX
  0
STYLE
  5
39
330
3
100
AcDbSymbolTableRecord
100
AcDbTextStyleTableRecord
  2
ＭＳ ゴシック
 70
     0
 40
0.0
 41
1.0
 50
0.0
 71
     0
 42
2.5
  3
msgothic.ttc
  4
ＭＳ ゴシック
1001
ACAD
1000
ＭＳ ゴシック
1071
        0
  0
STYLE
  5
384
330
3
100
AcDbSymbolTableRecord
100
AcDbTextStyleTableRecord
  2
ARIAL
 70
     0
 40
0.0
 41
1.0
 50
0.0
 71
     0
 42
12.0
  3
ARIAL.TTF
  4

1001
ACAD
1000
Arial
1071
       34
  0
STYLE
  5
385
330
3
100
AcDbSymbolTableRecord
100
AcDbTextStyleTableRecord
  2
ROMANS
 70
     0
 40
0.0
 41
1.0
 50
0.0
 71
     0
 42
5.0
  3
romans.shx
  4

  0
STYLE
  5
1631
330
3
100
AcDbSymbolTableRecord
100
AcDbTextStyleTableRecord
  2
SLDTEXTSTYLE1
 70
     0
 40
0.0
 41
0.4899999999999999
 50
0.0
 71
     0
 42
2.5
  3
TXT
  4

  0
STYLE
  5
1633
330
3
100
AcDbSymbolTableRecord
100
AcDbTextStyleTableRecord
  2
SLDTEXTSTYLE3
 70
     0
 40
0.0
 41
0.7
 50
0.0
 71
     0
 42
2.5
  3
TXT
  4

  0
STYLE
  5
1A53
330
3
100
AcDbSymbolTableRecord
100
AcDbTextStyleTableRecord
  2
SLDTEXTSTYLE0
 70
     0
 40
0.0
 41
0.75
 50
0.0
 71
     0
 42
2.5
  3
TXT
  4

  0
ENDTAB
  0
TABLE
  2
VIEW
  5
5
330
0
100
AcDbSymbolTable
 70
     0
  0
ENDTAB
  0
TABLE
  2
UCS
  5
6
330
0
100
AcDbSymbolTable
 70
     0
  0
ENDTAB
  0
TABLE
  2
APPID
  5
8
330
0
100
AcDbSymbolTable
 70
     3
  0
APPID
  5
16
330
8
100
AcDbSymbolTableRecord
100
AcDbRegAppTableRecord
  2
ACAD
 70
     0
  0
APPID
  5
7AC
330
8
100
AcDbSymbolTableRecord
100
AcDbRegAppTableRecord
  2
AcAecLayerStandard
 70
     0
  0
APPID
  5
E29
330
8
100
AcDbSymbolTableRecord
100
AcDbRegAppTableRecord
  2
ACAD_MLEADERVER
 70
     0
  0
ENDTAB
  0
TABLE
  2
DIMSTYLE
  5
9
330
0
100
AcDbSymbolTable
 70
     8
100
AcDbDimStyleTable
  0
DIMSTYLE
105
18
330
9
100
AcDbSymbolTableRecord
100
AcDbDimStyleTableRecord
  2
Standard
 70
     0
178
     0
340
17
  0
DIMSTYLE
105
56
330
9
100
AcDbSymbolTableRecord
100
AcDbDimStyleTableRecord
  2
tform線あり
 70
     0
  3
<>
  4
[]
 41
9.999389648437498
 42
25.0
 43
0.9999999999999999
 44
0.0
 73
     0
 74
     0
 77
     1
 78
    11
140
24.4326171875
141
0.0
143
1.0
146
0.8
147
0.4999999999999999
171
     1
172
     1
174
     1
178
     0
179
     2
271
     1
272
     1
276
     2
284
    11
285
    11
286
    11
289
     0
340
39
341
4E
342
4E
  0
DIMSTYLE
105
57
102
{ACAD_REACTORS
330
20E3
330
20E4
330
2410
330
2411
330
2412
330
2413
330
252B
102
}
330
9
100
AcDbSymbolTableRecord
100
AcDbDimStyleTableRecord
  2
tfrom線あり
 70
     0
  3
<>
  4
[]
 41
3.0
 42
10.0
 43
0.9999999999999999
 44
0.0
 73
     0
 74
     0
 77
     1
 78
    11
140
7.0
141
0.0
143
1.0
147
3.0
171
     1
174
     1
178
     0
179
     2
271
     0
272
     1
276
     2
284
    11
285
    11
286
    11
289
     0
340
39
341
4E
342
4E
  0
DIMSTYLE
105
5C
330
9
100
AcDbSymbolTableRecord
100
AcDbDimStyleTableRecord
  2
JIS
 70
     0
  3
<>
  4
[]
 41
9.0
 42
0.0
 43
6.99999999999994
 44
19.9999999999962
 73
     0
 74
     0
 77
     1
 78
    11
140
24.4326171875
141
0.0
143
1.0
147
10.0
171
     1
174
     1
178
     0
179
     2
271
     1
272
     1
276
     2
284
    11
285
    11
286
    11
289
     0
340
39
341
4E
342
4E
  0
DIMSTYLE
105
383
330
9
100
AcDbSymbolTableRecord
100
AcDbDimStyleTableRecord
  2
ARIAL
 70
     0
 41
10.0
 42
3.0
 43
0.5
 44
3.0
 73
     0
 74
     0
 77
     1
 78
     8
140
12.0
141
0.0
146
0.5
147
4.0
171
     1
172
     1
178
     0
271
     1
289
     0
340
384
  0
DIMSTYLE
105
162E
330
9
100
AcDbSymbolTableRecord
100
AcDbDimStyleTableRecord
  2
ISO-25
 70
     0
 41
2.5
 42
0.625
 43
3.75
 44
1.25
 73
     0
 74
     0
 77
     1
 78
     8
140
2.5
141
2.5
143
0.03937007874016
147
0.625
171
     3
172
     1
178
     0
271
     2
272
     2
274
     3
278
    44
283
     0
284
     8
340
17
  0
DIMSTYLE
105
1630
330
9
100
AcDbSymbolTableRecord
100
AcDbDimStyleTableRecord
  2
SLDDIMSTYLE0
 70
     0
 41
3.5
 44
0.0
 45
0.000000001
 73
     0
 74
     0
 77
     2
 78
    12
 79
     3
140
3.5
144
5.0
147
0.875
173
     1
178
     0
271
     2
272
     2
276
     2
284
    12
340
1631
  0
DIMSTYLE
105
1632
330
9
100
AcDbSymbolTableRecord
100
AcDbDimStyleTableRecord
  2
SLDDIMSTYLE1
 70
     0
 41
3.5
 44
0.0
 45
0.000000001
 73
     0
 74
     0
 77
     2
 78
    12
 79
     3
140
3.5
144
5.0
147
0.875
173
     1
178
     0
271
     0
272
     0
276
     2
284
    12
340
1631
  0
ENDTAB
  0
TABLE
  2
BLOCK_RECORD
  5
1
330
0
100
AcDbSymbolTable
 70
   106
  0
BLOCK_RECORD
  5
A
330
1
100
AcDbSymbolTableRecord
100
AcDbBlockTableRecord
  2
*MODEL_SPACE
340
20
 70
     0
280
     1
281
     0
  0
BLOCK_RECORD
  5
B
330
1
100
AcDbSymbolTableRecord
100
AcDbBlockTableRecord
  2
*PAPER_SPACE
340
21
 70
     0
280
     1
281
     0
  0
BLOCK_RECORD
  5
4E
330
1
100
AcDbSymbolTableRecord
100
AcDbBlockTableRecord
  2
_DOT
340
0
102
{BLKREFS
331
D96
331
D97
331
DA5
331
DA6
331
E53
331
E54
331
1200
331
1201
331
124E
331
124F
331
125D
331
125E
331
1270
331
1271
331
1281
331
1282
331
1290
331
1291
331
129D
331
129E
331
12AA
331
12AB
331
12B7
331
12B8
331
12C4
331
12C5
331
12D1
331
12D2
331
12E0
331
12E1
331
12F9
331
12FA
331
1308
331
1309
331
1315
331
1316
331
1322
331
1323
331
13ED
331
13EE
331
13F9
331
13FA
331
1405
331
1406
331
1411
331
1412
331
141E
331
141F
331
142A
331
142B
331
1436
331
1437
331
1442
331
1443
331
144E
331
144F
331
145A
331
145B
331
1466
331
1467
331
1472
331
1473
331
147E
331
147F
331
148A
331
148B
331
1496
331
1497
331
14A2
331
14A3
331
15D9
331
15DA
331
1606
331
1607
331
1733
331
1734
331
173F
331
1740
331
174B
331
174C
331
1795
331
1796
331
17AA
331
17AB
331
17CF
331
17D0
331
17DF
331
17E0
331
17EF
331
17F0
331
17FF
331
1800
331
1814
331
1815
331
1870
331
1871
331
1EB2
331
1EB3
331
1EBE
331
1EBF
331
1ECA
331
1ECB
331
1ED8
331
1ED9
331
1EE4
331
1EE5
331
1EF2
331
1EF3
331
1EFE
331
1EFF
331
1F16
331
1F17
331
1F25
331
1F26
331
1F3B
331
1F3C
331
2164
331
2165
331
2170
331
2171
331
217C
331
217D
331
218A
331
218B
331
2196
331
2197
331
21A2
331
21A3
331
21B0
331
21B1
331
21E1
331
21E2
331
21F0
331
21F1
331
21FD
331
21FE
331
22C3
331
22C4
331
2327
331
2328
331
2334
331
2335
331
2341
331
2342
331
2350
331
2351
331
235F
331
2360
331
244F
331
2450
331
245B
331
245C
331
2467
331
2468
331
2473
331
2474
331
247F
331
2480
331
248B
331
248C
331
249B
331
249C
331
2521
331
2522
331
2534
331
2535
102
}
 70
     0
280
     1
281
     0
  0
BLOCK_RECORD
  5
68A
330
1
100
AcDbSymbolTableRecord
100
AcDbBlockTableRecord
  2
名称未設定-1
340
0
102
{BLKREFS
331
21CB
102
}
 70
     1
280
     1
281
     0
  0
BLOCK_RECORD
  5
68D
330
1
100
AcDbSymbolTableRecord
100
AcDbBlockTableRecord
  2
block 2
340
0
102
{BLKREFS
331
68C
331
1343
102
}
 70
     0
280
     1
281
     0
  0
BLOCK_RECORD
  5
690
330
1
100
AcDbSymbolTableRecord
100
AcDbBlockTableRecord
  2
block 3
340
0
102
{BLKREFS
331
68F
102
}
 70
     0
280
     1
281
     0
  0
BLOCK_RECORD
  5
693
330
1
100
AcDbSymbolTableRecord
100
AcDbBlockTableRecord
  2
block 4
340
0
102
{BLKREFS
331
692
102
}
 70
     0
280
     1
281
     0
  0
BLOCK_RECORD
  5
6A2
330
1
100
AcDbSymbolTableRecord
100
AcDbBlockTableRecord
  2
block 5
340
0
102
{BLKREFS
331
6A1
102
}
 70
     0
280
     1
281
     0
  0
BLOCK_RECORD
  5
D90
330
1
100
AcDbSymbolTableRecord
100
AcDbBlockTableRecord
  2
*D6
340
0
 70
     0
280
     1
281
     0
  0
BLOCK_RECORD
  5
D9F
330
1
100
AcDbSymbolTableRecord
100
AcDbBlockTableRecord
  2
*D7
340
0
 70
     0
280
     1
281
     0
  0
BLOCK_RECORD
  5
E4D
330
1
100
AcDbSymbolTableRecord
100
AcDbBlockTableRecord
  2
*D8
340
0
 70
     0
280
     1
281
     0
  0
BLOCK_RECORD
  5
11FC
330
1
100
AcDbSymbolTableRecord
100
AcDbBlockTableRecord
  2
*D9
340
0
 70
     0
280
     1
281
     0
  0
BLOCK_RECORD
  5
1249
330
1
100
AcDbSymbolTableRecord
100
AcDbBlockTableRecord
  2
*D10
340
0
 70
     0
280
     1
281
     0
  0
BLOCK_RECORD
  5
1258
330
1
100
AcDbSymbolTableRecord
100
AcDbBlockTableRecord
  2
*D11
340
0
 70
     0
280
     1
281
     0
  0
BLOCK_RECORD
  5
126A
330
1
100
AcDbSymbolTableRecord
100
AcDbBlockTableRecord
  2
*D12
340
0
 70
     0
280
     1
281
     0
  0
BLOCK_RECORD
  5
127C
330
1
100
AcDbSymbolTableRecord
100
AcDbBlockTableRecord
  2
*D13
340
0
 70
     0
280
     1
281
     0
  0
BLOCK_RECORD
  5
128B
330
1
100
AcDbSymbolTableRecord
100
AcDbBlockTableRecord
  2
*D14
340
0
 70
     0
280
     1
281
     0
  0
BLOCK_RECORD
  5
1298
330
1
100
AcDbSymbolTableRecord
100
AcDbBlockTableRecord
  2
*D15
340
0
 70
     0
280
     1
281
     0
  0
BLOCK_RECORD
  5
12A5
330
1
100
AcDbSymbolTableRecord
100
AcDbBlockTableRecord
  2
*D16
340
0
 70
     0
280
     1
281
     0
  0
BLOCK_RECORD
  5
12B2
330
1
100
AcDbSymbolTableRecord
100
AcDbBlockTableRecord
  2
*D17
340
0
 70
     0
280
     1
281
     0
  0
BLOCK_RECORD
  5
12BF
330
1
100
AcDbSymbolTableRecord
100
AcDbBlockTableRecord
  2
*D18
340
0
 70
     0
280
     1
281
     0
  0
BLOCK_RECORD
  5
12CC
330
1
100
AcDbSymbolTableRecord
100
AcDbBlockTableRecord
  2
*D19
340
0
 70
     0
280
     1
281
     0
  0
BLOCK_RECORD
  5
12DB
330
1
100
AcDbSymbolTableRecord
100
AcDbBlockTableRecord
  2
*D20
340
0
 70
     0
280
     1
281
     0
  0
BLOCK_RECORD
  5
12F4
330
1
100
AcDbSymbolTableRecord
100
AcDbBlockTableRecord
  2
*D21
340
0
 70
     0
280
     1
281
     0
  0
BLOCK_RECORD
  5
1303
330
1
100
AcDbSymbolTableRecord
100
AcDbBlockTableRecord
  2
*D22
340
0
 70
     0
280
     1
281
     0
  0
BLOCK_RECORD
  5
1310
330
1
100
AcDbSymbolTableRecord
100
AcDbBlockTableRecord
  2
*D23
340
0
 70
     0
280
     1
281
     0
  0
BLOCK_RECORD
  5
131D
330
1
100
AcDbSymbolTableRecord
100
AcDbBlockTableRecord
  2
*D24
340
0
 70
     0
280
     1
281
     0
  0
BLOCK_RECORD
  5
13E8
330
1
100
AcDbSymbolTableRecord
100
AcDbBlockTableRecord
  2
*D25
340
0
 70
     0
280
     1
281
     0
  0
BLOCK_RECORD
  5
13F3
330
1
100
AcDbSymbolTableRecord
100
AcDbBlockTableRecord
  2
*D26
340
0
 70
     0
280
     1
281
     0
  0
BLOCK_RECORD
  5
13FF
330
1
100
AcDbSymbolTableRecord
100
AcDbBlockTableRecord
  2
*D27
340
0
 70
     0
280
     1
281
     0
  0
BLOCK_RECORD
  5
140B
330
1
100
AcDbSymbolTableRecord
100
AcDbBlockTableRecord
  2
*D28
340
0
 70
     0
280
     1
281
     0
  0
BLOCK_RECORD
  5
1418
330
1
100
AcDbSymbolTableRecord
100
AcDbBlockTableRecord
  2
*D29
340
0
 70
     0
280
     1
281
     0
  0
BLOCK_RECORD
  5
1424
330
1
100
AcDbSymbolTableRecord
100
AcDbBlockTableRecord
  2
*D30
340
0
 70
     0
280
     1
281
     0
  0
BLOCK_RECORD
  5
1430
330
1
100
AcDbSymbolTableRecord
100
AcDbBlockTableRecord
  2
*D31
340
0
 70
     0
280
     1
281
     0
  0
BLOCK_RECORD
  5
143C
330
1
100
AcDbSymbolTableRecord
100
AcDbBlockTableRecord
  2
*D32
340
0
 70
     0
280
     1
281
     0
  0
BLOCK_RECORD
  5
1448
330
1
100
AcDbSymbolTableRecord
100
AcDbBlockTableRecord
  2
*D33
340
0
 70
     0
280
     1
281
     0
  0
BLOCK_RECORD
  5
1454
330
1
100
AcDbSymbolTableRecord
100
AcDbBlockTableRecord
  2
*D34
340
0
 70
     0
280
     1
281
     0
  0
BLOCK_RECORD
  5
1460
330
1
100
AcDbSymbolTableRecord
100
AcDbBlockTableRecord
  2
*D35
340
0
 70
     0
280
     1
281
     0
  0
BLOCK_RECORD
  5
146C
330
1
100
AcDbSymbolTableRecord
100
AcDbBlockTableRecord
  2
*D36
340
0
 70
     0
280
     1
281
     0
  0
BLOCK_RECORD
  5
1478
330
1
100
AcDbSymbolTableRecord
100
AcDbBlockTableRecord
  2
*D37
340
0
 70
     0
280
     1
281
     0
  0
BLOCK_RECORD
  5
1484
330
1
100
AcDbSymbolTableRecord
100
AcDbBlockTableRecord
  2
*D38
340
0
 70
     0
280
     1
281
     0
  0
BLOCK_RECORD
  5
1490
330
1
100
AcDbSymbolTableRecord
100
AcDbBlockTableRecord
  2
*D39
340
0
 70
     0
280
     1
281
     0
  0
BLOCK_RECORD
  5
149C
330
1
100
AcDbSymbolTableRecord
100
AcDbBlockTableRecord
  2
*D40
340
0
 70
     0
280
     1
281
     0
  0
BLOCK_RECORD
  5
15D3
330
1
100
AcDbSymbolTableRecord
100
AcDbBlockTableRecord
  2
*D41
340
0
 70
     0
280
     1
281
     0
  0
BLOCK_RECORD
  5
15FF
330
1
100
AcDbSymbolTableRecord
100
AcDbBlockTableRecord
  2
*D42
340
0
 70
     0
280
     1
281
     0
  0
BLOCK_RECORD
  5
1665
330
1
100
AcDbSymbolTableRecord
100
AcDbBlockTableRecord
  2
*D43
340
0
 70
     0
280
     1
281
     0
  0
BLOCK_RECORD
  5
16B0
330
1
100
AcDbSymbolTableRecord
100
AcDbBlockTableRecord
  2
*D44
340
0
 70
     0
280
     1
281
     0
  0
BLOCK_RECORD
  5
16BB
330
1
100
AcDbSymbolTableRecord
100
AcDbBlockTableRecord
  2
*D45
340
0
 70
     0
280
     1
281
     0
  0
BLOCK_RECORD
  5
172D
330
1
100
AcDbSymbolTableRecord
100
AcDbBlockTableRecord
  2
*D46
340
0
 70
     0
280
     1
281
     0
  0
BLOCK_RECORD
  5
1739
330
1
100
AcDbSymbolTableRecord
100
AcDbBlockTableRecord
  2
*D47
340
0
 70
     0
280
     1
281
     0
  0
BLOCK_RECORD
  5
1745
330
1
100
AcDbSymbolTableRecord
100
AcDbBlockTableRecord
  2
*D48
340
0
 70
     0
280
     1
281
     0
  0
BLOCK_RECORD
  5
178F
330
1
100
AcDbSymbolTableRecord
100
AcDbBlockTableRecord
  2
*D49
340
0
 70
     0
280
     1
281
     0
  0
BLOCK_RECORD
  5
17A4
330
1
100
AcDbSymbolTableRecord
100
AcDbBlockTableRecord
  2
*D50
340
0
 70
     0
280
     1
281
     0
  0
BLOCK_RECORD
  5
17C8
330
1
100
AcDbSymbolTableRecord
100
AcDbBlockTableRecord
  2
*D51
340
0
 70
     0
280
     1
281
     0
  0
BLOCK_RECORD
  5
17D8
330
1
100
AcDbSymbolTableRecord
100
AcDbBlockTableRecord
  2
*D52
340
0
 70
     0
280
     1
281
     0
  0
BLOCK_RECORD
  5
17E8
330
1
100
AcDbSymbolTableRecord
100
AcDbBlockTableRecord
  2
*D53
340
0
 70
     0
280
     1
281
     0
  0
BLOCK_RECORD
  5
17F9
330
1
100
AcDbSymbolTableRecord
100
AcDbBlockTableRecord
  2
*D54
340
0
 70
     0
280
     1
281
     0
  0
BLOCK_RECORD
  5
180E
330
1
100
AcDbSymbolTableRecord
100
AcDbBlockTableRecord
  2
*D55
340
0
 70
     0
280
     1
281
     0
  0
BLOCK_RECORD
  5
186A
330
1
100
AcDbSymbolTableRecord
100
AcDbBlockTableRecord
  2
*D56
340
0
 70
     0
280
     1
281
     0
  0
BLOCK_RECORD
  5
1D4A
330
1
100
AcDbSymbolTableRecord
100
AcDbBlockTableRecord
  2
*D57
340
0
 70
     0
280
     1
281
     0
  0
BLOCK_RECORD
  5
1D54
330
1
100
AcDbSymbolTableRecord
100
AcDbBlockTableRecord
  2
*D58
340
0
 70
     0
280
     1
281
     0
  0
BLOCK_RECORD
  5
1DB8
330
1
100
AcDbSymbolTableRecord
100
AcDbBlockTableRecord
  2
*D59
340
0
 70
     0
280
     1
281
     0
  0
BLOCK_RECORD
  5
1DC2
330
1
100
AcDbSymbolTableRecord
100
AcDbBlockTableRecord
  2
*D60
340
0
 70
     0
280
     1
281
     0
  0
BLOCK_RECORD
  5
1DCC
330
1
100
AcDbSymbolTableRecord
100
AcDbBlockTableRecord
  2
*D61
340
0
 70
     0
280
     1
281
     0
  0
BLOCK_RECORD
  5
1DD8
330
1
100
AcDbSymbolTableRecord
100
AcDbBlockTableRecord
  2
*D62
340
0
 70
     0
280
     1
281
     0
  0
BLOCK_RECORD
  5
1DE0
330
1
100
AcDbSymbolTableRecord
100
AcDbBlockTableRecord
  2
*D63
340
0
 70
     0
280
     1
281
     0
  0
BLOCK_RECORD
  5
1EAC
330
1
100
AcDbSymbolTableRecord
100
AcDbBlockTableRecord
  2
*D64
340
0
 70
     0
280
     1
281
     0
  0
BLOCK_RECORD
  5
1EB8
330
1
100
AcDbSymbolTableRecord
100
AcDbBlockTableRecord
  2
*D65
340
0
 70
     0
280
     1
281
     0
  0
BLOCK_RECORD
  5
1EC4
330
1
100
AcDbSymbolTableRecord
100
AcDbBlockTableRecord
  2
*D66
340
0
 70
     0
280
     1
281
     0
  0
BLOCK_RECORD
  5
1ED0
330
1
100
AcDbSymbolTableRecord
100
AcDbBlockTableRecord
  2
*D67
340
0
 70
     0
280
     1
281
     0
  0
BLOCK_RECORD
  5
1EDE
330
1
100
AcDbSymbolTableRecord
100
AcDbBlockTableRecord
  2
*D68
340
0
 70
     0
280
     1
281
     0
  0
BLOCK_RECORD
  5
1EEC
330
1
100
AcDbSymbolTableRecord
100
AcDbBlockTableRecord
  2
*D69
340
0
 70
     0
280
     1
281
     0
  0
BLOCK_RECORD
  5
1EF8
330
1
100
AcDbSymbolTableRecord
100
AcDbBlockTableRecord
  2
*D70
340
0
 70
     0
280
     1
281
     0
  0
BLOCK_RECORD
  5
1F0F
330
1
100
AcDbSymbolTableRecord
100
AcDbBlockTableRecord
  2
*D71
340
0
 70
     0
280
     1
281
     0
  0
BLOCK_RECORD
  5
1F1F
330
1
100
AcDbSymbolTableRecord
100
AcDbBlockTableRecord
  2
*D72
340
0
 70
     0
280
     1
281
     0
  0
BLOCK_RECORD
  5
1F35
330
1
100
AcDbSymbolTableRecord
100
AcDbBlockTableRecord
  2
*D73
340
0
 70
     0
280
     1
281
     0
  0
BLOCK_RECORD
  5
200A
330
1
100
AcDbSymbolTableRecord
100
AcDbBlockTableRecord
  2
*D74
340
0
 70
     0
280
     1
281
     0
  0
BLOCK_RECORD
  5
2014
330
1
100
AcDbSymbolTableRecord
100
AcDbBlockTableRecord
  2
*D75
340
0
 70
     0
280
     1
281
     0
  0
BLOCK_RECORD
  5
207B
330
1
100
AcDbSymbolTableRecord
100
AcDbBlockTableRecord
  2
*D76
340
0
 70
     0
280
     1
281
     0
  0
BLOCK_RECORD
  5
2085
330
1
100
AcDbSymbolTableRecord
100
AcDbBlockTableRecord
  2
*D77
340
0
 70
     0
280
     1
281
     0
  0
BLOCK_RECORD
  5
2091
330
1
100
AcDbSymbolTableRecord
100
AcDbBlockTableRecord
  2
*D78
340
0
 70
     0
280
     1
281
     0
  0
BLOCK_RECORD
  5
2099
330
1
100
AcDbSymbolTableRecord
100
AcDbBlockTableRecord
  2
*D79
340
0
 70
     0
280
     1
281
     0
  0
BLOCK_RECORD
  5
20A3
330
1
100
AcDbSymbolTableRecord
100
AcDbBlockTableRecord
  2
*D80
340
0
 70
     0
280
     1
281
     0
  0
BLOCK_RECORD
  5
215E
330
1
100
AcDbSymbolTableRecord
100
AcDbBlockTableRecord
  2
*D81
340
0
 70
     0
280
     1
281
     0
  0
BLOCK_RECORD
  5
216A
330
1
100
AcDbSymbolTableRecord
100
AcDbBlockTableRecord
  2
*D82
340
0
 70
     0
280
     1
281
     0
  0
BLOCK_RECORD
  5
2176
330
1
100
AcDbSymbolTableRecord
100
AcDbBlockTableRecord
  2
*D83
340
0
 70
     0
280
     1
281
     0
  0
BLOCK_RECORD
  5
2182
330
1
100
AcDbSymbolTableRecord
100
AcDbBlockTableRecord
  2
*D84
340
0
 70
     0
280
     1
281
     0
  0
BLOCK_RECORD
  5
2190
330
1
100
AcDbSymbolTableRecord
100
AcDbBlockTableRecord
  2
*D85
340
0
 70
     0
280
     1
281
     0
  0
BLOCK_RECORD
  5
219C
330
1
100
AcDbSymbolTableRecord
100
AcDbBlockTableRecord
  2
*D86
340
0
 70
     0
280
     1
281
     0
  0
BLOCK_RECORD
  5
21AA
330
1
100
AcDbSymbolTableRecord
100
AcDbBlockTableRecord
  2
*D87
340
0
 70
     0
280
     1
281
     0
  0
BLOCK_RECORD
  5
21DB
330
1
100
AcDbSymbolTableRecord
100
AcDbBlockTableRecord
  2
*D88
340
0
 70
     0
280
     1
281
     0
  0
BLOCK_RECORD
  5
21EA
330
1
100
AcDbSymbolTableRecord
100
AcDbBlockTableRecord
  2
*D89
340
0
 70
     0
280
     1
281
     0
  0
BLOCK_RECORD
  5
21F7
330
1
100
AcDbSymbolTableRecord
100
AcDbBlockTableRecord
  2
*D90
340
0
 70
     0
280
     1
281
     0
  0
BLOCK_RECORD
  5
22BE
330
1
100
AcDbSymbolTableRecord
100
AcDbBlockTableRecord
  2
*D91
340
0
 70
     0
280
     1
281
     0
  0
BLOCK_RECORD
  5
2322
330
1
100
AcDbSymbolTableRecord
100
AcDbBlockTableRecord
  2
*D92
340
0
 70
     0
280
     1
281
     0
  0
BLOCK_RECORD
  5
232F
330
1
100
AcDbSymbolTableRecord
100
AcDbBlockTableRecord
  2
*D93
340
0
 70
     0
280
     1
281
     0
  0
BLOCK_RECORD
  5
233C
330
1
100
AcDbSymbolTableRecord
100
AcDbBlockTableRecord
  2
*D94
340
0
 70
     0
280
     1
281
     0
  0
BLOCK_RECORD
  5
234B
330
1
100
AcDbSymbolTableRecord
100
AcDbBlockTableRecord
  2
*D95
340
0
 70
     0
280
     1
281
     0
  0
BLOCK_RECORD
  5
235A
330
1
100
AcDbSymbolTableRecord
100
AcDbBlockTableRecord
  2
*D96
340
0
 70
     0
280
     1
281
     0
  0
BLOCK_RECORD
  5
2449
330
1
100
AcDbSymbolTableRecord
100
AcDbBlockTableRecord
  2
*D97
340
0
 70
     0
280
     1
281
     0
  0
BLOCK_RECORD
  5
2455
330
1
100
AcDbSymbolTableRecord
100
AcDbBlockTableRecord
  2
*D98
340
0
 70
     0
280
     1
281
     0
  0
BLOCK_RECORD
  5
2461
330
1
100
AcDbSymbolTableRecord
100
AcDbBlockTableRecord
  2
*D99
340
0
 70
     0
280
     1
281
     0
  0
BLOCK_RECORD
  5
246D
330
1
100
AcDbSymbolTableRecord
100
AcDbBlockTableRecord
  2
*D100
340
0
 70
     0
280
     1
281
     0
  0
BLOCK_RECORD
  5
2479
330
1
100
AcDbSymbolTableRecord
100
AcDbBlockTableRecord
  2
*D101
340
0
 70
     0
280
     1
281
     0
  0
BLOCK_RECORD
  5
2485
330
1
100
AcDbSymbolTableRecord
100
AcDbBlockTableRecord
  2
*D102
340
0
 70
     0
280
     1
281
     0
  0
BLOCK_RECORD
  5
2495
330
1
100
AcDbSymbolTableRecord
100
AcDbBlockTableRecord
  2
*D103
340
0
 70
     0
280
     1
281
     0
  0
BLOCK_RECORD
  5
251C
330
1
100
AcDbSymbolTableRecord
100
AcDbBlockTableRecord
  2
*D104
340
0
 70
     0
280
     1
281
     0
  0
BLOCK_RECORD
  5
252E
330
1
100
AcDbSymbolTableRecord
100
AcDbBlockTableRecord
  2
*D105
340
0
 70
     0
280
     1
281
     0
  0
ENDTAB
  0
ENDSEC
  0
SECTION
  2
BLOCKS
  0
BLOCK
  5
D
330
A
100
AcDbEntity
  8
0
390
1D
100
AcDbBlockBegin
  2
*MODEL_SPACE
 70
     0
 10
0.0
 20
0.0
 30
0.0
  3
*MODEL_SPACE
  1
*MODEL_SPACE
  0
ENDBLK
  5
E
330
A
100
AcDbEntity
  8
0
390
1D
100
AcDbBlockEnd
  0
BLOCK
  5
F
330
B
100
AcDbEntity
 67
     1
  8
0
390
1D
100
AcDbBlockBegin
  2
*PAPER_SPACE
 70
     0
 10
0.0
 20
0.0
 30
0.0
  3
*PAPER_SPACE
  1
*PAPER_SPACE
  0
ENDBLK
  5
10
330
B
100
AcDbEntity
 67
     1
  8
0
390
1D
100
AcDbBlockEnd
  0
BLOCK
  5
2215
330
4E
100
AcDbEntity
  8
0
390
1D
100
AcDbBlockBegin
  2
_DOT
 70
     0
 10
0.0
 20
0.0
 30
0.0
  3
_DOT
  1
_DOT
  0
POLYLINE
  5
2217
330
4E
100
AcDbEntity
  8
0
  6
ByBlock
 62
     0
370
    -2
390
1D
100
AcDb2dPolyline
 66
     1
 10
0.0
 20
0.0
 30
0.0
 70
     1
 40
0.5
 41
0.5
  0
VERTEX
  5
2218
330
2217
100
AcDbEntity
  8
0
  6
ByBlock
 62
     0
370
    -2
390
1D
100
AcDbVertex
100
AcDb2dVertex
 10
-0.25
 20
0.0
 30
0.0
 42
1.0
  0
VERTEX
  5
2219
330
2217
100
AcDbEntity
  8
0
  6
ByBlock
 62
     0
370
    -2
390
1D
100
AcDbVertex
100
AcDb2dVertex
 10
0.25
 20
0.0
 30
0.0
 42
1.0
  0
SEQEND
  5
221A
330
2217
100
AcDbEntity
  8
0
390
1D
  0
LINE
  5
221B
330
4E
100
AcDbEntity
  8
0
  6
ByBlock
 62
     0
370
    -2
390
1D
100
AcDbLine
 10
-0.5
 20
0.0
 30
0.0
 11
-1.0
 21
0.0
 31
0.0
  0
ENDBLK
  5
221C
330
4E
100
AcDbEntity
  8
0
390
1D
100
AcDbBlockEnd
  0
BLOCK
  5
68B
330
68A
100
AcDbEntity
  8
0
100
AcDbBlockBegin
  2
名称未設定-1
 70
     0
 10
0.0
 20
0.0
 30
0.0
  3
名称未設定-1
  1
名称未設定-1
  0
INSERT
  5
68F
330
68A
100
AcDbEntity
  8
LOGO
100
AcDbBlockReference
  2
block 3
 10
0.0
 20
0.0
 30
0.0
  0
ENDBLK
  5
6B1
330
68A
100
AcDbEntity
  8
0
100
AcDbBlockEnd
  0
BLOCK
  5
68E
330
68D
100
AcDbEntity
  8
0
100
AcDbBlockBegin
  2
block 2
 70
     0
 10
0.0
 20
0.0
 30
0.0
  3
block 2
  1
block 2
  0
ENDBLK
  5
6B0
330
68D
100
AcDbEntity
  8
0
100
AcDbBlockEnd
  0
BLOCK
  5
691
330
690
100
AcDbEntity
  8
0
100
AcDbBlockBegin
  2
block 3
 70
     0
 10
0.0
 20
0.0
 30
0.0
  3
block 3
  1
block 3
  0
INSERT
  5
692
330
690
100
AcDbEntity
  8
LOGO
100
AcDbBlockReference
  2
block 4
 10
0.0
 20
0.0
 30
0.0
  0
INSERT
  5
6A1
330
690
100
AcDbEntity
  8
LOGO
100
AcDbBlockReference
  2
block 5
 10
0.0
 20
0.0
 30
0.0
  0
ENDBLK
  5
6AF
330
690
100
AcDbEntity
  8
0
100
AcDbBlockEnd
  0
BLOCK
  5
694
330
693
100
AcDbEntity
  8
0
100
AcDbBlockBegin
  2
block 4
 70
     0
 10
0.0
 20
0.0
 30
0.0
  3
block 4
  1
block 4
  0
POLYLINE
  5
695
330
693
100
AcDbEntity
  8
LOGO
370
     0
100
AcDb2dPolyline
 66
     1
 10
0.0
 20
0.0
 30
0.0
  0
VERTEX
  5
696
330
695
100
AcDbEntity
  8
LOGO
370
     0
100
AcDbVertex
100
AcDb2dVertex
 10
83.79545727667795
 20
167.6444858234922
 30
0.0
  0
VERTEX
  5
697
330
695
100
AcDbEntity
  8
LOGO
370
     0
100
AcDbVertex
100
AcDb2dVertex
 10
83.79545727667795
 20
159.7968976406313
 30
0.0
  0
VERTEX
  5
698
330
695
100
AcDbEntity
  8
LOGO
370
     0
100
AcDbVertex
100
AcDb2dVertex
 10
71.3631329975216
 20
159.7968976406313
 30
0.0
  0
VERTEX
  5
699
330
695
100
AcDbEntity
  8
LOGO
370
     0
100
AcDbVertex
100
AcDb2dVertex
 10
71.3631329975216
 20
127.8027915271048
 30
0.0
  0
VERTEX
  5
69A
330
695
100
AcDbEntity
  8
LOGO
370
     0
100
AcDbVertex
100
AcDb2dVertex
 10
60.43011526263018
 20
127.8027915271048
 30
0.0
  0
VERTEX
  5
69B
330
695
100
AcDbEntity
  8
LOGO
370
     0
100
AcDbVertex
100
AcDb2dVertex
 10
60.43011526263018
 20
159.7968976406313
 30
0.0
  0
VERTEX
  5
69C
330
695
100
AcDbEntity
  8
LOGO
370
     0
100
AcDbVertex
100
AcDb2dVertex
 10
48.21793273020759
 20
159.7968976406313
 30
0.0
  0
VERTEX
  5
69D
330
695
100
AcDbEntity
  8
LOGO
370
     0
100
AcDbVertex
100
AcDb2dVertex
 10
48.21793273020759
 20
167.6444858234922
 30
0.0
  0
VERTEX
  5
69E
330
695
100
AcDbEntity
  8
LOGO
370
     0
100
AcDbVertex
100
AcDb2dVertex
 10
83.79545727667795
 20
167.6444858234922
 30
0.0
  0
SEQEND
  5
69F
330
695
100
AcDbEntity
  8
LOGO
370
     0
  0
HATCH
  5
6A0
330
693
100
AcDbEntity
  8
LOGO
 62
   250
420
  2234388
100
AcDbHatch
 10
0.0
 20
0.0
 30
0.0
210
0.0
220
0.0
230
1.0
  2
SOLID
 70
     1
 71
     0
 91
        1
 92
        1
 93
        8
 72
     1
 10
83.79545727667795
 20
167.6444858234922
 11
83.79545727667795
 21
159.7968976406313
 72
     1
 10
83.79545727667795
 20
159.7968976406313
 11
71.3631329975216
 21
159.7968976406313
 72
     1
 10
71.3631329975216
 20
159.7968976406313
 11
71.3631329975216
 21
127.8027915271048
 72
     1
 10
71.3631329975216
 20
127.8027915271048
 11
60.43011526263018
 21
127.8027915271048
 72
     1
 10
60.43011526263018
 20
127.8027915271048
 11
60.43011526263018
 21
159.7968976406313
 72
     1
 10
60.43011526263018
 20
159.7968976406313
 11
48.21793273020759
 21
159.7968976406313
 72
     1
 10
48.21793273020759
 20
159.7968976406313
 11
48.21793273020759
 21
167.6444858234922
 72
     1
 10
48.21793273020759
 20
167.6444858234922
 11
83.79545727667795
 21
167.6444858234922
 97
        0
 75
     2
 76
     1
 98
        0
  0
ENDBLK
  5
6AE
330
693
100
AcDbEntity
  8
0
100
AcDbBlockEnd
  0
BLOCK
  5
6A3
330
6A2
100
AcDbEntity
  8
0
100
AcDbBlockBegin
  2
block 5
 70
     0
 10
0.0
 20
0.0
 30
0.0
  3
block 5
  1
block 5
  0
SPLINE
  5
6A4
330
6A2
100
AcDbEntity
  8
LOGO
370
     0
100
AcDbSpline
210
0.0
220
0.0
230
1.0
 70
    11
 71
     3
 72
    56
 73
    52
 74
     0
 42
0.000000001
 43
0.0000000001
 40
0.0
 40
0.0
 40
0.0
 40
0.0
 40
1.0
 40
1.0
 40
1.0
 40
2.0
 40
2.0
 40
2.0
 40
3.0
 40
3.0
 40
3.0
 40
4.0
 40
4.0
 40
4.0
 40
5.0
 40
5.0
 40
5.0
 40
6.0
 40
6.0
 40
6.0
 40
7.0
 40
7.0
 40
7.0
 40
8.0
 40
8.0
 40
8.0
 40
9.0
 40
9.0
 40
9.0
 40
10.0
 40
10.0
 40
10.0
 40
11.0
 40
11.0
 40
11.0
 40
12.0
 40
12.0
 40
12.0
 40
13.0
 40
13.0
 40
13.0
 40
14.0
 40
14.0
 40
14.0
 40
15.0
 40
15.0
 40
15.0
 40
16.0
 40
16.0
 40
16.0
 40
17.0
 40
17.0
 40
17.0
 40
17.0
 10
100.4504378777679
 20
166.69157178364
 30
0.0
 10
101.9848844191641
 20
167.1313385124438
 30
0.0
 10
103.9637485713373
 20
166.7649523658846
 30
0.0
 10
103.9637485713373
 20
166.7649523658846
 30
0.0
 10
103.9637485713373
 20
166.7649523658846
 30
0.0
 10
103.0132460999156
 20
163.911205638077
 30
0.0
 10
103.0132460999156
 20
163.911205638077
 30
0.0
 10
103.0132460999156
 20
163.911205638077
 30
0.0
 10
101.0674548862189
 20
164.3601018759394
 30
0.0
 10
99.57090442016032
 20
163.1805004036133
 30
0.0
 10
98.40508333886608
 20
162.258247733807
 30
0.0
 10
97.65301849830304
 20
159.804132345923
 30
0.0
 10
97.3598406791005
 20
158.8699940888517
 30
0.0
 10
97.3598406791005
 20
158.8699940888517
 30
0.0
 10
96.07137411762282
 20
154.9119212747295
 30
0.0
 10
96.07137411762282
 20
154.9119212747295
 30
0.0
 10
96.07137411762282
 20
154.9119212747295
 30
0.0
 10
100.3012651448482
 20
154.9119212747295
 30
0.0
 10
100.3012651448482
 20
154.9119212747295
 30
0.0
 10
100.3012651448482
 20
154.9119212747295
 30
0.0
 10
99.64152892419852
 20
152.4199098115079
 30
0.0
 10
99.64152892419852
 20
152.4199098115079
 30
0.0
 10
99.64152892419852
 20
152.4199098115079
 30
0.0
 10
95.38097652692731
 20
152.4199098115079
 30
0.0
 10
95.38097652692731
 20
152.4199098115079
 30
0.0
 10
95.38097652692731
 20
152.4199098115079
 30
0.0
 10
87.75353009080013
 20
127.8027915271048
 30
0.0
 10
87.75353009080013
 20
127.8027915271048
 30
0.0
 10
87.75353009080013
 20
127.8027915271048
 30
0.0
 10
85.36538832498108
 20
127.8027915271048
 30
0.0
 10
85.36538832498108
 20
127.8027915271048
 30
0.0
 10
85.36538832498108
 20
127.8027915271048
 30
0.0
 10
93.00006946639998
 20
152.4199098115079
 30
0.0
 10
93.00006946639998
 20
152.4199098115079
 30
0.0
 10
93.00006946639998
 20
152.4199098115079
 30
0.0
 10
89.85297266450198
 20
152.4199098115079
 30
0.0
 10
89.85297266450198
 20
152.4199098115079
 30
0.0
 10
89.85297266450198
 20
152.4199098115079
 30
0.0
 10
90.51270888515164
 20
154.9119212747295
 30
0.0
 10
90.51270888515164
 20
154.9119212747295
 30
0.0
 10
90.51270888515164
 20
154.9119212747295
 30
0.0
 10
93.6904670570955
 20
154.9119212747295
 30
0.0
 10
93.6904670570955
 20
154.9119212747295
 30
0.0
 10
93.6904670570955
 20
154.9119212747295
 30
0.0
 10
94.81598049462158
 20
158.3616699146644
 30
0.0
 10
94.81598049462158
 20
158.3616699146644
 30
0.0
 10
95.7237637538445
 20
161.2605474231013
 30
0.0
 10
96.4968436907311
 20
162.8139420021662
 30
0.0
 10
97.15657991138076
 20
163.9844139654337
 30
0.0
 10
97.81183750494507
 20
165.1523021053827
 30
0.0
 10
99.1047826935081
 20
166.3084769129547
 30
0.0
 10
100.4504378777679
 20
166.69157178364
 30
0.0
  0
HATCH
  5
6A5
330
6A2
100
AcDbEntity
  8
LOGO
 62
   250
420
  2234388
100
AcDbHatch
 10
0.0
 20
0.0
 30
0.0
210
0.0
220
0.0
230
1.0
  2
SOLID
 70
     1
 71
     0
 91
        1
 92
        1
 93
        1
 72
     4
 94
        3
 73
     0
 74
     1
 95
       56
 96
       52
 40
0.0
 40
0.0
 40
0.0
 40
0.0
 40
1.0
 40
1.0
 40
1.0
 40
2.0
 40
2.0
 40
2.0
 40
3.0
 40
3.0
 40
3.0
 40
4.0
 40
4.0
 40
4.0
 40
5.0
 40
5.0
 40
5.0
 40
6.0
 40
6.0
 40
6.0
 40
7.0
 40
7.0
 40
7.0
 40
8.0
 40
8.0
 40
8.0
 40
9.0
 40
9.0
 40
9.0
 40
10.0
 40
10.0
 40
10.0
 40
11.0
 40
11.0
 40
11.0
 40
12.0
 40
12.0
 40
12.0
 40
13.0
 40
13.0
 40
13.0
 40
14.0
 40
14.0
 40
14.0
 40
15.0
 40
15.0
 40
15.0
 40
16.0
 40
16.0
 40
16.0
 40
17.0
 40
17.0
 40
17.0
 40
17.0
 10
100.4504378777679
 20
166.69157178364
 10
101.9848844191641
 20
167.1313385124438
 10
103.9637485713373
 20
166.7649523658846
 10
103.9637485713373
 20
166.7649523658846
 10
103.9637485713373
 20
166.7649523658846
 10
103.0132460999156
 20
163.911205638077
 10
103.0132460999156
 20
163.911205638077
 10
103.0132460999156
 20
163.911205638077
 10
101.0674548862189
 20
164.3601018759394
 10
99.57090442016032
 20
163.1805004036133
 10
98.40508333886608
 20
162.258247733807
 10
97.65301849830304
 20
159.804132345923
 10
97.3598406791005
 20
158.8699940888517
 10
97.3598406791005
 20
158.8699940888517
 10
96.07137411762282
 20
154.9119212747295
 10
96.07137411762282
 20
154.9119212747295
 10
96.07137411762282
 20
154.9119212747295
 10
100.3012651448482
 20
154.9119212747295
 10
100.3012651448482
 20
154.9119212747295
 10
100.3012651448482
 20
154.9119212747295
 10
99.64152892419852
 20
152.4199098115079
 10
99.64152892419852
 20
152.4199098115079
 10
99.64152892419852
 20
152.4199098115079
 10
95.38097652692731
 20
152.4199098115079
 10
95.38097652692731
 20
152.4199098115079
 10
95.38097652692731
 20
152.4199098115079
 10
87.75353009080013
 20
127.8027915271048
 10
87.75353009080013
 20
127.8027915271048
 10
87.75353009080013
 20
127.8027915271048
 10
85.36538832498108
 20
127.8027915271048
 10
85.36538832498108
 20
127.8027915271048
 10
85.36538832498108
 20
127.8027915271048
 10
93.00006946639998
 20
152.4199098115079
 10
93.00006946639998
 20
152.4199098115079
 10
93.00006946639998
 20
152.4199098115079
 10
89.85297266450198
 20
152.4199098115079
 10
89.85297266450198
 20
152.4199098115079
 10
89.85297266450198
 20
152.4199098115079
 10
90.51270888515164
 20
154.9119212747295
 10
90.51270888515164
 20
154.9119212747295
 10
90.51270888515164
 20
154.9119212747295
 10
93.6904670570955
 20
154.9119212747295
 10
93.6904670570955
 20
154.9119212747295
 10
93.6904670570955
 20
154.9119212747295
 10
94.81598049462158
 20
158.3616699146644
 10
94.81598049462158
 20
158.3616699146644
 10
95.7237637538445
 20
161.2605474231013
 10
96.4968436907311
 20
162.8139420021662
 10
97.15657991138076
 20
163.9844139654337
 10
97.81183750494507
 20
165.1523021053827
 10
99.1047826935081
 20
166.3084769129547
 10
100.4504378777679
 20
166.69157178364
 97
        0
 75
     2
 76
     1
 98
        0
  0
SPLINE
  5
6A6
330
6A2
100
AcDbEntity
  8
LOGO
370
     0
100
AcDbSpline
210
0.0
220
0.0
230
1.0
 70
    11
 71
     3
 72
    38
 73
    34
 74
     0
 42
0.000000001
 43
0.0000000001
 40
0.0
 40
0.0
 40
0.0
 40
0.0
 40
1.0
 40
1.0
 40
1.0
 40
2.0
 40
2.0
 40
2.0
 40
3.0
 40
3.0
 40
3.0
 40
4.0
 40
4.0
 40
4.0
 40
5.0
 40
5.0
 40
5.0
 40
6.0
 40
6.0
 40
6.0
 40
7.0
 40
7.0
 40
7.0
 40
8.0
 40
8.0
 40
8.0
 40
9.0
 40
9.0
 40
9.0
 40
10.0
 40
10.0
 40
10.0
 40
11.0
 40
11.0
 40
11.0
 40
11.0
 10
126.377554584636
 20
154.8151140277308
 30
0.0
 10
126.377554584636
 20
154.8151140277308
 30
0.0
 10
128.8311532078563
 20
154.8151140277308
 30
0.0
 10
128.8311532078563
 20
154.8151140277308
 30
0.0
 10
128.8311532078563
 20
154.8151140277308
 30
0.0
 10
127.7345785914971
 20
151.3062819612468
 30
0.0
 10
127.7345785914971
 20
151.3062819612468
 30
0.0
 10
128.571392836906
 20
152.2922689395754
 30
0.0
 10
129.8860421413442
 20
153.604506675583
 30
0.0
 10
131.0163787157314
 20
154.2664822097754
 30
0.0
 10
132.7044766171327
 20
155.2500576196734
 30
0.0
 10
133.6642808525008
 20
155.3847609420097
 30
0.0
 10
134.7284715499351
 20
155.3565111403944
 30
0.0
 10
134.7284715499351
 20
155.3565111403944
 30
0.0
 10
133.6877075172549
 20
152.0345756272799
 30
0.0
 10
133.6877075172549
 20
152.0345756272799
 30
0.0
 10
133.011434827367
 20
152.3184516825359
 30
0.0
 10
130.930940291334
 20
151.7768823149844
 30
0.0
 10
129.739280976855
 20
150.9162968950455
 30
0.0
 10
128.66613302525
 20
150.1454562717016
 30
0.0
 10
127.9192358313239
 20
149.4857200510519
 30
0.0
 10
127.0393578639405
 20
147.8282835196966
 30
0.0
 10
126.164647543194
 20
146.1699857139017
 30
0.0
 10
125.4742499524985
 20
143.5262176944419
 30
0.0
 10
124.2822461282437
 20
139.6959580071401
 30
0.0
 10
124.2822461282437
 20
139.6959580071401
 30
0.0
 10
120.5753209406769
 20
127.8027915271048
 30
0.0
 10
120.5753209406769
 20
127.8027915271048
 30
0.0
 10
120.5753209406769
 20
127.8027915271048
 30
0.0
 10
118.1964809388044
 20
127.8027915271048
 30
0.0
 10
118.1964809388044
 20
127.8027915271048
 30
0.0
 10
118.1964809388044
 20
127.8027915271048
 30
0.0
 10
126.377554584636
 20
154.8151140277308
 30
0.0
 10
126.377554584636
 20
154.8151140277308
 30
0.0
  0
HATCH
  5
6A7
330
6A2
100
AcDbEntity
  8
LOGO
 62
   250
420
  2234388
100
AcDbHatch
 10
0.0
 20
0.0
 30
0.0
210
0.0
220
0.0
230
1.0
  2
SOLID
 70
     1
 71
     0
 91
        1
 92
        1
 93
        1
 72
     4
 94
        3
 73
     0
 74
     1
 95
       38
 96
       34
 40
0.0
 40
0.0
 40
0.0
 40
0.0
 40
1.0
 40
1.0
 40
1.0
 40
2.0
 40
2.0
 40
2.0
 40
3.0
 40
3.0
 40
3.0
 40
4.0
 40
4.0
 40
4.0
 40
5.0
 40
5.0
 40
5.0
 40
6.0
 40
6.0
 40
6.0
 40
7.0
 40
7.0
 40
7.0
 40
8.0
 40
8.0
 40
8.0
 40
9.0
 40
9.0
 40
9.0
 40
10.0
 40
10.0
 40
10.0
 40
11.0
 40
11.0
 40
11.0
 40
11.0
 10
126.377554584636
 20
154.8151140277308
 10
126.377554584636
 20
154.8151140277308
 10
128.8311532078563
 20
154.8151140277308
 10
128.8311532078563
 20
154.8151140277308
 10
128.8311532078563
 20
154.8151140277308
 10
127.7345785914971
 20
151.3062819612468
 10
127.7345785914971
 20
151.3062819612468
 10
128.571392836906
 20
152.2922689395754
 10
129.8860421413442
 20
153.604506675583
 10
131.0163787157314
 20
154.2664822097754
 10
132.7044766171327
 20
155.2500576196734
 10
133.6642808525008
 20
155.3847609420097
 10
134.7284715499351
 20
155.3565111403944
 10
134.7284715499351
 20
155.3565111403944
 10
133.6877075172549
 20
152.0345756272799
 10
133.6877075172549
 20
152.0345756272799
 10
133.011434827367
 20
152.3184516825359
 10
130.930940291334
 20
151.7768823149844
 10
129.739280976855
 20
150.9162968950455
 10
128.66613302525
 20
150.1454562717016
 10
127.9192358313239
 20
149.4857200510519
 10
127.0393578639405
 20
147.8282835196966
 10
126.164647543194
 20
146.1699857139017
 10
125.4742499524985
 20
143.5262176944419
 10
124.2822461282437
 20
139.6959580071401
 10
124.2822461282437
 20
139.6959580071401
 10
120.5753209406769
 20
127.8027915271048
 10
120.5753209406769
 20
127.8027915271048
 10
120.5753209406769
 20
127.8027915271048
 10
118.1964809388044
 20
127.8027915271048
 10
118.1964809388044
 20
127.8027915271048
 10
118.1964809388044
 20
127.8027915271048
 10
126.377554584636
 20
154.8151140277308
 10
126.377554584636
 20
154.8151140277308
 97
        0
 75
     2
 76
     1
 98
        0
  0
SPLINE
  5
6A8
330
6A2
100
AcDbEntity
  8
LOGO
370
     0
100
AcDbSpline
210
0.0
220
0.0
230
1.0
 70
    11
 71
     3
 72
   104
 73
   100
 74
     0
 42
0.000000001
 43
0.0000000001
 40
0.0
 40
0.0
 40
0.0
 40
0.0
 40
1.0
 40
1.0
 40
1.0
 40
2.0
 40
2.0
 40
2.0
 40
3.0
 40
3.0
 40
3.0
 40
4.0
 40
4.0
 40
4.0
 40
5.0
 40
5.0
 40
5.0
 40
6.0
 40
6.0
 40
6.0
 40
7.0
 40
7.0
 40
7.0
 40
8.0
 40
8.0
 40
8.0
 40
9.0
 40
9.0
 40
9.0
 40
10.0
 40
10.0
 40
10.0
 40
11.0
 40
11.0
 40
11.0
 40
12.0
 40
12.0
 40
12.0
 40
13.0
 40
13.0
 40
13.0
 40
14.0
 40
14.0
 40
14.0
 40
15.0
 40
15.0
 40
15.0
 40
16.0
 40
16.0
 40
16.0
 40
17.0
 40
17.0
 40
17.0
 40
18.0
 40
18.0
 40
18.0
 40
19.0
 40
19.0
 40
19.0
 40
20.0
 40
20.0
 40
20.0
 40
21.0
 40
21.0
 40
21.0
 40
22.0
 40
22.0
 40
22.0
 40
23.0
 40
23.0
 40
23.0
 40
24.0
 40
24.0
 40
24.0
 40
25.0
 40
25.0
 40
25.0
 40
26.0
 40
26.0
 40
26.0
 40
27.0
 40
27.0
 40
27.0
 40
28.0
 40
28.0
 40
28.0
 40
29.0
 40
29.0
 40
29.0
 40
30.0
 40
30.0
 40
30.0
 40
31.0
 40
31.0
 40
31.0
 40
32.0
 40
32.0
 40
32.0
 40
33.0
 40
33.0
 40
33.0
 40
33.0
 10
139.8926730891197
 20
154.8294111834263
 30
0.0
 10
139.8926730891197
 20
154.8294111834263
 30
0.0
 10
142.0344903652445
 20
154.8294111834263
 30
0.0
 10
142.0344903652445
 20
154.8294111834263
 30
0.0
 10
142.0344903652445
 20
154.8294111834263
 30
0.0
 10
140.9516961399171
 20
151.3157559800812
 30
0.0
 10
140.9516961399171
 20
151.3157559800812
 30
0.0
 10
141.8928968473923
 20
152.7887075264977
 30
0.0
 10
142.7341897198865
 20
153.4484437471474
 30
0.0
 10
143.8552245303272
 20
154.2926649527359
 30
0.0
 10
144.9803934580775
 20
155.1296514530327
 30
0.0
 10
146.3139908001845
 20
155.3044901642492
 30
0.0
 10
147.241066606852
 20
155.3044901642492
 30
0.0
 10
148.3855280820469
 20
155.3044901642492
 30
0.0
 10
149.4969166187653
 20
155.0752189084569
 30
0.0
 10
150.0784491203092
 20
153.8172414621372
 30
0.0
 10
150.5228667310863
 20
152.833838307127
 30
0.0
 10
150.5414702589793
 20
152.7201500811143
 30
0.0
 10
150.4140016419347
 20
150.7765981809602
 30
0.0
 10
151.5818897818837
 20
152.7699317437168
 30
0.0
 10
152.4424752018226
 20
153.6256940267945
 30
0.0
 10
153.9038856707499
 20
154.4507949398263
 30
0.0
 10
155.4455669174378
 20
155.3044901642492
 30
0.0
 10
156.339225275853
 20
155.3659851592288
 30
0.0
 10
157.3748216618963
 20
155.2147453676543
 30
0.0
 10
158.911679771723
 20
154.9877134254046
 30
0.0
 10
159.8859534176746
 20
154.4390816074493
 30
0.0
 10
160.3965169054045
 20
152.7816450760939
 30
0.0
 10
160.9070803931344
 20
151.1219692311958
 30
0.0
 10
160.6328506116007
 20
150.2303779314354
 30
0.0
 10
159.9992971339115
 20
147.597634224801
 30
0.0
 10
159.7105979417943
 20
146.4014962832367
 30
0.0
 10
159.2947746424084
 20
144.9400858143094
 30
0.0
 10
158.7463150793409
 20
143.2092687007094
 30
0.0
 10
158.7463150793409
 20
143.2092687007094
 30
0.0
 10
153.9038856707499
 20
127.8027915271048
 30
0.0
 10
153.9038856707499
 20
127.8027915271048
 30
0.0
 10
153.9038856707499
 20
127.8027915271048
 30
0.0
 10
151.3882752878863
 20
127.8027915271048
 30
0.0
 10
151.3882752878863
 20
127.8027915271048
 30
0.0
 10
151.3882752878863
 20
127.8027915271048
 30
0.0
 10
155.6250565106276
 20
141.2751908193897
 30
0.0
 10
155.6250565106276
 20
141.2751908193897
 30
0.0
 10
156.5094131050963
 20
144.0936252951782
 30
0.0
 10
157.109893644309
 20
146.1506931664571
 30
0.0
 10
157.4220195011804
 20
147.4415712963654
 30
0.0
 10
157.8095929989511
 20
149.0530157726519
 30
0.0
 10
157.9656559273867
 20
149.5826995529385
 30
0.0
 10
157.7816877071116
 20
150.7529992613181
 30
0.0
 10
157.6111553680925
 20
151.8430281919372
 30
0.0
 10
157.0582171779396
 20
152.5547853887321
 30
0.0
 10
156.1170164704645
 20
152.5547853887321
 30
0.0
 10
155.1096698860365
 20
152.5547853887321
 30
0.0
 10
154.2962823053817
 20
152.4412694176073
 30
0.0
 10
153.156643967048
 20
151.2945686288697
 30
0.0
 10
152.0170056287143
 20
150.1476955852443
 30
0.0
 10
151.076149431015
 20
148.7930831468137
 30
0.0
 10
150.3337308641742
 20
147.2290087646991
 30
0.0
 10
149.5957909244188
 20
145.6683794803425
 30
0.0
 10
148.8530278478023
 20
143.6822806228776
 30
0.0
 10
148.0964843801539
 20
141.2751908193897
 30
0.0
 10
148.0964843801539
 20
141.2751908193897
 30
0.0
 10
143.8552245303272
 20
127.8027915271048
 30
0.0
 10
143.8552245303272
 20
127.8027915271048
 30
0.0
 10
143.8552245303272
 20
127.8027915271048
 30
0.0
 10
141.486030802177
 20
127.8027915271048
 30
0.0
 10
141.486030802177
 20
127.8027915271048
 30
0.0
 10
141.486030802177
 20
127.8027915271048
 30
0.0
 10
146.3329388378533
 20
143.2092687007094
 30
0.0
 10
146.3329388378533
 20
143.2092687007094
 30
0.0
 10
146.8483254624444
 20
144.8408669988801
 30
0.0
 10
147.2314203331297
 20
146.1837661049335
 30
0.0
 10
147.4867020769946
 20
147.224185627838
 30
0.0
 10
147.9169947869641
 20
149.0197705792876
 30
0.0
 10
148.0306830129768
 20
150.2400242051577
 30
0.0
 10
147.709255392159
 20
151.3157559800812
 30
0.0
 10
147.3874832615654
 20
152.3916600098926
 30
0.0
 10
146.8245542879144
 20
152.6683013598569
 30
0.0
 10
145.8840425999909
 20
152.6683013598569
 30
0.0
 10
145.0989048209514
 20
152.6683013598569
 30
0.0
 10
144.3282364524954
 20
152.3275811915945
 30
0.0
 10
143.4531816219731
 20
151.6538923250251
 30
0.0
 10
142.34627171234
 20
150.8074318058939
 30
0.0
 10
141.901854101563
 20
150.1097995099067
 30
0.0
 10
141.3578731655808
 20
149.289521733736
 30
0.0
 10
140.6299240093235
 20
148.192602607601
 30
0.0
 10
140.2850697237515
 20
147.455696197173
 30
0.0
 10
139.6652966370942
 20
145.8385673095858
 30
0.0
 10
139.0506911970739
 20
144.2214384219986
 30
0.0
 10
138.463991048893
 20
142.3252566160164
 30
0.0
 10
138.0571250036777
 20
141.0154304484394
 30
0.0
 10
138.0571250036777
 20
141.0154304484394
 30
0.0
 10
133.9009590684727
 20
127.8027915271048
 30
0.0
 10
133.9009590684727
 20
127.8027915271048
 30
0.0
 10
133.9009590684727
 20
127.8027915271048
 30
0.0
 10
131.4180771143097
 20
127.8027915271048
 30
0.0
 10
131.4180771143097
 20
127.8027915271048
 30
0.0
 10
131.4180771143097
 20
127.8027915271048
 30
0.0
 10
139.8926730891197
 20
154.8294111834263
 30
0.0
 10
139.8926730891197
 20
154.8294111834263
 30
0.0
  0
HATCH
  5
6A9
330
6A2
100
AcDbEntity
  8
LOGO
 62
   250
420
  2234388
100
AcDbHatch
 10
0.0
 20
0.0
 30
0.0
210
0.0
220
0.0
230
1.0
  2
SOLID
 70
     1
 71
     0
 91
        1
 92
        1
 93
        1
 72
     4
 94
        3
 73
     0
 74
     1
 95
      104
 96
      100
 40
0.0
 40
0.0
 40
0.0
 40
0.0
 40
1.0
 40
1.0
 40
1.0
 40
2.0
 40
2.0
 40
2.0
 40
3.0
 40
3.0
 40
3.0
 40
4.0
 40
4.0
 40
4.0
 40
5.0
 40
5.0
 40
5.0
 40
6.0
 40
6.0
 40
6.0
 40
7.0
 40
7.0
 40
7.0
 40
8.0
 40
8.0
 40
8.0
 40
9.0
 40
9.0
 40
9.0
 40
10.0
 40
10.0
 40
10.0
 40
11.0
 40
11.0
 40
11.0
 40
12.0
 40
12.0
 40
12.0
 40
13.0
 40
13.0
 40
13.0
 40
14.0
 40
14.0
 40
14.0
 40
15.0
 40
15.0
 40
15.0
 40
16.0
 40
16.0
 40
16.0
 40
17.0
 40
17.0
 40
17.0
 40
18.0
 40
18.0
 40
18.0
 40
19.0
 40
19.0
 40
19.0
 40
20.0
 40
20.0
 40
20.0
 40
21.0
 40
21.0
 40
21.0
 40
22.0
 40
22.0
 40
22.0
 40
23.0
 40
23.0
 40
23.0
 40
24.0
 40
24.0
 40
24.0
 40
25.0
 40
25.0
 40
25.0
 40
26.0
 40
26.0
 40
26.0
 40
27.0
 40
27.0
 40
27.0
 40
28.0
 40
28.0
 40
28.0
 40
29.0
 40
29.0
 40
29.0
 40
30.0
 40
30.0
 40
30.0
 40
31.0
 40
31.0
 40
31.0
 40
32.0
 40
32.0
 40
32.0
 40
33.0
 40
33.0
 40
33.0
 40
33.0
 10
139.8926730891197
 20
154.8294111834263
 10
139.8926730891197
 20
154.8294111834263
 10
142.0344903652445
 20
154.8294111834263
 10
142.0344903652445
 20
154.8294111834263
 10
142.0344903652445
 20
154.8294111834263
 10
140.9516961399171
 20
151.3157559800812
 10
140.9516961399171
 20
151.3157559800812
 10
141.8928968473923
 20
152.7887075264977
 10
142.7341897198865
 20
153.4484437471474
 10
143.8552245303272
 20
154.2926649527359
 10
144.9803934580775
 20
155.1296514530327
 10
146.3139908001845
 20
155.3044901642492
 10
147.241066606852
 20
155.3044901642492
 10
148.3855280820469
 20
155.3044901642492
 10
149.4969166187653
 20
155.0752189084569
 10
150.0784491203092
 20
153.8172414621372
 10
150.5228667310863
 20
152.833838307127
 10
150.5414702589793
 20
152.7201500811143
 10
150.4140016419347
 20
150.7765981809602
 10
151.5818897818837
 20
152.7699317437168
 10
152.4424752018226
 20
153.6256940267945
 10
153.9038856707499
 20
154.4507949398263
 10
155.4455669174378
 20
155.3044901642492
 10
156.339225275853
 20
155.3659851592288
 10
157.3748216618963
 20
155.2147453676543
 10
158.911679771723
 20
154.9877134254046
 10
159.8859534176746
 20
154.4390816074493
 10
160.3965169054045
 20
152.7816450760939
 10
160.9070803931344
 20
151.1219692311958
 10
160.6328506116007
 20
150.2303779314354
 10
159.9992971339115
 20
147.597634224801
 10
159.7105979417943
 20
146.4014962832367
 10
159.2947746424084
 20
144.9400858143094
 10
158.7463150793409
 20
143.2092687007094
 10
158.7463150793409
 20
143.2092687007094
 10
153.9038856707499
 20
127.8027915271048
 10
153.9038856707499
 20
127.8027915271048
 10
153.9038856707499
 20
127.8027915271048
 10
151.3882752878863
 20
127.8027915271048
 10
151.3882752878863
 20
127.8027915271048
 10
151.3882752878863
 20
127.8027915271048
 10
155.6250565106276
 20
141.2751908193897
 10
155.6250565106276
 20
141.2751908193897
 10
156.5094131050963
 20
144.0936252951782
 10
157.109893644309
 20
146.1506931664571
 10
157.4220195011804
 20
147.4415712963654
 10
157.8095929989511
 20
149.0530157726519
 10
157.9656559273867
 20
149.5826995529385
 10
157.7816877071116
 20
150.7529992613181
 10
157.6111553680925
 20
151.8430281919372
 10
157.0582171779396
 20
152.5547853887321
 10
156.1170164704645
 20
152.5547853887321
 10
155.1096698860365
 20
152.5547853887321
 10
154.2962823053817
 20
152.4412694176073
 10
153.156643967048
 20
151.2945686288697
 10
152.0170056287143
 20
150.1476955852443
 10
151.076149431015
 20
148.7930831468137
 10
150.3337308641742
 20
147.2290087646991
 10
149.5957909244188
 20
145.6683794803425
 10
148.8530278478023
 20
143.6822806228776
 10
148.0964843801539
 20
141.2751908193897
 10
148.0964843801539
 20
141.2751908193897
 10
143.8552245303272
 20
127.8027915271048
 10
143.8552245303272
 20
127.8027915271048
 10
143.8552245303272
 20
127.8027915271048
 10
141.486030802177
 20
127.8027915271048
 10
141.486030802177
 20
127.8027915271048
 10
141.486030802177
 20
127.8027915271048
 10
146.3329388378533
 20
143.2092687007094
 10
146.3329388378533
 20
143.2092687007094
 10
146.8483254624444
 20
144.8408669988801
 10
147.2314203331297
 20
146.1837661049335
 10
147.4867020769946
 20
147.224185627838
 10
147.9169947869641
 20
149.0197705792876
 10
148.0306830129768
 20
150.2400242051577
 10
147.709255392159
 20
151.3157559800812
 10
147.3874832615654
 20
152.3916600098926
 10
146.8245542879144
 20
152.6683013598569
 10
145.8840425999909
 20
152.6683013598569
 10
145.0989048209514
 20
152.6683013598569
 10
144.3282364524954
 20
152.3275811915945
 10
143.4531816219731
 20
151.6538923250251
 10
142.34627171234
 20
150.8074318058939
 10
141.901854101563
 20
150.1097995099067
 10
141.3578731655808
 20
149.289521733736
 10
140.6299240093235
 20
148.192602607601
 10
140.2850697237515
 20
147.455696197173
 10
139.6652966370942
 20
145.8385673095858
 10
139.0506911970739
 20
144.2214384219986
 10
138.463991048893
 20
142.3252566160164
 10
138.0571250036777
 20
141.0154304484394
 10
138.0571250036777
 20
141.0154304484394
 10
133.9009590684727
 20
127.8027915271048
 10
133.9009590684727
 20
127.8027915271048
 10
133.9009590684727
 20
127.8027915271048
 10
131.4180771143097
 20
127.8027915271048
 10
131.4180771143097
 20
127.8027915271048
 10
131.4180771143097
 20
127.8027915271048
 10
139.8926730891197
 20
154.8294111834263
 10
139.8926730891197
 20
154.8294111834263
 97
        0
 75
     2
 76
     1
 98
        0
  0
SPLINE
  5
6AA
330
6A2
100
AcDbEntity
  8
LOGO
370
     0
100
AcDbSpline
210
0.0
220
0.0
230
1.0
 70
    11
 71
     3
 72
    29
 73
    25
 74
     0
 42
0.000000001
 43
0.0000000001
 40
0.0
 40
0.0
 40
0.0
 40
0.0
 40
1.0
 40
1.0
 40
1.0
 40
2.0
 40
2.0
 40
2.0
 40
3.0
 40
3.0
 40
3.0
 40
4.0
 40
4.0
 40
4.0
 40
5.0
 40
5.0
 40
5.0
 40
6.0
 40
6.0
 40
6.0
 40
7.0
 40
7.0
 40
7.0
 40
8.0
 40
8.0
 40
8.0
 40
8.0
 10
101.6420971922469
 20
132.8388354296931
 30
0.0
 10
101.630039350094
 20
134.7164137077823
 30
0.0
 10
102.2236296937908
 20
138.0598810818841
 30
0.0
 10
103.7487744712405
 20
142.5378191476827
 30
0.0
 10
105.819967243327
 20
148.5896501242061
 30
0.0
 10
107.0602024361932
 20
150.8074318058939
 30
0.0
 10
108.1522984254671
 20
151.8833358357054
 30
0.0
 10
109.741177511439
 20
153.4532668840085
 30
0.0
 10
111.8740375333931
 20
153.5290590346837
 30
0.0
 10
112.5075910110823
 20
153.4532668840085
 30
0.0
 10
113.4012493694975
 20
153.3490526768302
 30
0.0
 10
114.6683563248758
 20
152.7580461564518
 30
0.0
 10
114.7493161221879
 20
150.7838328862519
 30
0.0
 10
114.8106388622796
 20
149.0909118479895
 30
0.0
 10
114.3186789024427
 20
145.9191825971221
 30
0.0
 10
112.6164561002338
 20
140.9489400617108
 30
0.0
 10
110.6444821435766
 20
135.1746117095912
 30
0.0
 10
109.4669477299053
 20
132.8960240524753
 30
0.0
 10
108.5212683953448
 20
131.9072809959403
 30
0.0
 10
106.7346406980658
 20
130.0538184021569
 30
0.0
 10
104.8222669326213
 20
130.2336525051225
 30
0.0
 10
104.5408024457958
 20
130.2336525051225
 30
0.0
 10
104.1721769856939
 20
130.2336525051225
 30
0.0
 10
101.6465758193322
 20
130.6305277668397
 30
0.0
 10
101.6420971922469
 20
132.8388354296931
 30
0.0
  0
SPLINE
  5
6AB
330
6A2
100
AcDbEntity
  8
LOGO
370
     0
100
AcDbSpline
210
0.0
220
0.0
230
1.0
 70
    11
 71
     3
 72
    32
 73
    28
 74
     0
 42
0.000000001
 43
0.0000000001
 40
0.0
 40
0.0
 40
0.0
 40
0.0
 40
1.0
 40
1.0
 40
1.0
 40
2.0
 40
2.0
 40
2.0
 40
3.0
 40
3.0
 40
3.0
 40
4.0
 40
4.0
 40
4.0
 40
5.0
 40
5.0
 40
5.0
 40
6.0
 40
6.0
 40
6.0
 40
7.0
 40
7.0
 40
7.0
 40
8.0
 40
8.0
 40
8.0
 40
9.0
 40
9.0
 40
9.0
 40
9.0
 10
106.2595617172429
 20
153.4105476718098
 30
0.0
 10
104.8222669326213
 20
151.5474388043041
 30
0.0
 10
103.7177685914188
 20
149.8758773721411
 30
0.0
 10
101.9232171692965
 20
144.6141795664062
 30
0.0
 10
100.2754269116635
 20
139.7999999594306
 30
0.0
 10
99.22777268346732
 20
136.3052927937542
 30
0.0
 10
99.06964269637689
 20
132.039572749846
 30
0.0
 10
98.94665270641765
 20
128.8673267343149
 30
0.0
 10
100.8807305877373
 20
127.8027915271048
 30
0.0
 10
103.7129454545577
 20
127.8027915271048
 30
0.0
 10
104.9352661390825
 20
127.8027915271048
 30
0.0
 10
108.0151835347002
 20
127.8827177950895
 30
0.0
 10
110.2045431598849
 20
130.5926316915021
 30
0.0
 10
111.7417457794874
 20
132.4984597712065
 30
0.0
 10
113.155269389579
 20
134.475256864725
 30
0.0
 10
115.0562743324223
 20
140.9489400617108
 30
0.0
 10
116.6361961642235
 20
146.3680788349845
 30
0.0
 10
117.7282921534974
 20
149.8639917848761
 30
0.0
 10
117.6480213757369
 20
151.8595646611754
 30
0.0
 10
117.6480213757369
 20
151.8595646611754
 30
0.0
 10
117.6480213757369
 20
151.8595646611754
 30
0.0
 10
117.6480213757369
 20
151.8595646611754
 30
0.0
 10
117.13229024137
 20
155.18150017429
 30
0.0
 10
114.7162431837115
 20
155.886194920681
 30
0.0
 10
113.3351034925446
 20
155.886194920681
 30
0.0
 10
111.9829026225447
 20
155.886194920681
 30
0.0
 10
108.3414342923792
 20
156.1251124501957
 30
0.0
 10
106.2595617172429
 20
153.4105476718098
 30
0.0
  0
HATCH
  5
6AC
330
6A2
100
AcDbEntity
  8
LOGO
 62
   250
420
  2234388
100
AcDbHatch
 10
0.0
 20
0.0
 30
0.0
210
0.0
220
0.0
230
1.0
  2
SOLID
 70
     1
 71
     0
 91
        2
 92
        1
 93
        1
 72
     4
 94
        3
 73
     0
 74
     1
 95
       29
 96
       25
 40
0.0
 40
0.0
 40
0.0
 40
0.0
 40
1.0
 40
1.0
 40
1.0
 40
2.0
 40
2.0
 40
2.0
 40
3.0
 40
3.0
 40
3.0
 40
4.0
 40
4.0
 40
4.0
 40
5.0
 40
5.0
 40
5.0
 40
6.0
 40
6.0
 40
6.0
 40
7.0
 40
7.0
 40
7.0
 40
8.0
 40
8.0
 40
8.0
 40
8.0
 10
101.6420971922469
 20
132.8388354296931
 10
101.630039350094
 20
134.7164137077823
 10
102.2236296937908
 20
138.0598810818841
 10
103.7487744712405
 20
142.5378191476827
 10
105.819967243327
 20
148.5896501242061
 10
107.0602024361932
 20
150.8074318058939
 10
108.1522984254671
 20
151.8833358357054
 10
109.741177511439
 20
153.4532668840085
 10
111.8740375333931
 20
153.5290590346837
 10
112.5075910110823
 20
153.4532668840085
 10
113.4012493694975
 20
153.3490526768302
 10
114.6683563248758
 20
152.7580461564518
 10
114.7493161221879
 20
150.7838328862519
 10
114.8106388622796
 20
149.0909118479895
 10
114.3186789024427
 20
145.9191825971221
 10
112.6164561002338
 20
140.9489400617108
 10
110.6444821435766
 20
135.1746117095912
 10
109.4669477299053
 20
132.8960240524753
 10
108.5212683953448
 20
131.9072809959403
 10
106.7346406980658
 20
130.0538184021569
 10
104.8222669326213
 20
130.2336525051225
 10
104.5408024457958
 20
130.2336525051225
 10
104.1721769856939
 20
130.2336525051225
 10
101.6465758193322
 20
130.6305277668397
 10
101.6420971922469
 20
132.8388354296931
 97
        0
 92
        1
 93
        1
 72
     4
 94
        3
 73
     0
 74
     1
 95
       32
 96
       28
 40
0.0
 40
0.0
 40
0.0
 40
0.0
 40
1.0
 40
1.0
 40
1.0
 40
2.0
 40
2.0
 40
2.0
 40
3.0
 40
3.0
 40
3.0
 40
4.0
 40
4.0
 40
4.0
 40
5.0
 40
5.0
 40
5.0
 40
6.0
 40
6.0
 40
6.0
 40
7.0
 40
7.0
 40
7.0
 40
8.0
 40
8.0
 40
8.0
 40
9.0
 40
9.0
 40
9.0
 40
9.0
 10
106.2595617172429
 20
153.4105476718098
 10
104.8222669326213
 20
151.5474388043041
 10
103.7177685914188
 20
149.8758773721411
 10
101.9232171692965
 20
144.6141795664062
 10
100.2754269116635
 20
139.7999999594306
 10
99.22777268346732
 20
136.3052927937542
 10
99.06964269637689
 20
132.039572749846
 10
98.94665270641765
 20
128.8673267343149
 10
100.8807305877373
 20
127.8027915271048
 10
103.7129454545577
 20
127.8027915271048
 10
104.9352661390825
 20
127.8027915271048
 10
108.0151835347002
 20
127.8827177950895
 10
110.2045431598849
 20
130.5926316915021
 10
111.7417457794874
 20
132.4984597712065
 10
113.155269389579
 20
134.475256864725
 10
115.0562743324223
 20
140.9489400617108
 10
116.6361961642235
 20
146.3680788349845
 10
117.7282921534974
 20
149.8639917848761
 10
117.6480213757369
 20
151.8595646611754
 10
117.6480213757369
 20
151.8595646611754
 10
117.6480213757369
 20
151.8595646611754
 10
117.6480213757369
 20
151.8595646611754
 10
117.13229024137
 20
155.18150017429
 10
114.7162431837115
 20
155.886194920681
 10
113.3351034925446
 20
155.886194920681
 10
111.9829026225447
 20
155.886194920681
 10
108.3414342923792
 20
156.1251124501957
 10
106.2595617172429
 20
153.4105476718098
 97
        0
 75
     2
 76
     1
 98
        0
  0
ENDBLK
  5
6AD
330
6A2
100
AcDbEntity
  8
0
100
AcDbBlockEnd
  0
BLOCK
  5
D91
330
D90
100
AcDbEntity
  8
0
100
AcDbBlockBegin
  2
*D6
 70
     1
 10
0.0
 20
0.0
 30
0.0
  3
*D6
  1
*D6
  0
LINE
  5
D93
330
D90
100
AcDbEntity
  8
DIM
 62
     0
370
    -2
100
AcDbLine
 10
194.9013848396499
 20
991.8781341107873
 30
0.0
 11
194.9013848396499
 21
940.5413793571681
 31
0.0
  0
LINE
  5
D94
330
D90
100
AcDbEntity
  8
DIM
 62
     0
370
    -2
100
AcDbLine
 10
521.6879737609329
 20
991.8781341107873
 30
0.0
 11
521.6879737609329
 21
940.5413793571681
 31
0.0
  0
LINE
  5
D95
330
D90
100
AcDbEntity
  8
DIM
 62
     0
370
    -2
100
AcDbLine
 10
200.9013848396499
 20
940.5413793571681
 30
0.0
 11
515.6879737609329
 21
940.5413793571681
 31
0.0
  0
INSERT
  5
D96
330
D90
100
AcDbEntity
  8
DIM
 62
     0
370
    -2
100
AcDbBlockReference
  2
_DOT
 10
194.9013848396499
 20
940.5413793571681
 30
0.0
 41
6.0
 42
6.0
 43
6.0
 50
180.0
  0
INSERT
  5
D97
330
D90
100
AcDbEntity
  8
DIM
 62
     0
370
    -2
100
AcDbBlockReference
  2
_DOT
 10
521.6879737609329
 20
940.5413793571681
 30
0.0
 41
6.0
 42
6.0
 43
6.0
  0
MTEXT
  5
D98
330
D90
100
AcDbEntity
  8
DIM
 62
     0
100
AcDbMText
 10
358.2946793002914
 20
956.5413793571681
 30
0.0
 40
12.0
 41
0.0
 46
0.0
 71
     5
 72
     1
  1
\A1;327
  7
ＭＳ ゴシック
 73
     1
 44
1.0
  0
POINT
  5
D99
330
D90
100
AcDbEntity
  8
Defpoints
 62
     0
100
AcDbPoint
 10
194.9013848396499
 20
1011.878134110787
 30
0.0
  0
POINT
  5
D9A
330
D90
100
AcDbEntity
  8
Defpoints
 62
     0
100
AcDbPoint
 10
521.6879737609329
 20
1011.878134110787
 30
0.0
  0
POINT
  5
D9B
330
D90
100
AcDbEntity
  8
Defpoints
 62
     0
100
AcDbPoint
 10
521.6879737609329
 20
940.5413793571681
 30
0.0
  0
ENDBLK
  5
D92
330
D90
100
AcDbEntity
  8
0
100
AcDbBlockEnd
  0
BLOCK
  5
DA0
330
D9F
100
AcDbEntity
  8
0
100
AcDbBlockBegin
  2
*D7
 70
     1
 10
0.0
 20
0.0
 30
0.0
  3
*D7
  1
*D7
  0
LINE
  5
DA2
330
D9F
100
AcDbEntity
  8
DIM
 62
     0
370
    -2
100
AcDbLine
 10
541.6879737609329
 20
1259.176093294461
 30
0.0
 11
592.27223683134
 21
1259.176093294461
 31
0.0
  0
LINE
  5
DA3
330
D9F
100
AcDbEntity
  8
DIM
 62
     0
370
    -2
100
AcDbLine
 10
541.6879737609329
 20
1011.878134110787
 30
0.0
 11
592.27223683134
 21
1011.878134110787
 31
0.0
  0
LINE
  5
DA4
330
D9F
100
AcDbEntity
  8
DIM
 62
     0
370
    -2
100
AcDbLine
 10
592.27223683134
 20
1253.176093294461
 30
0.0
 11
592.27223683134
 21
1017.878134110787
 31
0.0
  0
INSERT
  5
DA5
330
D9F
100
AcDbEntity
  8
DIM
 62
     0
370
    -2
100
AcDbBlockReference
  2
_DOT
 10
592.27223683134
 20
1259.176093294461
 30
0.0
 41
6.0
 42
6.0
 43
6.0
 50
90.0
  0
INSERT
  5
DA6
330
D9F
100
AcDbEntity
  8
DIM
 62
     0
370
    -2
100
AcDbBlockReference
  2
_DOT
 10
592.27223683134
 20
1011.878134110787
 30
0.0
 41
6.0
 42
6.0
 43
6.0
 50
270.0
  0
MTEXT
  5
DA7
330
D9F
100
AcDbEntity
  8
DIM
 62
     0
100
AcDbMText
 10
576.27223683134
 20
1135.527113702624
 30
0.0
 40
12.0
 41
0.0
 46
0.0
 71
     5
 72
     1
  1
\A1;247
  7
ＭＳ ゴシック
 11
0.0
 21
1.0
 31
0.0
 73
     1
 44
1.0
  0
POINT
  5
DA8
330
D9F
100
AcDbEntity
  8
Defpoints
 62
     0
100
AcDbPoint
 10
521.6879737609329
 20
1259.176093294461
 30
0.0
  0
POINT
  5
DA9
330
D9F
100
AcDbEntity
  8
Defpoints
 62
     0
100
AcDbPoint
 10
521.6879737609329
 20
1011.878134110787
 30
0.0
  0
POINT
  5
DAA
330
D9F
100
AcDbEntity
  8
Defpoints
 62
     0
100
AcDbPoint
 10
592.27223683134
 20
1011.878134110787
 30
0.0
  0
ENDBLK
  5
DA1
330
D9F
100
AcDbEntity
  8
0
100
AcDbBlockEnd
  0
BLOCK
  5
E4E
330
E4D
100
AcDbEntity
  8
0
100
AcDbBlockBegin
  2
*D8
 70
     1
 10
0.0
 20
0.0
 30
0.0
  3
*D8
  1
*D8
  0
LINE
  5
E50
330
E4D
100
AcDbEntity
  8
HIDDEN
  6
HIDDEN
 62
     0
 48
0.05
370
    -2
100
AcDbLine
 10
322.9663994169097
 20
836.4046647230323
 30
0.0
 11
322.9663994169097
 21
978.7578717201168
 31
0.0
  0
LINE
  5
E51
330
E4D
100
AcDbEntity
  8
HIDDEN
  6
HIDDEN
 62
     0
 48
0.05
370
    -2
100
AcDbLine
 10
640.9209183673471
 20
836.4046647230323
 30
0.0
 11
640.9209183673471
 21
978.7578717201168
 31
0.0
  0
LINE
  5
E52
330
E4D
100
AcDbEntity
  8
HIDDEN
  6
HIDDEN
 62
     0
 48
0.05
370
    -2
100
AcDbLine
 10
325.9663994169097
 20
978.7578717201168
 30
0.0
 11
637.9209183673471
 21
978.7578717201168
 31
0.0
  0
INSERT
  5
E53
330
E4D
100
AcDbEntity
  8
HIDDEN
 62
     0
370
    -2
100
AcDbBlockReference
  2
_DOT
 10
322.9663994169097
 20
978.7578717201168
 30
0.0
 41
3.0
 42
3.0
 43
3.0
 50
180.0
  0
INSERT
  5
E54
330
E4D
100
AcDbEntity
  8
HIDDEN
 62
     0
370
    -2
100
AcDbBlockReference
  2
_DOT
 10
640.9209183673471
 20
978.7578717201168
 30
0.0
 41
3.0
 42
3.0
 43
3.0
  0
MTEXT
  5
E55
330
E4D
100
AcDbEntity
  8
HIDDEN
  6
HIDDEN
 62
     0
 48
0.05
100
AcDbMText
 10
481.9436588921284
 20
994.7578717201168
 30
0.0
 40
12.0
 41
0.0
 46
0.0
 71
     5
 72
     1
  1
\A1;318
  7
ＭＳ ゴシック
 73
     1
 44
1.0
  0
POINT
  5
E56
330
E4D
100
AcDbEntity
  8
Defpoints
 62
     0
100
AcDbPoint
 10
322.9663994169097
 20
826.4046647230323
 30
0.0
  0
POINT
  5
E57
330
E4D
100
AcDbEntity
  8
Defpoints
 62
     0
100
AcDbPoint
 10
640.9209183673471
 20
826.4046647230323
 30
0.0
  0
POINT
  5
E58
330
E4D
100
AcDbEntity
  8
Defpoints
 62
     0
100
AcDbPoint
 10
640.9209183673471
 20
978.7578717201168
 30
0.0
  0
ENDBLK
  5
E4F
330
E4D
100
AcDbEntity
  8
0
100
AcDbBlockEnd
  0
BLOCK
  5
11FD
330
11FC
100
AcDbEntity
  8
0
100
AcDbBlockBegin
  2
*D9
 70
     1
 10
0.0
 20
0.0
 30
0.0
  3
*D9
  1
*D141
  0
LINE
  5
11FE
330
11FC
100
AcDbEntity
  8
DIM
  6
Continuous
 62
     0
370
    -2
100
AcDbLine
 10
1448.56022934476
 20
1077.090453293982
 30
0.0
 11
1448.56022934476
 21
1203.742453293982
 31
0.0
  0
LINE
  5
11FF
330
11FC
100
AcDbEntity
  8
DIM
  6
Continuous
 62
     0
370
    -2
100
AcDbLine
 10
1448.56022934476
 20
1074.090453293982
 30
0.0
 11
1448.56022934476
 21
1004.488599905444
 31
0.0
  0
INSERT
  5
1200
330
11FC
100
AcDbEntity
  8
DIM
 62
     0
370
    -2
100
AcDbBlockReference
  2
_DOT
 10
1448.56022934476
 20
1077.090453293982
 30
0.0
 41
3.0
 42
3.0
 43
3.0
 50
90.0
  0
INSERT
  5
1201
330
11FC
100
AcDbEntity
  8
DIM
 62
     0
370
    -2
100
AcDbBlockReference
  2
_DOT
 10
1448.56022934476
 20
1001.488599905444
 30
0.0
 41
3.0
 42
3.0
 43
3.0
 50
270.0
  0
MTEXT
  5
1202
330
11FC
100
AcDbEntity
  8
DIM
 62
     0
 48
0.05
100
AcDbMText
 10
1431.49822934476
 20
1164.858453293982
 30
0.0
 40
12.0
 41
0.0
 46
0.0
 71
     5
 72
     1
  1
\A1;75(深さ)
  7
ＭＳ ゴシック
 11
0.0
 21
1.0
 31
0.0
 73
     1
 44
1.0
  0
POINT
  5
1203
330
11FC
100
AcDbEntity
  8
Defpoints
 62
     0
100
AcDbPoint
 10
1471.671489326533
 20
1077.090453293982
 30
0.0
  0
POINT
  5
1204
330
11FC
100
AcDbEntity
  8
Defpoints
 62
     0
100
AcDbPoint
 10
1448.56022934476
 20
1001.488599905444
 30
0.0
  0
POINT
  5
1205
330
11FC
100
AcDbEntity
  8
Defpoints
 62
     0
100
AcDbPoint
 10
1448.56022934476
 20
1001.488599905444
 30
0.0
  0
ENDBLK
  5
1206
330
11FC
100
AcDbEntity
  8
0
100
AcDbBlockEnd
  0
BLOCK
  5
124A
330
1249
100
AcDbEntity
  8
0
100
AcDbBlockBegin
  2
*D10
 70
     1
 10
0.0
 20
0.0
 30
0.0
  3
*D10
  1
*D145
  0
LINE
  5
124B
330
1249
100
AcDbEntity
  8
DIM
  6
Continuous
 62
     0
370
    -2
100
AcDbLine
 10
1467.244907837198
 20
1959.395394639839
 30
0.0
 11
1617.583641015255
 21
1959.395394639839
 31
0.0
  0
LINE
  5
124C
330
1249
100
AcDbEntity
  8
DIM
  6
Continuous
 62
     0
370
    -2
100
AcDbLine
 10
1467.244907837198
 20
2124.395394639839
 30
0.0
 11
1617.583641015255
 21
2124.395394639839
 31
0.0
  0
LINE
  5
124D
330
1249
100
AcDbEntity
  8
DIM
  6
Continuous
 62
     0
370
    -2
100
AcDbLine
 10
1617.583641015255
 20
1962.395394639839
 30
0.0
 11
1617.583641015255
 21
2121.395394639839
 31
0.0
  0
INSERT
  5
124E
330
1249
100
AcDbEntity
  8
DIM
 62
     0
370
    -2
100
AcDbBlockReference
  2
_DOT
 10
1617.583641015255
 20
1959.395394639839
 30
0.0
 41
3.0
 42
3.0
 43
3.0
 50
270.0
  0
INSERT
  5
124F
330
1249
100
AcDbEntity
  8
DIM
 62
     0
370
    -2
100
AcDbBlockReference
  2
_DOT
 10
1617.583641015255
 20
2124.395394639839
 30
0.0
 41
3.0
 42
3.0
 43
3.0
 50
90.0
  0
MTEXT
  5
1250
330
1249
100
AcDbEntity
  8
DIM
 62
     0
 48
0.05
100
AcDbMText
 10
1601.583641015255
 20
2041.895394639839
 30
0.0
 40
12.0
 41
0.0
 46
0.0
 71
     5
 72
     1
  1
\A1;165
  7
ＭＳ ゴシック
 11
0.0
 21
1.0
 31
0.0
 73
     1
 44
1.0
  0
POINT
  5
1251
330
1249
100
AcDbEntity
  8
Defpoints
 62
     0
100
AcDbPoint
 10
1457.244907837198
 20
1959.395394639839
 30
0.0
  0
POINT
  5
1252
330
1249
100
AcDbEntity
  8
Defpoints
 62
     0
100
AcDbPoint
 10
1457.244907837198
 20
2124.395394639839
 30
0.0
  0
POINT
  5
1253
330
1249
100
AcDbEntity
  8
Defpoints
 62
     0
100
AcDbPoint
 10
1617.583641015255
 20
2124.395394639839
 30
0.0
  0
ENDBLK
  5
1254
330
1249
100
AcDbEntity
  8
0
100
AcDbBlockEnd
  0
BLOCK
  5
1259
330
1258
100
AcDbEntity
  8
0
100
AcDbBlockBegin
  2
*D11
 70
     1
 10
0.0
 20
0.0
 30
0.0
  3
*D11
  1
*D146
  0
LINE
  5
125A
330
1258
100
AcDbEntity
  8
DIM
  6
Continuous
 62
     0
370
    -2
100
AcDbLine
 10
1357.244907837198
 20
1949.395394639839
 30
0.0
 11
1357.244907837198
 21
1789.071925503803
 31
0.0
  0
LINE
  5
125B
330
1258
100
AcDbEntity
  8
DIM
  6
Continuous
 62
     0
370
    -2
100
AcDbLine
 10
1457.244907837198
 20
1949.395394639839
 30
0.0
 11
1457.244907837198
 21
1789.071925503803
 31
0.0
  0
LINE
  5
125C
330
1258
100
AcDbEntity
  8
DIM
  6
Continuous
 62
     0
370
    -2
100
AcDbLine
 10
1360.244907837198
 20
1789.071925503803
 30
0.0
 11
1454.244907837198
 21
1789.071925503803
 31
0.0
  0
INSERT
  5
125D
330
1258
100
AcDbEntity
  8
DIM
 62
     0
370
    -2
100
AcDbBlockReference
  2
_DOT
 10
1357.244907837198
 20
1789.071925503803
 30
0.0
 41
3.0
 42
3.0
 43
3.0
 50
180.0
  0
INSERT
  5
125E
330
1258
100
AcDbEntity
  8
DIM
 62
     0
370
    -2
100
AcDbBlockReference
  2
_DOT
 10
1457.244907837198
 20
1789.071925503803
 30
0.0
 41
3.0
 42
3.0
 43
3.0
  0
MTEXT
  5
125F
330
1258
100
AcDbEntity
  8
DIM
 62
     0
 48
0.05
100
AcDbMText
 10
1407.244907837198
 20
1805.071925503803
 30
0.0
 40
12.0
 41
0.0
 46
0.0
 71
     5
 72
     1
  1
\A1;100
  7
ＭＳ ゴシック
 73
     1
 44
1.0
  0
POINT
  5
1260
330
1258
100
AcDbEntity
  8
Defpoints
 62
     0
100
AcDbPoint
 10
1357.244907837198
 20
1959.395394639839
 30
0.0
  0
POINT
  5
1261
330
1258
100
AcDbEntity
  8
Defpoints
 62
     0
100
AcDbPoint
 10
1457.244907837198
 20
1959.395394639839
 30
0.0
  0
POINT
  5
1262
330
1258
100
AcDbEntity
  8
Defpoints
 62
     0
100
AcDbPoint
 10
1457.244907837198
 20
1789.071925503803
 30
0.0
  0
ENDBLK
  5
1263
330
1258
100
AcDbEntity
  8
0
100
AcDbBlockEnd
  0
BLOCK
  5
126B
330
126A
100
AcDbEntity
  8
0
100
AcDbBlockBegin
  2
*D12
 70
     1
 10
0.0
 20
0.0
 30
0.0
  3
*D12
  1
*D149
  0
LINE
  5
126C
330
126A
100
AcDbEntity
  8
DIM
  6
Continuous
 62
     0
370
    -2
100
AcDbLine
 10
1467.244907837198
 20
2124.395394639839
 30
0.0
 11
1617.583641015255
 21
2124.395394639839
 31
0.0
  0
LINE
  5
126D
330
126A
100
AcDbEntity
  8
DIM
  6
Continuous
 62
     0
370
    -2
100
AcDbLine
 10
1467.244907837198
 20
2139.395394639839
 30
0.0
 11
1617.583641015255
 21
2139.395394639839
 31
0.0
  0
LINE
  5
126E
330
126A
100
AcDbEntity
  8
DIM
  6
Continuous
 62
     0
370
    -2
100
AcDbLine
 10
1617.583641015255
 20
2139.395394639839
 30
0.0
 11
1617.583641015255
 21
2199.123394639839
 31
0.0
  0
LINE
  5
126F
330
126A
100
AcDbEntity
  8
DIM
  6
Continuous
 62
     0
370
    -2
100
AcDbLine
 10
1617.583641015255
 20
2127.395394639839
 30
0.0
 11
1617.583641015255
 21
2136.395394639839
 31
0.0
  0
INSERT
  5
1270
330
126A
100
AcDbEntity
  8
DIM
 62
     0
370
    -2
100
AcDbBlockReference
  2
_DOT
 10
1617.583641015255
 20
2124.395394639839
 30
0.0
 41
3.0
 42
3.0
 43
3.0
 50
270.0
  0
INSERT
  5
1271
330
126A
100
AcDbEntity
  8
DIM
 62
     0
370
    -2
100
AcDbBlockReference
  2
_DOT
 10
1617.583641015255
 20
2139.395394639839
 30
0.0
 41
3.0
 42
3.0
 43
3.0
 50
90.0
  0
MTEXT
  5
1272
330
126A
100
AcDbEntity
  8
DIM
 62
     0
 48
0.05
100
AcDbMText
 10
1601.583641015255
 20
2182.547394639839
 30
0.0
 40
12.0
 41
0.0
 46
0.0
 71
     5
 72
     1
  1
\A1;15
  7
ＭＳ ゴシック
 11
0.0
 21
1.0
 31
0.0
 73
     1
 44
1.0
  0
POINT
  5
1273
330
126A
100
AcDbEntity
  8
Defpoints
 62
     0
100
AcDbPoint
 10
1457.244907837198
 20
2124.395394639839
 30
0.0
  0
POINT
  5
1274
330
126A
100
AcDbEntity
  8
Defpoints
 62
     0
100
AcDbPoint
 10
1457.244907837198
 20
2139.395394639839
 30
0.0
  0
POINT
  5
1275
330
126A
100
AcDbEntity
  8
Defpoints
 62
     0
100
AcDbPoint
 10
1617.583641015255
 20
2139.395394639839
 30
0.0
  0
ENDBLK
  5
1276
330
126A
100
AcDbEntity
  8
0
100
AcDbBlockEnd
  0
BLOCK
  5
127D
330
127C
100
AcDbEntity
  8
0
100
AcDbBlockBegin
  2
*D13
 70
     1
 10
0.0
 20
0.0
 30
0.0
  3
*D13
  1
*D152
  0
LINE
  5
127E
330
127C
100
AcDbEntity
  8
DIM
  6
Continuous
 62
     0
370
    -2
100
AcDbLine
 10
528.3625009477164
 20
2149.395394639839
 30
0.0
 11
528.3625009477164
 21
2233.454839079049
 31
0.0
  0
LINE
  5
127F
330
127C
100
AcDbEntity
  8
DIM
  6
Continuous
 62
     0
370
    -2
100
AcDbLine
 10
808.3625009477164
 20
2149.395394639839
 30
0.0
 11
808.3625009477164
 21
2233.454839079049
 31
0.0
  0
LINE
  5
1280
330
127C
100
AcDbEntity
  8
DIM
  6
Continuous
 62
     0
370
    -2
100
AcDbLine
 10
531.3625009477164
 20
2233.454839079049
 30
0.0
 11
805.3625009477164
 21
2233.454839079049
 31
0.0
  0
INSERT
  5
1281
330
127C
100
AcDbEntity
  8
DIM
 62
     0
370
    -2
100
AcDbBlockReference
  2
_DOT
 10
528.3625009477164
 20
2233.454839079049
 30
0.0
 41
3.0
 42
3.0
 43
3.0
 50
180.0
  0
INSERT
  5
1282
330
127C
100
AcDbEntity
  8
DIM
 62
     0
370
    -2
100
AcDbBlockReference
  2
_DOT
 10
808.3625009477164
 20
2233.454839079049
 30
0.0
 41
3.0
 42
3.0
 43
3.0
  0
MTEXT
  5
1283
330
127C
100
AcDbEntity
  8
DIM
 62
     0
 48
0.05
100
AcDbMText
 10
668.3625009477164
 20
2249.454839079049
 30
0.0
 40
12.0
 41
0.0
 46
0.0
 71
     5
 72
     1
  1
\A1;280
  7
ＭＳ ゴシック
 73
     1
 44
1.0
  0
POINT
  5
1284
330
127C
100
AcDbEntity
  8
Defpoints
 62
     0
100
AcDbPoint
 10
528.3625009477164
 20
2139.395394639839
 30
0.0
  0
POINT
  5
1285
330
127C
100
AcDbEntity
  8
Defpoints
 62
     0
100
AcDbPoint
 10
808.3625009477164
 20
2139.395394639839
 30
0.0
  0
POINT
  5
1286
330
127C
100
AcDbEntity
  8
Defpoints
 62
     0
100
AcDbPoint
 10
808.3625009477164
 20
2233.454839079049
 30
0.0
  0
ENDBLK
  5
1287
330
127C
100
AcDbEntity
  8
0
100
AcDbBlockEnd
  0
BLOCK
  5
128C
330
128B
100
AcDbEntity
  8
0
100
AcDbBlockBegin
  2
*D14
 70
     1
 10
0.0
 20
0.0
 30
0.0
  3
*D14
  1
*D153
  0
LINE
  5
128D
330
128B
100
AcDbEntity
  8
DIM
  6
Continuous
 62
     0
370
    -2
100
AcDbLine
 10
818.3625009477164
 20
2139.395394639839
 30
0.0
 11
943.0573581501604
 21
2139.395394639839
 31
0.0
  0
LINE
  5
128E
330
128B
100
AcDbEntity
  8
DIM
  6
Continuous
 62
     0
370
    -2
100
AcDbLine
 10
818.3625009477164
 20
1869.395394639839
 30
0.0
 11
943.0573581501604
 21
1869.395394639839
 31
0.0
  0
LINE
  5
128F
330
128B
100
AcDbEntity
  8
DIM
  6
Continuous
 62
     0
370
    -2
100
AcDbLine
 10
943.0573581501604
 20
2136.395394639839
 30
0.0
 11
943.0573581501604
 21
1872.395394639839
 31
0.0
  0
INSERT
  5
1290
330
128B
100
AcDbEntity
  8
DIM
 62
     0
370
    -2
100
AcDbBlockReference
  2
_DOT
 10
943.0573581501604
 20
2139.395394639839
 30
0.0
 41
3.0
 42
3.0
 43
3.0
 50
90.0
  0
INSERT
  5
1291
330
128B
100
AcDbEntity
  8
DIM
 62
     0
370
    -2
100
AcDbBlockReference
  2
_DOT
 10
943.0573581501604
 20
1869.395394639839
 30
0.0
 41
3.0
 42
3.0
 43
3.0
 50
270.0
  0
MTEXT
  5
1292
330
128B
100
AcDbEntity
  8
DIM
 62
     0
 48
0.05
100
AcDbMText
 10
927.0573581501604
 20
2004.395394639839
 30
0.0
 40
12.0
 41
0.0
 46
0.0
 71
     5
 72
     1
  1
\A1;270
  7
ＭＳ ゴシック
 11
0.0
 21
1.0
 31
0.0
 73
     1
 44
1.0
  0
POINT
  5
1293
330
128B
100
AcDbEntity
  8
Defpoints
 62
     0
100
AcDbPoint
 10
808.3625009477164
 20
2139.395394639839
 30
0.0
  0
POINT
  5
1294
330
128B
100
AcDbEntity
  8
Defpoints
 62
     0
100
AcDbPoint
 10
808.3625009477164
 20
1869.395394639839
 30
0.0
  0
POINT
  5
1295
330
128B
100
AcDbEntity
  8
Defpoints
 62
     0
100
AcDbPoint
 10
943.0573581501604
 20
1869.395394639839
 30
0.0
  0
ENDBLK
  5
1296
330
128B
100
AcDbEntity
  8
0
100
AcDbBlockEnd
  0
BLOCK
  5
1299
330
1298
100
AcDbEntity
  8
0
100
AcDbBlockBegin
  2
*D15
 70
     1
 10
0.0
 20
0.0
 30
0.0
  3
*D15
  1
*D155
  0
LINE
  5
129A
330
1298
100
AcDbEntity
  8
DIM
  6
Continuous
 62
     0
370
    -2
100
AcDbLine
 10
548.3625009477164
 20
1863.614156196345
 30
0.0
 11
548.3625009477164
 21
1767.203892626843
 31
0.0
  0
LINE
  5
129B
330
1298
100
AcDbEntity
  8
DIM
  6
Continuous
 62
     0
370
    -2
100
AcDbLine
 10
788.3625009477164
 20
1863.614156310718
 30
0.0
 11
788.3625009477164
 21
1767.203892626843
 31
0.0
  0
LINE
  5
129C
330
1298
100
AcDbEntity
  8
DIM
  6
Continuous
 62
     0
370
    -2
100
AcDbLine
 10
551.3625009477164
 20
1767.203892626843
 30
0.0
 11
785.3625009477164
 21
1767.203892626843
 31
0.0
  0
INSERT
  5
129D
330
1298
100
AcDbEntity
  8
DIM
 62
     0
370
    -2
100
AcDbBlockReference
  2
_DOT
 10
548.3625009477164
 20
1767.203892626843
 30
0.0
 41
3.0
 42
3.0
 43
3.0
 50
180.0
  0
INSERT
  5
129E
330
1298
100
AcDbEntity
  8
DIM
 62
     0
370
    -2
100
AcDbBlockReference
  2
_DOT
 10
788.3625009477164
 20
1767.203892626843
 30
0.0
 41
3.0
 42
3.0
 43
3.0
  0
MTEXT
  5
129F
330
1298
100
AcDbEntity
  8
DIM
 62
     0
 48
0.05
100
AcDbMText
 10
668.3625009477164
 20
1783.203892626843
 30
0.0
 40
12.0
 41
0.0
 46
0.0
 71
     5
 72
     1
  1
\A1;240
  7
ＭＳ ゴシック
 73
     1
 44
1.0
  0
POINT
  5
12A0
330
1298
100
AcDbEntity
  8
Defpoints
 62
     0
100
AcDbPoint
 10
548.3625009477164
 20
1873.614156196345
 30
0.0
  0
POINT
  5
12A1
330
1298
100
AcDbEntity
  8
Defpoints
 62
     0
100
AcDbPoint
 10
788.3625009477164
 20
1873.614156310718
 30
0.0
  0
POINT
  5
12A2
330
1298
100
AcDbEntity
  8
Defpoints
 62
     0
100
AcDbPoint
 10
788.3625009477164
 20
1767.203892626843
 30
0.0
  0
ENDBLK
  5
12A3
330
1298
100
AcDbEntity
  8
0
100
AcDbBlockEnd
  0
BLOCK
  5
12A6
330
12A5
100
AcDbEntity
  8
0
100
AcDbBlockBegin
  2
*D16
 70
     1
 10
0.0
 20
0.0
 30
0.0
  3
*D16
  1
*D156
  0
LINE
  5
12A7
330
12A5
100
AcDbEntity
  8
DIM
  6
Continuous
 62
     0
370
    -2
100
AcDbLine
 10
519.7737366072784
 20
2059.395394639839
 30
0.0
 11
430.3828704682785
 21
2059.395394639839
 31
0.0
  0
LINE
  5
12A8
330
12A5
100
AcDbEntity
  8
DIM
  6
Continuous
 62
     0
370
    -2
100
AcDbLine
 10
519.7737366072784
 20
1889.395394639839
 30
0.0
 11
430.3828704682785
 21
1889.395394639839
 31
0.0
  0
LINE
  5
12A9
330
12A5
100
AcDbEntity
  8
DIM
  6
Continuous
 62
     0
370
    -2
100
AcDbLine
 10
430.3828704682785
 20
2056.395394639839
 30
0.0
 11
430.3828704682785
 21
1892.395394639839
 31
0.0
  0
INSERT
  5
12AA
330
12A5
100
AcDbEntity
  8
DIM
 62
     0
370
    -2
100
AcDbBlockReference
  2
_DOT
 10
430.3828704682785
 20
2059.395394639839
 30
0.0
 41
3.0
 42
3.0
 43
3.0
 50
90.0
  0
INSERT
  5
12AB
330
12A5
100
AcDbEntity
  8
DIM
 62
     0
370
    -2
100
AcDbBlockReference
  2
_DOT
 10
430.3828704682785
 20
1889.395394639839
 30
0.0
 41
3.0
 42
3.0
 43
3.0
 50
270.0
  0
MTEXT
  5
12AC
330
12A5
100
AcDbEntity
  8
DIM
 62
     0
 48
0.05
100
AcDbMText
 10
414.3828704682785
 20
1974.395394639839
 30
0.0
 40
12.0
 41
0.0
 46
0.0
 71
     5
 72
     1
  1
\A1;170
  7
ＭＳ ゴシック
 11
0.0
 21
1.0
 31
0.0
 73
     1
 44
1.0
  0
POINT
  5
12AD
330
12A5
100
AcDbEntity
  8
Defpoints
 62
     0
100
AcDbPoint
 10
529.7737366072784
 20
2059.395394639839
 30
0.0
  0
POINT
  5
12AE
330
12A5
100
AcDbEntity
  8
Defpoints
 62
     0
100
AcDbPoint
 10
529.7737366072784
 20
1889.395394639839
 30
0.0
  0
POINT
  5
12AF
330
12A5
100
AcDbEntity
  8
Defpoints
 62
     0
100
AcDbPoint
 10
430.3828704682785
 20
1889.395394639839
 30
0.0
  0
ENDBLK
  5
12B0
330
12A5
100
AcDbEntity
  8
0
100
AcDbBlockEnd
  0
BLOCK
  5
12B3
330
12B2
100
AcDbEntity
  8
0
100
AcDbBlockBegin
  2
*D17
 70
     1
 10
0.0
 20
0.0
 30
0.0
  3
*D17
  1
*D157
  0
LINE
  5
12B4
330
12B2
100
AcDbEntity
  8
DIM
  6
Continuous
 62
     0
370
    -2
100
AcDbLine
 10
1568.564717193186
 20
977.0904532939817
 30
0.0
 11
1568.564717193186
 21
890.2354896300342
 31
0.0
  0
LINE
  5
12B5
330
12B2
100
AcDbEntity
  8
DIM
  6
Continuous
 62
     0
370
    -2
100
AcDbLine
 10
1448.564717193186
 20
977.0904532939817
 30
0.0
 11
1448.564717193186
 21
890.2354896300342
 31
0.0
  0
LINE
  5
12B6
330
12B2
100
AcDbEntity
  8
DIM
  6
Continuous
 62
     0
370
    -2
100
AcDbLine
 10
1565.564717193186
 20
890.2354896300342
 30
0.0
 11
1451.564717193186
 21
890.2354896300342
 31
0.0
  0
INSERT
  5
12B7
330
12B2
100
AcDbEntity
  8
DIM
 62
     0
370
    -2
100
AcDbBlockReference
  2
_DOT
 10
1568.564717193186
 20
890.2354896300342
 30
0.0
 41
3.0
 42
3.0
 43
3.0
  0
INSERT
  5
12B8
330
12B2
100
AcDbEntity
  8
DIM
 62
     0
370
    -2
100
AcDbBlockReference
  2
_DOT
 10
1448.564717193186
 20
890.2354896300342
 30
0.0
 41
3.0
 42
3.0
 43
3.0
 50
180.0
  0
MTEXT
  5
12B9
330
12B2
100
AcDbEntity
  8
DIM
 62
     0
 48
0.05
100
AcDbMText
 10
1508.564717193186
 20
906.2354896300342
 30
0.0
 40
12.0
 41
0.0
 46
0.0
 71
     5
 72
     1
  1
\A1;120
  7
ＭＳ ゴシック
 73
     1
 44
1.0
  0
POINT
  5
12BA
330
12B2
100
AcDbEntity
  8
Defpoints
 62
     0
100
AcDbPoint
 10
1568.564717193186
 20
987.0904532939817
 30
0.0
  0
POINT
  5
12BB
330
12B2
100
AcDbEntity
  8
Defpoints
 62
     0
100
AcDbPoint
 10
1448.564717193186
 20
987.0904532939817
 30
0.0
  0
POINT
  5
12BC
330
12B2
100
AcDbEntity
  8
Defpoints
 62
     0
100
AcDbPoint
 10
1448.564717193186
 20
890.2354896300342
 30
0.0
  0
ENDBLK
  5
12BD
330
12B2
100
AcDbEntity
  8
0
100
AcDbBlockEnd
  0
BLOCK
  5
12C0
330
12BF
100
AcDbEntity
  8
0
100
AcDbBlockBegin
  2
*D18
 70
     1
 10
0.0
 20
0.0
 30
0.0
  3
*D18
  1
*D158
  0
LINE
  5
12C1
330
12BF
100
AcDbEntity
  8
DIM
  6
Continuous
 62
     0
370
    -2
100
AcDbLine
 10
1568.564717193186
 20
1087.090453293982
 30
0.0
 11
1568.564717193186
 21
1170.031259957072
 31
0.0
  0
LINE
  5
12C2
330
12BF
100
AcDbEntity
  8
DIM
  6
Continuous
 62
     0
370
    -2
100
AcDbLine
 10
1523.564717193186
 20
1087.090453293982
 30
0.0
 11
1523.564717193186
 21
1170.031259957072
 31
0.0
  0
LINE
  5
12C3
330
12BF
100
AcDbEntity
  8
DIM
  6
Continuous
 62
     0
370
    -2
100
AcDbLine
 10
1565.564717193186
 20
1170.031259957072
 30
0.0
 11
1526.564717193186
 21
1170.031259957072
 31
0.0
  0
INSERT
  5
12C4
330
12BF
100
AcDbEntity
  8
DIM
 62
     0
370
    -2
100
AcDbBlockReference
  2
_DOT
 10
1568.564717193186
 20
1170.031259957072
 30
0.0
 41
3.0
 42
3.0
 43
3.0
  0
INSERT
  5
12C5
330
12BF
100
AcDbEntity
  8
DIM
 62
     0
370
    -2
100
AcDbBlockReference
  2
_DOT
 10
1523.564717193186
 20
1170.031259957072
 30
0.0
 41
3.0
 42
3.0
 43
3.0
 50
180.0
  0
MTEXT
  5
12C6
330
12BF
100
AcDbEntity
  8
DIM
 62
     0
 48
0.05
100
AcDbMText
 10
1546.064717193186
 20
1186.031259957072
 30
0.0
 40
12.0
 41
0.0
 46
0.0
 71
     5
 72
     1
  1
\A1;45
  7
ＭＳ ゴシック
 73
     1
 44
1.0
  0
POINT
  5
12C7
330
12BF
100
AcDbEntity
  8
Defpoints
 62
     0
100
AcDbPoint
 10
1568.564717193186
 20
1077.090453293982
 30
0.0
  0
POINT
  5
12C8
330
12BF
100
AcDbEntity
  8
Defpoints
 62
     0
100
AcDbPoint
 10
1523.564717193186
 20
1077.090453293982
 30
0.0
  0
POINT
  5
12C9
330
12BF
100
AcDbEntity
  8
Defpoints
 62
     0
100
AcDbPoint
 10
1523.564717193186
 20
1170.031259957072
 30
0.0
  0
ENDBLK
  5
12CA
330
12BF
100
AcDbEntity
  8
0
100
AcDbBlockEnd
  0
BLOCK
  5
12CD
330
12CC
100
AcDbEntity
  8
0
100
AcDbBlockBegin
  2
*D19
 70
     1
 10
0.0
 20
0.0
 30
0.0
  3
*D19
  1
*D159
  0
LINE
  5
12CE
330
12CC
100
AcDbEntity
  8
DIM
  6
Continuous
 62
     0
370
    -2
100
AcDbLine
 10
525.0132733540179
 20
2139.395394639839
 30
0.0
 11
430.3828704682785
 21
2139.395394639839
 31
0.0
  0
LINE
  5
12CF
330
12CC
100
AcDbEntity
  8
DIM
  6
Continuous
 62
     0
370
    -2
100
AcDbLine
 10
525.0132733540179
 20
2059.395394639839
 30
0.0
 11
430.3828704682785
 21
2059.395394639839
 31
0.0
  0
LINE
  5
12D0
330
12CC
100
AcDbEntity
  8
DIM
  6
Continuous
 62
     0
370
    -2
100
AcDbLine
 10
430.3828704682785
 20
2136.395394639839
 30
0.0
 11
430.3828704682785
 21
2062.395394639839
 31
0.0
  0
INSERT
  5
12D1
330
12CC
100
AcDbEntity
  8
DIM
 62
     0
370
    -2
100
AcDbBlockReference
  2
_DOT
 10
430.3828704682785
 20
2139.395394639839
 30
0.0
 41
3.0
 42
3.0
 43
3.0
 50
90.0
  0
INSERT
  5
12D2
330
12CC
100
AcDbEntity
  8
DIM
 62
     0
370
    -2
100
AcDbBlockReference
  2
_DOT
 10
430.3828704682785
 20
2059.395394639839
 30
0.0
 41
3.0
 42
3.0
 43
3.0
 50
270.0
  0
MTEXT
  5
12D3
330
12CC
100
AcDbEntity
  8
DIM
 62
     0
 48
0.05
100
AcDbMText
 10
414.3828704682785
 20
2099.395394639839
 30
0.0
 40
12.0
 41
0.0
 46
0.0
 71
     5
 72
     1
  1
\A1;80
  7
ＭＳ ゴシック
 11
0.0
 21
1.0
 31
0.0
 73
     1
 44
1.0
  0
POINT
  5
12D4
330
12CC
100
AcDbEntity
  8
Defpoints
 62
     0
100
AcDbPoint
 10
535.0132733540179
 20
2139.395394639839
 30
0.0
  0
POINT
  5
12D5
330
12CC
100
AcDbEntity
  8
Defpoints
 62
     0
100
AcDbPoint
 10
535.0132733540179
 20
2059.395394639839
 30
0.0
  0
POINT
  5
12D6
330
12CC
100
AcDbEntity
  8
Defpoints
 62
     0
100
AcDbPoint
 10
430.3828704682785
 20
2059.395394639839
 30
0.0
  0
ENDBLK
  5
12D7
330
12CC
100
AcDbEntity
  8
0
100
AcDbBlockEnd
  0
BLOCK
  5
12DC
330
12DB
100
AcDbEntity
  8
0
100
AcDbBlockBegin
  2
*D20
 70
     1
 10
0.0
 20
0.0
 30
0.0
  3
*D20
  1
*D160
  0
LINE
  5
12DD
330
12DB
100
AcDbEntity
  8
DIM
  6
Continuous
 62
     0
370
    -2
100
AcDbLine
 10
1288.564717193186
 20
1077.090453293982
 30
0.0
 11
1220.336957394863
 21
1077.090453293982
 31
0.0
  0
LINE
  5
12DE
330
12DB
100
AcDbEntity
  8
DIM
  6
Continuous
 62
     0
370
    -2
100
AcDbLine
 10
1288.564717193186
 20
987.0904532939817
 30
0.0
 11
1220.336957394863
 21
987.0904532939817
 31
0.0
  0
LINE
  5
12DF
330
12DB
100
AcDbEntity
  8
DIM
  6
Continuous
 62
     0
370
    -2
100
AcDbLine
 10
1220.336957394863
 20
1074.090453293982
 30
0.0
 11
1220.336957394863
 21
990.0904532939817
 31
0.0
  0
INSERT
  5
12E0
330
12DB
100
AcDbEntity
  8
DIM
 62
     0
370
    -2
100
AcDbBlockReference
  2
_DOT
 10
1220.336957394863
 20
1077.090453293982
 30
0.0
 41
3.0
 42
3.0
 43
3.0
 50
90.0
  0
INSERT
  5
12E1
330
12DB
100
AcDbEntity
  8
DIM
 62
     0
370
    -2
100
AcDbBlockReference
  2
_DOT
 10
1220.336957394863
 20
987.0904532939817
 30
0.0
 41
3.0
 42
3.0
 43
3.0
 50
270.0
  0
MTEXT
  5
12E2
330
12DB
100
AcDbEntity
  8
DIM
 62
     0
 48
0.05
100
AcDbMText
 10
1204.336957394863
 20
1032.090453293982
 30
0.0
 40
12.0
 41
0.0
 46
0.0
 71
     5
 72
     1
  1
\A1;90
  7
ＭＳ ゴシック
 11
0.0
 21
1.0
 31
0.0
 73
     1
 44
1.0
  0
POINT
  5
12E3
330
12DB
100
AcDbEntity
  8
Defpoints
 62
     0
100
AcDbPoint
 10
1298.564717193186
 20
1077.090453293982
 30
0.0
  0
POINT
  5
12E4
330
12DB
100
AcDbEntity
  8
Defpoints
 62
     0
100
AcDbPoint
 10
1298.564717193186
 20
987.0904532939817
 30
0.0
  0
POINT
  5
12E5
330
12DB
100
AcDbEntity
  8
Defpoints
 62
     0
100
AcDbPoint
 10
1220.336957394863
 20
987.0904532939817
 30
0.0
  0
ENDBLK
  5
12E6
330
12DB
100
AcDbEntity
  8
0
100
AcDbBlockEnd
  0
BLOCK
  5
12F5
330
12F4
100
AcDbEntity
  8
0
100
AcDbBlockBegin
  2
*D21
 70
     1
 10
0.0
 20
0.0
 30
0.0
  3
*D21
  1
*D153
  0
LINE
  5
12F6
330
12F4
100
AcDbEntity
  8
DIM
  6
Continuous
 62
     0
370
    -2
100
AcDbLine
 10
528.3625009477164
 20
1087.090453293982
 30
0.0
 11
528.3625009477164
 21
1136.059191016741
 31
0.0
  0
LINE
  5
12F7
330
12F4
100
AcDbEntity
  8
DIM
  6
Continuous
 62
     0
370
    -2
100
AcDbLine
 10
568.5369402446107
 20
1087.090453293982
 30
0.0
 11
568.5369402446107
 21
1136.059191016741
 31
0.0
  0
LINE
  5
12F8
330
12F4
100
AcDbEntity
  8
DIM
  6
Continuous
 62
     0
370
    -2
100
AcDbLine
 10
531.3625009477164
 20
1136.059191016741
 30
0.0
 11
565.5369402446107
 21
1136.059191016741
 31
0.0
  0
INSERT
  5
12F9
330
12F4
100
AcDbEntity
  8
DIM
 62
     0
370
    -2
100
AcDbBlockReference
  2
_DOT
 10
528.3625009477164
 20
1136.059191016741
 30
0.0
 41
3.0
 42
3.0
 43
3.0
 50
180.0
  0
INSERT
  5
12FA
330
12F4
100
AcDbEntity
  8
DIM
 62
     0
370
    -2
100
AcDbBlockReference
  2
_DOT
 10
568.5369402446107
 20
1136.059191016741
 30
0.0
 41
3.0
 42
3.0
 43
3.0
  0
MTEXT
  5
12FB
330
12F4
100
AcDbEntity
  8
DIM
 62
     0
 48
0.05
100
AcDbMText
 10
548.4497205961636
 20
1152.059191016741
 30
0.0
 40
12.0
 41
0.0
 46
0.0
 71
     5
 72
     1
  1
\A1;40
  7
ＭＳ ゴシック
 73
     1
 44
1.0
  0
POINT
  5
12FC
330
12F4
100
AcDbEntity
  8
Defpoints
 62
     0
100
AcDbPoint
 10
528.3625009477164
 20
1077.090453293982
 30
0.0
  0
POINT
  5
12FD
330
12F4
100
AcDbEntity
  8
Defpoints
 62
     0
100
AcDbPoint
 10
568.5369402446107
 20
1077.090453293982
 30
0.0
  0
POINT
  5
12FE
330
12F4
100
AcDbEntity
  8
Defpoints
 62
     0
100
AcDbPoint
 10
568.5369402446107
 20
1136.059191016741
 30
0.0
  0
ENDBLK
  5
12FF
330
12F4
100
AcDbEntity
  8
0
100
AcDbBlockEnd
  0
BLOCK
  5
1304
330
1303
100
AcDbEntity
  8
0
100
AcDbBlockBegin
  2
*D22
 70
     1
 10
0.0
 20
0.0
 30
0.0
  3
*D22
  1
*D154
  0
LINE
  5
1305
330
1303
100
AcDbEntity
  8
DIM
  6
Continuous
 62
     0
370
    -2
100
AcDbLine
 10
516.0369402446107
 20
1047.090453293982
 30
0.0
 11
460.4197949721854
 21
1047.090453293982
 31
0.0
  0
LINE
  5
1306
330
1303
100
AcDbEntity
  8
DIM
  6
Continuous
 62
     0
370
    -2
100
AcDbLine
 10
518.3625009477164
 20
1077.090453293982
 30
0.0
 11
460.4197949721854
 21
1077.090453293982
 31
0.0
  0
LINE
  5
1307
330
1303
100
AcDbEntity
  8
DIM
  6
Continuous
 62
     0
370
    -2
100
AcDbLine
 10
460.4197949721854
 20
1050.090453293982
 30
0.0
 11
460.4197949721854
 21
1074.090453293982
 31
0.0
  0
INSERT
  5
1308
330
1303
100
AcDbEntity
  8
DIM
 62
     0
370
    -2
100
AcDbBlockReference
  2
_DOT
 10
460.4197949721854
 20
1047.090453293982
 30
0.0
 41
3.0
 42
3.0
 43
3.0
 50
270.0
  0
INSERT
  5
1309
330
1303
100
AcDbEntity
  8
DIM
 62
     0
370
    -2
100
AcDbBlockReference
  2
_DOT
 10
460.4197949721854
 20
1077.090453293982
 30
0.0
 41
3.0
 42
3.0
 43
3.0
 50
90.0
  0
MTEXT
  5
130A
330
1303
100
AcDbEntity
  8
DIM
 62
     0
 48
0.05
100
AcDbMText
 10
444.4197949721854
 20
1062.090453293982
 30
0.0
 40
12.0
 41
0.0
 46
0.0
 71
     5
 72
     1
  1
\A1;30
  7
ＭＳ ゴシック
 11
0.0
 21
1.0
 31
0.0
 73
     1
 44
1.0
  0
POINT
  5
130B
330
1303
100
AcDbEntity
  8
Defpoints
 62
     0
100
AcDbPoint
 10
526.0369402446107
 20
1047.090453293982
 30
0.0
  0
POINT
  5
130C
330
1303
100
AcDbEntity
  8
Defpoints
 62
     0
100
AcDbPoint
 10
528.3625009477164
 20
1077.090453293982
 30
0.0
  0
POINT
  5
130D
330
1303
100
AcDbEntity
  8
Defpoints
 62
     0
100
AcDbPoint
 10
460.4197949721854
 20
1077.090453293982
 30
0.0
  0
ENDBLK
  5
130E
330
1303
100
AcDbEntity
  8
0
100
AcDbBlockEnd
  0
BLOCK
  5
1311
330
1310
100
AcDbEntity
  8
0
100
AcDbBlockBegin
  2
*D23
 70
     1
 10
0.0
 20
0.0
 30
0.0
  3
*D23
  1
*D156
  0
LINE
  5
1312
330
1310
100
AcDbEntity
  8
DIM
  6
Continuous
 62
     0
370
    -2
100
AcDbLine
 10
808.3625009477164
 20
1087.090453293982
 30
0.0
 11
808.3625009477164
 21
1136.059191016741
 31
0.0
  0
LINE
  5
1313
330
1310
100
AcDbEntity
  8
DIM
  6
Continuous
 62
     0
370
    -2
100
AcDbLine
 10
768.1880616508221
 20
1087.090453293982
 30
0.0
 11
768.1880616508221
 21
1136.059191016741
 31
0.0
  0
LINE
  5
1314
330
1310
100
AcDbEntity
  8
DIM
  6
Continuous
 62
     0
370
    -2
100
AcDbLine
 10
805.3625009477164
 20
1136.059191016741
 30
0.0
 11
771.1880616508221
 21
1136.059191016741
 31
0.0
  0
INSERT
  5
1315
330
1310
100
AcDbEntity
  8
DIM
 62
     0
370
    -2
100
AcDbBlockReference
  2
_DOT
 10
808.3625009477164
 20
1136.059191016741
 30
0.0
 41
3.0
 42
3.0
 43
3.0
  0
INSERT
  5
1316
330
1310
100
AcDbEntity
  8
DIM
 62
     0
370
    -2
100
AcDbBlockReference
  2
_DOT
 10
768.1880616508221
 20
1136.059191016741
 30
0.0
 41
3.0
 42
3.0
 43
3.0
 50
180.0
  0
MTEXT
  5
1317
330
1310
100
AcDbEntity
  8
DIM
 62
     0
 48
0.05
100
AcDbMText
 10
788.2752812992692
 20
1152.059191016741
 30
0.0
 40
12.0
 41
0.0
 46
0.0
 71
     5
 72
     1
  1
\A1;40
  7
ＭＳ ゴシック
 73
     1
 44
1.0
  0
POINT
  5
1318
330
1310
100
AcDbEntity
  8
Defpoints
 62
     0
100
AcDbPoint
 10
808.3625009477164
 20
1077.090453293982
 30
0.0
  0
POINT
  5
1319
330
1310
100
AcDbEntity
  8
Defpoints
 62
     0
100
AcDbPoint
 10
768.1880616508221
 20
1077.090453293982
 30
0.0
  0
POINT
  5
131A
330
1310
100
AcDbEntity
  8
Defpoints
 62
     0
100
AcDbPoint
 10
768.1880616508221
 20
1136.059191016741
 30
0.0
  0
ENDBLK
  5
131B
330
1310
100
AcDbEntity
  8
0
100
AcDbBlockEnd
  0
BLOCK
  5
131E
330
131D
100
AcDbEntity
  8
0
100
AcDbBlockBegin
  2
*D24
 70
     1
 10
0.0
 20
0.0
 30
0.0
  3
*D24
  1
*D157
  0
LINE
  5
131F
330
131D
100
AcDbEntity
  8
DIM
  6
Continuous
 62
     0
370
    -2
100
AcDbLine
 10
818.3625009477164
 20
1077.090453293982
 30
0.0
 11
897.2941195370731
 21
1077.090453293982
 31
0.0
  0
LINE
  5
1320
330
131D
100
AcDbEntity
  8
DIM
  6
Continuous
 62
     0
370
    -2
100
AcDbLine
 10
818.3625009477164
 20
1040.090453293982
 30
0.0
 11
897.2941195370731
 21
1040.090453293982
 31
0.0
  0
LINE
  5
1321
330
131D
100
AcDbEntity
  8
DIM
  6
Continuous
 62
     0
370
    -2
100
AcDbLine
 10
897.2941195370731
 20
1074.090453293982
 30
0.0
 11
897.2941195370731
 21
1043.090453293982
 31
0.0
  0
INSERT
  5
1322
330
131D
100
AcDbEntity
  8
DIM
 62
     0
370
    -2
100
AcDbBlockReference
  2
_DOT
 10
897.2941195370731
 20
1077.090453293982
 30
0.0
 41
3.0
 42
3.0
 43
3.0
 50
90.0
  0
INSERT
  5
1323
330
131D
100
AcDbEntity
  8
DIM
 62
     0
370
    -2
100
AcDbBlockReference
  2
_DOT
 10
897.2941195370731
 20
1040.090453293982
 30
0.0
 41
3.0
 42
3.0
 43
3.0
 50
270.0
  0
MTEXT
  5
1324
330
131D
100
AcDbEntity
  8
DIM
 62
     0
 48
0.05
100
AcDbMText
 10
881.2941195370731
 20
1058.590453293982
 30
0.0
 40
12.0
 41
0.0
 46
0.0
 71
     5
 72
     1
  1
\A1;37
  7
ＭＳ ゴシック
 11
0.0
 21
1.0
 31
0.0
 73
     1
 44
1.0
  0
POINT
  5
1325
330
131D
100
AcDbEntity
  8
Defpoints
 62
     0
100
AcDbPoint
 10
808.3625009477164
 20
1077.090453293982
 30
0.0
  0
POINT
  5
1326
330
131D
100
AcDbEntity
  8
Defpoints
 62
     0
100
AcDbPoint
 10
808.3625009477164
 20
1040.090453293982
 30
0.0
  0
POINT
  5
1327
330
131D
100
AcDbEntity
  8
Defpoints
 62
     0
100
AcDbPoint
 10
897.2941195370731
 20
1040.090453293982
 30
0.0
  0
ENDBLK
  5
1328
330
131D
100
AcDbEntity
  8
0
100
AcDbBlockEnd
  0
BLOCK
  5
13E9
330
13E8
100
AcDbEntity
  8
0
100
AcDbBlockBegin
  2
*D25
 70
     1
 10
0.0
 20
0.0
 30
0.0
  3
*D25
  1
*D26
  0
LINE
  5
13EB
330
13E8
100
AcDbEntity
  8
DIM
  6
Continuous
 62
     0
370
    -2
100
AcDbLine
 10
-271.1825152111614
 20
531.7642506700759
 30
0.0
 11
-271.1825152111614
 21
610.5322506700759
 31
0.0
  0
LINE
  5
13EC
330
13E8
100
AcDbEntity
  8
DIM
  6
Continuous
 62
     0
370
    -2
100
AcDbLine
 10
-271.1825152111614
 20
528.7642506700759
 30
0.0
 11
-271.1825152111614
 21
459.1623972815378
 31
0.0
  0
INSERT
  5
13ED
330
13E8
100
AcDbEntity
  8
DIM
 62
     0
370
    -2
100
AcDbBlockReference
  2
_DOT
 10
-271.1825152111614
 20
531.7642506700759
 30
0.0
 41
3.0
 42
3.0
 43
3.0
 50
90.0
  0
INSERT
  5
13EE
330
13E8
100
AcDbEntity
  8
DIM
 62
     0
370
    -2
100
AcDbBlockReference
  2
_DOT
 10
-271.1825152111614
 20
456.1623972815378
 30
0.0
 41
3.0
 42
3.0
 43
3.0
 50
270.0
  0
MTEXT
  5
13EF
330
13E8
100
AcDbEntity
  8
DIM
 62
     0
 48
0.05
100
AcDbMText
 10
-283.2445152111615
 20
576.6482506700759
 30
0.0
 40
12.0
 41
0.0
 46
0.0
 71
     5
 72
     1
  1
\A1;75(深さ)
  7
ＭＳ ゴシック
 11
0.0
 21
1.0
 31
0.0
 73
     1
 44
1.0
  0
POINT
  5
13F0
330
13E8
100
AcDbEntity
  8
Defpoints
 62
     0
100
AcDbPoint
 10
-248.071255229388
 20
531.7642506700759
 30
0.0
  0
POINT
  5
13F1
330
13E8
100
AcDbEntity
  8
Defpoints
 62
     0
100
AcDbPoint
 10
-271.1825152111614
 20
456.1623972815378
 30
0.0
  0
POINT
  5
13F2
330
13E8
100
AcDbEntity
  8
Defpoints
 62
     0
100
AcDbPoint
 10
-271.1825152111614
 20
456.1623972815378
 30
0.0
  0
ENDBLK
  5
13EA
330
13E8
100
AcDbEntity
  8
0
100
AcDbBlockEnd
  0
BLOCK
  5
13F4
330
13F3
100
AcDbEntity
  8
0
100
AcDbBlockBegin
  2
*D26
 70
     1
 10
0.0
 20
0.0
 30
0.0
  3
*D26
  1
*D27
  0
LINE
  5
13F6
330
13F3
100
AcDbEntity
  8
DIM
  6
Continuous
 62
     0
370
    -2
100
AcDbLine
 10
-252.4978367187232
 20
1067.686447846837
 30
0.0
 11
-128.2510574469566
 21
1067.686447846837
 31
0.0
  0
LINE
  5
13F7
330
13F3
100
AcDbEntity
  8
DIM
  6
Continuous
 62
     0
370
    -2
100
AcDbLine
 10
-252.4978367187232
 20
1232.686447846837
 30
0.0
 11
-128.2510574469566
 21
1232.686447846837
 31
0.0
  0
LINE
  5
13F8
330
13F3
100
AcDbEntity
  8
DIM
  6
Continuous
 62
     0
370
    -2
100
AcDbLine
 10
-128.2510574469566
 20
1070.686447846837
 30
0.0
 11
-128.2510574469566
 21
1229.686447846837
 31
0.0
  0
INSERT
  5
13F9
330
13F3
100
AcDbEntity
  8
DIM
 62
     0
370
    -2
100
AcDbBlockReference
  2
_DOT
 10
-128.2510574469566
 20
1067.686447846837
 30
0.0
 41
3.0
 42
3.0
 43
3.0
 50
270.0
  0
INSERT
  5
13FA
330
13F3
100
AcDbEntity
  8
DIM
 62
     0
370
    -2
100
AcDbBlockReference
  2
_DOT
 10
-128.2510574469566
 20
1232.686447846837
 30
0.0
 41
3.0
 42
3.0
 43
3.0
 50
90.0
  0
MTEXT
  5
13FB
330
13F3
100
AcDbEntity
  8
DIM
 62
     0
 48
0.05
100
AcDbMText
 10
-139.2510574469566
 20
1150.186447846837
 30
0.0
 40
12.0
 41
0.0
 46
0.0
 71
     5
 72
     1
  1
\A1;165
  7
ＭＳ ゴシック
 11
0.0
 21
1.0
 31
0.0
 73
     1
 44
1.0
  0
POINT
  5
13FC
330
13F3
100
AcDbEntity
  8
Defpoints
 62
     0
100
AcDbPoint
 10
-262.4978367187232
 20
1067.686447846837
 30
0.0
  0
POINT
  5
13FD
330
13F3
100
AcDbEntity
  8
Defpoints
 62
     0
100
AcDbPoint
 10
-262.4978367187232
 20
1232.686447846837
 30
0.0
  0
POINT
  5
13FE
330
13F3
100
AcDbEntity
  8
Defpoints
 62
     0
100
AcDbPoint
 10
-128.2510574469566
 20
1232.686447846837
 30
0.0
  0
ENDBLK
  5
13F5
330
13F3
100
AcDbEntity
  8
0
100
AcDbBlockEnd
  0
BLOCK
  5
1400
330
13FF
100
AcDbEntity
  8
0
100
AcDbBlockBegin
  2
*D27
 70
     1
 10
0.0
 20
0.0
 30
0.0
  3
*D27
  1
*D28
  0
LINE
  5
1402
330
13FF
100
AcDbEntity
  8
DIM
  6
Continuous
 62
     0
370
    -2
100
AcDbLine
 10
-362.4978367187232
 20
1057.686447846837
 30
0.0
 11
-362.4978367187232
 21
928.188708434397
 31
0.0
  0
LINE
  5
1403
330
13FF
100
AcDbEntity
  8
DIM
  6
Continuous
 62
     0
370
    -2
100
AcDbLine
 10
-262.4978367187232
 20
1057.686447846837
 30
0.0
 11
-262.4978367187232
 21
928.188708434397
 31
0.0
  0
LINE
  5
1404
330
13FF
100
AcDbEntity
  8
DIM
  6
Continuous
 62
     0
370
    -2
100
AcDbLine
 10
-359.4978367187232
 20
928.188708434397
 30
0.0
 11
-265.4978367187232
 21
928.188708434397
 31
0.0
  0
INSERT
  5
1405
330
13FF
100
AcDbEntity
  8
DIM
 62
     0
370
    -2
100
AcDbBlockReference
  2
_DOT
 10
-362.4978367187232
 20
928.188708434397
 30
0.0
 41
3.0
 42
3.0
 43
3.0
 50
180.0
  0
INSERT
  5
1406
330
13FF
100
AcDbEntity
  8
DIM
 62
     0
370
    -2
100
AcDbBlockReference
  2
_DOT
 10
-262.4978367187232
 20
928.188708434397
 30
0.0
 41
3.0
 42
3.0
 43
3.0
  0
MTEXT
  5
1407
330
13FF
100
AcDbEntity
  8
DIM
 62
     0
 48
0.05
100
AcDbMText
 10
-312.4978367187232
 20
939.188708434397
 30
0.0
 40
12.0
 41
0.0
 46
0.0
 71
     5
 72
     1
  1
\A1;100
  7
ＭＳ ゴシック
 73
     1
 44
1.0
  0
POINT
  5
1408
330
13FF
100
AcDbEntity
  8
Defpoints
 62
     0
100
AcDbPoint
 10
-362.4978367187232
 20
1067.686447846837
 30
0.0
  0
POINT
  5
1409
330
13FF
100
AcDbEntity
  8
Defpoints
 62
     0
100
AcDbPoint
 10
-262.4978367187232
 20
1067.686447846837
 30
0.0
  0
POINT
  5
140A
330
13FF
100
AcDbEntity
  8
Defpoints
 62
     0
100
AcDbPoint
 10
-262.4978367187232
 20
928.188708434397
 30
0.0
  0
ENDBLK
  5
1401
330
13FF
100
AcDbEntity
  8
0
100
AcDbBlockEnd
  0
BLOCK
  5
140C
330
140B
100
AcDbEntity
  8
0
100
AcDbBlockBegin
  2
*D28
 70
     1
 10
0.0
 20
0.0
 30
0.0
  3
*D28
  1
*D29
  0
LINE
  5
140E
330
140B
100
AcDbEntity
  8
DIM
  6
Continuous
 62
     0
370
    -2
100
AcDbLine
 10
-252.4978367187232
 20
1232.686447846837
 30
0.0
 11
-128.2510574469566
 21
1232.686447846837
 31
0.0
  0
LINE
  5
140F
330
140B
100
AcDbEntity
  8
DIM
  6
Continuous
 62
     0
370
    -2
100
AcDbLine
 10
-252.4978367187232
 20
1247.686447846837
 30
0.0
 11
-128.2510574469566
 21
1247.686447846837
 31
0.0
  0
LINE
  5
1410
330
140B
100
AcDbEntity
  8
DIM
  6
Continuous
 62
     0
370
    -2
100
AcDbLine
 10
-128.2510574469566
 20
1235.686447846837
 30
0.0
 11
-128.2510574469566
 21
1244.686447846837
 31
0.0
  0
INSERT
  5
1411
330
140B
100
AcDbEntity
  8
DIM
 62
     0
370
    -2
100
AcDbBlockReference
  2
_DOT
 10
-128.2510574469566
 20
1232.686447846837
 30
0.0
 41
3.0
 42
3.0
 43
3.0
 50
270.0
  0
INSERT
  5
1412
330
140B
100
AcDbEntity
  8
DIM
 62
     0
370
    -2
100
AcDbBlockReference
  2
_DOT
 10
-128.2510574469566
 20
1247.686447846837
 30
0.0
 41
3.0
 42
3.0
 43
3.0
 50
90.0
  0
MTEXT
  5
1413
330
140B
100
AcDbEntity
  8
DIM
 62
     0
 48
0.05
100
AcDbMText
 10
-139.2510574469566
 20
1240.186447846837
 30
0.0
 40
12.0
 41
0.0
 46
0.0
 71
     5
 72
     1
  1
\A1;15
  7
ＭＳ ゴシック
 11
0.0
 21
1.0
 31
0.0
 73
     1
 44
1.0
  0
POINT
  5
1414
330
140B
100
AcDbEntity
  8
Defpoints
 62
     0
100
AcDbPoint
 10
-262.4978367187232
 20
1232.686447846837
 30
0.0
  0
POINT
  5
1415
330
140B
100
AcDbEntity
  8
Defpoints
 62
     0
100
AcDbPoint
 10
-262.4978367187232
 20
1247.686447846837
 30
0.0
  0
POINT
  5
1416
330
140B
100
AcDbEntity
  8
Defpoints
 62
     0
100
AcDbPoint
 10
-128.2510574469566
 20
1247.686447846837
 30
0.0
  0
ENDBLK
  5
140D
330
140B
100
AcDbEntity
  8
0
100
AcDbBlockEnd
  0
BLOCK
  5
1419
330
1418
100
AcDbEntity
  8
0
100
AcDbBlockBegin
  2
*D29
 70
     1
 10
0.0
 20
0.0
 30
0.0
  3
*D29
  1
*D30
  0
LINE
  5
141B
330
1418
100
AcDbEntity
  8
DIM
  6
Continuous
 62
     0
370
    -2
100
AcDbLine
 10
-922.2781116840067
 20
1257.686447846837
 30
0.0
 11
-922.2781116840067
 21
1314.204469739819
 31
0.0
  0
LINE
  5
141C
330
1418
100
AcDbEntity
  8
DIM
  6
Continuous
 62
     0
370
    -2
100
AcDbLine
 10
-642.2781116840067
 20
1257.686447846837
 30
0.0
 11
-642.2781116840067
 21
1314.204469739819
 31
0.0
  0
LINE
  5
141D
330
1418
100
AcDbEntity
  8
DIM
  6
Continuous
 62
     0
370
    -2
100
AcDbLine
 10
-919.2781116840067
 20
1314.204469739819
 30
0.0
 11
-645.2781116840067
 21
1314.204469739819
 31
0.0
  0
INSERT
  5
141E
330
1418
100
AcDbEntity
  8
DIM
 62
     0
370
    -2
100
AcDbBlockReference
  2
_DOT
 10
-922.2781116840067
 20
1314.204469739819
 30
0.0
 41
3.0
 42
3.0
 43
3.0
 50
180.0
  0
INSERT
  5
141F
330
1418
100
AcDbEntity
  8
DIM
 62
     0
370
    -2
100
AcDbBlockReference
  2
_DOT
 10
-642.2781116840067
 20
1314.204469739819
 30
0.0
 41
3.0
 42
3.0
 43
3.0
  0
MTEXT
  5
1420
330
1418
100
AcDbEntity
  8
DIM
 62
     0
 48
0.05
100
AcDbMText
 10
-782.2781116840067
 20
1325.204469739819
 30
0.0
 40
12.0
 41
0.0
 46
0.0
 71
     5
 72
     1
  1
\A1;280
  7
ＭＳ ゴシック
 73
     1
 44
1.0
  0
POINT
  5
1421
330
1418
100
AcDbEntity
  8
Defpoints
 62
     0
100
AcDbPoint
 10
-922.2781116840067
 20
1247.686447846837
 30
0.0
  0
POINT
  5
1422
330
1418
100
AcDbEntity
  8
Defpoints
 62
     0
100
AcDbPoint
 10
-642.2781116840067
 20
1247.686447846837
 30
0.0
  0
POINT
  5
1423
330
1418
100
AcDbEntity
  8
Defpoints
 62
     0
100
AcDbPoint
 10
-642.2781116840067
 20
1314.204469739819
 30
0.0
  0
ENDBLK
  5
141A
330
1418
100
AcDbEntity
  8
0
100
AcDbBlockEnd
  0
BLOCK
  5
1425
330
1424
100
AcDbEntity
  8
0
100
AcDbBlockBegin
  2
*D30
 70
     1
 10
0.0
 20
0.0
 30
0.0
  3
*D30
  1
*D31
  0
LINE
  5
1427
330
1424
100
AcDbEntity
  8
DIM
  6
Continuous
 62
     0
370
    -2
100
AcDbLine
 10
-632.2781116840067
 20
1247.686447846837
 30
0.0
 11
-580.3699625647846
 21
1247.686447846837
 31
0.0
  0
LINE
  5
1428
330
1424
100
AcDbEntity
  8
DIM
  6
Continuous
 62
     0
370
    -2
100
AcDbLine
 10
-632.2781116840067
 20
977.686447846837
 30
0.0
 11
-580.3699625647846
 21
977.686447846837
 31
0.0
  0
LINE
  5
1429
330
1424
100
AcDbEntity
  8
DIM
  6
Continuous
 62
     0
370
    -2
100
AcDbLine
 10
-580.3699625647846
 20
1244.686447846837
 30
0.0
 11
-580.3699625647846
 21
980.686447846837
 31
0.0
  0
INSERT
  5
142A
330
1424
100
AcDbEntity
  8
DIM
 62
     0
370
    -2
100
AcDbBlockReference
  2
_DOT
 10
-580.3699625647846
 20
1247.686447846837
 30
0.0
 41
3.0
 42
3.0
 43
3.0
 50
90.0
  0
INSERT
  5
142B
330
1424
100
AcDbEntity
  8
DIM
 62
     0
370
    -2
100
AcDbBlockReference
  2
_DOT
 10
-580.3699625647846
 20
977.686447846837
 30
0.0
 41
3.0
 42
3.0
 43
3.0
 50
270.0
  0
MTEXT
  5
142C
330
1424
100
AcDbEntity
  8
DIM
 62
     0
 48
0.05
100
AcDbMText
 10
-591.3699625647846
 20
1112.686447846837
 30
0.0
 40
12.0
 41
0.0
 46
0.0
 71
     5
 72
     1
  1
\A1;270
  7
ＭＳ ゴシック
 11
0.0
 21
1.0
 31
0.0
 73
     1
 44
1.0
  0
POINT
  5
142D
330
1424
100
AcDbEntity
  8
Defpoints
 62
     0
100
AcDbPoint
 10
-642.2781116840067
 20
1247.686447846837
 30
0.0
  0
POINT
  5
142E
330
1424
100
AcDbEntity
  8
Defpoints
 62
     0
100
AcDbPoint
 10
-642.2781116840067
 20
977.686447846837
 30
0.0
  0
POINT
  5
142F
330
1424
100
AcDbEntity
  8
Defpoints
 62
     0
100
AcDbPoint
 10
-580.3699625647846
 20
977.686447846837
 30
0.0
  0
ENDBLK
  5
1426
330
1424
100
AcDbEntity
  8
0
100
AcDbBlockEnd
  0
BLOCK
  5
1431
330
1430
100
AcDbEntity
  8
0
100
AcDbBlockBegin
  2
*D31
 70
     1
 10
0.0
 20
0.0
 30
0.0
  3
*D31
  1
*D32
  0
LINE
  5
1433
330
1430
100
AcDbEntity
  8
DIM
  6
Continuous
 62
     0
370
    -2
100
AcDbLine
 10
-902.2781116840067
 20
971.9052094033431
 30
0.0
 11
-902.2781116840067
 21
923.5581601335226
 31
0.0
  0
LINE
  5
1434
330
1430
100
AcDbEntity
  8
DIM
  6
Continuous
 62
     0
370
    -2
100
AcDbLine
 10
-662.2781116840067
 20
971.9052095177161
 30
0.0
 11
-662.2781116840067
 21
923.5581601335226
 31
0.0
  0
LINE
  5
1435
330
1430
100
AcDbEntity
  8
DIM
  6
Continuous
 62
     0
370
    -2
100
AcDbLine
 10
-899.2781116840067
 20
923.5581601335226
 30
0.0
 11
-665.2781116840067
 21
923.5581601335226
 31
0.0
  0
INSERT
  5
1436
330
1430
100
AcDbEntity
  8
DIM
 62
     0
370
    -2
100
AcDbBlockReference
  2
_DOT
 10
-902.2781116840067
 20
923.5581601335226
 30
0.0
 41
3.0
 42
3.0
 43
3.0
 50
180.0
  0
INSERT
  5
1437
330
1430
100
AcDbEntity
  8
DIM
 62
     0
370
    -2
100
AcDbBlockReference
  2
_DOT
 10
-662.2781116840067
 20
923.5581601335226
 30
0.0
 41
3.0
 42
3.0
 43
3.0
  0
MTEXT
  5
1438
330
1430
100
AcDbEntity
  8
DIM
 62
     0
 48
0.05
100
AcDbMText
 10
-782.2781116840067
 20
934.5581601335226
 30
0.0
 40
12.0
 41
0.0
 46
0.0
 71
     5
 72
     1
  1
\A1;240
  7
ＭＳ ゴシック
 73
     1
 44
1.0
  0
POINT
  5
1439
330
1430
100
AcDbEntity
  8
Defpoints
 62
     0
100
AcDbPoint
 10
-902.2781116840067
 20
981.9052094033431
 30
0.0
  0
POINT
  5
143A
330
1430
100
AcDbEntity
  8
Defpoints
 62
     0
100
AcDbPoint
 10
-662.2781116840067
 20
981.9052095177161
 30
0.0
  0
POINT
  5
143B
330
1430
100
AcDbEntity
  8
Defpoints
 62
     0
100
AcDbPoint
 10
-662.2781116840067
 20
923.5581601335226
 30
0.0
  0
ENDBLK
  5
1432
330
1430
100
AcDbEntity
  8
0
100
AcDbBlockEnd
  0
BLOCK
  5
143D
330
143C
100
AcDbEntity
  8
0
100
AcDbBlockBegin
  2
*D32
 70
     1
 10
0.0
 20
0.0
 30
0.0
  3
*D32
  1
*D33
  0
LINE
  5
143F
330
143C
100
AcDbEntity
  8
DIM
  6
Continuous
 62
     0
370
    -2
100
AcDbLine
 10
-938.7388081359315
 20
1167.686447846837
 30
0.0
 11
-982.068406973754
 21
1167.686447846837
 31
0.0
  0
LINE
  5
1440
330
143C
100
AcDbEntity
  8
DIM
  6
Continuous
 62
     0
370
    -2
100
AcDbLine
 10
-938.7388081359315
 20
997.686447846837
 30
0.0
 11
-982.068406973754
 21
997.686447846837
 31
0.0
  0
LINE
  5
1441
330
143C
100
AcDbEntity
  8
DIM
  6
Continuous
 62
     0
370
    -2
100
AcDbLine
 10
-982.068406973754
 20
1164.686447846837
 30
0.0
 11
-982.068406973754
 21
1000.686447846837
 31
0.0
  0
INSERT
  5
1442
330
143C
100
AcDbEntity
  8
DIM
 62
     0
370
    -2
100
AcDbBlockReference
  2
_DOT
 10
-982.068406973754
 20
1167.686447846837
 30
0.0
 41
3.0
 42
3.0
 43
3.0
 50
90.0
  0
INSERT
  5
1443
330
143C
100
AcDbEntity
  8
DIM
 62
     0
370
    -2
100
AcDbBlockReference
  2
_DOT
 10
-982.068406973754
 20
997.686447846837
 30
0.0
 41
3.0
 42
3.0
 43
3.0
 50
270.0
  0
MTEXT
  5
1444
330
143C
100
AcDbEntity
  8
DIM
 62
     0
 48
0.05
100
AcDbMText
 10
-993.068406973754
 20
1082.686447846837
 30
0.0
 40
12.0
 41
0.0
 46
0.0
 71
     5
 72
     1
  1
\A1;170
  7
ＭＳ ゴシック
 11
0.0
 21
1.0
 31
0.0
 73
     1
 44
1.0
  0
POINT
  5
1445
330
143C
100
AcDbEntity
  8
Defpoints
 62
     0
100
AcDbPoint
 10
-928.7388081359315
 20
1167.686447846837
 30
0.0
  0
POINT
  5
1446
330
143C
100
AcDbEntity
  8
Defpoints
 62
     0
100
AcDbPoint
 10
-928.7388081359315
 20
997.686447846837
 30
0.0
  0
POINT
  5
1447
330
143C
100
AcDbEntity
  8
Defpoints
 62
     0
100
AcDbPoint
 10
-982.068406973754
 20
997.686447846837
 30
0.0
  0
ENDBLK
  5
143E
330
143C
100
AcDbEntity
  8
0
100
AcDbBlockEnd
  0
BLOCK
  5
1449
330
1448
100
AcDbEntity
  8
0
100
AcDbBlockBegin
  2
*D33
 70
     1
 10
0.0
 20
0.0
 30
0.0
  3
*D33
  1
*D34
  0
LINE
  5
144B
330
1448
100
AcDbEntity
  8
DIM
  6
Continuous
 62
     0
370
    -2
100
AcDbLine
 10
-151.1780273627355
 20
431.7642506700756
 30
0.0
 11
-151.1780273627355
 21
379.2923583434351
 31
0.0
  0
LINE
  5
144C
330
1448
100
AcDbEntity
  8
DIM
  6
Continuous
 62
     0
370
    -2
100
AcDbLine
 10
-271.1780273627353
 20
412.7642506700759
 30
0.0
 11
-271.1780273627353
 21
379.2923583434351
 31
0.0
  0
LINE
  5
144D
330
1448
100
AcDbEntity
  8
DIM
  6
Continuous
 62
     0
370
    -2
100
AcDbLine
 10
-154.1780273627355
 20
379.2923583434351
 30
0.0
 11
-268.1780273627353
 21
379.2923583434351
 31
0.0
  0
INSERT
  5
144E
330
1448
100
AcDbEntity
  8
DIM
 62
     0
370
    -2
100
AcDbBlockReference
  2
_DOT
 10
-151.1780273627355
 20
379.2923583434351
 30
0.0
 41
3.0
 42
3.0
 43
3.0
  0
INSERT
  5
144F
330
1448
100
AcDbEntity
  8
DIM
 62
     0
370
    -2
100
AcDbBlockReference
  2
_DOT
 10
-271.1780273627353
 20
379.2923583434351
 30
0.0
 41
3.0
 42
3.0
 43
3.0
 50
180.0
  0
MTEXT
  5
1450
330
1448
100
AcDbEntity
  8
DIM
 62
     0
 48
0.05
100
AcDbMText
 10
-211.1780273627355
 20
390.2923583434351
 30
0.0
 40
12.0
 41
0.0
 46
0.0
 71
     5
 72
     1
  1
\A1;120
  7
ＭＳ ゴシック
 73
     1
 44
1.0
  0
POINT
  5
1451
330
1448
100
AcDbEntity
  8
Defpoints
 62
     0
100
AcDbPoint
 10
-151.1780273627355
 20
441.7642506700756
 30
0.0
  0
POINT
  5
1452
330
1448
100
AcDbEntity
  8
Defpoints
 62
     0
100
AcDbPoint
 10
-271.1780273627353
 20
422.7642506700759
 30
0.0
  0
POINT
  5
1453
330
1448
100
AcDbEntity
  8
Defpoints
 62
     0
100
AcDbPoint
 10
-271.1780273627353
 20
379.2923583434351
 30
0.0
  0
ENDBLK
  5
144A
330
1448
100
AcDbEntity
  8
0
100
AcDbBlockEnd
  0
BLOCK
  5
1455
330
1454
100
AcDbEntity
  8
0
100
AcDbBlockBegin
  2
*D34
 70
     1
 10
0.0
 20
0.0
 30
0.0
  3
*D34
  1
*D35
  0
LINE
  5
1457
330
1454
100
AcDbEntity
  8
DIM
  6
Continuous
 62
     0
370
    -2
100
AcDbLine
 10
-151.1780273627355
 20
541.7642506700759
 30
0.0
 11
-151.1780273627355
 21
582.7832504717151
 31
0.0
  0
LINE
  5
1458
330
1454
100
AcDbEntity
  8
DIM
  6
Continuous
 62
     0
370
    -2
100
AcDbLine
 10
-196.1780273627355
 20
541.7642506700759
 30
0.0
 11
-196.1780273627355
 21
582.7832504717151
 31
0.0
  0
LINE
  5
1459
330
1454
100
AcDbEntity
  8
DIM
  6
Continuous
 62
     0
370
    -2
100
AcDbLine
 10
-154.1780273627355
 20
582.7832504717151
 30
0.0
 11
-193.1780273627355
 21
582.7832504717151
 31
0.0
  0
INSERT
  5
145A
330
1454
100
AcDbEntity
  8
DIM
 62
     0
370
    -2
100
AcDbBlockReference
  2
_DOT
 10
-151.1780273627355
 20
582.7832504717151
 30
0.0
 41
3.0
 42
3.0
 43
3.0
  0
INSERT
  5
145B
330
1454
100
AcDbEntity
  8
DIM
 62
     0
370
    -2
100
AcDbBlockReference
  2
_DOT
 10
-196.1780273627355
 20
582.7832504717151
 30
0.0
 41
3.0
 42
3.0
 43
3.0
 50
180.0
  0
MTEXT
  5
145C
330
1454
100
AcDbEntity
  8
DIM
 62
     0
 48
0.05
100
AcDbMText
 10
-173.6780273627355
 20
593.7832504717151
 30
0.0
 40
12.0
 41
0.0
 46
0.0
 71
     5
 72
     1
  1
\A1;45
  7
ＭＳ ゴシック
 73
     1
 44
1.0
  0
POINT
  5
145D
330
1454
100
AcDbEntity
  8
Defpoints
 62
     0
100
AcDbPoint
 10
-151.1780273627355
 20
531.7642506700759
 30
0.0
  0
POINT
  5
145E
330
1454
100
AcDbEntity
  8
Defpoints
 62
     0
100
AcDbPoint
 10
-196.1780273627355
 20
531.7642506700759
 30
0.0
  0
POINT
  5
145F
330
1454
100
AcDbEntity
  8
Defpoints
 62
     0
100
AcDbPoint
 10
-196.1780273627355
 20
582.7832504717151
 30
0.0
  0
ENDBLK
  5
1456
330
1454
100
AcDbEntity
  8
0
100
AcDbBlockEnd
  0
BLOCK
  5
1461
330
1460
100
AcDbEntity
  8
0
100
AcDbBlockBegin
  2
*D35
 70
     1
 10
0.0
 20
0.0
 30
0.0
  3
*D35
  1
*D36
  0
LINE
  5
1463
330
1460
100
AcDbEntity
  8
DIM
  6
Continuous
 62
     0
370
    -2
100
AcDbLine
 10
-933.499271389192
 20
1247.686447846837
 30
0.0
 11
-982.068406973754
 21
1247.686447846837
 31
0.0
  0
LINE
  5
1464
330
1460
100
AcDbEntity
  8
DIM
  6
Continuous
 62
     0
370
    -2
100
AcDbLine
 10
-933.499271389192
 20
1167.686447846837
 30
0.0
 11
-982.068406973754
 21
1167.686447846837
 31
0.0
  0
LINE
  5
1465
330
1460
100
AcDbEntity
  8
DIM
  6
Continuous
 62
     0
370
    -2
100
AcDbLine
 10
-982.068406973754
 20
1244.686447846837
 30
0.0
 11
-982.068406973754
 21
1170.686447846837
 31
0.0
  0
INSERT
  5
1466
330
1460
100
AcDbEntity
  8
DIM
 62
     0
370
    -2
100
AcDbBlockReference
  2
_DOT
 10
-982.068406973754
 20
1247.686447846837
 30
0.0
 41
3.0
 42
3.0
 43
3.0
 50
90.0
  0
INSERT
  5
1467
330
1460
100
AcDbEntity
  8
DIM
 62
     0
370
    -2
100
AcDbBlockReference
  2
_DOT
 10
-982.068406973754
 20
1167.686447846837
 30
0.0
 41
3.0
 42
3.0
 43
3.0
 50
270.0
  0
MTEXT
  5
1468
330
1460
100
AcDbEntity
  8
DIM
 62
     0
 48
0.05
100
AcDbMText
 10
-993.068406973754
 20
1207.686447846837
 30
0.0
 40
12.0
 41
0.0
 46
0.0
 71
     5
 72
     1
  1
\A1;80
  7
ＭＳ ゴシック
 11
0.0
 21
1.0
 31
0.0
 73
     1
 44
1.0
  0
POINT
  5
1469
330
1460
100
AcDbEntity
  8
Defpoints
 62
     0
100
AcDbPoint
 10
-923.499271389192
 20
1247.686447846837
 30
0.0
  0
POINT
  5
146A
330
1460
100
AcDbEntity
  8
Defpoints
 62
     0
100
AcDbPoint
 10
-923.499271389192
 20
1167.686447846837
 30
0.0
  0
POINT
  5
146B
330
1460
100
AcDbEntity
  8
Defpoints
 62
     0
100
AcDbPoint
 10
-982.068406973754
 20
1167.686447846837
 30
0.0
  0
ENDBLK
  5
1462
330
1460
100
AcDbEntity
  8
0
100
AcDbBlockEnd
  0
BLOCK
  5
146D
330
146C
100
AcDbEntity
  8
0
100
AcDbBlockBegin
  2
*D36
 70
     1
 10
0.0
 20
0.0
 30
0.0
  3
*D36
  1
*D37
  0
LINE
  5
146F
330
146C
100
AcDbEntity
  8
DIM
  6
Continuous
 62
     0
370
    -2
100
AcDbLine
 10
-431.1780273627355
 20
531.7642506700759
 30
0.0
 11
-468.2076022300903
 21
531.7642506700759
 31
0.0
  0
LINE
  5
1470
330
146C
100
AcDbEntity
  8
DIM
  6
Continuous
 62
     0
370
    -2
100
AcDbLine
 10
-431.1780273627355
 20
441.7642506700756
 30
0.0
 11
-468.2076022300903
 21
441.7642506700756
 31
0.0
  0
LINE
  5
1471
330
146C
100
AcDbEntity
  8
DIM
  6
Continuous
 62
     0
370
    -2
100
AcDbLine
 10
-468.2076022300903
 20
528.7642506700759
 30
0.0
 11
-468.2076022300903
 21
444.7642506700756
 31
0.0
  0
INSERT
  5
1472
330
146C
100
AcDbEntity
  8
DIM
 62
     0
370
    -2
100
AcDbBlockReference
  2
_DOT
 10
-468.2076022300903
 20
531.7642506700759
 30
0.0
 41
3.0
 42
3.0
 43
3.0
 50
90.0
  0
INSERT
  5
1473
330
146C
100
AcDbEntity
  8
DIM
 62
     0
370
    -2
100
AcDbBlockReference
  2
_DOT
 10
-468.2076022300903
 20
441.7642506700756
 30
0.0
 41
3.0
 42
3.0
 43
3.0
 50
270.0
  0
MTEXT
  5
1474
330
146C
100
AcDbEntity
  8
DIM
 62
     0
 48
0.05
100
AcDbMText
 10
-479.2076022300903
 20
486.7642506700756
 30
0.0
 40
12.0
 41
0.0
 46
0.0
 71
     5
 72
     1
  1
\A1;90
  7
ＭＳ ゴシック
 11
0.0
 21
1.0
 31
0.0
 73
     1
 44
1.0
  0
POINT
  5
1475
330
146C
100
AcDbEntity
  8
Defpoints
 62
     0
100
AcDbPoint
 10
-421.1780273627355
 20
531.7642506700759
 30
0.0
  0
POINT
  5
1476
330
146C
100
AcDbEntity
  8
Defpoints
 62
     0
100
AcDbPoint
 10
-421.1780273627355
 20
441.7642506700756
 30
0.0
  0
POINT
  5
1477
330
146C
100
AcDbEntity
  8
Defpoints
 62
     0
100
AcDbPoint
 10
-468.2076022300903
 20
441.7642506700756
 30
0.0
  0
ENDBLK
  5
146E
330
146C
100
AcDbEntity
  8
0
100
AcDbBlockEnd
  0
BLOCK
  5
1479
330
1478
100
AcDbEntity
  8
0
100
AcDbBlockBegin
  2
*D37
 70
     1
 10
0.0
 20
0.0
 30
0.0
  3
*D37
  1
*D38
  0
LINE
  5
147B
330
1478
100
AcDbEntity
  8
DIM
  6
Continuous
 62
     0
370
    -2
100
AcDbLine
 10
-922.2781116840067
 20
541.7642506700759
 30
0.0
 11
-922.2781116840067
 21
573.5583300285662
 31
0.0
  0
LINE
  5
147C
330
1478
100
AcDbEntity
  8
DIM
  6
Continuous
 62
     0
370
    -2
100
AcDbLine
 10
-882.1036723871125
 20
541.7642506700759
 30
0.0
 11
-882.1036723871125
 21
573.5583300285662
 31
0.0
  0
LINE
  5
147D
330
1478
100
AcDbEntity
  8
DIM
  6
Continuous
 62
     0
370
    -2
100
AcDbLine
 10
-919.2781116840067
 20
573.5583300285662
 30
0.0
 11
-885.1036723871125
 21
573.5583300285662
 31
0.0
  0
INSERT
  5
147E
330
1478
100
AcDbEntity
  8
DIM
 62
     0
370
    -2
100
AcDbBlockReference
  2
_DOT
 10
-922.2781116840067
 20
573.5583300285662
 30
0.0
 41
3.0
 42
3.0
 43
3.0
 50
180.0
  0
INSERT
  5
147F
330
1478
100
AcDbEntity
  8
DIM
 62
     0
370
    -2
100
AcDbBlockReference
  2
_DOT
 10
-882.1036723871125
 20
573.5583300285662
 30
0.0
 41
3.0
 42
3.0
 43
3.0
  0
MTEXT
  5
1480
330
1478
100
AcDbEntity
  8
DIM
 62
     0
 48
0.05
100
AcDbMText
 10
-902.1908920355595
 20
584.5583300285662
 30
0.0
 40
12.0
 41
0.0
 46
0.0
 71
     5
 72
     1
  1
\A1;40
  7
ＭＳ ゴシック
 73
     1
 44
1.0
  0
POINT
  5
1481
330
1478
100
AcDbEntity
  8
Defpoints
 62
     0
100
AcDbPoint
 10
-922.2781116840067
 20
531.7642506700759
 30
0.0
  0
POINT
  5
1482
330
1478
100
AcDbEntity
  8
Defpoints
 62
     0
100
AcDbPoint
 10
-882.1036723871125
 20
531.7642506700759
 30
0.0
  0
POINT
  5
1483
330
1478
100
AcDbEntity
  8
Defpoints
 62
     0
100
AcDbPoint
 10
-882.1036723871125
 20
573.5583300285662
 30
0.0
  0
ENDBLK
  5
147A
330
1478
100
AcDbEntity
  8
0
100
AcDbBlockEnd
  0
BLOCK
  5
1485
330
1484
100
AcDbEntity
  8
0
100
AcDbBlockBegin
  2
*D38
 70
     1
 10
0.0
 20
0.0
 30
0.0
  3
*D38
  1
*D39
  0
LINE
  5
1487
330
1484
100
AcDbEntity
  8
DIM
  6
Continuous
 62
     0
370
    -2
100
AcDbLine
 10
-934.6036723871125
 20
501.7642506700759
 30
0.0
 11
-963.8694631222193
 21
501.7642506700759
 31
0.0
  0
LINE
  5
1488
330
1484
100
AcDbEntity
  8
DIM
  6
Continuous
 62
     0
370
    -2
100
AcDbLine
 10
-932.2781116840067
 20
531.7642506700759
 30
0.0
 11
-963.8694631222193
 21
531.7642506700759
 31
0.0
  0
LINE
  5
1489
330
1484
100
AcDbEntity
  8
DIM
  6
Continuous
 62
     0
370
    -2
100
AcDbLine
 10
-963.8694631222193
 20
504.7642506700759
 30
0.0
 11
-963.8694631222193
 21
528.7642506700759
 31
0.0
  0
INSERT
  5
148A
330
1484
100
AcDbEntity
  8
DIM
 62
     0
370
    -2
100
AcDbBlockReference
  2
_DOT
 10
-963.8694631222193
 20
501.7642506700759
 30
0.0
 41
3.0
 42
3.0
 43
3.0
 50
270.0
  0
INSERT
  5
148B
330
1484
100
AcDbEntity
  8
DIM
 62
     0
370
    -2
100
AcDbBlockReference
  2
_DOT
 10
-963.8694631222193
 20
531.7642506700759
 30
0.0
 41
3.0
 42
3.0
 43
3.0
 50
90.0
  0
MTEXT
  5
148C
330
1484
100
AcDbEntity
  8
DIM
 62
     0
 48
0.05
100
AcDbMText
 10
-974.8694631222193
 20
516.7642506700759
 30
0.0
 40
12.0
 41
0.0
 46
0.0
 71
     5
 72
     1
  1
\A1;30
  7
ＭＳ ゴシック
 11
0.0
 21
1.0
 31
0.0
 73
     1
 44
1.0
  0
POINT
  5
148D
330
1484
100
AcDbEntity
  8
Defpoints
 62
     0
100
AcDbPoint
 10
-924.6036723871125
 20
501.7642506700759
 30
0.0
  0
POINT
  5
148E
330
1484
100
AcDbEntity
  8
Defpoints
 62
     0
100
AcDbPoint
 10
-922.2781116840067
 20
531.7642506700759
 30
0.0
  0
POINT
  5
148F
330
1484
100
AcDbEntity
  8
Defpoints
 62
     0
100
AcDbPoint
 10
-963.8694631222193
 20
531.7642506700759
 30
0.0
  0
ENDBLK
  5
1486
330
1484
100
AcDbEntity
  8
0
100
AcDbBlockEnd
  0
BLOCK
  5
1491
330
1490
100
AcDbEntity
  8
0
100
AcDbBlockBegin
  2
*D39
 70
     1
 10
0.0
 20
0.0
 30
0.0
  3
*D39
  1
*D40
  0
LINE
  5
1493
330
1490
100
AcDbEntity
  8
DIM
  6
Continuous
 62
     0
370
    -2
100
AcDbLine
 10
-642.2781116840067
 20
541.7642506700759
 30
0.0
 11
-642.2781116840067
 21
574.7159671037848
 31
0.0
  0
LINE
  5
1494
330
1490
100
AcDbEntity
  8
DIM
  6
Continuous
 62
     0
370
    -2
100
AcDbLine
 10
-682.4525509809009
 20
541.7642506700759
 30
0.0
 11
-682.4525509809009
 21
574.7159671037848
 31
0.0
  0
LINE
  5
1495
330
1490
100
AcDbEntity
  8
DIM
  6
Continuous
 62
     0
370
    -2
100
AcDbLine
 10
-645.2781116840067
 20
574.7159671037848
 30
0.0
 11
-679.4525509809009
 21
574.7159671037848
 31
0.0
  0
INSERT
  5
1496
330
1490
100
AcDbEntity
  8
DIM
 62
     0
370
    -2
100
AcDbBlockReference
  2
_DOT
 10
-642.2781116840067
 20
574.7159671037848
 30
0.0
 41
3.0
 42
3.0
 43
3.0
  0
INSERT
  5
1497
330
1490
100
AcDbEntity
  8
DIM
 62
     0
370
    -2
100
AcDbBlockReference
  2
_DOT
 10
-682.4525509809009
 20
574.7159671037848
 30
0.0
 41
3.0
 42
3.0
 43
3.0
 50
180.0
  0
MTEXT
  5
1498
330
1490
100
AcDbEntity
  8
DIM
 62
     0
 48
0.05
100
AcDbMText
 10
-662.3653313324539
 20
585.7159671037848
 30
0.0
 40
12.0
 41
0.0
 46
0.0
 71
     5
 72
     1
  1
\A1;40
  7
ＭＳ ゴシック
 73
     1
 44
1.0
  0
POINT
  5
1499
330
1490
100
AcDbEntity
  8
Defpoints
 62
     0
100
AcDbPoint
 10
-642.2781116840067
 20
531.7642506700759
 30
0.0
  0
POINT
  5
149A
330
1490
100
AcDbEntity
  8
Defpoints
 62
     0
100
AcDbPoint
 10
-682.4525509809009
 20
531.7642506700759
 30
0.0
  0
POINT
  5
149B
330
1490
100
AcDbEntity
  8
Defpoints
 62
     0
100
AcDbPoint
 10
-682.4525509809009
 20
574.7159671037848
 30
0.0
  0
ENDBLK
  5
1492
330
1490
100
AcDbEntity
  8
0
100
AcDbBlockEnd
  0
BLOCK
  5
149D
330
149C
100
AcDbEntity
  8
0
100
AcDbBlockBegin
  2
*D40
 70
     1
 10
0.0
 20
0.0
 30
0.0
  3
*D40
  1
*D41
  0
LINE
  5
149F
330
149C
100
AcDbEntity
  8
DIM
  6
Continuous
 62
     0
370
    -2
100
AcDbLine
 10
-632.2781116840067
 20
531.7642506700759
 30
0.0
 11
-597.4773288155136
 21
531.7642506700759
 31
0.0
  0
LINE
  5
14A0
330
149C
100
AcDbEntity
  8
DIM
  6
Continuous
 62
     0
370
    -2
100
AcDbLine
 10
-632.2781116840067
 20
494.7642506700759
 30
0.0
 11
-597.4773288155136
 21
494.7642506700759
 31
0.0
  0
LINE
  5
14A1
330
149C
100
AcDbEntity
  8
DIM
  6
Continuous
 62
     0
370
    -2
100
AcDbLine
 10
-597.4773288155136
 20
528.7642506700759
 30
0.0
 11
-597.4773288155136
 21
497.7642506700759
 31
0.0
  0
INSERT
  5
14A2
330
149C
100
AcDbEntity
  8
DIM
 62
     0
370
    -2
100
AcDbBlockReference
  2
_DOT
 10
-597.4773288155136
 20
531.7642506700759
 30
0.0
 41
3.0
 42
3.0
 43
3.0
 50
90.0
  0
INSERT
  5
14A3
330
149C
100
AcDbEntity
  8
DIM
 62
     0
370
    -2
100
AcDbBlockReference
  2
_DOT
 10
-597.4773288155136
 20
494.7642506700759
 30
0.0
 41
3.0
 42
3.0
 43
3.0
 50
270.0
  0
MTEXT
  5
14A4
330
149C
100
AcDbEntity
  8
DIM
 62
     0
 48
0.05
100
AcDbMText
 10
-608.4773288155136
 20
513.2642506700759
 30
0.0
 40
12.0
 41
0.0
 46
0.0
 71
     5
 72
     1
  1
\A1;37
  7
ＭＳ ゴシック
 11
0.0
 21
1.0
 31
0.0
 73
     1
 44
1.0
  0
POINT
  5
14A5
330
149C
100
AcDbEntity
  8
Defpoints
 62
     0
100
AcDbPoint
 10
-642.2781116840067
 20
531.7642506700759
 30
0.0
  0
POINT
  5
14A6
330
149C
100
AcDbEntity
  8
Defpoints
 62
     0
100
AcDbPoint
 10
-642.2781116840067
 20
494.7642506700759
 30
0.0
  0
POINT
  5
14A7
330
149C
100
AcDbEntity
  8
Defpoints
 62
     0
100
AcDbPoint
 10
-597.4773288155136
 20
494.7642506700759
 30
0.0
  0
ENDBLK
  5
149E
330
149C
100
AcDbEntity
  8
0
100
AcDbBlockEnd
  0
BLOCK
  5
15D4
330
15D3
100
AcDbEntity
  8
0
100
AcDbBlockBegin
  2
*D41
 70
     1
 10
0.0
 20
0.0
 30
0.0
  3
*D41
  1
*D44
  0
LINE
  5
15D5
330
15D3
100
AcDbEntity
  8
DIM
  6
Continuous
 62
     0
370
    -2
100
AcDbLine
 10
77.93390569102849
 20
49.72799999999984
 30
0.0
 11
108.4818194962347
 21
49.72799999999984
 31
0.0
  0
LINE
  5
15D6
330
15D3
100
AcDbEntity
  8
DIM
  6
Continuous
 62
     0
370
    -2
100
AcDbLine
 10
78.8822419830476
 20
68.72799999999961
 30
0.0
 11
108.4818194962347
 21
68.72799999999961
 31
0.0
  0
LINE
  5
15D7
330
15D3
100
AcDbEntity
  8
DIM
  6
Continuous
 62
     0
370
    -2
100
AcDbLine
 10
108.4818194962347
 20
49.72799999999984
 30
0.0
 11
108.4818194962347
 21
0.0000000000000284
 31
0.0
  0
LINE
  5
15D8
330
15D3
100
AcDbEntity
  8
DIM
  6
Continuous
 62
     0
370
    -2
100
AcDbLine
 10
108.4818194962347
 20
52.72799999999984
 30
0.0
 11
108.4818194962347
 21
65.72799999999961
 31
0.0
  0
INSERT
  5
15D9
330
15D3
100
AcDbEntity
  8
DIM
 62
     0
370
    -2
100
AcDbBlockReference
  2
_DOT
 10
108.4818194962347
 20
49.72799999999984
 30
0.0
 41
3.0
 42
3.0
 43
3.0
 50
270.0
  0
INSERT
  5
15DA
330
15D3
100
AcDbEntity
  8
DIM
 62
     0
370
    -2
100
AcDbBlockReference
  2
_DOT
 10
108.4818194962347
 20
68.72799999999961
 30
0.0
 41
3.0
 42
3.0
 43
3.0
 50
90.0
  0
MTEXT
  5
15DB
330
15D3
100
AcDbEntity
  8
DIM
 62
     0
 48
0.05
100
AcDbMText
 10
92.48181949623472
 20
16.57600000000002
 30
0.0
 40
12.0
 41
0.0
 46
0.0
 71
     5
 72
     1
  1
\A1;19
  7
ＭＳ ゴシック
 11
0.0
 21
1.0
 31
0.0
 73
     1
 44
1.0
  0
POINT
  5
15DC
330
15D3
100
AcDbEntity
  8
Defpoints
 62
     0
100
AcDbPoint
 10
72.93390569102849
 20
49.72799999999984
 30
0.0
  0
POINT
  5
15DD
330
15D3
100
AcDbEntity
  8
Defpoints
 62
     0
100
AcDbPoint
 10
73.8822419830476
 20
68.72799999999961
 30
0.0
  0
POINT
  5
15DE
330
15D3
100
AcDbEntity
  8
Defpoints
 62
     0
100
AcDbPoint
 10
108.4818194962347
 20
68.72799999999961
 30
0.0
  0
ENDBLK
  5
15DF
330
15D3
100
AcDbEntity
  8
0
100
AcDbBlockEnd
  0
BLOCK
  5
1600
330
15FF
100
AcDbEntity
  8
0
100
AcDbBlockBegin
  2
*D42
 70
     1
 10
0.0
 20
0.0
 30
0.0
  3
*D42
  1
*D45
  0
LINE
  5
1602
330
15FF
100
AcDbEntity
  8
DIM
  6
Continuous
 62
     0
370
    -2
100
AcDbLine
 10
-733.3632965287636
 20
422.7642506700759
 30
0.0
 11
-702.8153827235573
 21
422.7642506700759
 31
0.0
  0
LINE
  5
1603
330
15FF
100
AcDbEntity
  8
DIM
  6
Continuous
 62
     0
370
    -2
100
AcDbLine
 10
-732.4149602367443
 20
441.7642506700756
 30
0.0
 11
-702.8153827235573
 21
441.7642506700756
 31
0.0
  0
LINE
  5
1604
330
15FF
100
AcDbEntity
  8
DIM
  6
Continuous
 62
     0
370
    -2
100
AcDbLine
 10
-702.8153827235573
 20
422.7642506700759
 30
0.0
 11
-702.8153827235573
 21
373.036250670076
 31
0.0
  0
LINE
  5
1605
330
15FF
100
AcDbEntity
  8
DIM
  6
Continuous
 62
     0
370
    -2
100
AcDbLine
 10
-702.8153827235573
 20
425.7642506700759
 30
0.0
 11
-702.8153827235573
 21
438.7642506700756
 31
0.0
  0
INSERT
  5
1606
330
15FF
100
AcDbEntity
  8
DIM
 62
     0
370
    -2
100
AcDbBlockReference
  2
_DOT
 10
-702.8153827235573
 20
422.7642506700759
 30
0.0
 41
3.0
 42
3.0
 43
3.0
 50
270.0
  0
INSERT
  5
1607
330
15FF
100
AcDbEntity
  8
DIM
 62
     0
370
    -2
100
AcDbBlockReference
  2
_DOT
 10
-702.8153827235573
 20
441.7642506700756
 30
0.0
 41
3.0
 42
3.0
 43
3.0
 50
90.0
  0
MTEXT
  5
1608
330
15FF
100
AcDbEntity
  8
DIM
 62
     0
 48
0.05
100
AcDbMText
 10
-718.8153827235573
 20
389.612250670076
 30
0.0
 40
12.0
 41
0.0
 46
0.0
 71
     5
 72
     1
  1
\A1;19
  7
ＭＳ ゴシック
 11
0.0
 21
1.0
 31
0.0
 73
     1
 44
1.0
  0
POINT
  5
1609
330
15FF
100
AcDbEntity
  8
Defpoints
 62
     0
100
AcDbPoint
 10
-738.3632965287636
 20
422.7642506700759
 30
0.0
  0
POINT
  5
160A
330
15FF
100
AcDbEntity
  8
Defpoints
 62
     0
100
AcDbPoint
 10
-737.4149602367443
 20
441.7642506700756
 30
0.0
  0
POINT
  5
160B
330
15FF
100
AcDbEntity
  8
Defpoints
 62
     0
100
AcDbPoint
 10
-702.8153827235573
 20
441.7642506700756
 30
0.0
  0
ENDBLK
  5
1601
330
15FF
100
AcDbEntity
  8
0
100
AcDbBlockEnd
  0
BLOCK
  5
1666
330
1665
100
AcDbEntity
  8
0
100
AcDbBlockBegin
  2
*D43
 70
     1
 10
0.0
 20
0.0
 30
0.0
  3
*D43
  1
*D44
  0
LINE
  5
1667
330
1665
100
AcDbEntity
  8
尺寸
 62
     0
370
    -2
100
AcDbLine
 10
20.51173685637142
 20
76.28060230158096
 30
0.0
 11
20.51173685637141
 21
68.84310230158087
 31
0.0
  0
LINE
  5
1668
330
1665
100
AcDbEntity
  8
尺寸
 62
     0
370
    -2
100
AcDbLine
 10
140.5117368563714
 20
76.28060230158096
 30
0.0
 11
140.5117368563714
 21
68.84310230158087
 31
0.0
  0
LINE
  5
1669
330
1665
100
AcDbEntity
  8
尺寸
 62
     0
370
    -2
100
AcDbLine
 10
24.01173685637141
 20
68.84310230158087
 30
0.0
 11
137.0117368563714
 21
68.84310230158087
 31
0.0
  0
SOLID
  5
166A
330
1665
100
AcDbEntity
  8
尺寸
 62
     0
100
AcDbTrace
 10
24.01173685637141
 20
69.4264356349142
 30
0.0
 11
24.01173685637141
 21
68.25976896824754
 31
0.0
 12
20.51173685637141
 22
68.84310230158087
 32
0.0
 13
20.51173685637141
 23
68.84310230158087
 33
0.0
  0
SOLID
  5
166B
330
1665
100
AcDbEntity
  8
尺寸
 62
     0
100
AcDbTrace
 10
137.0117368563714
 20
68.25976896824754
 30
0.0
 11
137.0117368563714
 21
69.4264356349142
 31
0.0
 12
140.5117368563714
 22
68.84310230158087
 32
0.0
 13
140.5117368563714
 23
68.84310230158087
 33
0.0
  0
MTEXT
  5
166C
330
1665
100
AcDbEntity
  8
尺寸
 62
     0
 48
0.05
100
AcDbMText
 10
76.00471298228844
 20
67.96810230158087
 30
0.0
 40
3.5
 41
0.0
 46
0.0
 71
     2
 72
     1
  1
\A1;600
  7
SLDTEXTSTYLE1
 73
     1
 44
1.0
  0
POINT
  5
16CA
330
1665
100
AcDbEntity
  8
Defpoints
 62
     0
100
AcDbPoint
 10
20.51173685637142
 20
76.34310230158096
 30
0.0
  0
POINT
  5
16CB
330
1665
100
AcDbEntity
  8
Defpoints
 62
     0
100
AcDbPoint
 10
140.5117368563714
 20
76.34310230158096
 30
0.0
  0
POINT
  5
16CC
330
1665
100
AcDbEntity
  8
Defpoints
 62
     0
100
AcDbPoint
 10
140.5117368563714
 20
68.84310230158087
 30
0.0
  0
ENDBLK
  5
166D
330
1665
100
AcDbEntity
  8
0
100
AcDbBlockEnd
  0
BLOCK
  5
16B1
330
16B0
100
AcDbEntity
  8
0
100
AcDbBlockBegin
  2
*D44
 70
     1
 10
0.0
 20
0.0
 30
0.0
  3
*D44
  1
*D45
  0
LINE
  5
16B2
330
16B0
100
AcDbEntity
  8
尺寸
 62
     0
370
    -2
100
AcDbLine
 10
14.51173685637133
 20
32.46172922169046
 30
0.0
 11
14.51173685637133
 21
35.87680295759847
 31
0.0
  0
LINE
  5
16B3
330
16B0
100
AcDbEntity
  8
尺寸
 62
     0
370
    -2
100
AcDbLine
 10
26.51173685637134
 20
32.46172922169046
 30
0.0
 11
26.51173685637134
 21
35.87680295759847
 31
0.0
  0
LINE
  5
16B4
330
16B0
100
AcDbEntity
  8
尺寸
 62
     0
370
    -2
100
AcDbLine
 10
18.01173685637133
 20
35.87680295759847
 30
0.0
 11
23.01173685637134
 21
35.87680295759847
 31
0.0
  0
SOLID
  5
16B5
330
16B0
100
AcDbEntity
  8
尺寸
 62
     0
100
AcDbTrace
 10
18.01173685637133
 20
36.46013629093181
 30
0.0
 11
18.01173685637133
 21
35.29346962426514
 31
0.0
 12
14.51173685637133
 22
35.87680295759847
 32
0.0
 13
14.51173685637133
 23
35.87680295759847
 33
0.0
  0
SOLID
  5
16B6
330
16B0
100
AcDbEntity
  8
尺寸
 62
     0
100
AcDbTrace
 10
23.01173685637134
 20
35.29346962426514
 30
0.0
 11
23.01173685637134
 21
36.46013629093181
 31
0.0
 12
26.51173685637134
 22
35.87680295759847
 32
0.0
 13
26.51173685637134
 23
35.87680295759847
 33
0.0
  0
MTEXT
  5
16B7
330
16B0
100
AcDbEntity
  8
尺寸
 62
     0
 48
0.05
100
AcDbMText
 10
20.28273646289641
 20
40.25180295759847
 30
0.0
 40
3.5
 41
0.0
 46
0.0
 71
     2
 72
     1
  1
\A1;%%c60
  7
SLDTEXTSTYLE1
 73
     1
 44
1.0
  0
POINT
  5
16B8
330
16B0
100
AcDbEntity
  8
Defpoints
 62
     0
100
AcDbPoint
 10
14.51173685637133
 20
32.39922922169046
 30
0.0
  0
POINT
  5
16CD
330
16B0
100
AcDbEntity
  8
Defpoints
 62
     0
100
AcDbPoint
 10
26.51173685637134
 20
32.39922922169046
 30
0.0
  0
POINT
  5
16CE
330
16B0
100
AcDbEntity
  8
Defpoints
 62
     0
100
AcDbPoint
 10
26.51173685637134
 20
35.87680295759847
 30
0.0
  0
ENDBLK
  5
16B9
330
16B0
100
AcDbEntity
  8
0
100
AcDbBlockEnd
  0
BLOCK
  5
16BC
330
16BB
100
AcDbEntity
  8
0
100
AcDbBlockBegin
  2
*D45
 70
     1
 10
0.0
 20
0.0
 30
0.0
  3
*D45
  1
*D46
  0
LINE
  5
16BD
330
16BB
100
AcDbEntity
  8
尺寸
 62
     0
370
    -2
100
AcDbLine
 10
14.44923685637133
 20
32.39922922169046
 30
0.0
 11
4.511736856371231
 21
32.39922922169042
 31
0.0
  0
LINE
  5
16BE
330
16BB
100
AcDbEntity
  8
尺寸
 62
     0
370
    -2
100
AcDbLine
 10
18.81000763468093
 20
2.660000000000422
 30
0.0
 11
4.511736856371335
 21
2.660000000000363
 31
0.0
  0
LINE
  5
16BF
330
16BB
100
AcDbEntity
  8
尺寸
 62
     0
370
    -2
100
AcDbLine
 10
4.511736856371243
 20
28.89922922169042
 30
0.0
 11
4.511736856371322
 21
6.160000000000363
 31
0.0
  0
SOLID
  5
16C0
330
16BB
100
AcDbEntity
  8
尺寸
 62
     0
100
AcDbTrace
 10
5.095070189704576
 20
28.89922922169042
 30
0.0
 11
3.92840352303791
 21
28.89922922169042
 31
0.0
 12
4.511736856371231
 22
32.39922922169042
 32
0.0
 13
4.511736856371231
 23
32.39922922169042
 33
0.0
  0
SOLID
  5
16C1
330
16BB
100
AcDbEntity
  8
尺寸
 62
     0
100
AcDbTrace
 10
3.928403523037989
 20
6.160000000000361
 30
0.0
 11
5.095070189704655
 21
6.160000000000364
 31
0.0
 12
4.511736856371335
 22
2.660000000000363
 32
0.0
 13
4.511736856371335
 23
2.660000000000363
 33
0.0
  0
MTEXT
  5
16C2
330
16BB
100
AcDbEntity
  8
尺寸
 62
     0
 48
0.05
100
AcDbMText
 10
0.1367368563712787
 20
18.78239635030543
 30
0.0
 40
3.5
 41
0.0
 46
0.0
 71
     2
 72
     1
  1
\A1;149
  7
SLDTEXTSTYLE1
 11
-3.494269280830042E-15
 21
1.0
 31
0.0
 73
     1
 44
1.0
  0
POINT
  5
16CF
330
16BB
100
AcDbEntity
  8
Defpoints
 62
     0
100
AcDbPoint
 10
14.51173685637133
 20
32.39922922169046
 30
0.0
  0
POINT
  5
16D0
330
16BB
100
AcDbEntity
  8
Defpoints
 62
     0
100
AcDbPoint
 10
18.87250763468093
 20
2.660000000000423
 30
0.0
  0
POINT
  5
16D1
330
16BB
100
AcDbEntity
  8
Defpoints
 62
     0
100
AcDbPoint
 10
4.511736856371335
 20
2.660000000000369
 30
0.0
  0
ENDBLK
  5
16C3
330
16BB
100
AcDbEntity
  8
0
100
AcDbBlockEnd
  0
BLOCK
  5
172E
330
172D
100
AcDbEntity
  8
0
100
AcDbBlockBegin
  2
*D46
 70
     1
 10
0.0
 20
0.0
 30
0.0
  3
*D46
  1
*D47
  0
LINE
  5
1730
330
172D
100
AcDbEntity
  8
DIM
 62
     0
370
    -2
100
AcDbLine
 10
108.4227608181715
 20
539.4334025693571
 30
0.0
 11
108.4227608181715
 21
511.9334025693566
 31
0.0
  0
LINE
  5
1731
330
172D
100
AcDbEntity
  8
DIM
 62
     0
370
    -2
100
AcDbLine
 10
708.4227608181715
 20
539.4334025693571
 30
0.0
 11
708.4227608181715
 21
511.9334025693566
 31
0.0
  0
LINE
  5
1732
330
172D
100
AcDbEntity
  8
DIM
 62
     0
370
    -2
100
AcDbLine
 10
111.4227608181715
 20
511.9334025693566
 30
0.0
 11
705.4227608181715
 21
511.9334025693566
 31
0.0
  0
INSERT
  5
1733
330
172D
100
AcDbEntity
  8
DIM
 62
     0
370
    -2
100
AcDbBlockReference
  2
_DOT
 10
108.4227608181715
 20
511.9334025693566
 30
0.0
 41
3.0
 42
3.0
 43
3.0
 50
180.0
  0
INSERT
  5
1734
330
172D
100
AcDbEntity
  8
DIM
 62
     0
370
    -2
100
AcDbBlockReference
  2
_DOT
 10
708.4227608181715
 20
511.9334025693566
 30
0.0
 41
3.0
 42
3.0
 43
3.0
  0
MTEXT
  5
1735
330
172D
100
AcDbEntity
  8
DIM
 62
     0
 48
0.05
100
AcDbMText
 10
385.8876414477569
 20
528.9334025693566
 30
0.0
 40
12.0
 41
0.0
 46
0.0
 71
     2
 72
     1
  1
\A1;600
  7
ＭＳ ゴシック
 73
     1
 44
1.0
  0
POINT
  5
1736
330
172D
100
AcDbEntity
  8
Defpoints
 62
     0
100
AcDbPoint
 10
108.4227608181715
 20
549.4334025693571
 30
0.0
  0
POINT
  5
1737
330
172D
100
AcDbEntity
  8
Defpoints
 62
     0
100
AcDbPoint
 10
708.4227608181715
 20
549.4334025693571
 30
0.0
  0
POINT
  5
1738
330
172D
100
AcDbEntity
  8
Defpoints
 62
     0
100
AcDbPoint
 10
708.4227608181715
 20
511.9334025693566
 30
0.0
  0
ENDBLK
  5
172F
330
172D
100
AcDbEntity
  8
0
100
AcDbBlockEnd
  0
BLOCK
  5
173A
330
1739
100
AcDbEntity
  8
0
100
AcDbBlockBegin
  2
*D47
 70
     1
 10
0.0
 20
0.0
 30
0.0
  3
*D47
  1
*D48
  0
LINE
  5
173C
330
1739
100
AcDbEntity
  8
DIM
 62
     0
370
    -2
100
AcDbLine
 10
123.102179812584
 20
1003.135713147558
 30
0.0
 11
123.102179812584
 21
1010.523581827098
 31
0.0
  0
LINE
  5
173D
330
1739
100
AcDbEntity
  8
DIM
 62
     0
370
    -2
100
AcDbLine
 10
183.102179812584
 20
1003.135713147558
 30
0.0
 11
183.102179812584
 21
1010.523581827098
 31
0.0
  0
LINE
  5
173E
330
1739
100
AcDbEntity
  8
DIM
 62
     0
370
    -2
100
AcDbLine
 10
126.102179812584
 20
1010.523581827098
 30
0.0
 11
180.102179812584
 21
1010.523581827098
 31
0.0
  0
INSERT
  5
173F
330
1739
100
AcDbEntity
  8
DIM
 62
     0
370
    -2
100
AcDbBlockReference
  2
_DOT
 10
123.102179812584
 20
1010.523581827098
 30
0.0
 41
3.0
 42
3.0
 43
3.0
 50
180.0
  0
INSERT
  5
1740
330
1739
100
AcDbEntity
  8
DIM
 62
     0
370
    -2
100
AcDbBlockReference
  2
_DOT
 10
183.102179812584
 20
1010.523581827098
 30
0.0
 41
3.0
 42
3.0
 43
3.0
  0
MTEXT
  5
1741
330
1739
100
AcDbEntity
  8
DIM
 62
     0
 48
0.05
100
AcDbMText
 10
151.9571778452092
 20
1033.423581827098
 30
0.0
 40
12.0
 41
0.0
 46
0.0
 71
     2
 72
     1
  1
\A1;%%c60
  7
ＭＳ ゴシック
 73
     1
 44
1.0
  0
POINT
  5
1742
330
1739
100
AcDbEntity
  8
Defpoints
 62
     0
100
AcDbPoint
 10
123.102179812584
 20
993.1357131475581
 30
0.0
  0
POINT
  5
1743
330
1739
100
AcDbEntity
  8
Defpoints
 62
     0
100
AcDbPoint
 10
183.102179812584
 20
993.1357131475581
 30
0.0
  0
POINT
  5
1744
330
1739
100
AcDbEntity
  8
Defpoints
 62
     0
100
AcDbPoint
 10
183.102179812584
 20
1010.523581827098
 30
0.0
  0
ENDBLK
  5
173B
330
1739
100
AcDbEntity
  8
0
100
AcDbBlockEnd
  0
BLOCK
  5
1746
330
1745
100
AcDbEntity
  8
0
100
AcDbBlockBegin
  2
*D48
 70
     1
 10
0.0
 20
0.0
 30
0.0
  3
*D48
  1
*D49
  0
LINE
  5
1748
330
1745
100
AcDbEntity
  8
DIM
 62
     0
370
    -2
100
AcDbLine
 10
113.102179812584
 20
993.1357131475581
 30
0.0
 11
73.1021798125838
 21
993.1357131475579
 31
0.0
  0
LINE
  5
1749
330
1745
100
AcDbEntity
  8
DIM
 62
     0
370
    -2
100
AcDbLine
 10
134.9060337041329
 20
844.4395670391079
 30
0.0
 11
73.10217981258432
 21
844.4395670391076
 31
0.0
  0
LINE
  5
174A
330
1745
100
AcDbEntity
  8
DIM
 62
     0
370
    -2
100
AcDbLine
 10
73.10217981258381
 20
990.1357131475579
 30
0.0
 11
73.10217981258431
 21
847.4395670391076
 31
0.0
  0
INSERT
  5
174B
330
1745
100
AcDbEntity
  8
DIM
 62
     0
370
    -2
100
AcDbBlockReference
  2
_DOT
 10
73.1021798125838
 20
993.1357131475579
 30
0.0
 41
3.0
 42
3.0
 43
3.0
 50
90.0000000000002
  0
INSERT
  5
174C
330
1745
100
AcDbEntity
  8
DIM
 62
     0
370
    -2
100
AcDbBlockReference
  2
_DOT
 10
73.10217981258432
 20
844.4395670391076
 30
0.0
 41
3.0
 42
3.0
 43
3.0
 50
270.0000000000002
  0
MTEXT
  5
174D
330
1745
100
AcDbEntity
  8
DIM
 62
     0
 48
0.05
100
AcDbMText
 10
51.10217981258404
 20
925.0515487906334
 30
0.0
 40
12.0
 41
0.0
 46
0.0
 71
     2
 72
     1
  1
\A1;149
  7
ＭＳ ゴシック
 11
-3.536081050002368E-15
 21
1.0
 31
0.0
 73
     1
 44
1.0
  0
POINT
  5
174E
330
1745
100
AcDbEntity
  8
Defpoints
 62
     0
100
AcDbPoint
 10
123.102179812584
 20
993.1357131475581
 30
0.0
  0
POINT
  5
174F
330
1745
100
AcDbEntity
  8
Defpoints
 62
     0
100
AcDbPoint
 10
144.9060337041329
 20
844.4395670391079
 30
0.0
  0
POINT
  5
1750
330
1745
100
AcDbEntity
  8
Defpoints
 62
     0
100
AcDbPoint
 10
73.10217981258432
 20
844.4395670391077
 30
0.0
  0
ENDBLK
  5
1747
330
1745
100
AcDbEntity
  8
0
100
AcDbBlockEnd
  0
BLOCK
  5
1790
330
178F
100
AcDbEntity
  8
0
100
AcDbBlockBegin
  2
*D49
 70
     1
 10
0.0
 20
0.0
 30
0.0
  3
*D49
  1
*D50
  0
LINE
  5
1792
330
178F
100
AcDbEntity
  8
DIM
 62
     0
 48
0.05
370
    -2
100
AcDbLine
 10
-954.5258558315168
 20
705.5212249101561
 30
0.0
 11
-914.9796323388177
 21
705.5212249101561
 31
0.0
  0
LINE
  5
1793
330
178F
100
AcDbEntity
  8
DIM
 62
     0
 48
0.05
370
    -2
100
AcDbLine
 10
-973.02201130465
 20
556.5212249101561
 30
0.0
 11
-914.9796323388177
 21
556.5212249101561
 31
0.0
  0
LINE
  5
1794
330
178F
100
AcDbEntity
  8
DIM
 62
     0
 48
0.05
370
    -2
100
AcDbLine
 10
-914.9796323388177
 20
702.5212249101561
 30
0.0
 11
-914.9796323388177
 21
559.5212249101561
 31
0.0
  0
INSERT
  5
1795
330
178F
100
AcDbEntity
  8
DIM
 62
     0
370
    -2
100
AcDbBlockReference
  2
_DOT
 10
-914.9796323388177
 20
705.5212249101561
 30
0.0
 41
3.0
 42
3.0
 43
3.0
 50
90.0
  0
INSERT
  5
1796
330
178F
100
AcDbEntity
  8
DIM
 62
     0
370
    -2
100
AcDbBlockReference
  2
_DOT
 10
-914.9796323388177
 20
556.5212249101561
 30
0.0
 41
3.0
 42
3.0
 43
3.0
 50
270.0
  0
MTEXT
  5
1797
330
178F
100
AcDbEntity
  8
DIM
 62
     0
 48
0.05
100
AcDbMText
 10
-922.9796323388177
 20
631.0212249101561
 30
0.0
 40
10.0
 41
0.0
 46
0.0
 71
     5
 72
     1
  1
\A1;149
  7
ＭＳ ゴシック
 11
0.0
 21
1.0
 31
0.0
 73
     1
 44
1.0
  0
POINT
  5
1798
330
178F
100
AcDbEntity
  8
Defpoints
 62
     0
100
AcDbPoint
 10
-964.5258558315168
 20
705.5212249101561
 30
0.0
  0
POINT
  5
1799
330
178F
100
AcDbEntity
  8
Defpoints
 62
     0
100
AcDbPoint
 10
-983.02201130465
 20
556.5212249101561
 30
0.0
  0
POINT
  5
179A
330
178F
100
AcDbEntity
  8
Defpoints
 62
     0
100
AcDbPoint
 10
-914.9796323388177
 20
556.5212249101561
 30
0.0
  0
ENDBLK
  5
1791
330
178F
100
AcDbEntity
  8
0
100
AcDbBlockEnd
  0
BLOCK
  5
17A5
330
17A4
100
AcDbEntity
  8
0
100
AcDbBlockBegin
  2
*D50
 70
     1
 10
0.0
 20
0.0
 30
0.0
  3
*D50
  1
*D51
  0
LINE
  5
17A7
330
17A4
100
AcDbEntity
  8
DIM
 62
     0
 48
0.05
370
    -2
100
AcDbLine
 10
-745.4585725759449
 20
1063.995359883266
 30
0.0
 11
-716.5993726618561
 21
1063.995359883266
 31
0.0
  0
LINE
  5
17A8
330
17A4
100
AcDbEntity
  8
DIM
 62
     0
 48
0.05
370
    -2
100
AcDbLine
 10
-745.4585725759449
 20
1003.99535749908
 30
0.0
 11
-716.5993726618561
 21
1003.99535749908
 31
0.0
  0
LINE
  5
17A9
330
17A4
100
AcDbEntity
  8
DIM
 62
     0
 48
0.05
370
    -2
100
AcDbLine
 10
-716.5993726618561
 20
1060.995359883266
 30
0.0
 11
-716.5993726618561
 21
1006.99535749908
 31
0.0
  0
INSERT
  5
17AA
330
17A4
100
AcDbEntity
  8
DIM
 62
     0
370
    -2
100
AcDbBlockReference
  2
_DOT
 10
-716.5993726618561
 20
1063.995359883266
 30
0.0
 41
3.0
 42
3.0
 43
3.0
 50
90.0
  0
INSERT
  5
17AB
330
17A4
100
AcDbEntity
  8
DIM
 62
     0
370
    -2
100
AcDbBlockReference
  2
_DOT
 10
-716.5993726618561
 20
1003.99535749908
 30
0.0
 41
3.0
 42
3.0
 43
3.0
 50
270.0
  0
MTEXT
  5
17AC
330
17A4
100
AcDbEntity
  8
DIM
 62
     0
 48
0.05
100
AcDbMText
 10
-724.6493726618561
 20
1033.995358691173
 30
0.0
 40
10.0
 41
0.0
 46
0.0
 71
     5
 72
     1
  1
\A1;ø60
  7
ＭＳ ゴシック
 11
0.0
 21
1.0
 31
0.0
 73
     1
 44
1.0
  0
POINT
  5
17AD
330
17A4
100
AcDbEntity
  8
Defpoints
 62
     0
100
AcDbPoint
 10
-755.4585725759449
 20
1063.995359883266
 30
0.0
  0
POINT
  5
17AE
330
17A4
100
AcDbEntity
  8
Defpoints
 62
     0
100
AcDbPoint
 10
-755.4585725759449
 20
1003.99535749908
 30
0.0
  0
POINT
  5
17AF
330
17A4
100
AcDbEntity
  8
Defpoints
 62
     0
100
AcDbPoint
 10
-716.5993726618561
 20
1003.99535749908
 30
0.0
  0
ENDBLK
  5
17A6
330
17A4
100
AcDbEntity
  8
0
100
AcDbBlockEnd
  0
BLOCK
  5
17C9
330
17C8
100
AcDbEntity
  8
0
100
AcDbBlockBegin
  2
*D51
 70
     1
 10
0.0
 20
0.0
 30
0.0
  3
*D51
  1
*D52
  0
LINE
  5
17CB
330
17C8
100
AcDbEntity
  8
DIM
 62
     0
 48
0.05
370
    -2
100
AcDbLine
 10
699.4266162584969
 20
861.6571907492364
 30
0.0
 11
699.4266162584969
 21
813.0949826848789
 31
0.0
  0
LINE
  5
17CC
330
17C8
100
AcDbEntity
  8
DIM
 62
     0
 48
0.05
370
    -2
100
AcDbLine
 10
717.4266080330559
 20
861.6571907492364
 30
0.0
 11
717.4266080330559
 21
813.0949826848789
 31
0.0
  0
LINE
  5
17CD
330
17C8
100
AcDbEntity
  8
DIM
 62
     0
 48
0.05
370
    -2
100
AcDbLine
 10
696.4266162584969
 20
813.0949826848789
 30
0.0
 11
693.4266162584969
 21
813.0949826848789
 31
0.0
  0
LINE
  5
17CE
330
17C8
100
AcDbEntity
  8
DIM
 62
     0
 48
0.05
370
    -2
100
AcDbLine
 10
720.4266080330559
 20
813.0949826848789
 30
0.0
 11
723.4266080330559
 21
813.0949826848789
 31
0.0
  0
INSERT
  5
17CF
330
17C8
100
AcDbEntity
  8
DIM
 62
     0
370
    -2
100
AcDbBlockReference
  2
_DOT
 10
699.4266162584969
 20
813.0949826848789
 30
0.0
 41
3.0
 42
3.0
 43
3.0
  0
INSERT
  5
17D0
330
17C8
100
AcDbEntity
  8
DIM
 62
     0
370
    -2
100
AcDbBlockReference
  2
_DOT
 10
717.4266080330559
 20
813.0949826848789
 30
0.0
 41
3.0
 42
3.0
 43
3.0
 50
180.0
  0
MTEXT
  5
17D1
330
17C8
100
AcDbEntity
  8
DIM
 62
     0
 48
0.05
100
AcDbMText
 10
708.4266121457764
 20
824.0949826848789
 30
0.0
 40
12.0
 41
0.0
 46
0.0
 71
     5
 72
     1
  1
\A1;18
  7
ＭＳ ゴシック
 73
     1
 44
1.0
  0
POINT
  5
17D2
330
17C8
100
AcDbEntity
  8
Defpoints
 62
     0
100
AcDbPoint
 10
699.4266162584969
 20
871.6571907492364
 30
0.0
  0
POINT
  5
17D3
330
17C8
100
AcDbEntity
  8
Defpoints
 62
     0
100
AcDbPoint
 10
717.4266080330559
 20
871.6571907492364
 30
0.0
  0
POINT
  5
17D4
330
17C8
100
AcDbEntity
  8
Defpoints
 62
     0
100
AcDbPoint
 10
717.4266080330559
 20
813.0949826848789
 30
0.0
  0
ENDBLK
  5
17CA
330
17C8
100
AcDbEntity
  8
0
100
AcDbBlockEnd
  0
BLOCK
  5
17D9
330
17D8
100
AcDbEntity
  8
0
100
AcDbBlockBegin
  2
*D52
 70
     1
 10
0.0
 20
0.0
 30
0.0
  3
*D52
  1
*D53
  0
LINE
  5
17DB
330
17D8
100
AcDbEntity
  8
DIM
 62
     0
 48
0.05
370
    -2
100
AcDbLine
 10
671.7127995200646
 20
843.6395641347756
 30
0.0
 11
667.8708230684891
 21
843.6395641347756
 31
0.0
  0
LINE
  5
17DC
330
17D8
100
AcDbEntity
  8
DIM
 62
     0
 48
0.05
370
    -2
100
AcDbLine
 10
671.7127995200646
 20
861.6395633599152
 30
0.0
 11
667.8708230684891
 21
861.6395633599152
 31
0.0
  0
LINE
  5
17DD
330
17D8
100
AcDbEntity
  8
DIM
 62
     0
 48
0.05
370
    -2
100
AcDbLine
 10
667.8708230684891
 20
840.6395641347756
 30
0.0
 11
667.8708230684891
 21
837.6395641347756
 31
0.0
  0
LINE
  5
17DE
330
17D8
100
AcDbEntity
  8
DIM
 62
     0
 48
0.05
370
    -2
100
AcDbLine
 10
667.8708230684891
 20
864.6395633599152
 30
0.0
 11
667.8708230684891
 21
867.6395633599152
 31
0.0
  0
INSERT
  5
17DF
330
17D8
100
AcDbEntity
  8
DIM
 62
     0
370
    -2
100
AcDbBlockReference
  2
_DOT
 10
667.8708230684891
 20
843.6395641347756
 30
0.0
 41
3.0
 42
3.0
 43
3.0
 50
90.0
  0
INSERT
  5
17E0
330
17D8
100
AcDbEntity
  8
DIM
 62
     0
370
    -2
100
AcDbBlockReference
  2
_DOT
 10
667.8708230684891
 20
861.6395633599152
 30
0.0
 41
3.0
 42
3.0
 43
3.0
 50
270.0
  0
MTEXT
  5
17E1
330
17D8
100
AcDbEntity
  8
DIM
 62
     0
 48
0.05
100
AcDbMText
 10
656.8708230684891
 20
852.6395637473454
 30
0.0
 40
12.0
 41
0.0
 46
0.0
 71
     5
 72
     1
  1
\A1;18
  7
ＭＳ ゴシック
 11
0.0
 21
1.0
 31
0.0
 73
     1
 44
1.0
  0
POINT
  5
17E2
330
17D8
100
AcDbEntity
  8
Defpoints
 62
     0
100
AcDbPoint
 10
681.7127995200646
 20
843.6395641347756
 30
0.0
  0
POINT
  5
17E3
330
17D8
100
AcDbEntity
  8
Defpoints
 62
     0
100
AcDbPoint
 10
681.7127995200646
 20
861.6395633599152
 30
0.0
  0
POINT
  5
17E4
330
17D8
100
AcDbEntity
  8
Defpoints
 62
     0
100
AcDbPoint
 10
667.8708230684891
 20
861.6395633599152
 30
0.0
  0
ENDBLK
  5
17DA
330
17D8
100
AcDbEntity
  8
0
100
AcDbBlockEnd
  0
BLOCK
  5
17E9
330
17E8
100
AcDbEntity
  8
0
100
AcDbBlockBegin
  2
*D53
 70
     1
 10
0.0
 20
0.0
 30
0.0
  3
*D53
  1
*D54
  0
LINE
  5
17EB
330
17E8
100
AcDbEntity
  8
DIM
 62
     0
 48
0.05
370
    -2
100
AcDbLine
 10
664.9692725308354
 20
915.6395666232695
 30
0.0
 11
640.5417926384555
 21
915.6395666232695
 31
0.0
  0
LINE
  5
17EC
330
17E8
100
AcDbEntity
  8
DIM
 62
     0
 48
0.05
370
    -2
100
AcDbLine
 10
664.9692725308354
 20
929.6395670554032
 30
0.0
 11
640.5417926384555
 21
929.6395670554032
 31
0.0
  0
LINE
  5
17ED
330
17E8
100
AcDbEntity
  8
DIM
 62
     0
 48
0.05
370
    -2
100
AcDbLine
 10
640.5417926384555
 20
912.6395666232695
 30
0.0
 11
640.5417926384555
 21
909.6395666232695
 31
0.0
  0
LINE
  5
17EE
330
17E8
100
AcDbEntity
  8
DIM
 62
     0
 48
0.05
370
    -2
100
AcDbLine
 10
640.5417926384555
 20
932.6395670554032
 30
0.0
 11
640.5417926384555
 21
935.6395670554032
 31
0.0
  0
INSERT
  5
17EF
330
17E8
100
AcDbEntity
  8
DIM
 62
     0
370
    -2
100
AcDbBlockReference
  2
_DOT
 10
640.5417926384555
 20
915.6395666232695
 30
0.0
 41
3.0
 42
3.0
 43
3.0
 50
90.0
  0
INSERT
  5
17F0
330
17E8
100
AcDbEntity
  8
DIM
 62
     0
370
    -2
100
AcDbBlockReference
  2
_DOT
 10
640.5417926384555
 20
929.6395670554032
 30
0.0
 41
3.0
 42
3.0
 43
3.0
 50
270.0
  0
MTEXT
  5
17F1
330
17E8
100
AcDbEntity
  8
DIM
 62
     0
 48
0.05
100
AcDbMText
 10
629.5417926384555
 20
922.6395668393363
 30
0.0
 40
12.0
 41
0.0
 46
0.0
 71
     5
 72
     1
  1
\A1;14
  7
ＭＳ ゴシック
 11
0.0
 21
1.0
 31
0.0
 73
     1
 44
1.0
  0
POINT
  5
17F2
330
17E8
100
AcDbEntity
  8
Defpoints
 62
     0
100
AcDbPoint
 10
674.9692725308354
 20
915.6395666232695
 30
0.0
  0
POINT
  5
17F3
330
17E8
100
AcDbEntity
  8
Defpoints
 62
     0
100
AcDbPoint
 10
674.9692725308354
 20
929.6395670554032
 30
0.0
  0
POINT
  5
17F4
330
17E8
100
AcDbEntity
  8
Defpoints
 62
     0
100
AcDbPoint
 10
640.5417926384555
 20
929.6395670554032
 30
0.0
  0
ENDBLK
  5
17EA
330
17E8
100
AcDbEntity
  8
0
100
AcDbBlockEnd
  0
BLOCK
  5
17FA
330
17F9
100
AcDbEntity
  8
0
100
AcDbBlockBegin
  2
*D54
 70
     1
 10
0.0
 20
0.0
 30
0.0
  3
*D54
  1
*D55
  0
LINE
  5
17FC
330
17F9
100
AcDbEntity
  8
DIM
 62
     0
 48
0.05
370
    -2
100
AcDbLine
 10
-994.5258570236097
 20
715.5212249101561
 30
0.0
 11
-994.5258570236097
 21
748.6919356515888
 31
0.0
  0
LINE
  5
17FD
330
17F9
100
AcDbEntity
  8
DIM
 62
     0
 48
0.05
370
    -2
100
AcDbLine
 10
-1594.52585702361
 20
715.5212249101561
 30
0.0
 11
-1594.52585702361
 21
748.6919356515888
 31
0.0
  0
LINE
  5
17FE
330
17F9
100
AcDbEntity
  8
DIM
 62
     0
 48
0.05
370
    -2
100
AcDbLine
 10
-997.5258570236097
 20
748.6919356515888
 30
0.0
 11
-1591.52585702361
 21
748.6919356515888
 31
0.0
  0
INSERT
  5
17FF
330
17F9
100
AcDbEntity
  8
DIM
 62
     0
370
    -2
100
AcDbBlockReference
  2
_DOT
 10
-994.5258570236097
 20
748.6919356515888
 30
0.0
 41
3.0
 42
3.0
 43
3.0
  0
INSERT
  5
1800
330
17F9
100
AcDbEntity
  8
DIM
 62
     0
370
    -2
100
AcDbBlockReference
  2
_DOT
 10
-1594.52585702361
 20
748.6919356515888
 30
0.0
 41
3.0
 42
3.0
 43
3.0
 50
180.0
  0
MTEXT
  5
1801
330
17F9
100
AcDbEntity
  8
DIM
 62
     0
 48
0.05
100
AcDbMText
 10
-1294.52585702361
 20
756.6919356515888
 30
0.0
 40
10.0
 41
0.0
 46
0.0
 71
     5
 72
     1
  1
\A1;600
  7
ＭＳ ゴシック
 73
     1
 44
1.0
  0
POINT
  5
1802
330
17F9
100
AcDbEntity
  8
Defpoints
 62
     0
100
AcDbPoint
 10
-994.5258570236097
 20
705.5212249101561
 30
0.0
  0
POINT
  5
1803
330
17F9
100
AcDbEntity
  8
Defpoints
 62
     0
100
AcDbPoint
 10
-1594.52585702361
 20
705.5212249101561
 30
0.0
  0
POINT
  5
1804
330
17F9
100
AcDbEntity
  8
Defpoints
 62
     0
100
AcDbPoint
 10
-1594.52585702361
 20
748.6919356515888
 30
0.0
  0
ENDBLK
  5
17FB
330
17F9
100
AcDbEntity
  8
0
100
AcDbBlockEnd
  0
BLOCK
  5
180F
330
180E
100
AcDbEntity
  8
0
100
AcDbBlockBegin
  2
*D55
 70
     1
 10
0.0
 20
0.0
 30
0.0
  3
*D55
  1
*D56
  0
LINE
  5
1811
330
180E
100
AcDbEntity
  8
DIM
 62
     0
 48
0.05
370
    -2
100
AcDbLine
 10
-1624.525867156399
 20
715.5212249101561
 30
0.0
 11
-1624.525867156399
 21
789.7915698421194
 31
0.0
  0
LINE
  5
1812
330
180E
100
AcDbEntity
  8
DIM
 62
     0
 48
0.05
370
    -2
100
AcDbLine
 10
-964.5258558315168
 20
715.5212249101561
 30
0.0
 11
-964.5258558315168
 21
789.7915698421194
 31
0.0
  0
LINE
  5
1813
330
180E
100
AcDbEntity
  8
DIM
 62
     0
 48
0.05
370
    -2
100
AcDbLine
 10
-1621.525867156399
 20
789.7915698421194
 30
0.0
 11
-967.5258558315168
 21
789.7915698421194
 31
0.0
  0
INSERT
  5
1814
330
180E
100
AcDbEntity
  8
DIM
 62
     0
370
    -2
100
AcDbBlockReference
  2
_DOT
 10
-1624.525867156399
 20
789.7915698421194
 30
0.0
 41
3.0
 42
3.0
 43
3.0
 50
180.0
  0
INSERT
  5
1815
330
180E
100
AcDbEntity
  8
DIM
 62
     0
370
    -2
100
AcDbBlockReference
  2
_DOT
 10
-964.5258558315168
 20
789.7915698421194
 30
0.0
 41
3.0
 42
3.0
 43
3.0
  0
MTEXT
  5
1816
330
180E
100
AcDbEntity
  8
DIM
 62
     0
 48
0.05
100
AcDbMText
 10
-1294.525861493958
 20
797.7915698421194
 30
0.0
 40
10.0
 41
0.0
 46
0.0
 71
     5
 72
     1
  1
\A1;660
  7
ＭＳ ゴシック
 73
     1
 44
1.0
  0
POINT
  5
1817
330
180E
100
AcDbEntity
  8
Defpoints
 62
     0
100
AcDbPoint
 10
-1624.525867156399
 20
705.5212249101561
 30
0.0
  0
POINT
  5
1818
330
180E
100
AcDbEntity
  8
Defpoints
 62
     0
100
AcDbPoint
 10
-964.5258558315168
 20
705.5212249101561
 30
0.0
  0
POINT
  5
1819
330
180E
100
AcDbEntity
  8
Defpoints
 62
     0
100
AcDbPoint
 10
-964.5258558315168
 20
789.7915698421194
 30
0.0
  0
ENDBLK
  5
1810
330
180E
100
AcDbEntity
  8
0
100
AcDbBlockEnd
  0
BLOCK
  5
186B
330
186A
100
AcDbEntity
  8
0
100
AcDbBlockBegin
  2
*D56
 70
     1
 10
0.0
 20
0.0
 30
0.0
  3
*D56
  1
*D56
  0
LINE
  5
186D
330
186A
100
AcDbEntity
  8
DIM
 62
     0
 48
0.05
370
    -2
100
AcDbLine
 10
-967.99096705819
 20
428.6853683572388
 30
0.0
 11
-967.99096705819
 21
396.7082966387002
 31
0.0
  0
LINE
  5
186E
330
186A
100
AcDbEntity
  8
DIM
 62
     0
 48
0.05
370
    -2
100
AcDbLine
 10
-577.99096705819
 20
428.6853683572388
 30
0.0
 11
-577.99096705819
 21
396.7082966387002
 31
0.0
  0
LINE
  5
186F
330
186A
100
AcDbEntity
  8
DIM
 62
     0
 48
0.05
370
    -2
100
AcDbLine
 10
-964.99096705819
 20
396.7082966387002
 30
0.0
 11
-580.99096705819
 21
396.7082966387002
 31
0.0
  0
INSERT
  5
1870
330
186A
100
AcDbEntity
  8
DIM
 62
     0
370
    -2
100
AcDbBlockReference
  2
_DOT
 10
-967.99096705819
 20
396.7082966387002
 30
0.0
 41
3.0
 42
3.0
 43
3.0
 50
180.0
  0
INSERT
  5
1871
330
186A
100
AcDbEntity
  8
DIM
 62
     0
370
    -2
100
AcDbBlockReference
  2
_DOT
 10
-577.99096705819
 20
396.7082966387002
 30
0.0
 41
3.0
 42
3.0
 43
3.0
  0
MTEXT
  5
1872
330
186A
100
AcDbEntity
  8
DIM
 62
     0
 48
0.05
100
AcDbMText
 10
-772.99096705819
 20
407.7082966387002
 30
0.0
 40
12.0
 41
0.0
 46
0.0
 71
     5
 72
     1
  1
\A1;390
  7
ＭＳ ゴシック
 73
     1
 44
1.0
  0
POINT
  5
1873
330
186A
100
AcDbEntity
  8
Defpoints
 62
     0
100
AcDbPoint
 10
-967.99096705819
 20
438.6853683572388
 30
0.0
  0
POINT
  5
1874
330
186A
100
AcDbEntity
  8
Defpoints
 62
     0
100
AcDbPoint
 10
-577.99096705819
 20
438.6853683572388
 30
0.0
  0
POINT
  5
1875
330
186A
100
AcDbEntity
  8
Defpoints
 62
     0
100
AcDbPoint
 10
-577.99096705819
 20
396.7082966387002
 30
0.0
  0
ENDBLK
  5
186C
330
186A
100
AcDbEntity
  8
0
100
AcDbBlockEnd
  0
BLOCK
  5
1D4B
330
1D4A
100
AcDbEntity
  8
0
100
AcDbBlockBegin
  2
*D57
 70
     1
 10
0.0
 20
0.0
 30
0.0
  3
*D57
  1
*D61
  0
LINE
  5
1D4C
330
1D4A
100
AcDbEntity
  8
SLD-0
 62
     0
370
    -2
100
AcDbLine
 10
0.0000000000000498
 20
100.5212055509388
 30
0.0
 11
0.0000000000000711
 21
88.58370555093889
 31
0.0
  0
LINE
  5
1D4D
330
1D4A
100
AcDbEntity
  8
SLD-0
 62
     0
370
    -2
100
AcDbLine
 10
156.0000000000001
 20
100.5212055509394
 30
0.0
 11
156.0000000000001
 21
88.58370555093889
 31
0.0
  0
LINE
  5
1D4E
330
1D4A
100
AcDbEntity
  8
SLD-0
 62
     0
370
    -2
100
AcDbLine
 10
3.500000000000071
 20
88.58370555093889
 30
0.0
 11
152.5000000000001
 21
88.58370555093889
 31
0.0
  0
SOLID
  5
1D4F
330
1D4A
100
AcDbEntity
  8
SLD-0
 62
     0
100
AcDbTrace
 10
3.500000000000071
 20
89.16703888427222
 30
0.0
 11
3.500000000000071
 21
88.00037221760556
 31
0.0
 12
0.0000000000000711
 22
88.58370555093889
 32
0.0
 13
0.0000000000000711
 23
88.58370555093889
 33
0.0
  0
SOLID
  5
1D50
330
1D4A
100
AcDbEntity
  8
SLD-0
 62
     0
100
AcDbTrace
 10
152.5000000000001
 20
88.00037221760556
 30
0.0
 11
152.5000000000001
 21
89.16703888427222
 31
0.0
 12
156.0000000000001
 22
88.58370555093889
 32
0.0
 13
156.0000000000001
 23
88.58370555093889
 33
0.0
  0
MTEXT
  5
1D51
330
1D4A
100
AcDbEntity
  8
SLD-0
 62
     0
 48
0.05
100
AcDbMText
 10
75.85625000000012
 20
87.70870555093889
 30
0.0
 40
3.5
 41
0.0
 46
0.0
 71
     1
 72
     1
  1
\A1;780
  7
SLDTEXTSTYLE1
 73
     1
 44
1.0
  0
POINT
  5
1E0E
330
1D4A
100
AcDbEntity
  8
Defpoints
 62
     0
100
AcDbPoint
 10
0.0000000000000497
 20
100.5837055509388
 30
0.0
  0
POINT
  5
1E0F
330
1D4A
100
AcDbEntity
  8
Defpoints
 62
     0
100
AcDbPoint
 10
156.0000000000001
 20
100.5837055509394
 30
0.0
  0
POINT
  5
1E10
330
1D4A
100
AcDbEntity
  8
Defpoints
 62
     0
100
AcDbPoint
 10
156.0000000000001
 20
88.58370555093926
 30
0.0
  0
ENDBLK
  5
1D52
330
1D4A
100
AcDbEntity
  8
0
100
AcDbBlockEnd
  0
BLOCK
  5
1D55
330
1D54
100
AcDbEntity
  8
0
100
AcDbBlockBegin
  2
*D58
 70
     1
 10
0.0
 20
0.0
 30
0.0
  3
*D58
  1
*D62
  0
LINE
  5
1D56
330
1D54
100
AcDbEntity
  8
SLD-0
 62
     0
370
    -2
100
AcDbLine
 10
156.0625000000001
 20
100.5837055509394
 30
0.0
 11
164.9361904486132
 21
100.5837055509394
 31
0.0
  0
LINE
  5
1D57
330
1D54
100
AcDbEntity
  8
SLD-0
 62
     0
370
    -2
100
AcDbLine
 10
156.0625
 20
110.5837055509394
 30
0.0
 11
164.9361904486132
 21
110.5837055509394
 31
0.0
  0
LINE
  5
1D58
330
1D54
100
AcDbEntity
  8
SLD-0
 62
     0
370
    -2
100
AcDbLine
 10
164.9361904486132
 20
104.0837055509394
 30
0.0
 11
164.9361904486132
 21
107.0837055509394
 31
0.0
  0
SOLID
  5
1D59
330
1D54
100
AcDbEntity
  8
SLD-0
 62
     0
100
AcDbTrace
 10
164.3528571152798
 20
104.0837055509394
 30
0.0
 11
165.5195237819465
 21
104.0837055509394
 31
0.0
 12
164.9361904486132
 22
100.5837055509394
 32
0.0
 13
164.9361904486132
 23
100.5837055509394
 33
0.0
  0
SOLID
  5
1D5A
330
1D54
100
AcDbEntity
  8
SLD-0
 62
     0
100
AcDbTrace
 10
165.5195237819465
 20
107.0837055509394
 30
0.0
 11
164.3528571152798
 21
107.0837055509394
 31
0.0
 12
164.9361904486132
 22
110.5837055509394
 32
0.0
 13
164.9361904486132
 23
110.5837055509394
 33
0.0
  0
MTEXT
  5
1D5B
330
1D54
100
AcDbEntity
  8
SLD-0
 62
     0
 48
0.05
100
AcDbMText
 10
165.8111904486132
 20
104.2974555509394
 30
0.0
 40
3.5
 41
0.0
 46
0.0
 71
     1
 72
     1
  1
\A1;50
  7
SLDTEXTSTYLE1
 11
-2.842170943040409E-15
 21
1.0
 31
0.0
 73
     1
 44
1.0
  0
POINT
  5
1D5C
330
1D54
100
AcDbEntity
  8
Defpoints
 62
     0
100
AcDbPoint
 10
156.0000000000001
 20
100.5837055509394
 30
0.0
  0
POINT
  5
1D5D
330
1D54
100
AcDbEntity
  8
Defpoints
 62
     0
100
AcDbPoint
 10
156.0
 20
110.5837055509394
 30
0.0
  0
POINT
  5
1E11
330
1D54
100
AcDbEntity
  8
Defpoints
 62
     0
100
AcDbPoint
 10
164.9361904486131
 20
110.5837055509394
 30
0.0
  0
ENDBLK
  5
1D5E
330
1D54
100
AcDbEntity
  8
0
100
AcDbBlockEnd
  0
BLOCK
  5
1DB9
330
1DB8
100
AcDbEntity
  8
0
100
AcDbBlockBegin
  2
*D59
 70
     1
 10
0.0
 20
0.0
 30
0.0
  3
*D59
  1
*D63
  0
LINE
  5
1DBA
330
1DB8
100
AcDbEntity
  8
SLD-0
 62
     0
370
    -2
100
AcDbLine
 10
95.99999999999994
 20
45.68313273837748
 30
0.0
 11
95.99999999999994
 21
62.06575707688962
 31
0.0
  0
LINE
  5
1DBB
330
1DB8
100
AcDbEntity
  8
SLD-0
 62
     0
370
    -2
100
AcDbLine
 10
156.0
 20
45.68313273837769
 30
0.0
 11
156.0
 21
62.06575707688962
 31
0.0
  0
LINE
  5
1DBC
330
1DB8
100
AcDbEntity
  8
SLD-0
 62
     0
370
    -2
100
AcDbLine
 10
99.49999999999994
 20
62.06575707688962
 30
0.0
 11
152.5
 21
62.06575707688962
 31
0.0
  0
SOLID
  5
1DBD
330
1DB8
100
AcDbEntity
  8
SLD-0
 62
     0
100
AcDbTrace
 10
99.49999999999994
 20
62.64909041022296
 30
0.0
 11
99.49999999999994
 21
61.48242374355629
 31
0.0
 12
95.99999999999994
 22
62.06575707688962
 32
0.0
 13
95.99999999999994
 23
62.06575707688962
 33
0.0
  0
SOLID
  5
1DBE
330
1DB8
100
AcDbEntity
  8
SLD-0
 62
     0
100
AcDbTrace
 10
152.5
 20
61.48242374355629
 30
0.0
 11
152.5
 21
62.64909041022296
 31
0.0
 12
156.0
 22
62.06575707688962
 32
0.0
 13
156.0
 23
62.06575707688962
 33
0.0
  0
MTEXT
  5
1DBF
330
1DB8
100
AcDbEntity
  8
SLD-0
 62
     0
 48
0.05
100
AcDbMText
 10
123.9991666666665
 20
66.44075707688962
 30
0.0
 40
3.5
 41
0.0
 46
0.0
 71
     1
 72
     1
  1
\A1;300
  7
SLDTEXTSTYLE1
 73
     1
 44
1.0
  0
POINT
  5
1E12
330
1DB8
100
AcDbEntity
  8
Defpoints
 62
     0
100
AcDbPoint
 10
95.99999999999994
 20
45.62063273837748
 30
0.0
  0
POINT
  5
1E13
330
1DB8
100
AcDbEntity
  8
Defpoints
 62
     0
100
AcDbPoint
 10
156.0
 20
45.62063273837769
 30
0.0
  0
POINT
  5
1E14
330
1DB8
100
AcDbEntity
  8
Defpoints
 62
     0
100
AcDbPoint
 10
156.0
 20
62.06575707688972
 30
0.0
  0
ENDBLK
  5
1DC0
330
1DB8
100
AcDbEntity
  8
0
100
AcDbBlockEnd
  0
BLOCK
  5
1DC3
330
1DC2
100
AcDbEntity
  8
0
100
AcDbBlockBegin
  2
*D60
 70
     1
 10
0.0
 20
0.0
 30
0.0
  3
*D60
  1
*D64
  0
LINE
  5
1DC4
330
1DC2
100
AcDbEntity
  8
SLD-0
 62
     0
370
    -2
100
AcDbLine
 10
0.0625000000000213
 20
26.42063273837715
 30
0.0
 11
66.91669271815502
 21
26.4206327383774
 31
0.0
  0
LINE
  5
1DC5
330
1DC2
100
AcDbEntity
  8
SLD-0
 62
     0
370
    -2
100
AcDbLine
 10
0.0625000000000071
 20
28.82063273837714
 30
0.0
 11
66.916692718155
 21
28.82063273837739
 31
0.0
  0
LINE
  5
1DC6
330
1DC2
100
AcDbEntity
  8
SLD-0
 62
     0
370
    -2
100
AcDbLine
 10
66.91669271815502
 20
26.4206327383774
 30
0.0
 11
66.91669271815509
 21
15.38396607171074
 31
0.0
  0
LINE
  5
1DC7
330
1DC2
100
AcDbEntity
  8
SLD-0
 62
     0
370
    -2
100
AcDbLine
 10
66.91669271815503
 20
22.9206327383774
 30
0.0
 11
66.91669271815505
 21
19.4206327383774
 31
0.0
  0
LINE
  5
1DC8
330
1DC2
100
AcDbEntity
  8
SLD-0
 62
     0
370
    -2
100
AcDbLine
 10
66.91669271815499
 20
32.32063273837739
 30
0.0
 11
66.91669271815498
 21
35.82063273837739
 31
0.0
  0
SOLID
  5
1DC9
330
1DC2
100
AcDbEntity
  8
SLD-0
 62
     0
100
AcDbTrace
 10
67.50002605148836
 20
22.9206327383774
 30
0.0
 11
66.3333593848217
 21
22.9206327383774
 31
0.0
 12
66.91669271815502
 22
26.4206327383774
 32
0.0
 13
66.91669271815502
 23
26.4206327383774
 33
0.0
  0
SOLID
  5
1E15
330
1DC2
100
AcDbEntity
  8
SLD-0
 62
     0
100
AcDbTrace
 10
66.33335938482166
 20
32.32063273837739
 30
0.0
 11
67.50002605148832
 21
32.32063273837739
 31
0.0
 12
66.916692718155
 22
28.82063273837739
 32
0.0
 13
66.916692718155
 23
28.82063273837739
 33
0.0
  0
MTEXT
  5
1E16
330
1DC2
100
AcDbEntity
  8
SLD-0
 62
     0
 48
0.05
100
AcDbMText
 10
67.79169271815508
 20
16.25896607171074
 30
0.0
 40
3.5
 41
0.0
 46
0.0
 71
     1
 72
     1
  1
\A1;12
  7
SLDTEXTSTYLE1
 11
-5.921189464667522E-15
 21
1.0
 31
0.0
 73
     1
 44
1.0
  0
POINT
  5
1E17
330
1DC2
100
AcDbEntity
  8
Defpoints
 62
     0
100
AcDbPoint
 10
0.0000000000000213
 20
26.42063273837715
 30
0.0
  0
POINT
  5
1E18
330
1DC2
100
AcDbEntity
  8
Defpoints
 62
     0
100
AcDbPoint
 10
0.0000000000000071
 20
28.82063273837714
 30
0.0
  0
POINT
  5
1E19
330
1DC2
100
AcDbEntity
  8
Defpoints
 62
     0
100
AcDbPoint
 10
66.91669271815502
 20
28.82063273837739
 30
0.0
  0
ENDBLK
  5
1DCA
330
1DC2
100
AcDbEntity
  8
0
100
AcDbBlockEnd
  0
BLOCK
  5
1DCD
330
1DCC
100
AcDbEntity
  8
0
100
AcDbBlockBegin
  2
*D61
 70
     1
 10
0.0
 20
0.0
 30
0.0
  3
*D61
  1
*D65
  0
LINE
  5
1DCE
330
1DCC
100
AcDbEntity
  8
SLD-0
 62
     0
370
    -2
100
AcDbLine
 10
95.93749999999997
 20
43.22063273837747
 30
0.0
 11
85.33913820944488
 21
43.22063273837743
 31
0.0
  0
LINE
  5
1DCF
330
1DCC
100
AcDbEntity
  8
SLD-0
 62
     0
370
    -2
100
AcDbLine
 10
95.93749999999994
 20
45.62063273837748
 30
0.0
 11
85.33913820944487
 21
45.62063273837744
 31
0.0
  0
LINE
  5
1DD0
330
1DCC
100
AcDbEntity
  8
SLD-0
 62
     0
370
    -2
100
AcDbLine
 10
85.33913820944488
 20
43.22063273837743
 30
0.0
 11
85.33913820944494
 21
32.18396607171077
 31
0.0
  0
LINE
  5
1DD1
330
1DCC
100
AcDbEntity
  8
SLD-0
 62
     0
370
    -2
100
AcDbLine
 10
85.3391382094449
 20
39.72063273837743
 30
0.0
 11
85.33913820944491
 21
36.22063273837743
 31
0.0
  0
LINE
  5
1DD2
330
1DCC
100
AcDbEntity
  8
SLD-0
 62
     0
370
    -2
100
AcDbLine
 10
85.33913820944485
 20
49.12063273837744
 30
0.0
 11
85.33913820944484
 21
52.62063273837744
 31
0.0
  0
SOLID
  5
1DD3
330
1DCC
100
AcDbEntity
  8
SLD-0
 62
     0
100
AcDbTrace
 10
85.92247154277823
 20
39.72063273837743
 30
0.0
 11
84.75580487611157
 21
39.72063273837743
 31
0.0
 12
85.33913820944488
 22
43.22063273837743
 32
0.0
 13
85.33913820944488
 23
43.22063273837743
 33
0.0
  0
SOLID
  5
1DD4
330
1DCC
100
AcDbEntity
  8
SLD-0
 62
     0
100
AcDbTrace
 10
84.75580487611153
 20
49.12063273837744
 30
0.0
 11
85.92247154277818
 21
49.12063273837744
 31
0.0
 12
85.33913820944487
 22
45.62063273837744
 32
0.0
 13
85.33913820944487
 23
45.62063273837744
 33
0.0
  0
MTEXT
  5
1DD5
330
1DCC
100
AcDbEntity
  8
SLD-0
 62
     0
 48
0.05
100
AcDbMText
 10
80.96413820944493
 20
33.05896607171074
 30
0.0
 40
3.5
 41
0.0
 46
0.0
 71
     1
 72
     1
  1
\A1;12
  7
SLDTEXTSTYLE1
 11
-5.921189464667488E-15
 21
1.0
 31
0.0
 73
     1
 44
1.0
  0
POINT
  5
1E1A
330
1DCC
100
AcDbEntity
  8
Defpoints
 62
     0
100
AcDbPoint
 10
95.99999999999997
 20
43.22063273837747
 30
0.0
  0
POINT
  5
1E1B
330
1DCC
100
AcDbEntity
  8
Defpoints
 62
     0
100
AcDbPoint
 10
95.99999999999994
 20
45.62063273837748
 30
0.0
  0
POINT
  5
1E1C
330
1DCC
100
AcDbEntity
  8
Defpoints
 62
     0
100
AcDbPoint
 10
85.33913820944488
 20
45.62063273837744
 30
0.0
  0
ENDBLK
  5
1DD6
330
1DCC
100
AcDbEntity
  8
0
100
AcDbBlockEnd
  0
BLOCK
  5
1DD9
330
1DD8
100
AcDbEntity
  8
0
100
AcDbBlockBegin
  2
*D62
 70
     1
 10
0.0
 20
0.0
 30
0.0
  3
*D62
  1
*D66
  0
LINE
  5
1DDA
330
1DD8
100
AcDbEntity
  8
SLD-0
 62
     0
370
    -2
100
AcDbLine
 10
96.06249999999997
 20
43.22063273837747
 30
0.0
 11
105.8891263381958
 21
43.22063273837751
 31
0.0
  0
LINE
  5
1DDB
330
1DD8
100
AcDbEntity
  8
SLD-0
 62
     0
370
    -2
100
AcDbLine
 10
155.9375
 20
28.8206327383777
 30
0.0
 11
105.8891263381959
 21
28.82063273837752
 31
0.0
  0
LINE
  5
1DDC
330
1DD8
100
AcDbEntity
  8
SLD-0
 62
     0
370
    -2
100
AcDbLine
 10
105.8891263381958
 20
39.72063273837751
 30
0.0
 11
105.8891263381959
 21
32.32063273837751
 31
0.0
  0
SOLID
  5
1DDD
330
1DD8
100
AcDbEntity
  8
SLD-0
 62
     0
100
AcDbTrace
 10
106.4724596715292
 20
39.72063273837751
 30
0.0
 11
105.3057930048625
 21
39.72063273837751
 31
0.0
 12
105.8891263381958
 22
43.22063273837751
 32
0.0
 13
105.8891263381958
 23
43.22063273837751
 33
0.0
  0
SOLID
  5
1E1D
330
1DD8
100
AcDbEntity
  8
SLD-0
 62
     0
100
AcDbTrace
 10
105.3057930048625
 20
32.32063273837751
 30
0.0
 11
106.4724596715292
 21
32.32063273837751
 31
0.0
 12
105.8891263381959
 22
28.82063273837752
 32
0.0
 13
105.8891263381959
 23
28.82063273837752
 33
0.0
  0
MTEXT
  5
1E1E
330
1DD8
100
AcDbEntity
  8
SLD-0
 62
     0
 48
0.05
100
AcDbMText
 10
106.7641263381958
 20
34.59146607171085
 30
0.0
 40
3.5
 41
0.0
 46
0.0
 71
     1
 72
     1
  1
\A1;72
  7
SLDTEXTSTYLE1
 11
-3.947459643111667E-15
 21
1.0
 31
0.0
 73
     1
 44
1.0
  0
POINT
  5
1E1F
330
1DD8
100
AcDbEntity
  8
Defpoints
 62
     0
100
AcDbPoint
 10
95.99999999999997
 20
43.22063273837747
 30
0.0
  0
POINT
  5
1E20
330
1DD8
100
AcDbEntity
  8
Defpoints
 62
     0
100
AcDbPoint
 10
156.0
 20
28.8206327383777
 30
0.0
  0
POINT
  5
1E21
330
1DD8
100
AcDbEntity
  8
Defpoints
 62
     0
100
AcDbPoint
 10
105.8891263381959
 20
28.82063273837751
 30
0.0
  0
ENDBLK
  5
1DDE
330
1DD8
100
AcDbEntity
  8
0
100
AcDbBlockEnd
  0
BLOCK
  5
1DE1
330
1DE0
100
AcDbEntity
  8
0
100
AcDbBlockBegin
  2
*D63
 70
     1
 10
0.0
 20
0.0
 30
0.0
  3
*D63
  1
*D67
  0
LINE
  5
1DE2
330
1DE0
100
AcDbEntity
  8
SLD-0
 62
     0
370
    -2
100
AcDbLine
 10
110.0
 20
47.47313273837777
 30
0.0
 11
110.0
 21
53.36046509048138
 31
0.0
  0
LINE
  5
1DE3
330
1DE0
100
AcDbEntity
  8
SLD-0
 62
     0
370
    -2
100
AcDbLine
 10
142.0
 20
47.47313273837788
 30
0.0
 11
142.0
 21
53.36046509048138
 31
0.0
  0
LINE
  5
1DE4
330
1DE0
100
AcDbEntity
  8
SLD-0
 62
     0
370
    -2
100
AcDbLine
 10
113.5
 20
53.36046509048138
 30
0.0
 11
138.5
 21
53.36046509048138
 31
0.0
  0
SOLID
  5
1DE5
330
1DE0
100
AcDbEntity
  8
SLD-0
 62
     0
100
AcDbTrace
 10
113.5
 20
53.94379842381472
 30
0.0
 11
113.5
 21
52.77713175714805
 31
0.0
 12
110.0
 22
53.36046509048138
 32
0.0
 13
110.0
 23
53.36046509048138
 33
0.0
  0
SOLID
  5
1DE6
330
1DE0
100
AcDbEntity
  8
SLD-0
 62
     0
100
AcDbTrace
 10
138.5
 20
52.77713175714805
 30
0.0
 11
138.5
 21
53.94379842381472
 31
0.0
 12
142.0
 22
53.36046509048138
 32
0.0
 13
142.0
 23
53.36046509048138
 33
0.0
  0
MTEXT
  5
1DE7
330
1DE0
100
AcDbEntity
  8
SLD-0
 62
     0
 48
0.05
100
AcDbMText
 10
124.1420833333333
 20
57.73546509048138
 30
0.0
 40
3.5
 41
0.0
 46
0.0
 71
     1
 72
     1
  1
\A1;160
  7
SLDTEXTSTYLE1
 73
     1
 44
1.0
  0
POINT
  5
1E22
330
1DE0
100
AcDbEntity
  8
Defpoints
 62
     0
100
AcDbPoint
 10
110.0
 20
47.41063273837777
 30
0.0
  0
POINT
  5
1E23
330
1DE0
100
AcDbEntity
  8
Defpoints
 62
     0
100
AcDbPoint
 10
142.0
 20
47.41063273837788
 30
0.0
  0
POINT
  5
1E24
330
1DE0
100
AcDbEntity
  8
Defpoints
 62
     0
100
AcDbPoint
 10
142.0
 20
53.36046509048141
 30
0.0
  0
ENDBLK
  5
1DE8
330
1DE0
100
AcDbEntity
  8
0
100
AcDbBlockEnd
  0
BLOCK
  5
1EAD
330
1EAC
100
AcDbEntity
  8
0
100
AcDbBlockBegin
  2
*D64
 70
     1
 10
0.0
 20
0.0
 30
0.0
  3
*D64
  1
*D68
  0
LINE
  5
1EAF
330
1EAC
100
AcDbEntity
  8
DIM
 62
     0
370
    -2
100
AcDbLine
 10
532.262915401793
 20
737.6396732438981
 30
0.0
 11
532.2629154017927
 21
770.4313643971587
 31
0.0
  0
LINE
  5
1EB0
330
1EAC
100
AcDbEntity
  8
DIM
 62
     0
370
    -2
100
AcDbLine
 10
142.2629154017929
 20
739.5502341369963
 30
0.0
 11
142.2629154017927
 21
770.4313643971565
 31
0.0
  0
LINE
  5
1EB1
330
1EAC
100
AcDbEntity
  8
DIM
 62
     0
370
    -2
100
AcDbLine
 10
529.2629154017927
 20
770.4313643971587
 30
0.0
 11
145.2629154017927
 21
770.4313643971565
 31
0.0
  0
INSERT
  5
1EB2
330
1EAC
100
AcDbEntity
  8
DIM
 62
     0
370
    -2
100
AcDbBlockReference
  2
_DOT
 10
532.2629154017927
 20
770.4313643971587
 30
0.0
 41
3.0
 42
3.0
 43
3.0
 50
0.000000000000334
  0
INSERT
  5
1EB3
330
1EAC
100
AcDbEntity
  8
DIM
 62
     0
370
    -2
100
AcDbBlockReference
  2
_DOT
 10
142.2629154017927
 20
770.4313643971565
 30
0.0
 41
3.0
 42
3.0
 43
3.0
 50
180.0000000000003
  0
MTEXT
  5
1EB4
330
1EAC
100
AcDbEntity
  8
DIM
 62
     0
 48
0.05
100
AcDbMText
 10
328.0479154017929
 20
783.4313643971576
 30
0.0
 40
10.0
 41
0.0
 46
0.0
 71
     1
 72
     1
  1
\A1;390
  7
ＭＳ ゴシック
 73
     1
 44
1.0
  0
POINT
  5
1EB5
330
1EAC
100
AcDbEntity
  8
Defpoints
 62
     0
100
AcDbPoint
 10
532.262915401793
 20
727.6396732438981
 30
0.0
  0
POINT
  5
1EB6
330
1EAC
100
AcDbEntity
  8
Defpoints
 62
     0
100
AcDbPoint
 10
142.262915401793
 20
729.5502341369963
 30
0.0
  0
POINT
  5
1EB7
330
1EAC
100
AcDbEntity
  8
Defpoints
 62
     0
100
AcDbPoint
 10
142.2629154017927
 20
770.4313643971565
 30
0.0
  0
ENDBLK
  5
1EAE
330
1EAC
100
AcDbEntity
  8
0
100
AcDbBlockEnd
  0
BLOCK
  5
1EB9
330
1EB8
100
AcDbEntity
  8
0
100
AcDbBlockBegin
  2
*D65
 70
     1
 10
0.0
 20
0.0
 30
0.0
  3
*D65
  1
*D69
  0
LINE
  5
1EBB
330
1EB8
100
AcDbEntity
  8
DIM
 62
     0
370
    -2
100
AcDbLine
 10
698.4176221947566
 20
704.5502341369972
 30
0.0
 11
719.2844665368159
 21
704.5502341369973
 31
0.0
  0
LINE
  5
1EBC
330
1EB8
100
AcDbEntity
  8
DIM
 62
     0
370
    -2
100
AcDbLine
 10
698.4176221947566
 20
729.5502341369972
 30
0.0
 11
719.2844665368159
 21
729.5502341369973
 31
0.0
  0
LINE
  5
1EBD
330
1EB8
100
AcDbEntity
  8
DIM
 62
     0
370
    -2
100
AcDbLine
 10
719.2844665368159
 20
707.5502341369973
 30
0.0
 11
719.2844665368159
 21
726.5502341369973
 31
0.0
  0
INSERT
  5
1EBE
330
1EB8
100
AcDbEntity
  8
DIM
 62
     0
370
    -2
100
AcDbBlockReference
  2
_DOT
 10
719.2844665368159
 20
704.5502341369973
 30
0.0
 41
3.0
 42
3.0
 43
3.0
 50
270.0000000000002
  0
INSERT
  5
1EBF
330
1EB8
100
AcDbEntity
  8
DIM
 62
     0
370
    -2
100
AcDbBlockReference
  2
_DOT
 10
719.2844665368159
 20
729.5502341369973
 30
0.0
 41
3.0
 42
3.0
 43
3.0
 50
90.00000000000026
  0
MTEXT
  5
1EC0
330
1EB8
100
AcDbEntity
  8
DIM
 62
     0
 48
0.05
100
AcDbMText
 10
706.2844665368159
 20
711.2402341369973
 30
0.0
 40
10.0
 41
0.0
 46
0.0
 71
     1
 72
     1
  1
\A1;25
  7
ＭＳ ゴシック
 11
-4.547473508864641E-15
 21
1.0
 31
0.0
 73
     1
 44
1.0
  0
POINT
  5
1EC1
330
1EB8
100
AcDbEntity
  8
Defpoints
 62
     0
100
AcDbPoint
 10
688.4176221947566
 20
704.5502341369972
 30
0.0
  0
POINT
  5
1EC2
330
1EB8
100
AcDbEntity
  8
Defpoints
 62
     0
100
AcDbPoint
 10
688.4176221947566
 20
729.5502341369972
 30
0.0
  0
POINT
  5
1EC3
330
1EB8
100
AcDbEntity
  8
Defpoints
 62
     0
100
AcDbPoint
 10
719.2844665368159
 20
729.5502341369973
 30
0.0
  0
ENDBLK
  5
1EBA
330
1EB8
100
AcDbEntity
  8
0
100
AcDbBlockEnd
  0
BLOCK
  5
1EC5
330
1EC4
100
AcDbEntity
  8
0
100
AcDbBlockBegin
  2
*D66
 70
     1
 10
0.0
 20
0.0
 30
0.0
  3
*D66
  1
*D70
  0
LINE
  5
1EC7
330
1EC4
100
AcDbEntity
  8
DIM
 62
     0
370
    -2
100
AcDbLine
 10
382.262915401793
 20
537.4303565710863
 30
0.0
 11
382.262915401793
 21
568.5431674173667
 31
0.0
  0
LINE
  5
1EC8
330
1EC4
100
AcDbEntity
  8
DIM
 62
     0
370
    -2
100
AcDbLine
 10
532.262915401793
 20
537.4303565710869
 30
0.0
 11
532.262915401793
 21
568.5431674173667
 31
0.0
  0
LINE
  5
1EC9
330
1EC4
100
AcDbEntity
  8
DIM
 62
     0
370
    -2
100
AcDbLine
 10
385.262915401793
 20
568.5431674173667
 30
0.0
 11
529.262915401793
 21
568.5431674173667
 31
0.0
  0
INSERT
  5
1ECA
330
1EC4
100
AcDbEntity
  8
DIM
 62
     0
370
    -2
100
AcDbBlockReference
  2
_DOT
 10
382.262915401793
 20
568.5431674173667
 30
0.0
 41
3.0
 42
3.0
 43
3.0
 50
180.0
  0
INSERT
  5
1ECB
330
1EC4
100
AcDbEntity
  8
DIM
 62
     0
370
    -2
100
AcDbBlockReference
  2
_DOT
 10
532.262915401793
 20
568.5431674173667
 30
0.0
 41
3.0
 42
3.0
 43
3.0
  0
MTEXT
  5
1ECC
330
1EC4
100
AcDbEntity
  8
DIM
 62
     0
 48
0.05
100
AcDbMText
 10
448.4029154017925
 20
581.5431674173667
 30
0.0
 40
10.0
 41
0.0
 46
0.0
 71
     1
 72
     1
  1
\A1;150
  7
ＭＳ ゴシック
 73
     1
 44
1.0
  0
POINT
  5
1ECD
330
1EC4
100
AcDbEntity
  8
Defpoints
 62
     0
100
AcDbPoint
 10
382.262915401793
 20
527.4303565710863
 30
0.0
  0
POINT
  5
1ECE
330
1EC4
100
AcDbEntity
  8
Defpoints
 62
     0
100
AcDbPoint
 10
532.262915401793
 20
527.4303565710869
 30
0.0
  0
POINT
  5
1ECF
330
1EC4
100
AcDbEntity
  8
Defpoints
 62
     0
100
AcDbPoint
 10
532.262915401793
 20
568.5431674173667
 30
0.0
  0
ENDBLK
  5
1EC6
330
1EC4
100
AcDbEntity
  8
0
100
AcDbBlockEnd
  0
BLOCK
  5
1ED1
330
1ED0
100
AcDbEntity
  8
0
100
AcDbBlockBegin
  2
*D67
 70
     1
 10
0.0
 20
0.0
 30
0.0
  3
*D67
  1
*D71
  0
LINE
  5
1ED3
330
1ED0
100
AcDbEntity
  8
DIM
 62
     0
370
    -2
100
AcDbLine
 10
1457.645337319987
 20
317.9197568195933
 30
0.0
 11
1782.228800910761
 21
317.9197568195945
 31
0.0
  0
LINE
  5
1ED4
330
1ED0
100
AcDbEntity
  8
DIM
 62
     0
370
    -2
100
AcDbLine
 10
1457.645337319987
 20
329.9197568195931
 30
0.0
 11
1782.228800910761
 21
329.9197568195943
 31
0.0
  0
LINE
  5
1ED5
330
1ED0
100
AcDbEntity
  8
DIM
 62
     0
370
    -2
100
AcDbLine
 10
1782.228800910761
 20
317.9197568195945
 30
0.0
 11
1782.228800910761
 21
261.2220901529273
 31
0.0
  0
LINE
  5
1ED6
330
1ED0
100
AcDbEntity
  8
DIM
 62
     0
370
    -2
100
AcDbLine
 10
1782.228800910761
 20
314.9197568195945
 30
0.0
 11
1782.228800910761
 21
311.9197568195945
 31
0.0
  0
LINE
  5
1ED7
330
1ED0
100
AcDbEntity
  8
DIM
 62
     0
370
    -2
100
AcDbLine
 10
1782.228800910761
 20
332.9197568195943
 30
0.0
 11
1782.228800910761
 21
335.9197568195943
 31
0.0
  0
INSERT
  5
1ED8
330
1ED0
100
AcDbEntity
  8
DIM
 62
     0
370
    -2
100
AcDbBlockReference
  2
_DOT
 10
1782.228800910761
 20
317.9197568195945
 30
0.0
 41
3.0
 42
3.0
 43
3.0
 50
90.0
  0
INSERT
  5
1ED9
330
1ED0
100
AcDbEntity
  8
DIM
 62
     0
370
    -2
100
AcDbBlockReference
  2
_DOT
 10
1782.228800910761
 20
329.9197568195943
 30
0.0
 41
3.0
 42
3.0
 43
3.0
 50
270.0
  0
MTEXT
  5
1EDA
330
1ED0
100
AcDbEntity
  8
DIM
 62
     0
 48
0.05
100
AcDbMText
 10
1765.228800910761
 20
266.2220901529273
 30
0.0
 40
12.0
 41
0.0
 46
0.0
 71
     1
 72
     1
  1
\A1;12
  7
ＭＳ ゴシック
 11
0.0
 21
1.0
 31
0.0
 73
     1
 44
1.0
  0
POINT
  5
1EDB
330
1ED0
100
AcDbEntity
  8
Defpoints
 62
     0
100
AcDbPoint
 10
1447.645337319987
 20
317.9197568195933
 30
0.0
  0
POINT
  5
1EDC
330
1ED0
100
AcDbEntity
  8
Defpoints
 62
     0
100
AcDbPoint
 10
1447.645337319987
 20
329.919756819593
 30
0.0
  0
POINT
  5
1F05
330
1ED0
100
AcDbEntity
  8
Defpoints
 62
     0
100
AcDbPoint
 10
1782.228800910761
 20
329.9197568195943
 30
0.0
  0
ENDBLK
  5
1ED2
330
1ED0
100
AcDbEntity
  8
0
100
AcDbBlockEnd
  0
BLOCK
  5
1EDF
330
1EDE
100
AcDbEntity
  8
0
100
AcDbBlockBegin
  2
*D68
 70
     1
 10
0.0
 20
0.0
 30
0.0
  3
*D68
  1
*D72
  0
LINE
  5
1EE1
330
1EDE
100
AcDbEntity
  8
DIM
 62
     0
370
    -2
100
AcDbLine
 10
372.262915401793
 20
521.4303565710865
 30
0.0
 11
355.6107609254052
 21
521.4303565710863
 31
0.0
  0
LINE
  5
1EE2
330
1EDE
100
AcDbEntity
  8
DIM
 62
     0
370
    -2
100
AcDbLine
 10
372.262915401793
 20
527.4303565710863
 30
0.0
 11
355.6107609254052
 21
527.4303565710862
 31
0.0
  0
LINE
  5
1EE3
330
1EDE
100
AcDbEntity
  8
DIM
 62
     0
370
    -2
100
AcDbLine
 10
355.6107609254052
 20
524.4303565710863
 30
0.0
 11
355.6107609254052
 21
524.4303565710862
 31
0.0
  0
INSERT
  5
1EE4
330
1EDE
100
AcDbEntity
  8
DIM
 62
     0
370
    -2
100
AcDbBlockReference
  2
_DOT
 10
355.6107609254052
 20
521.4303565710863
 30
0.0
 41
3.0
 42
3.0
 43
3.0
 50
270.0
  0
INSERT
  5
1EE5
330
1EDE
100
AcDbEntity
  8
DIM
 62
     0
370
    -2
100
AcDbBlockReference
  2
_DOT
 10
355.6107609254052
 20
527.4303565710862
 30
0.0
 41
3.0
 42
3.0
 43
3.0
 50
90.0
  0
MTEXT
  5
1EE6
330
1EDE
100
AcDbEntity
  8
DIM
 62
     0
 48
0.05
100
AcDbMText
 10
342.6107609254052
 20
521.8953565710864
 30
0.0
 40
10.0
 41
0.0
 46
0.0
 71
     1
 72
     1
  1
\A1;6
  7
ＭＳ ゴシック
 11
0.0
 21
1.0
 31
0.0
 73
     1
 44
1.0
  0
POINT
  5
1EE7
330
1EDE
100
AcDbEntity
  8
Defpoints
 62
     0
100
AcDbPoint
 10
382.262915401793
 20
521.4303565710865
 30
0.0
  0
POINT
  5
1EE8
330
1EDE
100
AcDbEntity
  8
Defpoints
 62
     0
100
AcDbPoint
 10
382.262915401793
 20
527.4303565710863
 30
0.0
  0
POINT
  5
1EE9
330
1EDE
100
AcDbEntity
  8
Defpoints
 62
     0
100
AcDbPoint
 10
355.6107609254052
 20
527.4303565710862
 30
0.0
  0
ENDBLK
  5
1EE0
330
1EDE
100
AcDbEntity
  8
0
100
AcDbBlockEnd
  0
BLOCK
  5
1EED
330
1EEC
100
AcDbEntity
  8
0
100
AcDbBlockBegin
  2
*D69
 70
     1
 10
0.0
 20
0.0
 30
0.0
  3
*D69
  1
*D73
  0
LINE
  5
1EEF
330
1EEC
100
AcDbEntity
  8
DIM
 62
     0
370
    -2
100
AcDbLine
 10
542.262915401793
 20
521.430356571086
 30
0.0
 11
571.0005846325745
 21
521.4303565710861
 31
0.0
  0
LINE
  5
1EF0
330
1EEC
100
AcDbEntity
  8
DIM
 62
     0
370
    -2
100
AcDbLine
 10
542.262915401793
 20
485.430356571087
 30
0.0
 11
571.0005846325746
 21
485.430356571087
 31
0.0
  0
LINE
  5
1EF1
330
1EEC
100
AcDbEntity
  8
DIM
 62
     0
370
    -2
100
AcDbLine
 10
571.0005846325745
 20
518.4303565710861
 30
0.0
 11
571.0005846325746
 21
488.430356571087
 31
0.0
  0
INSERT
  5
1EF2
330
1EEC
100
AcDbEntity
  8
DIM
 62
     0
370
    -2
100
AcDbBlockReference
  2
_DOT
 10
571.0005846325745
 20
521.4303565710861
 30
0.0
 41
3.0
 42
3.0
 43
3.0
 50
90.00000000000018
  0
INSERT
  5
1EF3
330
1EEC
100
AcDbEntity
  8
DIM
 62
     0
370
    -2
100
AcDbBlockReference
  2
_DOT
 10
571.0005846325746
 20
485.430356571087
 30
0.0
 41
3.0
 42
3.0
 43
3.0
 50
270.0000000000002
  0
MTEXT
  5
1EF4
330
1EEC
100
AcDbEntity
  8
DIM
 62
     0
 48
0.05
100
AcDbMText
 10
558.0005846325746
 20
497.5703565710864
 30
0.0
 40
10.0
 41
0.0
 46
0.0
 71
     1
 72
     1
  1
\A1;36
  7
ＭＳ ゴシック
 11
-3.157967714489419E-15
 21
1.0
 31
0.0
 73
     1
 44
1.0
  0
POINT
  5
1EF5
330
1EEC
100
AcDbEntity
  8
Defpoints
 62
     0
100
AcDbPoint
 10
532.262915401793
 20
521.430356571086
 30
0.0
  0
POINT
  5
1EF6
330
1EEC
100
AcDbEntity
  8
Defpoints
 62
     0
100
AcDbPoint
 10
532.262915401793
 20
485.4303565710869
 30
0.0
  0
POINT
  5
1EF7
330
1EEC
100
AcDbEntity
  8
Defpoints
 62
     0
100
AcDbPoint
 10
571.0005846325746
 20
485.4303565710871
 30
0.0
  0
ENDBLK
  5
1EEE
330
1EEC
100
AcDbEntity
  8
0
100
AcDbBlockEnd
  0
BLOCK
  5
1EF9
330
1EF8
100
AcDbEntity
  8
0
100
AcDbBlockBegin
  2
*D70
 70
     1
 10
0.0
 20
0.0
 30
0.0
  3
*D70
  1
*D74
  0
LINE
  5
1EFB
330
1EF8
100
AcDbEntity
  8
DIM
 62
     0
370
    -2
100
AcDbLine
 10
417.262915401793
 20
541.905356571087
 30
0.0
 11
417.262915401793
 21
546.7799374513462
 31
0.0
  0
LINE
  5
1EFC
330
1EF8
100
AcDbEntity
  8
DIM
 62
     0
370
    -2
100
AcDbLine
 10
497.262915401793
 20
541.9053565710874
 30
0.0
 11
497.262915401793
 21
546.7799374513462
 31
0.0
  0
LINE
  5
1EFD
330
1EF8
100
AcDbEntity
  8
DIM
 62
     0
370
    -2
100
AcDbLine
 10
420.262915401793
 20
546.7799374513462
 30
0.0
 11
494.262915401793
 21
546.7799374513462
 31
0.0
  0
INSERT
  5
1EFE
330
1EF8
100
AcDbEntity
  8
DIM
 62
     0
370
    -2
100
AcDbBlockReference
  2
_DOT
 10
417.262915401793
 20
546.7799374513462
 30
0.0
 41
3.0
 42
3.0
 43
3.0
 50
180.0
  0
INSERT
  5
1EFF
330
1EF8
100
AcDbEntity
  8
DIM
 62
     0
370
    -2
100
AcDbBlockReference
  2
_DOT
 10
497.262915401793
 20
546.7799374513462
 30
0.0
 41
3.0
 42
3.0
 43
3.0
  0
MTEXT
  5
1F00
330
1EF8
100
AcDbEntity
  8
DIM
 62
     0
 48
0.05
100
AcDbMText
 10
451.297915401793
 20
559.7799374513462
 30
0.0
 40
10.0
 41
0.0
 46
0.0
 71
     1
 72
     1
  1
\A1;80
  7
ＭＳ ゴシック
 73
     1
 44
1.0
  0
POINT
  5
1F01
330
1EF8
100
AcDbEntity
  8
Defpoints
 62
     0
100
AcDbPoint
 10
417.262915401793
 20
531.905356571087
 30
0.0
  0
POINT
  5
1F02
330
1EF8
100
AcDbEntity
  8
Defpoints
 62
     0
100
AcDbPoint
 10
497.262915401793
 20
531.9053565710874
 30
0.0
  0
POINT
  5
1F03
330
1EF8
100
AcDbEntity
  8
Defpoints
 62
     0
100
AcDbPoint
 10
497.262915401793
 20
546.7799374513462
 30
0.0
  0
ENDBLK
  5
1EFA
330
1EF8
100
AcDbEntity
  8
0
100
AcDbBlockEnd
  0
BLOCK
  5
1F10
330
1F0F
100
AcDbEntity
  8
0
100
AcDbBlockBegin
  2
*D71
 70
     1
 10
0.0
 20
0.0
 30
0.0
  3
*D71
  1
*D75
  0
LINE
  5
1F12
330
1F0F
100
AcDbEntity
  8
DIM
 62
     0
 48
0.05
370
    -2
100
AcDbLine
 10
1437.645337319987
 20
281.6515668547768
 30
0.0
 11
1407.868780381237
 21
281.6515668547768
 31
0.0
  0
LINE
  5
1F13
330
1F0F
100
AcDbEntity
  8
DIM
 62
     0
 48
0.05
370
    -2
100
AcDbLine
 10
1442.196568116013
 20
293.6515668547765
 30
0.0
 11
1407.868780381237
 21
293.6515668547765
 31
0.0
  0
LINE
  5
1F14
330
1F0F
100
AcDbEntity
  8
DIM
 62
     0
 48
0.05
370
    -2
100
AcDbLine
 10
1407.868780381237
 20
278.6515668547768
 30
0.0
 11
1407.868780381237
 21
275.6515668547768
 31
0.0
  0
LINE
  5
1F15
330
1F0F
100
AcDbEntity
  8
DIM
 62
     0
 48
0.05
370
    -2
100
AcDbLine
 10
1407.868780381237
 20
296.6515668547765
 30
0.0
 11
1407.868780381237
 21
299.6515668547765
 31
0.0
  0
INSERT
  5
1F16
330
1F0F
100
AcDbEntity
  8
DIM
 62
     0
370
    -2
100
AcDbBlockReference
  2
_DOT
 10
1407.868780381237
 20
281.6515668547768
 30
0.0
 41
3.0
 42
3.0
 43
3.0
 50
90.0
  0
INSERT
  5
1F17
330
1F0F
100
AcDbEntity
  8
DIM
 62
     0
370
    -2
100
AcDbBlockReference
  2
_DOT
 10
1407.868780381237
 20
293.6515668547765
 30
0.0
 41
3.0
 42
3.0
 43
3.0
 50
270.0
  0
MTEXT
  5
1F18
330
1F0F
100
AcDbEntity
  8
DIM
 62
     0
 48
0.05
100
AcDbMText
 10
1396.868780381237
 20
287.6515668547767
 30
0.0
 40
12.0
 41
0.0
 46
0.0
 71
     5
 72
     1
  1
\A1;12
  7
ＭＳ ゴシック
 11
0.0
 21
1.0
 31
0.0
 73
     1
 44
1.0
  0
POINT
  5
1F19
330
1F0F
100
AcDbEntity
  8
Defpoints
 62
     0
100
AcDbPoint
 10
1447.645337319987
 20
281.6515668547768
 30
0.0
  0
POINT
  5
1F1A
330
1F0F
100
AcDbEntity
  8
Defpoints
 62
     0
100
AcDbPoint
 10
1452.196568116013
 20
293.6515668547765
 30
0.0
  0
POINT
  5
1F1B
330
1F0F
100
AcDbEntity
  8
Defpoints
 62
     0
100
AcDbPoint
 10
1407.868780381237
 20
293.6515668547765
 30
0.0
  0
ENDBLK
  5
1F11
330
1F0F
100
AcDbEntity
  8
0
100
AcDbBlockEnd
  0
BLOCK
  5
1F20
330
1F1F
100
AcDbEntity
  8
0
100
AcDbBlockBegin
  2
*D72
 70
     1
 10
0.0
 20
0.0
 30
0.0
  3
*D72
  1
*D76
  0
LINE
  5
1F22
330
1F1F
100
AcDbEntity
  8
DIM
 62
     0
 48
0.05
370
    -2
100
AcDbLine
 10
132.262915401793
 20
479.430356571086
 30
0.0
 11
116.3565769160268
 21
479.430356571086
 31
0.0
  0
LINE
  5
1F23
330
1F1F
100
AcDbEntity
  8
DIM
 62
     0
 48
0.05
370
    -2
100
AcDbLine
 10
132.262915401793
 20
485.4303565710859
 30
0.0
 11
116.3565769160268
 21
485.4303565710859
 31
0.0
  0
LINE
  5
1F24
330
1F1F
100
AcDbEntity
  8
DIM
 62
     0
 48
0.05
370
    -2
100
AcDbLine
 10
116.3565769160268
 20
482.430356571086
 30
0.0
 11
116.3565769160268
 21
482.4303565710859
 31
0.0
  0
INSERT
  5
1F25
330
1F1F
100
AcDbEntity
  8
DIM
 62
     0
370
    -2
100
AcDbBlockReference
  2
_DOT
 10
116.3565769160268
 20
479.430356571086
 30
0.0
 41
3.0
 42
3.0
 43
3.0
 50
270.0
  0
INSERT
  5
1F26
330
1F1F
100
AcDbEntity
  8
DIM
 62
     0
370
    -2
100
AcDbBlockReference
  2
_DOT
 10
116.3565769160268
 20
485.4303565710859
 30
0.0
 41
3.0
 42
3.0
 43
3.0
 50
90.0
  0
MTEXT
  5
1F27
330
1F1F
100
AcDbEntity
  8
DIM
 62
     0
 48
0.05
100
AcDbMText
 10
108.3565769160268
 20
482.3883565710859
 30
0.0
 40
10.0
 41
0.0
 46
0.0
 71
     5
 72
     1
  1
\A1;6
  7
ＭＳ ゴシック
 11
0.0
 21
1.0
 31
0.0
 73
     1
 44
1.0
  0
POINT
  5
1F28
330
1F1F
100
AcDbEntity
  8
Defpoints
 62
     0
100
AcDbPoint
 10
142.262915401793
 20
479.430356571086
 30
0.0
  0
POINT
  5
1F29
330
1F1F
100
AcDbEntity
  8
Defpoints
 62
     0
100
AcDbPoint
 10
142.262915401793
 20
485.4303565710859
 30
0.0
  0
POINT
  5
1F2A
330
1F1F
100
AcDbEntity
  8
Defpoints
 62
     0
100
AcDbPoint
 10
116.3565769160268
 20
485.4303565710859
 30
0.0
  0
ENDBLK
  5
1F21
330
1F1F
100
AcDbEntity
  8
0
100
AcDbBlockEnd
  0
BLOCK
  5
1F36
330
1F35
100
AcDbEntity
  8
0
100
AcDbBlockBegin
  2
*D73
 70
     1
 10
0.0
 20
0.0
 30
0.0
  3
*D73
  1
*D77
  0
LINE
  5
1F38
330
1F35
100
AcDbEntity
  8
DIM
 62
     0
 48
0.05
370
    -2
100
AcDbLine
 10
542.262915401793
 20
527.4303565710859
 30
0.0
 11
597.7122848350829
 21
527.4303565710859
 31
0.0
  0
LINE
  5
1F39
330
1F35
100
AcDbEntity
  8
DIM
 62
     0
 48
0.05
370
    -2
100
AcDbLine
 10
542.262915401793
 20
479.430356571086
 30
0.0
 11
597.7122848350829
 21
479.430356571086
 31
0.0
  0
LINE
  5
1F3A
330
1F35
100
AcDbEntity
  8
DIM
 62
     0
 48
0.05
370
    -2
100
AcDbLine
 10
597.7122848350829
 20
524.4303565710859
 30
0.0
 11
597.7122848350829
 21
482.430356571086
 31
0.0
  0
INSERT
  5
1F3B
330
1F35
100
AcDbEntity
  8
DIM
 62
     0
370
    -2
100
AcDbBlockReference
  2
_DOT
 10
597.7122848350829
 20
527.4303565710859
 30
0.0
 41
3.0
 42
3.0
 43
3.0
 50
90.0
  0
INSERT
  5
1F3C
330
1F35
100
AcDbEntity
  8
DIM
 62
     0
370
    -2
100
AcDbBlockReference
  2
_DOT
 10
597.7122848350829
 20
479.430356571086
 30
0.0
 41
3.0
 42
3.0
 43
3.0
 50
270.0
  0
MTEXT
  5
1F3D
330
1F35
100
AcDbEntity
  8
DIM
 62
     0
 48
0.05
100
AcDbMText
 10
589.7122848350829
 20
503.430356571086
 30
0.0
 40
10.0
 41
0.0
 46
0.0
 71
     5
 72
     1
  1
\A1;48
  7
ＭＳ ゴシック
 11
0.0
 21
1.0
 31
0.0
 73
     1
 44
1.0
  0
POINT
  5
1F3E
330
1F35
100
AcDbEntity
  8
Defpoints
 62
     0
100
AcDbPoint
 10
532.262915401793
 20
527.4303565710859
 30
0.0
  0
POINT
  5
1F3F
330
1F35
100
AcDbEntity
  8
Defpoints
 62
     0
100
AcDbPoint
 10
532.262915401793
 20
479.430356571086
 30
0.0
  0
POINT
  5
1F40
330
1F35
100
AcDbEntity
  8
Defpoints
 62
     0
100
AcDbPoint
 10
597.7122848350829
 20
479.430356571086
 30
0.0
  0
ENDBLK
  5
1F37
330
1F35
100
AcDbEntity
  8
0
100
AcDbBlockEnd
  0
BLOCK
  5
200B
330
200A
100
AcDbEntity
  8
0
100
AcDbBlockBegin
  2
*D74
 70
     1
 10
0.0
 20
0.0
 30
0.0
  3
*D74
  1
*D75
  0
LINE
  5
200C
330
200A
100
AcDbEntity
  8
SLD-0
 62
     0
370
    -2
100
AcDbLine
 10
0.0
 20
102.4457815557647
 30
0.0
 11
0.0
 21
86.72699536757048
 31
0.0
  0
LINE
  5
200D
330
200A
100
AcDbEntity
  8
SLD-0
 62
     0
370
    -2
100
AcDbLine
 10
132.0000000000001
 20
102.4457815557647
 30
0.0
 11
132.0000000000001
 21
86.72699536757048
 31
0.0
  0
LINE
  5
200E
330
200A
100
AcDbEntity
  8
SLD-0
 62
     0
370
    -2
100
AcDbLine
 10
3.5
 20
86.72699536757048
 30
0.0
 11
128.5000000000001
 21
86.72699536757048
 31
0.0
  0
SOLID
  5
200F
330
200A
100
AcDbEntity
  8
SLD-0
 62
     0
100
AcDbTrace
 10
3.5
 20
87.31032870090381
 30
0.0
 11
3.5
 21
86.14366203423715
 31
0.0
 12
0.0
 22
86.72699536757048
 32
0.0
 13
0.0
 23
86.72699536757048
 33
0.0
  0
SOLID
  5
2010
330
200A
100
AcDbEntity
  8
SLD-0
 62
     0
100
AcDbTrace
 10
128.5000000000001
 20
86.14366203423715
 30
0.0
 11
128.5000000000001
 21
87.31032870090381
 31
0.0
 12
132.0000000000001
 22
86.72699536757048
 32
0.0
 13
132.0000000000001
 23
86.72699536757048
 33
0.0
  0
MTEXT
  5
2011
330
200A
100
AcDbEntity
  8
SLD-0
 62
     0
 48
0.05
100
AcDbMText
 10
63.85625000000003
 20
85.85199536757048
 30
0.0
 40
3.5
 41
0.0
 46
0.0
 71
     1
 72
     1
  1
\A1;660
  7
SLDTEXTSTYLE1
 73
     1
 44
1.0
  0
POINT
  5
20C7
330
200A
100
AcDbEntity
  8
Defpoints
 62
     0
100
AcDbPoint
 10
0.0
 20
102.5082815557647
 30
0.0
  0
POINT
  5
20C8
330
200A
100
AcDbEntity
  8
Defpoints
 62
     0
100
AcDbPoint
 10
132.0000000000001
 20
102.5082815557647
 30
0.0
  0
POINT
  5
20C9
330
200A
100
AcDbEntity
  8
Defpoints
 62
     0
100
AcDbPoint
 10
132.0000000000001
 20
86.72699536757048
 30
0.0
  0
ENDBLK
  5
2012
330
200A
100
AcDbEntity
  8
0
100
AcDbBlockEnd
  0
BLOCK
  5
2015
330
2014
100
AcDbEntity
  8
0
100
AcDbBlockBegin
  2
*D75
 70
     1
 10
0.0
 20
0.0
 30
0.0
  3
*D75
  1
*D76
  0
LINE
  5
2016
330
2014
100
AcDbEntity
  8
SLD-0
 62
     0
370
    -2
100
AcDbLine
 10
132.0625000000001
 20
102.5082815557647
 30
0.0
 11
141.6778026431382
 21
102.5082815557647
 31
0.0
  0
LINE
  5
2017
330
2014
100
AcDbEntity
  8
SLD-0
 62
     0
370
    -2
100
AcDbLine
 10
132.0625000000001
 20
112.5082815557647
 30
0.0
 11
141.6778026431382
 21
112.5082815557647
 31
0.0
  0
LINE
  5
2018
330
2014
100
AcDbEntity
  8
SLD-0
 62
     0
370
    -2
100
AcDbLine
 10
141.6778026431382
 20
106.0082815557647
 30
0.0
 11
141.6778026431382
 21
109.0082815557647
 31
0.0
  0
SOLID
  5
2019
330
2014
100
AcDbEntity
  8
SLD-0
 62
     0
100
AcDbTrace
 10
141.0944693098049
 20
106.0082815557647
 30
0.0
 11
142.2611359764715
 21
106.0082815557647
 31
0.0
 12
141.6778026431382
 22
102.5082815557647
 32
0.0
 13
141.6778026431382
 23
102.5082815557647
 33
0.0
  0
SOLID
  5
201A
330
2014
100
AcDbEntity
  8
SLD-0
 62
     0
100
AcDbTrace
 10
142.2611359764715
 20
109.0082815557647
 30
0.0
 11
141.0944693098048
 21
109.0082815557647
 31
0.0
 12
141.6778026431382
 22
112.5082815557647
 32
0.0
 13
141.6778026431382
 23
112.5082815557647
 33
0.0
  0
MTEXT
  5
201B
330
2014
100
AcDbEntity
  8
SLD-0
 62
     0
 48
0.05
100
AcDbMText
 10
142.5528026431382
 20
106.2220315557647
 30
0.0
 40
3.5
 41
0.0
 46
0.0
 71
     1
 72
     1
  1
\A1;50
  7
SLDTEXTSTYLE1
 11
-2.842170943040397E-15
 21
1.0
 31
0.0
 73
     1
 44
1.0
  0
POINT
  5
201C
330
2014
100
AcDbEntity
  8
Defpoints
 62
     0
100
AcDbPoint
 10
132.0000000000001
 20
102.5082815557647
 30
0.0
  0
POINT
  5
201D
330
2014
100
AcDbEntity
  8
Defpoints
 62
     0
100
AcDbPoint
 10
132.0000000000001
 20
112.5082815557647
 30
0.0
  0
POINT
  5
20CA
330
2014
100
AcDbEntity
  8
Defpoints
 62
     0
100
AcDbPoint
 10
141.6778026431382
 20
112.5082815557648
 30
0.0
  0
ENDBLK
  5
201E
330
2014
100
AcDbEntity
  8
0
100
AcDbBlockEnd
  0
BLOCK
  5
207C
330
207B
100
AcDbEntity
  8
0
100
AcDbBlockBegin
  2
*D76
 70
     1
 10
0.0
 20
0.0
 30
0.0
  3
*D76
  1
*D77
  0
LINE
  5
207D
330
207B
100
AcDbEntity
  8
SLD-0
 62
     0
370
    -2
100
AcDbLine
 10
72.00000000000016
 20
47.65390833017918
 30
0.0
 11
72.00000000000016
 21
60.57807182544929
 31
0.0
  0
LINE
  5
207E
330
207B
100
AcDbEntity
  8
SLD-0
 62
     0
370
    -2
100
AcDbLine
 10
132.0000000000001
 20
45.25390833017878
 30
0.0
 11
132.0000000000001
 21
60.57807182544929
 31
0.0
  0
LINE
  5
207F
330
207B
100
AcDbEntity
  8
SLD-0
 62
     0
370
    -2
100
AcDbLine
 10
75.50000000000016
 20
60.57807182544929
 30
0.0
 11
128.5000000000001
 21
60.57807182544929
 31
0.0
  0
SOLID
  5
2080
330
207B
100
AcDbEntity
  8
SLD-0
 62
     0
100
AcDbTrace
 10
75.50000000000016
 20
61.16140515878263
 30
0.0
 11
75.50000000000016
 21
59.99473849211596
 31
0.0
 12
72.00000000000016
 22
60.57807182544929
 32
0.0
 13
72.00000000000016
 23
60.57807182544929
 33
0.0
  0
SOLID
  5
2081
330
207B
100
AcDbEntity
  8
SLD-0
 62
     0
100
AcDbTrace
 10
128.5000000000001
 20
59.99473849211596
 30
0.0
 11
128.5000000000001
 21
61.16140515878263
 31
0.0
 12
132.0000000000001
 22
60.57807182544929
 32
0.0
 13
132.0000000000001
 23
60.57807182544929
 33
0.0
  0
MTEXT
  5
2082
330
207B
100
AcDbEntity
  8
SLD-0
 62
     0
 48
0.05
100
AcDbMText
 10
99.99916666666697
 20
64.95307182544929
 30
0.0
 40
3.5
 41
0.0
 46
0.0
 71
     1
 72
     1
  1
\A1;300
  7
SLDTEXTSTYLE1
 73
     1
 44
1.0
  0
POINT
  5
20CB
330
207B
100
AcDbEntity
  8
Defpoints
 62
     0
100
AcDbPoint
 10
72.00000000000016
 20
47.59140833017918
 30
0.0
  0
POINT
  5
20CC
330
207B
100
AcDbEntity
  8
Defpoints
 62
     0
100
AcDbPoint
 10
132.0000000000001
 20
45.19140833017878
 30
0.0
  0
POINT
  5
20CD
330
207B
100
AcDbEntity
  8
Defpoints
 62
     0
100
AcDbPoint
 10
132.0000000000001
 20
60.57807182544908
 30
0.0
  0
ENDBLK
  5
2083
330
207B
100
AcDbEntity
  8
0
100
AcDbBlockEnd
  0
BLOCK
  5
2086
330
2085
100
AcDbEntity
  8
0
100
AcDbBlockBegin
  2
*D77
 70
     1
 10
0.0
 20
0.0
 30
0.0
  3
*D77
  1
*D78
  0
LINE
  5
2087
330
2085
100
AcDbEntity
  8
SLD-0
 62
     0
370
    -2
100
AcDbLine
 10
71.93750000000016
 20
47.59140833017918
 30
0.0
 11
62.14934943318615
 21
47.59140833017915
 31
0.0
  0
LINE
  5
2088
330
2085
100
AcDbEntity
  8
SLD-0
 62
     0
370
    -2
100
AcDbLine
 10
71.93750000000014
 20
45.19140833017919
 30
0.0
 11
62.14934943318616
 21
45.19140833017916
 31
0.0
  0
LINE
  5
2089
330
2085
100
AcDbEntity
  8
SLD-0
 62
     0
370
    -2
100
AcDbLine
 10
62.14934943318616
 20
45.19140833017916
 30
0.0
 11
62.14934943318619
 21
34.1547416635125
 31
0.0
  0
LINE
  5
208A
330
2085
100
AcDbEntity
  8
SLD-0
 62
     0
370
    -2
100
AcDbLine
 10
62.14934943318615
 20
51.09140833017915
 30
0.0
 11
62.14934943318614
 21
54.59140833017915
 31
0.0
  0
LINE
  5
208B
330
2085
100
AcDbEntity
  8
SLD-0
 62
     0
370
    -2
100
AcDbLine
 10
62.14934943318617
 20
41.69140833017916
 30
0.0
 11
62.14934943318617
 21
38.19140833017916
 31
0.0
  0
SOLID
  5
208C
330
2085
100
AcDbEntity
  8
SLD-0
 62
     0
100
AcDbTrace
 10
61.56601609985281
 20
51.09140833017915
 30
0.0
 11
62.73268276651948
 21
51.09140833017915
 31
0.0
 12
62.14934943318615
 22
47.59140833017915
 32
0.0
 13
62.14934943318615
 23
47.59140833017915
 33
0.0
  0
SOLID
  5
208D
330
2085
100
AcDbEntity
  8
SLD-0
 62
     0
100
AcDbTrace
 10
62.7326827665195
 20
41.69140833017916
 30
0.0
 11
61.56601609985283
 21
41.69140833017916
 31
0.0
 12
62.14934943318616
 22
45.19140833017916
 32
0.0
 13
62.14934943318616
 23
45.19140833017916
 33
0.0
  0
MTEXT
  5
208E
330
2085
100
AcDbEntity
  8
SLD-0
 62
     0
 48
0.05
100
AcDbMText
 10
57.77434943318619
 20
35.02974166351248
 30
0.0
 40
3.5
 41
0.0
 46
0.0
 71
     1
 72
     1
  1
\A1;12
  7
SLDTEXTSTYLE1
 11
-2.960594732333761E-15
 21
1.0
 31
0.0
 73
     1
 44
1.0
  0
POINT
  5
20CE
330
2085
100
AcDbEntity
  8
Defpoints
 62
     0
100
AcDbPoint
 10
72.00000000000016
 20
47.59140833017918
 30
0.0
  0
POINT
  5
20CF
330
2085
100
AcDbEntity
  8
Defpoints
 62
     0
100
AcDbPoint
 10
72.00000000000014
 20
45.19140833017919
 30
0.0
  0
POINT
  5
20D0
330
2085
100
AcDbEntity
  8
Defpoints
 62
     0
100
AcDbPoint
 10
62.14934943318622
 20
45.19140833017916
 30
0.0
  0
ENDBLK
  5
208F
330
2085
100
AcDbEntity
  8
0
100
AcDbBlockEnd
  0
BLOCK
  5
2092
330
2091
100
AcDbEntity
  8
0
100
AcDbBlockBegin
  2
*D78
 70
     1
 10
0.0
 20
0.0
 30
0.0
  3
*D78
  1
*D79
  0
LINE
  5
2093
330
2091
100
AcDbEntity
  8
SLD-0
 62
     0
370
    -2
100
AcDbLine
 10
72.06250000000014
 20
45.19140833017919
 30
0.0
 11
80.72058742351045
 21
45.19140833017923
 31
0.0
  0
LINE
  5
2094
330
2091
100
AcDbEntity
  8
SLD-0
 62
     0
370
    -2
100
AcDbLine
 10
131.9375000000001
 20
30.79140833017878
 30
0.0
 11
80.72058742351051
 21
30.79140833017857
 31
0.0
  0
LINE
  5
2095
330
2091
100
AcDbEntity
  8
SLD-0
 62
     0
370
    -2
100
AcDbLine
 10
80.72058742351047
 20
41.69140833017923
 30
0.0
 11
80.7205874235105
 21
34.29140833017857
 31
0.0
  0
SOLID
  5
2096
330
2091
100
AcDbEntity
  8
SLD-0
 62
     0
100
AcDbTrace
 10
81.3039207568438
 20
41.69140833017923
 30
0.0
 11
80.13725409017714
 21
41.69140833017923
 31
0.0
 12
80.72058742351045
 22
45.19140833017923
 32
0.0
 13
80.72058742351045
 23
45.19140833017923
 33
0.0
  0
SOLID
  5
20D1
330
2091
100
AcDbEntity
  8
SLD-0
 62
     0
100
AcDbTrace
 10
80.13725409017717
 20
34.29140833017857
 30
0.0
 11
81.30392075684382
 21
34.29140833017857
 31
0.0
 12
80.72058742351051
 22
30.79140833017857
 32
0.0
 13
80.72058742351051
 23
30.79140833017857
 33
0.0
  0
MTEXT
  5
20D2
330
2091
100
AcDbEntity
  8
SLD-0
 62
     0
 48
0.05
100
AcDbMText
 10
81.59558742351048
 20
36.56224166351247
 30
0.0
 40
3.5
 41
0.0
 46
0.0
 71
     1
 72
     1
  1
\A1;72
  7
SLDTEXTSTYLE1
 11
-3.947459643111491E-15
 21
1.0
 31
0.0
 73
     1
 44
1.0
  0
POINT
  5
20D3
330
2091
100
AcDbEntity
  8
Defpoints
 62
     0
100
AcDbPoint
 10
72.00000000000014
 20
45.19140833017919
 30
0.0
  0
POINT
  5
20D4
330
2091
100
AcDbEntity
  8
Defpoints
 62
     0
100
AcDbPoint
 10
132.0000000000001
 20
30.79140833017878
 30
0.0
  0
POINT
  5
20D5
330
2091
100
AcDbEntity
  8
Defpoints
 62
     0
100
AcDbPoint
 10
80.72058742351042
 20
30.79140833017858
 30
0.0
  0
ENDBLK
  5
2097
330
2091
100
AcDbEntity
  8
0
100
AcDbBlockEnd
  0
BLOCK
  5
209A
330
2099
100
AcDbEntity
  8
0
100
AcDbBlockBegin
  2
*D79
 70
     1
 10
0.0
 20
0.0
 30
0.0
  3
*D79
  1
*D80
  0
LINE
  5
209B
330
2099
100
AcDbEntity
  8
SLD-0
 62
     0
370
    -2
100
AcDbLine
 10
0.0625000000000213
 20
30.7914083301797
 30
0.0
 11
43.26334469726316
 21
30.79140833017986
 31
0.0
  0
LINE
  5
209C
330
2099
100
AcDbEntity
  8
SLD-0
 62
     0
370
    -2
100
AcDbLine
 10
0.0625
 20
28.39140833017969
 30
0.0
 11
43.26334469726316
 21
28.39140833017986
 31
0.0
  0
LINE
  5
209D
330
2099
100
AcDbEntity
  8
SLD-0
 62
     0
370
    -2
100
AcDbLine
 10
43.26334469726316
 20
28.39140833017986
 30
0.0
 11
43.2633446972632
 21
17.3547416635132
 31
0.0
  0
LINE
  5
209E
330
2099
100
AcDbEntity
  8
SLD-0
 62
     0
370
    -2
100
AcDbLine
 10
43.26334469726315
 20
34.29140833017986
 30
0.0
 11
43.26334469726314
 21
37.79140833017986
 31
0.0
  0
LINE
  5
209F
330
2099
100
AcDbEntity
  8
SLD-0
 62
     0
370
    -2
100
AcDbLine
 10
43.26334469726317
 20
24.89140833017986
 30
0.0
 11
43.26334469726318
 21
21.39140833017986
 31
0.0
  0
SOLID
  5
20A0
330
2099
100
AcDbEntity
  8
SLD-0
 62
     0
100
AcDbTrace
 10
42.68001136392981
 20
34.29140833017986
 30
0.0
 11
43.84667803059649
 21
34.29140833017986
 31
0.0
 12
43.26334469726316
 22
30.79140833017986
 32
0.0
 13
43.26334469726316
 23
30.79140833017986
 33
0.0
  0
SOLID
  5
20D6
330
2099
100
AcDbEntity
  8
SLD-0
 62
     0
100
AcDbTrace
 10
43.84667803059651
 20
24.89140833017986
 30
0.0
 11
42.68001136392984
 21
24.89140833017986
 31
0.0
 12
43.26334469726316
 22
28.39140833017986
 32
0.0
 13
43.26334469726316
 23
28.39140833017986
 33
0.0
  0
MTEXT
  5
20D7
330
2099
100
AcDbEntity
  8
SLD-0
 62
     0
 48
0.05
100
AcDbMText
 10
44.13834469726319
 20
18.2297416635132
 30
0.0
 40
3.5
 41
0.0
 46
0.0
 71
     1
 72
     1
  1
\A1;12
  7
SLDTEXTSTYLE1
 11
-2.960594732333744E-15
 21
1.0
 31
0.0
 73
     1
 44
1.0
  0
POINT
  5
20D8
330
2099
100
AcDbEntity
  8
Defpoints
 62
     0
100
AcDbPoint
 10
0.0000000000000213
 20
30.7914083301797
 30
0.0
  0
POINT
  5
20D9
330
2099
100
AcDbEntity
  8
Defpoints
 62
     0
100
AcDbPoint
 10
0.0
 20
28.39140833017969
 30
0.0
  0
POINT
  5
20DA
330
2099
100
AcDbEntity
  8
Defpoints
 62
     0
100
AcDbPoint
 10
43.26334469726321
 20
28.39140833017986
 30
0.0
  0
ENDBLK
  5
20A1
330
2099
100
AcDbEntity
  8
0
100
AcDbBlockEnd
  0
BLOCK
  5
20A4
330
20A3
100
AcDbEntity
  8
0
100
AcDbBlockBegin
  2
*D80
 70
     1
 10
0.0
 20
0.0
 30
0.0
  3
*D80
  1
*D81
  0
LINE
  5
20A5
330
20A3
100
AcDbEntity
  8
SLD-0
 62
     0
370
    -2
100
AcDbLine
 10
86.00000000000016
 20
49.44390833017919
 30
0.0
 11
86.00000000000016
 21
53.79163457639884
 31
0.0
  0
LINE
  5
20A6
330
20A3
100
AcDbEntity
  8
SLD-0
 62
     0
370
    -2
100
AcDbLine
 10
118.0000000000002
 20
49.44390833017896
 30
0.0
 11
118.0000000000002
 21
53.79163457639884
 31
0.0
  0
LINE
  5
20A7
330
20A3
100
AcDbEntity
  8
SLD-0
 62
     0
370
    -2
100
AcDbLine
 10
89.50000000000016
 20
53.79163457639884
 30
0.0
 11
114.5000000000002
 21
53.79163457639884
 31
0.0
  0
SOLID
  5
20A8
330
20A3
100
AcDbEntity
  8
SLD-0
 62
     0
100
AcDbTrace
 10
89.50000000000016
 20
54.37496790973218
 30
0.0
 11
89.50000000000016
 21
53.20830124306551
 31
0.0
 12
86.00000000000016
 22
53.79163457639884
 32
0.0
 13
86.00000000000016
 23
53.79163457639884
 33
0.0
  0
SOLID
  5
20A9
330
20A3
100
AcDbEntity
  8
SLD-0
 62
     0
100
AcDbTrace
 10
114.5000000000002
 20
53.20830124306551
 30
0.0
 11
114.5000000000002
 21
54.37496790973218
 31
0.0
 12
118.0000000000002
 22
53.79163457639884
 32
0.0
 13
118.0000000000002
 23
53.79163457639884
 33
0.0
  0
MTEXT
  5
20AA
330
20A3
100
AcDbEntity
  8
SLD-0
 62
     0
 48
0.05
100
AcDbMText
 10
100.1420833333335
 20
58.16663457639884
 30
0.0
 40
3.5
 41
0.0
 46
0.0
 71
     1
 72
     1
  1
\A1;160
  7
SLDTEXTSTYLE1
 73
     1
 44
1.0
  0
POINT
  5
20DB
330
20A3
100
AcDbEntity
  8
Defpoints
 62
     0
100
AcDbPoint
 10
86.00000000000016
 20
49.38140833017919
 30
0.0
  0
POINT
  5
20DC
330
20A3
100
AcDbEntity
  8
Defpoints
 62
     0
100
AcDbPoint
 10
118.0000000000002
 20
49.38140833017896
 30
0.0
  0
POINT
  5
20DD
330
20A3
100
AcDbEntity
  8
Defpoints
 62
     0
100
AcDbPoint
 10
118.0000000000002
 20
53.7916345763986
 30
0.0
  0
ENDBLK
  5
20AB
330
20A3
100
AcDbEntity
  8
0
100
AcDbBlockEnd
  0
BLOCK
  5
215F
330
215E
100
AcDbEntity
  8
0
100
AcDbBlockBegin
  2
*D81
 70
     1
 10
0.0
 20
0.0
 30
0.0
  3
*D81
  1
*D82
  0
LINE
  5
2161
330
215E
100
AcDbEntity
  8
DIM
 62
     0
370
    -2
100
AcDbLine
 10
76.26911376494684
 20
560.3203797663108
 30
0.0
 11
76.26911376494684
 21
582.1030285714287
 31
0.0
  0
LINE
  5
2162
330
215E
100
AcDbEntity
  8
DIM
 62
     0
370
    -2
100
AcDbLine
 10
406.2691137649471
 20
560.3203797663108
 30
0.0
 11
406.2691137649471
 21
582.1030285714287
 31
0.0
  0
LINE
  5
2163
330
215E
100
AcDbEntity
  8
DIM
 62
     0
370
    -2
100
AcDbLine
 10
79.26911376494684
 20
582.1030285714287
 30
0.0
 11
403.2691137649471
 21
582.1030285714287
 31
0.0
  0
INSERT
  5
2164
330
215E
100
AcDbEntity
  8
DIM
 62
     0
370
    -2
100
AcDbBlockReference
  2
_DOT
 10
76.26911376494684
 20
582.1030285714287
 30
0.0
 41
3.0
 42
3.0
 43
3.0
 50
180.0
  0
INSERT
  5
2165
330
215E
100
AcDbEntity
  8
DIM
 62
     0
370
    -2
100
AcDbBlockReference
  2
_DOT
 10
406.2691137649471
 20
582.1030285714287
 30
0.0
 41
3.0
 42
3.0
 43
3.0
  0
MTEXT
  5
2166
330
215E
100
AcDbEntity
  8
DIM
 62
     0
 48
0.05
100
AcDbMText
 10
234.8186137649468
 20
592.1030285714287
 30
0.0
 40
7.0
 41
0.0
 46
0.0
 71
     1
 72
     1
  1
\A1;330
  7
ＭＳ ゴシック
 73
     1
 44
1.0
  0
POINT
  5
2167
330
215E
100
AcDbEntity
  8
Defpoints
 62
     0
100
AcDbPoint
 10
76.26911376494684
 20
550.3203797663108
 30
0.0
  0
POINT
  5
2168
330
215E
100
AcDbEntity
  8
Defpoints
 62
     0
100
AcDbPoint
 10
406.2691137649471
 20
550.3203797663108
 30
0.0
  0
POINT
  5
2169
330
215E
100
AcDbEntity
  8
Defpoints
 62
     0
100
AcDbPoint
 10
406.2691137649471
 20
582.1030285714287
 30
0.0
  0
ENDBLK
  5
2160
330
215E
100
AcDbEntity
  8
0
100
AcDbBlockEnd
  0
BLOCK
  5
216B
330
216A
100
AcDbEntity
  8
0
100
AcDbBlockBegin
  2
*D82
 70
     1
 10
0.0
 20
0.0
 30
0.0
  3
*D82
  1
*D83
  0
LINE
  5
216D
330
216A
100
AcDbEntity
  8
DIM
 62
     0
370
    -2
100
AcDbLine
 10
552.7785509936347
 20
525.3203797663108
 30
0.0
 11
566.9730576014798
 21
525.3203797663109
 31
0.0
  0
LINE
  5
216E
330
216A
100
AcDbEntity
  8
DIM
 62
     0
370
    -2
100
AcDbLine
 10
552.7785509936347
 20
550.3203797663108
 30
0.0
 11
566.9730576014797
 21
550.3203797663109
 31
0.0
  0
LINE
  5
216F
330
216A
100
AcDbEntity
  8
DIM
 62
     0
370
    -2
100
AcDbLine
 10
566.9730576014798
 20
528.3203797663109
 30
0.0
 11
566.9730576014797
 21
547.3203797663109
 31
0.0
  0
INSERT
  5
2170
330
216A
100
AcDbEntity
  8
DIM
 62
     0
370
    -2
100
AcDbBlockReference
  2
_DOT
 10
566.9730576014798
 20
525.3203797663109
 30
0.0
 41
3.0
 42
3.0
 43
3.0
 50
270.0000000000002
  0
INSERT
  5
2171
330
216A
100
AcDbEntity
  8
DIM
 62
     0
370
    -2
100
AcDbBlockReference
  2
_DOT
 10
566.9730576014797
 20
550.3203797663109
 30
0.0
 41
3.0
 42
3.0
 43
3.0
 50
90.00000000000026
  0
MTEXT
  5
2172
330
216A
100
AcDbEntity
  8
DIM
 62
     0
 48
0.05
100
AcDbMText
 10
556.9730576014798
 20
533.7533797663108
 30
0.0
 40
7.0
 41
0.0
 46
0.0
 71
     1
 72
     1
  1
\A1;25
  7
ＭＳ ゴシック
 11
-4.547473508864641E-15
 21
1.0
 31
0.0
 73
     1
 44
1.0
  0
POINT
  5
2173
330
216A
100
AcDbEntity
  8
Defpoints
 62
     0
100
AcDbPoint
 10
542.7785509936347
 20
525.3203797663108
 30
0.0
  0
POINT
  5
2174
330
216A
100
AcDbEntity
  8
Defpoints
 62
     0
100
AcDbPoint
 10
542.7785509936347
 20
550.3203797663108
 30
0.0
  0
POINT
  5
2175
330
216A
100
AcDbEntity
  8
Defpoints
 62
     0
100
AcDbPoint
 10
566.9730576014797
 20
550.3203797663109
 30
0.0
  0
ENDBLK
  5
216C
330
216A
100
AcDbEntity
  8
0
100
AcDbBlockEnd
  0
BLOCK
  5
2177
330
2176
100
AcDbEntity
  8
0
100
AcDbBlockBegin
  2
*D83
 70
     1
 10
0.0
 20
0.0
 30
0.0
  3
*D83
  1
*D84
  0
LINE
  5
2179
330
2176
100
AcDbEntity
  8
DIM
 62
     0
370
    -2
100
AcDbLine
 10
256.2691137649475
 20
1040.651395573668
 30
0.0
 11
256.2691137649475
 21
1075.764642892031
 31
0.0
  0
LINE
  5
217A
330
2176
100
AcDbEntity
  8
DIM
 62
     0
370
    -2
100
AcDbLine
 10
406.2691137649471
 20
1040.651395573669
 30
0.0
 11
406.2691137649471
 21
1075.764642892031
 31
0.0
  0
LINE
  5
217B
330
2176
100
AcDbEntity
  8
DIM
 62
     0
370
    -2
100
AcDbLine
 10
259.2691137649475
 20
1075.764642892031
 30
0.0
 11
403.2691137649471
 21
1075.764642892031
 31
0.0
  0
INSERT
  5
217C
330
2176
100
AcDbEntity
  8
DIM
 62
     0
370
    -2
100
AcDbBlockReference
  2
_DOT
 10
256.2691137649475
 20
1075.764642892031
 30
0.0
 41
3.0
 42
3.0
 43
3.0
 50
180.0
  0
INSERT
  5
217D
330
2176
100
AcDbEntity
  8
DIM
 62
     0
370
    -2
100
AcDbBlockReference
  2
_DOT
 10
406.2691137649471
 20
1075.764642892031
 30
0.0
 41
3.0
 42
3.0
 43
3.0
  0
MTEXT
  5
217E
330
2176
100
AcDbEntity
  8
DIM
 62
     0
 48
0.05
100
AcDbMText
 10
325.0671137649475
 20
1085.764642892031
 30
0.0
 40
7.0
 41
0.0
 46
0.0
 71
     1
 72
     1
  1
\A1;150
  7
ＭＳ ゴシック
 73
     1
 44
1.0
  0
POINT
  5
217F
330
2176
100
AcDbEntity
  8
Defpoints
 62
     0
100
AcDbPoint
 10
256.2691137649475
 20
1030.651395573668
 30
0.0
  0
POINT
  5
2180
330
2176
100
AcDbEntity
  8
Defpoints
 62
     0
100
AcDbPoint
 10
406.2691137649471
 20
1030.651395573669
 30
0.0
  0
POINT
  5
2181
330
2176
100
AcDbEntity
  8
Defpoints
 62
     0
100
AcDbPoint
 10
406.2691137649471
 20
1075.764642892031
 30
0.0
  0
ENDBLK
  5
2178
330
2176
100
AcDbEntity
  8
0
100
AcDbBlockEnd
  0
BLOCK
  5
2183
330
2182
100
AcDbEntity
  8
0
100
AcDbBlockBegin
  2
*D84
 70
     1
 10
0.0
 20
0.0
 30
0.0
  3
*D84
  1
*D85
  0
LINE
  5
2185
330
2182
100
AcDbEntity
  8
DIM
 62
     0
370
    -2
100
AcDbLine
 10
246.2691137649475
 20
388.0281967023469
 30
0.0
 11
231.6424873479122
 21
388.0281967023468
 31
0.0
  0
LINE
  5
2186
330
2182
100
AcDbEntity
  8
DIM
 62
     0
370
    -2
100
AcDbLine
 10
246.2691137649468
 20
382.028196702347
 30
0.0
 11
231.6424873479123
 21
382.0281967023469
 31
0.0
  0
LINE
  5
2187
330
2182
100
AcDbEntity
  8
DIM
 62
     0
370
    -2
100
AcDbLine
 10
231.6424873479123
 20
382.0281967023469
 30
0.0
 11
231.6424873479124
 21
353.9473633690135
 31
0.0
  0
LINE
  5
2188
330
2182
100
AcDbEntity
  8
DIM
 62
     0
370
    -2
100
AcDbLine
 10
231.6424873479122
 20
391.0281967023468
 30
0.0
 11
231.6424873479122
 21
394.0281967023468
 31
0.0
  0
LINE
  5
2189
330
2182
100
AcDbEntity
  8
DIM
 62
     0
370
    -2
100
AcDbLine
 10
231.6424873479123
 20
379.0281967023469
 30
0.0
 11
231.6424873479123
 21
376.0281967023469
 31
0.0
  0
INSERT
  5
218A
330
2182
100
AcDbEntity
  8
DIM
 62
     0
370
    -2
100
AcDbBlockReference
  2
_DOT
 10
231.6424873479122
 20
388.0281967023468
 30
0.0
 41
3.0
 42
3.0
 43
3.0
 50
270.0000000000002
  0
INSERT
  5
218B
330
2182
100
AcDbEntity
  8
DIM
 62
     0
370
    -2
100
AcDbBlockReference
  2
_DOT
 10
231.6424873479123
 20
382.0281967023469
 30
0.0
 41
3.0
 42
3.0
 43
3.0
 50
90.0000000000003
  0
MTEXT
  5
218C
330
2182
100
AcDbEntity
  8
DIM
 62
     0
 48
0.05
100
AcDbMText
 10
218.6424873479124
 20
356.9473633690134
 30
0.0
 40
10.0
 41
0.0
 46
0.0
 71
     1
 72
     1
  1
\A1;6
  7
ＭＳ ゴシック
 11
-4.736951571734091E-15
 21
1.0
 31
0.0
 73
     1
 44
1.0
  0
POINT
  5
218D
330
2182
100
AcDbEntity
  8
Defpoints
 62
     0
100
AcDbPoint
 10
256.2691137649475
 20
388.0281967023469
 30
0.0
  0
POINT
  5
218E
330
2182
100
AcDbEntity
  8
Defpoints
 62
     0
100
AcDbPoint
 10
256.2691137649468
 20
382.028196702347
 30
0.0
  0
POINT
  5
218F
330
2182
100
AcDbEntity
  8
Defpoints
 62
     0
100
AcDbPoint
 10
231.6424873479123
 20
382.0281967023469
 30
0.0
  0
ENDBLK
  5
2184
330
2182
100
AcDbEntity
  8
0
100
AcDbBlockEnd
  0
BLOCK
  5
2191
330
2190
100
AcDbEntity
  8
0
100
AcDbBlockBegin
  2
*D85
 70
     1
 10
0.0
 20
0.0
 30
0.0
  3
*D85
  1
*D86
  0
LINE
  5
2193
330
2190
100
AcDbEntity
  8
DIM
 62
     0
370
    -2
100
AcDbLine
 10
266.2691137649468
 20
382.028196702347
 30
0.0
 11
278.0705823237232
 21
382.0281967023471
 31
0.0
  0
LINE
  5
2194
330
2190
100
AcDbEntity
  8
DIM
 62
     0
370
    -2
100
AcDbLine
 10
396.2691137649471
 20
346.028196702346
 30
0.0
 11
278.0705823237233
 21
346.0281967023457
 31
0.0
  0
LINE
  5
2195
330
2190
100
AcDbEntity
  8
DIM
 62
     0
370
    -2
100
AcDbLine
 10
278.0705823237232
 20
379.0281967023471
 30
0.0
 11
278.0705823237233
 21
349.0281967023457
 31
0.0
  0
INSERT
  5
2196
330
2190
100
AcDbEntity
  8
DIM
 62
     0
370
    -2
100
AcDbBlockReference
  2
_DOT
 10
278.0705823237232
 20
382.0281967023471
 30
0.0
 41
3.0
 42
3.0
 43
3.0
 50
90.00000000000018
  0
INSERT
  5
2197
330
2190
100
AcDbEntity
  8
DIM
 62
     0
370
    -2
100
AcDbBlockReference
  2
_DOT
 10
278.0705823237233
 20
346.0281967023457
 30
0.0
 41
3.0
 42
3.0
 43
3.0
 50
270.0000000000002
  0
MTEXT
  5
2198
330
2190
100
AcDbEntity
  8
DIM
 62
     0
 48
0.05
100
AcDbMText
 10
265.0705823237232
 20
358.1681967023469
 30
0.0
 40
10.0
 41
0.0
 46
0.0
 71
     1
 72
     1
  1
\A1;36
  7
ＭＳ ゴシック
 11
-3.157967714489199E-15
 21
1.0
 31
0.0
 73
     1
 44
1.0
  0
POINT
  5
2199
330
2190
100
AcDbEntity
  8
Defpoints
 62
     0
100
AcDbPoint
 10
256.2691137649468
 20
382.028196702347
 30
0.0
  0
POINT
  5
219A
330
2190
100
AcDbEntity
  8
Defpoints
 62
     0
100
AcDbPoint
 10
406.2691137649471
 20
346.028196702346
 30
0.0
  0
POINT
  5
219B
330
2190
100
AcDbEntity
  8
Defpoints
 62
     0
100
AcDbPoint
 10
278.0705823237233
 20
346.0281967023456
 30
0.0
  0
ENDBLK
  5
2192
330
2190
100
AcDbEntity
  8
0
100
AcDbBlockEnd
  0
BLOCK
  5
219D
330
219C
100
AcDbEntity
  8
0
100
AcDbBlockBegin
  2
*D86
 70
     1
 10
0.0
 20
0.0
 30
0.0
  3
*D86
  1
*D87
  0
LINE
  5
219F
330
219C
100
AcDbEntity
  8
DIM
 62
     0
370
    -2
100
AcDbLine
 10
66.26911376494684
 20
988.6513955736697
 30
0.0
 11
56.26152857374804
 21
988.6513955736696
 31
0.0
  0
LINE
  5
21A0
330
219C
100
AcDbEntity
  8
DIM
 62
     0
370
    -2
100
AcDbLine
 10
66.26911376494684
 20
982.6513955736697
 30
0.0
 11
56.26152857374807
 21
982.6513955736696
 31
0.0
  0
LINE
  5
21A1
330
219C
100
AcDbEntity
  8
DIM
 62
     0
370
    -2
100
AcDbLine
 10
56.26152857374805
 20
985.6513955736696
 30
0.0
 11
56.26152857374805
 21
985.6513955736696
 31
0.0
  0
INSERT
  5
21A2
330
219C
100
AcDbEntity
  8
DIM
 62
     0
370
    -2
100
AcDbBlockReference
  2
_DOT
 10
56.26152857374804
 20
988.6513955736696
 30
0.0
 41
3.0
 42
3.0
 43
3.0
 50
90.0000000000002
  0
INSERT
  5
21A3
330
219C
100
AcDbEntity
  8
DIM
 62
     0
370
    -2
100
AcDbBlockReference
  2
_DOT
 10
56.26152857374807
 20
982.6513955736696
 30
0.0
 41
3.0
 42
3.0
 43
3.0
 50
270.0000000000002
  0
MTEXT
  5
21A4
330
219C
100
AcDbEntity
  8
DIM
 62
     0
 48
0.05
100
AcDbMText
 10
46.26152857374806
 20
983.8768955736696
 30
0.0
 40
7.0
 41
0.0
 46
0.0
 71
     1
 72
     1
  1
\A1;6
  7
ＭＳ ゴシック
 11
-3.552713678800501E-15
 21
1.0
 31
0.0
 73
     1
 44
1.0
  0
POINT
  5
21A5
330
219C
100
AcDbEntity
  8
Defpoints
 62
     0
100
AcDbPoint
 10
76.26911376494684
 20
988.6513955736697
 30
0.0
  0
POINT
  5
21A6
330
219C
100
AcDbEntity
  8
Defpoints
 62
     0
100
AcDbPoint
 10
76.26911376494684
 20
982.6513955736697
 30
0.0
  0
POINT
  5
21A7
330
219C
100
AcDbEntity
  8
Defpoints
 62
     0
100
AcDbPoint
 10
56.26152857374807
 20
982.6513955736696
 30
0.0
  0
ENDBLK
  5
219E
330
219C
100
AcDbEntity
  8
0
100
AcDbBlockEnd
  0
BLOCK
  5
21AB
330
21AA
100
AcDbEntity
  8
0
100
AcDbBlockBegin
  2
*D87
 70
     1
 10
0.0
 20
0.0
 30
0.0
  3
*D87
  1
*D88
  0
LINE
  5
21AD
330
21AA
100
AcDbEntity
  8
DIM
 62
     0
370
    -2
100
AcDbLine
 10
291.2691137649475
 20
1045.126395573668
 30
0.0
 11
291.2691137649475
 21
1057.227568021125
 31
0.0
  0
LINE
  5
21AE
330
21AA
100
AcDbEntity
  8
DIM
 62
     0
370
    -2
100
AcDbLine
 10
371.2691137649475
 20
1045.126395573668
 30
0.0
 11
371.2691137649475
 21
1057.227568021125
 31
0.0
  0
LINE
  5
21AF
330
21AA
100
AcDbEntity
  8
DIM
 62
     0
370
    -2
100
AcDbLine
 10
294.2691137649475
 20
1057.227568021125
 30
0.0
 11
368.2691137649475
 21
1057.227568021125
 31
0.0
  0
INSERT
  5
21B0
330
21AA
100
AcDbEntity
  8
DIM
 62
     0
370
    -2
100
AcDbBlockReference
  2
_DOT
 10
291.2691137649475
 20
1057.227568021125
 30
0.0
 41
3.0
 42
3.0
 43
3.0
 50
180.0
  0
INSERT
  5
21B1
330
21AA
100
AcDbEntity
  8
DIM
 62
     0
370
    -2
100
AcDbBlockReference
  2
_DOT
 10
371.2691137649475
 20
1057.227568021125
 30
0.0
 41
3.0
 42
3.0
 43
3.0
  0
MTEXT
  5
21B2
330
21AA
100
AcDbEntity
  8
DIM
 62
     0
 48
0.05
100
AcDbMText
 10
327.0936137649475
 20
1067.227568021125
 30
0.0
 40
7.0
 41
0.0
 46
0.0
 71
     1
 72
     1
  1
\A1;80
  7
ＭＳ ゴシック
 73
     1
 44
1.0
  0
POINT
  5
21B3
330
21AA
100
AcDbEntity
  8
Defpoints
 62
     0
100
AcDbPoint
 10
291.2691137649475
 20
1035.126395573668
 30
0.0
  0
POINT
  5
21B4
330
21AA
100
AcDbEntity
  8
Defpoints
 62
     0
100
AcDbPoint
 10
371.2691137649475
 20
1035.126395573668
 30
0.0
  0
POINT
  5
21B5
330
21AA
100
AcDbEntity
  8
Defpoints
 62
     0
100
AcDbPoint
 10
371.2691137649475
 20
1057.227568021125
 30
0.0
  0
ENDBLK
  5
21AC
330
21AA
100
AcDbEntity
  8
0
100
AcDbBlockEnd
  0
BLOCK
  5
21DC
330
21DB
100
AcDbEntity
  8
0
100
AcDbBlockBegin
  2
*D88
 70
     1
 10
0.0
 20
0.0
 30
0.0
  3
*D88
  1
*D88
  0
LINE
  5
21DE
330
21DB
100
AcDbEntity
  8
DIM
 62
     0
 48
0.05
370
    -2
100
AcDbLine
 10
416.2691137649471
 20
1030.651395573669
 30
0.0
 11
457.4691698296849
 21
1030.651395573669
 31
0.0
  0
LINE
  5
21DF
330
21DB
100
AcDbEntity
  8
DIM
 62
     0
 48
0.05
370
    -2
100
AcDbLine
 10
416.2691137649471
 20
982.6513955736684
 30
0.0
 11
457.4691698296849
 21
982.6513955736684
 31
0.0
  0
LINE
  5
21E0
330
21DB
100
AcDbEntity
  8
DIM
 62
     0
 48
0.05
370
    -2
100
AcDbLine
 10
457.4691698296849
 20
1027.651395573669
 30
0.0
 11
457.4691698296849
 21
985.6513955736684
 31
0.0
  0
INSERT
  5
21E1
330
21DB
100
AcDbEntity
  8
DIM
 62
     0
370
    -2
100
AcDbBlockReference
  2
_DOT
 10
457.4691698296849
 20
1030.651395573669
 30
0.0
 41
3.0
 42
3.0
 43
3.0
 50
90.0
  0
INSERT
  5
21E2
330
21DB
100
AcDbEntity
  8
DIM
 62
     0
370
    -2
100
AcDbBlockReference
  2
_DOT
 10
457.4691698296849
 20
982.6513955736684
 30
0.0
 41
3.0
 42
3.0
 43
3.0
 50
270.0
  0
MTEXT
  5
21E3
330
21DB
100
AcDbEntity
  8
DIM
 62
     0
 48
0.05
100
AcDbMText
 10
450.9691698296849
 20
1006.651395573669
 30
0.0
 40
7.0
 41
0.0
 46
0.0
 71
     5
 72
     1
  1
\A1;48
  7
ＭＳ ゴシック
 11
0.0
 21
1.0
 31
0.0
 73
     1
 44
1.0
  0
POINT
  5
21E4
330
21DB
100
AcDbEntity
  8
Defpoints
 62
     0
100
AcDbPoint
 10
406.2691137649471
 20
1030.651395573669
 30
0.0
  0
POINT
  5
21E5
330
21DB
100
AcDbEntity
  8
Defpoints
 62
     0
100
AcDbPoint
 10
406.2691137649471
 20
982.6513955736684
 30
0.0
  0
POINT
  5
21E6
330
21DB
100
AcDbEntity
  8
Defpoints
 62
     0
100
AcDbPoint
 10
457.4691698296849
 20
982.6513955736684
 30
0.0
  0
ENDBLK
  5
21DD
330
21DB
100
AcDbEntity
  8
0
100
AcDbBlockEnd
  0
BLOCK
  5
21EB
330
21EA
100
AcDbEntity
  8
0
100
AcDbBlockBegin
  2
*D89
 70
     1
 10
0.0
 20
0.0
 30
0.0
  3
*D89
  1
*D89
  0
LINE
  5
21ED
330
21EA
100
AcDbEntity
  8
DIM
 62
     0
 48
0.05
370
    -2
100
AcDbLine
 10
416.2691137649471
 20
382.0281967023474
 30
0.0
 11
438.1261351817823
 21
382.0281967023474
 31
0.0
  0
LINE
  5
21EE
330
21EA
100
AcDbEntity
  8
DIM
 62
     0
 48
0.05
370
    -2
100
AcDbLine
 10
416.2691137649471
 20
346.0281967023471
 30
0.0
 11
438.1261351817823
 21
346.0281967023471
 31
0.0
  0
LINE
  5
21EF
330
21EA
100
AcDbEntity
  8
DIM
 62
     0
 48
0.05
370
    -2
100
AcDbLine
 10
438.1261351817823
 20
379.0281967023474
 30
0.0
 11
438.1261351817823
 21
349.0281967023471
 31
0.0
  0
INSERT
  5
21F0
330
21EA
100
AcDbEntity
  8
DIM
 62
     0
370
    -2
100
AcDbBlockReference
  2
_DOT
 10
438.1261351817823
 20
382.0281967023474
 30
0.0
 41
3.0
 42
3.0
 43
3.0
 50
90.0
  0
INSERT
  5
21F1
330
21EA
100
AcDbEntity
  8
DIM
 62
     0
370
    -2
100
AcDbBlockReference
  2
_DOT
 10
438.1261351817823
 20
346.0281967023471
 30
0.0
 41
3.0
 42
3.0
 43
3.0
 50
270.0
  0
MTEXT
  5
21F2
330
21EA
100
AcDbEntity
  8
DIM
 62
     0
 48
0.05
100
AcDbMText
 10
431.6261351817823
 20
364.0281967023473
 30
0.0
 40
7.0
 41
0.0
 46
0.0
 71
     5
 72
     1
  1
\A1;36
  7
ＭＳ ゴシック
 11
0.0
 21
1.0
 31
0.0
 73
     1
 44
1.0
  0
POINT
  5
21F3
330
21EA
100
AcDbEntity
  8
Defpoints
 62
     0
100
AcDbPoint
 10
406.2691137649471
 20
382.0281967023474
 30
0.0
  0
POINT
  5
21F4
330
21EA
100
AcDbEntity
  8
Defpoints
 62
     0
100
AcDbPoint
 10
406.2691137649471
 20
346.0281967023471
 30
0.0
  0
POINT
  5
21F5
330
21EA
100
AcDbEntity
  8
Defpoints
 62
     0
100
AcDbPoint
 10
438.1261351817823
 20
346.0281967023471
 30
0.0
  0
ENDBLK
  5
21EC
330
21EA
100
AcDbEntity
  8
0
100
AcDbBlockEnd
  0
BLOCK
  5
21F8
330
21F7
100
AcDbEntity
  8
0
100
AcDbBlockBegin
  2
*D90
 70
     1
 10
0.0
 20
0.0
 30
0.0
  3
*D90
  1
*D90
  0
LINE
  5
21FA
330
21F7
100
AcDbEntity
  8
DIM
 62
     0
370
    -2
100
AcDbLine
 10
246.2691137649468
 20
1030.65139557367
 30
0.0
 11
236.2615285737481
 21
1030.65139557367
 31
0.0
  0
LINE
  5
21FB
330
21F7
100
AcDbEntity
  8
DIM
 62
     0
370
    -2
100
AcDbLine
 10
246.2691137649468
 20
1024.65139557367
 30
0.0
 11
236.2615285737481
 21
1024.65139557367
 31
0.0
  0
LINE
  5
21FC
330
21F7
100
AcDbEntity
  8
DIM
 62
     0
370
    -2
100
AcDbLine
 10
236.2615285737481
 20
1027.65139557367
 30
0.0
 11
236.2615285737481
 21
1027.65139557367
 31
0.0
  0
INSERT
  5
21FD
330
21F7
100
AcDbEntity
  8
DIM
 62
     0
370
    -2
100
AcDbBlockReference
  2
_DOT
 10
236.2615285737481
 20
1030.65139557367
 30
0.0
 41
3.0
 42
3.0
 43
3.0
 50
90.0000000000003
  0
INSERT
  5
21FE
330
21F7
100
AcDbEntity
  8
DIM
 62
     0
370
    -2
100
AcDbBlockReference
  2
_DOT
 10
236.2615285737481
 20
1024.65139557367
 30
0.0
 41
3.0
 42
3.0
 43
3.0
 50
270.0000000000002
  0
MTEXT
  5
21FF
330
21F7
100
AcDbEntity
  8
DIM
 62
     0
 48
0.05
100
AcDbMText
 10
226.2615285737481
 20
1025.87689557367
 30
0.0
 40
7.0
 41
0.0
 46
0.0
 71
     1
 72
     1
  1
\A1;6
  7
ＭＳ ゴシック
 11
-4.736951571734001E-15
 21
1.0
 31
0.0
 73
     1
 44
1.0
  0
POINT
  5
2200
330
21F7
100
AcDbEntity
  8
Defpoints
 62
     0
100
AcDbPoint
 10
256.2691137649468
 20
1030.65139557367
 30
0.0
  0
POINT
  5
2201
330
21F7
100
AcDbEntity
  8
Defpoints
 62
     0
100
AcDbPoint
 10
256.2691137649468
 20
1024.65139557367
 30
0.0
  0
POINT
  5
2202
330
21F7
100
AcDbEntity
  8
Defpoints
 62
     0
100
AcDbPoint
 10
236.2615285737481
 20
1024.65139557367
 30
0.0
  0
ENDBLK
  5
21F9
330
21F7
100
AcDbEntity
  8
0
100
AcDbBlockEnd
  0
BLOCK
  5
22BF
330
22BE
100
AcDbEntity
  8
0
100
AcDbBlockBegin
  2
*D91
 70
     1
 10
0.0
 20
0.0
 30
0.0
  3
*D91
  1
*D74
  0
LINE
  5
22C0
330
22BE
100
AcDbEntity
  8
MODEL
 62
     0
 48
0.05
370
    -2
100
AcDbLine
 10
123.0506872585624
 20
49.48815444115837
 30
0.0
 11
81.70142684536879
 21
49.48815444115837
 31
0.0
  0
LINE
  5
22C1
330
22BE
100
AcDbEntity
  8
MODEL
 62
     0
 48
0.05
370
    -2
100
AcDbLine
 10
123.0506872585624
 20
7.63184555884152
 30
0.0
 11
81.70142684536879
 21
7.631845558841523
 31
0.0
  0
LINE
  5
22C2
330
22BE
100
AcDbEntity
  8
MODEL
 62
     0
 48
0.05
370
    -2
100
AcDbLine
 10
81.70142684536879
 20
46.48815444115837
 30
0.0
 11
81.70142684536879
 21
10.63184555884152
 31
0.0
  0
INSERT
  5
22C3
330
22BE
100
AcDbEntity
  8
MODEL
 62
     0
370
    -2
100
AcDbBlockReference
  2
_DOT
 10
81.70142684536879
 20
49.48815444115837
 30
0.0
 41
3.0
 42
3.0
 43
3.0
 50
90.0
  0
INSERT
  5
22C4
330
22BE
100
AcDbEntity
  8
MODEL
 62
     0
370
    -2
100
AcDbBlockReference
  2
_DOT
 10
81.70142684536879
 20
7.631845558841523
 30
0.0
 41
3.0
 42
3.0
 43
3.0
 50
270.0
  0
MTEXT
  5
22C5
330
22BE
100
AcDbEntity
  8
MODEL
 62
     0
 48
0.05
100
AcDbMText
 10
74.7744268453688
 20
28.55999999999995
 30
0.0
 40
7.0
 41
0.0
 46
0.0
 71
     5
 72
     1
  1
\A1;厚み ～13
  7
ＭＳ ゴシック
 11
0.0
 21
1.0
 31
0.0
 73
     1
 44
1.0
  0
POINT
  5
22C6
330
22BE
100
AcDbEntity
  8
Defpoints
 62
     0
100
AcDbPoint
 10
133.0506872585624
 20
49.48815444115837
 30
0.0
  0
POINT
  5
22C7
330
22BE
100
AcDbEntity
  8
Defpoints
 62
     0
100
AcDbPoint
 10
133.0506872585624
 20
7.631845558841519
 30
0.0
  0
POINT
  5
22C8
330
22BE
100
AcDbEntity
  8
Defpoints
 62
     0
100
AcDbPoint
 10
81.70142684536879
 20
7.631845558841523
 30
0.0
  0
ENDBLK
  5
22C9
330
22BE
100
AcDbEntity
  8
0
100
AcDbBlockEnd
  0
BLOCK
  5
2323
330
2322
100
AcDbEntity
  8
0
100
AcDbBlockBegin
  2
*D92
 70
     1
 10
0.0
 20
0.0
 30
0.0
  3
*D92
  1
*D70
  0
LINE
  5
2324
330
2322
100
AcDbEntity
  8
DIM
 62
     0
370
    -2
100
AcDbLine
 10
278.9063384857662
 20
202.053921276206
 30
0.0
 11
278.9063384857662
 21
240.604854071421
 31
0.0
  0
LINE
  5
2325
330
2322
100
AcDbEntity
  8
DIM
 62
     0
370
    -2
100
AcDbLine
 10
428.9063384857661
 20
202.0539212762066
 30
0.0
 11
428.9063384857661
 21
240.604854071421
 31
0.0
  0
LINE
  5
2326
330
2322
100
AcDbEntity
  8
DIM
 62
     0
370
    -2
100
AcDbLine
 10
281.9063384857662
 20
240.604854071421
 30
0.0
 11
425.9063384857661
 21
240.604854071421
 31
0.0
  0
INSERT
  5
2327
330
2322
100
AcDbEntity
  8
DIM
 62
     0
370
    -2
100
AcDbBlockReference
  2
_DOT
 10
278.9063384857662
 20
240.604854071421
 30
0.0
 41
3.0
 42
3.0
 43
3.0
 50
180.0
  0
INSERT
  5
2328
330
2322
100
AcDbEntity
  8
DIM
 62
     0
370
    -2
100
AcDbBlockReference
  2
_DOT
 10
428.9063384857661
 20
240.604854071421
 30
0.0
 41
3.0
 42
3.0
 43
3.0
  0
MTEXT
  5
2329
330
2322
100
AcDbEntity
  8
DIM
 62
     0
 48
0.05
100
AcDbMText
 10
347.7043384857657
 20
250.604854071421
 30
0.0
 40
7.0
 41
0.0
 46
0.0
 71
     1
 72
     1
  1
\A1;150
  7
ＭＳ ゴシック
 73
     1
 44
1.0
  0
POINT
  5
232A
330
2322
100
AcDbEntity
  8
Defpoints
 62
     0
100
AcDbPoint
 10
278.9063384857662
 20
192.053921276206
 30
0.0
  0
POINT
  5
232B
330
2322
100
AcDbEntity
  8
Defpoints
 62
     0
100
AcDbPoint
 10
428.9063384857661
 20
192.0539212762066
 30
0.0
  0
POINT
  5
232C
330
2322
100
AcDbEntity
  8
Defpoints
 62
     0
100
AcDbPoint
 10
428.9063384857661
 20
240.604854071421
 30
0.0
  0
ENDBLK
  5
232D
330
2322
100
AcDbEntity
  8
0
100
AcDbBlockEnd
  0
BLOCK
  5
2330
330
232F
100
AcDbEntity
  8
0
100
AcDbBlockBegin
  2
*D93
 70
     1
 10
0.0
 20
0.0
 30
0.0
  3
*D93
  1
*D72
  0
LINE
  5
2331
330
232F
100
AcDbEntity
  8
DIM
 62
     0
370
    -2
100
AcDbLine
 10
268.9063384857662
 20
173.7979563224296
 30
0.0
 11
252.2541840093784
 21
173.7979563224296
 31
0.0
  0
LINE
  5
2332
330
232F
100
AcDbEntity
  8
DIM
 62
     0
370
    -2
100
AcDbLine
 10
268.9063384857662
 20
179.7979563224295
 30
0.0
 11
252.2541840093784
 21
179.7979563224295
 31
0.0
  0
LINE
  5
2333
330
232F
100
AcDbEntity
  8
DIM
 62
     0
370
    -2
100
AcDbLine
 10
252.2541840093784
 20
176.7979563224296
 30
0.0
 11
252.2541840093784
 21
176.7979563224295
 31
0.0
  0
INSERT
  5
2334
330
232F
100
AcDbEntity
  8
DIM
 62
     0
370
    -2
100
AcDbBlockReference
  2
_DOT
 10
252.2541840093784
 20
173.7979563224296
 30
0.0
 41
3.0
 42
3.0
 43
3.0
 50
270.0000000000002
  0
INSERT
  5
2335
330
232F
100
AcDbEntity
  8
DIM
 62
     0
370
    -2
100
AcDbBlockReference
  2
_DOT
 10
252.2541840093784
 20
179.7979563224295
 30
0.0
 41
3.0
 42
3.0
 43
3.0
 50
90.0000000000003
  0
MTEXT
  5
2336
330
232F
100
AcDbEntity
  8
DIM
 62
     0
 48
0.05
100
AcDbMText
 10
242.2541840093784
 20
175.0234563224295
 30
0.0
 40
7.0
 41
0.0
 46
0.0
 71
     1
 72
     1
  1
\A1;6
  7
ＭＳ ゴシック
 11
-4.736951571734091E-15
 21
1.0
 31
0.0
 73
     1
 44
1.0
  0
POINT
  5
2337
330
232F
100
AcDbEntity
  8
Defpoints
 62
     0
100
AcDbPoint
 10
278.9063384857662
 20
173.7979563224297
 30
0.0
  0
POINT
  5
2338
330
232F
100
AcDbEntity
  8
Defpoints
 62
     0
100
AcDbPoint
 10
278.9063384857662
 20
179.7979563224296
 30
0.0
  0
POINT
  5
2339
330
232F
100
AcDbEntity
  8
Defpoints
 62
     0
100
AcDbPoint
 10
252.2541840093784
 20
179.7979563224295
 30
0.0
  0
ENDBLK
  5
233A
330
232F
100
AcDbEntity
  8
0
100
AcDbBlockEnd
  0
BLOCK
  5
233D
330
233C
100
AcDbEntity
  8
0
100
AcDbBlockBegin
  2
*D94
 70
     1
 10
0.0
 20
0.0
 30
0.0
  3
*D94
  1
*D74
  0
LINE
  5
233E
330
233C
100
AcDbEntity
  8
DIM
 62
     0
370
    -2
100
AcDbLine
 10
313.9063384857662
 20
208.5303896948759
 30
0.0
 11
313.9063384857662
 21
219.6967690364057
 31
0.0
  0
LINE
  5
233F
330
233C
100
AcDbEntity
  8
DIM
 62
     0
370
    -2
100
AcDbLine
 10
393.9063384857662
 20
208.5303896948762
 30
0.0
 11
393.9063384857662
 21
219.6967690364057
 31
0.0
  0
LINE
  5
2340
330
233C
100
AcDbEntity
  8
DIM
 62
     0
370
    -2
100
AcDbLine
 10
316.9063384857662
 20
219.6967690364057
 30
0.0
 11
390.9063384857662
 21
219.6967690364057
 31
0.0
  0
INSERT
  5
2341
330
233C
100
AcDbEntity
  8
DIM
 62
     0
370
    -2
100
AcDbBlockReference
  2
_DOT
 10
313.9063384857662
 20
219.6967690364057
 30
0.0
 41
3.0
 42
3.0
 43
3.0
 50
180.0
  0
INSERT
  5
2342
330
233C
100
AcDbEntity
  8
DIM
 62
     0
370
    -2
100
AcDbBlockReference
  2
_DOT
 10
393.9063384857662
 20
219.6967690364057
 30
0.0
 41
3.0
 42
3.0
 43
3.0
  0
MTEXT
  5
2343
330
233C
100
AcDbEntity
  8
DIM
 62
     0
 48
0.05
100
AcDbMText
 10
349.7308384857662
 20
229.6967690364057
 30
0.0
 40
7.0
 41
0.0
 46
0.0
 71
     1
 72
     1
  1
\A1;80
  7
ＭＳ ゴシック
 73
     1
 44
1.0
  0
POINT
  5
2344
330
233C
100
AcDbEntity
  8
Defpoints
 62
     0
100
AcDbPoint
 10
313.9063384857662
 20
198.5303896948759
 30
0.0
  0
POINT
  5
2345
330
233C
100
AcDbEntity
  8
Defpoints
 62
     0
100
AcDbPoint
 10
393.9063384857662
 20
198.5303896948762
 30
0.0
  0
POINT
  5
2346
330
233C
100
AcDbEntity
  8
Defpoints
 62
     0
100
AcDbPoint
 10
393.9063384857662
 20
219.6967690364057
 30
0.0
  0
ENDBLK
  5
2347
330
233C
100
AcDbEntity
  8
0
100
AcDbBlockEnd
  0
BLOCK
  5
234C
330
234B
100
AcDbEntity
  8
0
100
AcDbBlockBegin
  2
*D95
 70
     1
 10
0.0
 20
0.0
 30
0.0
  3
*D95
  1
*D76
  0
LINE
  5
234D
330
234B
100
AcDbEntity
  8
DIM
 62
     0
 48
0.05
370
    -2
100
AcDbLine
 10
28.90633848576618
 20
131.7979563224292
 30
0.0
 11
12.99999999999997
 21
131.7979563224292
 31
0.0
  0
LINE
  5
234E
330
234B
100
AcDbEntity
  8
DIM
 62
     0
 48
0.05
370
    -2
100
AcDbLine
 10
28.90633848576618
 20
137.7979563224291
 30
0.0
 11
12.99999999999997
 21
137.7979563224291
 31
0.0
  0
LINE
  5
234F
330
234B
100
AcDbEntity
  8
DIM
 62
     0
 48
0.05
370
    -2
100
AcDbLine
 10
12.99999999999997
 20
134.7979563224292
 30
0.0
 11
12.99999999999997
 21
134.7979563224291
 31
0.0
  0
INSERT
  5
2350
330
234B
100
AcDbEntity
  8
DIM
 62
     0
370
    -2
100
AcDbBlockReference
  2
_DOT
 10
12.99999999999997
 20
131.7979563224292
 30
0.0
 41
3.0
 42
3.0
 43
3.0
 50
270.0
  0
INSERT
  5
2351
330
234B
100
AcDbEntity
  8
DIM
 62
     0
370
    -2
100
AcDbBlockReference
  2
_DOT
 10
12.99999999999997
 20
137.7979563224291
 30
0.0
 41
3.0
 42
3.0
 43
3.0
 50
90.0
  0
MTEXT
  5
2352
330
234B
100
AcDbEntity
  8
DIM
 62
     0
 48
0.05
100
AcDbMText
 10
6.499999999999972
 20
134.7559563224292
 30
0.0
 40
7.0
 41
0.0
 46
0.0
 71
     5
 72
     1
  1
\A1;6
  7
ＭＳ ゴシック
 11
0.0
 21
1.0
 31
0.0
 73
     1
 44
1.0
  0
POINT
  5
2353
330
234B
100
AcDbEntity
  8
Defpoints
 62
     0
100
AcDbPoint
 10
38.90633848576618
 20
131.7979563224292
 30
0.0
  0
POINT
  5
2354
330
234B
100
AcDbEntity
  8
Defpoints
 62
     0
100
AcDbPoint
 10
38.90633848576618
 20
137.7979563224291
 30
0.0
  0
POINT
  5
2355
330
234B
100
AcDbEntity
  8
Defpoints
 62
     0
100
AcDbPoint
 10
12.99999999999997
 20
137.7979563224291
 30
0.0
  0
ENDBLK
  5
2356
330
234B
100
AcDbEntity
  8
0
100
AcDbBlockEnd
  0
BLOCK
  5
235B
330
235A
100
AcDbEntity
  8
0
100
AcDbBlockBegin
  2
*D96
 70
     1
 10
0.0
 20
0.0
 30
0.0
  3
*D96
  1
*D77
  0
LINE
  5
235C
330
235A
100
AcDbEntity
  8
DIM
 62
     0
 48
0.05
370
    -2
100
AcDbLine
 10
438.9063384857661
 20
179.7979563224291
 30
0.0
 11
494.355707919056
 21
179.7979563224291
 31
0.0
  0
LINE
  5
235D
330
235A
100
AcDbEntity
  8
DIM
 62
     0
 48
0.05
370
    -2
100
AcDbLine
 10
438.9063384857661
 20
131.7979563224292
 30
0.0
 11
494.355707919056
 21
131.7979563224292
 31
0.0
  0
LINE
  5
235E
330
235A
100
AcDbEntity
  8
DIM
 62
     0
 48
0.05
370
    -2
100
AcDbLine
 10
494.355707919056
 20
176.7979563224291
 30
0.0
 11
494.355707919056
 21
134.7979563224292
 31
0.0
  0
INSERT
  5
235F
330
235A
100
AcDbEntity
  8
DIM
 62
     0
370
    -2
100
AcDbBlockReference
  2
_DOT
 10
494.355707919056
 20
179.7979563224291
 30
0.0
 41
3.0
 42
3.0
 43
3.0
 50
90.0
  0
INSERT
  5
2360
330
235A
100
AcDbEntity
  8
DIM
 62
     0
370
    -2
100
AcDbBlockReference
  2
_DOT
 10
494.355707919056
 20
131.7979563224292
 30
0.0
 41
3.0
 42
3.0
 43
3.0
 50
270.0
  0
MTEXT
  5
2361
330
235A
100
AcDbEntity
  8
DIM
 62
     0
 48
0.05
100
AcDbMText
 10
487.855707919056
 20
155.7979563224292
 30
0.0
 40
7.0
 41
0.0
 46
0.0
 71
     5
 72
     1
  1
\A1;48
  7
ＭＳ ゴシック
 11
0.0
 21
1.0
 31
0.0
 73
     1
 44
1.0
  0
POINT
  5
2362
330
235A
100
AcDbEntity
  8
Defpoints
 62
     0
100
AcDbPoint
 10
428.9063384857661
 20
179.7979563224291
 30
0.0
  0
POINT
  5
2363
330
235A
100
AcDbEntity
  8
Defpoints
 62
     0
100
AcDbPoint
 10
428.9063384857661
 20
131.7979563224292
 30
0.0
  0
POINT
  5
2364
330
235A
100
AcDbEntity
  8
Defpoints
 62
     0
100
AcDbPoint
 10
494.355707919056
 20
131.7979563224292
 30
0.0
  0
ENDBLK
  5
2365
330
235A
100
AcDbEntity
  8
0
100
AcDbBlockEnd
  0
BLOCK
  5
244A
330
2449
100
AcDbEntity
  8
0
100
AcDbBlockBegin
  2
*D97
 70
     1
 10
0.0
 20
0.0
 30
0.0
  3
*D97
  1
*D98
  0
LINE
  5
244C
330
2449
100
AcDbEntity
  8
MODEL
 62
     0
 48
0.05
370
    -2
100
AcDbLine
 10
142.0902406834327
 20
257.7183948210763
 30
0.0
 11
100.7409802702392
 21
257.7183948210763
 31
0.0
  0
LINE
  5
244D
330
2449
100
AcDbEntity
  8
MODEL
 62
     0
 48
0.05
370
    -2
100
AcDbLine
 10
142.0902406834327
 20
215.8620859387594
 30
0.0
 11
100.7409802702392
 21
215.8620859387594
 31
0.0
  0
LINE
  5
244E
330
2449
100
AcDbEntity
  8
MODEL
 62
     0
 48
0.05
370
    -2
100
AcDbLine
 10
100.7409802702392
 20
254.7183948210763
 30
0.0
 11
100.7409802702392
 21
218.8620859387594
 31
0.0
  0
INSERT
  5
244F
330
2449
100
AcDbEntity
  8
MODEL
 62
     0
370
    -2
100
AcDbBlockReference
  2
_DOT
 10
100.7409802702392
 20
257.7183948210763
 30
0.0
 41
3.0
 42
3.0
 43
3.0
 50
90.0
  0
INSERT
  5
2450
330
2449
100
AcDbEntity
  8
MODEL
 62
     0
370
    -2
100
AcDbBlockReference
  2
_DOT
 10
100.7409802702392
 20
215.8620859387594
 30
0.0
 41
3.0
 42
3.0
 43
3.0
 50
270.0
  0
MTEXT
  5
2451
330
2449
100
AcDbEntity
  8
MODEL
 62
     0
 48
0.05
100
AcDbMText
 10
93.81398027023923
 20
236.7902403799179
 30
0.0
 40
7.0
 41
0.0
 46
0.0
 71
     5
 72
     1
  1
\A1;厚み ～13
  7
ＭＳ ゴシック
 11
0.0
 21
1.0
 31
0.0
 73
     1
 44
1.0
  0
POINT
  5
2452
330
2449
100
AcDbEntity
  8
Defpoints
 62
     0
100
AcDbPoint
 10
152.0902406834327
 20
257.7183948210763
 30
0.0
  0
POINT
  5
2453
330
2449
100
AcDbEntity
  8
Defpoints
 62
     0
100
AcDbPoint
 10
152.0902406834327
 20
215.8620859387594
 30
0.0
  0
POINT
  5
2454
330
2449
100
AcDbEntity
  8
Defpoints
 62
     0
100
AcDbPoint
 10
100.7409802702392
 20
215.8620859387594
 30
0.0
  0
ENDBLK
  5
244B
330
2449
100
AcDbEntity
  8
0
100
AcDbBlockEnd
  0
BLOCK
  5
2456
330
2455
100
AcDbEntity
  8
0
100
AcDbBlockBegin
  2
*D98
 70
     1
 10
0.0
 20
0.0
 30
0.0
  3
*D98
  1
*D99
  0
LINE
  5
2458
330
2455
100
AcDbEntity
  8
DIM
 62
     0
370
    -2
100
AcDbLine
 10
256.2691137649472
 20
398.605646456124
 30
0.0
 11
256.2691137649472
 21
443.6846896526308
 31
0.0
  0
LINE
  5
2459
330
2455
100
AcDbEntity
  8
DIM
 62
     0
370
    -2
100
AcDbLine
 10
406.2691137649472
 20
398.6056464561245
 30
0.0
 11
406.2691137649472
 21
443.6846896526308
 31
0.0
  0
LINE
  5
245A
330
2455
100
AcDbEntity
  8
DIM
 62
     0
370
    -2
100
AcDbLine
 10
259.2691137649472
 20
443.6846896526308
 30
0.0
 11
403.2691137649472
 21
443.6846896526308
 31
0.0
  0
INSERT
  5
245B
330
2455
100
AcDbEntity
  8
DIM
 62
     0
370
    -2
100
AcDbBlockReference
  2
_DOT
 10
256.2691137649472
 20
443.6846896526308
 30
0.0
 41
3.0
 42
3.0
 43
3.0
 50
180.0
  0
INSERT
  5
245C
330
2455
100
AcDbEntity
  8
DIM
 62
     0
370
    -2
100
AcDbBlockReference
  2
_DOT
 10
406.2691137649472
 20
443.6846896526308
 30
0.0
 41
3.0
 42
3.0
 43
3.0
  0
MTEXT
  5
245D
330
2455
100
AcDbEntity
  8
DIM
 62
     0
 48
0.05
100
AcDbMText
 10
325.0671137649467
 20
453.6846896526308
 30
0.0
 40
7.0
 41
0.0
 46
0.0
 71
     1
 72
     1
  1
\A1;150
  7
ＭＳ ゴシック
 73
     1
 44
1.0
  0
POINT
  5
245E
330
2455
100
AcDbEntity
  8
Defpoints
 62
     0
100
AcDbPoint
 10
256.2691137649472
 20
388.605646456124
 30
0.0
  0
POINT
  5
245F
330
2455
100
AcDbEntity
  8
Defpoints
 62
     0
100
AcDbPoint
 10
406.2691137649472
 20
388.6056464561245
 30
0.0
  0
POINT
  5
2460
330
2455
100
AcDbEntity
  8
Defpoints
 62
     0
100
AcDbPoint
 10
406.2691137649472
 20
443.6846896526308
 30
0.0
  0
ENDBLK
  5
2457
330
2455
100
AcDbEntity
  8
0
100
AcDbBlockEnd
  0
BLOCK
  5
2462
330
2461
100
AcDbEntity
  8
0
100
AcDbBlockBegin
  2
*D99
 70
     1
 10
0.0
 20
0.0
 30
0.0
  3
*D99
  1
*D100
  0
LINE
  5
2464
330
2461
100
AcDbEntity
  8
DIM
 62
     0
370
    -2
100
AcDbLine
 10
246.2691137649472
 20
382.0281967023475
 30
0.0
 11
229.6169592885595
 21
382.0281967023475
 31
0.0
  0
LINE
  5
2465
330
2461
100
AcDbEntity
  8
DIM
 62
     0
370
    -2
100
AcDbLine
 10
246.2691137649472
 20
388.0281967023474
 30
0.0
 11
229.6169592885594
 21
388.0281967023474
 31
0.0
  0
LINE
  5
2466
330
2461
100
AcDbEntity
  8
DIM
 62
     0
370
    -2
100
AcDbLine
 10
229.6169592885594
 20
385.0281967023475
 30
0.0
 11
229.6169592885595
 21
385.0281967023474
 31
0.0
  0
INSERT
  5
2467
330
2461
100
AcDbEntity
  8
DIM
 62
     0
370
    -2
100
AcDbBlockReference
  2
_DOT
 10
229.6169592885595
 20
382.0281967023475
 30
0.0
 41
3.0
 42
3.0
 43
3.0
 50
270.0000000000002
  0
INSERT
  5
2468
330
2461
100
AcDbEntity
  8
DIM
 62
     0
370
    -2
100
AcDbBlockReference
  2
_DOT
 10
229.6169592885594
 20
388.0281967023474
 30
0.0
 41
3.0
 42
3.0
 43
3.0
 50
90.0000000000003
  0
MTEXT
  5
2469
330
2461
100
AcDbEntity
  8
DIM
 62
     0
 48
0.05
100
AcDbMText
 10
219.6169592885594
 20
383.2536967023474
 30
0.0
 40
7.0
 41
0.0
 46
0.0
 71
     1
 72
     1
  1
\A1;6
  7
ＭＳ ゴシック
 11
-4.736951571734091E-15
 21
1.0
 31
0.0
 73
     1
 44
1.0
  0
POINT
  5
246A
330
2461
100
AcDbEntity
  8
Defpoints
 62
     0
100
AcDbPoint
 10
256.2691137649472
 20
382.0281967023476
 30
0.0
  0
POINT
  5
246B
330
2461
100
AcDbEntity
  8
Defpoints
 62
     0
100
AcDbPoint
 10
256.2691137649472
 20
388.0281967023475
 30
0.0
  0
POINT
  5
246C
330
2461
100
AcDbEntity
  8
Defpoints
 62
     0
100
AcDbPoint
 10
229.6169592885594
 20
388.0281967023474
 30
0.0
  0
ENDBLK
  5
2463
330
2461
100
AcDbEntity
  8
0
100
AcDbBlockEnd
  0
BLOCK
  5
246E
330
246D
100
AcDbEntity
  8
0
100
AcDbBlockBegin
  2
*D100
 70
     1
 10
0.0
 20
0.0
 30
0.0
  3
*D100
  1
*D101
  0
LINE
  5
2470
330
246D
100
AcDbEntity
  8
DIM
 62
     0
370
    -2
100
AcDbLine
 10
291.2691137649472
 20
416.7606300747938
 30
0.0
 11
291.2691137649472
 21
427.9270094163236
 31
0.0
  0
LINE
  5
2471
330
246D
100
AcDbEntity
  8
DIM
 62
     0
370
    -2
100
AcDbLine
 10
371.2691137649472
 20
416.7606300747941
 30
0.0
 11
371.2691137649472
 21
427.9270094163236
 31
0.0
  0
LINE
  5
2472
330
246D
100
AcDbEntity
  8
DIM
 62
     0
370
    -2
100
AcDbLine
 10
294.2691137649472
 20
427.9270094163236
 30
0.0
 11
368.2691137649472
 21
427.9270094163236
 31
0.0
  0
INSERT
  5
2473
330
246D
100
AcDbEntity
  8
DIM
 62
     0
370
    -2
100
AcDbBlockReference
  2
_DOT
 10
291.2691137649472
 20
427.9270094163236
 30
0.0
 41
3.0
 42
3.0
 43
3.0
 50
180.0
  0
INSERT
  5
2474
330
246D
100
AcDbEntity
  8
DIM
 62
     0
370
    -2
100
AcDbBlockReference
  2
_DOT
 10
371.2691137649472
 20
427.9270094163236
 30
0.0
 41
3.0
 42
3.0
 43
3.0
  0
MTEXT
  5
2475
330
246D
100
AcDbEntity
  8
DIM
 62
     0
 48
0.05
100
AcDbMText
 10
327.0936137649472
 20
437.9270094163236
 30
0.0
 40
7.0
 41
0.0
 46
0.0
 71
     1
 72
     1
  1
\A1;80
  7
ＭＳ ゴシック
 73
     1
 44
1.0
  0
POINT
  5
2476
330
246D
100
AcDbEntity
  8
Defpoints
 62
     0
100
AcDbPoint
 10
291.2691137649472
 20
406.7606300747938
 30
0.0
  0
POINT
  5
2477
330
246D
100
AcDbEntity
  8
Defpoints
 62
     0
100
AcDbPoint
 10
371.2691137649472
 20
406.7606300747941
 30
0.0
  0
POINT
  5
2478
330
246D
100
AcDbEntity
  8
Defpoints
 62
     0
100
AcDbPoint
 10
371.2691137649472
 20
427.9270094163236
 30
0.0
  0
ENDBLK
  5
246F
330
246D
100
AcDbEntity
  8
0
100
AcDbBlockEnd
  0
BLOCK
  5
247A
330
2479
100
AcDbEntity
  8
0
100
AcDbBlockBegin
  2
*D101
 70
     1
 10
0.0
 20
0.0
 30
0.0
  3
*D101
  1
*D102
  0
LINE
  5
247C
330
2479
100
AcDbEntity
  8
DIM
 62
     0
 48
0.05
370
    -2
100
AcDbLine
 10
66.26911376494718
 20
340.0281967023471
 30
0.0
 11
50.36277527918105
 21
340.0281967023471
 31
0.0
  0
LINE
  5
247D
330
2479
100
AcDbEntity
  8
DIM
 62
     0
 48
0.05
370
    -2
100
AcDbLine
 10
66.26911376494718
 20
346.028196702347
 30
0.0
 11
50.36277527918105
 21
346.028196702347
 31
0.0
  0
LINE
  5
247E
330
2479
100
AcDbEntity
  8
DIM
 62
     0
 48
0.05
370
    -2
100
AcDbLine
 10
50.36277527918105
 20
343.0281967023471
 30
0.0
 11
50.36277527918105
 21
343.028196702347
 31
0.0
  0
INSERT
  5
247F
330
2479
100
AcDbEntity
  8
DIM
 62
     0
370
    -2
100
AcDbBlockReference
  2
_DOT
 10
50.36277527918105
 20
340.0281967023471
 30
0.0
 41
3.0
 42
3.0
 43
3.0
 50
270.0
  0
INSERT
  5
2480
330
2479
100
AcDbEntity
  8
DIM
 62
     0
370
    -2
100
AcDbBlockReference
  2
_DOT
 10
50.36277527918105
 20
346.028196702347
 30
0.0
 41
3.0
 42
3.0
 43
3.0
 50
90.0
  0
MTEXT
  5
2481
330
2479
100
AcDbEntity
  8
DIM
 62
     0
 48
0.05
100
AcDbMText
 10
43.86277527918105
 20
342.9861967023471
 30
0.0
 40
7.0
 41
0.0
 46
0.0
 71
     5
 72
     1
  1
\A1;6
  7
ＭＳ ゴシック
 11
0.0
 21
1.0
 31
0.0
 73
     1
 44
1.0
  0
POINT
  5
2482
330
2479
100
AcDbEntity
  8
Defpoints
 62
     0
100
AcDbPoint
 10
76.26911376494718
 20
340.0281967023471
 30
0.0
  0
POINT
  5
2483
330
2479
100
AcDbEntity
  8
Defpoints
 62
     0
100
AcDbPoint
 10
76.26911376494718
 20
346.028196702347
 30
0.0
  0
POINT
  5
2484
330
2479
100
AcDbEntity
  8
Defpoints
 62
     0
100
AcDbPoint
 10
50.36277527918105
 20
346.028196702347
 30
0.0
  0
ENDBLK
  5
247B
330
2479
100
AcDbEntity
  8
0
100
AcDbBlockEnd
  0
BLOCK
  5
2486
330
2485
100
AcDbEntity
  8
0
100
AcDbBlockBegin
  2
*D102
 70
     1
 10
0.0
 20
0.0
 30
0.0
  3
*D102
  1
*D103
  0
LINE
  5
2488
330
2485
100
AcDbEntity
  8
DIM
 62
     0
 48
0.05
370
    -2
100
AcDbLine
 10
416.2691137649472
 20
388.028196702347
 30
0.0
 11
471.7184831982372
 21
388.028196702347
 31
0.0
  0
LINE
  5
2489
330
2485
100
AcDbEntity
  8
DIM
 62
     0
 48
0.05
370
    -2
100
AcDbLine
 10
416.2691137649472
 20
340.0281967023471
 30
0.0
 11
471.7184831982372
 21
340.0281967023471
 31
0.0
  0
LINE
  5
248A
330
2485
100
AcDbEntity
  8
DIM
 62
     0
 48
0.05
370
    -2
100
AcDbLine
 10
471.7184831982372
 20
385.028196702347
 30
0.0
 11
471.7184831982372
 21
343.0281967023471
 31
0.0
  0
INSERT
  5
248B
330
2485
100
AcDbEntity
  8
DIM
 62
     0
370
    -2
100
AcDbBlockReference
  2
_DOT
 10
471.7184831982372
 20
388.028196702347
 30
0.0
 41
3.0
 42
3.0
 43
3.0
 50
90.0
  0
INSERT
  5
248C
330
2485
100
AcDbEntity
  8
DIM
 62
     0
370
    -2
100
AcDbBlockReference
  2
_DOT
 10
471.7184831982372
 20
340.0281967023471
 30
0.0
 41
3.0
 42
3.0
 43
3.0
 50
270.0
  0
MTEXT
  5
248D
330
2485
100
AcDbEntity
  8
DIM
 62
     0
 48
0.05
100
AcDbMText
 10
465.2184831982372
 20
364.0281967023471
 30
0.0
 40
7.0
 41
0.0
 46
0.0
 71
     5
 72
     1
  1
\A1;48
  7
ＭＳ ゴシック
 11
0.0
 21
1.0
 31
0.0
 73
     1
 44
1.0
  0
POINT
  5
248E
330
2485
100
AcDbEntity
  8
Defpoints
 62
     0
100
AcDbPoint
 10
406.2691137649472
 20
388.028196702347
 30
0.0
  0
POINT
  5
248F
330
2485
100
AcDbEntity
  8
Defpoints
 62
     0
100
AcDbPoint
 10
406.2691137649472
 20
340.0281967023471
 30
0.0
  0
POINT
  5
2490
330
2485
100
AcDbEntity
  8
Defpoints
 62
     0
100
AcDbPoint
 10
471.7184831982372
 20
340.0281967023471
 30
0.0
  0
ENDBLK
  5
2487
330
2485
100
AcDbEntity
  8
0
100
AcDbBlockEnd
  0
BLOCK
  5
2496
330
2495
100
AcDbEntity
  8
0
100
AcDbBlockBegin
  2
*D103
 70
     1
 10
0.0
 20
0.0
 30
0.0
  3
*D103
  1
*D104
  0
LINE
  5
2498
330
2495
100
AcDbEntity
  8
DIM
 62
     0
 48
0.05
370
    -2
100
AcDbLine
 10
1122.826996896483
 20
245.2965561876848
 30
0.0
 11
1122.826996896483
 21
207.6109941094868
 31
0.0
  0
LINE
  5
2499
330
2495
100
AcDbEntity
  8
DIM
 62
     0
 48
0.05
370
    -2
100
AcDbLine
 10
792.8269968964833
 20
245.2965561876848
 30
0.0
 11
792.8269968964833
 21
207.6109941094868
 31
0.0
  0
LINE
  5
249A
330
2495
100
AcDbEntity
  8
DIM
 62
     0
 48
0.05
370
    -2
100
AcDbLine
 10
1119.826996896483
 20
207.6109941094868
 30
0.0
 11
795.8269968964833
 21
207.6109941094868
 31
0.0
  0
INSERT
  5
249B
330
2495
100
AcDbEntity
  8
DIM
 62
     0
370
    -2
100
AcDbBlockReference
  2
_DOT
 10
1122.826996896483
 20
207.6109941094868
 30
0.0
 41
3.0
 42
3.0
 43
3.0
  0
INSERT
  5
249C
330
2495
100
AcDbEntity
  8
DIM
 62
     0
370
    -2
100
AcDbBlockReference
  2
_DOT
 10
792.8269968964833
 20
207.6109941094868
 30
0.0
 41
3.0
 42
3.0
 43
3.0
 50
180.0
  0
MTEXT
  5
249D
330
2495
100
AcDbEntity
  8
DIM
 62
     0
 48
0.05
100
AcDbMText
 10
957.8269968964833
 20
214.1109941094868
 30
0.0
 40
7.0
 41
0.0
 46
0.0
 71
     5
 72
     1
  1
\A1;330
  7
ＭＳ ゴシック
 73
     1
 44
1.0
  0
POINT
  5
249E
330
2495
100
AcDbEntity
  8
Defpoints
 62
     0
100
AcDbPoint
 10
1122.826996896483
 20
255.2965561876848
 30
0.0
  0
POINT
  5
249F
330
2495
100
AcDbEntity
  8
Defpoints
 62
     0
100
AcDbPoint
 10
792.8269968964833
 20
255.2965561876848
 30
0.0
  0
POINT
  5
24A0
330
2495
100
AcDbEntity
  8
Defpoints
 62
     0
100
AcDbPoint
 10
792.8269968964833
 20
207.6109941094868
 30
0.0
  0
ENDBLK
  5
2497
330
2495
100
AcDbEntity
  8
0
100
AcDbBlockEnd
  0
BLOCK
  5
251D
330
251C
100
AcDbEntity
  8
0
100
AcDbBlockBegin
  2
*D104
 70
     1
 10
0.0
 20
0.0
 30
0.0
  3
*D104
  1
*D103
  0
LINE
  5
251E
330
251C
100
AcDbEntity
  8
DIM
 62
     0
 48
0.05
370
    -2
100
AcDbLine
 10
10.0
 20
49.49999999999989
 30
0.0
 11
65.44936943329003
 21
49.49999999999988
 31
0.0
  0
LINE
  5
251F
330
251C
100
AcDbEntity
  8
DIM
 62
     0
 48
0.05
370
    -2
100
AcDbLine
 10
10.0
 20
1.499999999999999
 30
0.0
 11
65.44936943329003
 21
1.499999999999993
 31
0.0
  0
LINE
  5
2520
330
251C
100
AcDbEntity
  8
DIM
 62
     0
 48
0.05
370
    -2
100
AcDbLine
 10
65.44936943329003
 20
46.49999999999988
 30
0.0
 11
65.44936943329003
 21
4.499999999999993
 31
0.0
  0
INSERT
  5
2521
330
251C
100
AcDbEntity
  8
DIM
 62
     0
370
    -2
100
AcDbBlockReference
  2
_DOT
 10
65.44936943329003
 20
49.49999999999988
 30
0.0
 41
3.0
 42
3.0
 43
3.0
 50
90.0
  0
INSERT
  5
2522
330
251C
100
AcDbEntity
  8
DIM
 62
     0
370
    -2
100
AcDbBlockReference
  2
_DOT
 10
65.44936943329003
 20
1.499999999999993
 30
0.0
 41
3.0
 42
3.0
 43
3.0
 50
270.0
  0
MTEXT
  5
2523
330
251C
100
AcDbEntity
  8
DIM
 62
     0
 48
0.05
100
AcDbMText
 10
58.94936943329003
 20
25.5
 30
0.0
 40
7.0
 41
0.0
 46
0.0
 71
     5
 72
     1
  1
\A1;48
  7
ＭＳ ゴシック
 11
0.0
 21
1.0
 31
0.0
 73
     1
 44
1.0
  0
POINT
  5
2524
330
251C
100
AcDbEntity
  8
Defpoints
 62
     0
100
AcDbPoint
 10
0.0
 20
49.49999999999989
 30
0.0
  0
POINT
  5
2525
330
251C
100
AcDbEntity
  8
Defpoints
 62
     0
100
AcDbPoint
 10
0.0
 20
1.5
 30
0.0
  0
POINT
  5
2526
330
251C
100
AcDbEntity
  8
Defpoints
 62
     0
100
AcDbPoint
 10
65.44936943329003
 20
1.499999999999996
 30
0.0
  0
ENDBLK
  5
2527
330
251C
100
AcDbEntity
  8
0
100
AcDbBlockEnd
  0
BLOCK
  5
252F
330
252E
100
AcDbEntity
  8
0
100
AcDbBlockBegin
  2
*D105
 70
     1
 10
0.0
 20
0.0
 30
0.0
  3
*D105
  1
*D107
  0
LINE
  5
2531
330
252E
100
AcDbEntity
  8
DIM
 62
     0
 48
0.05
370
    -2
100
AcDbLine
 10
495.3084441674457
 20
560.3203797663108
 30
0.0
 11
495.3084441674457
 21
582.1030285714287
 31
0.0
  0
LINE
  5
2532
330
252E
100
AcDbEntity
  8
DIM
 62
     0
 48
0.05
370
    -2
100
AcDbLine
 10
543.3084441674456
 20
560.3203797663108
 30
0.0
 11
543.3084441674456
 21
582.1030285714287
 31
0.0
  0
LINE
  5
2533
330
252E
100
AcDbEntity
  8
DIM
 62
     0
 48
0.05
370
    -2
100
AcDbLine
 10
498.3084441674457
 20
582.1030285714287
 30
0.0
 11
540.3084441674456
 21
582.1030285714287
 31
0.0
  0
INSERT
  5
2534
330
252E
100
AcDbEntity
  8
DIM
 62
     0
370
    -2
100
AcDbBlockReference
  2
_DOT
 10
495.3084441674457
 20
582.1030285714287
 30
0.0
 41
3.0
 42
3.0
 43
3.0
 50
180.0
  0
INSERT
  5
2535
330
252E
100
AcDbEntity
  8
DIM
 62
     0
370
    -2
100
AcDbBlockReference
  2
_DOT
 10
543.3084441674456
 20
582.1030285714287
 30
0.0
 41
3.0
 42
3.0
 43
3.0
  0
MTEXT
  5
2536
330
252E
100
AcDbEntity
  8
DIM
 62
     0
 48
0.05
100
AcDbMText
 10
519.3084441674456
 20
588.6030285714287
 30
0.0
 40
7.0
 41
0.0
 46
0.0
 71
     5
 72
     1
  1
\A1;48
  7
ＭＳ ゴシック
 73
     1
 44
1.0
  0
POINT
  5
2537
330
252E
100
AcDbEntity
  8
Defpoints
 62
     0
100
AcDbPoint
 10
495.3084441674457
 20
550.3203797663108
 30
0.0
  0
POINT
  5
2538
330
252E
100
AcDbEntity
  8
Defpoints
 62
     0
100
AcDbPoint
 10
543.3084441674456
 20
550.3203797663108
 30
0.0
  0
POINT
  5
2539
330
252E
100
AcDbEntity
  8
Defpoints
 62
     0
100
AcDbPoint
 10
543.3084441674456
 20
582.1030285714287
 30
0.0
  0
ENDBLK
  5
2530
330
252E
100
AcDbEntity
  8
0
100
AcDbBlockEnd
  0
ENDSEC
  0
SECTION
  2
ENTITIES
  0
INSERT
  5
68C
330
A
100
AcDbEntity
  8
TEMPLATE
100
AcDbBlockReference
  2
block 2
 10
919.2743017702577
 20
8.373076514336368
 30
0.0
 41
0.3809999999999999
 42
0.3809999999999999
 43
0.3809999999999999
  0
INSERT
  5
1343
330
A
100
AcDbEntity
  8
TEMPLATE
100
AcDbBlockReference
  2
block 2
 10
2096.743470866468
 20
24.43532141229569
 30
0.0
 41
0.3809999999999999
 42
0.3809999999999999
 43
0.3809999999999999
  0
LINE
  5
20DF
330
A
100
AcDbEntity
  8
MODEL
100
AcDbLine
 10
406.2691137649471
 20
550.3203797663108
 30
0.0
 11
76.26911376494684
 21
550.3203797663108
 31
0.0
  0
LINE
  5
20E0
330
A
100
AcDbEntity
  8
MODEL
100
AcDbLine
 10
76.26911376494684
 20
550.3203797663108
 30
0.0
 11
76.26911376494684
 21
525.3203797663108
 31
0.0
  0
LINE
  5
20E1
330
A
100
AcDbEntity
  8
MODEL
100
AcDbLine
 10
406.2691137649471
 20
550.3203797663108
 30
0.0
 11
406.2691137649471
 21
525.3203797663108
 31
0.0
  0
LINE
  5
20E2
330
A
100
AcDbEntity
  8
MODEL
100
AcDbLine
 10
406.2691137649471
 20
525.3203797663108
 30
0.0
 11
76.26911376494684
 21
525.3203797663108
 31
0.0
  0
DIMENSION
  5
20E3
330
A
100
AcDbEntity
  8
DIM
100
AcDbDimension
  2
*D81
 10
406.2691137649471
 20
582.1030285714287
 30
0.0
 11
241.2691137649468
 21
582.1030285714287
 31
0.0
 70
   160
 71
     1
 42
330.0000000000003
 73
     0
 74
     0
 75
     0
 52
-90.0
  3
tfrom線あり
100
AcDbAlignedDimension
 13
76.26911376494684
 23
550.3203797663108
 33
0.0
 14
406.2691137649471
 24
550.3203797663108
 34
0.0
100
AcDbRotatedDimension
1001
ACAD
1000
DSTYLE
1002
{
1070
   340
1005
39
1002
}
  0
DIMENSION
  5
20E4
330
A
100
AcDbEntity
  8
DIM
100
AcDbDimension
  2
*D82
 10
566.9730576014797
 20
550.3203797663109
 30
0.0
 11
566.9730576014798
 21
537.8203797663108
 31
0.0
 70
   160
 71
     1
 42
25.0
 73
     0
 74
     0
 75
     0
 52
-270.0
  3
tfrom線あり
100
AcDbAlignedDimension
 13
542.7785509936347
 23
525.3203797663108
 33
0.0
 14
542.7785509936347
 24
550.3203797663108
 34
0.0
 50
90.0000000000002
100
AcDbRotatedDimension
1001
ACAD
1000
DSTYLE
1002
{
1070
   340
1005
39
1002
}
  0
LINE
  5
20E5
330
A
100
AcDbEntity
  8
MODEL
100
AcDbLine
 10
495.3084441674457
 20
525.3203797663108
 30
0.0
 11
495.3084441674457
 21
550.3203797663108
 31
0.0
  0
LINE
  5
20E6
330
A
100
AcDbEntity
  8
MODEL
100
AcDbLine
 10
501.3084441674457
 20
525.3203797663108
 30
0.0
 11
501.3084441674457
 21
550.3203797663108
 31
0.0
  0
LINE
  5
20E7
330
A
100
AcDbEntity
  8
MODEL
100
AcDbLine
 10
495.3084441674457
 20
525.3203797663108
 30
0.0
 11
501.3084441674457
 21
525.3203797663108
 31
0.0
  0
LINE
  5
20E8
330
A
100
AcDbEntity
  8
MODEL
100
AcDbLine
 10
495.3084441674457
 20
550.3203797663108
 30
0.0
 11
501.3084441674457
 21
550.3203797663108
 31
0.0
  0
LINE
  5
20E9
330
A
100
AcDbEntity
  8
MODEL
100
AcDbLine
 10
501.3084441674457
 20
525.3203797663108
 30
0.0
 11
537.3084441674455
 21
525.3203797663108
 31
0.0
  0
LINE
  5
20EA
330
A
100
AcDbEntity
  8
MODEL
100
AcDbLine
 10
501.3084441674457
 20
550.3203797663108
 30
0.0
 11
537.3084441674455
 21
550.3203797663108
 31
0.0
  0
LINE
  5
20EB
330
A
100
AcDbEntity
  8
MODEL
100
AcDbLine
 10
543.3084441674457
 20
550.3203797663108
 30
0.0
 11
543.3084441674457
 21
525.3203797663108
 31
0.0
  0
LINE
  5
20EC
330
A
100
AcDbEntity
  8
MODEL
100
AcDbLine
 10
537.3084441674455
 20
525.3203797663108
 30
0.0
 11
537.3084441674455
 21
550.3203797663108
 31
0.0
  0
LINE
  5
20ED
330
A
100
AcDbEntity
  8
MODEL
100
AcDbLine
 10
537.3084441674455
 20
550.3203797663108
 30
0.0
 11
543.3084441674457
 21
550.3203797663108
 31
0.0
  0
LINE
  5
20EE
330
A
100
AcDbEntity
  8
MODEL
100
AcDbLine
 10
543.3084441674457
 20
525.3203797663108
 30
0.0
 11
537.3084441674455
 21
525.3203797663108
 31
0.0
  0
LWPOLYLINE
  5
21B9
330
A
100
AcDbEntity
  8
TEMPLATE
390
1D
100
AcDbPolyline
 90
        5
 70
   128
 43
0.0
 10
606.6606433641746
 20
869.1440020519283
 10
21.66064336417458
 20
869.1440020519283
 10
21.66064336417458
 20
29.14400205192848
 10
606.6606433641746
 20
29.14400205192848
 10
606.6606433641746
 20
869.1440020519283
  0
LWPOLYLINE
  5
21BA
330
A
100
AcDbEntity
  8
BORDER
100
AcDbPolyline
 90
        4
 70
     1
 43
0.0
 10
0.0
 20
0.0
 10
0.0
 20
891.0
 10
630.0
 20
891.0
 10
630.0
 20
0.0
  0
MTEXT
  5
21BB
330
A
100
AcDbEntity
  8
TEMPLATE
390
1D
100
AcDbMText
 10
23.76064336431909
 20
103.1195254894285
 30
0.0
 40
4.886523437499998
 41
0.0
 46
0.0
 71
     1
 72
     1
  1
品名
  7
ＭＳ ゴシック
 73
     1
 44
0.7828267384257843
  0
MTEXT
  5
21BC
330
A
100
AcDbEntity
  8
TEMPLATE
390
1D
100
AcDbMText
 10
23.76064336431909
 20
77.6195254894284
 30
0.0
 40
4.886523437499998
 41
0.0
 46
0.0
 71
     1
 72
     1
  1
仕様
  7
ＭＳ ゴシック
 73
     1
 44
0.7828267384257843
  0
LINE
  5
21BD
330
A
100
AcDbEntity
  8
TEMPLATE
390
1D
100
AcDbLine
 10
606.6606433641746
 20
80.14400205192854
 30
0.0
 11
21.66064336417458
 21
80.14400205192854
 31
0.0
  0
LINE
  5
21BE
330
A
100
AcDbEntity
  8
TEMPLATE
390
1D
100
AcDbLine
 10
606.6606433641746
 20
105.6440020519285
 30
0.0
 11
21.66064336417458
 21
105.6440020519285
 31
0.0
  0
LINE
  5
21BF
330
A
100
AcDbEntity
  8
TEMPLATE
390
1D
100
AcDbLine
 10
606.6606433643196
 20
54.64400205192847
 30
0.0
 11
380.7606433643191
 21
54.64400205192847
 31
0.0
  0
MTEXT
  5
21C0
330
A
100
AcDbEntity
  8
TEMPLATE
390
1D
100
AcDbMText
 10
389.7220652399974
 20
45.67088370993605
 30
0.0
 40
7.329785156250001
 41
0.0
 46
0.0
 71
     1
 72
     1
  1
大洋金物株式会社 ティーフォルム事業部
  7
ＭＳ ゴシック
 73
     1
 44
0.7828267384257843
  0
MTEXT
  5
21C1
330
A
100
AcDbEntity
  8
TEMPLATE
390
1D
100
AcDbMText
 10
549.3606433643972
 20
69.04478720817846
 30
0.0
 40
7.329785156250001
 41
0.0
 46
7.329785156250001
 71
     1
 72
     1
  1
{1:3}
  7
ＭＳ ゴシック
 73
     1
 44
0.7828267384257843
1001
ACAD
1000
ACAD_MTEXT_DEFINED_HEIGHT_BEGIN
1070
    46
1040
7.329785156250001
1000
ACAD_MTEXT_DEFINED_HEIGHT_END
  0
MTEXT
  5
21C2
330
A
100
AcDbEntity
  8
TEMPLATE
390
1D
100
AcDbMText
 10
533.4606433643971
 20
77.6195254894284
 30
0.0
 40
4.886523437499998
 41
0.0
 46
0.0
 71
     1
 72
     1
  1
縮尺
  7
ＭＳ ゴシック
 73
     1
 44
0.7828267384257843
  0
LINE
  5
21C3
330
A
100
AcDbEntity
  8
TEMPLATE
390
1D
100
AcDbLine
 10
531.3606433643972
 20
54.64400205192847
 30
0.0
 11
531.3606433643972
 21
80.14400205192854
 31
0.0
  0
MTEXT
  5
21C4
330
A
100
AcDbEntity
  8
TEMPLATE
390
1D
100
AcDbMText
 10
458.1606433643965
 20
77.6195254894284
 30
0.0
 40
4.886523437499998
 41
0.0
 46
0.0
 71
     1
 72
     1
  1
容量
  7
ＭＳ ゴシック
 73
     1
 44
0.7828267384257843
  0
LINE
  5
21C5
330
A
100
AcDbEntity
  8
TEMPLATE
390
1D
100
AcDbLine
 10
456.060643364397
 20
54.64400205192847
 30
0.0
 11
456.060643364397
 21
80.14400205192854
 31
0.0
  0
MTEXT
  5
21C6
330
A
100
AcDbEntity
  8
TEMPLATE
390
1D
100
AcDbMText
 10
382.8606433643972
 20
103.1195254894285
 30
0.0
 40
4.886523437499998
 41
0.0
 46
0.0
 71
     1
 72
     1
  1
品番
  7
ＭＳ ゴシック
 73
     1
 44
0.7828267384257843
  0
MTEXT
  5
21C7
330
A
100
AcDbEntity
  8
TEMPLATE
390
1D
100
AcDbMText
 10
382.8606433643972
 20
77.6195254894284
 30
0.0
 40
4.886523437499998
 41
0.0
 46
0.0
 71
     1
 72
     1
  1
重量
  7
ＭＳ ゴシック
 73
     1
 44
0.7828267384257843
  0
MTEXT
  5
21C8
330
A
100
AcDbEntity
  8
TEMPLATE
390
1D
100
AcDbMText
 10
398.7606433643969
 20
94.54478720817848
 30
0.0
 40
7.329785156250001
 41
0.0
 46
7.329785156250001
 71
     1
 72
     1
  1
{FRF74-2607}
  7
ＭＳ ゴシック
 73
     1
 44
0.7828267384257843
1001
ACAD
1000
ACAD_MTEXT_DEFINED_HEIGHT_BEGIN
1070
    46
1040
7.329785156250001
1000
ACAD_MTEXT_DEFINED_HEIGHT_END
  0
LINE
  5
21C9
330
A
100
AcDbEntity
  8
TEMPLATE
390
1D
100
AcDbLine
 10
380.7606433643969
 20
29.14400205192848
 30
0.0
 11
380.7606433643969
 21
105.6440020519285
 31
0.0
  0
MTEXT
  5
21CA
330
A
100
AcDbEntity
  8
TEMPLATE
390
1D
100
AcDbMText
 10
39.66064336431918
 20
94.54478720817848
 30
0.0
 40
7.329785156250001
 41
0.0
 46
12.900421875
 71
     1
 72
     1
  1
{タオルバー　-LANGBERGER-}
  7
ＭＳ ゴシック
 73
     1
 44
0.7828267384257843
1001
ACAD
1000
ACAD_MTEXT_DEFINED_HEIGHT_BEGIN
1070
    46
1040
12.900421875
1000
ACAD_MTEXT_DEFINED_HEIGHT_END
  0
INSERT
  5
21CB
330
A
100
AcDbEntity
  8
TEMPLATE
100
AcDbBlockReference
  2
名称未設定-1
 10
561.2252244265355
 20
7.784029726996148
 30
0.0
 41
0.2286
 42
0.2286
 43
0.2286
  0
MTEXT
  5
21CC
330
A
100
AcDbEntity
  8
TEMPLATE
390
1D
100
AcDbMText
 10
37.57630358281131
 20
68.04359280881856
 30
0.0
 40
7.329785156250001
 41
0.0
 46
12.39955322265625
 71
     1
 72
     1
  1
{クローム}
  7
ＭＳ ゴシック
 73
     1
 44
0.7828267384257843
1001
ACAD
1000
ACAD_MTEXT_DEFINED_HEIGHT_BEGIN
1070
    46
1040
12.39955322265625
1000
ACAD_MTEXT_DEFINED_HEIGHT_END
  0
MTEXT
  5
21CD
102
{ACAD_XDICTIONARY
360
21CE
102
}
330
A
100
AcDbEntity
  8
TEMPLATE
 48
0.05
100
AcDbMText
 10
22.48945270733384
 20
24.71826241870545
 30
0.0
 40
6.600000000000001
 41
0.0
 46
11.0
 71
     1
 72
     1
  1
{20170111N}
  7
ＭＳ ゴシック
 73
     1
 44
1.0
1001
ACAD
1000
ACAD_MTEXT_DEFINED_HEIGHT_BEGIN
1070
    46
1040
11.0
1000
ACAD_MTEXT_DEFINED_HEIGHT_END
  0
LINE
  5
224F
330
A
100
AcDbEntity
  8
HIDDEN
100
AcDbLine
 10
394.2691137649471
 20
525.3203797663108
 30
0.0
 11
394.2691137649471
 21
550.3203797663108
 31
0.0
  0
LINE
  5
2250
330
A
100
AcDbEntity
  8
HIDDEN
100
AcDbLine
 10
256.2691137649468
 20
525.3203797663108
 30
0.0
 11
256.2691137649468
 21
550.3203797663108
 31
0.0
  0
LINE
  5
23BA
330
A
100
AcDbEntity
  8
MODEL
100
AcDbLine
 10
256.2691137649472
 20
388.028196702347
 30
0.0
 11
256.2691137649472
 21
382.0281967023471
 31
0.0
  0
LINE
  5
23BB
330
A
100
AcDbEntity
  8
MODEL
100
AcDbLine
 10
256.2691137649472
 20
382.0281967023471
 30
0.0
 11
406.2691137649472
 21
382.0281967023471
 31
0.0
  0
LINE
  5
23BC
102
{ACAD_REACTORS
102
}
330
A
100
AcDbEntity
  8
MODEL
100
AcDbLine
 10
256.2691137649472
 20
388.028196702347
 30
0.0
 11
406.2691137649472
 21
388.028196702347
 31
0.0
  0
LINE
  5
23BD
330
A
100
AcDbEntity
  8
MODEL
100
AcDbLine
 10
406.2691137649472
 20
388.028196702347
 30
0.0
 11
406.2691137649472
 21
382.0281967023471
 31
0.0
  0
LINE
  5
23BE
330
A
100
AcDbEntity
  8
MODEL
100
AcDbLine
 10
394.2691137649472
 20
382.0281967023471
 30
0.0
 11
394.2691137649472
 21
346.028196702347
 31
0.0
  0
LINE
  5
23BF
330
A
100
AcDbEntity
  8
MODEL
100
AcDbLine
 10
406.2691137649472
 20
382.0281967023471
 30
0.0
 11
406.2691137649472
 21
346.028196702347
 31
0.0
  0
LINE
  5
23C0
330
A
100
AcDbEntity
  8
MODEL
100
AcDbLine
 10
394.2691137649472
 20
346.028196702347
 30
0.0
 11
406.2691137649472
 21
346.028196702347
 31
0.0
  0
LINE
  5
23C1
330
A
100
AcDbEntity
  8
MODEL
100
AcDbLine
 10
394.2691137649472
 20
382.0281967023471
 30
0.0
 11
406.2691137649472
 21
382.0281967023471
 31
0.0
  0
LINE
  5
23C2
102
{ACAD_REACTORS
330
2415
102
}
330
A
100
AcDbEntity
  8
MODEL
100
AcDbLine
 10
406.2691137649472
 20
346.028196702347
 30
0.0
 11
76.26911376494718
 21
346.028196702347
 31
0.0
  0
LINE
  5
23C3
102
{ACAD_REACTORS
102
}
330
A
100
AcDbEntity
  8
MODEL
100
AcDbLine
 10
406.2691137649472
 20
346.028196702347
 30
0.0
 11
406.2691137649472
 21
340.0281967023471
 31
0.0
  0
LINE
  5
23C4
102
{ACAD_REACTORS
330
2415
102
}
330
A
100
AcDbEntity
  8
MODEL
100
AcDbLine
 10
406.2691137649472
 20
340.0281967023471
 30
0.0
 11
76.26911376494718
 21
340.0281967023471
 31
0.0
  0
LINE
  5
23C5
330
A
100
AcDbEntity
  8
MODEL
100
AcDbLine
 10
76.26911376494718
 20
346.028196702347
 30
0.0
 11
76.26911376494718
 21
340.0281967023471
 31
0.0
  0
LINE
  5
23C6
330
A
100
AcDbEntity
  8
HIDDEN
 48
0.5
100
AcDbLine
 10
399.9346846583117
 20
385.5281967023469
 30
0.0
 11
399.3276782017333
 21
387.5281967023469
 31
0.0
  0
LINE
  5
23C7
330
A
100
AcDbEntity
  8
HIDDEN
 48
0.5
100
AcDbLine
 10
399.5809319920222
 20
385.528196702347
 30
0.0
 11
399.5809319920222
 21
387.5281967023471
 31
0.0
  0
LINE
  5
23C8
330
A
100
AcDbEntity
  8
HIDDEN
 48
0.5
100
AcDbLine
 10
399.0840041241186
 20
385.5281967023469
 30
0.0
 11
398.4769976675411
 21
387.5281967023469
 31
0.0
  0
LINE
  5
23C9
330
A
100
AcDbEntity
  8
HIDDEN
 48
0.5
100
AcDbLine
 10
400.4316125262148
 20
385.5281967023469
 30
0.0
 11
400.4316125262148
 21
387.5281967023469
 31
0.0
  0
LINE
  5
23CA
330
A
100
AcDbEntity
  8
HIDDEN
 48
0.5
100
AcDbLine
 10
401.2357603771984
 20
385.5281967023469
 30
0.0
 11
402.2180416480192
 21
387.5281967023469
 31
0.0
  0
LINE
  5
23CB
330
A
100
AcDbEntity
  8
HIDDEN
 48
0.5
100
AcDbLine
 10
401.714413226568
 20
385.528196702347
 30
0.0
 11
401.7614433888562
 21
385.528196702347
 31
0.0
  0
LINE
  5
23CC
330
A
100
AcDbEntity
  8
HIDDEN
 48
0.5
100
AcDbLine
 10
400.9572955378721
 20
385.528196702347
 30
0.0
 11
400.9572955378721
 21
387.5281967023471
 31
0.0
  0
LINE
  5
23CD
330
A
100
AcDbEntity
  8
HIDDEN
 48
0.5
100
AcDbLine
 10
401.7614433888562
 20
385.528196702347
 30
0.0
 11
402.7437246596778
 21
387.5281967023469
 31
0.0
  0
LINE
  5
23CE
330
A
100
AcDbEntity
  8
HIDDEN
 48
0.5
100
AcDbLine
 10
398.7767841410382
 20
385.528196702347
 30
0.0
 11
398.8238143033263
 21
385.528196702347
 31
0.0
  0
LINE
  5
23CF
330
A
100
AcDbEntity
  8
HIDDEN
 48
0.5
100
AcDbLine
 10
399.3024671526955
 20
385.528196702347
 30
0.0
 11
398.3201858818743
 21
387.5281967023471
 31
0.0
  0
LINE
  5
23D0
330
A
100
AcDbEntity
  8
HIDDEN
 48
0.5
100
AcDbLine
 10
398.7767841410382
 20
385.528196702347
 30
0.0
 11
397.794502870217
 21
387.5281967023471
 31
0.0
  0
LINE
  5
23D1
330
A
100
AcDbEntity
  8
HIDDEN
 48
0.5
100
AcDbLine
 10
400.6035428715827
 20
385.528196702347
 30
0.0
 11
401.2105493281601
 21
387.5281967023471
 31
0.0
  0
LINE
  5
23D2
330
A
100
AcDbEntity
  8
HIDDEN
 48
0.5
100
AcDbLine
 10
400.10661500368
 20
385.528196702347
 30
0.0
 11
400.10661500368
 21
387.5281967023471
 31
0.0
  0
LINE
  5
23D3
330
A
100
AcDbEntity
  8
HIDDEN
 48
0.5
100
AcDbLine
 10
401.4542234057749
 20
385.528196702347
 30
0.0
 11
402.0612298623537
 21
387.5281967023471
 31
0.0
  0
LINE
  5
23D4
330
A
100
AcDbEntity
  8
HIDDEN
 48
0.5
100
AcDbLine
 10
395.7691137649472
 20
387.0281967023469
 30
0.0
 11
404.7691137649476
 21
387.0281967023469
 31
0.0
  0
LINE
  5
23D5
330
A
100
AcDbEntity
  8
HIDDEN
 48
0.5
100
AcDbLine
 10
395.7691137649472
 20
387.5281967023471
 30
0.0
 11
404.7691137649476
 21
387.5281967023471
 31
0.0
  0
LINE
  5
23D6
330
A
100
AcDbEntity
  8
HIDDEN
 48
0.5
100
AcDbLine
 10
397.7691137649467
 20
385.0281967023471
 30
0.0
 11
402.7691137649467
 21
385.0281967023471
 31
0.0
  0
LINE
  5
23D7
330
A
100
AcDbEntity
  8
HIDDEN
 48
0.5
100
AcDbLine
 10
400.7691137649472
 20
385.5281967023469
 30
0.0
 11
400.7691137649472
 21
387.5281967023469
 31
0.0
  0
LINE
  5
23D8
330
A
100
AcDbEntity
  8
HIDDEN
 48
0.5
100
AcDbLine
 10
399.7691137649476
 20
385.5281967023469
 30
0.0
 11
399.7691137649476
 21
387.5281967023469
 31
0.0
  0
LINE
  5
23D9
330
A
100
AcDbEntity
  8
HIDDEN
 48
0.5
100
AcDbLine
 10
397.7691137649467
 20
342.5281967023471
 30
0.0
 11
402.7691137649467
 21
342.5281967023471
 31
0.0
  0
LINE
  5
23DA
330
A
100
AcDbEntity
  8
HIDDEN
 48
0.5
100
AcDbLine
 10
399.7691137649476
 20
385.5281967023469
 30
0.0
 11
400.7691137649472
 21
385.5281967023469
 31
0.0
  0
LINE
  5
23DB
330
A
100
AcDbEntity
  8
HIDDEN
 48
0.5
100
AcDbLine
 10
400.7691137649472
 20
385.5281967023469
 30
0.0
 11
401.714413226568
 21
385.5281967023469
 31
0.0
  0
LINE
  5
23DC
330
A
100
AcDbEntity
  8
HIDDEN
 48
0.5
100
AcDbLine
 10
401.714413226568
 20
385.5281967023469
 30
0.0
 11
402.8691137649475
 21
387.5281967023469
 31
0.0
  0
LINE
  5
23DD
330
A
100
AcDbEntity
  8
HIDDEN
 48
0.5
100
AcDbLine
 10
398.8238143033263
 20
385.528196702347
 30
0.0
 11
399.7691137649476
 21
385.528196702347
 31
0.0
  0
LINE
  5
23DE
330
A
100
AcDbEntity
  8
HIDDEN
 48
0.5
100
AcDbLine
 10
398.8238143033263
 20
385.528196702347
 30
0.0
 11
397.6691137649473
 21
387.5281967023471
 31
0.0
  0
LINE
  5
23DF
330
A
100
AcDbEntity
  8
HIDDEN
 48
0.5
100
AcDbLine
 10
404.8691137649471
 20
387.1281967023472
 30
0.0
 11
395.6691137649473
 21
387.1281967023472
 31
0.0
  0
LINE
  5
23E0
330
A
100
AcDbEntity
  8
HIDDEN
 48
0.25
100
AcDbLine
 10
371.2691137649472
 20
387.5031967023471
 30
0.0
 11
373.7691137649472
 21
387.5031967023471
 31
0.0
  0
LINE
  5
23E1
330
A
100
AcDbEntity
  8
HIDDEN
 48
0.25
100
AcDbLine
 10
368.7691137649472
 20
387.5031967023471
 30
0.0
 11
371.2691137649472
 21
387.5031967023471
 31
0.0
  0
LINE
  5
23E2
330
A
100
AcDbEntity
  8
HIDDEN
 48
0.25
100
AcDbLine
 10
291.2691137649472
 20
387.5031967023471
 30
0.0
 11
293.7691137649472
 21
387.5031967023471
 31
0.0
  0
LINE
  5
23E3
330
A
100
AcDbEntity
  8
HIDDEN
 48
0.25
100
AcDbLine
 10
288.7691137649472
 20
387.5031967023471
 30
0.0
 11
291.2691137649472
 21
387.5031967023471
 31
0.0
  0
LINE
  5
23E4
330
A
100
AcDbEntity
  8
HIDDEN
 48
0.25
100
AcDbLine
 10
371.2691137649472
 20
383.528196702347
 30
0.0
 11
373.7691137649472
 21
383.528196702347
 31
0.0
  0
LINE
  5
23E5
330
A
100
AcDbEntity
  8
HIDDEN
 48
0.25
100
AcDbLine
 10
368.7691137649472
 20
383.528196702347
 30
0.0
 11
371.2691137649472
 21
383.528196702347
 31
0.0
  0
LINE
  5
23E6
330
A
100
AcDbEntity
  8
HIDDEN
 48
0.25
100
AcDbLine
 10
291.2691137649472
 20
383.528196702347
 30
0.0
 11
293.7691137649472
 21
383.528196702347
 31
0.0
  0
LINE
  5
23E7
330
A
100
AcDbEntity
  8
HIDDEN
 48
0.25
100
AcDbLine
 10
288.7691137649472
 20
383.528196702347
 30
0.0
 11
291.2691137649472
 21
383.528196702347
 31
0.0
  0
LINE
  5
23E8
330
A
100
AcDbEntity
  8
HIDDEN
 48
0.5
100
AcDbLine
 10
400.2691137649467
 20
381.7281967023471
 30
0.0
 11
402.7691137649467
 21
381.7281967023471
 31
0.0
  0
LINE
  5
23E9
330
A
100
AcDbEntity
  8
HIDDEN
 48
0.5
100
AcDbLine
 10
397.7691137649467
 20
381.7281967023471
 30
0.0
 11
400.2691137649467
 21
381.7281967023471
 31
0.0
  0
LINE
  5
23EA
330
A
100
AcDbEntity
  8
HIDDEN
 48
0.5
100
AcDbLine
 10
400.2691137649467
 20
346.3281967023471
 30
0.0
 11
397.7691137649467
 21
346.3281967023471
 31
0.0
  0
LINE
  5
23EB
330
A
100
AcDbEntity
  8
HIDDEN
 48
0.5
100
AcDbLine
 10
402.7691137649467
 20
346.3281967023471
 30
0.0
 11
400.2691137649467
 21
346.3281967023471
 31
0.0
  0
LINE
  5
23EC
330
A
100
AcDbEntity
  8
MODEL
 48
0.5
100
AcDbLine
 10
398.1191137649471
 20
345.6531967023471
 30
0.0
 11
402.4191137649473
 21
345.6531967023471
 31
0.0
  0
LINE
  5
23ED
330
A
100
AcDbEntity
  8
HIDDEN
 48
0.5
100
AcDbLine
 10
398.1191137649471
 20
341.5281967023471
 30
0.0
 11
402.4191137649473
 21
341.5281967023471
 31
0.0
  0
LINE
  5
23EE
330
A
100
AcDbEntity
  8
HIDDEN
 48
0.5
100
AcDbLine
 10
395.7691137649472
 20
387.5281967023471
 30
0.0
 11
395.7691137649472
 21
387.0281967023469
 31
0.0
  0
LINE
  5
23EF
330
A
100
AcDbEntity
  8
HIDDEN
 48
0.5
100
AcDbLine
 10
404.7691137649476
 20
387.0281967023469
 30
0.0
 11
404.7691137649476
 21
387.5281967023471
 31
0.0
  0
LINE
  5
23F0
330
A
100
AcDbEntity
  8
HIDDEN
 48
0.5
100
AcDbLine
 10
395.7691137649472
 20
387.0281967023469
 30
0.0
 11
397.7691137649467
 21
385.0281967023471
 31
0.0
  0
LINE
  5
23F1
330
A
100
AcDbEntity
  8
HIDDEN
 48
0.5
100
AcDbLine
 10
402.7691137649467
 20
385.0281967023471
 30
0.0
 11
404.7691137649476
 21
387.0281967023469
 31
0.0
  0
LINE
  5
23F2
330
A
100
AcDbEntity
  8
HIDDEN
 48
0.5
100
AcDbLine
 10
397.7691137649467
 20
385.0281967023471
 30
0.0
 11
397.7691137649467
 21
342.5281967023471
 31
0.0
  0
LINE
  5
23F3
330
A
100
AcDbEntity
  8
HIDDEN
 48
0.5
100
AcDbLine
 10
402.7691137649467
 20
342.5281967023471
 30
0.0
 11
402.7691137649467
 21
385.0281967023471
 31
0.0
  0
LINE
  5
23F4
330
A
100
AcDbEntity
  8
HIDDEN
 48
0.5
100
AcDbLine
 10
404.8691137649471
 20
387.1281967023472
 30
0.0
 11
404.8691137649471
 21
388.028196702347
 31
0.0
  0
LINE
  5
23F5
330
A
100
AcDbEntity
  8
HIDDEN
 48
0.5
100
AcDbLine
 10
395.6691137649473
 20
388.028196702347
 30
0.0
 11
395.6691137649473
 21
387.1281967023472
 31
0.0
  0
LINE
  5
23F6
330
A
100
AcDbEntity
  8
HIDDEN
 48
0.5
100
AcDbLine
 10
395.6691137649473
 20
387.1281967023472
 30
0.0
 11
397.7691137649467
 21
385.0281967023471
 31
0.0
  0
LINE
  5
23F7
330
A
100
AcDbEntity
  8
HIDDEN
 48
0.5
100
AcDbLine
 10
402.7691137649467
 20
385.0281967023471
 30
0.0
 11
404.8691137649471
 21
387.1281967023472
 31
0.0
  0
LINE
  5
23F8
330
A
100
AcDbEntity
  8
HIDDEN
 48
0.5
100
AcDbLine
 10
402.7691137649467
 20
382.0281967023471
 30
0.0
 11
402.7691137649467
 21
385.0281967023471
 31
0.0
  0
LINE
  5
23F9
330
A
100
AcDbEntity
  8
HIDDEN
 48
0.5
100
AcDbLine
 10
397.7691137649467
 20
385.0281967023471
 30
0.0
 11
397.7691137649467
 21
382.0281967023471
 31
0.0
  0
LINE
  5
23FA
330
A
100
AcDbEntity
  8
HIDDEN
 48
0.25
100
AcDbLine
 10
368.2441137649471
 20
388.028196702347
 30
0.0
 11
368.7691137649472
 21
387.5031967023471
 31
0.0
  0
LINE
  5
23FB
330
A
100
AcDbEntity
  8
HIDDEN
 48
0.25
100
AcDbLine
 10
373.7691137649472
 20
387.5031967023471
 30
0.0
 11
374.2941137649473
 21
388.028196702347
 31
0.0
  0
LINE
  5
23FC
330
A
100
AcDbEntity
  8
HIDDEN
 48
0.25
100
AcDbLine
 10
288.2441137649471
 20
388.028196702347
 30
0.0
 11
288.7691137649472
 21
387.5031967023471
 31
0.0
  0
LINE
  5
23FD
330
A
100
AcDbEntity
  8
HIDDEN
 48
0.25
100
AcDbLine
 10
293.7691137649472
 20
387.5031967023471
 30
0.0
 11
294.2941137649473
 21
388.028196702347
 31
0.0
  0
LINE
  5
23FE
330
A
100
AcDbEntity
  8
HIDDEN
 48
0.25
100
AcDbLine
 10
368.7691137649472
 20
387.5031967023471
 30
0.0
 11
368.7691137649472
 21
383.528196702347
 31
0.0
  0
LINE
  5
23FF
330
A
100
AcDbEntity
  8
HIDDEN
 48
0.25
100
AcDbLine
 10
373.7691137649472
 20
383.528196702347
 30
0.0
 11
373.7691137649472
 21
387.5031967023471
 31
0.0
  0
LINE
  5
2400
330
A
100
AcDbEntity
  8
HIDDEN
 48
0.25
100
AcDbLine
 10
368.7691137649472
 20
383.528196702347
 30
0.0
 11
371.2691137649472
 21
383.087379250576
 31
0.0
  0
LINE
  5
2401
330
A
100
AcDbEntity
  8
HIDDEN
 48
0.25
100
AcDbLine
 10
371.2691137649472
 20
383.087379250576
 30
0.0
 11
373.7691137649472
 21
383.528196702347
 31
0.0
  0
LINE
  5
2402
330
A
100
AcDbEntity
  8
HIDDEN
 48
0.25
100
AcDbLine
 10
288.7691137649472
 20
387.5031967023471
 30
0.0
 11
288.7691137649472
 21
383.528196702347
 31
0.0
  0
LINE
  5
2403
330
A
100
AcDbEntity
  8
HIDDEN
 48
0.25
100
AcDbLine
 10
293.7691137649472
 20
383.528196702347
 30
0.0
 11
293.7691137649472
 21
387.5031967023471
 31
0.0
  0
LINE
  5
2404
330
A
100
AcDbEntity
  8
HIDDEN
 48
0.25
100
AcDbLine
 10
288.7691137649472
 20
383.528196702347
 30
0.0
 11
291.2691137649472
 21
383.087379250576
 31
0.0
  0
LINE
  5
2405
330
A
100
AcDbEntity
  8
HIDDEN
 48
0.25
100
AcDbLine
 10
291.2691137649472
 20
383.087379250576
 30
0.0
 11
293.7691137649472
 21
383.528196702347
 31
0.0
  0
LINE
  5
2406
330
A
100
AcDbEntity
  8
HIDDEN
 48
0.5
100
AcDbLine
 10
397.4691137649475
 20
382.0281967023471
 30
0.0
 11
397.7691137649467
 21
381.7281967023471
 31
0.0
  0
LINE
  5
2407
330
A
100
AcDbEntity
  8
HIDDEN
 48
0.5
100
AcDbLine
 10
402.7691137649467
 20
381.7281967023471
 30
0.0
 11
403.0691137649474
 21
382.0281967023471
 31
0.0
  0
LINE
  5
2408
330
A
100
AcDbEntity
  8
HIDDEN
 48
0.5
100
AcDbLine
 10
403.0691137649474
 20
346.028196702347
 30
0.0
 11
402.7691137649467
 21
346.3281967023471
 31
0.0
  0
LINE
  5
2409
330
A
100
AcDbEntity
  8
HIDDEN
 48
0.5
100
AcDbLine
 10
397.7691137649467
 20
346.3281967023471
 30
0.0
 11
397.4691137649475
 21
346.028196702347
 31
0.0
  0
LINE
  5
240A
330
A
100
AcDbEntity
  8
MODEL
 48
0.5
100
AcDbLine
 10
397.7441137649475
 20
346.028196702347
 30
0.0
 11
398.1191137649471
 21
345.6531967023471
 31
0.0
  0
LINE
  5
240B
330
A
100
AcDbEntity
  8
MODEL
 48
0.5
100
AcDbLine
 10
402.4191137649473
 20
345.6531967023471
 30
0.0
 11
402.7941137649473
 21
346.028196702347
 31
0.0
  0
LINE
  5
240C
330
A
100
AcDbEntity
  8
HIDDEN
 48
0.5
100
AcDbLine
 10
398.1191137649471
 20
345.6531967023471
 30
0.0
 11
398.1191137649471
 21
341.5281967023471
 31
0.0
  0
LINE
  5
240D
330
A
100
AcDbEntity
  8
HIDDEN
 48
0.5
100
AcDbLine
 10
402.4191137649473
 20
341.5281967023471
 30
0.0
 11
402.4191137649473
 21
345.6531967023471
 31
0.0
  0
LINE
  5
240E
330
A
100
AcDbEntity
  8
HIDDEN
 48
0.5
100
AcDbLine
 10
398.1191137649471
 20
341.5281967023471
 30
0.0
 11
400.2691137649467
 21
341.1490936938238
 31
0.0
  0
LINE
  5
240F
330
A
100
AcDbEntity
  8
HIDDEN
 48
0.5
100
AcDbLine
 10
400.2691137649467
 20
341.1490936938238
 30
0.0
 11
402.4191137649473
 21
341.5281967023471
 31
0.0
  0
DIMENSION
  5
2410
330
A
100
AcDbEntity
  8
DIM
100
AcDbDimension
  2
*D98
 10
406.2691137649472
 20
443.6846896526308
 30
0.0
 11
331.2691137649467
 21
443.6846896526308
 31
0.0
 70
   160
 71
     1
 42
150.0
 73
     0
 74
     0
 75
     0
  3
tfrom線あり
100
AcDbAlignedDimension
 13
256.2691137649472
 23
388.605646456124
 33
0.0
 14
406.2691137649472
 24
388.6056464561245
 34
0.0
 50
0.00000000000019
100
AcDbRotatedDimension
1001
ACAD
1000
DSTYLE
1002
{
1070
   340
1005
39
1002
}
  0
DIMENSION
  5
2411
330
A
100
AcDbEntity
  8
DIM
100
AcDbDimension
  2
*D99
 10
229.6169592885594
 20
388.0281967023474
 30
0.0
 11
229.6169592885594
 21
385.0281967023475
 31
0.0
 70
   160
 71
     1
 42
5.999999999999886
 73
     0
 74
     0
 75
     0
 52
-270.0
  3
tfrom線あり
100
AcDbAlignedDimension
 13
256.2691137649472
 23
382.0281967023476
 33
0.0
 14
256.2691137649472
 24
388.0281967023475
 34
0.0
 50
90.0000000000002
100
AcDbRotatedDimension
1001
ACAD
1000
DSTYLE
1002
{
1070
   340
1005
39
1002
}
  0
DIMENSION
  5
2412
330
A
100
AcDbEntity
  8
DIM
100
AcDbDimension
  2
*D100
 10
371.2691137649472
 20
427.9270094163236
 30
0.0
 11
331.2691137649472
 21
427.9270094163236
 31
0.0
 70
   160
 71
     1
 42
80.0
 73
     0
 74
     0
 75
     0
  3
tfrom線あり
100
AcDbAlignedDimension
 13
291.2691137649472
 23
406.7606300747938
 33
0.0
 14
371.2691137649472
 24
406.7606300747941
 34
0.0
 50
0.0000000000001018
100
AcDbRotatedDimension
1001
ACAD
1000
DSTYLE
1002
{
1070
   340
1005
39
1002
}
  0
DIMENSION
  5
2413
102
{ACAD_REACTORS
330
2415
102
}
102
{ACAD_XDICTIONARY
360
2414
102
}
330
A
100
AcDbEntity
  8
DIM
 48
0.05
100
AcDbDimension
  2
*D101
 10
50.36277527918105
 20
346.028196702347
 30
0.0
 11
50.36277527918105
 21
342.9861967023471
 31
0.0
 70
   160
 71
     5
 42
5.999999999999943
 73
     0
 74
     0
 75
     0
  3
tfrom線あり
100
AcDbAlignedDimension
 13
76.26911376494718
 23
340.0281967023471
 33
0.0
 14
76.26911376494718
 24
346.028196702347
 34
0.0
 50
90.0
100
AcDbRotatedDimension
  0
LINE
  5
241B
330
A
100
AcDbEntity
  8
MODEL
 48
0.05
100
AcDbLine
 10
289.1446709387697
 20
388.028196702347
 30
0.0
 11
289.1446709387697
 21
401.028196702347
 31
0.0
  0
LINE
  5
241C
330
A
100
AcDbEntity
  8
MODEL
 48
0.05
100
AcDbLine
 10
293.3935565911249
 20
388.028196702347
 30
0.0
 11
293.3935565911249
 21
401.028196702347
 31
0.0
  0
LWPOLYLINE
  5
241D
330
A
100
AcDbEntity
  8
MODEL
 48
0.05
100
AcDbPolyline
 90
        4
 70
     1
 43
0.0
 10
286.5692058491087
 20
401.028196702347
 10
286.5692058491087
 20
402.1788827617469
 10
295.9690216807858
 20
402.1788827617469
 10
295.9690216807858
 20
401.028196702347
  0
LINE
  5
241E
330
A
100
AcDbEntity
  8
MODEL
 48
0.05
100
AcDbLine
 10
288.0759798070646
 20
402.1788827617469
 30
0.0
 11
288.0759798070646
 21
404.9048293529332
 31
0.0
  0
LINE
  5
241F
330
A
100
AcDbEntity
  8
MODEL
 48
0.05
100
AcDbLine
 10
288.0759798070646
 20
404.9048293529332
 30
0.0
 11
291.2691137649474
 21
404.9048293529332
 31
0.0
  0
LINE
  5
2420
330
A
100
AcDbEntity
  8
MODEL
 48
0.05
100
AcDbLine
 10
288.9689623110739
 20
404.9048293529332
 30
0.0
 11
288.9689623110739
 21
402.1788827617469
 31
0.0
  0
LINE
  5
2421
330
A
100
AcDbEntity
  8
MODEL
 48
0.05
100
AcDbLine
 10
294.4622477228299
 20
402.1788827617469
 30
0.0
 11
294.4622477228299
 21
404.9048293529332
 31
0.0
  0
LINE
  5
2422
330
A
100
AcDbEntity
  8
MODEL
 48
0.05
100
AcDbLine
 10
293.5692652188206
 20
404.9048293529332
 30
0.0
 11
293.5692652188206
 21
402.1788827617469
 31
0.0
  0
LINE
  5
2423
330
A
100
AcDbEntity
  8
MODEL
 48
0.05
100
AcDbLine
 10
294.4622477228299
 20
404.9048293529332
 30
0.0
 11
291.2691137649474
 21
404.9048293529332
 31
0.0
  0
LINE
  5
2424
330
A
100
AcDbEntity
  8
MODEL
 48
0.05
100
AcDbLine
 10
289.1446709387697
 20
405.7102174809336
 30
0.0
 11
291.2691137649474
 21
405.7102174809336
 31
0.0
  0
LINE
  5
2425
330
A
100
AcDbEntity
  8
MODEL
 48
0.05
100
AcDbLine
 10
289.1446709387697
 20
404.9048293529332
 30
0.0
 11
289.1446709387697
 21
405.7102174809336
 31
0.0
  0
LINE
  5
2426
330
A
100
AcDbEntity
  8
MODEL
 48
0.05
100
AcDbLine
 10
289.3458588003734
 20
404.9048293529332
 30
0.0
 11
289.3458588003734
 21
405.9000636813229
 31
0.0
  0
LINE
  5
2427
330
A
100
AcDbEntity
  8
MODEL
 48
0.05
100
AcDbLine
 10
289.1446709387697
 20
405.7102174809336
 30
0.0
 11
289.3458588003734
 21
405.9000636813229
 31
0.0
  0
LINE
  5
2428
330
A
100
AcDbEntity
  8
MODEL
 48
0.05
100
AcDbLine
 10
289.3458588003734
 20
405.9000636813229
 30
0.0
 11
291.2691137649474
 21
405.9000636813229
 31
0.0
  0
LINE
  5
2429
330
A
100
AcDbEntity
  8
MODEL
 48
0.05
100
AcDbLine
 10
293.393556591125
 20
404.9048293529332
 30
0.0
 11
293.393556591125
 21
405.7102174809336
 31
0.0
  0
LINE
  5
242A
330
A
100
AcDbEntity
  8
MODEL
 48
0.05
100
AcDbLine
 10
293.393556591125
 20
405.7102174809336
 30
0.0
 11
293.1923687295211
 21
405.9000636813229
 31
0.0
  0
LINE
  5
242B
330
A
100
AcDbEntity
  8
MODEL
 48
0.05
100
AcDbLine
 10
293.1923687295211
 20
404.9048293529332
 30
0.0
 11
293.1923687295211
 21
405.9000636813229
 31
0.0
  0
LINE
  5
242C
330
A
100
AcDbEntity
  8
MODEL
 48
0.05
100
AcDbLine
 10
293.1923687295211
 20
405.9000636813229
 30
0.0
 11
291.2691137649474
 21
405.9000636813229
 31
0.0
  0
LINE
  5
242D
330
A
100
AcDbEntity
  8
MODEL
 48
0.05
100
AcDbLine
 10
293.393556591125
 20
405.7102174809336
 30
0.0
 11
291.2691137649474
 21
405.7102174809336
 31
0.0
  0
LINE
  5
242E
330
A
100
AcDbEntity
  8
MODEL
 48
0.05
100
AcDbLine
 10
288.2441137649471
 20
388.028196702347
 30
0.0
 11
288.2441137649471
 21
401.028196702347
 31
0.0
  0
LINE
  5
242F
330
A
100
AcDbEntity
  8
MODEL
 48
0.05
100
AcDbLine
 10
294.2941137649473
 20
388.028196702347
 30
0.0
 11
294.2941137649473
 21
401.028196702347
 31
0.0
  0
LINE
  5
2430
330
A
100
AcDbEntity
  8
MODEL
 48
0.05
100
AcDbLine
 10
369.1446709387697
 20
388.028196702347
 30
0.0
 11
369.1446709387697
 21
401.028196702347
 31
0.0
  0
LINE
  5
2431
330
A
100
AcDbEntity
  8
MODEL
 48
0.05
100
AcDbLine
 10
373.3935565911249
 20
388.028196702347
 30
0.0
 11
373.3935565911249
 21
401.028196702347
 31
0.0
  0
LWPOLYLINE
  5
2432
330
A
100
AcDbEntity
  8
MODEL
 48
0.05
100
AcDbPolyline
 90
        4
 70
     1
 43
0.0
 10
366.5692058491086
 20
401.028196702347
 10
366.5692058491086
 20
402.1788827617469
 10
375.9690216807858
 20
402.1788827617469
 10
375.9690216807858
 20
401.028196702347
  0
LINE
  5
2433
330
A
100
AcDbEntity
  8
MODEL
 48
0.05
100
AcDbLine
 10
368.0759798070646
 20
402.1788827617469
 30
0.0
 11
368.0759798070646
 21
404.9048293529332
 31
0.0
  0
LINE
  5
2434
330
A
100
AcDbEntity
  8
MODEL
 48
0.05
100
AcDbLine
 10
368.9689623110739
 20
404.9048293529332
 30
0.0
 11
368.9689623110739
 21
402.1788827617469
 31
0.0
  0
LINE
  5
2435
330
A
100
AcDbEntity
  8
MODEL
 48
0.05
100
AcDbLine
 10
368.0759798070646
 20
404.9048293529332
 30
0.0
 11
371.2691137649474
 21
404.9048293529332
 31
0.0
  0
LINE
  5
2436
330
A
100
AcDbEntity
  8
MODEL
 48
0.05
100
AcDbLine
 10
374.4622477228299
 20
402.1788827617469
 30
0.0
 11
374.4622477228299
 21
404.9048293529332
 31
0.0
  0
LINE
  5
2437
330
A
100
AcDbEntity
  8
MODEL
 48
0.05
100
AcDbLine
 10
373.5692652188206
 20
404.9048293529332
 30
0.0
 11
373.5692652188206
 21
402.1788827617469
 31
0.0
  0
LINE
  5
2438
330
A
100
AcDbEntity
  8
MODEL
 48
0.05
100
AcDbLine
 10
374.4622477228299
 20
404.9048293529332
 30
0.0
 11
371.2691137649474
 21
404.9048293529332
 31
0.0
  0
LINE
  5
2439
330
A
100
AcDbEntity
  8
MODEL
 48
0.05
100
AcDbLine
 10
369.1446709387697
 20
404.9048293529332
 30
0.0
 11
369.1446709387697
 21
405.7102174809336
 31
0.0
  0
LINE
  5
243A
330
A
100
AcDbEntity
  8
MODEL
 48
0.05
100
AcDbLine
 10
369.1446709387697
 20
405.7102174809336
 30
0.0
 11
369.3458588003734
 21
405.9000636813229
 31
0.0
  0
LINE
  5
243B
330
A
100
AcDbEntity
  8
MODEL
 48
0.05
100
AcDbLine
 10
369.3458588003734
 20
404.9048293529332
 30
0.0
 11
369.3458588003734
 21
405.9000636813229
 31
0.0
  0
LINE
  5
243C
330
A
100
AcDbEntity
  8
MODEL
 48
0.05
100
AcDbLine
 10
369.3458588003734
 20
405.9000636813229
 30
0.0
 11
371.2691137649474
 21
405.9000636813229
 31
0.0
  0
LINE
  5
243D
330
A
100
AcDbEntity
  8
MODEL
 48
0.05
100
AcDbLine
 10
369.1446709387697
 20
405.7102174809336
 30
0.0
 11
371.2691137649474
 21
405.7102174809336
 31
0.0
  0
LINE
  5
243E
330
A
100
AcDbEntity
  8
MODEL
 48
0.05
100
AcDbLine
 10
373.3935565911252
 20
404.9048293529332
 30
0.0
 11
373.3935565911252
 21
405.7102174809336
 31
0.0
  0
LINE
  5
243F
330
A
100
AcDbEntity
  8
MODEL
 48
0.05
100
AcDbLine
 10
373.3935565911252
 20
405.7102174809336
 30
0.0
 11
373.1923687295211
 21
405.9000636813229
 31
0.0
  0
LINE
  5
2440
330
A
100
AcDbEntity
  8
MODEL
 48
0.05
100
AcDbLine
 10
373.1923687295211
 20
404.9048293529332
 30
0.0
 11
373.1923687295211
 21
405.9000636813229
 31
0.0
  0
LINE
  5
2441
330
A
100
AcDbEntity
  8
MODEL
 48
0.05
100
AcDbLine
 10
373.1923687295211
 20
405.9000636813229
 30
0.0
 11
371.2691137649474
 21
405.9000636813229
 31
0.0
  0
LINE
  5
2442
330
A
100
AcDbEntity
  8
MODEL
 48
0.05
100
AcDbLine
 10
373.3935565911252
 20
405.7102174809336
 30
0.0
 11
371.2691137649474
 21
405.7102174809336
 31
0.0
  0
LINE
  5
2443
330
A
100
AcDbEntity
  8
MODEL
 48
0.05
100
AcDbLine
 10
368.2441137649471
 20
388.028196702347
 30
0.0
 11
368.2441137649471
 21
401.028196702347
 31
0.0
  0
LINE
  5
2444
330
A
100
AcDbEntity
  8
MODEL
 48
0.05
100
AcDbLine
 10
374.2941137649473
 20
388.028196702347
 30
0.0
 11
374.2941137649473
 21
401.028196702347
 31
0.0
  0
MTEXT
  5
24E9
330
A
100
AcDbEntity
  8
DIM
390
1D
100
AcDbMText
 10
449.1295833186164
 20
352.2276108099107
 30
0.0
 40
7.0
 41
0.0
 46
11.2
 71
     1
 72
     1
  1
{取付部対応パネル厚\fSegoe UI|b0|i0|c0|p0;\H1.6x; \fＭＳ ゴシック|b0|i0|c0|p0;\H0.639514x;～13mm}
  7
ＭＳ ゴシック
 73
     1
 44
0.7828267384257843
1001
ACAD
1000
ACAD_MTEXT_DEFINED_HEIGHT_BEGIN
1070
    46
1040
11.2
1000
ACAD_MTEXT_DEFINED_HEIGHT_END
  0
LINE
  5
24EB
330
A
100
AcDbEntity
  8
DIM
 48
0.05
100
AcDbLine
 10
291.051117721234
 20
397.2392933668664
 30
0.0
 11
238.9335302845437
 21
430.040572173175
 31
0.0
  0
LINE
  5
24EC
330
A
100
AcDbEntity
  8
DIM
 48
0.05
100
AcDbLine
 10
238.9335302845437
 20
430.040572173175
 30
0.0
 11
217.918593479314
 21
430.040572173175
 31
0.0
  0
MTEXT
  5
24ED
330
A
100
AcDbEntity
  8
DIM
390
1D
100
AcDbMText
 10
222.8549064738374
 20
439.5621201160686
 30
0.0
 40
7.0
 41
0.0
 46
10.00000047875
 71
     1
 72
     1
  1
{\H1.02322x;M6}
  7
ＭＳ ゴシック
 73
     1
 44
0.7828267384257843
1001
ACAD
1000
ACAD_MTEXT_DEFINED_HEIGHT_BEGIN
1070
    46
1040
10.00000047875
1000
ACAD_MTEXT_DEFINED_HEIGHT_END
  0
DIMENSION
  5
252B
330
A
100
AcDbEntity
  8
DIM
 48
0.05
100
AcDbDimension
  2
*D105
 10
543.3084441674456
 20
582.1030285714287
 30
0.0
 11
519.3084441674456
 21
582.1030285714287
 31
0.0
 70
   160
 71
     5
 42
47.99999999999989
 73
     0
 74
     0
 75
     0
 52
-270.0
  3
tfrom線あり
100
AcDbAlignedDimension
 13
495.3084441674457
 23
550.3203797663108
 33
0.0
 14
543.3084441674456
 24
550.3203797663108
 34
0.0
 50
180.0
100
AcDbRotatedDimension
  0
VIEWPORT
  5
349
330
B
100
AcDbEntity
 67
     1
  8
0
100
AcDbViewport
 10
202.5
 20
128.5
 30
0.0
 40
486.0
 41
308.4
 68
     1
 69
     1
 12
202.5
 22
128.5
 13
0.0
 23
0.0
 14
0.5
 24
0.5
 15
0.0
 25
0.0
 16
0.0
 26
0.0
 36
1.0
 17
0.0
 27
0.0
 37
0.0
 42
50.0
 43
0.0
 44
0.0
 45
308.4
 50
0.0
 51
0.0
 72
   100
 90
   557152
  1

281
     0
 71
     1
 74
     0
110
0.0
120
0.0
130
0.0
111
1.0
121
0.0
131
0.0
112
0.0
122
1.0
132
0.0
 79
     0
146
0.0
170
     0
 61
     5
348
26C
292
     1
282
     1
141
0.0
142
0.0
 63
   256
  0
VIEWPORT
  5
34A
330
B
100
AcDbEntity
 67
     1
  8
0
100
AcDbViewport
 10
202.5
 20
128.5
 30
0.0
 40
324.0
 41
205.6
 68
     2
 69
     2
 12
986.6781359294573
 22
1427.077061889956
 13
0.0
 23
0.0
 14
0.5
 24
0.5
 15
0.0
 25
0.0
 16
0.0
 26
0.0
 36
1.0
 17
0.0
 27
0.0
 37
0.0
 42
50.0
 43
0.0
 44
0.0
 45
2890.021615685494
 50
0.0
 51
0.0
 72
   100
 90
   557152
  1

281
     0
 71
     1
 74
     0
110
0.0
120
0.0
130
0.0
111
1.0
121
0.0
131
0.0
112
0.0
122
1.0
132
0.0
 79
     0
146
0.0
170
     0
 61
     5
348
26C
292
     1
282
     1
141
0.0
142
0.0
 63
   256
  0
ENDSEC
  0
SECTION
  2
OBJECTS
  0
DICTIONARY
  5
19
330
0
100
AcDbDictionary
281
     1
  3
ACAD_COLOR
350
674
  3
ACAD_DETAILVIEWSTYLE
350
BBF
  3
ACAD_FIELDLIST
350
1848
  3
ACAD_GROUP
350
1A
  3
ACAD_IMAGE_VARS
350
27B
  3
ACAD_LAYOUT
350
1E
  3
ACAD_MATERIAL
350
263
  3
ACAD_MLEADERSTYLE
350
336
  3
ACAD_MLINESTYLE
350
1B
  3
ACAD_PLOTSETTINGS
350
22
  3
ACAD_PLOTSTYLENAME
350
1F
  3
ACAD_SCALELIST
350
241
  3
ACAD_SECTIONVIEWSTYLE
350
BC0
  3
ACAD_TABLESTYLE
350
278
  3
ACAD_VISUALSTYLE
350
267
  3
ACDB_RECOMPOSE_DATA
350
2586
  3
AcDbVariableDictionary
350
330
  3
APPDATA
350
27A
  3
DimOffsetDictionary
350
E38
  0
SUN
  5
904
330
15
100
AcDbSun
 90
        1
290
     0
 63
     7
421
 16777215
 40
1.0
291
     1
 91
  2455826
 92
 54000000
292
     0
 70
     2
 71
   256
280
     1
  0
DICTIONARY
  5
2E1
330
2
100
AcDbDictionary
280
     1
281
     1
  3
ACAD_LAYERSTATES
360
2E2
  3
ACLYDICTIONARY
360
DDE
  0
DICTIONARY
  5
21CE
330
21CD
100
AcDbDictionary
280
     1
281
     1
  3
ACAD_FIELD
360
21CF
  0
DICTIONARY
  5
2414
330
2413
100
AcDbDictionary
280
     1
281
     1
  3
ACAD_DIMASSOC
360
2415
  0
DICTIONARY
  5
674
102
{ACAD_REACTORS
330
19
102
}
330
19
100
AcDbDictionary
281
     1
  0
DICTIONARY
  5
BBF
102
{ACAD_REACTORS
330
19
102
}
330
19
100
AcDbDictionary
281
     1
  0
FIELDLIST
  5
1848
102
{ACAD_REACTORS
330
19
102
}
330
19
100
AcDbIdSet
 90
        1
330
21D0
100
AcDbFieldList
  0
DICTIONARY
  5
1A
102
{ACAD_REACTORS
330
19
102
}
330
19
100
AcDbDictionary
281
     1
  0
RASTERVARIABLES
  5
27B
102
{ACAD_REACTORS
330
19
102
}
330
19
100
AcDbRasterVariables
 90
        0
 70
     1
 71
     1
 72
     1
  0
DICTIONARY
  5
1E
102
{ACAD_REACTORS
330
19
102
}
330
19
100
AcDbDictionary
281
     1
  3
Layout1
350
21
  3
Model
350
20
  0
DICTIONARY
  5
263
102
{ACAD_REACTORS
330
19
102
}
330
19
100
AcDbDictionary
281
     1
  3
ByBlock
350
265
  3
ByLayer
350
264
  3
Global
350
266
  0
DICTIONARY
  5
336
102
{ACAD_REACTORS
330
19
102
}
330
19
100
AcDbDictionary
281
     1
  3
Standard
350
D59
  0
DICTIONARY
  5
1B
102
{ACAD_REACTORS
330
19
102
}
330
19
100
AcDbDictionary
281
     1
  3
Standard
350
1C
  0
DICTIONARY
  5
22
102
{ACAD_REACTORS
330
19
102
}
330
19
100
AcDbDictionary
281
     1
  0
ACDBDICTIONARYWDFLT
  5
1F
102
{ACAD_REACTORS
330
19
102
}
330
19
100
AcDbDictionary
281
     1
  3
Normal
350
1D
100
AcDbDictionaryWithDefault
340
1D
  0
DICTIONARY
  5
241
102
{ACAD_REACTORS
330
19
102
}
330
19
100
AcDbDictionary
281
     1
  3
A0
350
242
  3
A1
350
243
  3
A2
350
244
  3
A3
350
245
  3
A4
350
246
  3
A5
350
247
  3
A6
350
248
  3
A7
350
249
  3
A8
350
24A
  3
A9
350
24B
  3
B0
350
24C
  3
B1
350
24D
  3
B2
350
24E
  3
B3
350
24F
  3
B4
350
250
  3
B5
350
251
  3
B6
350
252
  3
B7
350
253
  3
B8
350
254
  3
B9
350
255
  3
C0
350
256
  3
C1
350
257
  3
C2
350
258
  3
C3
350
259
  3
C4
350
25A
  3
C5
350
25B
  3
C6
350
25C
  3
C7
350
25D
  3
C8
350
25E
  3
C9
350
25F
  3
D0
350
260
  3
D1
350
261
  3
D2
350
262
  0
DICTIONARY
  5
BC0
102
{ACAD_REACTORS
330
19
102
}
330
19
100
AcDbDictionary
281
     1
  0
DICTIONARY
  5
278
102
{ACAD_REACTORS
330
19
102
}
330
19
100
AcDbDictionary
281
     1
  3
Standard
350
279
  0
DICTIONARY
  5
267
102
{ACAD_REACTORS
330
19
102
}
330
19
100
AcDbDictionary
281
     1
  3
2dWireframe
350
26C
  3
3D Hidden
350
26E
  3
3dWireframe
350
26D
  3
Basic
350
26F
  3
Brighten
350
273
  3
ColorChange
350
277
  3
Conceptual
350
271
  3
Dim
350
272
  3
EdgeColorOff
350
8FE
  3
Facepattern
350
276
  3
Flat
350
268
  3
FlatWithEdges
350
269
  3
Gouraud
350
26A
  3
GouraudWithEdges
350
26B
  3
Hidden
350
8FB
  3
JitterOff
350
8FC
  3
Linepattern
350
275
  3
OverhangOff
350
8FD
  3
Realistic
350
270
  3
Shaded
350
903
  3
Shaded with edges
350
902
  3
Shades of Gray
350
8FF
  3
Sketchy
350
900
  3
Thicken
350
274
  3
Wireframe
350
8FA
  3
X-Ray
350
901
  0
XRECORD
  5
2586
102
{ACAD_REACTORS
330
19
102
}
330
19
100
AcDbXrecord
280
     1
 90
        1
330
279
  0
DICTIONARY
  5
330
102
{ACAD_REACTORS
330
19
102
}
330
19
100
AcDbDictionary
281
     1
  3
CANNOSCALE
350
331
  3
CMLEADERSTYLE
350
D5E
  3
CTABLESTYLE
350
335
  3
HPTRANSPARENCY
350
D52
  3
XCLIPFRAME
350
896
  0
DICTIONARY
  5
27A
102
{ACAD_REACTORS
330
19
102
}
330
19
100
AcDbDictionary
281
     1
  0
DICTIONARY
  5
E38
102
{ACAD_REACTORS
330
19
102
}
330
19
100
AcDbDictionary
281
     1
  3
DIMRAILANGLE
350
221F
  3
DIMRAILFIRSTOFFSET
350
221D
  3
DIMRAILOFFSET
350
221E
  3
DIMRAILSENABLED
350
2220
  0
DICTIONARY
  5
2E2
102
{ACAD_REACTORS
330
2E1
102
}
330
2E1
100
AcDbDictionary
281
     1
  3
ARGON_LAYERP_9
350
7AA
  0
DICTIONARY
  5
DDE
102
{ACAD_REACTORS
330
2E1
102
}
330
2E1
100
AcDbDictionary
281
     1
1001
ACAD
1000
<All
  0
DICTIONARY
  5
21CF
102
{ACAD_REACTORS
330
21CE
102
}
330
21CE
100
AcDbDictionary
280
     1
281
     1
  3
TEXT
360
21D0
  0
DIMASSOC
  5
2415
102
{ACAD_REACTORS
330
2414
102
}
330
2414
100
AcDbDimAssoc
330
2413
 90
        3
 70
     0
 71
     1
  1
AcDbOsnapPointRef
 72
     1
331
23C4
 73
     0
 91
        0
 40
0.0
 10
0.0
 20
0.0
 30
0.0
 75
     0
  1
AcDbOsnapPointRef
 72
     1
331
23C2
 73
     0
 91
        0
 40
0.0
 10
0.0
 20
0.0
 30
0.0
 75
     0
  0
LAYOUT
  5
21
102
{ACAD_REACTORS
330
1E
102
}
330
1E
100
AcDbPlotSettings
  1

  2
none_device
  4
ISO_A3_(420.00_x_297.00_MM)
  6

 40
7.5
 41
20.0
 42
7.5
 43
20.0
 44
420.0
 45
297.0
 46
0.0
 47
0.0
 48
0.0
 49
0.0
140
0.0
141
0.0
142
1.0
143
1.0
 70
     0
 72
     1
 73
     0
 74
     0
  7

 75
     0
 76
     0
 77
     2
 78
   300
147
1.0
148
0.0
149
0.0
100
AcDbLayout
  1
Layout1
 70
     0
 71
     0
 10
-7.5
 20
-20.0
 11
412.5
 21
277.0
 12
0.0
 22
0.0
 32
0.0
 14
0.0
 24
0.0
 34
0.0
 15
0.0
 25
0.0
 35
0.0
146
0.0
 13
0.0
 23
0.0
 33
0.0
 16
0.0
 26
0.0
 36
0.0
 17
0.0
 27
0.0
 37
0.0
 76
     0
330
B
331
349
  0
LAYOUT
  5
20
102
{ACAD_REACTORS
330
1E
102
}
330
1E
100
AcDbPlotSettings
  1

  2
none_device
  4
ISO_A3_(420.00_x_297.00_MM)
  6

 40
7.5
 41
20.0
 42
7.5
 43
20.0
 44
420.0
 45
297.0
 46
0.0
 47
0.0
 48
0.0
 49
0.0
140
0.0
141
0.0
142
1.0
143
1.0
 70
  1024
 72
     1
 73
     0
 74
     0
  7

 75
     0
 76
     0
 77
     2
 78
   300
147
1.0
148
0.0
149
0.0
100
AcDbLayout
  1
Model
 70
     0
 71
     1
 10
0.0
 20
0.0
 11
630.0
 21
891.0
 12
0.0
 22
0.0
 32
0.0
 14
-0.0000000000000568
 24
0.0
 34
0.0
 15
630.0
 25
891.0
 35
0.0
146
0.0
 13
0.0
 23
0.0
 33
0.0
 16
0.0
 26
0.0
 36
0.0
 17
0.0
 27
0.0
 37
0.0
 76
     0
330
A
331
15
  0
MATERIAL
  5
265
102
{ACAD_REACTORS
330
263
102
}
330
263
100
AcDbMaterial
  1
ByBlock
 72
     1
 94
      127
  0
MATERIAL
  5
264
102
{ACAD_REACTORS
330
263
102
}
330
263
100
AcDbMaterial
  1
ByLayer
 72
     1
 94
      127
  0
MATERIAL
  5
266
102
{ACAD_REACTORS
330
263
102
}
330
263
100
AcDbMaterial
  1
Global
 72
     1
 94
      127
  0
MLEADERSTYLE
  5
D59
102
{ACAD_REACTORS
330
336
102
}
330
336
100
AcDbMLeaderStyle
170
     2
171
     1
172
     0
 90
        2
 40
0.0
 41
0.0
173
     1
 91
-1056964608
340
11
 92
       -2
290
     1
 42
2.0
291
     1
 43
8.0
  3
Standard
341
0
 44
4.0
300

342
17
174
     1
178
     6
175
     1
176
     0
 93
-1056964608
 45
4.0
292
     0
297
     0
 46
4.0
343
0
 94
-1056964608
 47
1.0
 49
1.0
140
1.0
293
     1
141
0.0
294
     1
177
     0
142
1.0
295
     0
296
     0
143
3.75
1001
ACAD_MLEADERVER
1070
     2
  0
MLINESTYLE
  5
1C
102
{ACAD_REACTORS
330
1B
102
}
330
1B
100
AcDbMlineStyle
  2
Standard
 70
     0
  3

 62
     0
 51
90.0
 52
90.0
 71
     2
 49
0.5
 62
   256
  6
BYLAYER
 49
-0.5
 62
   256
  6
BYLAYER
  0
ACDBPLACEHOLDER
  5
1D
102
{ACAD_REACTORS
330
1F
102
}
330
1F
  0
SCALE
  5
242
102
{ACAD_REACTORS
330
241
102
}
330
241
100
AcDbScale
 70
     0
300
1:1
140
1.0
141
1.0
290
     1
  0
SCALE
  5
243
102
{ACAD_REACTORS
330
241
102
}
330
241
100
AcDbScale
 70
     0
300
1:2
140
1.0
141
2.0
290
     0
  0
SCALE
  5
244
102
{ACAD_REACTORS
330
241
102
}
330
241
100
AcDbScale
 70
     0
300
1:4
140
1.0
141
4.0
290
     0
  0
SCALE
  5
245
102
{ACAD_REACTORS
330
241
102
}
330
241
100
AcDbScale
 70
     0
300
1:5
140
1.0
141
5.0
290
     0
  0
SCALE
  5
246
102
{ACAD_REACTORS
330
241
102
}
330
241
100
AcDbScale
 70
     0
300
1:8
140
1.0
141
8.0
290
     0
  0
SCALE
  5
247
102
{ACAD_REACTORS
330
241
102
}
330
241
100
AcDbScale
 70
     0
300
1:10
140
1.0
141
10.0
290
     0
  0
SCALE
  5
248
102
{ACAD_REACTORS
330
241
102
}
330
241
100
AcDbScale
 70
     0
300
1:16
140
1.0
141
16.0
290
     0
  0
SCALE
  5
249
102
{ACAD_REACTORS
330
241
102
}
330
241
100
AcDbScale
 70
     0
300
1:20
140
1.0
141
20.0
290
     0
  0
SCALE
  5
24A
102
{ACAD_REACTORS
330
241
102
}
330
241
100
AcDbScale
 70
     0
300
1:30
140
1.0
141
30.0
290
     0
  0
SCALE
  5
24B
102
{ACAD_REACTORS
330
241
102
}
330
241
100
AcDbScale
 70
     0
300
1:40
140
1.0
141
40.0
290
     0
  0
SCALE
  5
24C
102
{ACAD_REACTORS
330
241
102
}
330
241
100
AcDbScale
 70
     0
300
1:50
140
1.0
141
50.0
290
     0
  0
SCALE
  5
24D
102
{ACAD_REACTORS
330
241
102
}
330
241
100
AcDbScale
 70
     0
300
1:100
140
1.0
141
100.0
290
     0
  0
SCALE
  5
24E
102
{ACAD_REACTORS
330
241
102
}
330
241
100
AcDbScale
 70
     0
300
2:1
140
2.0
141
1.0
290
     0
  0
SCALE
  5
24F
102
{ACAD_REACTORS
330
241
102
}
330
241
100
AcDbScale
 70
     0
300
4:1
140
4.0
141
1.0
290
     0
  0
SCALE
  5
250
102
{ACAD_REACTORS
330
241
102
}
330
241
100
AcDbScale
 70
     0
300
8:1
140
8.0
141
1.0
290
     0
  0
SCALE
  5
251
102
{ACAD_REACTORS
330
241
102
}
330
241
100
AcDbScale
 70
     0
300
10:1
140
10.0
141
1.0
290
     0
  0
SCALE
  5
252
102
{ACAD_REACTORS
330
241
102
}
330
241
100
AcDbScale
 70
     0
300
100:1
140
100.0
141
1.0
290
     0
  0
SCALE
  5
253
102
{ACAD_REACTORS
330
241
102
}
330
241
100
AcDbScale
 70
     0
300
1/128" = 1'-0"
140
0.0078125
141
12.0
290
     0
  0
SCALE
  5
254
102
{ACAD_REACTORS
330
241
102
}
330
241
100
AcDbScale
 70
     0
300
1/64" = 1'-0"
140
0.015625
141
12.0
290
     0
  0
SCALE
  5
255
102
{ACAD_REACTORS
330
241
102
}
330
241
100
AcDbScale
 70
     0
300
1/32" = 1'-0"
140
0.03125
141
12.0
290
     0
  0
SCALE
  5
256
102
{ACAD_REACTORS
330
241
102
}
330
241
100
AcDbScale
 70
     0
300
1/16" = 1'-0"
140
0.0625
141
12.0
290
     0
  0
SCALE
  5
257
102
{ACAD_REACTORS
330
241
102
}
330
241
100
AcDbScale
 70
     0
300
3/32" = 1'-0"
140
0.09375
141
12.0
290
     0
  0
SCALE
  5
258
102
{ACAD_REACTORS
330
241
102
}
330
241
100
AcDbScale
 70
     0
300
1/8" = 1'-0"
140
0.125
141
12.0
290
     0
  0
SCALE
  5
259
102
{ACAD_REACTORS
330
241
102
}
330
241
100
AcDbScale
 70
     0
300
3/16" = 1'-0"
140
0.1875
141
12.0
290
     0
  0
SCALE
  5
25A
102
{ACAD_REACTORS
330
241
102
}
330
241
100
AcDbScale
 70
     0
300
1/4" = 1'-0"
140
0.25
141
12.0
290
     0
  0
SCALE
  5
25B
102
{ACAD_REACTORS
330
241
102
}
330
241
100
AcDbScale
 70
     0
300
3/8" = 1'-0"
140
0.375
141
12.0
290
     0
  0
SCALE
  5
25C
102
{ACAD_REACTORS
330
241
102
}
330
241
100
AcDbScale
 70
     0
300
1/2" = 1'-0"
140
0.5
141
12.0
290
     0
  0
SCALE
  5
25D
102
{ACAD_REACTORS
330
241
102
}
330
241
100
AcDbScale
 70
     0
300
3/4" = 1'-0"
140
0.75
141
12.0
290
     0
  0
SCALE
  5
25E
102
{ACAD_REACTORS
330
241
102
}
330
241
100
AcDbScale
 70
     0
300
1" = 1'-0"
140
1.0
141
12.0
290
     0
  0
SCALE
  5
25F
102
{ACAD_REACTORS
330
241
102
}
330
241
100
AcDbScale
 70
     0
300
1-1/2" = 1'-0"
140
1.5
141
12.0
290
     0
  0
SCALE
  5
260
102
{ACAD_REACTORS
330
241
102
}
330
241
100
AcDbScale
 70
     0
300
3" = 1'-0"
140
3.0
141
12.0
290
     0
  0
SCALE
  5
261
102
{ACAD_REACTORS
330
241
102
}
330
241
100
AcDbScale
 70
     0
300
6" = 1'-0"
140
6.0
141
12.0
290
     0
  0
SCALE
  5
262
102
{ACAD_REACTORS
330
241
102
}
330
241
100
AcDbScale
 70
     0
300
1'-0" = 1'-0"
140
12.0
141
12.0
290
     0
  0
TABLESTYLE
  5
279
102
{ACAD_REACTORS
330
278
102
}
102
{ACAD_XDICTIONARY
360
2584
102
}
330
278
100
AcDbTableStyle
  3
Standard
 70
     0
 71
     0
 40
0.06
 41
0.06
280
     0
281
     0
  7
Standard
140
4.5
170
     2
 62
     0
 63
   257
283
     0
 90
        4
 91
        0
  1

274
    -2
284
     1
 64
     0
275
    -2
285
     1
 65
     0
276
    -2
286
     1
 66
     0
277
    -2
287
     1
 67
     0
278
    -2
288
     1
 68
     0
279
    -2
289
     1
 69
     0
  7
Standard
140
6.0
170
     5
 62
     0
 63
   257
283
     0
 90
        4
 91
        0
  1

274
    -2
284
     1
 64
     0
275
    -2
285
     1
 65
     0
276
    -2
286
     1
 66
     0
277
    -2
287
     1
 67
     0
278
    -2
288
     1
 68
     0
279
    -2
289
     1
 69
     0
  7
Standard
140
4.5
170
     5
 62
     0
 63
   257
283
     0
 90
        4
 91
        0
  1

274
    -2
284
     1
 64
     0
275
    -2
285
     1
 65
     0
276
    -2
286
     1
 66
     0
277
    -2
287
     1
 67
     0
278
    -2
288
     1
 68
     0
279
    -2
289
     1
 69
     0
  0
VISUALSTYLE
  5
26C
102
{ACAD_REACTORS
330
267
102
}
330
267
100
AcDbVisualStyle
  2
2dWireframe
 70
     4
 71
     0
 72
     2
 73
     0
 90
        0
 40
-0.6
 41
-30.0
 62
     5
 63
     7
421
 16777215
 74
     1
 91
        4
 64
     7
 65
   257
 75
     1
175
     1
 42
1.0
 92
        0
 66
   257
 43
1.0
 76
     1
 77
     6
 78
     2
 67
     7
 79
     5
170
     0
171
     0
290
     0
174
     0
 93
        1
 44
0.0
173
     0
291
     0
 45
0.0
  0
VISUALSTYLE
  5
26E
102
{ACAD_REACTORS
330
267
102
}
330
267
100
AcDbVisualStyle
  2
3D Hidden
 70
     6
 71
     1
 72
     2
 73
     2
 90
        0
 40
-0.6
 41
-30.0
 62
     5
 63
     7
421
 16777215
 74
     2
 91
        2
 64
     7
 65
   257
 75
     2
175
     1
 42
40.0
 92
        0
 66
   257
 43
1.0
 76
     1
 77
     6
 78
     2
 67
     7
 79
     3
170
     0
171
     0
290
     0
174
     0
 93
        1
 44
0.0
173
     0
291
     0
 45
0.0
  0
VISUALSTYLE
  5
26D
102
{ACAD_REACTORS
330
267
102
}
330
267
100
AcDbVisualStyle
  2
3dWireframe
 70
     5
 71
     0
 72
     2
 73
     0
 90
        0
 40
-0.6
 41
-30.0
 62
     5
 63
     7
421
 16777215
 74
     1
 91
        4
 64
     7
 65
   257
 75
     1
175
     1
 42
1.0
 92
        0
 66
   257
 43
1.0
 76
     1
 77
     6
 78
     2
 67
     7
 79
     5
170
     0
171
     0
290
     0
174
     0
 93
        1
 44
0.0
173
     0
291
     0
 45
0.0
  0
VISUALSTYLE
  5
26F
102
{ACAD_REACTORS
330
267
102
}
330
267
100
AcDbVisualStyle
  2
Basic
 70
     7
 71
     1
 72
     0
 73
     1
 90
        0
 40
-0.6
 41
-30.0
 62
     5
 63
     7
421
 16777215
 74
     0
 91
        4
 64
     7
 65
   257
 75
     1
175
     1
 42
1.0
 92
        8
 66
     7
 43
1.0
 76
     1
 77
     6
 78
     2
 67
     7
 79
     5
170
     0
171
     0
290
     0
174
     0
 93
        1
 44
0.0
173
     0
291
     1
 45
0.0
  0
VISUALSTYLE
  5
273
102
{ACAD_REACTORS
330
267
102
}
330
267
100
AcDbVisualStyle
  2
Brighten
 70
    12
 71
     2
 72
     2
 73
     0
 90
        0
 40
-0.6
 41
-30.0
 62
     5
 63
     7
421
 16777215
 74
     1
 91
        4
 64
     7
 65
   257
 75
     1
175
     1
 42
1.0
 92
        8
 66
     7
 43
1.0
 76
     1
 77
     6
 78
     2
 67
     7
 79
     5
170
     0
171
     0
290
     0
174
     0
 93
        1
 44
50.0
173
     0
291
     1
 45
0.0
  0
VISUALSTYLE
  5
277
102
{ACAD_REACTORS
330
267
102
}
330
267
100
AcDbVisualStyle
  2
ColorChange
 70
    16
 71
     2
 72
     2
 73
     3
 90
        0
 40
-0.6
 41
-30.0
 62
     5
 63
     8
421
  8421504
 74
     1
 91
        4
 64
     7
 65
   257
 75
     1
175
     1
 42
1.0
 92
        8
 66
     8
424
  8421504
 43
1.0
 76
     1
 77
     6
 78
     2
 67
     7
 79
     5
170
     0
171
     0
290
     0
174
     0
 93
        1
 44
0.0
173
     0
291
     1
 45
0.0
  0
VISUALSTYLE
  5
271
102
{ACAD_REACTORS
330
267
102
}
330
267
100
AcDbVisualStyle
  2
Conceptual
 70
     9
 71
     3
 72
     2
 73
     0
 90
        0
 40
-0.6
 41
-30.0
 62
     5
 63
     7
421
 16777215
 74
     2
 91
        2
 64
     7
 65
   257
 75
     1
175
     1
 42
40.0
 92
        8
 66
     7
 43
1.0
 76
     1
 77
     6
 78
     2
 67
     7
 79
     3
170
     0
171
     0
290
     0
174
     0
 93
        1
 44
0.0
173
     0
291
     0
 45
0.0
  0
VISUALSTYLE
  5
272
102
{ACAD_REACTORS
330
267
102
}
330
267
100
AcDbVisualStyle
  2
Dim
 70
    11
 71
     2
 72
     2
 73
     0
 90
        0
 40
-0.6
 41
-30.0
 62
     5
 63
     7
421
 16777215
 74
     1
 91
        4
 64
     7
 65
   257
 75
     1
175
     1
 42
1.0
 92
        8
 66
     7
 43
1.0
 76
     1
 77
     6
 78
     2
 67
     7
 79
     5
170
     0
171
     0
290
     0
174
     0
 93
        1
 44
-50.0
173
     0
291
     1
 45
0.0
  0
VISUALSTYLE
  5
8FE
102
{ACAD_REACTORS
330
267
102
}
330
267
100
AcDbVisualStyle
  2
EdgeColorOff
 70
    22
 71
     2
 72
     2
 73
     0
 90
        0
 40
0.6
 41
30.0
 62
     5
 63
     7
421
 16777215
 74
     1
 91
        4
 64
     7
 65
   257
 75
     1
175
     1
 42
1.0
 92
        8
 66
     7
 43
1.0
 76
     1
 77
     6
 78
     2
 67
     7
 79
     5
170
     0
171
     0
290
     0
174
     0
 93
        1
 44
0.0
173
     0
291
     1
 45
0.0
  0
VISUALSTYLE
  5
276
102
{ACAD_REACTORS
330
267
102
}
330
267
100
AcDbVisualStyle
  2
Facepattern
 70
    15
 71
     2
 72
     2
 73
     0
 90
        0
 40
-0.6
 41
-30.0
 62
     5
 63
     7
421
 16777215
 74
     1
 91
        4
 64
     7
 65
   257
 75
     1
175
     1
 42
1.0
 92
        8
 66
     7
 43
1.0
 76
     1
 77
     6
 78
     2
 67
     7
 79
     5
170
     0
171
     0
290
     0
174
     0
 93
        1
 44
0.0
173
     0
291
     1
 45
0.0
  0
VISUALSTYLE
  5
268
102
{ACAD_REACTORS
330
267
102
}
330
267
100
AcDbVisualStyle
  2
Flat
 70
     0
 71
     2
 72
     1
 73
     1
 90
        2
 40
-0.6
 41
30.0
 62
     5
 63
     7
421
 16777215
 74
     0
 91
        4
 64
     7
 65
   257
 75
     1
175
     1
 42
1.0
 92
        8
 66
     7
 43
1.0
 76
     1
 77
     6
 78
     2
 67
     7
 79
     5
170
     0
171
     0
290
     0
174
     0
 93
       13
 44
0.0
173
     0
291
     1
 45
0.0
  0
VISUALSTYLE
  5
269
102
{ACAD_REACTORS
330
267
102
}
330
267
100
AcDbVisualStyle
  2
FlatWithEdges
 70
     1
 71
     2
 72
     1
 73
     1
 90
        2
 40
-0.6
 41
30.0
 62
     5
 63
     7
421
 16777215
 74
     1
 91
        4
 64
     7
 65
   257
 75
     1
175
     1
 42
1.0
 92
        0
 66
   257
 43
1.0
 76
     1
 77
     6
 78
     2
 67
     7
 79
     5
170
     0
171
     0
290
     0
174
     0
 93
       13
 44
0.0
173
     0
291
     1
 45
0.0
  0
VISUALSTYLE
  5
26A
102
{ACAD_REACTORS
330
267
102
}
330
267
100
AcDbVisualStyle
  2
Gouraud
 70
     2
 71
     2
 72
     2
 73
     1
 90
        2
 40
-0.6
 41
30.0
 62
     5
 63
     7
421
 16777215
 74
     0
 91
        4
 64
     7
 65
   257
 75
     1
175
     1
 42
1.0
 92
        0
 66
     7
 43
1.0
 76
     1
 77
     6
 78
     2
 67
     7
 79
     5
170
     0
171
     0
290
     0
174
     0
 93
       13
 44
0.0
173
     0
291
     1
 45
0.0
  0
VISUALSTYLE
  5
26B
102
{ACAD_REACTORS
330
267
102
}
330
267
100
AcDbVisualStyle
  2
GouraudWithEdges
 70
     3
 71
     2
 72
     2
 73
     1
 90
        2
 40
-0.6
 41
30.0
 62
     5
 63
     7
421
 16777215
 74
     1
 91
        4
 64
     7
 65
   257
 75
     1
175
     1
 42
1.0
 92
        0
 66
   257
 43
1.0
 76
     1
 77
     6
 78
     2
 67
     7
 79
     5
170
     0
171
     0
290
     0
174
     0
 93
       13
 44
0.0
173
     0
291
     1
 45
0.0
  0
VISUALSTYLE
  5
8FB
102
{ACAD_REACTORS
330
267
102
}
330
267
100
AcDbVisualStyle
  2
Hidden
 70
     6
 71
     1
 72
     2
 73
     2
 90
        0
 40
0.6
 41
30.0
 62
     5
 63
     7
421
 16777215
 74
     2
 91
        2
 64
     7
 65
   257
 75
     2
175
     1
 42
40.0
 92
        0
 66
   257
 43
1.0
 76
     1
 77
     6
 78
     2
 67
     7
 79
     3
170
     0
171
     0
290
     0
174
     0
 93
        1
 44
0.0
173
     0
291
     0
 45
0.0
  0
VISUALSTYLE
  5
8FC
102
{ACAD_REACTORS
330
267
102
}
330
267
100
AcDbVisualStyle
  2
JitterOff
 70
    20
 71
     2
 72
     2
 73
     0
 90
        0
 40
0.6
 41
30.0
 62
     5
 63
     7
421
 16777215
 74
     1
 91
        4
 64
     7
 65
   257
 75
     1
175
     1
 42
1.0
 92
       10
 66
     7
 43
1.0
 76
     1
 77
     6
 78
     2
 67
     7
 79
     5
170
     0
171
     0
290
     0
174
     0
 93
        1
 44
0.0
173
     0
291
     1
 45
0.0
  0
VISUALSTYLE
  5
275
102
{ACAD_REACTORS
330
267
102
}
330
267
100
AcDbVisualStyle
  2
Linepattern
 70
    14
 71
     2
 72
     2
 73
     0
 90
        0
 40
-0.6
 41
-30.0
 62
     5
 63
     7
421
 16777215
 74
     1
 91
        4
 64
     7
 65
   257
 75
     7
175
     7
 42
1.0
 92
        8
 66
     7
 43
1.0
 76
     1
 77
     6
 78
     2
 67
     7
 79
     5
170
     0
171
     0
290
     0
174
     0
 93
        1
 44
0.0
173
     0
291
     1
 45
0.0
  0
VISUALSTYLE
  5
8FD
102
{ACAD_REACTORS
330
267
102
}
330
267
100
AcDbVisualStyle
  2
OverhangOff
 70
    21
 71
     2
 72
     2
 73
     0
 90
        0
 40
0.6
 41
30.0
 62
     5
 63
     7
421
 16777215
 74
     1
 91
        4
 64
     7
 65
   257
 75
     1
175
     1
 42
1.0
 92
        9
 66
     7
 43
1.0
 76
     1
 77
     6
 78
     2
 67
     7
 79
     5
170
     0
171
     0
290
     0
174
     0
 93
        1
 44
0.0
173
     0
291
     1
 45
0.0
  0
VISUALSTYLE
  5
270
102
{ACAD_REACTORS
330
267
102
}
330
267
100
AcDbVisualStyle
  2
Realistic
 70
     8
 71
     2
 72
     2
 73
     0
 90
        0
 40
-0.6
 41
-30.0
 62
     5
 63
     7
421
 16777215
 74
     1
 91
        0
 64
     7
 65
   257
 75
     1
175
     1
 42
1.0
 92
        8
 66
     8
424
  7895160
 43
1.0
 76
     1
 77
     6
 78
     2
 67
     7
 79
     5
170
     0
171
     0
290
     0
174
     0
 93
       13
 44
0.0
173
     0
291
     0
 45
0.0
  0
VISUALSTYLE
  5
903
102
{ACAD_REACTORS
330
267
102
}
330
267
100
AcDbVisualStyle
  2
Shaded
 70
    27
 71
     2
 72
     2
 73
     1
 90
        2
 40
0.6
 41
30.0
 62
     5
 63
     7
421
 16777215
 74
     0
 91
        4
 64
     7
 65
   257
 75
     1
175
     1
 42
1.0
 92
        8
 66
   257
 43
1.0
 76
     1
 77
     6
 78
     2
 67
     8
425
  7895160
 79
     3
170
     0
171
     0
290
     0
174
     0
 93
        5
 44
0.0
173
     0
291
     0
 45
0.0
  0
VISUALSTYLE
  5
902
102
{ACAD_REACTORS
330
267
102
}
330
267
100
AcDbVisualStyle
  2
Shaded with edges
 70
    26
 71
     2
 72
     2
 73
     1
 90
        2
 40
0.6
 41
30.0
 62
     5
 63
     7
421
 16777215
 74
     1
 91
       10
 64
     7
 65
   257
 75
     2
175
     1
 42
1.0
 92
        8
 66
   257
 43
1.0
 76
     1
 77
     6
 78
     2
 67
     7
 79
     3
170
     0
171
     0
290
     0
174
     0
 93
        5
 44
0.0
173
     0
291
     0
 45
0.0
  0
VISUALSTYLE
  5
8FF
102
{ACAD_REACTORS
330
267
102
}
330
267
100
AcDbVisualStyle
  2
Shades of Gray
 70
    23
 71
     2
 72
     2
 73
     3
 90
        0
 40
0.6
 41
30.0
 62
     5
 63
     7
421
 16777215
 74
     2
 91
        2
 64
     7
 65
     7
 75
     1
175
     1
 42
40.0
 92
        8
 66
     7
 43
1.0
 76
     1
 77
     6
 78
     2
 67
     7
 79
     3
170
     0
171
     0
290
     0
174
     0
 93
        1
 44
0.0
173
     0
291
     0
 45
0.0
  0
VISUALSTYLE
  5
900
102
{ACAD_REACTORS
330
267
102
}
330
267
100
AcDbVisualStyle
  2
Sketchy
 70
    24
 71
     1
 72
     2
 73
     2
 90
        0
 40
0.6
 41
30.0
 62
     5
 63
     7
421
 16777215
 74
     2
 91
        2
 64
     7
 65
     7
 75
     1
175
     1
 42
40.0
 92
       11
 66
     7
 43
1.0
 76
     1
 77
     6
 78
     2
 67
     7
 79
     6
170
     0
171
     0
290
     0
174
     0
 93
        1
 44
0.0
173
     0
291
     0
 45
0.0
  0
VISUALSTYLE
  5
274
102
{ACAD_REACTORS
330
267
102
}
330
267
100
AcDbVisualStyle
  2
Thicken
 70
    13
 71
     2
 72
     2
 73
     0
 90
        0
 40
-0.6
 41
-30.0
 62
     5
 63
     7
421
 16777215
 74
     1
 91
        4
 64
     7
 65
   257
 75
     1
175
     1
 42
1.0
 92
       12
 66
     7
 43
1.0
 76
     1
 77
     6
 78
     2
 67
     7
 79
     5
170
     0
171
     0
290
     0
174
     0
 93
        1
 44
0.0
173
     0
291
     1
 45
0.0
  0
VISUALSTYLE
  5
8FA
102
{ACAD_REACTORS
330
267
102
}
330
267
100
AcDbVisualStyle
  2
Wireframe
 70
     5
 71
     0
 72
     2
 73
     0
 90
        0
 40
0.6
 41
30.0
 62
     5
 63
     7
421
 16777215
 74
     1
 91
        4
 64
     7
 65
   257
 75
     1
175
     1
 42
1.0
 92
        0
 66
   257
 43
1.0
 76
     1
 77
     6
 78
     2
 67
     7
 79
     3
170
     0
171
     0
290
     0
174
     0
 93
        1
 44
0.0
173
     0
291
     0
 45
0.0
  0
VISUALSTYLE
  5
901
102
{ACAD_REACTORS
330
267
102
}
330
267
100
AcDbVisualStyle
  2
X-Ray
 70
    25
 71
     2
 72
     2
 73
     1
 90
        1
 40
0.5
 41
30.0
 62
     5
 63
     7
421
 16777215
 74
     1
 91
        0
 64
     7
 65
   257
 75
     1
175
     1
 42
1.0
 92
        8
 66
     7
 43
1.0
 76
     1
 77
     6
 78
     2
 67
     7
 79
     3
170
     0
171
     0
290
     0
174
     0
 93
       13
 44
0.0
173
     0
291
     0
 45
0.0
  0
DICTIONARYVAR
  5
331
102
{ACAD_REACTORS
330
330
102
}
330
330
100
DictionaryVariables
280
     0
  1
1:1
  0
DICTIONARYVAR
  5
D5E
102
{ACAD_REACTORS
330
330
102
}
330
330
100
DictionaryVariables
280
     0
  1
Standard
  0
DICTIONARYVAR
  5
335
102
{ACAD_REACTORS
330
330
102
}
330
330
100
DictionaryVariables
280
     0
  1
Standard
  0
DICTIONARYVAR
  5
D52
102
{ACAD_REACTORS
330
330
102
}
330
330
100
DictionaryVariables
280
     0
  1
ByLayer
  0
DICTIONARYVAR
  5
896
102
{ACAD_REACTORS
330
330
102
}
330
330
100
DictionaryVariables
280
     0
  1
0
  0
DICTIONARYVAR
  5
221F
102
{ACAD_REACTORS
330
E38
102
}
330
E38
100
DictionaryVariables
280
     0
  1
0.261799
  0
DICTIONARYVAR
  5
221D
102
{ACAD_REACTORS
330
E38
102
}
330
E38
100
DictionaryVariables
280
     0
  1
0.400000
  0
DICTIONARYVAR
  5
221E
102
{ACAD_REACTORS
330
E38
102
}
330
E38
100
DictionaryVariables
280
     0
  1
0.250000
  0
DICTIONARYVAR
  5
2220
102
{ACAD_REACTORS
330
E38
102
}
330
E38
100
DictionaryVariables
280
     0
  1
1
  0
XRECORD
  5
7AA
102
{ACAD_REACTORS
330
2E2
102
}
330
2E2
100
AcDbXrecord
280
     1
 91
    34815
301

290
     0
302
HIDDEN
330
14
 90
        8
 62
     7
370
    -3
331
13
  1
Color_7
440
 33554687
330
4B
 90
        8
 62
     7
370
    20
331
13
  1
Color_7
440
 33554687
330
4C
 90
        8
 62
     3
370
    13
331
13
  1
Color_3
440
 33554687
330
4D
 90
        8
 62
     7
370
    20
331
13
  1
Color_7
440
 33554687
330
667
 90
        8
 62
     7
370
    -3
331
13
  1
Color_7
440
 33554687
330
88C
 90
        8
 62
     8
370
    20
331
D6D
  1
Color_8
440
 33554687
330
D6B
 90
        0
 62
     4
370
    20
331
D6C
  1
Color_4
440
 33554687
330
D8C
 90
        0
 62
     7
370
    -3
331
13
  1
Color_7
440
 33554687
  0
FIELD
  5
21D0
102
{ACAD_REACTORS
330
21CF
102
}
330
21CF
100
AcDbField
  1
_text
  2
{%<\_FldIdx 0>%N}
 90
        1
360
21D1
 97
        0
 91
       63
 92
        0
 94
        8
 95
        2
 96
        0
300

 93
        1
  6
ACFD_FIELDTEXT_CHECKSUM
 93
        2
 90
        2
140
4457.0
 94
        0
300

302

304
ACVALUE_END
  7
ACFD_FIELD_VALUE
 93
        6
 90
        4
  1
{20170111N}
 94
        0
300

302

304
ACVALUE_END
301
{20170111N}
 98
       11
  0
DICTIONARY
  5
2584
330
279
100
AcDbDictionary
280
     1
281
     1
  3
ACAD_ROUNDTRIP_2008_TABLESTYLE_CELLSTYLEMAP
360
2585
  0
FIELD
  5
21D1
330
21D0
100
AcDbField
  1
AcVar
  2
\AcVar Date \f "yyyyMMdd"
 90
        0
 97
        0
 91
       63
 92
        0
 94
        8
 95
        2
 96
        0
300

 93
        1
  6
Variable
 93
        2
 90
        4
  1
Date
 94
        0
300

302

304
ACVALUE_END
  7
ACFD_FIELD_VALUE
 93
        6
 90
        8
 92
       16
310
E107010000000B000100220019000000
 94
        0
300
yyyyMMdd
302

304
ACVALUE_END
301
20170111
 98
        8
  0
CELLSTYLEMAP
  5
2585
102
{ACAD_REACTORS
330
2584
102
}
330
2584
100
AcDbCellStyleMap
 90
        3
300
CELLSTYLE
  1
TABLEFORMAT_BEGIN
 90
        5
170
     1
 91
        0
 92
    32768
 62
   257
 93
        1
300
CONTENTFORMAT
  1
CONTENTFORMAT_BEGIN
 90
        0
 91
        0
 92
        4
 93
        0
300

 40
0.0
140
1.0
 94
        5
 62
     0
340
17
144
6.0
309
CONTENTFORMAT_END
171
     1
301
MARGIN
  1
CELLMARGIN_BEGIN
 40
0.06
 40
0.06
 40
0.06
 40
0.06
 40
0.18
 40
0.18
309
CELLMARGIN_END
 94
        6
 95
        1
302
GRIDFORMAT
  1
GRIDFORMAT_BEGIN
 90
        0
 91
        1
 62
     0
 92
       -2
340
0
 93
        0
 40
0.045
309
GRIDFORMAT_END
 95
        2
302
GRIDFORMAT
  1
GRIDFORMAT_BEGIN
 90
        0
 91
        1
 62
     0
 92
       -2
340
0
 93
        0
 40
0.045
309
GRIDFORMAT_END
 95
        4
302
GRIDFORMAT
  1
GRIDFORMAT_BEGIN
 90
        0
 91
        1
 62
     0
 92
       -2
340
0
 93
        0
 40
0.045
309
GRIDFORMAT_END
 95
        8
302
GRIDFORMAT
  1
GRIDFORMAT_BEGIN
 90
        0
 91
        1
 62
     0
 92
       -2
340
0
 93
        0
 40
0.045
309
GRIDFORMAT_END
 95
       16
302
GRIDFORMAT
  1
GRIDFORMAT_BEGIN
 90
        0
 91
        1
 62
     0
 92
       -2
340
0
 93
        0
 40
0.045
309
GRIDFORMAT_END
 95
       32
302
GRIDFORMAT
  1
GRIDFORMAT_BEGIN
 90
        0
 91
        1
 62
     0
 92
       -2
340
0
 93
        0
 40
0.045
309
GRIDFORMAT_END
309
TABLEFORMAT_END
  1
CELLSTYLE_BEGIN
 90
        1
 91
        1
300
_TITLE
309
CELLSTYLE_END
300
CELLSTYLE
  1
TABLEFORMAT_BEGIN
 90
        5
170
     1
 91
        0
 92
        0
 62
   257
 93
        1
300
CONTENTFORMAT
  1
CONTENTFORMAT_BEGIN
 90
        0
 91
        0
 92
        4
 93
        0
300

 40
0.0
140
1.0
 94
        5
 62
     0
340
17
144
4.5
309
CONTENTFORMAT_END
171
     1
301
MARGIN
  1
CELLMARGIN_BEGIN
 40
0.06
 40
0.06
 40
0.06
 40
0.06
 40
0.18
 40
0.18
309
CELLMARGIN_END
 94
        6
 95
        1
302
GRIDFORMAT
  1
GRIDFORMAT_BEGIN
 90
        0
 91
        1
 62
     0
 92
       -2
340
0
 93
        0
 40
0.045
309
GRIDFORMAT_END
 95
        2
302
GRIDFORMAT
  1
GRIDFORMAT_BEGIN
 90
        0
 91
        1
 62
     0
 92
       -2
340
0
 93
        0
 40
0.045
309
GRIDFORMAT_END
 95
        4
302
GRIDFORMAT
  1
GRIDFORMAT_BEGIN
 90
        0
 91
        1
 62
     0
 92
       -2
340
0
 93
        0
 40
0.045
309
GRIDFORMAT_END
 95
        8
302
GRIDFORMAT
  1
GRIDFORMAT_BEGIN
 90
        0
 91
        1
 62
     0
 92
       -2
340
0
 93
        0
 40
0.045
309
GRIDFORMAT_END
 95
       16
302
GRIDFORMAT
  1
GRIDFORMAT_BEGIN
 90
        0
 91
        1
 62
     0
 92
       -2
340
0
 93
        0
 40
0.045
309
GRIDFORMAT_END
 95
       32
302
GRIDFORMAT
  1
GRIDFORMAT_BEGIN
 90
        0
 91
        1
 62
     0
 92
       -2
340
0
 93
        0
 40
0.045
309
GRIDFORMAT_END
309
TABLEFORMAT_END
  1
CELLSTYLE_BEGIN
 90
        2
 91
        1
300
_HEADER
309
CELLSTYLE_END
300
CELLSTYLE
  1
TABLEFORMAT_BEGIN
 90
        5
170
     1
 91
        0
 92
        0
 62
   257
 93
        1
300
CONTENTFORMAT
  1
CONTENTFORMAT_BEGIN
 90
        0
 91
        0
 92
        4
 93
        0
300

 40
0.0
140
1.0
 94
        2
 62
     0
340
17
144
4.5
309
CONTENTFORMAT_END
171
     1
301
MARGIN
  1
CELLMARGIN_BEGIN
 40
0.06
 40
0.06
 40
0.06
 40
0.06
 40
0.18
 40
0.18
309
CELLMARGIN_END
 94
        6
 95
        1
302
GRIDFORMAT
  1
GRIDFORMAT_BEGIN
 90
        0
 91
        1
 62
     0
 92
       -2
340
0
 93
        0
 40
0.045
309
GRIDFORMAT_END
 95
        2
302
GRIDFORMAT
  1
GRIDFORMAT_BEGIN
 90
        0
 91
        1
 62
     0
 92
       -2
340
0
 93
        0
 40
0.045
309
GRIDFORMAT_END
 95
        4
302
GRIDFORMAT
  1
GRIDFORMAT_BEGIN
 90
        0
 91
        1
 62
     0
 92
       -2
340
0
 93
        0
 40
0.045
309
GRIDFORMAT_END
 95
        8
302
GRIDFORMAT
  1
GRIDFORMAT_BEGIN
 90
        0
 91
        1
 62
     0
 92
       -2
340
0
 93
        0
 40
0.045
309
GRIDFORMAT_END
 95
       16
302
GRIDFORMAT
  1
GRIDFORMAT_BEGIN
 90
        0
 91
        1
 62
     0
 92
       -2
340
0
 93
        0
 40
0.045
309
GRIDFORMAT_END
 95
       32
302
GRIDFORMAT
  1
GRIDFORMAT_BEGIN
 90
        0
 91
        1
 62
     0
 92
       -2
340
0
 93
        0
 40
0.045
309
GRIDFORMAT_END
309
TABLEFORMAT_END
  1
CELLSTYLE_BEGIN
 90
        3
 91
        2
300
_DATA
309
CELLSTYLE_END
  0
ENDSEC
  0
EOF
