  0
SECTION
  2
HEADER
  9
$ACADVER
  1
AC1021
  9
$ACADMAINTVER
 70
    25
  9
$DWGCODEPAGE
  3
ANSI_932
  9
$LASTSAVEDBY
  1
howeNelson
  9
$INSBASE
 10
0.0
 20
0.0
 30
0.0
  9
$EXTMIN
 10
0.0
 20
0.0
 30
0.0
  9
$EXTMAX
 10
1050.0
 20
1485.0
 30
0.0000000000000071
  9
$LIMMIN
 10
0.0
 20
0.0
  9
$LIMMAX
 10
1050.0
 20
1485.0
  9
$ORTHOMODE
 70
     0
  9
$REGENMODE
 70
     1
  9
$FILLMODE
 70
     1
  9
$QTEXTMODE
 70
     0
  9
$MIRRTEXT
 70
     1
  9
$LTSCALE
 40
50.0
  9
$ATTMODE
 70
     1
  9
$TEXTSIZE
 40
2.5
  9
$TRACEWID
 40
1.0
  9
$TEXTSTYLE
  7
ＭＳ ゴシック
  9
$CLAYER
  8
寸法
  9
$CELTYPE
  6
ByLayer
  9
$CECOLOR
 62
   256
  9
$CELTSCALE
 40
0.05
  9
$DISPSILH
 70
     0
  9
$DIMSCALE
 40
1.0
  9
$DIMASZ
 40
2.0
  9
$DIMEXO
 40
5.0
  9
$DIMDLI
 40
0.9999999999999999
  9
$DIMRND
 40
0.0
  9
$DIMDLE
 40
0.0
  9
$DIMEXE
 40
0.0
  9
$DIMTP
 40
0.0
  9
$DIMTM
 40
0.0
  9
$DIMTXT
 40
12.0
  9
$DIMCEN
 40
0.0
  9
$DIMTSZ
 40
0.0
  9
$DIMTOL
 70
     0
  9
$DIMLIM
 70
     0
  9
$DIMTIH
 70
     0
  9
$DIMTOH
 70
     0
  9
$DIMSE1
 70
     0
  9
$DIMSE2
 70
     0
  9
$DIMTAD
 70
     1
  9
$DIMZIN
 70
    11
  9
$DIMBLK
  1
DOT
  9
$DIMASO
 70
     1
  9
$DIMSHO
 70
     1
  9
$DIMPOST
  1
<>
  9
$DIMAPOST
  1
[]
  9
$DIMALT
 70
     0
  9
$DIMALTD
 70
     1
  9
$DIMALTF
 40
1.0
  9
$DIMLFAC
 40
1.0
  9
$DIMTOFL
 70
     0
  9
$DIMTVP
 40
0.0
  9
$DIMTIX
 70
     1
  9
$DIMSOXD
 70
     0
  9
$DIMSAH
 70
     0
  9
$DIMBLK1
  1

  9
$DIMBLK2
  1

  9
$DIMSTYLE
  2
tfrom線あり
  9
$DIMCLRD
 70
     0
  9
$DIMCLRE
 70
     0
  9
$DIMCLRT
 70
     0
  9
$DIMTFAC
 40
1.0
  9
$DIMGAP
 40
5.0
  9
$DIMJUST
 70
     0
  9
$DIMSD1
 70
     0
  9
$DIMSD2
 70
     0
  9
$DIMTOLJ
 70
     1
  9
$DIMTZIN
 70
    11
  9
$DIMALTZ
 70
    11
  9
$DIMALTTZ
 70
    11
  9
$DIMUPT
 70
     0
  9
$DIMDEC
 70
     0
  9
$DIMTDEC
 70
     1
  9
$DIMALTU
 70
     2
  9
$DIMALTTD
 70
     2
  9
$DIMTXSTY
  7
ＭＳ ゴシック
  9
$DIMAUNIT
 70
     0
  9
$DIMADEC
 70
     2
  9
$DIMALTRND
 40
0.0
  9
$DIMAZIN
 70
     0
  9
$DIMDSEP
 70
    46
  9
$DIMATFIT
 70
     0
  9
$DIMFRAC
 70
     2
  9
$DIMLDRBLK
  1
DOT
  9
$DIMLUNIT
 70
     2
  9
$DIMLWD
 70
    -2
  9
$DIMLWE
 70
    -2
  9
$DIMTMOVE
 70
     0
  9
$DIMFXL
 40
1.0
  9
$DIMFXLON
 70
     0
  9
$DIMJOGANG
 40
0.7853981633974483
  9
$DIMTFILL
 70
     0
  9
$DIMTFILLCLR
 70
     0
  9
$DIMARCSYM
 70
     0
  9
$DIMLTYPE
  6

  9
$DIMLTEX1
  6

  9
$DIMLTEX2
  6

  9
$LUNITS
 70
     2
  9
$LUPREC
 70
     0
  9
$SKETCHINC
 40
0.1
  9
$FILLETRAD
 40
0.0
  9
$AUNITS
 70
     0
  9
$AUPREC
 70
     0
  9
$MENU
  1
acad
  9
$ELEVATION
 40
0.0
  9
$PELEVATION
 40
0.0
  9
$THICKNESS
 40
0.0
  9
$LIMCHECK
 70
     0
  9
$CHAMFERA
 40
0.0
  9
$CHAMFERB
 40
0.0
  9
$CHAMFERC
 40
0.0
  9
$CHAMFERD
 40
0.0
  9
$SKPOLY
 70
     0
  9
$TDCREATE
 40
2447893.375
  9
$TDUCREATE
 40
0.0
  9
$TDUPDATE
 40
2458820.584297998
  9
$TDUUPDATE
 40
2458820.209297998
  9
$TDINDWG
 40
0.232361713
  9
$TDUSRTIMER
 40
0.0021457176
  9
$USRTIMER
 70
     1
  9
$ANGBASE
 50
0.0
  9
$ANGDIR
 70
     0
  9
$PDMODE
 70
     1
  9
$PDSIZE
 40
-2.0
  9
$PLINEWID
 40
0.0
  9
$SPLFRAME
 70
     0
  9
$SPLINETYPE
 70
     6
  9
$SPLINESEGS
 70
     8
  9
$HANDSEED
  5
2372
  9
$SURFTAB1
 70
     6
  9
$SURFTAB2
 70
     6
  9
$SURFTYPE
 70
     6
  9
$SURFU
 70
     6
  9
$SURFV
 70
     6
  9
$UCSBASE
  2

  9
$UCSNAME
  2

  9
$UCSORG
 10
0.0
 20
0.0
 30
0.0
  9
$UCSXDIR
 10
1.0
 20
0.0
 30
0.0
  9
$UCSYDIR
 10
0.0
 20
1.0
 30
0.0
  9
$UCSORTHOREF
  2

  9
$UCSORTHOVIEW
 70
     0
  9
$UCSORGTOP
 10
0.0
 20
0.0
 30
0.0
  9
$UCSORGBOTTOM
 10
0.0
 20
0.0
 30
0.0
  9
$UCSORGLEFT
 10
0.0
 20
0.0
 30
0.0
  9
$UCSORGRIGHT
 10
0.0
 20
0.0
 30
0.0
  9
$UCSORGFRONT
 10
0.0
 20
0.0
 30
0.0
  9
$UCSORGBACK
 10
0.0
 20
0.0
 30
0.0
  9
$PUCSBASE
  2

  9
$PUCSNAME
  2

  9
$PUCSORG
 10
0.0
 20
0.0
 30
0.0
  9
$PUCSXDIR
 10
1.0
 20
0.0
 30
0.0
  9
$PUCSYDIR
 10
0.0
 20
1.0
 30
0.0
  9
$PUCSORTHOREF
  2

  9
$PUCSORTHOVIEW
 70
     0
  9
$PUCSORGTOP
 10
0.0
 20
0.0
 30
0.0
  9
$PUCSORGBOTTOM
 10
0.0
 20
0.0
 30
0.0
  9
$PUCSORGLEFT
 10
0.0
 20
0.0
 30
0.0
  9
$PUCSORGRIGHT
 10
0.0
 20
0.0
 30
0.0
  9
$PUCSORGFRONT
 10
0.0
 20
0.0
 30
0.0
  9
$PUCSORGBACK
 10
0.0
 20
0.0
 30
0.0
  9
$USERI1
 70
     0
  9
$USERI2
 70
     0
  9
$USERI3
 70
     0
  9
$USERI4
 70
     0
  9
$USERI5
 70
     0
  9
$USERR1
 40
0.0
  9
$USERR2
 40
0.0
  9
$USERR3
 40
0.0
  9
$USERR4
 40
0.0
  9
$USERR5
 40
0.0
  9
$WORLDVIEW
 70
     1
  9
$SHADEDGE
 70
     3
  9
$SHADEDIF
 70
    70
  9
$TILEMODE
 70
     1
  9
$MAXACTVP
 70
    64
  9
$PINSBASE
 10
0.0
 20
0.0
 30
0.0
  9
$PLIMCHECK
 70
     0
  9
$PEXTMIN
 10
0.0
 20
0.0
 30
0.0
  9
$PEXTMAX
 10
0.0
 20
0.0
 30
0.0
  9
$PLIMMIN
 10
-7.5
 20
-20.0
  9
$PLIMMAX
 10
412.5
 20
277.0
  9
$UNITMODE
 70
     0
  9
$VISRETAIN
 70
     0
  9
$PLINEGEN
 70
     1
  9
$PSLTSCALE
 70
     0
  9
$TREEDEPTH
 70
  3020
  9
$CMLSTYLE
  2
Standard
  9
$CMLJUST
 70
     0
  9
$CMLSCALE
 40
1.0
  9
$PROXYGRAPHICS
 70
     0
  9
$MEASUREMENT
 70
     1
  9
$CELWEIGHT
370
    -1
  9
$ENDCAPS
280
     0
  9
$JOINSTYLE
280
     0
  9
$LWDISPLAY
290
     1
  9
$INSUNITS
 70
     4
  9
$HYPERLINKBASE
  1

  9
$STYLESHEET
  1

  9
$XEDIT
290
     1
  9
$CEPSNTYPE
380
     0
  9
$PSTYLEMODE
290
     1
  9
$FINGERPRINTGUID
  2

  9
$VERSIONGUID
  2

  9
$EXTNAMES
290
     1
  9
$PSVPSCALE
 40
0.0
  9
$OLESTARTUP
290
     0
  9
$SORTENTS
280
   127
  9
$INDEXCTL
280
     0
  9
$HIDETEXT
280
     1
  9
$XCLIPFRAME
290
     0
  9
$HALOGAP
280
     0
  9
$OBSCOLOR
 70
   257
  9
$OBSLTYPE
280
     0
  9
$INTERSECTIONDISPLAY
280
     0
  9
$INTERSECTIONCOLOR
 70
   257
  9
$DIMASSOC
280
     2
  9
$PROJECTNAME
  1

  9
$CAMERADISPLAY
290
     0
  9
$LENSLENGTH
 40
50.0
  9
$CAMERAHEIGHT
 40
0.0
  9
$STEPSPERSEC
 40
2.0
  9
$STEPSIZE
 40
6.0
  9
$3DDWFPREC
 40
2.0
  9
$PSOLWIDTH
 40
0.25
  9
$PSOLHEIGHT
 40
4.0
  9
$LOFTANG1
 40
1.570796326794897
  9
$LOFTANG2
 40
1.570796326794897
  9
$LOFTMAG1
 40
0.0
  9
$LOFTMAG2
 40
0.0
  9
$LOFTPARAM
 70
     7
  9
$LOFTNORMALS
280
     1
  9
$LATITUDE
 40
37.795
  9
$LONGITUDE
 40
-122.394
  9
$NORTHDIRECTION
 40
0.0
  9
$TIMEZONE
 70
 -8000
  9
$LIGHTGLYPHDISPLAY
280
     1
  9
$TILEMODELIGHTSYNCH
280
     1
  9
$SOLIDHIST
280
     1
  9
$SHOWHIST
280
     1
  9
$DWFFRAME
280
     2
  9
$DGNFRAME
280
     2
  9
$REALWORLDSCALE
290
     1
  9
$INTERFERECOLOR
 62
   256
  9
$CSHADOW
280
     0
  9
$SHADOWPLANELOCATION
 40
0.0
  0
ENDSEC
  0
SECTION
  2
CLASSES
  0
CLASS
  1
LWPOLYLINE
  2
AcDbPolyline
  3
ObjectDBX Classes
 90
        0
 91
        1
280
     0
281
     1
  0
CLASS
  1
IMAGE
  2
AcDbRasterImage
  3
ISM
 90
      127
 91
        5
280
     0
281
     1
  0
CLASS
  1
OLE2FRAME
  2
AcDbOle2Frame
  3
ObjectDBX Classes
 90
        0
 91
        1
280
     0
281
     1
  0
CLASS
  1
HATCH
  2
AcDbHatch
  3
ObjectDBX Classes
 90
        0
 91
        1
280
     0
281
     1
  0
CLASS
  1
DICTIONARYVAR
  2
AcDbDictionaryVar
  3
ObjectDBX Classes
 90
        0
 91
        4
280
     0
281
     0
  0
CLASS
  1
RASTERVARIABLES
  2
AcDbRasterVariables
  3
ISM
 90
        0
 91
        4
280
     0
281
     0
  0
CLASS
  1
IMAGEDEF
  2
AcDbRasterImageDef
  3
ISM
 90
        0
 91
        4
280
     0
281
     0
  0
CLASS
  1
IMAGEDEF_REACTOR
  2
AcDbRasterImageDefReactor
  3
ISM
 90
        1
 91
        4
280
     0
281
     0
  0
CLASS
  1
IDBUFFER
  2
AcDbIdBuffer
  3
ObjectDBX Classes
 90
        0
 91
        4
280
     0
281
     0
  0
CLASS
  1
SPATIAL_FILTER
  2
AcDbSpatialFilter
  3
ObjectDBX Classes
 90
        0
 91
        4
280
     0
281
     0
  0
CLASS
  1
XRECORD
  2
AcDbXrecord
  3
ObjectDBX Classes
 90
        0
 91
        1
280
     0
281
     0
  0
CLASS
  1
SORTENTSTABLE
  2
AcDbSortentsTable
  3
ObjectDBX Classes
 90
        0
 91
        4
280
     0
281
     0
  0
CLASS
  1
LAYER_INDEX
  2
AcDbLayerIndex
  3
ObjectDBX Classes
 90
        0
 91
        4
280
     0
281
     0
  0
CLASS
  1
SPATIAL_INDEX
  2
AcDbSpatialIndex
  3
AutoCAD 2000
 90
        0
 91
        4
280
     0
281
     0
  0
CLASS
  1
OBJECT_PTR
  2
CAseDLPNTableRecord
  3
ASE-LPNTableRecord
 90
        1
 91
        4
280
     0
281
     0
  0
CLASS
  1
LAYOUT
  2
AcDbLayout
  3
ObjectDBX Classes
 90
        0
 91
        1
280
     0
281
     0
  0
CLASS
  1
PLOTSETTINGS
  2
AcDbPlotSettings
  3
ObjectDBX Classes
 90
        0
 91
        4
280
     0
281
     0
  0
CLASS
  1
ACDBDICTIONARYWDFLT
  2
AcDbDictionaryWithDefault
  3
ObjectDBX Classes
 90
        0
 91
        4
280
     0
281
     0
  0
CLASS
  1
ACDBPLACEHOLDER
  2
AcDbPlaceHolder
  3
ObjectDBX Classes
 90
        0
 91
        1
280
     0
281
     0
  0
CLASS
  1
SCALE
  2
AcDbScale
  3
ObjectDBX Classes
 90
     1153
 91
        4
280
     0
281
     0
  0
CLASS
  1
MATERIAL
  2
AcDbMaterial
  3
ObjectDBX Classes
 90
     1153
 91
        4
280
     0
281
     0
  0
CLASS
  1
VISUALSTYLE
  2
AcDbVisualStyle
  3
ObjectDBX Classes
 90
     4095
 91
        4
280
     0
281
     0
  0
CLASS
  1
TABLESTYLE
  2
AcDbTableStyle
  3
ObjectDBX Classes
 90
     4095
 91
        4
280
     0
281
     0
  0
CLASS
  1
DIMASSOC
  2
AcDbDimAssoc
  3
"AcDbDimAssoc|Product Desc:     AcDim ARX App For Dimension|Company:          Autodesk, Inc.|WEB Address:      www.autodesk.com"
 90
        0
 91
        4
280
     0
281
     0
  0
CLASS
  1
CELLSTYLEMAP
  2
AcDbCellStyleMap
  3
ObjectDBX Classes
 90
     1152
 91
        4
280
     0
281
     0
  0
CLASS
  1
SUN
  2
AcDbSun
  3
SCENEOE
 90
     1153
 91
        4
280
     0
281
     0
  0
CLASS
  1
MLEADERSTYLE
  2
AcDbMLeaderStyle
  3
ACDB_MLEADERSTYLE_CLASS
 90
     4095
 91
        4
280
     0
281
     0
  0
CLASS
  1
FIELD
  2
AcDbField
  3
ObjectDBX Classes
 90
     1152
 91
        4
280
     0
281
     0
  0
CLASS
  1
FIELDLIST
  2
AcDbFieldList
  3
ObjectDBX Classes
 90
     1152
 91
        4
280
     0
281
     0
  0
ENDSEC
  0
SECTION
  2
TABLES
  0
TABLE
  2
VPORT
  5
7
330
0
100
AcDbSymbolTable
 70
     1
  0
VPORT
  5
15
330
7
100
AcDbSymbolTableRecord
100
AcDbViewportTableRecord
  2
*ACTIVE
 70
     0
 10
0.0
 20
0.0
 11
1.0
 21
1.0
 12
616.0201356709022
 22
668.901285469834
 13
0.0
 23
0.0
 14
1.0
 24
1.0
 15
0.0
 25
0.0
 16
0.0
 26
0.0
 36
1.0
 17
-91.02013567090216
 27
73.59871453016603
 37
-46.86809886248109
 40
1514.7
 41
2.310294117647059
 42
50.0
 43
0.0
 44
0.0
 50
0.0
 51
0.0
 71
    16
 72
  2000
 73
     1
 74
     1
 75
     0
 76
     0
 77
     0
 78
     0
281
     0
 65
     1
110
0.0
120
0.0
130
0.0
111
1.0
121
0.0
131
0.0
112
0.0
122
1.0
132
0.0
 79
     0
146
0.0
348
26C
 60
     3
 61
     5
292
     1
282
     1
141
0.0
142
0.0
 63
   256
361
904
  0
ENDTAB
  0
TABLE
  2
LTYPE
  5
4
330
0
100
AcDbSymbolTable
 70
     5
  0
LTYPE
  5
11
330
4
100
AcDbSymbolTableRecord
100
AcDbLinetypeTableRecord
  2
ByBlock
 70
     0
  3

 72
    65
 73
     0
 40
0.0
  0
LTYPE
  5
12
330
4
100
AcDbSymbolTableRecord
100
AcDbLinetypeTableRecord
  2
ByLayer
 70
     0
  3

 72
    65
 73
     0
 40
0.0
  0
LTYPE
  5
13
330
4
100
AcDbSymbolTableRecord
100
AcDbLinetypeTableRecord
  2
Continuous
 70
     0
  3
Solid line
 72
    65
 73
     0
 40
0.0
  0
LTYPE
  5
D6C
330
4
100
AcDbSymbolTableRecord
100
AcDbLinetypeTableRecord
  2
BORDER
 70
     0
  3
Border __  __  . __  __  . __  __  . __  __  . 
 72
    65
 73
     6
 40
44.45
 49
12.7
 74
     0
 49
-6.35
 74
     0
 49
12.7
 74
     0
 49
-6.35
 74
     0
 49
0.0
 74
     0
 49
-6.35
 74
     0
  0
LTYPE
  5
E81
330
4
100
AcDbSymbolTableRecord
100
AcDbLinetypeTableRecord
  2
CENTERX2
 70
     0
  3
Center (2x) ________  __  ________  __  _____
 72
    65
 73
     4
 40
20.32
 49
12.7
 74
     0
 49
-2.54
 74
     0
 49
2.54
 74
     0
 49
-2.54
 74
     0
  0
LTYPE
  5
10BF
330
4
100
AcDbSymbolTableRecord
100
AcDbLinetypeTableRecord
  2
CENTER
 70
     0
  3
 Center _____  _  _____  _  _____  _  _____  _ 
 72
    65
 73
     4
 40
50.8
 49
31.75
 74
     0
 49
-6.35
 74
     0
 49
6.35
 74
     0
 49
-6.35
 74
     0
  0
LTYPE
  5
1194
330
4
100
AcDbSymbolTableRecord
100
AcDbLinetypeTableRecord
  2
HIDDEN
 70
     0
  3
Hidden _ _ _ _ _ _ _ _ _ _ _ _ _ _ _ _ _ _ _ _ 
 72
    65
 73
     2
 40
9.524999999999999
 49
6.35
 74
     0
 49
-3.175
 74
     0
  0
ENDTAB
  0
TABLE
  2
LAYER
  5
2
102
{ACAD_XDICTIONARY
360
2E1
102
}
330
0
100
AcDbSymbolTable
 70
    10
  0
LAYER
  5
14
330
2
100
AcDbSymbolTableRecord
100
AcDbLayerTableRecord
  2
0
 70
     0
 62
     7
  6
Continuous
370
    -3
390
1D
347
266
  0
LAYER
  5
4B
330
2
100
AcDbSymbolTableRecord
100
AcDbLayerTableRecord
  2
TEMPLATE
 70
     0
 62
     7
  6
Continuous
370
    20
390
1D
347
266
  0
LAYER
  5
4C
330
2
100
AcDbSymbolTableRecord
100
AcDbLayerTableRecord
  2
DIM
 70
     0
 62
     7
  6
Continuous
370
    13
390
1D
347
266
  0
LAYER
  5
4D
330
2
100
AcDbSymbolTableRecord
100
AcDbLayerTableRecord
  2
MODEL
 70
     0
 62
     7
  6
Continuous
370
    20
390
1D
347
266
  0
LAYER
  5
667
330
2
100
AcDbSymbolTableRecord
100
AcDbLayerTableRecord
  2
LOGO
 70
     0
 62
     7
  6
Continuous
370
    -3
390
1D
347
266
  0
LAYER
  5
D6B
330
2
100
AcDbSymbolTableRecord
100
AcDbLayerTableRecord
  2
BORDER
 70
     0
 62
     4
  6
BORDER
290
     0
370
    20
390
1D
347
266
1001
AcAecLayerStandard
1000

1000

  0
LAYER
  5
D8C
330
2
100
AcDbSymbolTableRecord
100
AcDbLayerTableRecord
  2
Defpoints
 70
     0
 62
     7
  6
Continuous
290
     0
370
    -3
390
1D
347
266
  0
LAYER
  5
1E76
330
2
100
AcDbSymbolTableRecord
100
AcDbLayerTableRecord
  2
モデル
 70
     0
 62
     7
  6
Continuous
370
    20
390
1D
347
266
1001
AcAecLayerStandard
1000

1000

  0
LAYER
  5
1E79
330
2
100
AcDbSymbolTableRecord
100
AcDbLayerTableRecord
  2
寸法
 70
     0
 62
     3
  6
Continuous
370
    13
390
1D
347
266
1001
AcAecLayerStandard
1000

1000

  0
LAYER
  5
1E7A
330
2
100
AcDbSymbolTableRecord
100
AcDbLayerTableRecord
  2
CENTER
 70
     0
 62
   252
  6
CENTER
370
    20
390
1D
347
266
1001
AcAecLayerStandard
1000

1000

  0
ENDTAB
  0
TABLE
  2
STYLE
  5
3
330
0
100
AcDbSymbolTable
 70
     2
  0
STYLE
  5
17
330
3
100
AcDbSymbolTableRecord
100
AcDbTextStyleTableRecord
  2
Standard
 70
     0
 40
0.0
 41
1.0
 50
0.0
 71
     0
 42
2.5
  3
txt
  4
BIGFONT.SHX
  0
STYLE
  5
39
330
3
100
AcDbSymbolTableRecord
100
AcDbTextStyleTableRecord
  2
ＭＳ ゴシック
 70
     0
 40
0.0
 41
1.0
 50
0.0
 71
     0
 42
2.5
  3
msgothic.ttc
  4
ＭＳ ゴシック
1001
ACAD
1000
ＭＳ ゴシック
1071
        0
  0
ENDTAB
  0
TABLE
  2
VIEW
  5
5
330
0
100
AcDbSymbolTable
 70
     0
  0
ENDTAB
  0
TABLE
  2
UCS
  5
6
330
0
100
AcDbSymbolTable
 70
     0
  0
ENDTAB
  0
TABLE
  2
APPID
  5
8
330
0
100
AcDbSymbolTable
 70
     3
  0
APPID
  5
16
330
8
100
AcDbSymbolTableRecord
100
AcDbRegAppTableRecord
  2
ACAD
 70
     0
  0
APPID
  5
7AC
330
8
100
AcDbSymbolTableRecord
100
AcDbRegAppTableRecord
  2
AcAecLayerStandard
 70
     0
  0
APPID
  5
E29
330
8
100
AcDbSymbolTableRecord
100
AcDbRegAppTableRecord
  2
ACAD_MLEADERVER
 70
     0
  0
ENDTAB
  0
TABLE
  2
DIMSTYLE
  5
9
330
0
100
AcDbSymbolTable
 70
     2
100
AcDbDimStyleTable
  0
DIMSTYLE
105
18
330
9
100
AcDbSymbolTableRecord
100
AcDbDimStyleTableRecord
  2
Standard
 70
     0
178
     0
340
17
  0
DIMSTYLE
105
57
102
{ACAD_REACTORS
330
1169
330
14A8
330
14CD
330
152B
330
1559
330
1ECC
330
1F03
330
2325
102
}
330
9
100
AcDbSymbolTableRecord
100
AcDbDimStyleTableRecord
  2
tfrom線あり
 70
     0
  3
<>
  4
[]
 41
2.0
 42
5.0
 43
0.9999999999999999
 44
0.0
 73
     0
 74
     0
 77
     1
 78
    11
140
12.0
141
0.0
143
1.0
147
5.0
171
     1
174
     1
178
     0
179
     2
271
     0
272
     1
276
     2
284
    11
285
    11
286
    11
289
     0
340
39
341
4E
342
4E
  0
ENDTAB
  0
TABLE
  2
BLOCK_RECORD
  5
1
330
0
100
AcDbSymbolTable
 70
    62
  0
BLOCK_RECORD
  5
A
102
{ACAD_XDICTIONARY
360
22F0
102
}
330
1
100
AcDbSymbolTableRecord
100
AcDbBlockTableRecord
  2
*MODEL_SPACE
340
20
 70
     0
280
     1
281
     0
  0
BLOCK_RECORD
  5
B
330
1
100
AcDbSymbolTableRecord
100
AcDbBlockTableRecord
  2
*PAPER_SPACE
340
21
 70
     0
280
     1
281
     0
  0
BLOCK_RECORD
  5
4E
330
1
100
AcDbSymbolTableRecord
100
AcDbBlockTableRecord
  2
_DOT
340
0
102
{BLKREFS
331
1074
331
1075
331
1080
331
1081
331
1090
331
1091
331
109B
331
109C
331
10AA
331
10AB
331
10D2
331
10D3
331
10E5
331
10E6
331
1113
331
1114
331
114F
331
1150
331
115E
331
115F
331
1170
331
1171
331
117E
331
117F
331
121D
331
121E
331
122B
331
122C
331
1238
331
1239
331
1254
331
1255
331
1264
331
1265
331
1272
331
1273
331
127F
331
1280
331
128E
331
128F
331
1314
331
1315
331
1321
331
1322
331
132D
331
132E
331
1339
331
133A
331
1345
331
1346
331
1351
331
1352
331
135D
331
135E
331
1369
331
136A
331
13DC
331
13DD
331
13EB
331
13EC
331
1430
331
1431
331
143E
331
143F
331
1460
331
1461
331
149A
331
149B
331
14B1
331
14B2
331
14D4
331
14D5
331
1505
331
1506
331
1534
331
1535
331
1562
331
1563
331
157B
331
157C
331
1A0C
331
1A0D
331
1A18
331
1A19
331
1A24
331
1A25
331
1A30
331
1A31
331
1A3C
331
1A3D
331
1A48
331
1A49
331
1A54
331
1A55
331
1A60
331
1A61
331
1AAA
331
1AAB
331
1ABD
331
1ABE
331
1ACC
331
1ACD
331
1ADB
331
1ADC
331
1EB5
331
1EB6
331
1ED7
331
1ED8
331
1F0B
331
1F0C
331
232C
331
232D
102
}
 70
     0
280
     1
281
     0
  0
BLOCK_RECORD
  5
68A
330
1
100
AcDbSymbolTableRecord
100
AcDbBlockTableRecord
  2
名称未設定-1
340
0
102
{BLKREFS
331
6B5
102
}
 70
     1
280
     1
281
     0
  0
BLOCK_RECORD
  5
68D
330
1
100
AcDbSymbolTableRecord
100
AcDbBlockTableRecord
  2
block 2
340
0
102
{BLKREFS
331
68C
102
}
 70
     0
280
     1
281
     0
  0
BLOCK_RECORD
  5
690
330
1
100
AcDbSymbolTableRecord
100
AcDbBlockTableRecord
  2
block 3
340
0
102
{BLKREFS
331
68F
102
}
 70
     0
280
     1
281
     0
  0
BLOCK_RECORD
  5
693
330
1
100
AcDbSymbolTableRecord
100
AcDbBlockTableRecord
  2
block 4
340
0
102
{BLKREFS
331
692
102
}
 70
     0
280
     1
281
     0
  0
BLOCK_RECORD
  5
6A2
330
1
100
AcDbSymbolTableRecord
100
AcDbBlockTableRecord
  2
block 5
340
0
102
{BLKREFS
331
6A1
102
}
 70
     0
280
     1
281
     0
  0
BLOCK_RECORD
  5
106E
330
1
100
AcDbSymbolTableRecord
100
AcDbBlockTableRecord
  2
*D6
340
0
 70
     0
280
     1
281
     0
  0
BLOCK_RECORD
  5
107A
330
1
100
AcDbSymbolTableRecord
100
AcDbBlockTableRecord
  2
*D7
340
0
 70
     0
280
     1
281
     0
  0
BLOCK_RECORD
  5
1089
330
1
100
AcDbSymbolTableRecord
100
AcDbBlockTableRecord
  2
*D8
340
0
 70
     0
280
     1
281
     0
  0
BLOCK_RECORD
  5
1095
330
1
100
AcDbSymbolTableRecord
100
AcDbBlockTableRecord
  2
*D9
340
0
 70
     0
280
     1
281
     0
  0
BLOCK_RECORD
  5
10A4
330
1
100
AcDbSymbolTableRecord
100
AcDbBlockTableRecord
  2
*D10
340
0
 70
     0
280
     1
281
     0
  0
BLOCK_RECORD
  5
10CC
330
1
100
AcDbSymbolTableRecord
100
AcDbBlockTableRecord
  2
*D11
340
0
 70
     0
280
     1
281
     0
  0
BLOCK_RECORD
  5
10DF
330
1
100
AcDbSymbolTableRecord
100
AcDbBlockTableRecord
  2
*D12
340
0
 70
     0
280
     1
281
     0
  0
BLOCK_RECORD
  5
110C
330
1
100
AcDbSymbolTableRecord
100
AcDbBlockTableRecord
  2
*D13
340
0
 70
     0
280
     1
281
     0
  0
BLOCK_RECORD
  5
114A
330
1
100
AcDbSymbolTableRecord
100
AcDbBlockTableRecord
  2
*D14
340
0
 70
     0
280
     1
281
     0
  0
BLOCK_RECORD
  5
1157
330
1
100
AcDbSymbolTableRecord
100
AcDbBlockTableRecord
  2
*D15
340
0
 70
     0
280
     1
281
     0
  0
BLOCK_RECORD
  5
116A
330
1
100
AcDbSymbolTableRecord
100
AcDbBlockTableRecord
  2
*D16
340
0
 70
     0
280
     1
281
     0
  0
BLOCK_RECORD
  5
1176
330
1
100
AcDbSymbolTableRecord
100
AcDbBlockTableRecord
  2
*D17
340
0
 70
     0
280
     1
281
     0
  0
BLOCK_RECORD
  5
1218
330
1
100
AcDbSymbolTableRecord
100
AcDbBlockTableRecord
  2
*D18
340
0
 70
     0
280
     1
281
     0
  0
BLOCK_RECORD
  5
1225
330
1
100
AcDbSymbolTableRecord
100
AcDbBlockTableRecord
  2
*D19
340
0
 70
     0
280
     1
281
     0
  0
BLOCK_RECORD
  5
1233
330
1
100
AcDbSymbolTableRecord
100
AcDbBlockTableRecord
  2
*D20
340
0
 70
     0
280
     1
281
     0
  0
BLOCK_RECORD
  5
124F
330
1
100
AcDbSymbolTableRecord
100
AcDbBlockTableRecord
  2
*D21
340
0
 70
     0
280
     1
281
     0
  0
BLOCK_RECORD
  5
125F
330
1
100
AcDbSymbolTableRecord
100
AcDbBlockTableRecord
  2
*D22
340
0
 70
     0
280
     1
281
     0
  0
BLOCK_RECORD
  5
126D
330
1
100
AcDbSymbolTableRecord
100
AcDbBlockTableRecord
  2
*D23
340
0
 70
     0
280
     1
281
     0
  0
BLOCK_RECORD
  5
127A
330
1
100
AcDbSymbolTableRecord
100
AcDbBlockTableRecord
  2
*D24
340
0
 70
     0
280
     1
281
     0
  0
BLOCK_RECORD
  5
1289
330
1
100
AcDbSymbolTableRecord
100
AcDbBlockTableRecord
  2
*D25
340
0
 70
     0
280
     1
281
     0
  0
BLOCK_RECORD
  5
130E
330
1
100
AcDbSymbolTableRecord
100
AcDbBlockTableRecord
  2
*D26
340
0
 70
     0
280
     1
281
     0
  0
BLOCK_RECORD
  5
131A
330
1
100
AcDbSymbolTableRecord
100
AcDbBlockTableRecord
  2
*D27
340
0
 70
     0
280
     1
281
     0
  0
BLOCK_RECORD
  5
1327
330
1
100
AcDbSymbolTableRecord
100
AcDbBlockTableRecord
  2
*D28
340
0
 70
     0
280
     1
281
     0
  0
BLOCK_RECORD
  5
1333
330
1
100
AcDbSymbolTableRecord
100
AcDbBlockTableRecord
  2
*D29
340
0
 70
     0
280
     1
281
     0
  0
BLOCK_RECORD
  5
133F
330
1
100
AcDbSymbolTableRecord
100
AcDbBlockTableRecord
  2
*D30
340
0
 70
     0
280
     1
281
     0
  0
BLOCK_RECORD
  5
134B
330
1
100
AcDbSymbolTableRecord
100
AcDbBlockTableRecord
  2
*D31
340
0
 70
     0
280
     1
281
     0
  0
BLOCK_RECORD
  5
1357
330
1
100
AcDbSymbolTableRecord
100
AcDbBlockTableRecord
  2
*D32
340
0
 70
     0
280
     1
281
     0
  0
BLOCK_RECORD
  5
1363
330
1
100
AcDbSymbolTableRecord
100
AcDbBlockTableRecord
  2
*D33
340
0
 70
     0
280
     1
281
     0
  0
BLOCK_RECORD
  5
13D7
330
1
100
AcDbSymbolTableRecord
100
AcDbBlockTableRecord
  2
*D34
340
0
 70
     0
280
     1
281
     0
  0
BLOCK_RECORD
  5
13E4
330
1
100
AcDbSymbolTableRecord
100
AcDbBlockTableRecord
  2
*D35
340
0
 70
     0
280
     1
281
     0
  0
BLOCK_RECORD
  5
142A
330
1
100
AcDbSymbolTableRecord
100
AcDbBlockTableRecord
  2
*D36
340
0
 70
     0
280
     1
281
     0
  0
BLOCK_RECORD
  5
1436
330
1
100
AcDbSymbolTableRecord
100
AcDbBlockTableRecord
  2
*D37
340
0
 70
     0
280
     1
281
     0
  0
BLOCK_RECORD
  5
145A
330
1
100
AcDbSymbolTableRecord
100
AcDbBlockTableRecord
  2
*D38
340
0
 70
     0
280
     1
281
     0
  0
BLOCK_RECORD
  5
1494
330
1
100
AcDbSymbolTableRecord
100
AcDbBlockTableRecord
  2
*D39
340
0
 70
     0
280
     1
281
     0
  0
BLOCK_RECORD
  5
14AB
330
1
100
AcDbSymbolTableRecord
100
AcDbBlockTableRecord
  2
*D40
340
0
 70
     0
280
     1
281
     0
  0
BLOCK_RECORD
  5
14CE
330
1
100
AcDbSymbolTableRecord
100
AcDbBlockTableRecord
  2
*D41
340
0
 70
     0
280
     1
281
     0
  0
BLOCK_RECORD
  5
14FF
330
1
100
AcDbSymbolTableRecord
100
AcDbBlockTableRecord
  2
*D42
340
0
 70
     0
280
     1
281
     0
  0
BLOCK_RECORD
  5
152E
330
1
100
AcDbSymbolTableRecord
100
AcDbBlockTableRecord
  2
*D43
340
0
 70
     0
280
     1
281
     0
  0
BLOCK_RECORD
  5
155C
330
1
100
AcDbSymbolTableRecord
100
AcDbBlockTableRecord
  2
*D44
340
0
 70
     0
280
     1
281
     0
  0
BLOCK_RECORD
  5
1575
330
1
100
AcDbSymbolTableRecord
100
AcDbBlockTableRecord
  2
*D45
340
0
 70
     0
280
     1
281
     0
  0
BLOCK_RECORD
  5
1A05
330
1
100
AcDbSymbolTableRecord
100
AcDbBlockTableRecord
  2
*D46
340
0
 70
     0
280
     1
281
     0
  0
BLOCK_RECORD
  5
1A12
330
1
100
AcDbSymbolTableRecord
100
AcDbBlockTableRecord
  2
*D47
340
0
 70
     0
280
     1
281
     0
  0
BLOCK_RECORD
  5
1A1E
330
1
100
AcDbSymbolTableRecord
100
AcDbBlockTableRecord
  2
*D48
340
0
 70
     0
280
     1
281
     0
  0
BLOCK_RECORD
  5
1A2A
330
1
100
AcDbSymbolTableRecord
100
AcDbBlockTableRecord
  2
*D49
340
0
 70
     0
280
     1
281
     0
  0
BLOCK_RECORD
  5
1A36
330
1
100
AcDbSymbolTableRecord
100
AcDbBlockTableRecord
  2
*D50
340
0
 70
     0
280
     1
281
     0
  0
BLOCK_RECORD
  5
1A42
330
1
100
AcDbSymbolTableRecord
100
AcDbBlockTableRecord
  2
*D51
340
0
 70
     0
280
     1
281
     0
  0
BLOCK_RECORD
  5
1A4E
330
1
100
AcDbSymbolTableRecord
100
AcDbBlockTableRecord
  2
*D52
340
0
 70
     0
280
     1
281
     0
  0
BLOCK_RECORD
  5
1A5A
330
1
100
AcDbSymbolTableRecord
100
AcDbBlockTableRecord
  2
*D53
340
0
 70
     0
280
     1
281
     0
  0
BLOCK_RECORD
  5
1AA3
330
1
100
AcDbSymbolTableRecord
100
AcDbBlockTableRecord
  2
*D54
340
0
 70
     0
280
     1
281
     0
  0
BLOCK_RECORD
  5
1AB6
330
1
100
AcDbSymbolTableRecord
100
AcDbBlockTableRecord
  2
*D55
340
0
 70
     0
280
     1
281
     0
  0
BLOCK_RECORD
  5
1AC6
330
1
100
AcDbSymbolTableRecord
100
AcDbBlockTableRecord
  2
*D56
340
0
 70
     0
280
     1
281
     0
  0
BLOCK_RECORD
  5
1AD5
330
1
100
AcDbSymbolTableRecord
100
AcDbBlockTableRecord
  2
*D57
340
0
 70
     0
280
     1
281
     0
  0
BLOCK_RECORD
  5
1EB0
330
1
100
AcDbSymbolTableRecord
100
AcDbBlockTableRecord
  2
*D58
340
0
 70
     0
280
     1
281
     0
  0
BLOCK_RECORD
  5
1ED1
330
1
100
AcDbSymbolTableRecord
100
AcDbBlockTableRecord
  2
*D59
340
0
 70
     0
280
     1
281
     0
  0
BLOCK_RECORD
  5
1F06
330
1
100
AcDbSymbolTableRecord
100
AcDbBlockTableRecord
  2
*D60
340
0
 70
     0
280
     1
281
     0
  0
BLOCK_RECORD
  5
2326
330
1
100
AcDbSymbolTableRecord
100
AcDbBlockTableRecord
  2
*D61
340
0
 70
     0
280
     1
281
     0
  0
ENDTAB
  0
ENDSEC
  0
SECTION
  2
BLOCKS
  0
BLOCK
  5
D
330
A
100
AcDbEntity
  8
0
390
1D
100
AcDbBlockBegin
  2
*MODEL_SPACE
 70
     0
 10
0.0
 20
0.0
 30
0.0
  3
*MODEL_SPACE
  1
*MODEL_SPACE
  0
ENDBLK
  5
E
330
A
100
AcDbEntity
  8
0
390
1D
100
AcDbBlockEnd
  0
BLOCK
  5
F
330
B
100
AcDbEntity
 67
     1
  8
0
390
1D
100
AcDbBlockBegin
  2
*PAPER_SPACE
 70
     0
 10
0.0
 20
0.0
 30
0.0
  3
*PAPER_SPACE
  1
*PAPER_SPACE
  0
ENDBLK
  5
10
330
B
100
AcDbEntity
 67
     1
  8
0
390
1D
100
AcDbBlockEnd
  0
BLOCK
  5
1482
330
4E
100
AcDbEntity
  8
0
390
1D
100
AcDbBlockBegin
  2
_DOT
 70
     0
 10
0.0
 20
0.0
 30
0.0
  3
_DOT
  1
_DOT
  0
POLYLINE
  5
1484
330
4E
100
AcDbEntity
  8
0
  6
ByBlock
 62
     0
370
    -2
390
1D
100
AcDb2dPolyline
 66
     1
 10
0.0
 20
0.0
 30
0.0
 70
     1
 40
0.5
 41
0.5
  0
VERTEX
  5
1485
330
1484
100
AcDbEntity
  8
0
  6
ByBlock
 62
     0
370
    -2
390
1D
100
AcDbVertex
100
AcDb2dVertex
 10
-0.25
 20
0.0
 30
0.0
 42
1.0
  0
VERTEX
  5
1486
330
1484
100
AcDbEntity
  8
0
  6
ByBlock
 62
     0
370
    -2
390
1D
100
AcDbVertex
100
AcDb2dVertex
 10
0.25
 20
0.0
 30
0.0
 42
1.0
  0
SEQEND
  5
1487
330
1484
100
AcDbEntity
  8
0
390
1D
  0
LINE
  5
1488
330
4E
100
AcDbEntity
  8
0
  6
ByBlock
 62
     0
370
    -2
390
1D
100
AcDbLine
 10
-0.5
 20
0.0
 30
0.0
 11
-1.0
 21
0.0
 31
0.0
  0
ENDBLK
  5
1489
330
4E
100
AcDbEntity
  8
0
390
1D
100
AcDbBlockEnd
  0
BLOCK
  5
68B
330
68A
100
AcDbEntity
  8
0
100
AcDbBlockBegin
  2
名称未設定-1
 70
     0
 10
0.0
 20
0.0
 30
0.0
  3
名称未設定-1
  1
名称未設定-1
  0
INSERT
  5
68F
330
68A
100
AcDbEntity
  8
LOGO
100
AcDbBlockReference
  2
block 3
 10
0.0
 20
0.0
 30
0.0
  0
ENDBLK
  5
6B1
330
68A
100
AcDbEntity
  8
0
100
AcDbBlockEnd
  0
BLOCK
  5
68E
330
68D
100
AcDbEntity
  8
0
100
AcDbBlockBegin
  2
block 2
 70
     0
 10
0.0
 20
0.0
 30
0.0
  3
block 2
  1
block 2
  0
ENDBLK
  5
6B0
330
68D
100
AcDbEntity
  8
0
100
AcDbBlockEnd
  0
BLOCK
  5
691
330
690
100
AcDbEntity
  8
0
100
AcDbBlockBegin
  2
block 3
 70
     0
 10
0.0
 20
0.0
 30
0.0
  3
block 3
  1
block 3
  0
INSERT
  5
692
330
690
100
AcDbEntity
  8
LOGO
100
AcDbBlockReference
  2
block 4
 10
0.0
 20
0.0
 30
0.0
  0
INSERT
  5
6A1
330
690
100
AcDbEntity
  8
LOGO
100
AcDbBlockReference
  2
block 5
 10
0.0
 20
0.0
 30
0.0
  0
ENDBLK
  5
6AF
330
690
100
AcDbEntity
  8
0
100
AcDbBlockEnd
  0
BLOCK
  5
694
330
693
100
AcDbEntity
  8
0
100
AcDbBlockBegin
  2
block 4
 70
     0
 10
0.0
 20
0.0
 30
0.0
  3
block 4
  1
block 4
  0
POLYLINE
  5
695
330
693
100
AcDbEntity
  8
LOGO
370
     0
100
AcDb2dPolyline
 66
     1
 10
0.0
 20
0.0
 30
0.0
  0
VERTEX
  5
696
330
695
100
AcDbEntity
  8
LOGO
370
     0
100
AcDbVertex
100
AcDb2dVertex
 10
83.79545727667795
 20
167.6444858234922
 30
0.0
  0
VERTEX
  5
697
330
695
100
AcDbEntity
  8
LOGO
370
     0
100
AcDbVertex
100
AcDb2dVertex
 10
83.79545727667795
 20
159.7968976406313
 30
0.0
  0
VERTEX
  5
698
330
695
100
AcDbEntity
  8
LOGO
370
     0
100
AcDbVertex
100
AcDb2dVertex
 10
71.3631329975216
 20
159.7968976406313
 30
0.0
  0
VERTEX
  5
699
330
695
100
AcDbEntity
  8
LOGO
370
     0
100
AcDbVertex
100
AcDb2dVertex
 10
71.3631329975216
 20
127.8027915271048
 30
0.0
  0
VERTEX
  5
69A
330
695
100
AcDbEntity
  8
LOGO
370
     0
100
AcDbVertex
100
AcDb2dVertex
 10
60.43011526263018
 20
127.8027915271048
 30
0.0
  0
VERTEX
  5
69B
330
695
100
AcDbEntity
  8
LOGO
370
     0
100
AcDbVertex
100
AcDb2dVertex
 10
60.43011526263018
 20
159.7968976406313
 30
0.0
  0
VERTEX
  5
69C
330
695
100
AcDbEntity
  8
LOGO
370
     0
100
AcDbVertex
100
AcDb2dVertex
 10
48.21793273020759
 20
159.7968976406313
 30
0.0
  0
VERTEX
  5
69D
330
695
100
AcDbEntity
  8
LOGO
370
     0
100
AcDbVertex
100
AcDb2dVertex
 10
48.21793273020759
 20
167.6444858234922
 30
0.0
  0
VERTEX
  5
69E
330
695
100
AcDbEntity
  8
LOGO
370
     0
100
AcDbVertex
100
AcDb2dVertex
 10
83.79545727667795
 20
167.6444858234922
 30
0.0
  0
SEQEND
  5
69F
330
695
100
AcDbEntity
  8
LOGO
370
     0
  0
HATCH
  5
6A0
330
693
100
AcDbEntity
  8
LOGO
 62
   250
420
  2234388
100
AcDbHatch
 10
0.0
 20
0.0
 30
0.0
210
0.0
220
0.0
230
1.0
  2
SOLID
 70
     1
 71
     0
 91
        1
 92
        1
 93
        8
 72
     1
 10
83.79545727667795
 20
167.6444858234922
 11
83.79545727667795
 21
159.7968976406313
 72
     1
 10
83.79545727667795
 20
159.7968976406313
 11
71.3631329975216
 21
159.7968976406313
 72
     1
 10
71.3631329975216
 20
159.7968976406313
 11
71.3631329975216
 21
127.8027915271048
 72
     1
 10
71.3631329975216
 20
127.8027915271048
 11
60.43011526263018
 21
127.8027915271048
 72
     1
 10
60.43011526263018
 20
127.8027915271048
 11
60.43011526263018
 21
159.7968976406313
 72
     1
 10
60.43011526263018
 20
159.7968976406313
 11
48.21793273020759
 21
159.7968976406313
 72
     1
 10
48.21793273020759
 20
159.7968976406313
 11
48.21793273020759
 21
167.6444858234922
 72
     1
 10
48.21793273020759
 20
167.6444858234922
 11
83.79545727667795
 21
167.6444858234922
 97
        0
 75
     2
 76
     1
 98
        0
  0
ENDBLK
  5
6AE
330
693
100
AcDbEntity
  8
0
100
AcDbBlockEnd
  0
BLOCK
  5
6A3
330
6A2
100
AcDbEntity
  8
0
100
AcDbBlockBegin
  2
block 5
 70
     0
 10
0.0
 20
0.0
 30
0.0
  3
block 5
  1
block 5
  0
SPLINE
  5
6A4
330
6A2
100
AcDbEntity
  8
LOGO
370
     0
100
AcDbSpline
210
0.0
220
0.0
230
1.0
 70
    11
 71
     3
 72
    56
 73
    52
 74
     0
 42
0.000000001
 43
0.0000000001
 40
0.0
 40
0.0
 40
0.0
 40
0.0
 40
1.0
 40
1.0
 40
1.0
 40
2.0
 40
2.0
 40
2.0
 40
3.0
 40
3.0
 40
3.0
 40
4.0
 40
4.0
 40
4.0
 40
5.0
 40
5.0
 40
5.0
 40
6.0
 40
6.0
 40
6.0
 40
7.0
 40
7.0
 40
7.0
 40
8.0
 40
8.0
 40
8.0
 40
9.0
 40
9.0
 40
9.0
 40
10.0
 40
10.0
 40
10.0
 40
11.0
 40
11.0
 40
11.0
 40
12.0
 40
12.0
 40
12.0
 40
13.0
 40
13.0
 40
13.0
 40
14.0
 40
14.0
 40
14.0
 40
15.0
 40
15.0
 40
15.0
 40
16.0
 40
16.0
 40
16.0
 40
17.0
 40
17.0
 40
17.0
 40
17.0
 10
100.4504378777679
 20
166.69157178364
 30
0.0
 10
101.9848844191641
 20
167.1313385124438
 30
0.0
 10
103.9637485713373
 20
166.7649523658846
 30
0.0
 10
103.9637485713373
 20
166.7649523658846
 30
0.0
 10
103.9637485713373
 20
166.7649523658846
 30
0.0
 10
103.0132460999156
 20
163.911205638077
 30
0.0
 10
103.0132460999156
 20
163.911205638077
 30
0.0
 10
103.0132460999156
 20
163.911205638077
 30
0.0
 10
101.0674548862189
 20
164.3601018759394
 30
0.0
 10
99.57090442016032
 20
163.1805004036133
 30
0.0
 10
98.40508333886608
 20
162.258247733807
 30
0.0
 10
97.65301849830304
 20
159.804132345923
 30
0.0
 10
97.3598406791005
 20
158.8699940888517
 30
0.0
 10
97.3598406791005
 20
158.8699940888517
 30
0.0
 10
96.07137411762282
 20
154.9119212747295
 30
0.0
 10
96.07137411762282
 20
154.9119212747295
 30
0.0
 10
96.07137411762282
 20
154.9119212747295
 30
0.0
 10
100.3012651448482
 20
154.9119212747295
 30
0.0
 10
100.3012651448482
 20
154.9119212747295
 30
0.0
 10
100.3012651448482
 20
154.9119212747295
 30
0.0
 10
99.64152892419852
 20
152.4199098115079
 30
0.0
 10
99.64152892419852
 20
152.4199098115079
 30
0.0
 10
99.64152892419852
 20
152.4199098115079
 30
0.0
 10
95.38097652692731
 20
152.4199098115079
 30
0.0
 10
95.38097652692731
 20
152.4199098115079
 30
0.0
 10
95.38097652692731
 20
152.4199098115079
 30
0.0
 10
87.75353009080013
 20
127.8027915271048
 30
0.0
 10
87.75353009080013
 20
127.8027915271048
 30
0.0
 10
87.75353009080013
 20
127.8027915271048
 30
0.0
 10
85.36538832498108
 20
127.8027915271048
 30
0.0
 10
85.36538832498108
 20
127.8027915271048
 30
0.0
 10
85.36538832498108
 20
127.8027915271048
 30
0.0
 10
93.00006946639998
 20
152.4199098115079
 30
0.0
 10
93.00006946639998
 20
152.4199098115079
 30
0.0
 10
93.00006946639998
 20
152.4199098115079
 30
0.0
 10
89.85297266450198
 20
152.4199098115079
 30
0.0
 10
89.85297266450198
 20
152.4199098115079
 30
0.0
 10
89.85297266450198
 20
152.4199098115079
 30
0.0
 10
90.51270888515164
 20
154.9119212747295
 30
0.0
 10
90.51270888515164
 20
154.9119212747295
 30
0.0
 10
90.51270888515164
 20
154.9119212747295
 30
0.0
 10
93.6904670570955
 20
154.9119212747295
 30
0.0
 10
93.6904670570955
 20
154.9119212747295
 30
0.0
 10
93.6904670570955
 20
154.9119212747295
 30
0.0
 10
94.81598049462158
 20
158.3616699146644
 30
0.0
 10
94.81598049462158
 20
158.3616699146644
 30
0.0
 10
95.7237637538445
 20
161.2605474231013
 30
0.0
 10
96.4968436907311
 20
162.8139420021662
 30
0.0
 10
97.15657991138076
 20
163.9844139654337
 30
0.0
 10
97.81183750494507
 20
165.1523021053827
 30
0.0
 10
99.1047826935081
 20
166.3084769129547
 30
0.0
 10
100.4504378777679
 20
166.69157178364
 30
0.0
  0
HATCH
  5
6A5
330
6A2
100
AcDbEntity
  8
LOGO
 62
   250
420
  2234388
100
AcDbHatch
 10
0.0
 20
0.0
 30
0.0
210
0.0
220
0.0
230
1.0
  2
SOLID
 70
     1
 71
     0
 91
        1
 92
        1
 93
        1
 72
     4
 94
        3
 73
     0
 74
     1
 95
       56
 96
       52
 40
0.0
 40
0.0
 40
0.0
 40
0.0
 40
1.0
 40
1.0
 40
1.0
 40
2.0
 40
2.0
 40
2.0
 40
3.0
 40
3.0
 40
3.0
 40
4.0
 40
4.0
 40
4.0
 40
5.0
 40
5.0
 40
5.0
 40
6.0
 40
6.0
 40
6.0
 40
7.0
 40
7.0
 40
7.0
 40
8.0
 40
8.0
 40
8.0
 40
9.0
 40
9.0
 40
9.0
 40
10.0
 40
10.0
 40
10.0
 40
11.0
 40
11.0
 40
11.0
 40
12.0
 40
12.0
 40
12.0
 40
13.0
 40
13.0
 40
13.0
 40
14.0
 40
14.0
 40
14.0
 40
15.0
 40
15.0
 40
15.0
 40
16.0
 40
16.0
 40
16.0
 40
17.0
 40
17.0
 40
17.0
 40
17.0
 10
100.4504378777679
 20
166.69157178364
 10
101.9848844191641
 20
167.1313385124438
 10
103.9637485713373
 20
166.7649523658846
 10
103.9637485713373
 20
166.7649523658846
 10
103.9637485713373
 20
166.7649523658846
 10
103.0132460999156
 20
163.911205638077
 10
103.0132460999156
 20
163.911205638077
 10
103.0132460999156
 20
163.911205638077
 10
101.0674548862189
 20
164.3601018759394
 10
99.57090442016032
 20
163.1805004036133
 10
98.40508333886608
 20
162.258247733807
 10
97.65301849830304
 20
159.804132345923
 10
97.3598406791005
 20
158.8699940888517
 10
97.3598406791005
 20
158.8699940888517
 10
96.07137411762282
 20
154.9119212747295
 10
96.07137411762282
 20
154.9119212747295
 10
96.07137411762282
 20
154.9119212747295
 10
100.3012651448482
 20
154.9119212747295
 10
100.3012651448482
 20
154.9119212747295
 10
100.3012651448482
 20
154.9119212747295
 10
99.64152892419852
 20
152.4199098115079
 10
99.64152892419852
 20
152.4199098115079
 10
99.64152892419852
 20
152.4199098115079
 10
95.38097652692731
 20
152.4199098115079
 10
95.38097652692731
 20
152.4199098115079
 10
95.38097652692731
 20
152.4199098115079
 10
87.75353009080013
 20
127.8027915271048
 10
87.75353009080013
 20
127.8027915271048
 10
87.75353009080013
 20
127.8027915271048
 10
85.36538832498108
 20
127.8027915271048
 10
85.36538832498108
 20
127.8027915271048
 10
85.36538832498108
 20
127.8027915271048
 10
93.00006946639998
 20
152.4199098115079
 10
93.00006946639998
 20
152.4199098115079
 10
93.00006946639998
 20
152.4199098115079
 10
89.85297266450198
 20
152.4199098115079
 10
89.85297266450198
 20
152.4199098115079
 10
89.85297266450198
 20
152.4199098115079
 10
90.51270888515164
 20
154.9119212747295
 10
90.51270888515164
 20
154.9119212747295
 10
90.51270888515164
 20
154.9119212747295
 10
93.6904670570955
 20
154.9119212747295
 10
93.6904670570955
 20
154.9119212747295
 10
93.6904670570955
 20
154.9119212747295
 10
94.81598049462158
 20
158.3616699146644
 10
94.81598049462158
 20
158.3616699146644
 10
95.7237637538445
 20
161.2605474231013
 10
96.4968436907311
 20
162.8139420021662
 10
97.15657991138076
 20
163.9844139654337
 10
97.81183750494507
 20
165.1523021053827
 10
99.1047826935081
 20
166.3084769129547
 10
100.4504378777679
 20
166.69157178364
 97
        0
 75
     2
 76
     1
 98
        0
  0
SPLINE
  5
6A6
330
6A2
100
AcDbEntity
  8
LOGO
370
     0
100
AcDbSpline
210
0.0
220
0.0
230
1.0
 70
    11
 71
     3
 72
    38
 73
    34
 74
     0
 42
0.000000001
 43
0.0000000001
 40
0.0
 40
0.0
 40
0.0
 40
0.0
 40
1.0
 40
1.0
 40
1.0
 40
2.0
 40
2.0
 40
2.0
 40
3.0
 40
3.0
 40
3.0
 40
4.0
 40
4.0
 40
4.0
 40
5.0
 40
5.0
 40
5.0
 40
6.0
 40
6.0
 40
6.0
 40
7.0
 40
7.0
 40
7.0
 40
8.0
 40
8.0
 40
8.0
 40
9.0
 40
9.0
 40
9.0
 40
10.0
 40
10.0
 40
10.0
 40
11.0
 40
11.0
 40
11.0
 40
11.0
 10
126.377554584636
 20
154.8151140277308
 30
0.0
 10
126.377554584636
 20
154.8151140277308
 30
0.0
 10
128.8311532078563
 20
154.8151140277308
 30
0.0
 10
128.8311532078563
 20
154.8151140277308
 30
0.0
 10
128.8311532078563
 20
154.8151140277308
 30
0.0
 10
127.7345785914971
 20
151.3062819612468
 30
0.0
 10
127.7345785914971
 20
151.3062819612468
 30
0.0
 10
128.571392836906
 20
152.2922689395754
 30
0.0
 10
129.8860421413442
 20
153.604506675583
 30
0.0
 10
131.0163787157314
 20
154.2664822097754
 30
0.0
 10
132.7044766171327
 20
155.2500576196734
 30
0.0
 10
133.6642808525008
 20
155.3847609420097
 30
0.0
 10
134.7284715499351
 20
155.3565111403944
 30
0.0
 10
134.7284715499351
 20
155.3565111403944
 30
0.0
 10
133.6877075172549
 20
152.0345756272799
 30
0.0
 10
133.6877075172549
 20
152.0345756272799
 30
0.0
 10
133.011434827367
 20
152.3184516825359
 30
0.0
 10
130.930940291334
 20
151.7768823149844
 30
0.0
 10
129.739280976855
 20
150.9162968950455
 30
0.0
 10
128.66613302525
 20
150.1454562717016
 30
0.0
 10
127.9192358313239
 20
149.4857200510519
 30
0.0
 10
127.0393578639405
 20
147.8282835196966
 30
0.0
 10
126.164647543194
 20
146.1699857139017
 30
0.0
 10
125.4742499524985
 20
143.5262176944419
 30
0.0
 10
124.2822461282437
 20
139.6959580071401
 30
0.0
 10
124.2822461282437
 20
139.6959580071401
 30
0.0
 10
120.5753209406769
 20
127.8027915271048
 30
0.0
 10
120.5753209406769
 20
127.8027915271048
 30
0.0
 10
120.5753209406769
 20
127.8027915271048
 30
0.0
 10
118.1964809388044
 20
127.8027915271048
 30
0.0
 10
118.1964809388044
 20
127.8027915271048
 30
0.0
 10
118.1964809388044
 20
127.8027915271048
 30
0.0
 10
126.377554584636
 20
154.8151140277308
 30
0.0
 10
126.377554584636
 20
154.8151140277308
 30
0.0
  0
HATCH
  5
6A7
330
6A2
100
AcDbEntity
  8
LOGO
 62
   250
420
  2234388
100
AcDbHatch
 10
0.0
 20
0.0
 30
0.0
210
0.0
220
0.0
230
1.0
  2
SOLID
 70
     1
 71
     0
 91
        1
 92
        1
 93
        1
 72
     4
 94
        3
 73
     0
 74
     1
 95
       38
 96
       34
 40
0.0
 40
0.0
 40
0.0
 40
0.0
 40
1.0
 40
1.0
 40
1.0
 40
2.0
 40
2.0
 40
2.0
 40
3.0
 40
3.0
 40
3.0
 40
4.0
 40
4.0
 40
4.0
 40
5.0
 40
5.0
 40
5.0
 40
6.0
 40
6.0
 40
6.0
 40
7.0
 40
7.0
 40
7.0
 40
8.0
 40
8.0
 40
8.0
 40
9.0
 40
9.0
 40
9.0
 40
10.0
 40
10.0
 40
10.0
 40
11.0
 40
11.0
 40
11.0
 40
11.0
 10
126.377554584636
 20
154.8151140277308
 10
126.377554584636
 20
154.8151140277308
 10
128.8311532078563
 20
154.8151140277308
 10
128.8311532078563
 20
154.8151140277308
 10
128.8311532078563
 20
154.8151140277308
 10
127.7345785914971
 20
151.3062819612468
 10
127.7345785914971
 20
151.3062819612468
 10
128.571392836906
 20
152.2922689395754
 10
129.8860421413442
 20
153.604506675583
 10
131.0163787157314
 20
154.2664822097754
 10
132.7044766171327
 20
155.2500576196734
 10
133.6642808525008
 20
155.3847609420097
 10
134.7284715499351
 20
155.3565111403944
 10
134.7284715499351
 20
155.3565111403944
 10
133.6877075172549
 20
152.0345756272799
 10
133.6877075172549
 20
152.0345756272799
 10
133.011434827367
 20
152.3184516825359
 10
130.930940291334
 20
151.7768823149844
 10
129.739280976855
 20
150.9162968950455
 10
128.66613302525
 20
150.1454562717016
 10
127.9192358313239
 20
149.4857200510519
 10
127.0393578639405
 20
147.8282835196966
 10
126.164647543194
 20
146.1699857139017
 10
125.4742499524985
 20
143.5262176944419
 10
124.2822461282437
 20
139.6959580071401
 10
124.2822461282437
 20
139.6959580071401
 10
120.5753209406769
 20
127.8027915271048
 10
120.5753209406769
 20
127.8027915271048
 10
120.5753209406769
 20
127.8027915271048
 10
118.1964809388044
 20
127.8027915271048
 10
118.1964809388044
 20
127.8027915271048
 10
118.1964809388044
 20
127.8027915271048
 10
126.377554584636
 20
154.8151140277308
 10
126.377554584636
 20
154.8151140277308
 97
        0
 75
     2
 76
     1
 98
        0
  0
SPLINE
  5
6A8
330
6A2
100
AcDbEntity
  8
LOGO
370
     0
100
AcDbSpline
210
0.0
220
0.0
230
1.0
 70
    11
 71
     3
 72
   104
 73
   100
 74
     0
 42
0.000000001
 43
0.0000000001
 40
0.0
 40
0.0
 40
0.0
 40
0.0
 40
1.0
 40
1.0
 40
1.0
 40
2.0
 40
2.0
 40
2.0
 40
3.0
 40
3.0
 40
3.0
 40
4.0
 40
4.0
 40
4.0
 40
5.0
 40
5.0
 40
5.0
 40
6.0
 40
6.0
 40
6.0
 40
7.0
 40
7.0
 40
7.0
 40
8.0
 40
8.0
 40
8.0
 40
9.0
 40
9.0
 40
9.0
 40
10.0
 40
10.0
 40
10.0
 40
11.0
 40
11.0
 40
11.0
 40
12.0
 40
12.0
 40
12.0
 40
13.0
 40
13.0
 40
13.0
 40
14.0
 40
14.0
 40
14.0
 40
15.0
 40
15.0
 40
15.0
 40
16.0
 40
16.0
 40
16.0
 40
17.0
 40
17.0
 40
17.0
 40
18.0
 40
18.0
 40
18.0
 40
19.0
 40
19.0
 40
19.0
 40
20.0
 40
20.0
 40
20.0
 40
21.0
 40
21.0
 40
21.0
 40
22.0
 40
22.0
 40
22.0
 40
23.0
 40
23.0
 40
23.0
 40
24.0
 40
24.0
 40
24.0
 40
25.0
 40
25.0
 40
25.0
 40
26.0
 40
26.0
 40
26.0
 40
27.0
 40
27.0
 40
27.0
 40
28.0
 40
28.0
 40
28.0
 40
29.0
 40
29.0
 40
29.0
 40
30.0
 40
30.0
 40
30.0
 40
31.0
 40
31.0
 40
31.0
 40
32.0
 40
32.0
 40
32.0
 40
33.0
 40
33.0
 40
33.0
 40
33.0
 10
139.8926730891197
 20
154.8294111834263
 30
0.0
 10
139.8926730891197
 20
154.8294111834263
 30
0.0
 10
142.0344903652445
 20
154.8294111834263
 30
0.0
 10
142.0344903652445
 20
154.8294111834263
 30
0.0
 10
142.0344903652445
 20
154.8294111834263
 30
0.0
 10
140.9516961399171
 20
151.3157559800812
 30
0.0
 10
140.9516961399171
 20
151.3157559800812
 30
0.0
 10
141.8928968473923
 20
152.7887075264977
 30
0.0
 10
142.7341897198865
 20
153.4484437471474
 30
0.0
 10
143.8552245303272
 20
154.2926649527359
 30
0.0
 10
144.9803934580775
 20
155.1296514530327
 30
0.0
 10
146.3139908001845
 20
155.3044901642492
 30
0.0
 10
147.241066606852
 20
155.3044901642492
 30
0.0
 10
148.3855280820469
 20
155.3044901642492
 30
0.0
 10
149.4969166187653
 20
155.0752189084569
 30
0.0
 10
150.0784491203092
 20
153.8172414621372
 30
0.0
 10
150.5228667310863
 20
152.833838307127
 30
0.0
 10
150.5414702589793
 20
152.7201500811143
 30
0.0
 10
150.4140016419347
 20
150.7765981809602
 30
0.0
 10
151.5818897818837
 20
152.7699317437168
 30
0.0
 10
152.4424752018226
 20
153.6256940267945
 30
0.0
 10
153.9038856707499
 20
154.4507949398263
 30
0.0
 10
155.4455669174378
 20
155.3044901642492
 30
0.0
 10
156.339225275853
 20
155.3659851592288
 30
0.0
 10
157.3748216618963
 20
155.2147453676543
 30
0.0
 10
158.911679771723
 20
154.9877134254046
 30
0.0
 10
159.8859534176746
 20
154.4390816074493
 30
0.0
 10
160.3965169054045
 20
152.7816450760939
 30
0.0
 10
160.9070803931344
 20
151.1219692311958
 30
0.0
 10
160.6328506116007
 20
150.2303779314354
 30
0.0
 10
159.9992971339115
 20
147.597634224801
 30
0.0
 10
159.7105979417943
 20
146.4014962832367
 30
0.0
 10
159.2947746424084
 20
144.9400858143094
 30
0.0
 10
158.7463150793409
 20
143.2092687007094
 30
0.0
 10
158.7463150793409
 20
143.2092687007094
 30
0.0
 10
153.9038856707499
 20
127.8027915271048
 30
0.0
 10
153.9038856707499
 20
127.8027915271048
 30
0.0
 10
153.9038856707499
 20
127.8027915271048
 30
0.0
 10
151.3882752878863
 20
127.8027915271048
 30
0.0
 10
151.3882752878863
 20
127.8027915271048
 30
0.0
 10
151.3882752878863
 20
127.8027915271048
 30
0.0
 10
155.6250565106276
 20
141.2751908193897
 30
0.0
 10
155.6250565106276
 20
141.2751908193897
 30
0.0
 10
156.5094131050963
 20
144.0936252951782
 30
0.0
 10
157.109893644309
 20
146.1506931664571
 30
0.0
 10
157.4220195011804
 20
147.4415712963654
 30
0.0
 10
157.8095929989511
 20
149.0530157726519
 30
0.0
 10
157.9656559273867
 20
149.5826995529385
 30
0.0
 10
157.7816877071116
 20
150.7529992613181
 30
0.0
 10
157.6111553680925
 20
151.8430281919372
 30
0.0
 10
157.0582171779396
 20
152.5547853887321
 30
0.0
 10
156.1170164704645
 20
152.5547853887321
 30
0.0
 10
155.1096698860365
 20
152.5547853887321
 30
0.0
 10
154.2962823053817
 20
152.4412694176073
 30
0.0
 10
153.156643967048
 20
151.2945686288697
 30
0.0
 10
152.0170056287143
 20
150.1476955852443
 30
0.0
 10
151.076149431015
 20
148.7930831468137
 30
0.0
 10
150.3337308641742
 20
147.2290087646991
 30
0.0
 10
149.5957909244188
 20
145.6683794803425
 30
0.0
 10
148.8530278478023
 20
143.6822806228776
 30
0.0
 10
148.0964843801539
 20
141.2751908193897
 30
0.0
 10
148.0964843801539
 20
141.2751908193897
 30
0.0
 10
143.8552245303272
 20
127.8027915271048
 30
0.0
 10
143.8552245303272
 20
127.8027915271048
 30
0.0
 10
143.8552245303272
 20
127.8027915271048
 30
0.0
 10
141.486030802177
 20
127.8027915271048
 30
0.0
 10
141.486030802177
 20
127.8027915271048
 30
0.0
 10
141.486030802177
 20
127.8027915271048
 30
0.0
 10
146.3329388378533
 20
143.2092687007094
 30
0.0
 10
146.3329388378533
 20
143.2092687007094
 30
0.0
 10
146.8483254624444
 20
144.8408669988801
 30
0.0
 10
147.2314203331297
 20
146.1837661049335
 30
0.0
 10
147.4867020769946
 20
147.224185627838
 30
0.0
 10
147.9169947869641
 20
149.0197705792876
 30
0.0
 10
148.0306830129768
 20
150.2400242051577
 30
0.0
 10
147.709255392159
 20
151.3157559800812
 30
0.0
 10
147.3874832615654
 20
152.3916600098926
 30
0.0
 10
146.8245542879144
 20
152.6683013598569
 30
0.0
 10
145.8840425999909
 20
152.6683013598569
 30
0.0
 10
145.0989048209514
 20
152.6683013598569
 30
0.0
 10
144.3282364524954
 20
152.3275811915945
 30
0.0
 10
143.4531816219731
 20
151.6538923250251
 30
0.0
 10
142.34627171234
 20
150.8074318058939
 30
0.0
 10
141.901854101563
 20
150.1097995099067
 30
0.0
 10
141.3578731655808
 20
149.289521733736
 30
0.0
 10
140.6299240093235
 20
148.192602607601
 30
0.0
 10
140.2850697237515
 20
147.455696197173
 30
0.0
 10
139.6652966370942
 20
145.8385673095858
 30
0.0
 10
139.0506911970739
 20
144.2214384219986
 30
0.0
 10
138.463991048893
 20
142.3252566160164
 30
0.0
 10
138.0571250036777
 20
141.0154304484394
 30
0.0
 10
138.0571250036777
 20
141.0154304484394
 30
0.0
 10
133.9009590684727
 20
127.8027915271048
 30
0.0
 10
133.9009590684727
 20
127.8027915271048
 30
0.0
 10
133.9009590684727
 20
127.8027915271048
 30
0.0
 10
131.4180771143097
 20
127.8027915271048
 30
0.0
 10
131.4180771143097
 20
127.8027915271048
 30
0.0
 10
131.4180771143097
 20
127.8027915271048
 30
0.0
 10
139.8926730891197
 20
154.8294111834263
 30
0.0
 10
139.8926730891197
 20
154.8294111834263
 30
0.0
  0
HATCH
  5
6A9
330
6A2
100
AcDbEntity
  8
LOGO
 62
   250
420
  2234388
100
AcDbHatch
 10
0.0
 20
0.0
 30
0.0
210
0.0
220
0.0
230
1.0
  2
SOLID
 70
     1
 71
     0
 91
        1
 92
        1
 93
        1
 72
     4
 94
        3
 73
     0
 74
     1
 95
      104
 96
      100
 40
0.0
 40
0.0
 40
0.0
 40
0.0
 40
1.0
 40
1.0
 40
1.0
 40
2.0
 40
2.0
 40
2.0
 40
3.0
 40
3.0
 40
3.0
 40
4.0
 40
4.0
 40
4.0
 40
5.0
 40
5.0
 40
5.0
 40
6.0
 40
6.0
 40
6.0
 40
7.0
 40
7.0
 40
7.0
 40
8.0
 40
8.0
 40
8.0
 40
9.0
 40
9.0
 40
9.0
 40
10.0
 40
10.0
 40
10.0
 40
11.0
 40
11.0
 40
11.0
 40
12.0
 40
12.0
 40
12.0
 40
13.0
 40
13.0
 40
13.0
 40
14.0
 40
14.0
 40
14.0
 40
15.0
 40
15.0
 40
15.0
 40
16.0
 40
16.0
 40
16.0
 40
17.0
 40
17.0
 40
17.0
 40
18.0
 40
18.0
 40
18.0
 40
19.0
 40
19.0
 40
19.0
 40
20.0
 40
20.0
 40
20.0
 40
21.0
 40
21.0
 40
21.0
 40
22.0
 40
22.0
 40
22.0
 40
23.0
 40
23.0
 40
23.0
 40
24.0
 40
24.0
 40
24.0
 40
25.0
 40
25.0
 40
25.0
 40
26.0
 40
26.0
 40
26.0
 40
27.0
 40
27.0
 40
27.0
 40
28.0
 40
28.0
 40
28.0
 40
29.0
 40
29.0
 40
29.0
 40
30.0
 40
30.0
 40
30.0
 40
31.0
 40
31.0
 40
31.0
 40
32.0
 40
32.0
 40
32.0
 40
33.0
 40
33.0
 40
33.0
 40
33.0
 10
139.8926730891197
 20
154.8294111834263
 10
139.8926730891197
 20
154.8294111834263
 10
142.0344903652445
 20
154.8294111834263
 10
142.0344903652445
 20
154.8294111834263
 10
142.0344903652445
 20
154.8294111834263
 10
140.9516961399171
 20
151.3157559800812
 10
140.9516961399171
 20
151.3157559800812
 10
141.8928968473923
 20
152.7887075264977
 10
142.7341897198865
 20
153.4484437471474
 10
143.8552245303272
 20
154.2926649527359
 10
144.9803934580775
 20
155.1296514530327
 10
146.3139908001845
 20
155.3044901642492
 10
147.241066606852
 20
155.3044901642492
 10
148.3855280820469
 20
155.3044901642492
 10
149.4969166187653
 20
155.0752189084569
 10
150.0784491203092
 20
153.8172414621372
 10
150.5228667310863
 20
152.833838307127
 10
150.5414702589793
 20
152.7201500811143
 10
150.4140016419347
 20
150.7765981809602
 10
151.5818897818837
 20
152.7699317437168
 10
152.4424752018226
 20
153.6256940267945
 10
153.9038856707499
 20
154.4507949398263
 10
155.4455669174378
 20
155.3044901642492
 10
156.339225275853
 20
155.3659851592288
 10
157.3748216618963
 20
155.2147453676543
 10
158.911679771723
 20
154.9877134254046
 10
159.8859534176746
 20
154.4390816074493
 10
160.3965169054045
 20
152.7816450760939
 10
160.9070803931344
 20
151.1219692311958
 10
160.6328506116007
 20
150.2303779314354
 10
159.9992971339115
 20
147.597634224801
 10
159.7105979417943
 20
146.4014962832367
 10
159.2947746424084
 20
144.9400858143094
 10
158.7463150793409
 20
143.2092687007094
 10
158.7463150793409
 20
143.2092687007094
 10
153.9038856707499
 20
127.8027915271048
 10
153.9038856707499
 20
127.8027915271048
 10
153.9038856707499
 20
127.8027915271048
 10
151.3882752878863
 20
127.8027915271048
 10
151.3882752878863
 20
127.8027915271048
 10
151.3882752878863
 20
127.8027915271048
 10
155.6250565106276
 20
141.2751908193897
 10
155.6250565106276
 20
141.2751908193897
 10
156.5094131050963
 20
144.0936252951782
 10
157.109893644309
 20
146.1506931664571
 10
157.4220195011804
 20
147.4415712963654
 10
157.8095929989511
 20
149.0530157726519
 10
157.9656559273867
 20
149.5826995529385
 10
157.7816877071116
 20
150.7529992613181
 10
157.6111553680925
 20
151.8430281919372
 10
157.0582171779396
 20
152.5547853887321
 10
156.1170164704645
 20
152.5547853887321
 10
155.1096698860365
 20
152.5547853887321
 10
154.2962823053817
 20
152.4412694176073
 10
153.156643967048
 20
151.2945686288697
 10
152.0170056287143
 20
150.1476955852443
 10
151.076149431015
 20
148.7930831468137
 10
150.3337308641742
 20
147.2290087646991
 10
149.5957909244188
 20
145.6683794803425
 10
148.8530278478023
 20
143.6822806228776
 10
148.0964843801539
 20
141.2751908193897
 10
148.0964843801539
 20
141.2751908193897
 10
143.8552245303272
 20
127.8027915271048
 10
143.8552245303272
 20
127.8027915271048
 10
143.8552245303272
 20
127.8027915271048
 10
141.486030802177
 20
127.8027915271048
 10
141.486030802177
 20
127.8027915271048
 10
141.486030802177
 20
127.8027915271048
 10
146.3329388378533
 20
143.2092687007094
 10
146.3329388378533
 20
143.2092687007094
 10
146.8483254624444
 20
144.8408669988801
 10
147.2314203331297
 20
146.1837661049335
 10
147.4867020769946
 20
147.224185627838
 10
147.9169947869641
 20
149.0197705792876
 10
148.0306830129768
 20
150.2400242051577
 10
147.709255392159
 20
151.3157559800812
 10
147.3874832615654
 20
152.3916600098926
 10
146.8245542879144
 20
152.6683013598569
 10
145.8840425999909
 20
152.6683013598569
 10
145.0989048209514
 20
152.6683013598569
 10
144.3282364524954
 20
152.3275811915945
 10
143.4531816219731
 20
151.6538923250251
 10
142.34627171234
 20
150.8074318058939
 10
141.901854101563
 20
150.1097995099067
 10
141.3578731655808
 20
149.289521733736
 10
140.6299240093235
 20
148.192602607601
 10
140.2850697237515
 20
147.455696197173
 10
139.6652966370942
 20
145.8385673095858
 10
139.0506911970739
 20
144.2214384219986
 10
138.463991048893
 20
142.3252566160164
 10
138.0571250036777
 20
141.0154304484394
 10
138.0571250036777
 20
141.0154304484394
 10
133.9009590684727
 20
127.8027915271048
 10
133.9009590684727
 20
127.8027915271048
 10
133.9009590684727
 20
127.8027915271048
 10
131.4180771143097
 20
127.8027915271048
 10
131.4180771143097
 20
127.8027915271048
 10
131.4180771143097
 20
127.8027915271048
 10
139.8926730891197
 20
154.8294111834263
 10
139.8926730891197
 20
154.8294111834263
 97
        0
 75
     2
 76
     1
 98
        0
  0
SPLINE
  5
6AA
330
6A2
100
AcDbEntity
  8
LOGO
370
     0
100
AcDbSpline
210
0.0
220
0.0
230
1.0
 70
    11
 71
     3
 72
    29
 73
    25
 74
     0
 42
0.000000001
 43
0.0000000001
 40
0.0
 40
0.0
 40
0.0
 40
0.0
 40
1.0
 40
1.0
 40
1.0
 40
2.0
 40
2.0
 40
2.0
 40
3.0
 40
3.0
 40
3.0
 40
4.0
 40
4.0
 40
4.0
 40
5.0
 40
5.0
 40
5.0
 40
6.0
 40
6.0
 40
6.0
 40
7.0
 40
7.0
 40
7.0
 40
8.0
 40
8.0
 40
8.0
 40
8.0
 10
101.6420971922469
 20
132.8388354296931
 30
0.0
 10
101.630039350094
 20
134.7164137077823
 30
0.0
 10
102.2236296937908
 20
138.0598810818841
 30
0.0
 10
103.7487744712405
 20
142.5378191476827
 30
0.0
 10
105.819967243327
 20
148.5896501242061
 30
0.0
 10
107.0602024361932
 20
150.8074318058939
 30
0.0
 10
108.1522984254671
 20
151.8833358357054
 30
0.0
 10
109.741177511439
 20
153.4532668840085
 30
0.0
 10
111.8740375333931
 20
153.5290590346837
 30
0.0
 10
112.5075910110823
 20
153.4532668840085
 30
0.0
 10
113.4012493694975
 20
153.3490526768302
 30
0.0
 10
114.6683563248758
 20
152.7580461564518
 30
0.0
 10
114.7493161221879
 20
150.7838328862519
 30
0.0
 10
114.8106388622796
 20
149.0909118479895
 30
0.0
 10
114.3186789024427
 20
145.9191825971221
 30
0.0
 10
112.6164561002338
 20
140.9489400617108
 30
0.0
 10
110.6444821435766
 20
135.1746117095912
 30
0.0
 10
109.4669477299053
 20
132.8960240524753
 30
0.0
 10
108.5212683953448
 20
131.9072809959403
 30
0.0
 10
106.7346406980658
 20
130.0538184021569
 30
0.0
 10
104.8222669326213
 20
130.2336525051225
 30
0.0
 10
104.5408024457958
 20
130.2336525051225
 30
0.0
 10
104.1721769856939
 20
130.2336525051225
 30
0.0
 10
101.6465758193322
 20
130.6305277668397
 30
0.0
 10
101.6420971922469
 20
132.8388354296931
 30
0.0
  0
SPLINE
  5
6AB
330
6A2
100
AcDbEntity
  8
LOGO
370
     0
100
AcDbSpline
210
0.0
220
0.0
230
1.0
 70
    11
 71
     3
 72
    32
 73
    28
 74
     0
 42
0.000000001
 43
0.0000000001
 40
0.0
 40
0.0
 40
0.0
 40
0.0
 40
1.0
 40
1.0
 40
1.0
 40
2.0
 40
2.0
 40
2.0
 40
3.0
 40
3.0
 40
3.0
 40
4.0
 40
4.0
 40
4.0
 40
5.0
 40
5.0
 40
5.0
 40
6.0
 40
6.0
 40
6.0
 40
7.0
 40
7.0
 40
7.0
 40
8.0
 40
8.0
 40
8.0
 40
9.0
 40
9.0
 40
9.0
 40
9.0
 10
106.2595617172429
 20
153.4105476718098
 30
0.0
 10
104.8222669326213
 20
151.5474388043041
 30
0.0
 10
103.7177685914188
 20
149.8758773721411
 30
0.0
 10
101.9232171692965
 20
144.6141795664062
 30
0.0
 10
100.2754269116635
 20
139.7999999594306
 30
0.0
 10
99.22777268346732
 20
136.3052927937542
 30
0.0
 10
99.06964269637689
 20
132.039572749846
 30
0.0
 10
98.94665270641765
 20
128.8673267343149
 30
0.0
 10
100.8807305877373
 20
127.8027915271048
 30
0.0
 10
103.7129454545577
 20
127.8027915271048
 30
0.0
 10
104.9352661390825
 20
127.8027915271048
 30
0.0
 10
108.0151835347002
 20
127.8827177950895
 30
0.0
 10
110.2045431598849
 20
130.5926316915021
 30
0.0
 10
111.7417457794874
 20
132.4984597712065
 30
0.0
 10
113.155269389579
 20
134.475256864725
 30
0.0
 10
115.0562743324223
 20
140.9489400617108
 30
0.0
 10
116.6361961642235
 20
146.3680788349845
 30
0.0
 10
117.7282921534974
 20
149.8639917848761
 30
0.0
 10
117.6480213757369
 20
151.8595646611754
 30
0.0
 10
117.6480213757369
 20
151.8595646611754
 30
0.0
 10
117.6480213757369
 20
151.8595646611754
 30
0.0
 10
117.6480213757369
 20
151.8595646611754
 30
0.0
 10
117.13229024137
 20
155.18150017429
 30
0.0
 10
114.7162431837115
 20
155.886194920681
 30
0.0
 10
113.3351034925446
 20
155.886194920681
 30
0.0
 10
111.9829026225447
 20
155.886194920681
 30
0.0
 10
108.3414342923792
 20
156.1251124501957
 30
0.0
 10
106.2595617172429
 20
153.4105476718098
 30
0.0
  0
HATCH
  5
6AC
330
6A2
100
AcDbEntity
  8
LOGO
 62
   250
420
  2234388
100
AcDbHatch
 10
0.0
 20
0.0
 30
0.0
210
0.0
220
0.0
230
1.0
  2
SOLID
 70
     1
 71
     0
 91
        2
 92
        1
 93
        1
 72
     4
 94
        3
 73
     0
 74
     1
 95
       29
 96
       25
 40
0.0
 40
0.0
 40
0.0
 40
0.0
 40
1.0
 40
1.0
 40
1.0
 40
2.0
 40
2.0
 40
2.0
 40
3.0
 40
3.0
 40
3.0
 40
4.0
 40
4.0
 40
4.0
 40
5.0
 40
5.0
 40
5.0
 40
6.0
 40
6.0
 40
6.0
 40
7.0
 40
7.0
 40
7.0
 40
8.0
 40
8.0
 40
8.0
 40
8.0
 10
101.6420971922469
 20
132.8388354296931
 10
101.630039350094
 20
134.7164137077823
 10
102.2236296937908
 20
138.0598810818841
 10
103.7487744712405
 20
142.5378191476827
 10
105.819967243327
 20
148.5896501242061
 10
107.0602024361932
 20
150.8074318058939
 10
108.1522984254671
 20
151.8833358357054
 10
109.741177511439
 20
153.4532668840085
 10
111.8740375333931
 20
153.5290590346837
 10
112.5075910110823
 20
153.4532668840085
 10
113.4012493694975
 20
153.3490526768302
 10
114.6683563248758
 20
152.7580461564518
 10
114.7493161221879
 20
150.7838328862519
 10
114.8106388622796
 20
149.0909118479895
 10
114.3186789024427
 20
145.9191825971221
 10
112.6164561002338
 20
140.9489400617108
 10
110.6444821435766
 20
135.1746117095912
 10
109.4669477299053
 20
132.8960240524753
 10
108.5212683953448
 20
131.9072809959403
 10
106.7346406980658
 20
130.0538184021569
 10
104.8222669326213
 20
130.2336525051225
 10
104.5408024457958
 20
130.2336525051225
 10
104.1721769856939
 20
130.2336525051225
 10
101.6465758193322
 20
130.6305277668397
 10
101.6420971922469
 20
132.8388354296931
 97
        0
 92
        1
 93
        1
 72
     4
 94
        3
 73
     0
 74
     1
 95
       32
 96
       28
 40
0.0
 40
0.0
 40
0.0
 40
0.0
 40
1.0
 40
1.0
 40
1.0
 40
2.0
 40
2.0
 40
2.0
 40
3.0
 40
3.0
 40
3.0
 40
4.0
 40
4.0
 40
4.0
 40
5.0
 40
5.0
 40
5.0
 40
6.0
 40
6.0
 40
6.0
 40
7.0
 40
7.0
 40
7.0
 40
8.0
 40
8.0
 40
8.0
 40
9.0
 40
9.0
 40
9.0
 40
9.0
 10
106.2595617172429
 20
153.4105476718098
 10
104.8222669326213
 20
151.5474388043041
 10
103.7177685914188
 20
149.8758773721411
 10
101.9232171692965
 20
144.6141795664062
 10
100.2754269116635
 20
139.7999999594306
 10
99.22777268346732
 20
136.3052927937542
 10
99.06964269637689
 20
132.039572749846
 10
98.94665270641765
 20
128.8673267343149
 10
100.8807305877373
 20
127.8027915271048
 10
103.7129454545577
 20
127.8027915271048
 10
104.9352661390825
 20
127.8027915271048
 10
108.0151835347002
 20
127.8827177950895
 10
110.2045431598849
 20
130.5926316915021
 10
111.7417457794874
 20
132.4984597712065
 10
113.155269389579
 20
134.475256864725
 10
115.0562743324223
 20
140.9489400617108
 10
116.6361961642235
 20
146.3680788349845
 10
117.7282921534974
 20
149.8639917848761
 10
117.6480213757369
 20
151.8595646611754
 10
117.6480213757369
 20
151.8595646611754
 10
117.6480213757369
 20
151.8595646611754
 10
117.6480213757369
 20
151.8595646611754
 10
117.13229024137
 20
155.18150017429
 10
114.7162431837115
 20
155.886194920681
 10
113.3351034925446
 20
155.886194920681
 10
111.9829026225447
 20
155.886194920681
 10
108.3414342923792
 20
156.1251124501957
 10
106.2595617172429
 20
153.4105476718098
 97
        0
 75
     2
 76
     1
 98
        0
  0
ENDBLK
  5
6AD
330
6A2
100
AcDbEntity
  8
0
100
AcDbBlockEnd
  0
BLOCK
  5
106F
330
106E
100
AcDbEntity
  8
0
100
AcDbBlockBegin
  2
*D6
 70
     1
 10
0.0
 20
0.0
 30
0.0
  3
*D6
  1
*D17
  0
LINE
  5
1071
330
106E
100
AcDbEntity
  8
DIM
 62
     0
370
    -2
100
AcDbLine
 10
355.0028206695814
 20
1191.25058157207
 30
0.0
 11
285.4839731276941
 21
1191.25058157207
 31
0.0
  0
LINE
  5
1072
330
106E
100
AcDbEntity
  8
DIM
 62
     0
370
    -2
100
AcDbLine
 10
355.0028206695835
 20
576.2505815720697
 30
0.0
 11
285.4839731276938
 21
576.2505815720697
 31
0.0
  0
LINE
  5
1073
330
106E
100
AcDbEntity
  8
DIM
 62
     0
370
    -2
100
AcDbLine
 10
285.4839731276941
 20
1189.25058157207
 30
0.0
 11
285.4839731276938
 21
578.2505815720697
 31
0.0
  0
INSERT
  5
1074
330
106E
100
AcDbEntity
  8
DIM
 62
     0
370
    -2
100
AcDbBlockReference
  2
_DOT
 10
285.4839731276941
 20
1191.25058157207
 30
0.0
 41
2.0
 42
2.0
 43
2.0
 50
89.99999999999999
  0
INSERT
  5
1075
330
106E
100
AcDbEntity
  8
DIM
 62
     0
370
    -2
100
AcDbBlockReference
  2
_DOT
 10
285.4839731276938
 20
576.2505815720697
 30
0.0
 41
2.0
 42
2.0
 43
2.0
 50
270.0
  0
MTEXT
  5
1076
330
106E
100
AcDbEntity
  8
DIM
 62
     0
 48
0.05
100
AcDbMText
 10
268.483973127694
 20
871.931369124144
 30
0.0
 40
12.0
 41
0.0
 46
0.0
 71
     1
 72
     1
  1
\A1;615
  7
ＭＳ ゴシック
 11
3.697132934036292E-16
 21
1.0
 31
0.0
 73
     1
 44
1.0
  0
POINT
  5
1077
330
106E
100
AcDbEntity
  8
Defpoints
 62
     0
100
AcDbPoint
 10
360.0028206695814
 20
1191.25058157207
 30
0.0
  0
POINT
  5
1078
330
106E
100
AcDbEntity
  8
Defpoints
 62
     0
100
AcDbPoint
 10
360.0028206695835
 20
576.2505815720697
 30
0.0
  0
POINT
  5
1079
330
106E
100
AcDbEntity
  8
Defpoints
 62
     0
100
AcDbPoint
 10
285.4839731276938
 20
576.2505815720697
 30
0.0
  0
ENDBLK
  5
1070
330
106E
100
AcDbEntity
  8
0
100
AcDbBlockEnd
  0
BLOCK
  5
107B
330
107A
100
AcDbEntity
  8
0
100
AcDbBlockBegin
  2
*D7
 70
     1
 10
0.0
 20
0.0
 30
0.0
  3
*D7
  1
*D18
  0
LINE
  5
107D
330
107A
100
AcDbEntity
  8
DIM
 62
     0
370
    -2
100
AcDbLine
 10
379.9062604768129
 20
367.4944905990566
 30
0.0
 11
342.1737075843211
 21
367.4715948164812
 31
0.0
  0
LINE
  5
107E
330
107A
100
AcDbEntity
  8
DIM
 62
     0
370
    -2
100
AcDbLine
 10
379.9026197300397
 20
373.4944894944697
 30
0.0
 11
342.1700668375486
 21
373.4715937118944
 31
0.0
  0
LINE
  5
107F
330
107A
100
AcDbEntity
  8
DIM
 62
     0
370
    -2
100
AcDbLine
 10
342.1700668375486
 20
373.4715937118944
 30
0.0
 11
342.1349378736883
 21
431.3645913660748
 31
0.0
  0
INSERT
  5
1080
330
107A
100
AcDbEntity
  8
DIM
 62
     0
370
    -2
100
AcDbBlockReference
  2
_DOT
 10
342.1737075843211
 20
367.4715948164812
 30
0.0
 41
6.0
 42
6.0
 43
6.0
 50
270.0347665728566
  0
INSERT
  5
1081
330
107A
100
AcDbEntity
  8
DIM
 62
     0
370
    -2
100
AcDbBlockReference
  2
_DOT
 10
342.1700668375486
 20
373.4715937118944
 30
0.0
 41
6.0
 42
6.0
 43
6.0
 50
90.0347665728566
  0
MTEXT
  5
1082
330
107A
100
AcDbEntity
  8
DIM
 62
     0
 48
0.05
100
AcDbMText
 10
365.0410015691372
 20
421.3784887239005
 30
0.0
 40
12.0
 41
0.0
 46
0.0
 71
     1
 72
     1
  1
\A1;%%c6
  7
ＭＳ ゴシック
 11
0.0006067911287459845
 21
-0.999999815902246
 31
0.0
 73
     1
 44
1.0
  0
POINT
  5
1083
330
107A
100
AcDbEntity
  8
Defpoints
 62
     0
100
AcDbPoint
 10
384.9062595563241
 20
367.4975245547003
 30
0.0
  0
POINT
  5
1084
330
107A
100
AcDbEntity
  8
Defpoints
 62
     0
100
AcDbPoint
 10
384.9026188095509
 20
373.4975234501135
 30
0.0
  0
POINT
  5
1085
330
107A
100
AcDbEntity
  8
Defpoints
 62
     0
100
AcDbPoint
 10
342.1700668375486
 20
373.4715937118944
 30
0.0
  0
ENDBLK
  5
107C
330
107A
100
AcDbEntity
  8
0
100
AcDbBlockEnd
  0
BLOCK
  5
108A
330
1089
100
AcDbEntity
  8
0
100
AcDbBlockBegin
  2
*D8
 70
     1
 10
0.0
 20
0.0
 30
0.0
  3
*D8
  1
*D19
  0
LINE
  5
108C
330
1089
100
AcDbEntity
  8
DIM
 62
     0
370
    -2
100
AcDbLine
 10
466.9120116203352
 20
358.047284822178
 30
0.0
 11
505.6432798119142
 21
358.0707866164493
 31
0.0
  0
LINE
  5
108D
330
1089
100
AcDbEntity
  8
DIM
 62
     0
370
    -2
100
AcDbLine
 10
466.896843271867
 20
383.0472768972392
 30
0.0
 11
505.6281100357116
 21
383.070778690644
 31
0.0
  0
LINE
  5
108E
330
1089
100
AcDbEntity
  8
DIM
 62
     0
370
    -2
100
AcDbLine
 10
505.6469205586868
 20
352.0707877210358
 30
0.0
 11
505.6505613054594
 21
346.0707888256223
 31
0.0
  0
LINE
  5
108F
330
1089
100
AcDbEntity
  8
DIM
 62
     0
370
    -2
100
AcDbLine
 10
505.624469288939
 20
389.0707775860575
 30
0.0
 11
505.6208285421664
 21
395.0707764814709
 31
0.0
  0
INSERT
  5
1090
330
1089
100
AcDbEntity
  8
DIM
 62
     0
370
    -2
100
AcDbBlockReference
  2
_DOT
 10
505.6432798119142
 20
358.0707866164493
 30
0.0
 41
6.0
 42
6.0
 43
6.0
 50
90.03476657285792
  0
INSERT
  5
1091
330
1089
100
AcDbEntity
  8
DIM
 62
     0
370
    -2
100
AcDbBlockReference
  2
_DOT
 10
505.6281100357116
 20
383.070778690644
 30
0.0
 41
6.0
 42
6.0
 43
6.0
 50
270.0347665728579
  0
MTEXT
  5
1092
330
1089
100
AcDbEntity
  8
DIM
 62
     0
 48
0.05
100
AcDbMText
 10
499.6357035569934
 20
363.5845550577958
 30
0.0
 40
12.0
 41
0.0
 46
0.0
 71
     1
 72
     1
  1
\A1;25
  7
ＭＳ ゴシック
 11
6.123233995736766E-17
 21
1.0
 31
0.0
 73
     1
 44
1.0
  0
POINT
  5
1093
330
1089
100
AcDbEntity
  8
Defpoints
 62
     0
100
AcDbPoint
 10
461.912012540824
 20
358.0442508665342
 30
0.0
  0
POINT
  5
1094
330
1089
100
AcDbEntity
  8
Defpoints
 62
     0
100
AcDbPoint
 10
461.8968441923558
 20
383.0442429415953
 30
0.0
  0
POINT
  5
10C8
330
1089
100
AcDbEntity
  8
Defpoints
 62
     0
100
AcDbPoint
 10
505.6281100357116
 20
383.0707786906441
 30
0.0
  0
ENDBLK
  5
108B
330
1089
100
AcDbEntity
  8
0
100
AcDbBlockEnd
  0
BLOCK
  5
1096
330
1095
100
AcDbEntity
  8
0
100
AcDbBlockBegin
  2
*D9
 70
     1
 10
0.0
 20
0.0
 30
0.0
  3
*D9
  1
*D20
  0
LINE
  5
1098
330
1095
100
AcDbEntity
  8
DIM
 62
     0
370
    -2
100
AcDbLine
 10
663.9947873514151
 20
572.000581572067
 30
0.0
 11
663.9947873514151
 21
545.9380815720674
 31
0.0
  0
LINE
  5
1099
330
1095
100
AcDbEntity
  8
DIM
 62
     0
370
    -2
100
AcDbLine
 10
669.9947862468288
 20
572.000581572066
 30
0.0
 11
669.9947862468288
 21
545.9380815720674
 31
0.0
  0
LINE
  5
109A
330
1095
100
AcDbEntity
  8
DIM
 62
     0
370
    -2
100
AcDbLine
 10
663.9947873514151
 20
545.9380815720674
 30
0.0
 11
630.910787351415
 21
545.9380815720674
 31
0.0
  0
INSERT
  5
109B
330
1095
100
AcDbEntity
  8
DIM
 62
     0
370
    -2
100
AcDbBlockReference
  2
_DOT
 10
663.9947873514151
 20
545.9380815720674
 30
0.0
 41
2.0
 42
2.0
 43
2.0
 50
180.0
  0
INSERT
  5
109C
330
1095
100
AcDbEntity
  8
DIM
 62
     0
370
    -2
100
AcDbBlockReference
  2
_DOT
 10
669.9947862468288
 20
545.9380815720674
 30
0.0
 41
2.0
 42
2.0
 43
2.0
  0
MTEXT
  5
109D
330
1095
100
AcDbEntity
  8
DIM
 62
     0
 48
0.05
100
AcDbMText
 10
635.910787351415
 20
562.9380815720674
 30
0.0
 40
12.0
 41
0.0
 46
0.0
 71
     1
 72
     1
  1
\A1;6
  7
ＭＳ ゴシック
 73
     1
 44
1.0
  0
POINT
  5
109E
330
1095
100
AcDbEntity
  8
Defpoints
 62
     0
100
AcDbPoint
 10
663.9947873514151
 20
577.000581572067
 30
0.0
  0
POINT
  5
109F
330
1095
100
AcDbEntity
  8
Defpoints
 62
     0
100
AcDbPoint
 10
669.9947862468288
 20
577.000581572066
 30
0.0
  0
POINT
  5
10A0
330
1095
100
AcDbEntity
  8
Defpoints
 62
     0
100
AcDbPoint
 10
669.9947862468288
 20
545.9380815720674
 30
0.0
  0
ENDBLK
  5
1097
330
1095
100
AcDbEntity
  8
0
100
AcDbBlockEnd
  0
BLOCK
  5
10A5
330
10A4
100
AcDbEntity
  8
0
100
AcDbBlockBegin
  2
*D10
 70
     1
 10
0.0
 20
0.0
 30
0.0
  3
*D10
  1
*D21
  0
LINE
  5
10A7
330
10A4
100
AcDbEntity
  8
DIM
 62
     0
370
    -2
100
AcDbLine
 10
740.9949248736706
 20
571.250581572067
 30
0.0
 11
740.9949248736706
 21
511.250581572066
 31
0.0
  0
LINE
  5
10A8
330
10A4
100
AcDbEntity
  8
DIM
 62
     0
370
    -2
100
AcDbLine
 10
592.9949521201378
 20
571.2505815720704
 30
0.0
 11
592.9949521201378
 21
511.250581572066
 31
0.0
  0
LINE
  5
10A9
330
10A4
100
AcDbEntity
  8
DIM
 62
     0
370
    -2
100
AcDbLine
 10
734.9949248736706
 20
511.250581572066
 30
0.0
 11
598.9949521201378
 21
511.250581572066
 31
0.0
  0
INSERT
  5
10AA
330
10A4
100
AcDbEntity
  8
DIM
 62
     0
370
    -2
100
AcDbBlockReference
  2
_DOT
 10
740.9949248736706
 20
511.250581572066
 30
0.0
 41
6.0
 42
6.0
 43
6.0
  0
INSERT
  5
10AB
330
10A4
100
AcDbEntity
  8
DIM
 62
     0
370
    -2
100
AcDbBlockReference
  2
_DOT
 10
592.9949521201378
 20
511.250581572066
 30
0.0
 41
6.0
 42
6.0
 43
6.0
 50
180.0
  0
MTEXT
  5
10AC
330
10A4
100
AcDbEntity
  8
DIM
 62
     0
 48
0.05
100
AcDbMText
 10
656.4529384969048
 20
533.250581572066
 30
0.0
 40
12.0
 41
0.0
 46
0.0
 71
     1
 72
     1
  1
\A1;148
  7
ＭＳ ゴシック
 73
     1
 44
1.0
  0
POINT
  5
10AD
330
10A4
100
AcDbEntity
  8
Defpoints
 62
     0
100
AcDbPoint
 10
740.9949248736706
 20
576.250581572067
 30
0.0
  0
POINT
  5
10AE
330
10A4
100
AcDbEntity
  8
Defpoints
 62
     0
100
AcDbPoint
 10
592.9949521201378
 20
576.2505815720704
 30
0.0
  0
POINT
  5
10AF
330
10A4
100
AcDbEntity
  8
Defpoints
 62
     0
100
AcDbPoint
 10
592.9949521201378
 20
511.250581572066
 30
0.0
  0
ENDBLK
  5
10A6
330
10A4
100
AcDbEntity
  8
0
100
AcDbBlockEnd
  0
BLOCK
  5
10CD
330
10CC
100
AcDbEntity
  8
0
100
AcDbBlockBegin
  2
*D11
 70
     1
 10
0.0
 20
0.0
 30
0.0
  3
*D11
  1
*D11
  0
LINE
  5
10CF
330
10CC
100
AcDbEntity
  8
DIM
 62
     0
 48
0.05
370
    -2
100
AcDbLine
 10
466.8968441923558
 20
383.0442429415953
 30
0.0
 11
525.752734526757
 21
383.0442429415953
 31
0.0
  0
LINE
  5
10D0
330
10CC
100
AcDbEntity
  8
DIM
 62
     0
 48
0.05
370
    -2
100
AcDbLine
 10
466.9120135744511
 20
358.044251882292
 30
0.0
 11
525.752734526757
 21
358.044251882292
 31
0.0
  0
LINE
  5
10D1
330
10CC
100
AcDbEntity
  8
DIM
 62
     0
 48
0.05
370
    -2
100
AcDbLine
 10
525.752734526757
 20
377.0442429415953
 30
0.0
 11
525.752734526757
 21
364.044251882292
 31
0.0
  0
INSERT
  5
10D2
330
10CC
100
AcDbEntity
  8
DIM
 62
     0
370
    -2
100
AcDbBlockReference
  2
_DOT
 10
525.752734526757
 20
383.0442429415953
 30
0.0
 41
6.0
 42
6.0
 43
6.0
 50
90.0
  0
INSERT
  5
10D3
330
10CC
100
AcDbEntity
  8
DIM
 62
     0
370
    -2
100
AcDbBlockReference
  2
_DOT
 10
525.752734526757
 20
358.044251882292
 30
0.0
 41
6.0
 42
6.0
 43
6.0
 50
270.0
  0
MTEXT
  5
10D4
330
10CC
100
AcDbEntity
  8
DIM
 62
     0
 48
0.05
100
AcDbMText
 10
509.752734526757
 20
370.1776973727389
 30
0.0
 40
12.0
 41
0.0
 46
0.0
 71
     5
 72
     1
  1
\A1;25
  7
ＭＳ ゴシック
 11
0.0
 21
1.0
 31
0.0
 73
     1
 44
1.0
  0
POINT
  5
10D5
330
10CC
100
AcDbEntity
  8
Defpoints
 62
     0
100
AcDbPoint
 10
461.8968441923558
 20
383.0442429415953
 30
0.0
  0
POINT
  5
10D6
330
10CC
100
AcDbEntity
  8
Defpoints
 62
     0
100
AcDbPoint
 10
461.9120135744511
 20
358.044251882292
 30
0.0
  0
POINT
  5
10D9
330
10CC
100
AcDbEntity
  8
Defpoints
 62
     0
100
AcDbPoint
 10
525.752734526757
 20
358.044251882292
 30
0.0
  0
ENDBLK
  5
10CE
330
10CC
100
AcDbEntity
  8
0
100
AcDbBlockEnd
  0
BLOCK
  5
10E0
330
10DF
100
AcDbEntity
  8
0
100
AcDbBlockBegin
  2
*D12
 70
     1
 10
0.0
 20
0.0
 30
0.0
  3
*D12
  1
*D12
  0
LINE
  5
10E2
330
10DF
100
AcDbEntity
  8
DIM
 62
     0
 48
0.05
370
    -2
100
AcDbLine
 10
379.9026188095509
 20
373.4975234501135
 30
0.0
 11
333.9567871503492
 21
373.4975234501135
 31
0.0
  0
LINE
  5
10E3
330
10DF
100
AcDbEntity
  8
DIM
 62
     0
 48
0.05
370
    -2
100
AcDbLine
 10
379.9062621434628
 20
367.4975261919271
 30
0.0
 11
333.9567871503492
 21
367.4975261919271
 31
0.0
  0
LINE
  5
10E4
330
10DF
100
AcDbEntity
  8
DIM
 62
     0
 48
0.05
370
    -2
100
AcDbLine
 10
333.9567871503492
 20
373.4975234501135
 30
0.0
 11
333.9567871503492
 21
424.8655234501135
 31
0.0
  0
INSERT
  5
10E5
330
10DF
100
AcDbEntity
  8
DIM
 62
     0
370
    -2
100
AcDbBlockReference
  2
_DOT
 10
333.9567871503492
 20
373.4975234501135
 30
0.0
 41
6.0
 42
6.0
 43
6.0
 50
90.0
  0
INSERT
  5
10E6
330
10DF
100
AcDbEntity
  8
DIM
 62
     0
370
    -2
100
AcDbBlockReference
  2
_DOT
 10
333.9567871503492
 20
367.4975261919271
 30
0.0
 41
6.0
 42
6.0
 43
6.0
 50
270.0
  0
MTEXT
  5
10E7
330
10DF
100
AcDbEntity
  8
DIM
 62
     0
 48
0.05
100
AcDbMText
 10
316.9847871503492
 20
405.1815234501135
 30
0.0
 40
12.0
 41
0.0
 46
0.0
 71
     5
 72
     1
  1
\A1;φ6
  7
ＭＳ ゴシック
 11
0.0
 21
1.0
 31
0.0
 73
     1
 44
1.0
  0
POINT
  5
10E8
330
10DF
100
AcDbEntity
  8
Defpoints
 62
     0
100
AcDbPoint
 10
384.9026188095509
 20
373.4975234501135
 30
0.0
  0
POINT
  5
10E9
330
10DF
100
AcDbEntity
  8
Defpoints
 62
     0
100
AcDbPoint
 10
384.9062621434628
 20
367.4975261919271
 30
0.0
  0
POINT
  5
10EA
330
10DF
100
AcDbEntity
  8
Defpoints
 62
     0
100
AcDbPoint
 10
333.9567871503492
 20
367.4975261919271
 30
0.0
  0
ENDBLK
  5
10E1
330
10DF
100
AcDbEntity
  8
0
100
AcDbBlockEnd
  0
BLOCK
  5
110D
330
110C
100
AcDbEntity
  8
0
100
AcDbBlockBegin
  2
*D13
 70
     1
 10
0.0
 20
0.0
 30
0.0
  3
*D13
  1
*D13
  0
LINE
  5
110F
330
110C
100
AcDbEntity
  8
DIM
 62
     0
 48
0.05
370
    -2
100
AcDbLine
 10
360.0028207529529
 20
877.0989881972018
 30
0.0
 11
360.0028207529529
 21
877.408981735389
 31
0.0
  0
LINE
  5
1110
330
110C
100
AcDbEntity
  8
DIM
 62
     0
 48
0.05
370
    -2
100
AcDbLine
 10
385.0028155375464
 20
877.0989881972018
 30
0.0
 11
385.0028155375464
 21
877.408981735389
 31
0.0
  0
LINE
  5
1111
330
110C
100
AcDbEntity
  8
DIM
 62
     0
 48
0.05
370
    -2
100
AcDbLine
 10
354.0028207529529
 20
877.408981735389
 30
0.0
 11
348.0028207529529
 21
877.408981735389
 31
0.0
  0
LINE
  5
1112
330
110C
100
AcDbEntity
  8
DIM
 62
     0
 48
0.05
370
    -2
100
AcDbLine
 10
391.0028155375464
 20
877.408981735389
 30
0.0
 11
397.0028155375464
 21
877.408981735389
 31
0.0
  0
INSERT
  5
1113
330
110C
100
AcDbEntity
  8
DIM
 62
     0
370
    -2
100
AcDbBlockReference
  2
_DOT
 10
360.0028207529529
 20
877.408981735389
 30
0.0
 41
6.0
 42
6.0
 43
6.0
  0
INSERT
  5
1114
330
110C
100
AcDbEntity
  8
DIM
 62
     0
370
    -2
100
AcDbBlockReference
  2
_DOT
 10
385.0028155375464
 20
877.408981735389
 30
0.0
 41
6.0
 42
6.0
 43
6.0
 50
180.0
  0
MTEXT
  5
1115
330
110C
100
AcDbEntity
  8
DIM
 62
     0
 48
0.05
100
AcDbMText
 10
372.5028181452496
 20
893.408981735389
 30
0.0
 40
12.0
 41
0.0
 46
0.0
 71
     5
 72
     1
  1
\A1;25
  7
ＭＳ ゴシック
 73
     1
 44
1.0
  0
POINT
  5
1116
330
110C
100
AcDbEntity
  8
Defpoints
 62
     0
100
AcDbPoint
 10
360.0028207529529
 20
872.0989881972018
 30
0.0
  0
POINT
  5
1117
330
110C
100
AcDbEntity
  8
Defpoints
 62
     0
100
AcDbPoint
 10
385.0028155375464
 20
872.0989881972018
 30
0.0
  0
POINT
  5
1118
330
110C
100
AcDbEntity
  8
Defpoints
 62
     0
100
AcDbPoint
 10
385.0028155375464
 20
877.408981735389
 30
0.0
  0
ENDBLK
  5
110E
330
110C
100
AcDbEntity
  8
0
100
AcDbBlockEnd
  0
BLOCK
  5
114B
330
114A
100
AcDbEntity
  8
0
100
AcDbBlockBegin
  2
*D14
 70
     1
 10
0.0
 20
0.0
 30
0.0
  3
*D14
  1
*D20
  0
LINE
  5
114C
330
114A
100
AcDbEntity
  8
DIM
 62
     0
370
    -2
100
AcDbLine
 10
1.0
 20
8.10960180051734
 30
0.0
 11
1.0
 21
28.41528651587532
 31
0.0
  0
LINE
  5
114D
330
114A
100
AcDbEntity
  8
DIM
 62
     0
370
    -2
100
AcDbLine
 10
62.199999999998
 20
5.000000000000227
 30
0.0
 11
62.199999999998
 21
28.41528651587532
 31
0.0
  0
LINE
  5
114E
330
114A
100
AcDbEntity
  8
DIM
 62
     0
370
    -2
100
AcDbLine
 10
3.0
 20
28.41528651587532
 30
0.0
 11
60.199999999998
 21
28.41528651587532
 31
0.0
  0
INSERT
  5
114F
330
114A
100
AcDbEntity
  8
DIM
 62
     0
370
    -2
100
AcDbBlockReference
  2
_DOT
 10
1.0
 20
28.41528651587532
 30
0.0
 41
2.0
 42
2.0
 43
2.0
 50
180.0
  0
INSERT
  5
1150
330
114A
100
AcDbEntity
  8
DIM
 62
     0
370
    -2
100
AcDbBlockReference
  2
_DOT
 10
62.199999999998
 20
28.41528651587532
 30
0.0
 41
2.0
 42
2.0
 43
2.0
  0
MTEXT
  5
1151
330
114A
100
AcDbEntity
  8
DIM
 62
     0
 48
0.05
100
AcDbMText
 10
25.74999999999854
 20
45.41528651587532
 30
0.0
 40
12.0
 41
0.0
 46
0.0
 71
     1
 72
     1
  1
\A1;61
  7
ＭＳ ゴシック
 73
     1
 44
1.0
  0
POINT
  5
1152
330
114A
100
AcDbEntity
  8
Defpoints
 62
     0
100
AcDbPoint
 10
1.0
 20
3.109601800517339
 30
0.0
  0
POINT
  5
1153
330
114A
100
AcDbEntity
  8
Defpoints
 62
     0
100
AcDbPoint
 10
62.199999999998
 20
0.0000000000002274
 30
0.0
  0
POINT
  5
1154
330
114A
100
AcDbEntity
  8
Defpoints
 62
     0
100
AcDbPoint
 10
62.199999999998
 20
28.41528651587532
 30
0.0
  0
ENDBLK
  5
1155
330
114A
100
AcDbEntity
  8
0
100
AcDbBlockEnd
  0
BLOCK
  5
1158
330
1157
100
AcDbEntity
  8
0
100
AcDbBlockBegin
  2
*D15
 70
     1
 10
0.0
 20
0.0
 30
0.0
  3
*D15
  1
*D21
  0
LINE
  5
1159
330
1157
100
AcDbEntity
  8
DIM
 62
     0
370
    -2
100
AcDbLine
 10
62.20000000000073
 20
6.509601800516293
 30
0.0
 11
62.20000000000073
 21
28.41528651587532
 31
0.0
  0
LINE
  5
115A
330
1157
100
AcDbEntity
  8
DIM
 62
     0
370
    -2
100
AcDbLine
 10
70.19999999999982
 20
6.509601800516293
 30
0.0
 11
70.19999999999982
 21
28.41528651587532
 31
0.0
  0
LINE
  5
115B
330
1157
100
AcDbEntity
  8
DIM
 62
     0
370
    -2
100
AcDbLine
 10
70.19999999999982
 20
28.41528651587532
 30
0.0
 11
235.2239999999998
 21
28.41528651587532
 31
0.0
  0
LINE
  5
115C
330
1157
100
AcDbEntity
  8
DIM
 62
     0
370
    -2
100
AcDbLine
 10
60.20000000000073
 20
28.41528651587532
 30
0.0
 11
58.20000000000073
 21
28.41528651587532
 31
0.0
  0
LINE
  5
115D
330
1157
100
AcDbEntity
  8
DIM
 62
     0
370
    -2
100
AcDbLine
 10
72.19999999999982
 20
28.41528651587532
 30
0.0
 11
74.19999999999982
 21
28.41528651587532
 31
0.0
  0
INSERT
  5
115E
330
1157
100
AcDbEntity
  8
DIM
 62
     0
370
    -2
100
AcDbBlockReference
  2
_DOT
 10
62.20000000000073
 20
28.41528651587532
 30
0.0
 41
2.0
 42
2.0
 43
2.0
  0
INSERT
  5
115F
330
1157
100
AcDbEntity
  8
DIM
 62
     0
370
    -2
100
AcDbBlockReference
  2
_DOT
 10
70.19999999999982
 20
28.41528651587532
 30
0.0
 41
2.0
 42
2.0
 43
2.0
 50
180.0
  0
MTEXT
  5
1160
330
1157
100
AcDbEntity
  8
DIM
 62
     0
 48
0.05
100
AcDbMText
 10
92.19999999999982
 20
47.85128651587533
 30
0.0
 40
12.0
 41
0.0
 46
0.0
 71
     1
 72
     1
  1
\A1;ガラス厚み　～10mm
  7
ＭＳ ゴシック
 73
     1
 44
1.0
  0
POINT
  5
1161
330
1157
100
AcDbEntity
  8
Defpoints
 62
     0
100
AcDbPoint
 10
62.20000000000073
 20
1.509601800516293
 30
0.0
  0
POINT
  5
1162
330
1157
100
AcDbEntity
  8
Defpoints
 62
     0
100
AcDbPoint
 10
70.19999999999982
 20
1.509601800516293
 30
0.0
  0
POINT
  5
1163
330
1157
100
AcDbEntity
  8
Defpoints
 62
     0
100
AcDbPoint
 10
70.19999999999982
 20
28.41528651587532
 30
0.0
  0
ENDBLK
  5
1164
330
1157
100
AcDbEntity
  8
0
100
AcDbBlockEnd
  0
BLOCK
  5
116B
330
116A
100
AcDbEntity
  8
0
100
AcDbBlockBegin
  2
*D16
 70
     1
 10
0.0
 20
0.0
 30
0.0
  3
*D16
  1
*D17
  0
LINE
  5
116D
330
116A
100
AcDbEntity
  8
DIM
 62
     0
370
    -2
100
AcDbLine
 10
592.9949521142411
 20
1196.250595444454
 30
0.0
 11
592.9949521142411
 21
1218.156280159813
 31
0.0
  0
LINE
  5
116E
330
116A
100
AcDbEntity
  8
DIM
 62
     0
370
    -2
100
AcDbLine
 10
662.9949405104259
 20
1194.740993643938
 30
0.0
 11
662.9949405104259
 21
1218.156280159813
 31
0.0
  0
LINE
  5
116F
330
116A
100
AcDbEntity
  8
DIM
 62
     0
370
    -2
100
AcDbLine
 10
594.9949521142411
 20
1218.156280159813
 30
0.0
 11
660.9949405104259
 21
1218.156280159813
 31
0.0
  0
INSERT
  5
1170
330
116A
100
AcDbEntity
  8
DIM
 62
     0
370
    -2
100
AcDbBlockReference
  2
_DOT
 10
592.9949521142411
 20
1218.156280159813
 30
0.0
 41
2.0
 42
2.0
 43
2.0
 50
180.0
  0
INSERT
  5
1171
330
116A
100
AcDbEntity
  8
DIM
 62
     0
370
    -2
100
AcDbBlockReference
  2
_DOT
 10
662.9949405104259
 20
1218.156280159813
 30
0.0
 41
2.0
 42
2.0
 43
2.0
  0
MTEXT
  5
1172
330
116A
100
AcDbEntity
  8
DIM
 62
     0
 48
0.05
100
AcDbMText
 10
625.3869405104264
 20
1235.156280159813
 30
0.0
 40
12.0
 41
0.0
 46
0.0
 71
     1
 72
     1
  1
\A1;70
  7
ＭＳ ゴシック
 73
     1
 44
1.0
  0
POINT
  5
1173
330
116A
100
AcDbEntity
  8
Defpoints
 62
     0
100
AcDbPoint
 10
592.9949521142411
 20
1191.250595444454
 30
0.0
  0
POINT
  5
1174
330
116A
100
AcDbEntity
  8
Defpoints
 62
     0
100
AcDbPoint
 10
662.9949405104259
 20
1189.740993643938
 30
0.0
  0
POINT
  5
1175
330
116A
100
AcDbEntity
  8
Defpoints
 62
     0
100
AcDbPoint
 10
662.9949405104259
 20
1218.156280159813
 30
0.0
  0
ENDBLK
  5
116C
330
116A
100
AcDbEntity
  8
0
100
AcDbBlockEnd
  0
BLOCK
  5
1177
330
1176
100
AcDbEntity
  8
0
100
AcDbBlockBegin
  2
*D17
 70
     1
 10
0.0
 20
0.0
 30
0.0
  3
*D17
  1
*D18
  0
LINE
  5
1179
330
1176
100
AcDbEntity
  8
寸法
 62
     0
370
    -2
100
AcDbLine
 10
576.8578652398138
 20
1004.246370092341
 30
0.0
 11
576.8578652398138
 21
1026.1520548077
 31
0.0
  0
LINE
  5
117A
330
1176
100
AcDbEntity
  8
寸法
 62
     0
370
    -2
100
AcDbLine
 10
584.8578652398129
 20
1004.246370092341
 30
0.0
 11
584.8578652398129
 21
1026.1520548077
 31
0.0
  0
LINE
  5
117B
330
1176
100
AcDbEntity
  8
寸法
 62
     0
370
    -2
100
AcDbLine
 10
576.8578652398138
 20
1026.1520548077
 30
0.0
 11
740.781865239813
 21
1026.1520548077
 31
0.0
  0
LINE
  5
117C
330
1176
100
AcDbEntity
  8
寸法
 62
     0
370
    -2
100
AcDbLine
 10
578.8578652398138
 20
1026.1520548077
 30
0.0
 11
582.8578652398129
 21
1026.1520548077
 31
0.0
  0
LINE
  5
117D
330
1176
100
AcDbEntity
  8
寸法
 62
     0
370
    -2
100
AcDbLine
 10
582.8578652398129
 20
1026.1520548077
 30
0.0
 11
580.8578652398129
 21
1026.1520548077
 31
0.0
  0
INSERT
  5
117E
330
1176
100
AcDbEntity
  8
寸法
 62
     0
370
    -2
100
AcDbBlockReference
  2
_DOT
 10
576.8578652398138
 20
1026.1520548077
 30
0.0
 41
2.0
 42
2.0
 43
2.0
 50
180.0
  0
INSERT
  5
117F
330
1176
100
AcDbEntity
  8
寸法
 62
     0
370
    -2
100
AcDbBlockReference
  2
_DOT
 10
584.8578652398129
 20
1026.1520548077
 30
0.0
 41
2.0
 42
2.0
 43
2.0
  0
MTEXT
  5
1180
330
1176
100
AcDbEntity
  8
寸法
 62
     0
 48
0.05
100
AcDbMText
 10
597.7578652398129
 20
1045.5880548077
 30
0.0
 40
12.0
 41
0.0
 46
0.0
 71
     1
 72
     1
  1
\A1;ガラス厚み 8～12mm
  7
ＭＳ ゴシック
 73
     1
 44
1.0
  0
POINT
  5
1181
330
1176
100
AcDbEntity
  8
Defpoints
 62
     0
100
AcDbPoint
 10
576.8578652398138
 20
999.2463700923413
 30
0.0
  0
POINT
  5
1182
330
1176
100
AcDbEntity
  8
Defpoints
 62
     0
100
AcDbPoint
 10
584.8578652398129
 20
999.2463700923413
 30
0.0
  0
POINT
  5
2361
330
1176
100
AcDbEntity
  8
Defpoints
 62
     0
100
AcDbPoint
 10
584.8578652398129
 20
1026.1520548077
 30
0.0
  0
ENDBLK
  5
1178
330
1176
100
AcDbEntity
  8
0
100
AcDbBlockEnd
  0
BLOCK
  5
1219
330
1218
100
AcDbEntity
  8
0
100
AcDbBlockBegin
  2
*D18
 70
     1
 10
0.0
 20
0.0
 30
0.0
  3
*D18
  1
*D18
  0
LINE
  5
121A
330
1218
100
AcDbEntity
  8
DIM
 62
     0
370
    -2
100
AcDbLine
 10
471.7821091728445
 20
615.9000000000003
 30
0.0
 11
522.982109172846
 21
615.9000000000005
 31
0.0
  0
LINE
  5
121B
330
1218
100
AcDbEntity
  8
DIM
 62
     0
370
    -2
100
AcDbLine
 10
471.7821091728472
 20
15.89999999999994
 30
0.0
 11
522.982109172848
 21
15.90000000000015
 31
0.0
  0
LINE
  5
121C
330
1218
100
AcDbEntity
  8
DIM
 62
     0
370
    -2
100
AcDbLine
 10
522.982109172846
 20
613.9000000000005
 30
0.0
 11
522.982109172848
 21
17.90000000000015
 31
0.0
  0
INSERT
  5
121D
330
1218
100
AcDbEntity
  8
DIM
 62
     0
370
    -2
100
AcDbBlockReference
  2
_DOT
 10
522.982109172846
 20
615.9000000000005
 30
0.0
 41
2.0
 42
2.0
 43
2.0
 50
90.0000000000002
  0
INSERT
  5
121E
330
1218
100
AcDbEntity
  8
DIM
 62
     0
370
    -2
100
AcDbBlockReference
  2
_DOT
 10
522.982109172848
 20
15.90000000000015
 30
0.0
 41
2.0
 42
2.0
 43
2.0
 50
270.0000000000002
  0
MTEXT
  5
121F
330
1218
100
AcDbEntity
  8
DIM
 62
     0
 48
0.05
100
AcDbMText
 10
505.9821091728471
 20
304.9319999999998
 30
0.0
 40
12.0
 41
0.0
 46
0.0
 71
     1
 72
     1
  1
\A1;600
  7
ＭＳ ゴシック
 11
-3.410605131648478E-15
 21
1.0
 31
0.0
 73
     1
 44
1.0
  0
POINT
  5
1220
330
1218
100
AcDbEntity
  8
Defpoints
 62
     0
100
AcDbPoint
 10
466.7821091728445
 20
615.9000000000003
 30
0.0
  0
POINT
  5
1221
330
1218
100
AcDbEntity
  8
Defpoints
 62
     0
100
AcDbPoint
 10
466.7821091728472
 20
15.89999999999992
 30
0.0
  0
POINT
  5
1222
330
1218
100
AcDbEntity
  8
Defpoints
 62
     0
100
AcDbPoint
 10
522.982109172848
 20
15.90000000000013
 30
0.0
  0
ENDBLK
  5
1223
330
1218
100
AcDbEntity
  8
0
100
AcDbBlockEnd
  0
BLOCK
  5
1226
330
1225
100
AcDbEntity
  8
0
100
AcDbBlockBegin
  2
*D19
 70
     1
 10
0.0
 20
0.0
 30
0.0
  3
*D19
  1
*D21
  0
LINE
  5
1227
330
1225
100
AcDbEntity
  8
DIM
 62
     0
370
    -2
100
AcDbLine
 10
393.7821091728454
 20
634.3999999999994
 30
0.0
 11
393.7821091728454
 21
656.3056847153582
 31
0.0
  0
LINE
  5
1228
330
1225
100
AcDbEntity
  8
DIM
 62
     0
370
    -2
100
AcDbLine
 10
401.7821091728445
 20
634.3999999999994
 30
0.0
 11
401.7821091728445
 21
656.3056847153582
 31
0.0
  0
LINE
  5
1229
330
1225
100
AcDbEntity
  8
DIM
 62
     0
370
    -2
100
AcDbLine
 10
401.7821091728445
 20
656.3056847153582
 30
0.0
 11
566.8061091728443
 21
656.3056847153582
 31
0.0
  0
LINE
  5
122A
330
1225
100
AcDbEntity
  8
DIM
 62
     0
370
    -2
100
AcDbLine
 10
395.7821091728454
 20
656.3056847153582
 30
0.0
 11
399.7821091728445
 21
656.3056847153582
 31
0.0
  0
INSERT
  5
122B
330
1225
100
AcDbEntity
  8
DIM
 62
     0
370
    -2
100
AcDbBlockReference
  2
_DOT
 10
393.7821091728454
 20
656.3056847153582
 30
0.0
 41
2.0
 42
2.0
 43
2.0
 50
180.0
  0
INSERT
  5
122C
330
1225
100
AcDbEntity
  8
DIM
 62
     0
370
    -2
100
AcDbBlockReference
  2
_DOT
 10
401.7821091728445
 20
656.3056847153582
 30
0.0
 41
2.0
 42
2.0
 43
2.0
  0
MTEXT
  5
122D
330
1225
100
AcDbEntity
  8
DIM
 62
     0
 48
0.05
100
AcDbMText
 10
423.7821091728444
 20
675.7416847153581
 30
0.0
 40
12.0
 41
0.0
 46
0.0
 71
     1
 72
     1
  1
\A1;ガラス厚み　～10mm
  7
ＭＳ ゴシック
 73
     1
 44
1.0
  0
POINT
  5
122E
330
1225
100
AcDbEntity
  8
Defpoints
 62
     0
100
AcDbPoint
 10
393.7821091728454
 20
629.3999999999994
 30
0.0
  0
POINT
  5
122F
330
1225
100
AcDbEntity
  8
Defpoints
 62
     0
100
AcDbPoint
 10
401.7821091728445
 20
629.3999999999994
 30
0.0
  0
POINT
  5
1230
330
1225
100
AcDbEntity
  8
Defpoints
 62
     0
100
AcDbPoint
 10
401.7821091728445
 20
656.3056847153582
 30
0.0
  0
ENDBLK
  5
1231
330
1225
100
AcDbEntity
  8
0
100
AcDbBlockEnd
  0
BLOCK
  5
1234
330
1233
100
AcDbEntity
  8
0
100
AcDbBlockBegin
  2
*D20
 70
     1
 10
0.0
 20
0.0
 30
0.0
  3
*D20
  1
*D12
  0
LINE
  5
1235
330
1233
100
AcDbEntity
  8
DIM
 62
     0
 48
0.05
370
    -2
100
AcDbLine
 10
67.4212084020553
 20
631.0000000000002
 30
0.0
 11
124.5521703276536
 21
631.0000000000002
 31
0.0
  0
LINE
  5
1236
330
1233
100
AcDbEntity
  8
DIM
 62
     0
 48
0.05
370
    -2
100
AcDbLine
 10
67.4212084020553
 20
0.9999999999999997
 30
0.0
 11
124.5521703276536
 21
0.9999999999999962
 31
0.0
  0
LINE
  5
1237
330
1233
100
AcDbEntity
  8
DIM
 62
     0
 48
0.05
370
    -2
100
AcDbLine
 10
124.5521703276536
 20
629.0000000000002
 30
0.0
 11
124.5521703276536
 21
2.999999999999996
 31
0.0
  0
INSERT
  5
1238
330
1233
100
AcDbEntity
  8
DIM
 62
     0
370
    -2
100
AcDbBlockReference
  2
_DOT
 10
124.5521703276536
 20
631.0000000000002
 30
0.0
 41
2.0
 42
2.0
 43
2.0
 50
90.0
  0
INSERT
  5
1239
330
1233
100
AcDbEntity
  8
DIM
 62
     0
370
    -2
100
AcDbBlockReference
  2
_DOT
 10
124.5521703276536
 20
0.9999999999999962
 30
0.0
 41
2.0
 42
2.0
 43
2.0
 50
270.0
  0
MTEXT
  5
123A
330
1233
100
AcDbEntity
  8
DIM
 62
     0
 48
0.05
100
AcDbMText
 10
113.5521703276536
 20
316.0000000000001
 30
0.0
 40
12.0
 41
0.0
 46
0.0
 71
     5
 72
     1
  1
\A1;630
  7
ＭＳ ゴシック
 11
6.767073673905714E-17
 21
1.0
 31
0.0
 73
     1
 44
1.0
  0
POINT
  5
123B
330
1233
100
AcDbEntity
  8
Defpoints
 62
     0
100
AcDbPoint
 10
62.4212084020553
 20
631.0000000000002
 30
0.0
  0
POINT
  5
123C
330
1233
100
AcDbEntity
  8
Defpoints
 62
     0
100
AcDbPoint
 10
62.4212084020553
 20
1.0
 30
0.0
  0
POINT
  5
123D
330
1233
100
AcDbEntity
  8
Defpoints
 62
     0
100
AcDbPoint
 10
124.5521703276536
 20
0.9999999999999962
 30
0.0
  0
ENDBLK
  5
123E
330
1233
100
AcDbEntity
  8
0
100
AcDbBlockEnd
  0
BLOCK
  5
1250
330
124F
100
AcDbEntity
  8
0
100
AcDbBlockBegin
  2
*D21
 70
     1
 10
0.0
 20
0.0
 30
0.0
  3
*D21
  1
*D23
  0
LINE
  5
1251
330
124F
100
AcDbEntity
  8
DIM
 62
     0
 48
0.05
370
    -2
100
AcDbLine
 10
47.72120840205548
 20
781.3452567179606
 30
0.0
 11
47.72120840205548
 21
747.3562102476844
 31
0.0
  0
LINE
  5
1252
330
124F
100
AcDbEntity
  8
DIM
 62
     0
 48
0.05
370
    -2
100
AcDbLine
 10
62.72120840205548
 20
781.3452567179606
 30
0.0
 11
62.72120840205548
 21
747.3562102476844
 31
0.0
  0
LINE
  5
1253
330
124F
100
AcDbEntity
  8
DIM
 62
     0
 48
0.05
370
    -2
100
AcDbLine
 10
49.72120840205548
 20
747.3562102476844
 30
0.0
 11
60.72120840205548
 21
747.3562102476844
 31
0.0
  0
INSERT
  5
1254
330
124F
100
AcDbEntity
  8
DIM
 62
     0
370
    -2
100
AcDbBlockReference
  2
_DOT
 10
47.72120840205548
 20
747.3562102476844
 30
0.0
 41
2.0
 42
2.0
 43
2.0
 50
180.0
  0
INSERT
  5
1255
330
124F
100
AcDbEntity
  8
DIM
 62
     0
370
    -2
100
AcDbBlockReference
  2
_DOT
 10
62.72120840205548
 20
747.3562102476844
 30
0.0
 41
2.0
 42
2.0
 43
2.0
  0
MTEXT
  5
1256
330
124F
100
AcDbEntity
  8
DIM
 62
     0
 48
0.05
100
AcDbMText
 10
55.22120840205548
 20
758.3562102476844
 30
0.0
 40
12.0
 41
0.0
 46
0.0
 71
     5
 72
     1
  1
\A1;15
  7
ＭＳ ゴシック
 73
     1
 44
1.0
  0
POINT
  5
1257
330
124F
100
AcDbEntity
  8
Defpoints
 62
     0
100
AcDbPoint
 10
47.72120840205548
 20
786.3452567179606
 30
0.0
  0
POINT
  5
1258
330
124F
100
AcDbEntity
  8
Defpoints
 62
     0
100
AcDbPoint
 10
62.72120840205548
 20
786.3452567179606
 30
0.0
  0
POINT
  5
1259
330
124F
100
AcDbEntity
  8
Defpoints
 62
     0
100
AcDbPoint
 10
62.72120840205548
 20
747.3562102476844
 30
0.0
  0
ENDBLK
  5
125A
330
124F
100
AcDbEntity
  8
0
100
AcDbBlockEnd
  0
BLOCK
  5
1260
330
125F
100
AcDbEntity
  8
0
100
AcDbBlockBegin
  2
*D22
 70
     1
 10
0.0
 20
0.0
 30
0.0
  3
*D22
  1
*D24
  0
LINE
  5
1261
330
125F
100
AcDbEntity
  8
DIM
 62
     0
 48
0.05
370
    -2
100
AcDbLine
 10
42.72120840205548
 20
791.8793855210474
 30
0.0
 11
17.00000000000006
 21
791.8793855210474
 31
0.0
  0
LINE
  5
1262
330
125F
100
AcDbEntity
  8
DIM
 62
     0
 48
0.05
370
    -2
100
AcDbLine
 10
42.72120840205548
 20
785.6793855210485
 30
0.0
 11
17.00000000000006
 21
785.6793855210485
 31
0.0
  0
LINE
  5
1263
330
125F
100
AcDbEntity
  8
DIM
 62
     0
 48
0.05
370
    -2
100
AcDbLine
 10
17.00000000000006
 20
789.8793855210474
 30
0.0
 11
17.00000000000006
 21
787.6793855210485
 31
0.0
  0
INSERT
  5
1264
330
125F
100
AcDbEntity
  8
DIM
 62
     0
370
    -2
100
AcDbBlockReference
  2
_DOT
 10
17.00000000000006
 20
791.8793855210474
 30
0.0
 41
2.0
 42
2.0
 43
2.0
 50
90.0
  0
INSERT
  5
1265
330
125F
100
AcDbEntity
  8
DIM
 62
     0
370
    -2
100
AcDbBlockReference
  2
_DOT
 10
17.00000000000006
 20
785.6793855210485
 30
0.0
 41
2.0
 42
2.0
 43
2.0
 50
270.0
  0
MTEXT
  5
1266
330
125F
100
AcDbEntity
  8
DIM
 62
     0
 48
0.05
100
AcDbMText
 10
6.000000000000057
 20
788.779385521048
 30
0.0
 40
12.0
 41
0.0
 46
0.0
 71
     5
 72
     1
  1
\A1;6
  7
ＭＳ ゴシック
 11
0.0
 21
1.0
 31
0.0
 73
     1
 44
1.0
  0
POINT
  5
1267
330
125F
100
AcDbEntity
  8
Defpoints
 62
     0
100
AcDbPoint
 10
47.72120840205548
 20
791.8793855210474
 30
0.0
  0
POINT
  5
1268
330
125F
100
AcDbEntity
  8
Defpoints
 62
     0
100
AcDbPoint
 10
47.72120840205548
 20
785.6793855210485
 30
0.0
  0
POINT
  5
1269
330
125F
100
AcDbEntity
  8
Defpoints
 62
     0
100
AcDbPoint
 10
17.00000000000006
 20
785.6793855210485
 30
0.0
  0
ENDBLK
  5
126A
330
125F
100
AcDbEntity
  8
0
100
AcDbBlockEnd
  0
BLOCK
  5
126E
330
126D
100
AcDbEntity
  8
0
100
AcDbBlockBegin
  2
*D23
 70
     1
 10
0.0
 20
0.0
 30
0.0
  3
*D23
  1
*D25
  0
LINE
  5
126F
330
126D
100
AcDbEntity
  8
DIM
 62
     0
 48
0.05
370
    -2
100
AcDbLine
 10
42.72120840205548
 20
846.8793855210474
 30
0.0
 11
17.00000000000005
 21
846.8793855210474
 31
0.0
  0
LINE
  5
1270
330
126D
100
AcDbEntity
  8
DIM
 62
     0
 48
0.05
370
    -2
100
AcDbLine
 10
42.72120840205548
 20
791.8793855210474
 30
0.0
 11
17.00000000000006
 21
791.8793855210474
 31
0.0
  0
LINE
  5
1271
330
126D
100
AcDbEntity
  8
DIM
 62
     0
 48
0.05
370
    -2
100
AcDbLine
 10
17.00000000000005
 20
844.8793855210474
 30
0.0
 11
17.00000000000006
 21
793.8793855210474
 31
0.0
  0
INSERT
  5
1272
330
126D
100
AcDbEntity
  8
DIM
 62
     0
370
    -2
100
AcDbBlockReference
  2
_DOT
 10
17.00000000000005
 20
846.8793855210474
 30
0.0
 41
2.0
 42
2.0
 43
2.0
 50
90.00000000000001
  0
INSERT
  5
1273
330
126D
100
AcDbEntity
  8
DIM
 62
     0
370
    -2
100
AcDbBlockReference
  2
_DOT
 10
17.00000000000006
 20
791.8793855210474
 30
0.0
 41
2.0
 42
2.0
 43
2.0
 50
270.0
  0
MTEXT
  5
1274
330
126D
100
AcDbEntity
  8
DIM
 62
     0
 48
0.05
100
AcDbMText
 10
6.000000000000053
 20
819.3793855210474
 30
0.0
 40
12.0
 41
0.0
 46
0.0
 71
     5
 72
     1
  1
\A1;55
  7
ＭＳ ゴシック
 11
-1.291895883200182E-16
 21
1.0
 31
0.0
 73
     1
 44
1.0
  0
POINT
  5
1275
330
126D
100
AcDbEntity
  8
Defpoints
 62
     0
100
AcDbPoint
 10
47.72120840205548
 20
846.8793855210474
 30
0.0
  0
POINT
  5
1276
330
126D
100
AcDbEntity
  8
Defpoints
 62
     0
100
AcDbPoint
 10
47.72120840205548
 20
791.8793855210474
 30
0.0
  0
POINT
  5
1277
330
126D
100
AcDbEntity
  8
Defpoints
 62
     0
100
AcDbPoint
 10
17.00000000000006
 20
791.8793855210474
 30
0.0
  0
ENDBLK
  5
1278
330
126D
100
AcDbEntity
  8
0
100
AcDbBlockEnd
  0
BLOCK
  5
127B
330
127A
100
AcDbEntity
  8
0
100
AcDbBlockBegin
  2
*D24
 70
     1
 10
0.0
 20
0.0
 30
0.0
  3
*D24
  1
*D26
  0
LINE
  5
127C
330
127A
100
AcDbEntity
  8
DIM
 62
     0
370
    -2
100
AcDbLine
 10
67.92120840205621
 20
785.6793855210467
 30
0.0
 11
102.3703941829018
 21
785.6793855210465
 31
0.0
  0
LINE
  5
127D
330
127A
100
AcDbEntity
  8
DIM
 62
     0
370
    -2
100
AcDbLine
 10
64.8116066015391
 20
846.8793855210447
 30
0.0
 11
102.3703941829021
 21
846.8793855210445
 31
0.0
  0
LINE
  5
127E
330
127A
100
AcDbEntity
  8
DIM
 62
     0
370
    -2
100
AcDbLine
 10
102.3703941829018
 20
787.6793855210465
 30
0.0
 11
102.370394182902
 21
844.8793855210445
 31
0.0
  0
INSERT
  5
127F
330
127A
100
AcDbEntity
  8
DIM
 62
     0
370
    -2
100
AcDbBlockReference
  2
_DOT
 10
102.3703941829018
 20
785.6793855210465
 30
0.0
 41
2.0
 42
2.0
 43
2.0
 50
269.9999999999998
  0
INSERT
  5
1280
330
127A
100
AcDbEntity
  8
DIM
 62
     0
370
    -2
100
AcDbBlockReference
  2
_DOT
 10
102.3703941829021
 20
846.8793855210445
 30
0.0
 41
2.0
 42
2.0
 43
2.0
 50
89.99999999999974
  0
MTEXT
  5
1281
330
127A
100
AcDbEntity
  8
DIM
 62
     0
 48
0.05
100
AcDbMText
 10
85.37039418290189
 20
810.4293855210452
 30
0.0
 40
12.0
 41
0.0
 46
0.0
 71
     1
 72
     1
  1
\A1;61
  7
ＭＳ ゴシック
 11
4.411866659948479E-15
 21
1.0
 31
0.0
 73
     1
 44
1.0
  0
POINT
  5
1282
330
127A
100
AcDbEntity
  8
Defpoints
 62
     0
100
AcDbPoint
 10
62.92120840205621
 20
785.6793855210467
 30
0.0
  0
POINT
  5
1283
330
127A
100
AcDbEntity
  8
Defpoints
 62
     0
100
AcDbPoint
 10
59.8116066015391
 20
846.8793855210447
 30
0.0
  0
POINT
  5
1284
330
127A
100
AcDbEntity
  8
Defpoints
 62
     0
100
AcDbPoint
 10
102.3703941829021
 20
846.8793855210445
 30
0.0
  0
ENDBLK
  5
1285
330
127A
100
AcDbEntity
  8
0
100
AcDbBlockEnd
  0
BLOCK
  5
128A
330
1289
100
AcDbEntity
  8
0
100
AcDbBlockBegin
  2
*D25
 70
     1
 10
0.0
 20
0.0
 30
0.0
  3
*D25
  1
*D27
  0
LINE
  5
128B
330
1289
100
AcDbEntity
  8
DIM
 62
     0
 48
0.05
370
    -2
100
AcDbLine
 10
67.4212084020553
 20
631.0000000000002
 30
0.0
 11
100.2424762899524
 21
631.0000000000002
 31
0.0
  0
LINE
  5
128C
330
1289
100
AcDbEntity
  8
DIM
 62
     0
 48
0.05
370
    -2
100
AcDbLine
 10
67.92120840205621
 20
600.9000000000005
 30
0.0
 11
100.2424762899524
 21
600.9000000000005
 31
0.0
  0
LINE
  5
128D
330
1289
100
AcDbEntity
  8
DIM
 62
     0
 48
0.05
370
    -2
100
AcDbLine
 10
100.2424762899524
 20
629.0000000000002
 30
0.0
 11
100.2424762899524
 21
602.9000000000005
 31
0.0
  0
INSERT
  5
128E
330
1289
100
AcDbEntity
  8
DIM
 62
     0
370
    -2
100
AcDbBlockReference
  2
_DOT
 10
100.2424762899524
 20
631.0000000000002
 30
0.0
 41
2.0
 42
2.0
 43
2.0
 50
90.0
  0
INSERT
  5
128F
330
1289
100
AcDbEntity
  8
DIM
 62
     0
370
    -2
100
AcDbBlockReference
  2
_DOT
 10
100.2424762899524
 20
600.9000000000005
 30
0.0
 41
2.0
 42
2.0
 43
2.0
 50
270.0
  0
MTEXT
  5
1290
330
1289
100
AcDbEntity
  8
DIM
 62
     0
 48
0.05
100
AcDbMText
 10
89.24247628995238
 20
615.9500000000004
 30
0.0
 40
12.0
 41
0.0
 46
0.0
 71
     5
 72
     1
  1
\A1;30
  7
ＭＳ ゴシック
 11
0.0
 21
1.0
 31
0.0
 73
     1
 44
1.0
  0
POINT
  5
1291
330
1289
100
AcDbEntity
  8
Defpoints
 62
     0
100
AcDbPoint
 10
62.4212084020553
 20
631.0000000000002
 30
0.0
  0
POINT
  5
1292
330
1289
100
AcDbEntity
  8
Defpoints
 62
     0
100
AcDbPoint
 10
62.92120840205621
 20
600.9000000000005
 30
0.0
  0
POINT
  5
1293
330
1289
100
AcDbEntity
  8
Defpoints
 62
     0
100
AcDbPoint
 10
100.2424762899524
 20
600.9000000000005
 30
0.0
  0
ENDBLK
  5
1294
330
1289
100
AcDbEntity
  8
0
100
AcDbBlockEnd
  0
BLOCK
  5
130F
330
130E
100
AcDbEntity
  8
0
100
AcDbBlockBegin
  2
*D26
 70
     1
 10
0.0
 20
0.0
 30
0.0
  3
*D26
  1
*D28
  0
LINE
  5
1311
330
130E
100
AcDbEntity
  8
DIM
 62
     0
370
    -2
100
AcDbLine
 10
-174.8571448257541
 20
1098.119813428072
 30
0.0
 11
-123.6571448257526
 21
1098.119813428072
 31
0.0
  0
LINE
  5
1312
330
130E
100
AcDbEntity
  8
DIM
 62
     0
370
    -2
100
AcDbLine
 10
-174.8571448257513
 20
498.1198134280713
 30
0.0
 11
-123.6571448257505
 21
498.1198134280715
 31
0.0
  0
LINE
  5
1313
330
130E
100
AcDbEntity
  8
DIM
 62
     0
370
    -2
100
AcDbLine
 10
-123.6571448257526
 20
1096.119813428072
 30
0.0
 11
-123.6571448257505
 21
500.1198134280715
 31
0.0
  0
INSERT
  5
1314
330
130E
100
AcDbEntity
  8
DIM
 62
     0
370
    -2
100
AcDbBlockReference
  2
_DOT
 10
-123.6571448257526
 20
1098.119813428072
 30
0.0
 41
2.0
 42
2.0
 43
2.0
 50
90.0000000000002
  0
INSERT
  5
1315
330
130E
100
AcDbEntity
  8
DIM
 62
     0
370
    -2
100
AcDbBlockReference
  2
_DOT
 10
-123.6571448257505
 20
498.1198134280715
 30
0.0
 41
2.0
 42
2.0
 43
2.0
 50
270.0000000000002
  0
MTEXT
  5
1316
330
130E
100
AcDbEntity
  8
DIM
 62
     0
 48
0.05
100
AcDbMText
 10
-140.6571448257515
 20
787.1518134280711
 30
0.0
 40
12.0
 41
0.0
 46
0.0
 71
     1
 72
     1
  1
\A1;600
  7
ＭＳ ゴシック
 11
-3.481659405224488E-15
 21
1.0
 31
0.0
 73
     1
 44
1.0
  0
POINT
  5
1317
330
130E
100
AcDbEntity
  8
Defpoints
 62
     0
100
AcDbPoint
 10
-179.8571448257541
 20
1098.119813428072
 30
0.0
  0
POINT
  5
1318
330
130E
100
AcDbEntity
  8
Defpoints
 62
     0
100
AcDbPoint
 10
-179.8571448257513
 20
498.1198134280713
 30
0.0
  0
POINT
  5
1319
330
130E
100
AcDbEntity
  8
Defpoints
 62
     0
100
AcDbPoint
 10
-123.6571448257505
 20
498.1198134280715
 30
0.0
  0
ENDBLK
  5
1310
330
130E
100
AcDbEntity
  8
0
100
AcDbBlockEnd
  0
BLOCK
  5
131B
330
131A
100
AcDbEntity
  8
0
100
AcDbBlockBegin
  2
*D27
 70
     1
 10
0.0
 20
0.0
 30
0.0
  3
*D27
  1
*D29
  0
LINE
  5
131D
330
131A
100
AcDbEntity
  8
DIM
 62
     0
370
    -2
100
AcDbLine
 10
-252.8571448257532
 20
1116.619813428071
 30
0.0
 11
-252.8571448257532
 21
1138.52549814343
 31
0.0
  0
LINE
  5
131E
330
131A
100
AcDbEntity
  8
DIM
 62
     0
370
    -2
100
AcDbLine
 10
-244.8571448257541
 20
1116.619813428071
 30
0.0
 11
-244.8571448257541
 21
1138.52549814343
 31
0.0
  0
LINE
  5
131F
330
131A
100
AcDbEntity
  8
DIM
 62
     0
370
    -2
100
AcDbLine
 10
-244.8571448257541
 20
1138.52549814343
 30
0.0
 11
-79.83314482575406
 21
1138.52549814343
 31
0.0
  0
LINE
  5
1320
330
131A
100
AcDbEntity
  8
DIM
 62
     0
370
    -2
100
AcDbLine
 10
-250.8571448257532
 20
1138.52549814343
 30
0.0
 11
-246.8571448257541
 21
1138.52549814343
 31
0.0
  0
INSERT
  5
1321
330
131A
100
AcDbEntity
  8
DIM
 62
     0
370
    -2
100
AcDbBlockReference
  2
_DOT
 10
-252.8571448257532
 20
1138.52549814343
 30
0.0
 41
2.0
 42
2.0
 43
2.0
 50
180.0
  0
INSERT
  5
1322
330
131A
100
AcDbEntity
  8
DIM
 62
     0
370
    -2
100
AcDbBlockReference
  2
_DOT
 10
-244.8571448257541
 20
1138.52549814343
 30
0.0
 41
2.0
 42
2.0
 43
2.0
  0
MTEXT
  5
1323
330
131A
100
AcDbEntity
  8
DIM
 62
     0
 48
0.05
100
AcDbMText
 10
-222.8571448257541
 20
1157.96149814343
 30
0.0
 40
12.0
 41
0.0
 46
0.0
 71
     1
 72
     1
  1
\A1;ガラス厚み　～10mm
  7
ＭＳ ゴシック
 73
     1
 44
1.0
  0
POINT
  5
1324
330
131A
100
AcDbEntity
  8
Defpoints
 62
     0
100
AcDbPoint
 10
-252.8571448257532
 20
1111.619813428071
 30
0.0
  0
POINT
  5
1325
330
131A
100
AcDbEntity
  8
Defpoints
 62
     0
100
AcDbPoint
 10
-244.8571448257541
 20
1111.619813428071
 30
0.0
  0
POINT
  5
1326
330
131A
100
AcDbEntity
  8
Defpoints
 62
     0
100
AcDbPoint
 10
-244.8571448257541
 20
1138.52549814343
 30
0.0
  0
ENDBLK
  5
131C
330
131A
100
AcDbEntity
  8
0
100
AcDbBlockEnd
  0
BLOCK
  5
1328
330
1327
100
AcDbEntity
  8
0
100
AcDbBlockBegin
  2
*D28
 70
     1
 10
0.0
 20
0.0
 30
0.0
  3
*D28
  1
*D30
  0
LINE
  5
132A
330
1327
100
AcDbEntity
  8
DIM
 62
     0
 48
0.05
370
    -2
100
AcDbLine
 10
-579.2180455965432
 20
1113.219813428072
 30
0.0
 11
-522.0870836709449
 21
1113.219813428072
 31
0.0
  0
LINE
  5
132B
330
1327
100
AcDbEntity
  8
DIM
 62
     0
 48
0.05
370
    -2
100
AcDbLine
 10
-579.2180455965432
 20
483.2198134280713
 30
0.0
 11
-522.0870836709449
 21
483.2198134280713
 31
0.0
  0
LINE
  5
132C
330
1327
100
AcDbEntity
  8
DIM
 62
     0
 48
0.05
370
    -2
100
AcDbLine
 10
-522.0870836709449
 20
1111.219813428072
 30
0.0
 11
-522.0870836709449
 21
485.2198134280713
 31
0.0
  0
INSERT
  5
132D
330
1327
100
AcDbEntity
  8
DIM
 62
     0
370
    -2
100
AcDbBlockReference
  2
_DOT
 10
-522.0870836709449
 20
1113.219813428072
 30
0.0
 41
2.0
 42
2.0
 43
2.0
 50
90.0
  0
INSERT
  5
132E
330
1327
100
AcDbEntity
  8
DIM
 62
     0
370
    -2
100
AcDbBlockReference
  2
_DOT
 10
-522.0870836709449
 20
483.2198134280713
 30
0.0
 41
2.0
 42
2.0
 43
2.0
 50
270.0
  0
MTEXT
  5
132F
330
1327
100
AcDbEntity
  8
DIM
 62
     0
 48
0.05
100
AcDbMText
 10
-533.0870836709449
 20
798.2198134280715
 30
0.0
 40
12.0
 41
0.0
 46
0.0
 71
     5
 72
     1
  1
\A1;630
  7
ＭＳ ゴシック
 11
0.0
 21
1.0
 31
0.0
 73
     1
 44
1.0
  0
POINT
  5
1330
330
1327
100
AcDbEntity
  8
Defpoints
 62
     0
100
AcDbPoint
 10
-584.2180455965432
 20
1113.219813428072
 30
0.0
  0
POINT
  5
1331
330
1327
100
AcDbEntity
  8
Defpoints
 62
     0
100
AcDbPoint
 10
-584.2180455965432
 20
483.2198134280713
 30
0.0
  0
POINT
  5
1332
330
1327
100
AcDbEntity
  8
Defpoints
 62
     0
100
AcDbPoint
 10
-522.0870836709449
 20
483.2198134280713
 30
0.0
  0
ENDBLK
  5
1329
330
1327
100
AcDbEntity
  8
0
100
AcDbBlockEnd
  0
BLOCK
  5
1334
330
1333
100
AcDbEntity
  8
0
100
AcDbBlockBegin
  2
*D29
 70
     1
 10
0.0
 20
0.0
 30
0.0
  3
*D29
  1
*D31
  0
LINE
  5
1336
330
1333
100
AcDbEntity
  8
DIM
 62
     0
 48
0.05
370
    -2
100
AcDbLine
 10
-598.918045596543
 20
1263.565070146032
 30
0.0
 11
-598.918045596543
 21
1229.576023675756
 31
0.0
  0
LINE
  5
1337
330
1333
100
AcDbEntity
  8
DIM
 62
     0
 48
0.05
370
    -2
100
AcDbLine
 10
-583.918045596543
 20
1263.565070146032
 30
0.0
 11
-583.918045596543
 21
1229.576023675756
 31
0.0
  0
LINE
  5
1338
330
1333
100
AcDbEntity
  8
DIM
 62
     0
 48
0.05
370
    -2
100
AcDbLine
 10
-596.918045596543
 20
1229.576023675756
 30
0.0
 11
-585.918045596543
 21
1229.576023675756
 31
0.0
  0
INSERT
  5
1339
330
1333
100
AcDbEntity
  8
DIM
 62
     0
370
    -2
100
AcDbBlockReference
  2
_DOT
 10
-598.918045596543
 20
1229.576023675756
 30
0.0
 41
2.0
 42
2.0
 43
2.0
 50
180.0
  0
INSERT
  5
133A
330
1333
100
AcDbEntity
  8
DIM
 62
     0
370
    -2
100
AcDbBlockReference
  2
_DOT
 10
-583.918045596543
 20
1229.576023675756
 30
0.0
 41
2.0
 42
2.0
 43
2.0
  0
MTEXT
  5
133B
330
1333
100
AcDbEntity
  8
DIM
 62
     0
 48
0.05
100
AcDbMText
 10
-591.418045596543
 20
1240.576023675756
 30
0.0
 40
12.0
 41
0.0
 46
0.0
 71
     5
 72
     1
  1
\A1;15
  7
ＭＳ ゴシック
 73
     1
 44
1.0
  0
POINT
  5
133C
330
1333
100
AcDbEntity
  8
Defpoints
 62
     0
100
AcDbPoint
 10
-598.918045596543
 20
1268.565070146032
 30
0.0
  0
POINT
  5
133D
330
1333
100
AcDbEntity
  8
Defpoints
 62
     0
100
AcDbPoint
 10
-583.918045596543
 20
1268.565070146032
 30
0.0
  0
POINT
  5
133E
330
1333
100
AcDbEntity
  8
Defpoints
 62
     0
100
AcDbPoint
 10
-583.918045596543
 20
1229.576023675756
 30
0.0
  0
ENDBLK
  5
1335
330
1333
100
AcDbEntity
  8
0
100
AcDbBlockEnd
  0
BLOCK
  5
1340
330
133F
100
AcDbEntity
  8
0
100
AcDbBlockBegin
  2
*D30
 70
     1
 10
0.0
 20
0.0
 30
0.0
  3
*D30
  1
*D32
  0
LINE
  5
1342
330
133F
100
AcDbEntity
  8
DIM
 62
     0
 48
0.05
370
    -2
100
AcDbLine
 10
-603.918045596543
 20
1274.099198949119
 30
0.0
 11
-629.6392539985984
 21
1274.099198949119
 31
0.0
  0
LINE
  5
1343
330
133F
100
AcDbEntity
  8
DIM
 62
     0
 48
0.05
370
    -2
100
AcDbLine
 10
-603.918045596543
 20
1267.89919894912
 30
0.0
 11
-629.6392539985984
 21
1267.89919894912
 31
0.0
  0
LINE
  5
1344
330
133F
100
AcDbEntity
  8
DIM
 62
     0
 48
0.05
370
    -2
100
AcDbLine
 10
-629.6392539985984
 20
1272.099198949119
 30
0.0
 11
-629.6392539985984
 21
1269.89919894912
 31
0.0
  0
INSERT
  5
1345
330
133F
100
AcDbEntity
  8
DIM
 62
     0
370
    -2
100
AcDbBlockReference
  2
_DOT
 10
-629.6392539985984
 20
1274.099198949119
 30
0.0
 41
2.0
 42
2.0
 43
2.0
 50
90.0
  0
INSERT
  5
1346
330
133F
100
AcDbEntity
  8
DIM
 62
     0
370
    -2
100
AcDbBlockReference
  2
_DOT
 10
-629.6392539985984
 20
1267.89919894912
 30
0.0
 41
2.0
 42
2.0
 43
2.0
 50
270.0
  0
MTEXT
  5
1347
330
133F
100
AcDbEntity
  8
DIM
 62
     0
 48
0.05
100
AcDbMText
 10
-640.6392539985984
 20
1270.999198949119
 30
0.0
 40
12.0
 41
0.0
 46
0.0
 71
     5
 72
     1
  1
\A1;6
  7
ＭＳ ゴシック
 11
0.0
 21
1.0
 31
0.0
 73
     1
 44
1.0
  0
POINT
  5
1348
330
133F
100
AcDbEntity
  8
Defpoints
 62
     0
100
AcDbPoint
 10
-598.918045596543
 20
1274.099198949119
 30
0.0
  0
POINT
  5
1349
330
133F
100
AcDbEntity
  8
Defpoints
 62
     0
100
AcDbPoint
 10
-598.918045596543
 20
1267.89919894912
 30
0.0
  0
POINT
  5
134A
330
133F
100
AcDbEntity
  8
Defpoints
 62
     0
100
AcDbPoint
 10
-629.6392539985984
 20
1267.89919894912
 30
0.0
  0
ENDBLK
  5
1341
330
133F
100
AcDbEntity
  8
0
100
AcDbBlockEnd
  0
BLOCK
  5
134C
330
134B
100
AcDbEntity
  8
0
100
AcDbBlockBegin
  2
*D31
 70
     1
 10
0.0
 20
0.0
 30
0.0
  3
*D31
  1
*D33
  0
LINE
  5
134E
330
134B
100
AcDbEntity
  8
DIM
 62
     0
 48
0.05
370
    -2
100
AcDbLine
 10
-603.918045596543
 20
1329.099198949119
 30
0.0
 11
-629.6392539985984
 21
1329.099198949119
 31
0.0
  0
LINE
  5
134F
330
134B
100
AcDbEntity
  8
DIM
 62
     0
 48
0.05
370
    -2
100
AcDbLine
 10
-603.918045596543
 20
1274.099198949119
 30
0.0
 11
-629.6392539985984
 21
1274.099198949119
 31
0.0
  0
LINE
  5
1350
330
134B
100
AcDbEntity
  8
DIM
 62
     0
 48
0.05
370
    -2
100
AcDbLine
 10
-629.6392539985984
 20
1327.099198949119
 30
0.0
 11
-629.6392539985984
 21
1276.099198949119
 31
0.0
  0
INSERT
  5
1351
330
134B
100
AcDbEntity
  8
DIM
 62
     0
370
    -2
100
AcDbBlockReference
  2
_DOT
 10
-629.6392539985984
 20
1329.099198949119
 30
0.0
 41
2.0
 42
2.0
 43
2.0
 50
90.0
  0
INSERT
  5
1352
330
134B
100
AcDbEntity
  8
DIM
 62
     0
370
    -2
100
AcDbBlockReference
  2
_DOT
 10
-629.6392539985984
 20
1274.099198949119
 30
0.0
 41
2.0
 42
2.0
 43
2.0
 50
270.0
  0
MTEXT
  5
1353
330
134B
100
AcDbEntity
  8
DIM
 62
     0
 48
0.05
100
AcDbMText
 10
-640.6392539985984
 20
1301.599198949119
 30
0.0
 40
12.0
 41
0.0
 46
0.0
 71
     5
 72
     1
  1
\A1;55
  7
ＭＳ ゴシック
 11
0.0
 21
1.0
 31
0.0
 73
     1
 44
1.0
  0
POINT
  5
1354
330
134B
100
AcDbEntity
  8
Defpoints
 62
     0
100
AcDbPoint
 10
-598.918045596543
 20
1329.099198949119
 30
0.0
  0
POINT
  5
1355
330
134B
100
AcDbEntity
  8
Defpoints
 62
     0
100
AcDbPoint
 10
-598.918045596543
 20
1274.099198949119
 30
0.0
  0
POINT
  5
1356
330
134B
100
AcDbEntity
  8
Defpoints
 62
     0
100
AcDbPoint
 10
-629.6392539985984
 20
1274.099198949119
 30
0.0
  0
ENDBLK
  5
134D
330
134B
100
AcDbEntity
  8
0
100
AcDbBlockEnd
  0
BLOCK
  5
1358
330
1357
100
AcDbEntity
  8
0
100
AcDbBlockBegin
  2
*D32
 70
     1
 10
0.0
 20
0.0
 30
0.0
  3
*D32
  1
*D34
  0
LINE
  5
135A
330
1357
100
AcDbEntity
  8
DIM
 62
     0
370
    -2
100
AcDbLine
 10
-578.7180455965423
 20
1267.899198949118
 30
0.0
 11
-544.2688598156967
 21
1267.899198949118
 31
0.0
  0
LINE
  5
135B
330
1357
100
AcDbEntity
  8
DIM
 62
     0
370
    -2
100
AcDbLine
 10
-581.8276473970594
 20
1329.099198949116
 30
0.0
 11
-544.2688598156965
 21
1329.099198949116
 31
0.0
  0
LINE
  5
135C
330
1357
100
AcDbEntity
  8
DIM
 62
     0
370
    -2
100
AcDbLine
 10
-544.2688598156967
 20
1269.899198949118
 30
0.0
 11
-544.2688598156965
 21
1327.099198949116
 31
0.0
  0
INSERT
  5
135D
330
1357
100
AcDbEntity
  8
DIM
 62
     0
370
    -2
100
AcDbBlockReference
  2
_DOT
 10
-544.2688598156967
 20
1267.899198949118
 30
0.0
 41
2.0
 42
2.0
 43
2.0
 50
269.9999999999998
  0
INSERT
  5
135E
330
1357
100
AcDbEntity
  8
DIM
 62
     0
370
    -2
100
AcDbBlockReference
  2
_DOT
 10
-544.2688598156965
 20
1329.099198949116
 30
0.0
 41
2.0
 42
2.0
 43
2.0
 50
89.99999999999982
  0
MTEXT
  5
135F
330
1357
100
AcDbEntity
  8
DIM
 62
     0
 48
0.05
100
AcDbMText
 10
-561.2688598156966
 20
1292.649198949117
 30
0.0
 40
12.0
 41
0.0
 46
0.0
 71
     1
 72
     1
  1
\A1;61
  7
ＭＳ ゴシック
 11
3.715256134693456E-15
 21
1.0
 31
0.0
 73
     1
 44
1.0
  0
POINT
  5
1360
330
1357
100
AcDbEntity
  8
Defpoints
 62
     0
100
AcDbPoint
 10
-583.7180455965423
 20
1267.899198949118
 30
0.0
  0
POINT
  5
1361
330
1357
100
AcDbEntity
  8
Defpoints
 62
     0
100
AcDbPoint
 10
-586.8276473970594
 20
1329.099198949116
 30
0.0
  0
POINT
  5
1362
330
1357
100
AcDbEntity
  8
Defpoints
 62
     0
100
AcDbPoint
 10
-544.2688598156965
 20
1329.099198949116
 30
0.0
  0
ENDBLK
  5
1359
330
1357
100
AcDbEntity
  8
0
100
AcDbBlockEnd
  0
BLOCK
  5
1364
330
1363
100
AcDbEntity
  8
0
100
AcDbBlockBegin
  2
*D33
 70
     1
 10
0.0
 20
0.0
 30
0.0
  3
*D33
  1
*D35
  0
LINE
  5
1366
330
1363
100
AcDbEntity
  8
DIM
 62
     0
 48
0.05
370
    -2
100
AcDbLine
 10
-579.2180455965432
 20
1113.219813428072
 30
0.0
 11
-546.3967777086461
 21
1113.219813428072
 31
0.0
  0
LINE
  5
1367
330
1363
100
AcDbEntity
  8
DIM
 62
     0
 48
0.05
370
    -2
100
AcDbLine
 10
-578.7180455965423
 20
1083.119813428072
 30
0.0
 11
-546.3967777086461
 21
1083.119813428072
 31
0.0
  0
LINE
  5
1368
330
1363
100
AcDbEntity
  8
DIM
 62
     0
 48
0.05
370
    -2
100
AcDbLine
 10
-546.3967777086461
 20
1111.219813428072
 30
0.0
 11
-546.3967777086461
 21
1085.119813428072
 31
0.0
  0
INSERT
  5
1369
330
1363
100
AcDbEntity
  8
DIM
 62
     0
370
    -2
100
AcDbBlockReference
  2
_DOT
 10
-546.3967777086461
 20
1113.219813428072
 30
0.0
 41
2.0
 42
2.0
 43
2.0
 50
90.0
  0
INSERT
  5
136A
330
1363
100
AcDbEntity
  8
DIM
 62
     0
370
    -2
100
AcDbBlockReference
  2
_DOT
 10
-546.3967777086461
 20
1083.119813428072
 30
0.0
 41
2.0
 42
2.0
 43
2.0
 50
270.0
  0
MTEXT
  5
136B
330
1363
100
AcDbEntity
  8
DIM
 62
     0
 48
0.05
100
AcDbMText
 10
-557.3967777086461
 20
1098.169813428072
 30
0.0
 40
12.0
 41
0.0
 46
0.0
 71
     5
 72
     1
  1
\A1;30
  7
ＭＳ ゴシック
 11
0.0
 21
1.0
 31
0.0
 73
     1
 44
1.0
  0
POINT
  5
136C
330
1363
100
AcDbEntity
  8
Defpoints
 62
     0
100
AcDbPoint
 10
-584.2180455965432
 20
1113.219813428072
 30
0.0
  0
POINT
  5
136D
330
1363
100
AcDbEntity
  8
Defpoints
 62
     0
100
AcDbPoint
 10
-583.7180455965423
 20
1083.119813428072
 30
0.0
  0
POINT
  5
136E
330
1363
100
AcDbEntity
  8
Defpoints
 62
     0
100
AcDbPoint
 10
-546.3967777086461
 20
1083.119813428072
 30
0.0
  0
ENDBLK
  5
1365
330
1363
100
AcDbEntity
  8
0
100
AcDbBlockEnd
  0
BLOCK
  5
13D8
330
13D7
100
AcDbEntity
  8
0
100
AcDbBlockBegin
  2
*D34
 70
     1
 10
0.0
 20
0.0
 30
0.0
  3
*D34
  1
*D37
  0
LINE
  5
13D9
330
13D7
100
AcDbEntity
  8
DIM
 62
     0
370
    -2
100
AcDbLine
 10
2.999999999999886
 20
620.0000095367429
 30
0.0
 11
2.999999999999886
 21
641.905694252102
 31
0.0
  0
LINE
  5
13DA
330
13D7
100
AcDbEntity
  8
DIM
 62
     0
370
    -2
100
AcDbLine
 10
72.99998839618468
 20
618.4904077362269
 30
0.0
 11
72.99998839618468
 21
641.905694252102
 31
0.0
  0
LINE
  5
13DB
330
13D7
100
AcDbEntity
  8
DIM
 62
     0
370
    -2
100
AcDbLine
 10
4.999999999999886
 20
641.905694252102
 30
0.0
 11
70.99998839618468
 21
641.905694252102
 31
0.0
  0
INSERT
  5
13DC
330
13D7
100
AcDbEntity
  8
DIM
 62
     0
370
    -2
100
AcDbBlockReference
  2
_DOT
 10
2.999999999999886
 20
641.905694252102
 30
0.0
 41
2.0
 42
2.0
 43
2.0
 50
180.0
  0
INSERT
  5
13DD
330
13D7
100
AcDbEntity
  8
DIM
 62
     0
370
    -2
100
AcDbBlockReference
  2
_DOT
 10
72.99998839618468
 20
641.905694252102
 30
0.0
 41
2.0
 42
2.0
 43
2.0
  0
MTEXT
  5
13DE
330
13D7
100
AcDbEntity
  8
DIM
 62
     0
 48
0.05
100
AcDbMText
 10
35.39198839618522
 20
658.905694252102
 30
0.0
 40
12.0
 41
0.0
 46
0.0
 71
     1
 72
     1
  1
\A1;70
  7
ＭＳ ゴシック
 73
     1
 44
1.0
  0
POINT
  5
13DF
330
13D7
100
AcDbEntity
  8
Defpoints
 62
     0
100
AcDbPoint
 10
2.999999999999886
 20
615.0000095367429
 30
0.0
  0
POINT
  5
13E0
330
13D7
100
AcDbEntity
  8
Defpoints
 62
     0
100
AcDbPoint
 10
72.99998839618468
 20
613.4904077362269
 30
0.0
  0
POINT
  5
13E1
330
13D7
100
AcDbEntity
  8
Defpoints
 62
     0
100
AcDbPoint
 10
72.99998839618468
 20
641.905694252102
 30
0.0
  0
ENDBLK
  5
13E2
330
13D7
100
AcDbEntity
  8
0
100
AcDbBlockEnd
  0
BLOCK
  5
13E5
330
13E4
100
AcDbEntity
  8
0
100
AcDbBlockBegin
  2
*D35
 70
     1
 10
0.0
 20
0.0
 30
0.0
  3
*D35
  1
*D38
  0
LINE
  5
13E6
330
13E4
100
AcDbEntity
  8
DIM
 62
     0
370
    -2
100
AcDbLine
 10
72.9999883961874
 20
620.0000095367429
 30
0.0
 11
72.9999883961874
 21
641.905694252102
 31
0.0
  0
LINE
  5
13E7
330
13E4
100
AcDbEntity
  8
DIM
 62
     0
370
    -2
100
AcDbLine
 10
80.9999883961865
 20
620.0000095367429
 30
0.0
 11
80.9999883961865
 21
641.905694252102
 31
0.0
  0
LINE
  5
13E8
330
13E4
100
AcDbEntity
  8
DIM
 62
     0
370
    -2
100
AcDbLine
 10
80.9999883961865
 20
641.905694252102
 30
0.0
 11
246.0239883961866
 21
641.905694252102
 31
0.0
  0
LINE
  5
13E9
330
13E4
100
AcDbEntity
  8
DIM
 62
     0
370
    -2
100
AcDbLine
 10
70.9999883961874
 20
641.905694252102
 30
0.0
 11
68.9999883961874
 21
641.905694252102
 31
0.0
  0
LINE
  5
13EA
330
13E4
100
AcDbEntity
  8
DIM
 62
     0
370
    -2
100
AcDbLine
 10
82.9999883961865
 20
641.905694252102
 30
0.0
 11
84.9999883961865
 21
641.905694252102
 31
0.0
  0
INSERT
  5
13EB
330
13E4
100
AcDbEntity
  8
DIM
 62
     0
370
    -2
100
AcDbBlockReference
  2
_DOT
 10
72.9999883961874
 20
641.905694252102
 30
0.0
 41
2.0
 42
2.0
 43
2.0
  0
INSERT
  5
13EC
330
13E4
100
AcDbEntity
  8
DIM
 62
     0
370
    -2
100
AcDbBlockReference
  2
_DOT
 10
80.9999883961865
 20
641.905694252102
 30
0.0
 41
2.0
 42
2.0
 43
2.0
 50
180.0
  0
MTEXT
  5
13ED
330
13E4
100
AcDbEntity
  8
DIM
 62
     0
 48
0.05
100
AcDbMText
 10
102.9999883961866
 20
661.3416942521019
 30
0.0
 40
12.0
 41
0.0
 46
0.0
 71
     1
 72
     1
  1
\A1;ガラス厚み　～10mm
  7
ＭＳ ゴシック
 73
     1
 44
1.0
  0
POINT
  5
13EE
330
13E4
100
AcDbEntity
  8
Defpoints
 62
     0
100
AcDbPoint
 10
72.9999883961874
 20
615.0000095367429
 30
0.0
  0
POINT
  5
13EF
330
13E4
100
AcDbEntity
  8
Defpoints
 62
     0
100
AcDbPoint
 10
80.9999883961865
 20
615.0000095367429
 30
0.0
  0
POINT
  5
13F0
330
13E4
100
AcDbEntity
  8
Defpoints
 62
     0
100
AcDbPoint
 10
80.9999883961865
 20
641.905694252102
 30
0.0
  0
ENDBLK
  5
13F1
330
13E4
100
AcDbEntity
  8
0
100
AcDbBlockEnd
  0
BLOCK
  5
142B
330
142A
100
AcDbEntity
  8
0
100
AcDbBlockBegin
  2
*D36
 70
     1
 10
0.0
 20
0.0
 30
0.0
  3
*D36
  1
*D39
  0
LINE
  5
142D
330
142A
100
AcDbEntity
  8
DIM
 62
     0
370
    -2
100
AcDbLine
 10
544.2073182180006
 20
2245.494770931785
 30
0.0
 11
522.3016335026421
 21
2245.494770931785
 31
0.0
  0
LINE
  5
142E
330
142A
100
AcDbEntity
  8
DIM
 62
     0
370
    -2
100
AcDbLine
 10
545.7169200185167
 20
2315.49475932797
 30
0.0
 11
522.3016335026417
 21
2315.49475932797
 31
0.0
  0
LINE
  5
142F
330
142A
100
AcDbEntity
  8
DIM
 62
     0
370
    -2
100
AcDbLine
 10
522.3016335026421
 20
2251.494770931785
 30
0.0
 11
522.3016335026417
 21
2309.49475932797
 31
0.0
  0
INSERT
  5
1430
330
142A
100
AcDbEntity
  8
DIM
 62
     0
370
    -2
100
AcDbBlockReference
  2
_DOT
 10
522.3016335026421
 20
2245.494770931785
 30
0.0
 41
6.0
 42
6.0
 43
6.0
 50
270.0000000000002
  0
INSERT
  5
1431
330
142A
100
AcDbEntity
  8
DIM
 62
     0
370
    -2
100
AcDbBlockReference
  2
_DOT
 10
522.3016335026417
 20
2315.49475932797
 30
0.0
 41
6.0
 42
6.0
 43
6.0
 50
90.0000000000003
  0
MTEXT
  5
1432
330
142A
100
AcDbEntity
  8
DIM
 62
     0
 48
0.05
100
AcDbMText
 10
500.3016335026419
 20
2277.886759327971
 30
0.0
 40
12.0
 41
0.0
 46
0.0
 71
     1
 72
     1
  1
\A1;70
  7
ＭＳ ゴシック
 11
-4.872293852886350E-15
 21
1.0
 31
0.0
 73
     1
 44
1.0
  0
POINT
  5
1433
330
142A
100
AcDbEntity
  8
Defpoints
 62
     0
100
AcDbPoint
 10
549.2073182180006
 20
2245.494770931785
 30
0.0
  0
POINT
  5
1434
330
142A
100
AcDbEntity
  8
Defpoints
 62
     0
100
AcDbPoint
 10
550.7169200185167
 20
2315.49475932797
 30
0.0
  0
POINT
  5
1435
330
142A
100
AcDbEntity
  8
Defpoints
 62
     0
100
AcDbPoint
 10
522.3016335026418
 20
2315.49475932797
 30
0.0
  0
ENDBLK
  5
142C
330
142A
100
AcDbEntity
  8
0
100
AcDbBlockEnd
  0
BLOCK
  5
1437
330
1436
100
AcDbEntity
  8
0
100
AcDbBlockBegin
  2
*D37
 70
     1
 10
0.0
 20
0.0
 30
0.0
  3
*D37
  1
*D40
  0
LINE
  5
1439
330
1436
100
AcDbEntity
  8
DIM
 62
     0
370
    -2
100
AcDbLine
 10
544.2073182180006
 20
2315.494759327973
 30
0.0
 11
522.3016335026418
 21
2315.494759327973
 31
0.0
  0
LINE
  5
143A
330
1436
100
AcDbEntity
  8
DIM
 62
     0
370
    -2
100
AcDbLine
 10
544.2073182180006
 20
2323.494759327972
 30
0.0
 11
522.3016335026418
 21
2323.494759327972
 31
0.0
  0
LINE
  5
143B
330
1436
100
AcDbEntity
  8
DIM
 62
     0
370
    -2
100
AcDbLine
 10
522.3016335026418
 20
2323.494759327972
 30
0.0
 11
522.3016335026418
 21
2493.518759327972
 31
0.0
  0
LINE
  5
143C
330
1436
100
AcDbEntity
  8
DIM
 62
     0
370
    -2
100
AcDbLine
 10
522.3016335026418
 20
2309.494759327973
 30
0.0
 11
522.3016335026418
 21
2303.494759327973
 31
0.0
  0
LINE
  5
143D
330
1436
100
AcDbEntity
  8
DIM
 62
     0
370
    -2
100
AcDbLine
 10
522.3016335026418
 20
2329.494759327972
 30
0.0
 11
522.3016335026418
 21
2335.494759327972
 31
0.0
  0
INSERT
  5
143E
330
1436
100
AcDbEntity
  8
DIM
 62
     0
370
    -2
100
AcDbBlockReference
  2
_DOT
 10
522.3016335026418
 20
2315.494759327973
 30
0.0
 41
6.0
 42
6.0
 43
6.0
 50
90.0
  0
INSERT
  5
143F
330
1436
100
AcDbEntity
  8
DIM
 62
     0
370
    -2
100
AcDbBlockReference
  2
_DOT
 10
522.3016335026418
 20
2323.494759327972
 30
0.0
 41
6.0
 42
6.0
 43
6.0
 50
270.0
  0
MTEXT
  5
1440
330
1436
100
AcDbEntity
  8
DIM
 62
     0
 48
0.05
100
AcDbMText
 10
497.865633502642
 20
2345.494759327972
 30
0.0
 40
12.0
 41
0.0
 46
0.0
 71
     1
 72
     1
  1
\A1;ガラス厚み　～10mm
  7
ＭＳ ゴシック
 11
0.0
 21
1.0
 31
0.0
 73
     1
 44
1.0
  0
POINT
  5
1441
330
1436
100
AcDbEntity
  8
Defpoints
 62
     0
100
AcDbPoint
 10
549.2073182180006
 20
2315.494759327973
 30
0.0
  0
POINT
  5
1442
330
1436
100
AcDbEntity
  8
Defpoints
 62
     0
100
AcDbPoint
 10
549.2073182180006
 20
2323.494759327972
 30
0.0
  0
POINT
  5
1443
330
1436
100
AcDbEntity
  8
Defpoints
 62
     0
100
AcDbPoint
 10
522.3016335026418
 20
2323.494759327972
 30
0.0
  0
ENDBLK
  5
1438
330
1436
100
AcDbEntity
  8
0
100
AcDbBlockEnd
  0
BLOCK
  5
145B
330
145A
100
AcDbEntity
  8
0
100
AcDbBlockBegin
  2
*D38
 70
     1
 10
0.0
 20
0.0
 30
0.0
  3
*D38
  1
*D41
  0
LINE
  5
145D
330
145A
100
AcDbEntity
  8
寸法
 62
     0
 48
0.05
370
    -2
100
AcDbLine
 10
340.7802855416854
 20
1069.407825888737
 30
0.0
 11
311.4867589052728
 21
1069.407825888737
 31
0.0
  0
LINE
  5
145E
330
145A
100
AcDbEntity
  8
寸法
 62
     0
 48
0.05
370
    -2
100
AcDbLine
 10
340.7802855416854
 20
1084.40782258487
 30
0.0
 11
311.4867589052728
 21
1084.40782258487
 31
0.0
  0
LINE
  5
145F
330
145A
100
AcDbEntity
  8
寸法
 62
     0
 48
0.05
370
    -2
100
AcDbLine
 10
311.4867589052728
 20
1071.407825888737
 30
0.0
 11
311.4867589052728
 21
1082.40782258487
 31
0.0
  0
INSERT
  5
1460
330
145A
100
AcDbEntity
  8
寸法
 62
     0
370
    -2
100
AcDbBlockReference
  2
_DOT
 10
311.4867589052728
 20
1069.407825888737
 30
0.0
 41
2.0
 42
2.0
 43
2.0
 50
270.0
  0
INSERT
  5
1461
330
145A
100
AcDbEntity
  8
寸法
 62
     0
370
    -2
100
AcDbBlockReference
  2
_DOT
 10
311.4867589052728
 20
1084.40782258487
 30
0.0
 41
2.0
 42
2.0
 43
2.0
 50
90.0
  0
MTEXT
  5
1462
330
145A
100
AcDbEntity
  8
寸法
 62
     0
 48
0.05
100
AcDbMText
 10
300.4867589052728
 20
1076.907824236804
 30
0.0
 40
12.0
 41
0.0
 46
0.0
 71
     5
 72
     1
  1
\A1;15
  7
ＭＳ ゴシック
 11
0.0
 21
1.0
 31
0.0
 73
     1
 44
1.0
  0
POINT
  5
1463
330
145A
100
AcDbEntity
  8
Defpoints
 62
     0
100
AcDbPoint
 10
345.7802855416854
 20
1069.407825888737
 30
0.0
  0
POINT
  5
1464
330
145A
100
AcDbEntity
  8
Defpoints
 62
     0
100
AcDbPoint
 10
345.7802855416854
 20
1084.40782258487
 30
0.0
  0
POINT
  5
1465
330
145A
100
AcDbEntity
  8
Defpoints
 62
     0
100
AcDbPoint
 10
311.4867589052728
 20
1084.40782258487
 30
0.0
  0
ENDBLK
  5
145C
330
145A
100
AcDbEntity
  8
0
100
AcDbBlockEnd
  0
BLOCK
  5
1495
330
1494
100
AcDbEntity
  8
0
100
AcDbBlockBegin
  2
*D39
 70
     1
 10
0.0
 20
0.0
 30
0.0
  3
*D39
  1
*D42
  0
LINE
  5
1497
330
1494
100
AcDbEntity
  8
寸法
 62
     0
 48
0.05
370
    -2
100
AcDbLine
 10
340.7802855416854
 20
1084.40782258487
 30
0.0
 11
311.4867589052728
 21
1084.40782258487
 31
0.0
  0
LINE
  5
1498
330
1494
100
AcDbEntity
  8
寸法
 62
     0
 48
0.05
370
    -2
100
AcDbLine
 10
340.7802855416854
 20
1139.407812973621
 30
0.0
 11
311.4867589052728
 21
1139.407812973621
 31
0.0
  0
LINE
  5
1499
330
1494
100
AcDbEntity
  8
寸法
 62
     0
 48
0.05
370
    -2
100
AcDbLine
 10
311.4867589052728
 20
1086.40782258487
 30
0.0
 11
311.4867589052728
 21
1137.407812973621
 31
0.0
  0
INSERT
  5
149A
330
1494
100
AcDbEntity
  8
寸法
 62
     0
370
    -2
100
AcDbBlockReference
  2
_DOT
 10
311.4867589052728
 20
1084.40782258487
 30
0.0
 41
2.0
 42
2.0
 43
2.0
 50
270.0
  0
INSERT
  5
149B
330
1494
100
AcDbEntity
  8
寸法
 62
     0
370
    -2
100
AcDbBlockReference
  2
_DOT
 10
311.4867589052728
 20
1139.407812973621
 30
0.0
 41
2.0
 42
2.0
 43
2.0
 50
90.0
  0
MTEXT
  5
149C
330
1494
100
AcDbEntity
  8
寸法
 62
     0
 48
0.05
100
AcDbMText
 10
300.4867589052728
 20
1111.907817779246
 30
0.0
 40
12.0
 41
0.0
 46
0.0
 71
     5
 72
     1
  1
\A1;55
  7
ＭＳ ゴシック
 11
0.0
 21
1.0
 31
0.0
 73
     1
 44
1.0
  0
POINT
  5
149D
330
1494
100
AcDbEntity
  8
Defpoints
 62
     0
100
AcDbPoint
 10
345.7802855416854
 20
1084.40782258487
 30
0.0
  0
POINT
  5
149E
330
1494
100
AcDbEntity
  8
Defpoints
 62
     0
100
AcDbPoint
 10
345.7802855416854
 20
1139.407812973621
 30
0.0
  0
POINT
  5
149F
330
1494
100
AcDbEntity
  8
Defpoints
 62
     0
100
AcDbPoint
 10
311.4867589052728
 20
1139.407812973621
 30
0.0
  0
ENDBLK
  5
1496
330
1494
100
AcDbEntity
  8
0
100
AcDbBlockEnd
  0
BLOCK
  5
14AC
330
14AB
100
AcDbEntity
  8
0
100
AcDbBlockBegin
  2
*D40
 70
     1
 10
0.0
 20
0.0
 30
0.0
  3
*D40
  1
*D43
  0
LINE
  5
14AE
330
14AB
100
AcDbEntity
  8
寸法
 62
     0
 48
0.05
370
    -2
100
AcDbLine
 10
270.1557996141129
 20
1123.717686541556
 30
0.0
 11
308.5123241008883
 21
1123.717686541556
 31
0.0
  0
LINE
  5
14AF
330
14AB
100
AcDbEntity
  8
寸法
 62
     0
 48
0.05
370
    -2
100
AcDbLine
 10
270.1557996141129
 20
1193.71767362644
 30
0.0
 11
308.5123241008883
 21
1193.71767362644
 31
0.0
  0
LINE
  5
14B0
330
14AB
100
AcDbEntity
  8
寸法
 62
     0
 48
0.05
370
    -2
100
AcDbLine
 10
308.5123241008883
 20
1125.717686541556
 30
0.0
 11
308.5123241008883
 21
1191.71767362644
 31
0.0
  0
INSERT
  5
14B1
330
14AB
100
AcDbEntity
  8
寸法
 62
     0
370
    -2
100
AcDbBlockReference
  2
_DOT
 10
308.5123241008883
 20
1123.717686541556
 30
0.0
 41
2.0
 42
2.0
 43
2.0
 50
270.0
  0
INSERT
  5
14B2
330
14AB
100
AcDbEntity
  8
寸法
 62
     0
370
    -2
100
AcDbBlockReference
  2
_DOT
 10
308.5123241008883
 20
1193.71767362644
 30
0.0
 41
2.0
 42
2.0
 43
2.0
 50
90.0
  0
MTEXT
  5
14B3
330
14AB
100
AcDbEntity
  8
寸法
 62
     0
 48
0.05
100
AcDbMText
 10
297.5123241008883
 20
1158.717680083998
 30
0.0
 40
12.0
 41
0.0
 46
0.0
 71
     5
 72
     1
  1
\A1;70
  7
ＭＳ ゴシック
 11
0.0
 21
1.0
 31
0.0
 73
     1
 44
1.0
  0
POINT
  5
14B4
330
14AB
100
AcDbEntity
  8
Defpoints
 62
     0
100
AcDbPoint
 10
265.1557996141129
 20
1123.717686541556
 30
0.0
  0
POINT
  5
14B5
330
14AB
100
AcDbEntity
  8
Defpoints
 62
     0
100
AcDbPoint
 10
265.1557996141129
 20
1193.71767362644
 30
0.0
  0
POINT
  5
14B6
330
14AB
100
AcDbEntity
  8
Defpoints
 62
     0
100
AcDbPoint
 10
308.5123241008883
 20
1193.71767362644
 30
0.0
  0
ENDBLK
  5
14AD
330
14AB
100
AcDbEntity
  8
0
100
AcDbBlockEnd
  0
BLOCK
  5
14CF
330
14CE
100
AcDbEntity
  8
0
100
AcDbBlockBegin
  2
*D41
 70
     1
 10
0.0
 20
0.0
 30
0.0
  3
*D41
  1
*D44
  0
LINE
  5
14D1
330
14CE
100
AcDbEntity
  8
寸法
 62
     0
370
    -2
100
AcDbLine
 10
269.7821511448292
 20
999.2313656517963
 30
0.0
 11
330.067357870236
 21
999.2313656517963
 31
0.0
  0
LINE
  5
14D2
330
14CE
100
AcDbEntity
  8
寸法
 62
     0
370
    -2
100
AcDbLine
 10
269.7821511448271
 20
384.2313656517961
 30
0.0
 11
330.0673578702362
 21
384.2313656517961
 31
0.0
  0
LINE
  5
14D3
330
14CE
100
AcDbEntity
  8
寸法
 62
     0
370
    -2
100
AcDbLine
 10
330.067357870236
 20
997.2313656517963
 30
0.0
 11
330.0673578702362
 21
386.2313656517961
 31
0.0
  0
INSERT
  5
14D4
330
14CE
100
AcDbEntity
  8
寸法
 62
     0
370
    -2
100
AcDbBlockReference
  2
_DOT
 10
330.067357870236
 20
999.2313656517963
 30
0.0
 41
2.0
 42
2.0
 43
2.0
 50
90.00000000000001
  0
INSERT
  5
14D5
330
14CE
100
AcDbEntity
  8
寸法
 62
     0
370
    -2
100
AcDbBlockReference
  2
_DOT
 10
330.0673578702362
 20
384.2313656517961
 30
0.0
 41
2.0
 42
2.0
 43
2.0
 50
270.0
  0
MTEXT
  5
14D6
330
14CE
100
AcDbEntity
  8
寸法
 62
     0
 48
0.05
100
AcDbMText
 10
313.0673578702362
 20
679.7976007194237
 30
0.0
 40
12.0
 41
0.0
 46
0.0
 71
     1
 72
     1
  1
\A1;615
  7
ＭＳ ゴシック
 11
-2.772849700527219E-16
 21
1.0
 31
0.0
 73
     1
 44
1.0
  0
POINT
  5
14D7
330
14CE
100
AcDbEntity
  8
Defpoints
 62
     0
100
AcDbPoint
 10
264.7821511448292
 20
999.2313656517963
 30
0.0
  0
POINT
  5
14D8
330
14CE
100
AcDbEntity
  8
Defpoints
 62
     0
100
AcDbPoint
 10
264.7821511448271
 20
384.2313656517961
 30
0.0
  0
POINT
  5
14D9
330
14CE
100
AcDbEntity
  8
Defpoints
 62
     0
100
AcDbPoint
 10
330.0673578702362
 20
384.2313656517961
 30
0.0
  0
ENDBLK
  5
14D0
330
14CE
100
AcDbEntity
  8
0
100
AcDbBlockEnd
  0
BLOCK
  5
1500
330
14FF
100
AcDbEntity
  8
0
100
AcDbBlockBegin
  2
*D42
 70
     1
 10
0.0
 20
0.0
 30
0.0
  3
*D42
  1
*D45
  0
LINE
  5
1502
330
14FF
100
AcDbEntity
  8
MODEL
 62
     0
 48
0.05
370
    -2
100
AcDbLine
 10
390.0028155375466
 20
1191.250595444454
 30
0.0
 11
428.3593400243219
 21
1191.250595444454
 31
0.0
  0
LINE
  5
1503
330
14FF
100
AcDbEntity
  8
MODEL
 62
     0
 48
0.05
370
    -2
100
AcDbLine
 10
390.0028155375466
 20
1176.250579947247
 30
0.0
 11
428.3593400243219
 21
1176.250579947247
 31
0.0
  0
LINE
  5
1504
330
14FF
100
AcDbEntity
  8
MODEL
 62
     0
 48
0.05
370
    -2
100
AcDbLine
 10
428.3593400243219
 20
1189.250595444454
 30
0.0
 11
428.3593400243219
 21
1178.250579947247
 31
0.0
  0
INSERT
  5
1505
330
14FF
100
AcDbEntity
  8
MODEL
 62
     0
370
    -2
100
AcDbBlockReference
  2
_DOT
 10
428.3593400243219
 20
1191.250595444454
 30
0.0
 41
2.0
 42
2.0
 43
2.0
 50
90.0
  0
INSERT
  5
1506
330
14FF
100
AcDbEntity
  8
MODEL
 62
     0
370
    -2
100
AcDbBlockReference
  2
_DOT
 10
428.3593400243219
 20
1176.250579947247
 30
0.0
 41
2.0
 42
2.0
 43
2.0
 50
270.0
  0
MTEXT
  5
1507
330
14FF
100
AcDbEntity
  8
MODEL
 62
     0
 48
0.05
100
AcDbMText
 10
417.3593400243219
 20
1183.75058769585
 30
0.0
 40
12.0
 41
0.0
 46
0.0
 71
     5
 72
     1
  1
\A1;15
  7
ＭＳ ゴシック
 11
0.0
 21
1.0
 31
0.0
 73
     1
 44
1.0
  0
POINT
  5
1508
330
14FF
100
AcDbEntity
  8
Defpoints
 62
     0
100
AcDbPoint
 10
385.0028155375466
 20
1191.250595444454
 30
0.0
  0
POINT
  5
1509
330
14FF
100
AcDbEntity
  8
Defpoints
 62
     0
100
AcDbPoint
 10
385.0028155375466
 20
1176.250579947247
 30
0.0
  0
POINT
  5
150A
330
14FF
100
AcDbEntity
  8
Defpoints
 62
     0
100
AcDbPoint
 10
428.3593400243219
 20
1176.250579947247
 30
0.0
  0
ENDBLK
  5
1501
330
14FF
100
AcDbEntity
  8
0
100
AcDbBlockEnd
  0
BLOCK
  5
152F
330
152E
100
AcDbEntity
  8
0
100
AcDbBlockBegin
  2
*D43
 70
     1
 10
0.0
 20
0.0
 30
0.0
  3
*D43
  1
*D46
  0
LINE
  5
1531
330
152E
100
AcDbEntity
  8
寸法
 62
     0
 48
0.05
370
    -2
100
AcDbLine
 10
235.1558048295192
 20
999.2463700923413
 30
0.0
 11
205.8622781931066
 21
999.2463700923413
 31
0.0
  0
LINE
  5
1532
330
152E
100
AcDbEntity
  8
寸法
 62
     0
 48
0.05
370
    -2
100
AcDbLine
 10
235.1558048295192
 20
984.2463545951341
 30
0.0
 11
205.8622781931066
 21
984.2463545951341
 31
0.0
  0
LINE
  5
1533
330
152E
100
AcDbEntity
  8
寸法
 62
     0
 48
0.05
370
    -2
100
AcDbLine
 10
205.8622781931066
 20
997.2463700923413
 30
0.0
 11
205.8622781931066
 21
986.2463545951341
 31
0.0
  0
INSERT
  5
1534
330
152E
100
AcDbEntity
  8
寸法
 62
     0
370
    -2
100
AcDbBlockReference
  2
_DOT
 10
205.8622781931066
 20
999.2463700923413
 30
0.0
 41
2.0
 42
2.0
 43
2.0
 50
90.0
  0
INSERT
  5
1535
330
152E
100
AcDbEntity
  8
寸法
 62
     0
370
    -2
100
AcDbBlockReference
  2
_DOT
 10
205.8622781931066
 20
984.2463545951341
 30
0.0
 41
2.0
 42
2.0
 43
2.0
 50
270.0
  0
MTEXT
  5
1536
330
152E
100
AcDbEntity
  8
寸法
 62
     0
 48
0.05
100
AcDbMText
 10
194.8622781931066
 20
991.7463623437377
 30
0.0
 40
12.0
 41
0.0
 46
0.0
 71
     5
 72
     1
  1
\A1;15
  7
ＭＳ ゴシック
 11
0.0
 21
1.0
 31
0.0
 73
     1
 44
1.0
  0
POINT
  5
1537
330
152E
100
AcDbEntity
  8
Defpoints
 62
     0
100
AcDbPoint
 10
240.1558048295192
 20
999.2463700923413
 30
0.0
  0
POINT
  5
1538
330
152E
100
AcDbEntity
  8
Defpoints
 62
     0
100
AcDbPoint
 10
240.1558048295192
 20
984.2463545951341
 30
0.0
  0
POINT
  5
1539
330
152E
100
AcDbEntity
  8
Defpoints
 62
     0
100
AcDbPoint
 10
205.8622781931066
 20
984.2463545951341
 30
0.0
  0
ENDBLK
  5
1530
330
152E
100
AcDbEntity
  8
0
100
AcDbBlockEnd
  0
BLOCK
  5
155D
330
155C
100
AcDbEntity
  8
0
100
AcDbBlockBegin
  2
*D44
 70
     1
 10
0.0
 20
0.0
 30
0.0
  3
*D44
  1
*D47
  0
LINE
  5
155F
330
155C
100
AcDbEntity
  8
寸法
 62
     0
 48
0.05
370
    -2
100
AcDbLine
 10
240.1558048295192
 20
1118.717686541556
 30
0.0
 11
240.1558048295192
 21
1086.770185385213
 31
0.0
  0
LINE
  5
1560
330
155C
100
AcDbEntity
  8
寸法
 62
     0
 48
0.05
370
    -2
100
AcDbLine
 10
265.1557996141129
 20
1118.717686541556
 30
0.0
 11
265.1557996141129
 21
1086.770185385213
 31
0.0
  0
LINE
  5
1561
330
155C
100
AcDbEntity
  8
寸法
 62
     0
 48
0.05
370
    -2
100
AcDbLine
 10
242.1558048295192
 20
1086.770185385213
 30
0.0
 11
263.1557996141129
 21
1086.770185385213
 31
0.0
  0
INSERT
  5
1562
330
155C
100
AcDbEntity
  8
寸法
 62
     0
370
    -2
100
AcDbBlockReference
  2
_DOT
 10
240.1558048295192
 20
1086.770185385213
 30
0.0
 41
2.0
 42
2.0
 43
2.0
 50
180.0
  0
INSERT
  5
1563
330
155C
100
AcDbEntity
  8
寸法
 62
     0
370
    -2
100
AcDbBlockReference
  2
_DOT
 10
265.1557996141129
 20
1086.770185385213
 30
0.0
 41
2.0
 42
2.0
 43
2.0
  0
MTEXT
  5
1564
330
155C
100
AcDbEntity
  8
寸法
 62
     0
 48
0.05
100
AcDbMText
 10
252.6558022218161
 20
1097.770185385213
 30
0.0
 40
12.0
 41
0.0
 46
0.0
 71
     5
 72
     1
  1
\A1;25
  7
ＭＳ ゴシック
 73
     1
 44
1.0
  0
POINT
  5
1565
330
155C
100
AcDbEntity
  8
Defpoints
 62
     0
100
AcDbPoint
 10
240.1558048295192
 20
1123.717686541556
 30
0.0
  0
POINT
  5
1566
330
155C
100
AcDbEntity
  8
Defpoints
 62
     0
100
AcDbPoint
 10
265.1557996141129
 20
1123.717686541556
 30
0.0
  0
POINT
  5
1567
330
155C
100
AcDbEntity
  8
Defpoints
 62
     0
100
AcDbPoint
 10
265.1557996141129
 20
1086.770185385213
 30
0.0
  0
ENDBLK
  5
155E
330
155C
100
AcDbEntity
  8
0
100
AcDbBlockEnd
  0
BLOCK
  5
1576
330
1575
100
AcDbEntity
  8
0
100
AcDbBlockBegin
  2
*D45
 70
     1
 10
0.0
 20
0.0
 30
0.0
  3
*D45
  1
*D48
  0
LINE
  5
1578
330
1575
100
AcDbEntity
  8
DIM
 62
     0
 48
0.05
370
    -2
100
AcDbLine
 10
731.7723906960221
 20
991.7463623437374
 30
0.0
 11
789.8852893594158
 21
991.7463623437374
 31
0.0
  0
LINE
  5
1579
330
1575
100
AcDbEntity
  8
DIM
 62
     0
 48
0.05
370
    -2
100
AcDbLine
 10
731.7723906960221
 20
391.7463623437374
 30
0.0
 11
789.8852893594158
 21
391.7463623437374
 31
0.0
  0
LINE
  5
157A
330
1575
100
AcDbEntity
  8
DIM
 62
     0
 48
0.05
370
    -2
100
AcDbLine
 10
789.8852893594158
 20
989.7463623437374
 30
0.0
 11
789.8852893594158
 21
393.7463623437374
 31
0.0
  0
INSERT
  5
157B
330
1575
100
AcDbEntity
  8
DIM
 62
     0
370
    -2
100
AcDbBlockReference
  2
_DOT
 10
789.8852893594158
 20
991.7463623437374
 30
0.0
 41
2.0
 42
2.0
 43
2.0
 50
90.0
  0
INSERT
  5
157C
330
1575
100
AcDbEntity
  8
DIM
 62
     0
370
    -2
100
AcDbBlockReference
  2
_DOT
 10
789.8852893594158
 20
391.7463623437374
 30
0.0
 41
2.0
 42
2.0
 43
2.0
 50
270.0
  0
MTEXT
  5
157D
330
1575
100
AcDbEntity
  8
DIM
 62
     0
 48
0.05
100
AcDbMText
 10
778.8852893594158
 20
691.7463623437374
 30
0.0
 40
12.0
 41
0.0
 46
0.0
 71
     5
 72
     1
  1
\A1;600
  7
ＭＳ ゴシック
 11
0.0
 21
1.0
 31
0.0
 73
     1
 44
1.0
  0
POINT
  5
157E
330
1575
100
AcDbEntity
  8
Defpoints
 62
     0
100
AcDbPoint
 10
726.7723906960221
 20
991.7463623437374
 30
0.0
  0
POINT
  5
157F
330
1575
100
AcDbEntity
  8
Defpoints
 62
     0
100
AcDbPoint
 10
726.7723906960221
 20
391.7463623437374
 30
0.0
  0
POINT
  5
1580
330
1575
100
AcDbEntity
  8
Defpoints
 62
     0
100
AcDbPoint
 10
789.8852893594158
 20
391.7463623437374
 30
0.0
  0
ENDBLK
  5
1577
330
1575
100
AcDbEntity
  8
0
100
AcDbBlockEnd
  0
BLOCK
  5
1A06
330
1A05
100
AcDbEntity
  8
0
100
AcDbBlockBegin
  2
*D46
 70
     1
 10
0.0
 20
0.0
 30
0.0
  3
*D46
  1
*D50
  0
LINE
  5
1A08
330
1A05
100
AcDbEntity
  8
DIM
 62
     0
370
    -2
100
AcDbLine
 10
1698.772405299161
 20
1004.246370092341
 30
0.0
 11
1698.772405299161
 21
1026.1520548077
 31
0.0
  0
LINE
  5
1A09
330
1A05
100
AcDbEntity
  8
DIM
 62
     0
370
    -2
100
AcDbLine
 10
1706.77240529916
 20
1004.246370092341
 30
0.0
 11
1706.77240529916
 21
1026.1520548077
 31
0.0
  0
LINE
  5
1A0A
330
1A05
100
AcDbEntity
  8
DIM
 62
     0
370
    -2
100
AcDbLine
 10
1706.77240529916
 20
1026.1520548077
 30
0.0
 11
1858.79640529916
 21
1026.1520548077
 31
0.0
  0
LINE
  5
1A0B
330
1A05
100
AcDbEntity
  8
DIM
 62
     0
370
    -2
100
AcDbLine
 10
1700.772405299161
 20
1026.1520548077
 30
0.0
 11
1704.77240529916
 21
1026.1520548077
 31
0.0
  0
INSERT
  5
1A0C
330
1A05
100
AcDbEntity
  8
DIM
 62
     0
370
    -2
100
AcDbBlockReference
  2
_DOT
 10
1698.772405299161
 20
1026.1520548077
 30
0.0
 41
2.0
 42
2.0
 43
2.0
 50
180.0
  0
INSERT
  5
1A0D
330
1A05
100
AcDbEntity
  8
DIM
 62
     0
370
    -2
100
AcDbBlockReference
  2
_DOT
 10
1706.77240529916
 20
1026.1520548077
 30
0.0
 41
2.0
 42
2.0
 43
2.0
  0
MTEXT
  5
1A0E
330
1A05
100
AcDbEntity
  8
DIM
 62
     0
 48
0.05
100
AcDbMText
 10
1715.77240529916
 20
1045.5880548077
 30
0.0
 40
12.0
 41
0.0
 46
0.0
 71
     1
 72
     1
  1
\A1;ガラス厚み　～10mm
  7
ＭＳ ゴシック
 73
     1
 44
1.0
  0
POINT
  5
1A0F
330
1A05
100
AcDbEntity
  8
Defpoints
 62
     0
100
AcDbPoint
 10
1698.772405299161
 20
999.2463700923413
 30
0.0
  0
POINT
  5
1A10
330
1A05
100
AcDbEntity
  8
Defpoints
 62
     0
100
AcDbPoint
 10
1706.77240529916
 20
999.2463700923413
 30
0.0
  0
POINT
  5
1A11
330
1A05
100
AcDbEntity
  8
Defpoints
 62
     0
100
AcDbPoint
 10
1706.77240529916
 20
1026.1520548077
 30
0.0
  0
ENDBLK
  5
1A07
330
1A05
100
AcDbEntity
  8
0
100
AcDbBlockEnd
  0
BLOCK
  5
1A13
330
1A12
100
AcDbEntity
  8
0
100
AcDbBlockBegin
  2
*D47
 70
     1
 10
0.0
 20
0.0
 30
0.0
  3
*D47
  1
*D51
  0
LINE
  5
1A15
330
1A12
100
AcDbEntity
  8
DIM
 62
     0
 48
0.05
370
    -2
100
AcDbLine
 10
1390.780285541685
 20
1069.407825888737
 30
0.0
 11
1361.486758905273
 21
1069.407825888737
 31
0.0
  0
LINE
  5
1A16
330
1A12
100
AcDbEntity
  8
DIM
 62
     0
 48
0.05
370
    -2
100
AcDbLine
 10
1390.780285541685
 20
1084.40782258487
 30
0.0
 11
1361.486758905273
 21
1084.40782258487
 31
0.0
  0
LINE
  5
1A17
330
1A12
100
AcDbEntity
  8
DIM
 62
     0
 48
0.05
370
    -2
100
AcDbLine
 10
1361.486758905273
 20
1071.407825888737
 30
0.0
 11
1361.486758905273
 21
1082.40782258487
 31
0.0
  0
INSERT
  5
1A18
330
1A12
100
AcDbEntity
  8
DIM
 62
     0
370
    -2
100
AcDbBlockReference
  2
_DOT
 10
1361.486758905273
 20
1069.407825888737
 30
0.0
 41
2.0
 42
2.0
 43
2.0
 50
270.0
  0
INSERT
  5
1A19
330
1A12
100
AcDbEntity
  8
DIM
 62
     0
370
    -2
100
AcDbBlockReference
  2
_DOT
 10
1361.486758905273
 20
1084.40782258487
 30
0.0
 41
2.0
 42
2.0
 43
2.0
 50
90.0
  0
MTEXT
  5
1A1A
330
1A12
100
AcDbEntity
  8
DIM
 62
     0
 48
0.05
100
AcDbMText
 10
1350.486758905273
 20
1076.907824236804
 30
0.0
 40
12.0
 41
0.0
 46
0.0
 71
     5
 72
     1
  1
\A1;15
  7
ＭＳ ゴシック
 11
0.0
 21
1.0
 31
0.0
 73
     1
 44
1.0
  0
POINT
  5
1A1B
330
1A12
100
AcDbEntity
  8
Defpoints
 62
     0
100
AcDbPoint
 10
1395.780285541685
 20
1069.407825888737
 30
0.0
  0
POINT
  5
1A1C
330
1A12
100
AcDbEntity
  8
Defpoints
 62
     0
100
AcDbPoint
 10
1395.780285541685
 20
1084.40782258487
 30
0.0
  0
POINT
  5
1A1D
330
1A12
100
AcDbEntity
  8
Defpoints
 62
     0
100
AcDbPoint
 10
1361.486758905273
 20
1084.40782258487
 30
0.0
  0
ENDBLK
  5
1A14
330
1A12
100
AcDbEntity
  8
0
100
AcDbBlockEnd
  0
BLOCK
  5
1A1F
330
1A1E
100
AcDbEntity
  8
0
100
AcDbBlockBegin
  2
*D48
 70
     1
 10
0.0
 20
0.0
 30
0.0
  3
*D48
  1
*D52
  0
LINE
  5
1A21
330
1A1E
100
AcDbEntity
  8
DIM
 62
     0
 48
0.05
370
    -2
100
AcDbLine
 10
1390.780285541685
 20
1084.40782258487
 30
0.0
 11
1361.486758905273
 21
1084.40782258487
 31
0.0
  0
LINE
  5
1A22
330
1A1E
100
AcDbEntity
  8
DIM
 62
     0
 48
0.05
370
    -2
100
AcDbLine
 10
1390.780285541685
 20
1139.407812973621
 30
0.0
 11
1361.486758905273
 21
1139.407812973621
 31
0.0
  0
LINE
  5
1A23
330
1A1E
100
AcDbEntity
  8
DIM
 62
     0
 48
0.05
370
    -2
100
AcDbLine
 10
1361.486758905273
 20
1086.40782258487
 30
0.0
 11
1361.486758905273
 21
1137.407812973621
 31
0.0
  0
INSERT
  5
1A24
330
1A1E
100
AcDbEntity
  8
DIM
 62
     0
370
    -2
100
AcDbBlockReference
  2
_DOT
 10
1361.486758905273
 20
1084.40782258487
 30
0.0
 41
2.0
 42
2.0
 43
2.0
 50
270.0
  0
INSERT
  5
1A25
330
1A1E
100
AcDbEntity
  8
DIM
 62
     0
370
    -2
100
AcDbBlockReference
  2
_DOT
 10
1361.486758905273
 20
1139.407812973621
 30
0.0
 41
2.0
 42
2.0
 43
2.0
 50
90.0
  0
MTEXT
  5
1A26
330
1A1E
100
AcDbEntity
  8
DIM
 62
     0
 48
0.05
100
AcDbMText
 10
1350.486758905273
 20
1111.907817779246
 30
0.0
 40
12.0
 41
0.0
 46
0.0
 71
     5
 72
     1
  1
\A1;55
  7
ＭＳ ゴシック
 11
0.0
 21
1.0
 31
0.0
 73
     1
 44
1.0
  0
POINT
  5
1A27
330
1A1E
100
AcDbEntity
  8
Defpoints
 62
     0
100
AcDbPoint
 10
1395.780285541685
 20
1084.40782258487
 30
0.0
  0
POINT
  5
1A28
330
1A1E
100
AcDbEntity
  8
Defpoints
 62
     0
100
AcDbPoint
 10
1395.780285541685
 20
1139.407812973621
 30
0.0
  0
POINT
  5
1A29
330
1A1E
100
AcDbEntity
  8
Defpoints
 62
     0
100
AcDbPoint
 10
1361.486758905273
 20
1139.407812973621
 30
0.0
  0
ENDBLK
  5
1A20
330
1A1E
100
AcDbEntity
  8
0
100
AcDbBlockEnd
  0
BLOCK
  5
1A2B
330
1A2A
100
AcDbEntity
  8
0
100
AcDbBlockBegin
  2
*D49
 70
     1
 10
0.0
 20
0.0
 30
0.0
  3
*D49
  1
*D53
  0
LINE
  5
1A2D
330
1A2A
100
AcDbEntity
  8
DIM
 62
     0
 48
0.05
370
    -2
100
AcDbLine
 10
1425.780280326279
 20
1069.407825888737
 30
0.0
 11
1464.136804813054
 21
1069.407825888737
 31
0.0
  0
LINE
  5
1A2E
330
1A2A
100
AcDbEntity
  8
DIM
 62
     0
 48
0.05
370
    -2
100
AcDbLine
 10
1425.780280326279
 20
1139.407812973621
 30
0.0
 11
1464.136804813054
 21
1139.407812973621
 31
0.0
  0
LINE
  5
1A2F
330
1A2A
100
AcDbEntity
  8
DIM
 62
     0
 48
0.05
370
    -2
100
AcDbLine
 10
1464.136804813054
 20
1071.407825888737
 30
0.0
 11
1464.136804813054
 21
1137.407812973621
 31
0.0
  0
INSERT
  5
1A30
330
1A2A
100
AcDbEntity
  8
DIM
 62
     0
370
    -2
100
AcDbBlockReference
  2
_DOT
 10
1464.136804813054
 20
1069.407825888737
 30
0.0
 41
2.0
 42
2.0
 43
2.0
 50
270.0
  0
INSERT
  5
1A31
330
1A2A
100
AcDbEntity
  8
DIM
 62
     0
370
    -2
100
AcDbBlockReference
  2
_DOT
 10
1464.136804813054
 20
1139.407812973621
 30
0.0
 41
2.0
 42
2.0
 43
2.0
 50
90.0
  0
MTEXT
  5
1A32
330
1A2A
100
AcDbEntity
  8
DIM
 62
     0
 48
0.05
100
AcDbMText
 10
1453.136804813054
 20
1104.407819431179
 30
0.0
 40
12.0
 41
0.0
 46
0.0
 71
     5
 72
     1
  1
\A1;70
  7
ＭＳ ゴシック
 11
0.0
 21
1.0
 31
0.0
 73
     1
 44
1.0
  0
POINT
  5
1A33
330
1A2A
100
AcDbEntity
  8
Defpoints
 62
     0
100
AcDbPoint
 10
1420.780280326279
 20
1069.407825888737
 30
0.0
  0
POINT
  5
1A34
330
1A2A
100
AcDbEntity
  8
Defpoints
 62
     0
100
AcDbPoint
 10
1420.780280326279
 20
1139.407812973621
 30
0.0
  0
POINT
  5
1A35
330
1A2A
100
AcDbEntity
  8
Defpoints
 62
     0
100
AcDbPoint
 10
1464.136804813054
 20
1139.407812973621
 30
0.0
  0
ENDBLK
  5
1A2C
330
1A2A
100
AcDbEntity
  8
0
100
AcDbBlockEnd
  0
BLOCK
  5
1A37
330
1A36
100
AcDbEntity
  8
0
100
AcDbBlockBegin
  2
*D50
 70
     1
 10
0.0
 20
0.0
 30
0.0
  3
*D50
  1
*D54
  0
LINE
  5
1A39
330
1A36
100
AcDbEntity
  8
DIM
 62
     0
370
    -2
100
AcDbLine
 10
1425.406631856995
 20
999.2313656517963
 30
0.0
 11
1485.691838582402
 21
999.2313656517963
 31
0.0
  0
LINE
  5
1A3A
330
1A36
100
AcDbEntity
  8
DIM
 62
     0
370
    -2
100
AcDbLine
 10
1425.406631856993
 20
384.2313656517961
 30
0.0
 11
1485.691838582402
 21
384.2313656517961
 31
0.0
  0
LINE
  5
1A3B
330
1A36
100
AcDbEntity
  8
DIM
 62
     0
370
    -2
100
AcDbLine
 10
1485.691838582402
 20
997.2313656517963
 30
0.0
 11
1485.691838582402
 21
386.2313656517961
 31
0.0
  0
INSERT
  5
1A3C
330
1A36
100
AcDbEntity
  8
DIM
 62
     0
370
    -2
100
AcDbBlockReference
  2
_DOT
 10
1485.691838582402
 20
999.2313656517963
 30
0.0
 41
2.0
 42
2.0
 43
2.0
 50
90.00000000000001
  0
INSERT
  5
1A3D
330
1A36
100
AcDbEntity
  8
DIM
 62
     0
370
    -2
100
AcDbBlockReference
  2
_DOT
 10
1485.691838582402
 20
384.2313656517961
 30
0.0
 41
2.0
 42
2.0
 43
2.0
 50
270.0
  0
MTEXT
  5
1A3E
330
1A36
100
AcDbEntity
  8
DIM
 62
     0
 48
0.05
100
AcDbMText
 10
1468.691838582402
 20
679.7976007194237
 30
0.0
 40
12.0
 41
0.0
 46
0.0
 71
     1
 72
     1
  1
\A1;615
  7
ＭＳ ゴシック
 11
-3.697132934036292E-16
 21
1.0
 31
0.0
 73
     1
 44
1.0
  0
POINT
  5
1A3F
330
1A36
100
AcDbEntity
  8
Defpoints
 62
     0
100
AcDbPoint
 10
1420.406631856995
 20
999.2313656517963
 30
0.0
  0
POINT
  5
1A40
330
1A36
100
AcDbEntity
  8
Defpoints
 62
     0
100
AcDbPoint
 10
1420.406631856993
 20
384.2313656517961
 30
0.0
  0
POINT
  5
1A41
330
1A36
100
AcDbEntity
  8
Defpoints
 62
     0
100
AcDbPoint
 10
1485.691838582402
 20
384.2313656517961
 30
0.0
  0
ENDBLK
  5
1A38
330
1A36
100
AcDbEntity
  8
0
100
AcDbBlockEnd
  0
BLOCK
  5
1A43
330
1A42
100
AcDbEntity
  8
0
100
AcDbBlockBegin
  2
*D51
 70
     1
 10
0.0
 20
0.0
 30
0.0
  3
*D51
  1
*D55
  0
LINE
  5
1A45
330
1A42
100
AcDbEntity
  8
DIM
 62
     0
 48
0.05
370
    -2
100
AcDbLine
 10
1390.780285541685
 20
999.2463700923413
 30
0.0
 11
1361.486758905273
 21
999.2463700923413
 31
0.0
  0
LINE
  5
1A46
330
1A42
100
AcDbEntity
  8
DIM
 62
     0
 48
0.05
370
    -2
100
AcDbLine
 10
1390.780285541685
 20
984.2463545951341
 30
0.0
 11
1361.486758905273
 21
984.2463545951341
 31
0.0
  0
LINE
  5
1A47
330
1A42
100
AcDbEntity
  8
DIM
 62
     0
 48
0.05
370
    -2
100
AcDbLine
 10
1361.486758905273
 20
997.2463700923413
 30
0.0
 11
1361.486758905273
 21
986.2463545951341
 31
0.0
  0
INSERT
  5
1A48
330
1A42
100
AcDbEntity
  8
DIM
 62
     0
370
    -2
100
AcDbBlockReference
  2
_DOT
 10
1361.486758905273
 20
999.2463700923413
 30
0.0
 41
2.0
 42
2.0
 43
2.0
 50
90.0
  0
INSERT
  5
1A49
330
1A42
100
AcDbEntity
  8
DIM
 62
     0
370
    -2
100
AcDbBlockReference
  2
_DOT
 10
1361.486758905273
 20
984.2463545951341
 30
0.0
 41
2.0
 42
2.0
 43
2.0
 50
270.0
  0
MTEXT
  5
1A4A
330
1A42
100
AcDbEntity
  8
DIM
 62
     0
 48
0.05
100
AcDbMText
 10
1350.486758905273
 20
991.7463623437377
 30
0.0
 40
12.0
 41
0.0
 46
0.0
 71
     5
 72
     1
  1
\A1;15
  7
ＭＳ ゴシック
 11
0.0
 21
1.0
 31
0.0
 73
     1
 44
1.0
  0
POINT
  5
1A4B
330
1A42
100
AcDbEntity
  8
Defpoints
 62
     0
100
AcDbPoint
 10
1395.780285541685
 20
999.2463700923413
 30
0.0
  0
POINT
  5
1A4C
330
1A42
100
AcDbEntity
  8
Defpoints
 62
     0
100
AcDbPoint
 10
1395.780285541685
 20
984.2463545951341
 30
0.0
  0
POINT
  5
1A4D
330
1A42
100
AcDbEntity
  8
Defpoints
 62
     0
100
AcDbPoint
 10
1361.486758905273
 20
984.2463545951341
 30
0.0
  0
ENDBLK
  5
1A44
330
1A42
100
AcDbEntity
  8
0
100
AcDbBlockEnd
  0
BLOCK
  5
1A4F
330
1A4E
100
AcDbEntity
  8
0
100
AcDbBlockBegin
  2
*D52
 70
     1
 10
0.0
 20
0.0
 30
0.0
  3
*D52
  1
*D56
  0
LINE
  5
1A51
330
1A4E
100
AcDbEntity
  8
DIM
 62
     0
 48
0.05
370
    -2
100
AcDbLine
 10
1395.780285541685
 20
1064.407825888737
 30
0.0
 11
1395.780285541685
 21
1032.460324732394
 31
0.0
  0
LINE
  5
1A52
330
1A4E
100
AcDbEntity
  8
DIM
 62
     0
 48
0.05
370
    -2
100
AcDbLine
 10
1420.780280326279
 20
1064.407825888737
 30
0.0
 11
1420.780280326279
 21
1032.460324732394
 31
0.0
  0
LINE
  5
1A53
330
1A4E
100
AcDbEntity
  8
DIM
 62
     0
 48
0.05
370
    -2
100
AcDbLine
 10
1397.780285541685
 20
1032.460324732394
 30
0.0
 11
1418.780280326279
 21
1032.460324732394
 31
0.0
  0
INSERT
  5
1A54
330
1A4E
100
AcDbEntity
  8
DIM
 62
     0
370
    -2
100
AcDbBlockReference
  2
_DOT
 10
1395.780285541685
 20
1032.460324732394
 30
0.0
 41
2.0
 42
2.0
 43
2.0
 50
180.0
  0
INSERT
  5
1A55
330
1A4E
100
AcDbEntity
  8
DIM
 62
     0
370
    -2
100
AcDbBlockReference
  2
_DOT
 10
1420.780280326279
 20
1032.460324732394
 30
0.0
 41
2.0
 42
2.0
 43
2.0
  0
MTEXT
  5
1A56
330
1A4E
100
AcDbEntity
  8
DIM
 62
     0
 48
0.05
100
AcDbMText
 10
1408.280282933982
 20
1043.460324732394
 30
0.0
 40
12.0
 41
0.0
 46
0.0
 71
     5
 72
     1
  1
\A1;25
  7
ＭＳ ゴシック
 73
     1
 44
1.0
  0
POINT
  5
1A57
330
1A4E
100
AcDbEntity
  8
Defpoints
 62
     0
100
AcDbPoint
 10
1395.780285541685
 20
1069.407825888737
 30
0.0
  0
POINT
  5
1A58
330
1A4E
100
AcDbEntity
  8
Defpoints
 62
     0
100
AcDbPoint
 10
1420.780280326279
 20
1069.407825888737
 30
0.0
  0
POINT
  5
1A59
330
1A4E
100
AcDbEntity
  8
Defpoints
 62
     0
100
AcDbPoint
 10
1420.780280326279
 20
1032.460324732394
 30
0.0
  0
ENDBLK
  5
1A50
330
1A4E
100
AcDbEntity
  8
0
100
AcDbBlockEnd
  0
BLOCK
  5
1A5B
330
1A5A
100
AcDbEntity
  8
0
100
AcDbBlockBegin
  2
*D53
 70
     1
 10
0.0
 20
0.0
 30
0.0
  3
*D53
  1
*D57
  0
LINE
  5
1A5D
330
1A5A
100
AcDbEntity
  8
DIM
 62
     0
 48
0.05
370
    -2
100
AcDbLine
 10
1781.772390696022
 20
991.7463623437374
 30
0.0
 11
1839.885289359416
 21
991.7463623437374
 31
0.0
  0
LINE
  5
1A5E
330
1A5A
100
AcDbEntity
  8
DIM
 62
     0
 48
0.05
370
    -2
100
AcDbLine
 10
1781.772390696022
 20
391.7463623437374
 30
0.0
 11
1839.885289359416
 21
391.7463623437374
 31
0.0
  0
LINE
  5
1A5F
330
1A5A
100
AcDbEntity
  8
DIM
 62
     0
 48
0.05
370
    -2
100
AcDbLine
 10
1839.885289359416
 20
989.7463623437374
 30
0.0
 11
1839.885289359416
 21
393.7463623437374
 31
0.0
  0
INSERT
  5
1A60
330
1A5A
100
AcDbEntity
  8
DIM
 62
     0
370
    -2
100
AcDbBlockReference
  2
_DOT
 10
1839.885289359416
 20
991.7463623437374
 30
0.0
 41
2.0
 42
2.0
 43
2.0
 50
90.0
  0
INSERT
  5
1A61
330
1A5A
100
AcDbEntity
  8
DIM
 62
     0
370
    -2
100
AcDbBlockReference
  2
_DOT
 10
1839.885289359416
 20
391.7463623437374
 30
0.0
 41
2.0
 42
2.0
 43
2.0
 50
270.0
  0
MTEXT
  5
1A62
330
1A5A
100
AcDbEntity
  8
DIM
 62
     0
 48
0.05
100
AcDbMText
 10
1828.885289359416
 20
691.7463623437374
 30
0.0
 40
12.0
 41
0.0
 46
0.0
 71
     5
 72
     1
  1
\A1;600
  7
ＭＳ ゴシック
 11
0.0
 21
1.0
 31
0.0
 73
     1
 44
1.0
  0
POINT
  5
1A63
330
1A5A
100
AcDbEntity
  8
Defpoints
 62
     0
100
AcDbPoint
 10
1776.772390696022
 20
991.7463623437374
 30
0.0
  0
POINT
  5
1A64
330
1A5A
100
AcDbEntity
  8
Defpoints
 62
     0
100
AcDbPoint
 10
1776.772390696022
 20
391.7463623437374
 30
0.0
  0
POINT
  5
1A65
330
1A5A
100
AcDbEntity
  8
Defpoints
 62
     0
100
AcDbPoint
 10
1839.885289359416
 20
391.7463623437374
 30
0.0
  0
ENDBLK
  5
1A5C
330
1A5A
100
AcDbEntity
  8
0
100
AcDbBlockEnd
  0
BLOCK
  5
1AA4
330
1AA3
100
AcDbEntity
  8
0
100
AcDbBlockBegin
  2
*D54
 70
     1
 10
0.0
 20
0.0
 30
0.0
  3
*D54
  1
*D58
  0
LINE
  5
1AA6
330
1AA3
100
AcDbEntity
  8
MODEL
 62
     0
 48
0.05
370
    -2
100
AcDbLine
 10
2278.579128611903
 20
1277.213937050491
 30
0.0
 11
2268.432309593597
 21
1277.213937050491
 31
0.0
  0
LINE
  5
1AA7
330
1AA3
100
AcDbEntity
  8
MODEL
 62
     0
 48
0.05
370
    -2
100
AcDbLine
 10
2278.579128611903
 20
1297.518705920057
 30
0.0
 11
2268.432309593597
 21
1297.518705920057
 31
0.0
  0
LINE
  5
1AA8
330
1AA3
100
AcDbEntity
  8
MODEL
 62
     0
 48
0.05
370
    -2
100
AcDbLine
 10
2268.432309593597
 20
1275.213937050491
 30
0.0
 11
2268.432309593597
 21
1273.213937050491
 31
0.0
  0
LINE
  5
1AA9
330
1AA3
100
AcDbEntity
  8
MODEL
 62
     0
 48
0.05
370
    -2
100
AcDbLine
 10
2268.432309593597
 20
1299.518705920057
 30
0.0
 11
2268.432309593597
 21
1301.518705920057
 31
0.0
  0
INSERT
  5
1AAA
330
1AA3
100
AcDbEntity
  8
MODEL
 62
     0
370
    -2
100
AcDbBlockReference
  2
_DOT
 10
2268.432309593597
 20
1277.213937050491
 30
0.0
 41
2.0
 42
2.0
 43
2.0
 50
90.0
  0
INSERT
  5
1AAB
330
1AA3
100
AcDbEntity
  8
MODEL
 62
     0
370
    -2
100
AcDbBlockReference
  2
_DOT
 10
2268.432309593597
 20
1297.518705920057
 30
0.0
 41
2.0
 42
2.0
 43
2.0
 50
270.0
  0
MTEXT
  5
1AAC
330
1AA3
100
AcDbEntity
  8
MODEL
 62
     0
 48
0.05
100
AcDbMText
 10
2257.432309593597
 20
1287.366321485274
 30
0.0
 40
12.0
 41
0.0
 46
0.0
 71
     5
 72
     1
  1
\A1;20
  7
ＭＳ ゴシック
 11
0.0
 21
1.0
 31
0.0
 73
     1
 44
1.0
  0
POINT
  5
1AAD
330
1AA3
100
AcDbEntity
  8
Defpoints
 62
     0
100
AcDbPoint
 10
2283.579128611903
 20
1277.213937050491
 30
0.0
  0
POINT
  5
1AAE
330
1AA3
100
AcDbEntity
  8
Defpoints
 62
     0
100
AcDbPoint
 10
2283.579128611903
 20
1297.518705920057
 30
0.0
  0
POINT
  5
1AAF
330
1AA3
100
AcDbEntity
  8
Defpoints
 62
     0
100
AcDbPoint
 10
2268.432309593597
 20
1297.518705920057
 30
0.0
  0
ENDBLK
  5
1AA5
330
1AA3
100
AcDbEntity
  8
0
100
AcDbBlockEnd
  0
BLOCK
  5
1AB7
330
1AB6
100
AcDbEntity
  8
0
100
AcDbBlockBegin
  2
*D55
 70
     1
 10
0.0
 20
0.0
 30
0.0
  3
*D55
  1
*D59
  0
LINE
  5
1AB9
330
1AB6
100
AcDbEntity
  8
MODEL
 62
     0
 48
0.05
370
    -2
100
AcDbLine
 10
2278.579128611903
 20
1277.213937050491
 30
0.0
 11
2264.597926538117
 21
1277.213937050491
 31
0.0
  0
LINE
  5
1ABA
330
1AB6
100
AcDbEntity
  8
MODEL
 62
     0
 48
0.05
370
    -2
100
AcDbLine
 10
2278.579128611903
 20
1297.518705920057
 30
0.0
 11
2264.597926538117
 21
1297.518705920057
 31
0.0
  0
LINE
  5
1ABB
330
1AB6
100
AcDbEntity
  8
MODEL
 62
     0
 48
0.05
370
    -2
100
AcDbLine
 10
2264.597926538117
 20
1275.213937050491
 30
0.0
 11
2264.597926538117
 21
1273.213937050491
 31
0.0
  0
LINE
  5
1ABC
330
1AB6
100
AcDbEntity
  8
MODEL
 62
     0
 48
0.05
370
    -2
100
AcDbLine
 10
2264.597926538117
 20
1299.518705920057
 30
0.0
 11
2264.597926538117
 21
1301.518705920057
 31
0.0
  0
INSERT
  5
1ABD
330
1AB6
100
AcDbEntity
  8
MODEL
 62
     0
370
    -2
100
AcDbBlockReference
  2
_DOT
 10
2264.597926538117
 20
1277.213937050491
 30
0.0
 41
2.0
 42
2.0
 43
2.0
 50
90.0
  0
INSERT
  5
1ABE
330
1AB6
100
AcDbEntity
  8
MODEL
 62
     0
370
    -2
100
AcDbBlockReference
  2
_DOT
 10
2264.597926538117
 20
1297.518705920057
 30
0.0
 41
2.0
 42
2.0
 43
2.0
 50
270.0
  0
MTEXT
  5
1ABF
330
1AB6
100
AcDbEntity
  8
MODEL
 62
     0
 48
0.05
100
AcDbMText
 10
2253.597926538117
 20
1287.366321485274
 30
0.0
 40
12.0
 41
0.0
 46
0.0
 71
     5
 72
     1
  1
\A1;20
  7
ＭＳ ゴシック
 11
0.0
 21
1.0
 31
0.0
 73
     1
 44
1.0
  0
POINT
  5
1AC0
330
1AB6
100
AcDbEntity
  8
Defpoints
 62
     0
100
AcDbPoint
 10
2283.579128611903
 20
1277.213937050491
 30
0.0
  0
POINT
  5
1AC1
330
1AB6
100
AcDbEntity
  8
Defpoints
 62
     0
100
AcDbPoint
 10
2283.579128611903
 20
1297.518705920057
 30
0.0
  0
POINT
  5
1AC2
330
1AB6
100
AcDbEntity
  8
Defpoints
 62
     0
100
AcDbPoint
 10
2264.597926538117
 20
1297.518705920057
 30
0.0
  0
ENDBLK
  5
1AB8
330
1AB6
100
AcDbEntity
  8
0
100
AcDbBlockEnd
  0
BLOCK
  5
1AC7
330
1AC6
100
AcDbEntity
  8
0
100
AcDbBlockBegin
  2
*D56
 70
     1
 10
0.0
 20
0.0
 30
0.0
  3
*D56
  1
*D60
  0
LINE
  5
1AC9
330
1AC6
100
AcDbEntity
  8
MODEL
 62
     0
 48
0.05
370
    -2
100
AcDbLine
 10
2283.579128611903
 20
1302.518705920057
 30
0.0
 11
2283.579128611903
 21
1328.062480355525
 31
0.0
  0
LINE
  5
1ACA
330
1AC6
100
AcDbEntity
  8
MODEL
 62
     0
 48
0.05
370
    -2
100
AcDbLine
 10
2316.016832813184
 20
1321.183122122904
 30
0.0
 11
2316.016832813184
 21
1328.062480355525
 31
0.0
  0
LINE
  5
1ACB
330
1AC6
100
AcDbEntity
  8
MODEL
 62
     0
 48
0.05
370
    -2
100
AcDbLine
 10
2285.579128611903
 20
1328.062480355525
 30
0.0
 11
2314.016832813184
 21
1328.062480355525
 31
0.0
  0
INSERT
  5
1ACC
330
1AC6
100
AcDbEntity
  8
MODEL
 62
     0
370
    -2
100
AcDbBlockReference
  2
_DOT
 10
2283.579128611903
 20
1328.062480355525
 30
0.0
 41
2.0
 42
2.0
 43
2.0
 50
180.0
  0
INSERT
  5
1ACD
330
1AC6
100
AcDbEntity
  8
MODEL
 62
     0
370
    -2
100
AcDbBlockReference
  2
_DOT
 10
2316.016832813184
 20
1328.062480355525
 30
0.0
 41
2.0
 42
2.0
 43
2.0
  0
MTEXT
  5
1ACE
330
1AC6
100
AcDbEntity
  8
MODEL
 62
     0
 48
0.05
100
AcDbMText
 10
2299.797980712543
 20
1339.062480355525
 30
0.0
 40
12.0
 41
0.0
 46
0.0
 71
     5
 72
     1
  1
\A1;32
  7
ＭＳ ゴシック
 73
     1
 44
1.0
  0
POINT
  5
1ACF
330
1AC6
100
AcDbEntity
  8
Defpoints
 62
     0
100
AcDbPoint
 10
2283.579128611903
 20
1297.518705920057
 30
0.0
  0
POINT
  5
1AD0
330
1AC6
100
AcDbEntity
  8
Defpoints
 62
     0
100
AcDbPoint
 10
2316.016832813184
 20
1316.183122122904
 30
0.0
  0
POINT
  5
1AD1
330
1AC6
100
AcDbEntity
  8
Defpoints
 62
     0
100
AcDbPoint
 10
2316.016832813184
 20
1328.062480355525
 30
0.0
  0
ENDBLK
  5
1AC8
330
1AC6
100
AcDbEntity
  8
0
100
AcDbBlockEnd
  0
BLOCK
  5
1AD6
330
1AD5
100
AcDbEntity
  8
0
100
AcDbBlockBegin
  2
*D57
 70
     1
 10
0.0
 20
0.0
 30
0.0
  3
*D57
  1
*D61
  0
LINE
  5
1AD8
330
1AD5
100
AcDbEntity
  8
MODEL
 62
     0
 48
0.05
370
    -2
100
AcDbLine
 10
2281.08549429057
 20
1301.852501931808
 30
0.0
 11
2279.504358752843
 21
1304.600426448573
 31
0.0
  0
LINE
  5
1AD9
330
1AD5
100
AcDbEntity
  8
MODEL
 62
     0
 48
0.05
370
    -2
100
AcDbLine
 10
2313.523198491851
 20
1320.516918134655
 30
0.0
 11
2311.942062954123
 21
1323.264842651421
 31
0.0
  0
LINE
  5
1ADA
330
1AD5
100
AcDbEntity
  8
MODEL
 62
     0
 48
0.05
370
    -2
100
AcDbLine
 10
2281.237877157543
 20
1305.597880177107
 30
0.0
 11
2310.208544549423
 21
1322.267388922887
 31
0.0
  0
INSERT
  5
1ADB
330
1AD5
100
AcDbEntity
  8
MODEL
 62
     0
370
    -2
100
AcDbBlockReference
  2
_DOT
 10
2279.504358752843
 20
1304.600426448573
 30
0.0
 41
2.0
 42
2.0
 43
2.0
 50
209.915805702698
  0
INSERT
  5
1ADC
330
1AD5
100
AcDbEntity
  8
MODEL
 62
     0
370
    -2
100
AcDbBlockReference
  2
_DOT
 10
2311.942062954123
 20
1323.264842651421
 30
0.0
 41
2.0
 42
2.0
 43
2.0
 50
29.91580570269798
  0
MTEXT
  5
1ADD
330
1AD5
100
AcDbEntity
  8
MODEL
 62
     0
 48
0.05
100
AcDbMText
 10
2290.23721534655
 20
1323.46698577585
 30
0.0
 40
12.0
 41
0.0
 46
0.0
 71
     5
 72
     1
  1
\A1;37
  7
ＭＳ ゴシック
 11
0.8667592023502249
 21
0.4987268642666065
 31
0.0
 73
     1
 44
1.0
  0
POINT
  5
1ADE
330
1AD5
100
AcDbEntity
  8
Defpoints
 62
     0
100
AcDbPoint
 10
2283.579128611903
 20
1297.518705920057
 30
0.0
  0
POINT
  5
1ADF
330
1AD5
100
AcDbEntity
  8
Defpoints
 62
     0
100
AcDbPoint
 10
2316.016832813184
 20
1316.183122122904
 30
0.0
  0
POINT
  5
1AE0
330
1AD5
100
AcDbEntity
  8
Defpoints
 62
     0
100
AcDbPoint
 10
2311.942062954123
 20
1323.264842651421
 30
0.0
  0
ENDBLK
  5
1AD7
330
1AD5
100
AcDbEntity
  8
0
100
AcDbBlockEnd
  0
BLOCK
  5
1EB1
330
1EB0
100
AcDbEntity
  8
0
100
AcDbBlockBegin
  2
*D58
 70
     1
 10
0.0
 20
0.0
 30
0.0
  3
*D58
  1
*D59
  0
LINE
  5
1EB2
330
1EB0
100
AcDbEntity
  8
寸法
 62
     0
370
    -2
100
AcDbLine
 10
40.54492477606425
 20
631.5824141415283
 30
0.0
 11
89.54981530625393
 21
631.5824141415283
 31
0.0
  0
LINE
  5
1EB3
330
1EB0
100
AcDbEntity
  8
寸法
 62
     0
370
    -2
100
AcDbLine
 10
40.54492477606425
 20
31.5824141415282
 30
0.0
 11
89.54981530625389
 21
31.5824141415282
 31
0.0
  0
LINE
  5
1EB4
330
1EB0
100
AcDbEntity
  8
寸法
 62
     0
370
    -2
100
AcDbLine
 10
89.54981530625393
 20
629.5824141415283
 30
0.0
 11
89.54981530625389
 21
33.5824141415282
 31
0.0
  0
INSERT
  5
1EB5
330
1EB0
100
AcDbEntity
  8
寸法
 62
     0
370
    -2
100
AcDbBlockReference
  2
_DOT
 10
89.54981530625393
 20
631.5824141415283
 30
0.0
 41
2.0
 42
2.0
 43
2.0
 50
90.0
  0
INSERT
  5
1EB6
330
1EB0
100
AcDbEntity
  8
寸法
 62
     0
370
    -2
100
AcDbBlockReference
  2
_DOT
 10
89.54981530625389
 20
31.5824141415282
 30
0.0
 41
2.0
 42
2.0
 43
2.0
 50
270.0
  0
MTEXT
  5
1EB7
330
1EB0
100
AcDbEntity
  8
寸法
 62
     0
 48
0.05
100
AcDbMText
 10
78.54981530625392
 20
331.5824141415282
 30
0.0
 40
12.0
 41
0.0
 46
0.0
 71
     5
 72
     1
  1
\A1;600
  7
ＭＳ ゴシック
 11
7.105427357601001E-17
 21
1.0
 31
0.0
 73
     1
 44
1.0
  0
POINT
  5
1EB8
330
1EB0
100
AcDbEntity
  8
Defpoints
 62
     0
100
AcDbPoint
 10
35.54492477606425
 20
631.5824141415283
 30
0.0
  0
POINT
  5
1EB9
330
1EB0
100
AcDbEntity
  8
Defpoints
 62
     0
100
AcDbPoint
 10
35.54492477606425
 20
31.5824141415282
 30
0.0
  0
POINT
  5
1EBA
330
1EB0
100
AcDbEntity
  8
Defpoints
 62
     0
100
AcDbPoint
 10
89.54981530625389
 20
31.5824141415282
 30
0.0
  0
ENDBLK
  5
1EBB
330
1EB0
100
AcDbEntity
  8
0
100
AcDbBlockEnd
  0
BLOCK
  5
1ED2
330
1ED1
100
AcDbEntity
  8
0
100
AcDbBlockBegin
  2
*D59
 70
     1
 10
0.0
 20
0.0
 30
0.0
  3
*D59
  1
*D60
  0
LINE
  5
1ED4
330
1ED1
100
AcDbEntity
  8
寸法
 62
     0
370
    -2
100
AcDbLine
 10
860.1936636484676
 20
991.7463623437374
 30
0.0
 11
909.1985541786572
 21
991.7463623437372
 31
0.0
  0
LINE
  5
1ED5
330
1ED1
100
AcDbEntity
  8
寸法
 62
     0
370
    -2
100
AcDbLine
 10
860.1936636484676
 20
391.7463623437373
 30
0.0
 11
909.1985541786572
 21
391.7463623437373
 31
0.0
  0
LINE
  5
1ED6
330
1ED1
100
AcDbEntity
  8
寸法
 62
     0
370
    -2
100
AcDbLine
 10
909.1985541786572
 20
989.7463623437372
 30
0.0
 11
909.1985541786572
 21
393.7463623437373
 31
0.0
  0
INSERT
  5
1ED7
330
1ED1
100
AcDbEntity
  8
寸法
 62
     0
370
    -2
100
AcDbBlockReference
  2
_DOT
 10
909.1985541786572
 20
991.7463623437372
 30
0.0
 41
2.0
 42
2.0
 43
2.0
 50
90.0
  0
INSERT
  5
1ED8
330
1ED1
100
AcDbEntity
  8
寸法
 62
     0
370
    -2
100
AcDbBlockReference
  2
_DOT
 10
909.1985541786572
 20
391.7463623437373
 30
0.0
 41
2.0
 42
2.0
 43
2.0
 50
270.0
  0
MTEXT
  5
1ED9
330
1ED1
100
AcDbEntity
  8
寸法
 62
     0
 48
0.05
100
AcDbMText
 10
898.1985541786572
 20
691.7463623437372
 30
0.0
 40
12.0
 41
0.0
 46
0.0
 71
     5
 72
     1
  1
\A1;600
  7
ＭＳ ゴシック
 11
0.0
 21
1.0
 31
0.0
 73
     1
 44
1.0
  0
POINT
  5
1EDA
330
1ED1
100
AcDbEntity
  8
Defpoints
 62
     0
100
AcDbPoint
 10
855.1936636484676
 20
991.7463623437374
 30
0.0
  0
POINT
  5
1EDB
330
1ED1
100
AcDbEntity
  8
Defpoints
 62
     0
100
AcDbPoint
 10
855.1936636484676
 20
391.7463623437373
 30
0.0
  0
POINT
  5
1EDC
330
1ED1
100
AcDbEntity
  8
Defpoints
 62
     0
100
AcDbPoint
 10
909.1985541786572
 20
391.7463623437373
 30
0.0
  0
ENDBLK
  5
1ED3
330
1ED1
100
AcDbEntity
  8
0
100
AcDbBlockEnd
  0
BLOCK
  5
1F07
330
1F06
100
AcDbEntity
  8
0
100
AcDbBlockBegin
  2
*D60
 70
     1
 10
0.0
 20
0.0
 30
0.0
  3
*D60
  1
*D61
  0
LINE
  5
1F09
330
1F06
100
AcDbEntity
  8
寸法
 62
     0
 48
0.05
370
    -2
100
AcDbLine
 10
506.8578768436263
 20
691.7463653239699
 30
0.0
 11
479.7058768436262
 21
691.7463653239699
 31
0.0
  0
LINE
  5
1F0A
330
1F06
100
AcDbEntity
  8
寸法
 62
     0
 48
0.05
370
    -2
100
AcDbLine
 10
508.8578768436263
 20
691.7463653239699
 30
0.0
 11
519.8578735397596
 21
691.7463653239699
 31
0.0
  0
INSERT
  5
1F0B
330
1F06
100
AcDbEntity
  8
寸法
 62
     0
370
    -2
100
AcDbBlockReference
  2
_DOT
 10
506.8578768436263
 20
691.7463653239699
 30
0.0
 41
2.0
 42
2.0
 43
2.0
 50
180.0
  0
INSERT
  5
1F0C
330
1F06
100
AcDbEntity
  8
寸法
 62
     0
370
    -2
100
AcDbBlockReference
  2
_DOT
 10
521.8578735397596
 20
691.7463653239699
 30
0.0
 41
2.0
 42
2.0
 43
2.0
  0
MTEXT
  5
1F0D
330
1F06
100
AcDbEntity
  8
寸法
 62
     0
 48
0.05
100
AcDbMText
 10
491.2818768436263
 20
702.7463653239699
 30
0.0
 40
12.0
 41
0.0
 46
0.0
 71
     5
 72
     1
  1
\A1;15
  7
ＭＳ ゴシック
 73
     1
 44
1.0
  0
POINT
  5
1F0E
330
1F06
100
AcDbEntity
  8
Defpoints
 62
     0
100
AcDbPoint
 10
506.8578768436263
 20
691.7463653239699
 30
0.0
  0
POINT
  5
1F0F
330
1F06
100
AcDbEntity
  8
Defpoints
 62
     0
100
AcDbPoint
 10
521.8578735397596
 20
691.7463504228091
 30
0.0
  0
POINT
  5
1F10
330
1F06
100
AcDbEntity
  8
Defpoints
 62
     0
100
AcDbPoint
 10
521.8578735397596
 20
691.7463653239699
 30
0.0
  0
ENDBLK
  5
1F08
330
1F06
100
AcDbEntity
  8
0
100
AcDbBlockEnd
  0
BLOCK
  5
2327
330
2326
100
AcDbEntity
  8
0
100
AcDbBlockBegin
  2
*D61
 70
     1
 10
0.0
 20
0.0
 30
0.0
  3
*D61
  1
*D61
  0
LINE
  5
2329
330
2326
100
AcDbEntity
  8
寸法
 62
     0
370
    -2
100
AcDbLine
 10
659.8578506366747
 20
991.7463623437372
 30
0.0
 11
708.8627411668643
 21
991.7463623437372
 31
0.0
  0
LINE
  5
232A
330
2326
100
AcDbEntity
  8
寸法
 62
     0
370
    -2
100
AcDbLine
 10
659.8578506366747
 20
391.7463623437372
 30
0.0
 11
708.8627411668643
 21
391.7463623437372
 31
0.0
  0
LINE
  5
232B
330
2326
100
AcDbEntity
  8
寸法
 62
     0
370
    -2
100
AcDbLine
 10
708.8627411668643
 20
989.7463623437372
 30
0.0
 11
708.8627411668643
 21
393.7463623437372
 31
0.0
  0
INSERT
  5
232C
330
2326
100
AcDbEntity
  8
寸法
 62
     0
370
    -2
100
AcDbBlockReference
  2
_DOT
 10
708.8627411668643
 20
991.7463623437372
 30
0.0
 41
2.0
 42
2.0
 43
2.0
 50
90.0
  0
INSERT
  5
232D
330
2326
100
AcDbEntity
  8
寸法
 62
     0
370
    -2
100
AcDbBlockReference
  2
_DOT
 10
708.8627411668643
 20
391.7463623437372
 30
0.0
 41
2.0
 42
2.0
 43
2.0
 50
270.0
  0
MTEXT
  5
232E
330
2326
100
AcDbEntity
  8
寸法
 62
     0
 48
0.05
100
AcDbMText
 10
697.8627411668643
 20
691.7463623437372
 30
0.0
 40
12.0
 41
0.0
 46
0.0
 71
     5
 72
     1
  1
\A1;600
  7
ＭＳ ゴシック
 11
0.0
 21
1.0
 31
0.0
 73
     1
 44
1.0
  0
POINT
  5
232F
330
2326
100
AcDbEntity
  8
Defpoints
 62
     0
100
AcDbPoint
 10
654.8578506366747
 20
991.7463623437372
 30
0.0
  0
POINT
  5
2330
330
2326
100
AcDbEntity
  8
Defpoints
 62
     0
100
AcDbPoint
 10
654.8578506366747
 20
391.7463623437372
 30
0.0
  0
POINT
  5
2331
330
2326
100
AcDbEntity
  8
Defpoints
 62
     0
100
AcDbPoint
 10
708.8627411668643
 20
391.7463623437372
 30
0.0
  0
ENDBLK
  5
2328
330
2326
100
AcDbEntity
  8
0
100
AcDbBlockEnd
  0
ENDSEC
  0
SECTION
  2
ENTITIES
  0
MTEXT
  5
177
330
A
100
AcDbEntity
  8
TEMPLATE
390
1D
100
AcDbMText
 10
39.60107227386538
 20
171.8658758157141
 30
0.0
 40
8.144205729166663
 41
0.0
 46
0.0
 71
     1
 72
     1
  1
品名
  7
ＭＳ ゴシック
 73
     1
 44
0.7828267384257843
  0
MTEXT
  5
178
330
A
100
AcDbEntity
  8
TEMPLATE
390
1D
100
AcDbMText
 10
39.60107227386538
 20
129.365875815714
 30
0.0
 40
8.144205729166663
 41
0.0
 46
0.0
 71
     1
 72
     1
  1
仕様
  7
ＭＳ ゴシック
 73
     1
 44
0.7828267384257843
  0
LINE
  5
179
330
A
100
AcDbEntity
  8
TEMPLATE
390
1D
100
AcDbLine
 10
1011.101072273624
 20
133.5733367532142
 30
0.0
 11
36.10107227362437
 21
133.5733367532142
 31
0.0
  0
LWPOLYLINE
  5
17A
330
A
100
AcDbEntity
  8
TEMPLATE
390
1D
100
AcDbPolyline
 90
        5
 70
   128
 43
0.0
 10
1011.101072273624
 20
1448.573336753213
 10
36.10107227362437
 20
1448.573336753213
 10
36.10107227362437
 20
48.57333675321413
 10
1011.101072273624
 20
48.57333675321413
 10
1011.101072273624
 20
1448.573336753213
  0
LINE
  5
17B
330
A
100
AcDbEntity
  8
TEMPLATE
390
1D
100
AcDbLine
 10
1011.101072273624
 20
176.0733367532141
 30
0.0
 11
36.10107227362437
 21
176.0733367532141
 31
0.0
  0
LINE
  5
17C
330
A
100
AcDbEntity
  8
TEMPLATE
390
1D
100
AcDbLine
 10
1011.101072273866
 20
91.07333675321412
 30
0.0
 11
634.601072273865
 21
91.07333675321412
 31
0.0
  0
MTEXT
  5
17E
330
A
100
AcDbEntity
  8
TEMPLATE
390
1D
100
AcDbMText
 10
649.5367753999956
 20
76.11813951656006
 30
0.0
 40
12.21630859375
 41
0.0
 46
0.0
 71
     1
 72
     1
  1
大洋金物株式会社 ティーフォルム事業部
  7
ＭＳ ゴシック
 73
     1
 44
0.7828267384257843
  0
MTEXT
  5
180
330
A
100
AcDbEntity
  8
TEMPLATE
390
1D
100
AcDbMText
 10
915.601072273995
 20
115.0746453469641
 30
0.0
 40
12.21630859375
 41
0.0
 46
12.21630859375
 71
     1
 72
     1
  1
{1:5}
  7
ＭＳ ゴシック
 73
     1
 44
0.7828267384257843
1001
ACAD
1000
ACAD_MTEXT_DEFINED_HEIGHT_BEGIN
1070
    46
1040
12.21630859375
1000
ACAD_MTEXT_DEFINED_HEIGHT_END
  0
MTEXT
  5
181
330
A
100
AcDbEntity
  8
TEMPLATE
390
1D
100
AcDbMText
 10
889.101072273995
 20
129.365875815714
 30
0.0
 40
8.144205729166663
 41
0.0
 46
0.0
 71
     1
 72
     1
  1
縮尺
  7
ＭＳ ゴシック
 73
     1
 44
0.7828267384257843
  0
LINE
  5
182
330
A
100
AcDbEntity
  8
TEMPLATE
390
1D
100
AcDbLine
 10
885.601072273995
 20
91.07333675321412
 30
0.0
 11
885.601072273995
 21
133.5733367532142
 31
0.0
  0
MTEXT
  5
183
330
A
100
AcDbEntity
  8
TEMPLATE
390
1D
100
AcDbMText
 10
763.601072273995
 20
129.365875815714
 30
0.0
 40
8.144205729166663
 41
0.0
 46
0.0
 71
     1
 72
     1
  1
容量
  7
ＭＳ ゴシック
 73
     1
 44
0.7828267384257843
  0
LINE
  5
184
330
A
100
AcDbEntity
  8
TEMPLATE
390
1D
100
AcDbLine
 10
760.101072273995
 20
91.07333675321412
 30
0.0
 11
760.101072273995
 21
133.5733367532142
 31
0.0
  0
MTEXT
  5
185
330
A
100
AcDbEntity
  8
TEMPLATE
390
1D
100
AcDbMText
 10
638.101072273995
 20
171.8658758157141
 30
0.0
 40
8.144205729166663
 41
0.0
 46
0.0
 71
     1
 72
     1
  1
品番
  7
ＭＳ ゴシック
 73
     1
 44
0.7828267384257843
  0
MTEXT
  5
186
330
A
100
AcDbEntity
  8
TEMPLATE
390
1D
100
AcDbMText
 10
638.101072273995
 20
129.365875815714
 30
0.0
 40
8.144205729166663
 41
0.0
 46
0.0
 71
     1
 72
     1
  1
重量
  7
ＭＳ ゴシック
 73
     1
 44
0.7828267384257843
  0
MTEXT
  5
187
330
A
100
AcDbEntity
  8
TEMPLATE
390
1D
100
AcDbMText
 10
664.601072273995
 20
157.5746453469641
 30
0.0
 40
12.21630859375
 41
0.0
 46
12.21630859375
 71
     1
 72
     1
  1
{FRF82-2303}
  7
ＭＳ ゴシック
 73
     1
 44
0.7828267384257843
1001
ACAD
1000
ACAD_MTEXT_DEFINED_HEIGHT_BEGIN
1070
    46
1040
12.21630859375
1000
ACAD_MTEXT_DEFINED_HEIGHT_END
  0
LINE
  5
188
330
A
100
AcDbEntity
  8
TEMPLATE
390
1D
100
AcDbLine
 10
634.601072273995
 20
48.57333675321413
 30
0.0
 11
634.601072273995
 21
176.0733367532141
 31
0.0
  0
MTEXT
  5
189
330
A
100
AcDbEntity
  8
TEMPLATE
390
1D
100
AcDbMText
 10
66.10107227386537
 20
157.5746453469641
 30
0.0
 40
12.21630859375
 41
0.0
 46
12.900421875
 71
     1
 72
     1
  1
{シャワードアハンドル　-LANGBERGER-}
  7
ＭＳ ゴシック
 73
     1
 44
0.7828267384257843
1001
ACAD
1000
ACAD_MTEXT_DEFINED_HEIGHT_BEGIN
1070
    46
1040
12.900421875
1000
ACAD_MTEXT_DEFINED_HEIGHT_END
  0
INSERT
  5
6B5
330
A
100
AcDbEntity
  8
TEMPLATE
100
AcDbBlockReference
  2
名称未設定-1
 10
935.3753740442249
 20
12.97338287832691
 30
0.0
 41
0.3809999999999999
 42
0.3809999999999999
 43
0.3809999999999999
  0
INSERT
  5
68C
330
A
100
AcDbEntity
  8
TEMPLATE
100
AcDbBlockReference
  2
block 2
 10
919.2743017702577
 20
8.373076514336368
 30
0.0
 41
0.3809999999999999
 42
0.3809999999999999
 43
0.3809999999999999
  0
LWPOLYLINE
  5
D69
330
A
100
AcDbEntity
  8
BORDER
 48
0.05
100
AcDbPolyline
 90
        4
 70
     1
 43
0.0
 10
0.0
 20
0.0
 10
0.0
 20
1485.0
 10
1050.0
 20
1485.0
 10
1050.0
 20
0.0
  0
LINE
  5
FAC
330
A
100
AcDbEntity
  8
MODEL
  6
Continuous
100
AcDbLine
 10
242.8564018773251
 20
999.2613606605023
 30
0.0
 11
242.8564018773251
 21
999.2463700923413
 31
0.0
  0
LINE
  5
FAD
330
A
100
AcDbEntity
  8
MODEL
  6
Continuous
100
AcDbLine
 10
250.3863982128316
 20
999.2463700923413
 30
0.0
 11
250.3863982128316
 21
999.2613606605023
 31
0.0
  0
LINE
  5
FAE
330
A
100
AcDbEntity
  8
MODEL
  6
Continuous
100
AcDbLine
 10
254.8354006575757
 20
999.2613606605023
 30
0.0
 11
254.8354006575757
 21
999.2463700923413
 31
0.0
  0
LINE
  5
FAF
330
A
100
AcDbEntity
  8
MODEL
  6
Continuous
100
AcDbLine
 10
262.3654007183724
 20
999.2463700923413
 30
0.0
 11
262.3654007183724
 21
999.2613606605023
 31
0.0
  0
LINE
  5
FB0
330
A
100
AcDbEntity
  8
MODEL
  6
Continuous
100
AcDbLine
 10
242.8564018773251
 20
999.2613606605023
 30
0.0
 11
250.3863982128316
 21
999.2613606605023
 31
0.0
  0
LINE
  5
FB1
330
A
100
AcDbEntity
  8
MODEL
  6
Continuous
100
AcDbLine
 10
254.8354006575757
 20
999.2613606605023
 30
0.0
 11
262.3654007183724
 21
999.2613606605023
 31
0.0
  0
LINE
  5
FB2
330
A
100
AcDbEntity
  8
MODEL
  6
Continuous
100
AcDbLine
 10
240.1133290695363
 20
999.2463700923413
 30
0.0
 11
240.1133290695363
 21
984.2463545951334
 31
0.0
  0
LINE
  5
FB3
330
A
100
AcDbEntity
  8
MODEL
  6
Continuous
100
AcDbLine
 10
240.1467002200299
 20
984.2463545951334
 30
0.0
 11
240.1558048295192
 21
999.2463700923413
 31
0.0
  0
LINE
  5
FB4
330
A
100
AcDbEntity
  8
MODEL
  6
Continuous
100
AcDbLine
 10
240.1467002200299
 20
984.2463545951334
 30
0.0
 11
240.1133290695363
 21
984.2463545951334
 31
0.0
  0
LINE
  5
FB5
330
A
100
AcDbEntity
  8
MODEL
  6
Continuous
100
AcDbLine
 10
240.1558048295192
 20
999.2463700923413
 30
0.0
 11
240.1133290695363
 21
999.2463700923413
 31
0.0
  0
LINE
  5
FB6
330
A
100
AcDbEntity
  8
MODEL
  6
Continuous
100
AcDbLine
 10
265.1557996141129
 20
999.2463700923413
 30
0.0
 11
240.1558048295192
 21
999.2463700923413
 31
0.0
  0
LINE
  5
FB7
330
A
100
AcDbEntity
  8
MODEL
  6
Continuous
100
AcDbLine
 10
240.1084787415677
 20
984.2463545951334
 30
0.0
 11
240.1084787415677
 21
999.2463700923413
 31
0.0
  0
LINE
  5
FB8
330
A
100
AcDbEntity
  8
MODEL
  6
Continuous
100
AcDbLine
 10
240.0751001404935
 20
984.2463545951334
 30
0.0
 11
240.1084787415677
 21
984.2463545951334
 31
0.0
  0
LINE
  5
FB9
330
A
100
AcDbEntity
  8
MODEL
  6
Continuous
100
AcDbLine
 10
240.0660029815846
 20
999.2463700923413
 30
0.0
 11
240.0751001404935
 21
984.2463545951334
 31
0.0
  0
LINE
  5
FBA
330
A
100
AcDbEntity
  8
MODEL
  6
Continuous
100
AcDbLine
 10
240.0660029815846
 20
999.2463700923413
 30
0.0
 11
240.1084787415677
 21
999.2463700923413
 31
0.0
  0
LINE
  5
FBB
330
A
100
AcDbEntity
  8
MODEL
  6
Continuous
100
AcDbLine
 10
240.1133290695363
 20
984.2463545951334
 30
0.0
 11
240.1084787415677
 21
984.2463545951334
 31
0.0
  0
LINE
  5
FBC
330
A
100
AcDbEntity
  8
MODEL
  6
Continuous
100
AcDbLine
 10
240.1084787415677
 20
999.2463700923413
 30
0.0
 11
240.1133290695363
 21
999.2463700923413
 31
0.0
  0
LINE
  5
FBD
330
A
100
AcDbEntity
  8
MODEL
  6
Continuous
100
AcDbLine
 10
240.1084787415674
 20
384.2463605555984
 30
0.0
 11
240.1084787415674
 21
399.2463462504836
 31
0.0
  0
LINE
  5
FBE
330
A
100
AcDbEntity
  8
MODEL
  6
Continuous
100
AcDbLine
 10
240.0660029815843
 20
384.2463605555984
 30
0.0
 11
240.1084787415674
 21
384.2463605555984
 31
0.0
  0
LINE
  5
FBF
330
A
100
AcDbEntity
  8
MODEL
  6
Continuous
100
AcDbLine
 10
240.0751001404932
 20
399.2463462504836
 30
0.0
 11
240.0660029815843
 21
384.2463605555984
 31
0.0
  0
LINE
  5
FC0
330
A
100
AcDbEntity
  8
MODEL
  6
Continuous
100
AcDbLine
 10
240.0751001404932
 20
399.2463462504836
 30
0.0
 11
240.1084787415674
 21
399.2463462504836
 31
0.0
  0
LINE
  5
FC1
330
A
100
AcDbEntity
  8
MODEL
  6
Continuous
100
AcDbLine
 10
240.113329069536
 20
384.2463605555984
 30
0.0
 11
240.1084787415674
 21
384.2463605555984
 31
0.0
  0
LINE
  5
FC2
330
A
100
AcDbEntity
  8
MODEL
  6
Continuous
100
AcDbLine
 10
240.1084787415674
 20
399.2463462504836
 30
0.0
 11
240.113329069536
 21
399.2463462504836
 31
0.0
  0
LINE
  5
FC3
330
A
100
AcDbEntity
  8
MODEL
  6
Continuous
100
AcDbLine
 10
240.1558048295191
 20
384.2463605555984
 30
0.0
 11
265.1557996141127
 21
384.2463605555984
 31
0.0
  0
LINE
  5
FC4
330
A
100
AcDbEntity
  8
MODEL
  6
Continuous
100
AcDbLine
 10
240.1558048295191
 20
384.2463605555984
 30
0.0
 11
240.1467002200297
 21
399.2463462504836
 31
0.0
  0
LINE
  5
FC5
330
A
100
AcDbEntity
  8
MODEL
  6
Continuous
100
AcDbLine
 10
240.113329069536
 20
399.2463462504836
 30
0.0
 11
240.113329069536
 21
384.2463605555984
 31
0.0
  0
LINE
  5
FC6
330
A
100
AcDbEntity
  8
MODEL
  6
Continuous
100
AcDbLine
 10
240.1467002200297
 20
399.2463462504836
 30
0.0
 11
240.113329069536
 21
399.2463462504836
 31
0.0
  0
LINE
  5
FC7
330
A
100
AcDbEntity
  8
MODEL
  6
Continuous
100
AcDbLine
 10
240.1558048295191
 20
384.2463605555984
 30
0.0
 11
240.113329069536
 21
384.2463605555984
 31
0.0
  0
LINE
  5
FC8
330
A
100
AcDbEntity
  8
MODEL
  6
Continuous
100
AcDbLine
 10
240.1558048295192
 20
999.2463700923413
 30
0.0
 11
240.1558048295191
 21
384.2463605555984
 31
0.0
  0
LINE
  5
FC9
330
A
100
AcDbEntity
  8
MODEL
  6
Continuous
100
AcDbLine
 10
240.1467002200299
 20
984.2463545951334
 30
0.0
 11
240.1467002200297
 21
399.2463462504836
 31
0.0
  0
LINE
  5
FCA
330
A
100
AcDbEntity
  8
MODEL
  6
Continuous
100
AcDbLine
 10
265.1557996141129
 20
999.2463700923413
 30
0.0
 11
265.1557996141127
 21
384.2463605555984
 31
0.0
  0
LINE
  5
FCB
330
A
100
AcDbEntity
  8
MODEL
  6
Continuous
100
AcDbLine
 10
240.0751001404935
 20
984.2463545951334
 30
0.0
 11
240.0751001404932
 21
399.2463462504836
 31
0.0
  0
LINE
  5
FCC
330
A
100
AcDbEntity
  8
MODEL
  6
Continuous
100
AcDbLine
 10
240.0660029815846
 20
999.2463700923413
 30
0.0
 11
240.0660029815843
 21
384.2463605555984
 31
0.0
  0
LINE
  5
1007
330
A
100
AcDbEntity
  8
MODEL
  6
Continuous
100
AcDbLine
 10
594.3889161602991
 20
399.261366620967
 30
0.0
 11
594.3889161602991
 21
399.2463462504836
 31
0.0
  0
LINE
  5
1008
330
A
100
AcDbEntity
  8
MODEL
  6
Continuous
100
AcDbLine
 10
601.9189124958057
 20
399.2463462504836
 30
0.0
 11
601.9189124958057
 21
399.261366620967
 31
0.0
  0
LINE
  5
1009
330
A
100
AcDbEntity
  8
MODEL
  6
Continuous
100
AcDbLine
 10
559.7816398398418
 20
399.261366620967
 30
0.0
 11
559.7816398398418
 21
399.2463462504836
 31
0.0
  0
LINE
  5
100A
330
A
100
AcDbEntity
  8
MODEL
  6
Continuous
100
AcDbLine
 10
567.3116399006384
 20
399.2463462504836
 30
0.0
 11
567.3116399006384
 21
399.261366620967
 31
0.0
  0
LINE
  5
100B
330
A
100
AcDbEntity
  8
MODEL
  6
Continuous
100
AcDbLine
 10
559.7816398398418
 20
999.2613606605023
 30
0.0
 11
559.7816398398418
 21
999.2463700923413
 31
0.0
  0
LINE
  5
100F
330
A
100
AcDbEntity
  8
MODEL
  6
Continuous
100
AcDbLine
 10
577.8577094928759
 20
988.7463562640644
 30
0.0
 11
583.8507553593655
 21
988.7463562640644
 31
0.0
  0
LINE
  5
1010
330
A
100
AcDbEntity
  8
MODEL
  6
Continuous
100
AcDbLine
 10
583.8507553593655
 20
994.7463684234115
 30
0.0
 11
577.8577094928759
 21
994.7463684234115
 31
0.0
  0
LINE
  5
1011
330
A
100
AcDbEntity
  8
MODEL
  6
Continuous
100
AcDbLine
 10
577.8577094928759
 20
388.7463622245284
 30
0.0
 11
583.8507553593653
 21
388.7463622245284
 31
0.0
  0
LINE
  5
1012
330
A
100
AcDbEntity
  8
MODEL
  6
Continuous
100
AcDbLine
 10
583.8507553593653
 20
394.7463445815536
 30
0.0
 11
577.8577094928759
 21
394.7463445815536
 31
0.0
  0
LINE
  5
1013
330
A
100
AcDbEntity
  8
MODEL
  6
Continuous
100
AcDbLine
 10
594.3889161602991
 20
399.261366620967
 30
0.0
 11
601.9189124958057
 21
399.261366620967
 31
0.0
  0
LINE
  5
1014
330
A
100
AcDbEntity
  8
MODEL
  6
Continuous
100
AcDbLine
 10
559.7816398398418
 20
399.261366620967
 30
0.0
 11
567.3116399006384
 21
399.261366620967
 31
0.0
  0
ARC
  5
1017
330
A
100
AcDbEntity
  8
MODEL
  6
Continuous
100
AcDbCircle
 10
-5423.016943115588
 20
391.7463534030881
 30
0.0
 40
6000.878734167009
100
AcDbArc
 50
359.9307776161948
 51
0.0692223838027475
  0
LINE
  5
1018
330
A
100
AcDbEntity
  8
MODEL
  6
Continuous
100
AcDbLine
 10
577.857411469652
 20
384.4963424357863
 30
0.0
 11
576.8578639285105
 21
384.4963424357863
 31
0.0
  0
LINE
  5
101A
330
A
100
AcDbEntity
  8
MODEL
  6
Continuous
100
AcDbLine
 10
576.8578639285105
 20
398.9963643702956
 30
0.0
 11
577.857411469652
 21
398.9963643702956
 31
0.0
  0
LINE
  5
101D
330
A
100
AcDbEntity
  8
MODEL
  6
Continuous
100
AcDbLine
 10
584.8577087776205
 20
998.4963648471323
 30
0.0
 11
584.8577087776205
 21
984.9963598403424
 31
0.0
  0
LINE
  5
1022
330
A
100
AcDbEntity
  8
MODEL
  6
Continuous
100
AcDbLine
 10
583.8431483165762
 20
998.9963584098314
 30
0.0
 11
583.8574087278387
 21
998.9963584098314
 31
0.0
  0
LINE
  5
1025
330
A
100
AcDbEntity
  8
MODEL
  6
Continuous
100
AcDbLine
 10
583.8574087278387
 20
984.4963662776445
 30
0.0
 11
583.8431483165762
 21
984.4963662776445
 31
0.0
  0
ARC
  5
1026
330
A
100
AcDbEntity
  8
MODEL
  6
Continuous
100
AcDbCircle
 10
786.6528006616628
 20
984.8702708197425
 30
0.0
 40
202.8099970143028
100
AcDbArc
 50
179.9643786337217
 51
180.1056316979169
  0
LINE
  5
1027
330
A
100
AcDbEntity
  8
MODEL
  6
Continuous
100
AcDbLine
 10
583.8428428427716
 20
984.9963598403424
 30
0.0
 11
583.8428428427716
 21
988.7463562640644
 31
0.0
  0
LINE
  5
1028
330
A
100
AcDbEntity
  8
MODEL
  6
Continuous
100
AcDbLine
 10
583.8428428427716
 20
988.7463562640644
 30
0.0
 11
583.8431483165762
 21
998.9963584098314
 31
0.0
  0
LINE
  5
1029
330
A
100
AcDbEntity
  8
MODEL
  6
Continuous
100
AcDbLine
 10
584.8574107543965
 20
984.4963662776445
 30
0.0
 11
583.8574087278387
 21
984.4963662776445
 31
0.0
  0
ARC
  5
102A
330
A
100
AcDbEntity
  8
MODEL
  6
Continuous
100
AcDbCircle
 10
373.4909386409366
 20
984.8723490047084
 30
0.0
 40
211.3668065158317
100
AcDbArc
 50
359.89808127801
 51
0.0336159590074988
  0
LINE
  5
102B
330
A
100
AcDbEntity
  8
MODEL
  6
Continuous
100
AcDbLine
 10
583.8574087278387
 20
998.9963584098314
 30
0.0
 11
584.8574107543965
 21
998.9963584098314
 31
0.0
  0
ARC
  5
102C
330
A
100
AcDbEntity
  8
MODEL
  6
Continuous
100
AcDbCircle
 10
373.4909386409366
 20
998.6203756827674
 30
0.0
 40
211.3668065158317
100
AcDbArc
 50
359.9663840409924
 51
0.1019187219898988
  0
LINE
  5
102D
330
A
100
AcDbEntity
  8
MODEL
  6
Continuous
100
AcDbLine
 10
577.8577094928759
 20
984.9963598403424
 30
0.0
 11
577.8577094928759
 21
998.4963648471323
 31
0.0
  0
LINE
  5
102E
330
A
100
AcDbEntity
  8
MODEL
  6
Continuous
100
AcDbLine
 10
576.8578639285105
 20
998.9963584098314
 30
0.0
 11
577.857411469652
 21
998.9963584098314
 31
0.0
  0
ARC
  5
102F
330
A
100
AcDbEntity
  8
MODEL
  6
Continuous
100
AcDbCircle
 10
366.4909393978053
 20
998.6203756827924
 30
0.0
 40
211.3668064742186
100
AcDbArc
 50
359.9663840409791
 51
0.1019187220031844
  0
ARC
  5
1030
330
A
100
AcDbEntity
  8
MODEL
  6
Continuous
100
AcDbCircle
 10
366.4909393978053
 20
984.8723490046834
 30
0.0
 40
211.3668064742186
100
AcDbArc
 50
359.8980812779968
 51
0.0336159590208968
  0
LINE
  5
1031
330
A
100
AcDbEntity
  8
MODEL
  6
Continuous
100
AcDbLine
 10
577.857411469652
 20
984.4963662776445
 30
0.0
 11
576.8578639285105
 21
984.4963662776445
 31
0.0
  0
LINE
  5
1035
330
A
100
AcDbEntity
  8
MODEL
  6
Continuous
100
AcDbLine
 10
583.8574087278382
 20
384.4963424357863
 30
0.0
 11
583.8431483165757
 21
384.4963424357863
 31
0.0
  0
LINE
  5
103D
330
A
100
AcDbEntity
  8
MODEL
  6
Continuous
100
AcDbLine
 10
584.8574107543964
 20
384.4963424357863
 30
0.0
 11
583.8574087278382
 21
384.4963424357863
 31
0.0
  0
ARC
  5
103F
330
A
100
AcDbEntity
  8
MODEL
  6
Continuous
100
AcDbCircle
 10
373.4522856275591
 20
384.8723555929291
 30
0.0
 40
211.4054595221892
100
AcDbArc
 50
359.8980916654017
 51
0.0336096425867697
  0
LINE
  5
1041
330
A
100
AcDbEntity
  8
MODEL
  6
Continuous
100
AcDbLine
 10
584.85770877762
 20
398.4963708075973
 30
0.0
 11
584.85770877762
 21
384.9963658008071
 31
0.0
  0
LINE
  5
1042
330
A
100
AcDbEntity
  8
MODEL
  6
Continuous
100
AcDbLine
 10
583.8574087278382
 20
398.9963643702956
 30
0.0
 11
584.8574107543964
 21
398.9963643702956
 31
0.0
  0
ARC
  5
1043
330
A
100
AcDbEntity
  8
MODEL
  6
Continuous
100
AcDbCircle
 10
373.4909386409694
 20
398.6203816432321
 30
0.0
 40
211.3668065157987
100
AcDbArc
 50
359.9663840409924
 51
0.1019187219899147
  0
LINE
  5
1044
330
A
100
AcDbEntity
  8
MODEL
  6
Continuous
100
AcDbLine
 10
576.8578639285105
 20
984.2463545951334
 30
0.0
 11
576.8578639285105
 21
999.2463700923413
 31
0.0
  0
LINE
  5
1045
330
A
100
AcDbEntity
  8
MODEL
  6
Continuous
100
AcDbLine
 10
521.8578735397596
 20
984.2463545951343
 30
0.0
 11
576.8578639285105
 21
984.2463545951334
 31
0.0
  0
LINE
  5
1046
330
A
100
AcDbEntity
  8
MODEL
  6
Continuous
100
AcDbLine
 10
506.8578768436263
 20
999.2463700923413
 30
0.0
 11
521.8578735397596
 21
984.2463545951343
 31
0.0
  0
LINE
  5
1047
330
A
100
AcDbEntity
  8
MODEL
  6
Continuous
100
AcDbLine
 10
506.8578768436263
 20
999.2463700923413
 30
0.0
 11
576.8578639285105
 21
999.2463700923413
 31
0.0
  0
LINE
  5
1048
330
A
100
AcDbEntity
  8
MODEL
  6
Continuous
100
AcDbLine
 10
506.8578768436263
 20
999.2463700923413
 30
0.0
 11
506.8427070540772
 21
999.2463700923413
 31
0.0
  0
LINE
  5
1049
330
A
100
AcDbEntity
  8
MODEL
  6
Continuous
100
AcDbLine
 10
584.8578652398129
 20
999.2463700923413
 30
0.0
 11
584.8578652398129
 21
984.2463545951334
 31
0.0
  0
LINE
  5
104A
330
A
100
AcDbEntity
  8
MODEL
  6
Continuous
100
AcDbLine
 10
584.8578652398129
 20
984.2463545951334
 30
0.0
 11
584.8426958577177
 21
984.2463545951334
 31
0.0
  0
LINE
  5
104E
330
A
100
AcDbEntity
  8
MODEL
  6
Continuous
100
AcDbLine
 10
639.8578500406285
 20
984.2463545951334
 30
0.0
 11
654.8578506366748
 21
999.2463700923413
 31
0.0
  0
LINE
  5
104F
330
A
100
AcDbEntity
  8
MODEL
  6
Continuous
100
AcDbLine
 10
654.8578506366748
 20
999.2463700923413
 30
0.0
 11
584.8578652398129
 21
999.2463700923413
 31
0.0
  0
LINE
  5
1050
330
A
100
AcDbEntity
  8
MODEL
  6
Continuous
100
AcDbLine
 10
639.8578500406285
 20
984.2463545951334
 30
0.0
 11
584.8578652398129
 21
984.2463545951334
 31
0.0
  0
LINE
  5
1051
330
A
100
AcDbEntity
  8
MODEL
  6
Continuous
100
AcDbLine
 10
584.8578652398127
 20
399.2463462504836
 30
0.0
 11
584.8578652398127
 21
384.2463605555984
 31
0.0
  0
LINE
  5
1052
330
A
100
AcDbEntity
  8
MODEL
  6
Continuous
100
AcDbLine
 10
639.8578500406284
 20
399.2463462504836
 30
0.0
 11
584.8578652398127
 21
399.2463462504836
 31
0.0
  0
LINE
  5
1053
330
A
100
AcDbEntity
  8
MODEL
  6
Continuous
100
AcDbLine
 10
654.8578506366747
 20
384.2463605555984
 30
0.0
 11
639.8578500406284
 21
399.2463462504836
 31
0.0
  0
LINE
  5
1054
330
A
100
AcDbEntity
  8
MODEL
  6
Continuous
100
AcDbLine
 10
654.8578506366747
 20
384.2463605555984
 30
0.0
 11
584.8578652398127
 21
384.2463605555984
 31
0.0
  0
LINE
  5
1055
330
A
100
AcDbEntity
  8
MODEL
  6
Continuous
100
AcDbLine
 10
584.8426958577172
 20
384.2463605555984
 30
0.0
 11
584.8426958577172
 21
384.4963424357863
 31
0.0
  0
LINE
  5
1058
330
A
100
AcDbEntity
  8
MODEL
  6
Continuous
100
AcDbLine
 10
584.8578652398127
 20
384.2463605555984
 30
0.0
 11
584.8426958577172
 21
384.2463605555984
 31
0.0
  0
LINE
  5
1059
330
A
100
AcDbEntity
  8
MODEL
  6
Continuous
100
AcDbLine
 10
576.8578639285105
 20
384.2463605555984
 30
0.0
 11
576.8578639285105
 21
399.2463462504836
 31
0.0
  0
LINE
  5
105A
330
A
100
AcDbEntity
  8
MODEL
  6
Continuous
100
AcDbLine
 10
521.8578735397596
 20
399.2463462504838
 30
0.0
 11
506.8578768436263
 21
384.2463605555986
 31
0.0
  0
LINE
  5
105B
330
A
100
AcDbEntity
  8
MODEL
  6
Continuous
100
AcDbLine
 10
521.8578735397596
 20
399.2463462504838
 30
0.0
 11
576.8578639285105
 21
399.2463462504836
 31
0.0
  0
LINE
  5
105C
330
A
100
AcDbEntity
  8
MODEL
  6
Continuous
100
AcDbLine
 10
506.8578768436263
 20
384.2463605555986
 30
0.0
 11
576.8578639285105
 21
384.2463605555984
 31
0.0
  0
LINE
  5
105D
330
A
100
AcDbEntity
  8
MODEL
  6
Continuous
100
AcDbLine
 10
506.8427070540772
 20
384.2463605555986
 30
0.0
 11
506.8578768436263
 21
384.2463605555986
 31
0.0
  0
LINE
  5
105E
102
{ACAD_REACTORS
330
1F05
102
}
330
A
100
AcDbEntity
  8
MODEL
  6
Continuous
100
AcDbLine
 10
521.8578735397596
 20
984.2463545951343
 30
0.0
 11
521.8578735397596
 21
399.2463462504838
 31
0.0
  0
LINE
  5
105F
102
{ACAD_REACTORS
330
1F05
102
}
330
A
100
AcDbEntity
  8
MODEL
  6
Continuous
100
AcDbLine
 10
506.8578768436263
 20
999.2463700923413
 30
0.0
 11
506.8578768436263
 21
384.2463605555986
 31
0.0
  0
LINE
  5
1061
330
A
100
AcDbEntity
  8
MODEL
  6
Continuous
100
AcDbLine
 10
654.8578506366748
 20
999.2463700923413
 30
0.0
 11
654.8578506366747
 21
384.2463605555984
 31
0.0
  0
LINE
  5
1062
330
A
100
AcDbEntity
  8
MODEL
  6
Continuous
100
AcDbLine
 10
639.8578500406285
 20
984.2463545951334
 30
0.0
 11
639.8578500406284
 21
399.2463462504836
 31
0.0
  0
DIMENSION
  5
1169
330
A
100
AcDbEntity
  8
寸法
100
AcDbDimension
  2
*D17
 10
584.8578652398129
 20
1026.1520548077
 30
0.0
 11
666.7698652398129
 21
1026.1520548077
 31
0.0
 70
   160
  1
ガラス厚み 8～12mm
 71
     1
 42
7.999999999999091
 73
     0
 74
     1
 75
     1
  3
tfrom線あり
100
AcDbAlignedDimension
 13
576.8578652398138
 23
999.2463700923413
 33
0.0
 14
584.8578652398129
 24
999.2463700923413
 34
0.0
100
AcDbRotatedDimension
1001
ACAD
1000
DSTYLE
1002
{
1070
   172
1070
     1
1002
}
  0
LINE
  5
1370
102
{ACAD_REACTORS
330
14AA
330
155B
102
}
330
A
100
AcDbEntity
  8
MODEL
 48
0.05
100
AcDbLine
 10
265.1557996141129
 20
1123.717686541556
 30
0.0
 11
265.1557996141129
 21
1194.717221167582
 31
0.0
  0
LINE
  5
1371
102
{ACAD_REACTORS
330
155B
102
}
330
A
100
AcDbEntity
  8
MODEL
 48
0.05
100
AcDbLine
 10
240.1558048295192
 20
1123.717686541556
 30
0.0
 11
240.1558048295192
 21
1194.717221167582
 31
0.0
  0
LINE
  5
1444
330
A
100
AcDbEntity
  8
MODEL
 48
0.05
100
AcDbLine
 10
265.1557996141129
 20
1123.717686541556
 30
0.0
 11
240.1558048295192
 21
1123.717686541556
 31
0.0
  0
LINE
  5
1445
330
A
100
AcDbEntity
  8
MODEL
  6
HIDDEN
 48
0.019
100
AcDbLine
 10
265.1557996141129
 20
1138.717683237689
 30
0.0
 11
240.1558048295192
 21
1138.717683237689
 31
0.0
  0
LINE
  5
1446
330
A
100
AcDbEntity
  8
MODEL
 48
0.05
100
AcDbLine
 10
265.1557996141129
 20
1193.71767362644
 30
0.0
 11
240.1558048295192
 21
1193.71767362644
 31
0.0
  0
LINE
  5
1447
330
A
100
AcDbEntity
  8
MODEL
 48
0.05
100
AcDbLine
 10
265.1557996141129
 20
1194.717221167582
 30
0.0
 11
240.1558048295192
 21
1194.717221167582
 31
0.0
  0
LINE
  5
1448
330
A
100
AcDbEntity
  8
MODEL
 48
0.05
100
AcDbLine
 10
265.1557996141129
 20
1200.702958014506
 30
0.0
 11
240.1558048295192
 21
1200.702958014506
 31
0.0
  0
LINE
  5
1449
330
A
100
AcDbEntity
  8
MODEL
 48
0.05
100
AcDbLine
 10
265.1557996141129
 20
1201.717674937743
 30
0.0
 11
240.1558048295192
 21
1201.717674937743
 31
0.0
  0
LINE
  5
144A
330
A
100
AcDbEntity
  8
MODEL
  6
HIDDEN
 48
0.019
100
AcDbLine
 10
265.1557996141129
 20
1256.702490356463
 30
0.0
 11
240.1558048295192
 21
1256.702490356463
 31
0.0
  0
LINE
  5
144B
330
A
100
AcDbEntity
  8
MODEL
 48
0.05
100
AcDbLine
 10
265.1557996141129
 20
1271.717660334604
 30
0.0
 11
240.1558048295192
 21
1271.717660334604
 31
0.0
  0
LINE
  5
144C
330
A
100
AcDbEntity
  8
MODEL
  6
Continuous
100
AcDbLine
 10
255.6558083014892
 20
1194.717221167582
 30
0.0
 11
255.6558083014892
 21
1200.710267034072
 31
0.0
  0
LINE
  5
144D
330
A
100
AcDbEntity
  8
MODEL
  6
Continuous
100
AcDbLine
 10
249.6557961421421
 20
1200.710267034072
 30
0.0
 11
249.6557961421421
 21
1194.717221167582
 31
0.0
  0
LINE
  5
14A0
330
A
100
AcDbEntity
  8
MODEL
 48
0.05
100
AcDbLine
 10
240.1558048295192
 20
1200.702958014506
 30
0.0
 11
240.1558048295192
 21
1271.717660334604
 31
0.0
  0
LINE
  5
14A1
330
A
100
AcDbEntity
  8
MODEL
 48
0.05
100
AcDbLine
 10
265.1557996141129
 20
1200.702958014506
 30
0.0
 11
265.1557996141129
 21
1271.717660334604
 31
0.0
  0
DIMENSION
  5
14A8
102
{ACAD_REACTORS
330
14AA
102
}
102
{ACAD_XDICTIONARY
360
14A9
102
}
330
A
100
AcDbEntity
  8
寸法
 48
0.05
100
AcDbDimension
  2
*D40
 10
308.5123241008883
 20
1193.71767362644
 30
0.0
 11
297.5123241008883
 21
1158.717680083998
 31
0.0
 70
    32
 71
     5
 42
69.99998708488397
 73
     0
 74
     0
 75
     0
  3
tfrom線あり
100
AcDbAlignedDimension
 13
265.1557996141129
 23
1123.717686541556
 33
0.0
 14
265.1557996141129
 24
1193.71767362644
 34
0.0
 50
90.0
100
AcDbRotatedDimension
  0
DIMENSION
  5
14CD
330
A
100
AcDbEntity
  8
寸法
100
AcDbDimension
  2
*D41
 10
330.0673578702362
 20
384.2313656517961
 30
0.0
 11
330.0673578702362
 21
690.6096007194237
 31
0.0
 70
   160
 71
     1
 42
615.0000000000002
 73
     0
 74
     0
 75
     0
 52
-89.99999999999999
  3
tfrom線あり
100
AcDbAlignedDimension
 13
264.7821511448292
 23
999.2313656517963
 33
0.0
 14
264.7821511448271
 24
384.2313656517961
 34
0.0
 50
-89.99999999999999
100
AcDbRotatedDimension
  0
LINE
  5
14F1
330
A
100
AcDbEntity
  8
MODEL
  6
HIDDEN
 48
0.019
100
AcDbLine
 10
265.1557996141129
 20
984.2463545951341
 30
0.0
 11
240.1558048295192
 21
984.2463545951341
 31
0.0
  0
LINE
  5
14F2
330
A
100
AcDbEntity
  8
MODEL
  6
HIDDEN
 48
0.019
100
AcDbLine
 10
265.1557996141129
 20
399.2463760528055
 30
0.0
 11
240.1558048295192
 21
399.2463760528055
 31
0.0
  0
DIMENSION
  5
152B
330
A
100
AcDbEntity
  8
寸法
 48
0.05
100
AcDbDimension
  2
*D43
 10
205.8622781931066
 20
984.2463545951341
 30
0.0
 11
205.8622781931066
 21
991.7463623437377
 31
0.0
 70
   160
 71
     5
 42
15.00001549720719
 73
     0
 74
     0
 75
     0
 52
-90.0
  3
tfrom線あり
100
AcDbAlignedDimension
 13
240.1558048295192
 23
999.2463700923413
 33
0.0
 14
240.1558048295192
 24
984.2463545951341
 34
0.0
 50
90.00000000000001
100
AcDbRotatedDimension
  0
DIMENSION
  5
1559
102
{ACAD_REACTORS
330
155B
102
}
102
{ACAD_XDICTIONARY
360
155A
102
}
330
A
100
AcDbEntity
  8
寸法
 48
0.05
100
AcDbDimension
  2
*D44
 10
265.1557996141129
 20
1086.770185385213
 30
0.0
 11
252.6558022218161
 21
1097.770185385213
 31
0.0
 70
    32
 71
     5
 42
24.99999478459364
 73
     0
 74
     0
 75
     0
  3
tfrom線あり
100
AcDbAlignedDimension
 13
240.1558048295192
 23
1123.717686541556
 33
0.0
 14
265.1557996141129
 24
1123.717686541556
 34
0.0
100
AcDbRotatedDimension
  0
LINE
  5
15EA
330
A
100
AcDbEntity
  8
MODEL
 48
0.05
100
AcDbLine
 10
583.8574087278382
 20
398.9963643702956
 30
0.0
 11
583.8574087278382
 21
384.4963424357863
 31
0.0
  0
LINE
  5
1EC3
330
A
100
AcDbEntity
  8
CENTER
100
AcDbLine
 10
836.1008768422136
 20
991.7463623437374
 30
0.0
 11
855.1936636484676
 21
991.7463623437374
 31
0.0
  0
LINE
  5
1EC4
330
A
100
AcDbEntity
  8
CENTER
100
AcDbLine
 10
845.6472702453408
 20
982.1999689406103
 30
0.0
 11
845.6472702453408
 21
1001.292755746864
 31
0.0
  0
CIRCLE
  5
1EC5
102
{ACAD_REACTORS
330
1EC8
102
}
330
A
100
AcDbEntity
  8
モデル
100
AcDbCircle
 10
845.6472702453408
 20
391.7463623437373
 30
0.0
 40
4.5
  0
LINE
  5
1EC6
330
A
100
AcDbEntity
  8
CENTER
100
AcDbLine
 10
836.1008768422136
 20
391.7463623437373
 30
0.0
 11
855.1936636484676
 21
391.7463623437373
 31
0.0
  0
LINE
  5
1EC7
330
A
100
AcDbEntity
  8
CENTER
100
AcDbLine
 10
845.6472702453408
 20
401.2927557468643
 30
0.0
 11
845.6472702453408
 21
382.1999689406103
 31
0.0
  0
HATCH
  5
1EC8
330
A
100
AcDbEntity
  8
モデル
100
AcDbHatch
 10
0.0
 20
0.0
 30
0.0
210
0.0
220
0.0
230
1.0
  2
ANSI31
 70
     0
 71
     1
 91
        1
 92
        1
 93
        1
 72
     2
 10
845.6472702453408
 20
391.7463623437373
 40
4.5
 50
0.0
 51
360.0
 73
     1
 97
        1
330
1EC5
 75
     0
 76
     1
 52
0.0
 41
0.5
 77
     0
 78
     1
 53
45.0
 43
-14.07069409665939
 44
8.39977496023613
 45
-1.122532015133644
 46
1.122532015133644
 79
     0
 98
        1
 10
344.5186402174537
 20
-773.1330734478344
1001
ACAD
1010
0.0
1020
0.0
1030
0.0
  0
CIRCLE
  5
1EC9
102
{ACAD_REACTORS
330
1ECA
102
}
330
A
100
AcDbEntity
  8
モデル
100
AcDbCircle
 10
845.6472702453408
 20
991.7463623437374
 30
0.0
 40
4.5
  0
HATCH
  5
1ECA
330
A
100
AcDbEntity
  8
モデル
100
AcDbHatch
 10
0.0
 20
0.0
 30
0.0
210
0.0
220
0.0
230
1.0
  2
ANSI31
 70
     0
 71
     1
 91
        1
 92
        1
 93
        1
 72
     2
 10
845.6472702453408
 20
991.7463623437374
 40
4.5
 50
0.0
 51
360.0
 73
     1
 97
        1
330
1EC9
 75
     0
 76
     1
 52
0.0
 41
0.5
 77
     0
 78
     1
 53
45.0
 43
-14.07069409665939
 44
8.39977496023613
 45
-1.122532015133644
 46
1.122532015133644
 79
     0
 98
        1
 10
344.5186402174537
 20
-173.1330734478342
1001
ACAD
1010
0.0
1020
0.0
1030
0.0
  0
TEXT
  5
1ECB
330
A
100
AcDbEntity
  8
寸法
100
AcDbText
 10
843.0380804052072
 20
1038.393748806151
 30
0.0
 40
12.0
  1
<切欠図>
  7
ＭＳ ゴシック
100
AcDbText
  0
DIMENSION
  5
1ECC
330
A
100
AcDbEntity
  8
寸法
100
AcDbDimension
  2
*D59
 10
909.1985541786572
 20
391.7463623437373
 30
0.0
 11
898.1985541786572
 21
691.7463623437372
 31
0.0
 70
    32
 71
     5
 42
600.0
 73
     0
 74
     0
 75
     0
  3
tfrom線あり
100
AcDbAlignedDimension
 13
855.1936636484676
 23
991.7463623437374
 33
0.0
 14
855.1936636484676
 24
391.7463623437373
 34
0.0
 50
90.0
100
AcDbRotatedDimension
  0
TEXT
  5
1ECD
330
A
100
AcDbEntity
  8
寸法
100
AcDbText
 10
818.9172416567603
 20
359.8828394541276
 30
0.0
 40
12.0
  1
ø9
 50
360.0
  7
ＭＳ ゴシック
100
AcDbText
  0
LINE
  5
1ECE
330
A
100
AcDbEntity
  8
寸法
 48
0.05
100
AcDbLine
 10
843.1222647900778
 20
388.0215338307864
 30
0.0
 11
832.7254924339785
 21
374.0974099123342
 31
0.0
  0
TEXT
  5
1ECF
330
A
100
AcDbEntity
  8
寸法
100
AcDbText
 10
819.2167388724033
 20
960.2839482022092
 30
0.0
 40
12.0
  1
ø9
 50
360.0
  7
ＭＳ ゴシック
100
AcDbText
  0
LINE
  5
1ED0
330
A
100
AcDbEntity
  8
寸法
 48
0.05
100
AcDbLine
 10
843.1222647900778
 20
988.0215338307864
 30
0.0
 11
832.7254924339785
 21
974.0974099123341
 31
0.0
  0
MTEXT
  5
1EEA
102
{ACAD_XDICTIONARY
360
1EEC
102
}
330
A
100
AcDbEntity
  8
MODEL
 48
0.05
100
AcDbMText
 10
37.210718077219
 20
43.96370270934844
 30
0.0
 40
11.0
 41
0.0
 46
11.0
 71
     1
 72
     1
  1
{20191202N}
  7
ＭＳ ゴシック
 73
     1
 44
1.0
1001
ACAD
1000
ACAD_MTEXT_DEFINED_HEIGHT_BEGIN
1070
    46
1040
11.0
1000
ACAD_MTEXT_DEFINED_HEIGHT_END
  0
DIMENSION
  5
1F03
102
{ACAD_REACTORS
330
1F05
102
}
102
{ACAD_XDICTIONARY
360
1F04
102
}
330
A
100
AcDbEntity
  8
寸法
 48
0.05
100
AcDbDimension
  2
*D60
 10
521.8578735397596
 20
691.7463653239699
 30
0.0
 11
491.2818768436263
 21
691.7463653239699
 31
0.0
 70
   160
 71
     5
 42
14.99999669613328
 73
     0
 74
     1
 75
     1
  3
tfrom線あり
100
AcDbAlignedDimension
 13
506.8578768436263
 23
691.7463653239699
 33
0.0
 14
521.8578735397596
 24
691.7463504228091
 34
0.0
100
AcDbRotatedDimension
1001
ACAD
1000
DSTYLE
1002
{
1070
    76
1070
     1
1070
    75
1070
     1
1070
   172
1070
     1
1002
}
  0
DIMENSION
  5
2325
330
A
100
AcDbEntity
  8
寸法
100
AcDbDimension
  2
*D61
 10
708.8627411668643
 20
391.7463623437372
 30
0.0
 11
697.8627411668643
 21
691.7463623437372
 31
0.0
 70
    32
 71
     5
 42
600.0
 73
     0
 74
     0
 75
     0
  3
tfrom線あり
100
AcDbAlignedDimension
 13
654.8578506366747
 23
991.7463623437372
 33
0.0
 14
654.8578506366747
 24
391.7463623437372
 34
0.0
 50
90.0
100
AcDbRotatedDimension
  0
MTEXT
  5
2369
330
A
100
AcDbEntity
  8
TEMPLATE
390
1D
100
AcDbMText
 10
664.601072273995
 20
200.4566933469641
 30
0.0
 40
12.21630859375
 41
0.0
 46
13.38907421875
 71
     1
 72
     1
  1
{FRF82-2303-025　マットブラック}
  7
ＭＳ ゴシック
 73
     1
 44
0.7828267384257843
1001
ACAD
1000
ACAD_MTEXT_DEFINED_HEIGHT_BEGIN
1070
    46
1040
13.38907421875
1000
ACAD_MTEXT_DEFINED_HEIGHT_END
  0
MTEXT
  5
236A
330
A
100
AcDbEntity
  8
TEMPLATE
390
1D
100
AcDbMText
 10
664.601072273995
 20
220.5291413469641
 30
0.0
 40
12.21630859375
 41
0.0
 46
13.64561669921875
 71
     1
 72
     1
  1
{FRF82-2303-PVB　PVDブラック(ツヤあり)}
  7
ＭＳ ゴシック
 73
     1
 44
0.7828267384257843
1001
ACAD
1000
ACAD_MTEXT_DEFINED_HEIGHT_BEGIN
1070
    46
1040
13.64561669921875
1000
ACAD_MTEXT_DEFINED_HEIGHT_END
  0
MTEXT
  5
236B
330
A
100
AcDbEntity
  8
TEMPLATE
390
1D
100
AcDbMText
 10
664.601072273995
 20
240.6015893469641
 30
0.0
 40
12.21630859375
 41
0.0
 46
12.39955322265625
 71
     1
 72
     1
  1
{FRF82-2303-001　クローム}
  7
ＭＳ ゴシック
 73
     1
 44
0.7828267384257843
1001
ACAD
1000
ACAD_MTEXT_DEFINED_HEIGHT_BEGIN
1070
    46
1040
12.39955322265625
1000
ACAD_MTEXT_DEFINED_HEIGHT_END
  0
VIEWPORT
  5
349
330
B
100
AcDbEntity
 67
     1
  8
0
100
AcDbViewport
 10
202.5
 20
128.5
 30
0.0
 40
486.0
 41
308.4
 68
     1
 69
     1
 12
202.5
 22
128.5
 13
0.0
 23
0.0
 14
0.5
 24
0.5
 15
0.0
 25
0.0
 16
0.0
 26
0.0
 36
1.0
 17
0.0
 27
0.0
 37
0.0
 42
50.0
 43
0.0
 44
0.0
 45
308.4
 50
0.0
 51
0.0
 72
   100
 90
   557152
  1

281
     0
 71
     1
 74
     0
110
0.0
120
0.0
130
0.0
111
1.0
121
0.0
131
0.0
112
0.0
122
1.0
132
0.0
 79
     0
146
0.0
170
     0
 61
     5
348
26C
292
     1
282
     1
141
0.0
142
0.0
 63
   256
  0
VIEWPORT
  5
34A
330
B
100
AcDbEntity
 67
     1
  8
0
100
AcDbViewport
 10
202.5
 20
128.5
 30
0.0
 40
324.0
 41
205.6
 68
     2
 69
     2
 12
986.6781359294573
 22
1427.077061889956
 13
0.0
 23
0.0
 14
0.5
 24
0.5
 15
0.0
 25
0.0
 16
0.0
 26
0.0
 36
1.0
 17
0.0
 27
0.0
 37
0.0
 42
50.0
 43
0.0
 44
0.0
 45
2890.021615685494
 50
0.0
 51
0.0
 72
   100
 90
   557152
  1

281
     0
 71
     1
 74
     0
110
0.0
120
0.0
130
0.0
111
1.0
121
0.0
131
0.0
112
0.0
122
1.0
132
0.0
 79
     0
146
0.0
170
     0
 61
     5
348
26C
292
     1
282
     1
141
0.0
142
0.0
 63
   256
  0
ENDSEC
  0
SECTION
  2
OBJECTS
  0
DICTIONARY
  5
19
330
0
100
AcDbDictionary
281
     1
  3
ACAD_COLOR
350
674
  3
ACAD_DETAILVIEWSTYLE
350
BBF
  3
ACAD_FIELDLIST
350
17ED
  3
ACAD_GROUP
350
1A
  3
ACAD_IMAGE_VARS
350
27B
  3
ACAD_LAYOUT
350
1E
  3
ACAD_MATERIAL
350
263
  3
ACAD_MLEADERSTYLE
350
336
  3
ACAD_MLINESTYLE
350
1B
  3
ACAD_PLOTSETTINGS
350
22
  3
ACAD_PLOTSTYLENAME
350
1F
  3
ACAD_SCALELIST
350
241
  3
ACAD_SECTIONVIEWSTYLE
350
BC0
  3
ACAD_TABLESTYLE
350
278
  3
ACAD_VISUALSTYLE
350
267
  3
ACDB_RECOMPOSE_DATA
350
2371
  3
AcDbVariableDictionary
350
330
  3
APPDATA
350
27A
  3
DimOffsetDictionary
350
1477
  0
SUN
  5
904
330
15
100
AcDbSun
 90
        1
290
     0
 63
     7
421
 16777215
 40
1.0
291
     1
 91
  2455826
 92
 54000000
292
     0
 70
     2
 71
   256
280
     1
  0
DICTIONARY
  5
2E1
330
2
100
AcDbDictionary
280
     1
281
     1
  3
ACAD_LAYERSTATES
360
2E2
  3
ACLYDICTIONARY
360
15AA
  0
DICTIONARY
  5
22F0
330
A
100
AcDbDictionary
280
     1
281
     1
  3
ACAD_SORTENTS
360
22F1
  0
DICTIONARY
  5
14A9
330
14A8
100
AcDbDictionary
280
     1
281
     1
  3
ACAD_DIMASSOC
360
14AA
  0
DICTIONARY
  5
155A
330
1559
100
AcDbDictionary
280
     1
281
     1
  3
ACAD_DIMASSOC
360
155B
  0
DICTIONARY
  5
1EEC
330
1EEA
100
AcDbDictionary
280
     1
281
     1
  3
ACAD_FIELD
360
2368
  0
DICTIONARY
  5
1F04
330
1F03
100
AcDbDictionary
280
     1
281
     1
  3
ACAD_DIMASSOC
360
1F05
  0
DICTIONARY
  5
674
102
{ACAD_REACTORS
330
19
102
}
330
19
100
AcDbDictionary
281
     1
  0
DICTIONARY
  5
BBF
102
{ACAD_REACTORS
330
19
102
}
330
19
100
AcDbDictionary
281
     1
  0
FIELDLIST
  5
17ED
102
{ACAD_REACTORS
330
19
102
}
330
19
100
AcDbIdSet
 90
        2
330
1EEE
330
1EEB
100
AcDbFieldList
  0
DICTIONARY
  5
1A
102
{ACAD_REACTORS
330
19
102
}
330
19
100
AcDbDictionary
281
     1
  0
RASTERVARIABLES
  5
27B
102
{ACAD_REACTORS
330
19
102
}
330
19
100
AcDbRasterVariables
 90
        0
 70
     1
 71
     1
 72
     1
  0
DICTIONARY
  5
1E
102
{ACAD_REACTORS
330
19
102
}
330
19
100
AcDbDictionary
281
     1
  3
Layout1
350
21
  3
Model
350
20
  0
DICTIONARY
  5
263
102
{ACAD_REACTORS
330
19
102
}
330
19
100
AcDbDictionary
281
     1
  3
ByBlock
350
10C6
  3
ByLayer
350
264
  3
Global
350
266
  0
DICTIONARY
  5
336
102
{ACAD_REACTORS
330
19
102
}
330
19
100
AcDbDictionary
281
     1
  3
Standard
350
D59
  0
DICTIONARY
  5
1B
102
{ACAD_REACTORS
330
19
102
}
330
19
100
AcDbDictionary
281
     1
  3
Standard
350
1C
  0
DICTIONARY
  5
22
102
{ACAD_REACTORS
330
19
102
}
330
19
100
AcDbDictionary
281
     1
  0
ACDBDICTIONARYWDFLT
  5
1F
102
{ACAD_REACTORS
330
19
102
}
330
19
100
AcDbDictionary
281
     1
  3
Normal
350
1D
100
AcDbDictionaryWithDefault
340
1D
  0
DICTIONARY
  5
241
102
{ACAD_REACTORS
330
19
102
}
330
19
100
AcDbDictionary
281
     1
  3
*A1
350
E8C
  3
A0
350
242
  3
A1
350
243
  3
A2
350
244
  3
A3
350
245
  3
A4
350
246
  3
A5
350
247
  3
A6
350
248
  3
A7
350
249
  3
A8
350
24A
  3
A9
350
24B
  3
B0
350
24C
  3
B1
350
24D
  3
B2
350
24E
  3
B3
350
24F
  3
B4
350
250
  3
B5
350
251
  3
B6
350
252
  3
B7
350
253
  3
B8
350
254
  3
B9
350
255
  3
C0
350
256
  3
C1
350
257
  3
C2
350
258
  3
C3
350
259
  3
C4
350
25A
  3
C5
350
25B
  3
C6
350
25C
  3
C7
350
25D
  3
C8
350
25E
  3
C9
350
25F
  3
D0
350
260
  3
D1
350
261
  3
D2
350
262
  0
DICTIONARY
  5
BC0
102
{ACAD_REACTORS
330
19
102
}
330
19
100
AcDbDictionary
281
     1
  0
DICTIONARY
  5
278
102
{ACAD_REACTORS
330
19
102
}
330
19
100
AcDbDictionary
281
     1
  3
Standard
350
279
  0
DICTIONARY
  5
267
102
{ACAD_REACTORS
330
19
102
}
330
19
100
AcDbDictionary
281
     1
  3
2dWireframe
350
26C
  3
3D Hidden
350
26E
  3
3dWireframe
350
26D
  3
Basic
350
26F
  3
Brighten
350
273
  3
ColorChange
350
277
  3
Conceptual
350
271
  3
Dim
350
272
  3
EdgeColorOff
350
8FE
  3
Facepattern
350
276
  3
Flat
350
268
  3
FlatWithEdges
350
269
  3
Gouraud
350
26A
  3
GouraudWithEdges
350
26B
  3
Hidden
350
8FB
  3
JitterOff
350
8FC
  3
Linepattern
350
275
  3
OverhangOff
350
8FD
  3
Realistic
350
270
  3
Shaded
350
903
  3
Shaded with edges
350
902
  3
Shades of Gray
350
8FF
  3
Sketchy
350
900
  3
Thicken
350
274
  3
Wireframe
350
8FA
  3
X-Ray
350
901
  0
XRECORD
  5
2371
102
{ACAD_REACTORS
330
19
102
}
330
19
100
AcDbXrecord
280
     1
 90
        1
330
279
  0
DICTIONARY
  5
330
102
{ACAD_REACTORS
330
19
102
}
330
19
100
AcDbDictionary
281
     1
  3
CANNOSCALE
350
331
  3
CMLEADERSTYLE
350
D5E
  3
CTABLESTYLE
350
335
  3
HPTRANSPARENCY
350
D52
  3
XCLIPFRAME
350
896
  0
DICTIONARY
  5
27A
102
{ACAD_REACTORS
330
19
102
}
330
19
100
AcDbDictionary
281
     1
  0
DICTIONARY
  5
1477
102
{ACAD_REACTORS
330
19
102
}
330
19
100
AcDbDictionary
281
     1
  3
DIMRAILANGLE
350
148C
  3
DIMRAILFIRSTOFFSET
350
148A
  3
DIMRAILOFFSET
350
148B
  3
DIMRAILSENABLED
350
148D
  0
DICTIONARY
  5
2E2
102
{ACAD_REACTORS
330
2E1
102
}
330
2E1
100
AcDbDictionary
281
     1
  0
DICTIONARY
  5
15AA
102
{ACAD_REACTORS
330
2E1
102
}
330
2E1
100
AcDbDictionary
281
     1
1001
ACAD
1000
<All
  0
SORTENTSTABLE
  5
22F1
102
{ACAD_REACTORS
330
22F0
102
}
330
22F0
100
AcDbSortentsTable
330
A
331
0
  5
17E
331
177
  5
178
331
178
  5
179
331
179
  5
17A
331
17A
  5
17B
331
17B
  5
17C
331
17C
  5
17D
331
17E
  5
180
331
180
  5
181
331
181
  5
182
331
182
  5
183
331
183
  5
184
331
184
  5
185
331
185
  5
186
331
186
  5
187
331
187
  5
188
331
188
  5
189
331
189
  5
68C
331
68C
  5
6B5
331
6B5
  5
7D9
331
0
  5
D69
331
D69
  5
FAC
331
FAC
  5
FAD
331
FAD
  5
FAE
331
FAE
  5
FAF
331
FAF
  5
FB0
331
FB0
  5
FB1
331
FB1
  5
FB2
331
FB2
  5
FB3
331
FB3
  5
FB4
331
FB4
  5
FB5
331
FB5
  5
FB6
331
FB6
  5
FB7
331
FB7
  5
FB8
331
FB8
  5
FB9
331
FB9
  5
FBA
331
FBA
  5
FBB
331
FBB
  5
FBC
331
FBC
  5
FBD
331
FBD
  5
FBE
331
FBE
  5
FBF
331
FBF
  5
FC0
331
FC0
  5
FC1
331
FC1
  5
FC2
331
FC2
  5
FC3
331
FC3
  5
FC4
331
FC4
  5
FC5
331
FC5
  5
FC6
331
FC6
  5
FC7
331
FC7
  5
FC8
331
FC8
  5
FC9
331
FC9
  5
FCA
331
FCA
  5
FCB
331
FCB
  5
FCC
331
FCC
  5
1007
331
1007
  5
1008
331
1008
  5
1009
331
1009
  5
100A
331
100A
  5
100B
331
100B
  5
100F
331
100F
  5
1010
331
1010
  5
1011
331
1011
  5
1012
331
1012
  5
1013
331
1013
  5
1014
331
1014
  5
1017
331
1017
  5
1018
331
1018
  5
101A
331
101A
  5
101D
331
101D
  5
1022
331
1022
  5
1025
331
1025
  5
1026
331
1026
  5
1027
331
1027
  5
1028
331
1028
  5
1029
331
1029
  5
102A
331
102A
  5
102B
331
102B
  5
102C
331
102C
  5
102D
331
102D
  5
102E
331
102E
  5
102F
331
102F
  5
1030
331
1030
  5
1031
331
1031
  5
1035
331
1035
  5
103D
331
103D
  5
103F
331
103F
  5
1041
331
1041
  5
1042
331
1042
  5
1043
331
1043
  5
1044
331
1044
  5
1045
331
1045
  5
1046
331
1046
  5
1047
331
1047
  5
1048
331
1048
  5
1049
331
1049
  5
104A
331
104A
  5
104E
331
104E
  5
104F
331
104F
  5
1050
331
1050
  5
1051
331
1051
  5
1052
331
1052
  5
1053
331
1053
  5
1054
331
1054
  5
1055
331
1055
  5
1058
331
1058
  5
1059
331
1059
  5
105A
331
105A
  5
105B
331
105B
  5
105C
331
105C
  5
105D
331
105D
  5
105E
331
105E
  5
105F
331
105F
  5
1061
331
1061
  5
1062
331
1062
  5
10FF
331
0
  5
1169
331
1169
  5
1370
331
1370
  5
1371
331
1371
  5
1444
331
1444
  5
1445
331
1445
  5
1446
331
1446
  5
1447
331
1447
  5
1448
331
1448
  5
1449
331
1449
  5
144A
331
144A
  5
144B
331
144B
  5
144C
331
144C
  5
144D
331
144D
  5
1457
331
14A0
  5
14A1
331
14A1
  5
14A8
331
14A8
  5
14CD
331
14CD
  5
14F1
331
14F1
  5
14F2
331
14F2
  5
152B
331
152B
  5
1559
331
1559
  5
1574
331
15EA
  5
180A
  0
DIMASSOC
  5
14AA
102
{ACAD_REACTORS
330
14A9
102
}
330
14A9
100
AcDbDimAssoc
330
14A8
 90
        1
 70
     0
 71
     1
  1
AcDbOsnapPointRef
 72
    13
331
1370
 73
     0
 91
        0
 40
0.0
 10
0.0
 20
0.0
 30
0.0
 75
     0
  0
DIMASSOC
  5
155B
102
{ACAD_REACTORS
330
155A
102
}
330
155A
100
AcDbDimAssoc
330
1559
 90
        3
 70
     0
 71
     1
  1
AcDbOsnapPointRef
 72
    13
331
1371
 73
     0
 91
        0
 40
0.0
 10
0.0
 20
0.0
 30
0.0
 75
     0
  1
AcDbOsnapPointRef
 72
    13
331
1370
 73
     0
 91
        0
 40
0.0
 10
0.0
 20
0.0
 30
0.0
 75
     0
  0
DICTIONARY
  5
2368
102
{ACAD_REACTORS
330
1EEC
102
}
330
1EEC
100
AcDbDictionary
280
     1
281
     1
  3
TEXT
360
1EEB
  0
DIMASSOC
  5
1F05
102
{ACAD_REACTORS
330
1F04
102
}
330
1F04
100
AcDbDimAssoc
330
1F03
 90
        3
 70
     0
 71
     1
  1
AcDbOsnapPointRef
 72
     2
331
105F
 73
     0
 91
        0
 40
0.5
 10
0.0
 20
0.0
 30
0.0
 75
     0
  1
AcDbOsnapPointRef
 72
     2
331
105E
 73
     0
 91
        0
 40
0.5
 10
0.0
 20
0.0
 30
0.0
 75
     0
  0
LAYOUT
  5
21
102
{ACAD_REACTORS
330
1E
102
}
330
1E
100
AcDbPlotSettings
  1

  2
none_device
  4
ISO_A3_(420.00_x_297.00_MM)
  6

 40
7.5
 41
20.0
 42
7.5
 43
20.0
 44
420.0
 45
297.0
 46
0.0
 47
0.0
 48
0.0
 49
0.0
140
0.0
141
0.0
142
1.0
143
1.0
 70
     0
 72
     1
 73
     0
 74
     0
  7

 75
     0
 76
     0
 77
     2
 78
   300
147
1.0
148
0.0
149
0.0
100
AcDbLayout
  1
Layout1
 70
     0
 71
     0
 10
-7.5
 20
-20.0
 11
412.5
 21
277.0
 12
0.0
 22
0.0
 32
0.0
 14
0.0
 24
0.0
 34
0.0
 15
0.0
 25
0.0
 35
0.0
146
0.0
 13
0.0
 23
0.0
 33
0.0
 16
0.0
 26
0.0
 36
0.0
 17
0.0
 27
0.0
 37
0.0
 76
     0
330
B
331
349
  0
LAYOUT
  5
20
102
{ACAD_REACTORS
330
1E
102
}
330
1E
100
AcDbPlotSettings
  1

  2
none_device
  4
ISO_A3_(420.00_x_297.00_MM)
  6

 40
7.5
 41
20.0
 42
7.5
 43
20.0
 44
420.0
 45
297.0
 46
0.0
 47
0.0
 48
0.0
 49
0.0
140
0.0
141
0.0
142
1.0
143
1.0
 70
  1024
 72
     1
 73
     0
 74
     0
  7

 75
     0
 76
     0
 77
     2
 78
   300
147
1.0
148
0.0
149
0.0
100
AcDbLayout
  1
Model
 70
     0
 71
     1
 10
0.0
 20
0.0
 11
1050.0
 21
1485.0
 12
0.0
 22
0.0
 32
0.0
 14
0.0
 24
0.0
 34
0.0
 15
1050.0
 25
1485.0
 35
0.0000000000000071
146
0.0
 13
0.0
 23
0.0
 33
0.0
 16
0.0
 26
0.0
 36
0.0
 17
0.0
 27
0.0
 37
0.0
 76
     0
330
A
331
15
  0
MATERIAL
  5
10C6
102
{ACAD_REACTORS
330
263
102
}
330
263
100
AcDbMaterial
  1
ByBlock
 72
     1
 94
      127
  0
MATERIAL
  5
264
102
{ACAD_REACTORS
330
263
102
}
330
263
100
AcDbMaterial
  1
ByLayer
 72
     1
 94
      127
  0
MATERIAL
  5
266
102
{ACAD_REACTORS
330
263
102
}
330
263
100
AcDbMaterial
  1
Global
 72
     1
 94
      127
  0
MLEADERSTYLE
  5
D59
102
{ACAD_REACTORS
330
336
102
}
330
336
100
AcDbMLeaderStyle
170
     2
171
     1
172
     0
 90
        2
 40
0.0
 41
0.0
173
     1
 91
-1056964608
340
11
 92
       -2
290
     1
 42
2.0
291
     1
 43
8.0
  3
Standard
341
0
 44
4.0
300

342
17
174
     1
178
     6
175
     1
176
     0
 93
-1056964608
 45
4.0
292
     0
297
     0
 46
4.0
343
0
 94
-1056964608
 47
1.0
 49
1.0
140
1.0
293
     1
141
0.0
294
     1
177
     0
142
1.0
295
     0
296
     0
143
3.75
1001
ACAD_MLEADERVER
1070
     2
  0
MLINESTYLE
  5
1C
102
{ACAD_REACTORS
330
1B
102
}
330
1B
100
AcDbMlineStyle
  2
Standard
 70
     0
  3

 62
     0
 51
90.0
 52
90.0
 71
     2
 49
0.5
 62
   256
  6
BYLAYER
 49
-0.5
 62
   256
  6
BYLAYER
  0
ACDBPLACEHOLDER
  5
1D
102
{ACAD_REACTORS
330
1F
102
}
330
1F
  0
SCALE
  5
E8C
102
{ACAD_REACTORS
330
241
102
}
330
241
100
AcDbScale
 70
     0
300
1:1_XREF_XREF
140
1.0
141
1.0
290
     0
  0
SCALE
  5
242
102
{ACAD_REACTORS
330
241
102
}
330
241
100
AcDbScale
 70
     0
300
1:1
140
1.0
141
1.0
290
     1
  0
SCALE
  5
243
102
{ACAD_REACTORS
330
241
102
}
330
241
100
AcDbScale
 70
     0
300
1:2
140
1.0
141
2.0
290
     0
  0
SCALE
  5
244
102
{ACAD_REACTORS
330
241
102
}
330
241
100
AcDbScale
 70
     0
300
1:4
140
1.0
141
4.0
290
     0
  0
SCALE
  5
245
102
{ACAD_REACTORS
330
241
102
}
330
241
100
AcDbScale
 70
     0
300
1:5
140
1.0
141
5.0
290
     0
  0
SCALE
  5
246
102
{ACAD_REACTORS
330
241
102
}
330
241
100
AcDbScale
 70
     0
300
1:8
140
1.0
141
8.0
290
     0
  0
SCALE
  5
247
102
{ACAD_REACTORS
330
241
102
}
330
241
100
AcDbScale
 70
     0
300
1:10
140
1.0
141
10.0
290
     0
  0
SCALE
  5
248
102
{ACAD_REACTORS
330
241
102
}
330
241
100
AcDbScale
 70
     0
300
1:16
140
1.0
141
16.0
290
     0
  0
SCALE
  5
249
102
{ACAD_REACTORS
330
241
102
}
330
241
100
AcDbScale
 70
     0
300
1:20
140
1.0
141
20.0
290
     0
  0
SCALE
  5
24A
102
{ACAD_REACTORS
330
241
102
}
330
241
100
AcDbScale
 70
     0
300
1:30
140
1.0
141
30.0
290
     0
  0
SCALE
  5
24B
102
{ACAD_REACTORS
330
241
102
}
330
241
100
AcDbScale
 70
     0
300
1:40
140
1.0
141
40.0
290
     0
  0
SCALE
  5
24C
102
{ACAD_REACTORS
330
241
102
}
330
241
100
AcDbScale
 70
     0
300
1:50
140
1.0
141
50.0
290
     0
  0
SCALE
  5
24D
102
{ACAD_REACTORS
330
241
102
}
330
241
100
AcDbScale
 70
     0
300
1:100
140
1.0
141
100.0
290
     0
  0
SCALE
  5
24E
102
{ACAD_REACTORS
330
241
102
}
330
241
100
AcDbScale
 70
     0
300
2:1
140
2.0
141
1.0
290
     0
  0
SCALE
  5
24F
102
{ACAD_REACTORS
330
241
102
}
330
241
100
AcDbScale
 70
     0
300
4:1
140
4.0
141
1.0
290
     0
  0
SCALE
  5
250
102
{ACAD_REACTORS
330
241
102
}
330
241
100
AcDbScale
 70
     0
300
8:1
140
8.0
141
1.0
290
     0
  0
SCALE
  5
251
102
{ACAD_REACTORS
330
241
102
}
330
241
100
AcDbScale
 70
     0
300
10:1
140
10.0
141
1.0
290
     0
  0
SCALE
  5
252
102
{ACAD_REACTORS
330
241
102
}
330
241
100
AcDbScale
 70
     0
300
100:1
140
100.0
141
1.0
290
     0
  0
SCALE
  5
253
102
{ACAD_REACTORS
330
241
102
}
330
241
100
AcDbScale
 70
     0
300
1/128" = 1'-0"
140
0.0078125
141
12.0
290
     0
  0
SCALE
  5
254
102
{ACAD_REACTORS
330
241
102
}
330
241
100
AcDbScale
 70
     0
300
1/64" = 1'-0"
140
0.015625
141
12.0
290
     0
  0
SCALE
  5
255
102
{ACAD_REACTORS
330
241
102
}
330
241
100
AcDbScale
 70
     0
300
1/32" = 1'-0"
140
0.03125
141
12.0
290
     0
  0
SCALE
  5
256
102
{ACAD_REACTORS
330
241
102
}
330
241
100
AcDbScale
 70
     0
300
1/16" = 1'-0"
140
0.0625
141
12.0
290
     0
  0
SCALE
  5
257
102
{ACAD_REACTORS
330
241
102
}
330
241
100
AcDbScale
 70
     0
300
3/32" = 1'-0"
140
0.09375
141
12.0
290
     0
  0
SCALE
  5
258
102
{ACAD_REACTORS
330
241
102
}
330
241
100
AcDbScale
 70
     0
300
1/8" = 1'-0"
140
0.125
141
12.0
290
     0
  0
SCALE
  5
259
102
{ACAD_REACTORS
330
241
102
}
330
241
100
AcDbScale
 70
     0
300
3/16" = 1'-0"
140
0.1875
141
12.0
290
     0
  0
SCALE
  5
25A
102
{ACAD_REACTORS
330
241
102
}
330
241
100
AcDbScale
 70
     0
300
1/4" = 1'-0"
140
0.25
141
12.0
290
     0
  0
SCALE
  5
25B
102
{ACAD_REACTORS
330
241
102
}
330
241
100
AcDbScale
 70
     0
300
3/8" = 1'-0"
140
0.375
141
12.0
290
     0
  0
SCALE
  5
25C
102
{ACAD_REACTORS
330
241
102
}
330
241
100
AcDbScale
 70
     0
300
1/2" = 1'-0"
140
0.5
141
12.0
290
     0
  0
SCALE
  5
25D
102
{ACAD_REACTORS
330
241
102
}
330
241
100
AcDbScale
 70
     0
300
3/4" = 1'-0"
140
0.75
141
12.0
290
     0
  0
SCALE
  5
25E
102
{ACAD_REACTORS
330
241
102
}
330
241
100
AcDbScale
 70
     0
300
1" = 1'-0"
140
1.0
141
12.0
290
     0
  0
SCALE
  5
25F
102
{ACAD_REACTORS
330
241
102
}
330
241
100
AcDbScale
 70
     0
300
1-1/2" = 1'-0"
140
1.5
141
12.0
290
     0
  0
SCALE
  5
260
102
{ACAD_REACTORS
330
241
102
}
330
241
100
AcDbScale
 70
     0
300
3" = 1'-0"
140
3.0
141
12.0
290
     0
  0
SCALE
  5
261
102
{ACAD_REACTORS
330
241
102
}
330
241
100
AcDbScale
 70
     0
300
6" = 1'-0"
140
6.0
141
12.0
290
     0
  0
SCALE
  5
262
102
{ACAD_REACTORS
330
241
102
}
330
241
100
AcDbScale
 70
     0
300
1'-0" = 1'-0"
140
12.0
141
12.0
290
     0
  0
TABLESTYLE
  5
279
102
{ACAD_REACTORS
330
278
102
}
102
{ACAD_XDICTIONARY
360
236F
102
}
330
278
100
AcDbTableStyle
  3
Standard
 70
     0
 71
     0
 40
0.06
 41
0.06
280
     0
281
     0
  7
Standard
140
4.5
170
     2
 62
     0
 63
   257
283
     0
 90
        4
 91
        0
  1

274
    -2
284
     1
 64
     0
275
    -2
285
     1
 65
     0
276
    -2
286
     1
 66
     0
277
    -2
287
     1
 67
     0
278
    -2
288
     1
 68
     0
279
    -2
289
     1
 69
     0
  7
Standard
140
6.0
170
     5
 62
     0
 63
   257
283
     0
 90
        4
 91
        0
  1

274
    -2
284
     1
 64
     0
275
    -2
285
     1
 65
     0
276
    -2
286
     1
 66
     0
277
    -2
287
     1
 67
     0
278
    -2
288
     1
 68
     0
279
    -2
289
     1
 69
     0
  7
Standard
140
4.5
170
     5
 62
     0
 63
   257
283
     0
 90
        4
 91
        0
  1

274
    -2
284
     1
 64
     0
275
    -2
285
     1
 65
     0
276
    -2
286
     1
 66
     0
277
    -2
287
     1
 67
     0
278
    -2
288
     1
 68
     0
279
    -2
289
     1
 69
     0
  0
VISUALSTYLE
  5
26C
102
{ACAD_REACTORS
330
267
102
}
330
267
100
AcDbVisualStyle
  2
2dWireframe
 70
     4
 71
     0
 72
     2
 73
     0
 90
        0
 40
-0.6
 41
-30.0
 62
     5
 63
     7
421
 16777215
 74
     1
 91
        4
 64
     7
 65
   257
 75
     1
175
     1
 42
1.0
 92
        0
 66
   257
 43
1.0
 76
     1
 77
     6
 78
     2
 67
     7
 79
     5
170
     0
171
     0
290
     0
174
     0
 93
        1
 44
0.0
173
     0
291
     0
 45
0.0
  0
VISUALSTYLE
  5
26E
102
{ACAD_REACTORS
330
267
102
}
330
267
100
AcDbVisualStyle
  2
3D Hidden
 70
     6
 71
     1
 72
     2
 73
     2
 90
        0
 40
-0.6
 41
-30.0
 62
     5
 63
     7
421
 16777215
 74
     2
 91
        2
 64
     7
 65
   257
 75
     2
175
     1
 42
40.0
 92
        0
 66
   257
 43
1.0
 76
     1
 77
     6
 78
     2
 67
     7
 79
     3
170
     0
171
     0
290
     0
174
     0
 93
        1
 44
0.0
173
     0
291
     0
 45
0.0
  0
VISUALSTYLE
  5
26D
102
{ACAD_REACTORS
330
267
102
}
330
267
100
AcDbVisualStyle
  2
3dWireframe
 70
     5
 71
     0
 72
     2
 73
     0
 90
        0
 40
-0.6
 41
-30.0
 62
     5
 63
     7
421
 16777215
 74
     1
 91
        4
 64
     7
 65
   257
 75
     1
175
     1
 42
1.0
 92
        0
 66
   257
 43
1.0
 76
     1
 77
     6
 78
     2
 67
     7
 79
     5
170
     0
171
     0
290
     0
174
     0
 93
        1
 44
0.0
173
     0
291
     0
 45
0.0
  0
VISUALSTYLE
  5
26F
102
{ACAD_REACTORS
330
267
102
}
330
267
100
AcDbVisualStyle
  2
Basic
 70
     7
 71
     1
 72
     0
 73
     1
 90
        0
 40
-0.6
 41
-30.0
 62
     5
 63
     7
421
 16777215
 74
     0
 91
        4
 64
     7
 65
   257
 75
     1
175
     1
 42
1.0
 92
        8
 66
     7
 43
1.0
 76
     1
 77
     6
 78
     2
 67
     7
 79
     5
170
     0
171
     0
290
     0
174
     0
 93
        1
 44
0.0
173
     0
291
     1
 45
0.0
  0
VISUALSTYLE
  5
273
102
{ACAD_REACTORS
330
267
102
}
330
267
100
AcDbVisualStyle
  2
Brighten
 70
    12
 71
     2
 72
     2
 73
     0
 90
        0
 40
-0.6
 41
-30.0
 62
     5
 63
     7
421
 16777215
 74
     1
 91
        4
 64
     7
 65
   257
 75
     1
175
     1
 42
1.0
 92
        8
 66
     7
 43
1.0
 76
     1
 77
     6
 78
     2
 67
     7
 79
     5
170
     0
171
     0
290
     0
174
     0
 93
        1
 44
50.0
173
     0
291
     1
 45
0.0
  0
VISUALSTYLE
  5
277
102
{ACAD_REACTORS
330
267
102
}
330
267
100
AcDbVisualStyle
  2
ColorChange
 70
    16
 71
     2
 72
     2
 73
     3
 90
        0
 40
-0.6
 41
-30.0
 62
     5
 63
     8
421
  8421504
 74
     1
 91
        4
 64
     7
 65
   257
 75
     1
175
     1
 42
1.0
 92
        8
 66
     8
424
  8421504
 43
1.0
 76
     1
 77
     6
 78
     2
 67
     7
 79
     5
170
     0
171
     0
290
     0
174
     0
 93
        1
 44
0.0
173
     0
291
     1
 45
0.0
  0
VISUALSTYLE
  5
271
102
{ACAD_REACTORS
330
267
102
}
330
267
100
AcDbVisualStyle
  2
Conceptual
 70
     9
 71
     3
 72
     2
 73
     0
 90
        0
 40
-0.6
 41
-30.0
 62
     5
 63
     7
421
 16777215
 74
     2
 91
        2
 64
     7
 65
   257
 75
     1
175
     1
 42
40.0
 92
        8
 66
     7
 43
1.0
 76
     1
 77
     6
 78
     2
 67
     7
 79
     3
170
     0
171
     0
290
     0
174
     0
 93
        1
 44
0.0
173
     0
291
     0
 45
0.0
  0
VISUALSTYLE
  5
272
102
{ACAD_REACTORS
330
267
102
}
330
267
100
AcDbVisualStyle
  2
Dim
 70
    11
 71
     2
 72
     2
 73
     0
 90
        0
 40
-0.6
 41
-30.0
 62
     5
 63
     7
421
 16777215
 74
     1
 91
        4
 64
     7
 65
   257
 75
     1
175
     1
 42
1.0
 92
        8
 66
     7
 43
1.0
 76
     1
 77
     6
 78
     2
 67
     7
 79
     5
170
     0
171
     0
290
     0
174
     0
 93
        1
 44
-50.0
173
     0
291
     1
 45
0.0
  0
VISUALSTYLE
  5
8FE
102
{ACAD_REACTORS
330
267
102
}
330
267
100
AcDbVisualStyle
  2
EdgeColorOff
 70
    22
 71
     2
 72
     2
 73
     0
 90
        0
 40
0.6
 41
30.0
 62
     5
 63
     7
421
 16777215
 74
     1
 91
        4
 64
     7
 65
   257
 75
     1
175
     1
 42
1.0
 92
        8
 66
     7
 43
1.0
 76
     1
 77
     6
 78
     2
 67
     7
 79
     5
170
     0
171
     0
290
     0
174
     0
 93
        1
 44
0.0
173
     0
291
     1
 45
0.0
  0
VISUALSTYLE
  5
276
102
{ACAD_REACTORS
330
267
102
}
330
267
100
AcDbVisualStyle
  2
Facepattern
 70
    15
 71
     2
 72
     2
 73
     0
 90
        0
 40
-0.6
 41
-30.0
 62
     5
 63
     7
421
 16777215
 74
     1
 91
        4
 64
     7
 65
   257
 75
     1
175
     1
 42
1.0
 92
        8
 66
     7
 43
1.0
 76
     1
 77
     6
 78
     2
 67
     7
 79
     5
170
     0
171
     0
290
     0
174
     0
 93
        1
 44
0.0
173
     0
291
     1
 45
0.0
  0
VISUALSTYLE
  5
268
102
{ACAD_REACTORS
330
267
102
}
330
267
100
AcDbVisualStyle
  2
Flat
 70
     0
 71
     2
 72
     1
 73
     1
 90
        2
 40
-0.6
 41
30.0
 62
     5
 63
     7
421
 16777215
 74
     0
 91
        4
 64
     7
 65
   257
 75
     1
175
     1
 42
1.0
 92
        8
 66
     7
 43
1.0
 76
     1
 77
     6
 78
     2
 67
     7
 79
     5
170
     0
171
     0
290
     0
174
     0
 93
       13
 44
0.0
173
     0
291
     1
 45
0.0
  0
VISUALSTYLE
  5
269
102
{ACAD_REACTORS
330
267
102
}
330
267
100
AcDbVisualStyle
  2
FlatWithEdges
 70
     1
 71
     2
 72
     1
 73
     1
 90
        2
 40
-0.6
 41
30.0
 62
     5
 63
     7
421
 16777215
 74
     1
 91
        4
 64
     7
 65
   257
 75
     1
175
     1
 42
1.0
 92
        0
 66
   257
 43
1.0
 76
     1
 77
     6
 78
     2
 67
     7
 79
     5
170
     0
171
     0
290
     0
174
     0
 93
       13
 44
0.0
173
     0
291
     1
 45
0.0
  0
VISUALSTYLE
  5
26A
102
{ACAD_REACTORS
330
267
102
}
330
267
100
AcDbVisualStyle
  2
Gouraud
 70
     2
 71
     2
 72
     2
 73
     1
 90
        2
 40
-0.6
 41
30.0
 62
     5
 63
     7
421
 16777215
 74
     0
 91
        4
 64
     7
 65
   257
 75
     1
175
     1
 42
1.0
 92
        0
 66
     7
 43
1.0
 76
     1
 77
     6
 78
     2
 67
     7
 79
     5
170
     0
171
     0
290
     0
174
     0
 93
       13
 44
0.0
173
     0
291
     1
 45
0.0
  0
VISUALSTYLE
  5
26B
102
{ACAD_REACTORS
330
267
102
}
330
267
100
AcDbVisualStyle
  2
GouraudWithEdges
 70
     3
 71
     2
 72
     2
 73
     1
 90
        2
 40
-0.6
 41
30.0
 62
     5
 63
     7
421
 16777215
 74
     1
 91
        4
 64
     7
 65
   257
 75
     1
175
     1
 42
1.0
 92
        0
 66
   257
 43
1.0
 76
     1
 77
     6
 78
     2
 67
     7
 79
     5
170
     0
171
     0
290
     0
174
     0
 93
       13
 44
0.0
173
     0
291
     1
 45
0.0
  0
VISUALSTYLE
  5
8FB
102
{ACAD_REACTORS
330
267
102
}
330
267
100
AcDbVisualStyle
  2
Hidden
 70
     6
 71
     1
 72
     2
 73
     2
 90
        0
 40
0.6
 41
30.0
 62
     5
 63
     7
421
 16777215
 74
     2
 91
        2
 64
     7
 65
   257
 75
     2
175
     1
 42
40.0
 92
        0
 66
   257
 43
1.0
 76
     1
 77
     6
 78
     2
 67
     7
 79
     3
170
     0
171
     0
290
     0
174
     0
 93
        1
 44
0.0
173
     0
291
     0
 45
0.0
  0
VISUALSTYLE
  5
8FC
102
{ACAD_REACTORS
330
267
102
}
330
267
100
AcDbVisualStyle
  2
JitterOff
 70
    20
 71
     2
 72
     2
 73
     0
 90
        0
 40
0.6
 41
30.0
 62
     5
 63
     7
421
 16777215
 74
     1
 91
        4
 64
     7
 65
   257
 75
     1
175
     1
 42
1.0
 92
       10
 66
     7
 43
1.0
 76
     1
 77
     6
 78
     2
 67
     7
 79
     5
170
     0
171
     0
290
     0
174
     0
 93
        1
 44
0.0
173
     0
291
     1
 45
0.0
  0
VISUALSTYLE
  5
275
102
{ACAD_REACTORS
330
267
102
}
330
267
100
AcDbVisualStyle
  2
Linepattern
 70
    14
 71
     2
 72
     2
 73
     0
 90
        0
 40
-0.6
 41
-30.0
 62
     5
 63
     7
421
 16777215
 74
     1
 91
        4
 64
     7
 65
   257
 75
     7
175
     7
 42
1.0
 92
        8
 66
     7
 43
1.0
 76
     1
 77
     6
 78
     2
 67
     7
 79
     5
170
     0
171
     0
290
     0
174
     0
 93
        1
 44
0.0
173
     0
291
     1
 45
0.0
  0
VISUALSTYLE
  5
8FD
102
{ACAD_REACTORS
330
267
102
}
330
267
100
AcDbVisualStyle
  2
OverhangOff
 70
    21
 71
     2
 72
     2
 73
     0
 90
        0
 40
0.6
 41
30.0
 62
     5
 63
     7
421
 16777215
 74
     1
 91
        4
 64
     7
 65
   257
 75
     1
175
     1
 42
1.0
 92
        9
 66
     7
 43
1.0
 76
     1
 77
     6
 78
     2
 67
     7
 79
     5
170
     0
171
     0
290
     0
174
     0
 93
        1
 44
0.0
173
     0
291
     1
 45
0.0
  0
VISUALSTYLE
  5
270
102
{ACAD_REACTORS
330
267
102
}
330
267
100
AcDbVisualStyle
  2
Realistic
 70
     8
 71
     2
 72
     2
 73
     0
 90
        0
 40
-0.6
 41
-30.0
 62
     5
 63
     7
421
 16777215
 74
     1
 91
        0
 64
     7
 65
   257
 75
     1
175
     1
 42
1.0
 92
        8
 66
     8
424
  7895160
 43
1.0
 76
     1
 77
     6
 78
     2
 67
     7
 79
     5
170
     0
171
     0
290
     0
174
     0
 93
       13
 44
0.0
173
     0
291
     0
 45
0.0
  0
VISUALSTYLE
  5
903
102
{ACAD_REACTORS
330
267
102
}
330
267
100
AcDbVisualStyle
  2
Shaded
 70
    27
 71
     2
 72
     2
 73
     1
 90
        2
 40
0.6
 41
30.0
 62
     5
 63
     7
421
 16777215
 74
     0
 91
        4
 64
     7
 65
   257
 75
     1
175
     1
 42
1.0
 92
        8
 66
   257
 43
1.0
 76
     1
 77
     6
 78
     2
 67
     8
425
  7895160
 79
     3
170
     0
171
     0
290
     0
174
     0
 93
        5
 44
0.0
173
     0
291
     0
 45
0.0
  0
VISUALSTYLE
  5
902
102
{ACAD_REACTORS
330
267
102
}
330
267
100
AcDbVisualStyle
  2
Shaded with edges
 70
    26
 71
     2
 72
     2
 73
     1
 90
        2
 40
0.6
 41
30.0
 62
     5
 63
     7
421
 16777215
 74
     1
 91
       10
 64
     7
 65
   257
 75
     2
175
     1
 42
1.0
 92
        8
 66
   257
 43
1.0
 76
     1
 77
     6
 78
     2
 67
     7
 79
     3
170
     0
171
     0
290
     0
174
     0
 93
        5
 44
0.0
173
     0
291
     0
 45
0.0
  0
VISUALSTYLE
  5
8FF
102
{ACAD_REACTORS
330
267
102
}
330
267
100
AcDbVisualStyle
  2
Shades of Gray
 70
    23
 71
     2
 72
     2
 73
     3
 90
        0
 40
0.6
 41
30.0
 62
     5
 63
     7
421
 16777215
 74
     2
 91
        2
 64
     7
 65
     7
 75
     1
175
     1
 42
40.0
 92
        8
 66
     7
 43
1.0
 76
     1
 77
     6
 78
     2
 67
     7
 79
     3
170
     0
171
     0
290
     0
174
     0
 93
        1
 44
0.0
173
     0
291
     0
 45
0.0
  0
VISUALSTYLE
  5
900
102
{ACAD_REACTORS
330
267
102
}
330
267
100
AcDbVisualStyle
  2
Sketchy
 70
    24
 71
     1
 72
     2
 73
     2
 90
        0
 40
0.6
 41
30.0
 62
     5
 63
     7
421
 16777215
 74
     2
 91
        2
 64
     7
 65
     7
 75
     1
175
     1
 42
40.0
 92
       11
 66
     7
 43
1.0
 76
     1
 77
     6
 78
     2
 67
     7
 79
     6
170
     0
171
     0
290
     0
174
     0
 93
        1
 44
0.0
173
     0
291
     0
 45
0.0
  0
VISUALSTYLE
  5
274
102
{ACAD_REACTORS
330
267
102
}
330
267
100
AcDbVisualStyle
  2
Thicken
 70
    13
 71
     2
 72
     2
 73
     0
 90
        0
 40
-0.6
 41
-30.0
 62
     5
 63
     7
421
 16777215
 74
     1
 91
        4
 64
     7
 65
   257
 75
     1
175
     1
 42
1.0
 92
       12
 66
     7
 43
1.0
 76
     1
 77
     6
 78
     2
 67
     7
 79
     5
170
     0
171
     0
290
     0
174
     0
 93
        1
 44
0.0
173
     0
291
     1
 45
0.0
  0
VISUALSTYLE
  5
8FA
102
{ACAD_REACTORS
330
267
102
}
330
267
100
AcDbVisualStyle
  2
Wireframe
 70
     5
 71
     0
 72
     2
 73
     0
 90
        0
 40
0.6
 41
30.0
 62
     5
 63
     7
421
 16777215
 74
     1
 91
        4
 64
     7
 65
   257
 75
     1
175
     1
 42
1.0
 92
        0
 66
   257
 43
1.0
 76
     1
 77
     6
 78
     2
 67
     7
 79
     3
170
     0
171
     0
290
     0
174
     0
 93
        1
 44
0.0
173
     0
291
     0
 45
0.0
  0
VISUALSTYLE
  5
901
102
{ACAD_REACTORS
330
267
102
}
330
267
100
AcDbVisualStyle
  2
X-Ray
 70
    25
 71
     2
 72
     2
 73
     1
 90
        1
 40
0.5
 41
30.0
 62
     5
 63
     7
421
 16777215
 74
     1
 91
        0
 64
     7
 65
   257
 75
     1
175
     1
 42
1.0
 92
        8
 66
     7
 43
1.0
 76
     1
 77
     6
 78
     2
 67
     7
 79
     3
170
     0
171
     0
290
     0
174
     0
 93
       13
 44
0.0
173
     0
291
     0
 45
0.0
  0
DICTIONARYVAR
  5
331
102
{ACAD_REACTORS
330
330
102
}
330
330
100
DictionaryVariables
280
     0
  1
1:1
  0
DICTIONARYVAR
  5
D5E
102
{ACAD_REACTORS
330
330
102
}
330
330
100
DictionaryVariables
280
     0
  1
Standard
  0
DICTIONARYVAR
  5
335
102
{ACAD_REACTORS
330
330
102
}
330
330
100
DictionaryVariables
280
     0
  1
Standard
  0
DICTIONARYVAR
  5
D52
102
{ACAD_REACTORS
330
330
102
}
330
330
100
DictionaryVariables
280
     0
  1
ByLayer
  0
DICTIONARYVAR
  5
896
102
{ACAD_REACTORS
330
330
102
}
330
330
100
DictionaryVariables
280
     0
  1
0
  0
DICTIONARYVAR
  5
148C
102
{ACAD_REACTORS
330
1477
102
}
330
1477
100
DictionaryVariables
280
     0
  1
0.261799
  0
DICTIONARYVAR
  5
148A
102
{ACAD_REACTORS
330
1477
102
}
330
1477
100
DictionaryVariables
280
     0
  1
0.400000
  0
DICTIONARYVAR
  5
148B
102
{ACAD_REACTORS
330
1477
102
}
330
1477
100
DictionaryVariables
280
     0
  1
0.250000
  0
DICTIONARYVAR
  5
148D
102
{ACAD_REACTORS
330
1477
102
}
330
1477
100
DictionaryVariables
280
     0
  1
1
  0
FIELD
  5
1EEB
102
{ACAD_REACTORS
330
1EEF
330
2368
102
}
330
2368
100
AcDbField
  1
_text
  2
{%<\_FldIdx 0>%N}
 90
        1
360
1EEE
 97
        0
 91
       63
 92
        0
 94
       11
 95
        2
 96
        0
300

 93
        1
  6
ACFD_FIELDTEXT_CHECKSUM
 93
        2
 90
        2
140
4481.0
 94
        0
300

302

304
ACVALUE_END
  7
ACFD_FIELD_VALUE
 93
        6
 90
        4
  1
{20191202N}
 94
        0
300

302

304
ACVALUE_END
301
{20191202N}
 98
       11
  0
DICTIONARY
  5
236F
330
279
100
AcDbDictionary
280
     1
281
     1
  3
ACAD_ROUNDTRIP_2008_TABLESTYLE_CELLSTYLEMAP
360
2370
  0
FIELD
  5
1EEE
330
1EEB
100
AcDbField
  1
AcVar
  2
\AcVar Date \f "yyyyMMdd"
 90
        0
 97
        0
 91
       63
 92
        0
 94
        8
 95
       64
 96
        0
300
Variable not supported
 93
        1
  6
Variable
 93
        2
 90
        4
  1
Date
 94
        0
300

302

304
ACVALUE_END
  7
ACFD_FIELD_VALUE
 93
        6
 90
        8
 92
       16
310
E3070C00000002000D003A001C000000
 94
        0
300
yyyyMMdd
302

304
ACVALUE_END
301
20191202
 98
        8
  0
CELLSTYLEMAP
  5
2370
102
{ACAD_REACTORS
330
236F
102
}
330
236F
100
AcDbCellStyleMap
 90
        3
300
CELLSTYLE
  1
TABLEFORMAT_BEGIN
 90
        5
170
     1
 91
        0
 92
    32768
 62
   257
 93
        1
300
CONTENTFORMAT
  1
CONTENTFORMAT_BEGIN
 90
        0
 91
        0
 92
        4
 93
        0
300

 40
0.0
140
1.0
 94
        5
 62
     0
340
17
144
6.0
309
CONTENTFORMAT_END
171
     1
301
MARGIN
  1
CELLMARGIN_BEGIN
 40
0.06
 40
0.06
 40
0.06
 40
0.06
 40
0.18
 40
0.18
309
CELLMARGIN_END
 94
        6
 95
        1
302
GRIDFORMAT
  1
GRIDFORMAT_BEGIN
 90
        0
 91
        1
 62
     0
 92
       -2
340
0
 93
        0
 40
0.045
309
GRIDFORMAT_END
 95
        2
302
GRIDFORMAT
  1
GRIDFORMAT_BEGIN
 90
        0
 91
        1
 62
     0
 92
       -2
340
0
 93
        0
 40
0.045
309
GRIDFORMAT_END
 95
        4
302
GRIDFORMAT
  1
GRIDFORMAT_BEGIN
 90
        0
 91
        1
 62
     0
 92
       -2
340
0
 93
        0
 40
0.045
309
GRIDFORMAT_END
 95
        8
302
GRIDFORMAT
  1
GRIDFORMAT_BEGIN
 90
        0
 91
        1
 62
     0
 92
       -2
340
0
 93
        0
 40
0.045
309
GRIDFORMAT_END
 95
       16
302
GRIDFORMAT
  1
GRIDFORMAT_BEGIN
 90
        0
 91
        1
 62
     0
 92
       -2
340
0
 93
        0
 40
0.045
309
GRIDFORMAT_END
 95
       32
302
GRIDFORMAT
  1
GRIDFORMAT_BEGIN
 90
        0
 91
        1
 62
     0
 92
       -2
340
0
 93
        0
 40
0.045
309
GRIDFORMAT_END
309
TABLEFORMAT_END
  1
CELLSTYLE_BEGIN
 90
        1
 91
        1
300
_TITLE
309
CELLSTYLE_END
300
CELLSTYLE
  1
TABLEFORMAT_BEGIN
 90
        5
170
     1
 91
        0
 92
        0
 62
   257
 93
        1
300
CONTENTFORMAT
  1
CONTENTFORMAT_BEGIN
 90
        0
 91
        0
 92
        4
 93
        0
300

 40
0.0
140
1.0
 94
        5
 62
     0
340
17
144
4.5
309
CONTENTFORMAT_END
171
     1
301
MARGIN
  1
CELLMARGIN_BEGIN
 40
0.06
 40
0.06
 40
0.06
 40
0.06
 40
0.18
 40
0.18
309
CELLMARGIN_END
 94
        6
 95
        1
302
GRIDFORMAT
  1
GRIDFORMAT_BEGIN
 90
        0
 91
        1
 62
     0
 92
       -2
340
0
 93
        0
 40
0.045
309
GRIDFORMAT_END
 95
        2
302
GRIDFORMAT
  1
GRIDFORMAT_BEGIN
 90
        0
 91
        1
 62
     0
 92
       -2
340
0
 93
        0
 40
0.045
309
GRIDFORMAT_END
 95
        4
302
GRIDFORMAT
  1
GRIDFORMAT_BEGIN
 90
        0
 91
        1
 62
     0
 92
       -2
340
0
 93
        0
 40
0.045
309
GRIDFORMAT_END
 95
        8
302
GRIDFORMAT
  1
GRIDFORMAT_BEGIN
 90
        0
 91
        1
 62
     0
 92
       -2
340
0
 93
        0
 40
0.045
309
GRIDFORMAT_END
 95
       16
302
GRIDFORMAT
  1
GRIDFORMAT_BEGIN
 90
        0
 91
        1
 62
     0
 92
       -2
340
0
 93
        0
 40
0.045
309
GRIDFORMAT_END
 95
       32
302
GRIDFORMAT
  1
GRIDFORMAT_BEGIN
 90
        0
 91
        1
 62
     0
 92
       -2
340
0
 93
        0
 40
0.045
309
GRIDFORMAT_END
309
TABLEFORMAT_END
  1
CELLSTYLE_BEGIN
 90
        2
 91
        1
300
_HEADER
309
CELLSTYLE_END
300
CELLSTYLE
  1
TABLEFORMAT_BEGIN
 90
        5
170
     1
 91
        0
 92
        0
 62
   257
 93
        1
300
CONTENTFORMAT
  1
CONTENTFORMAT_BEGIN
 90
        0
 91
        0
 92
        4
 93
        0
300

 40
0.0
140
1.0
 94
        2
 62
     0
340
17
144
4.5
309
CONTENTFORMAT_END
171
     1
301
MARGIN
  1
CELLMARGIN_BEGIN
 40
0.06
 40
0.06
 40
0.06
 40
0.06
 40
0.18
 40
0.18
309
CELLMARGIN_END
 94
        6
 95
        1
302
GRIDFORMAT
  1
GRIDFORMAT_BEGIN
 90
        0
 91
        1
 62
     0
 92
       -2
340
0
 93
        0
 40
0.045
309
GRIDFORMAT_END
 95
        2
302
GRIDFORMAT
  1
GRIDFORMAT_BEGIN
 90
        0
 91
        1
 62
     0
 92
       -2
340
0
 93
        0
 40
0.045
309
GRIDFORMAT_END
 95
        4
302
GRIDFORMAT
  1
GRIDFORMAT_BEGIN
 90
        0
 91
        1
 62
     0
 92
       -2
340
0
 93
        0
 40
0.045
309
GRIDFORMAT_END
 95
        8
302
GRIDFORMAT
  1
GRIDFORMAT_BEGIN
 90
        0
 91
        1
 62
     0
 92
       -2
340
0
 93
        0
 40
0.045
309
GRIDFORMAT_END
 95
       16
302
GRIDFORMAT
  1
GRIDFORMAT_BEGIN
 90
        0
 91
        1
 62
     0
 92
       -2
340
0
 93
        0
 40
0.045
309
GRIDFORMAT_END
 95
       32
302
GRIDFORMAT
  1
GRIDFORMAT_BEGIN
 90
        0
 91
        1
 62
     0
 92
       -2
340
0
 93
        0
 40
0.045
309
GRIDFORMAT_END
309
TABLEFORMAT_END
  1
CELLSTYLE_BEGIN
 90
        3
 91
        2
300
_DATA
309
CELLSTYLE_END
  0
ENDSEC
  0
EOF
