  0
SECTION
  2
HEADER
  9
$ACADVER
  1
AC1021
  9
$ACADMAINTVER
 70
    25
  9
$DWGCODEPAGE
  3
ANSI_932
  9
$LASTSAVEDBY
  1
howeNelson
  9
$INSBASE
 10
0.0
 20
0.0
 30
0.0
  9
$EXTMIN
 10
0.0
 20
0.0
 30
-0.0000000000000142
  9
$EXTMAX
 10
1050.0
 20
1485.0
 30
0.0000000000000071
  9
$LIMMIN
 10
0.0
 20
0.0
  9
$LIMMAX
 10
1050.0
 20
1485.0
  9
$ORTHOMODE
 70
     0
  9
$REGENMODE
 70
     1
  9
$FILLMODE
 70
     1
  9
$QTEXTMODE
 70
     0
  9
$MIRRTEXT
 70
     1
  9
$LTSCALE
 40
50.0
  9
$ATTMODE
 70
     1
  9
$TEXTSIZE
 40
2.5
  9
$TRACEWID
 40
1.0
  9
$TEXTSTYLE
  7
ＭＳ ゴシック
  9
$CLAYER
  8
寸法
  9
$CELTYPE
  6
ByLayer
  9
$CECOLOR
 62
   256
  9
$CELTSCALE
 40
0.05
  9
$DISPSILH
 70
     0
  9
$DIMSCALE
 40
1.0
  9
$DIMASZ
 40
2.0
  9
$DIMEXO
 40
5.0
  9
$DIMDLI
 40
0.9999999999999999
  9
$DIMRND
 40
0.0
  9
$DIMDLE
 40
0.0
  9
$DIMEXE
 40
0.0
  9
$DIMTP
 40
0.0
  9
$DIMTM
 40
0.0
  9
$DIMTXT
 40
12.0
  9
$DIMCEN
 40
0.0
  9
$DIMTSZ
 40
0.0
  9
$DIMTOL
 70
     0
  9
$DIMLIM
 70
     0
  9
$DIMTIH
 70
     0
  9
$DIMTOH
 70
     0
  9
$DIMSE1
 70
     0
  9
$DIMSE2
 70
     0
  9
$DIMTAD
 70
     1
  9
$DIMZIN
 70
    11
  9
$DIMBLK
  1
DOT
  9
$DIMASO
 70
     1
  9
$DIMSHO
 70
     1
  9
$DIMPOST
  1
<>
  9
$DIMAPOST
  1
[]
  9
$DIMALT
 70
     0
  9
$DIMALTD
 70
     1
  9
$DIMALTF
 40
1.0
  9
$DIMLFAC
 40
1.0
  9
$DIMTOFL
 70
     0
  9
$DIMTVP
 40
0.0
  9
$DIMTIX
 70
     1
  9
$DIMSOXD
 70
     0
  9
$DIMSAH
 70
     0
  9
$DIMBLK1
  1

  9
$DIMBLK2
  1

  9
$DIMSTYLE
  2
tfrom線あり
  9
$DIMCLRD
 70
     0
  9
$DIMCLRE
 70
     0
  9
$DIMCLRT
 70
     0
  9
$DIMTFAC
 40
1.0
  9
$DIMGAP
 40
5.0
  9
$DIMJUST
 70
     0
  9
$DIMSD1
 70
     0
  9
$DIMSD2
 70
     0
  9
$DIMTOLJ
 70
     1
  9
$DIMTZIN
 70
    11
  9
$DIMALTZ
 70
    11
  9
$DIMALTTZ
 70
    11
  9
$DIMUPT
 70
     0
  9
$DIMDEC
 70
     0
  9
$DIMTDEC
 70
     1
  9
$DIMALTU
 70
     2
  9
$DIMALTTD
 70
     2
  9
$DIMTXSTY
  7
ＭＳ ゴシック
  9
$DIMAUNIT
 70
     0
  9
$DIMADEC
 70
     2
  9
$DIMALTRND
 40
0.0
  9
$DIMAZIN
 70
     0
  9
$DIMDSEP
 70
    46
  9
$DIMATFIT
 70
     0
  9
$DIMFRAC
 70
     2
  9
$DIMLDRBLK
  1
DOT
  9
$DIMLUNIT
 70
     2
  9
$DIMLWD
 70
    -2
  9
$DIMLWE
 70
    -2
  9
$DIMTMOVE
 70
     0
  9
$DIMFXL
 40
1.0
  9
$DIMFXLON
 70
     0
  9
$DIMJOGANG
 40
0.7853981633974483
  9
$DIMTFILL
 70
     0
  9
$DIMTFILLCLR
 70
     0
  9
$DIMARCSYM
 70
     0
  9
$DIMLTYPE
  6

  9
$DIMLTEX1
  6

  9
$DIMLTEX2
  6

  9
$LUNITS
 70
     2
  9
$LUPREC
 70
     0
  9
$SKETCHINC
 40
0.1
  9
$FILLETRAD
 40
0.0
  9
$AUNITS
 70
     0
  9
$AUPREC
 70
     0
  9
$MENU
  1
acad
  9
$ELEVATION
 40
0.0
  9
$PELEVATION
 40
0.0
  9
$THICKNESS
 40
0.0
  9
$LIMCHECK
 70
     0
  9
$CHAMFERA
 40
0.0
  9
$CHAMFERB
 40
0.0
  9
$CHAMFERC
 40
0.0
  9
$CHAMFERD
 40
0.0
  9
$SKPOLY
 70
     0
  9
$TDCREATE
 40
2447893.375
  9
$TDUCREATE
 40
0.0
  9
$TDUPDATE
 40
2458004.72213522
  9
$TDUUPDATE
 40
2458004.34713522
  9
$TDINDWG
 40
0.3542958912
  9
$TDUSRTIMER
 40
2458004.346575058
  9
$USRTIMER
 70
     1
  9
$ANGBASE
 50
0.0
  9
$ANGDIR
 70
     0
  9
$PDMODE
 70
     1
  9
$PDSIZE
 40
-2.0
  9
$PLINEWID
 40
0.0
  9
$SPLFRAME
 70
     0
  9
$SPLINETYPE
 70
     6
  9
$SPLINESEGS
 70
     8
  9
$HANDSEED
  5
2E54
  9
$SURFTAB1
 70
     6
  9
$SURFTAB2
 70
     6
  9
$SURFTYPE
 70
     6
  9
$SURFU
 70
     6
  9
$SURFV
 70
     6
  9
$UCSBASE
  2

  9
$UCSNAME
  2

  9
$UCSORG
 10
0.0
 20
0.0
 30
0.0
  9
$UCSXDIR
 10
1.0
 20
0.0
 30
0.0
  9
$UCSYDIR
 10
0.0
 20
1.0
 30
0.0
  9
$UCSORTHOREF
  2

  9
$UCSORTHOVIEW
 70
     0
  9
$UCSORGTOP
 10
0.0
 20
0.0
 30
0.0
  9
$UCSORGBOTTOM
 10
0.0
 20
0.0
 30
0.0
  9
$UCSORGLEFT
 10
0.0
 20
0.0
 30
0.0
  9
$UCSORGRIGHT
 10
0.0
 20
0.0
 30
0.0
  9
$UCSORGFRONT
 10
0.0
 20
0.0
 30
0.0
  9
$UCSORGBACK
 10
0.0
 20
0.0
 30
0.0
  9
$PUCSBASE
  2

  9
$PUCSNAME
  2

  9
$PUCSORG
 10
0.0
 20
0.0
 30
0.0
  9
$PUCSXDIR
 10
1.0
 20
0.0
 30
0.0
  9
$PUCSYDIR
 10
0.0
 20
1.0
 30
0.0
  9
$PUCSORTHOREF
  2

  9
$PUCSORTHOVIEW
 70
     0
  9
$PUCSORGTOP
 10
0.0
 20
0.0
 30
0.0
  9
$PUCSORGBOTTOM
 10
0.0
 20
0.0
 30
0.0
  9
$PUCSORGLEFT
 10
0.0
 20
0.0
 30
0.0
  9
$PUCSORGRIGHT
 10
0.0
 20
0.0
 30
0.0
  9
$PUCSORGFRONT
 10
0.0
 20
0.0
 30
0.0
  9
$PUCSORGBACK
 10
0.0
 20
0.0
 30
0.0
  9
$USERI1
 70
     0
  9
$USERI2
 70
     0
  9
$USERI3
 70
     0
  9
$USERI4
 70
     0
  9
$USERI5
 70
     0
  9
$USERR1
 40
0.0
  9
$USERR2
 40
0.0
  9
$USERR3
 40
0.0
  9
$USERR4
 40
0.0
  9
$USERR5
 40
0.0
  9
$WORLDVIEW
 70
     1
  9
$SHADEDGE
 70
     3
  9
$SHADEDIF
 70
    70
  9
$TILEMODE
 70
     1
  9
$MAXACTVP
 70
    64
  9
$PINSBASE
 10
0.0
 20
0.0
 30
0.0
  9
$PLIMCHECK
 70
     0
  9
$PEXTMIN
 10
0.0
 20
0.0
 30
0.0
  9
$PEXTMAX
 10
0.0
 20
0.0
 30
0.0
  9
$PLIMMIN
 10
-7.5
 20
-20.0
  9
$PLIMMAX
 10
412.5
 20
277.0
  9
$UNITMODE
 70
     0
  9
$VISRETAIN
 70
     0
  9
$PLINEGEN
 70
     1
  9
$PSLTSCALE
 70
     0
  9
$TREEDEPTH
 70
  3020
  9
$CMLSTYLE
  2
Standard
  9
$CMLJUST
 70
     0
  9
$CMLSCALE
 40
1.0
  9
$PROXYGRAPHICS
 70
     0
  9
$MEASUREMENT
 70
     1
  9
$CELWEIGHT
370
    -1
  9
$ENDCAPS
280
     0
  9
$JOINSTYLE
280
     0
  9
$LWDISPLAY
290
     1
  9
$INSUNITS
 70
     4
  9
$HYPERLINKBASE
  1

  9
$STYLESHEET
  1

  9
$XEDIT
290
     1
  9
$CEPSNTYPE
380
     0
  9
$PSTYLEMODE
290
     1
  9
$FINGERPRINTGUID
  2

  9
$VERSIONGUID
  2

  9
$EXTNAMES
290
     1
  9
$PSVPSCALE
 40
0.0
  9
$OLESTARTUP
290
     0
  9
$SORTENTS
280
   127
  9
$INDEXCTL
280
     0
  9
$HIDETEXT
280
     1
  9
$XCLIPFRAME
290
     0
  9
$HALOGAP
280
     0
  9
$OBSCOLOR
 70
   257
  9
$OBSLTYPE
280
     0
  9
$INTERSECTIONDISPLAY
280
     0
  9
$INTERSECTIONCOLOR
 70
   257
  9
$DIMASSOC
280
     2
  9
$PROJECTNAME
  1

  9
$CAMERADISPLAY
290
     0
  9
$LENSLENGTH
 40
50.0
  9
$CAMERAHEIGHT
 40
0.0
  9
$STEPSPERSEC
 40
2.0
  9
$STEPSIZE
 40
6.0
  9
$3DDWFPREC
 40
2.0
  9
$PSOLWIDTH
 40
0.25
  9
$PSOLHEIGHT
 40
4.0
  9
$LOFTANG1
 40
1.570796326794897
  9
$LOFTANG2
 40
1.570796326794897
  9
$LOFTMAG1
 40
0.0
  9
$LOFTMAG2
 40
0.0
  9
$LOFTPARAM
 70
     7
  9
$LOFTNORMALS
280
     1
  9
$LATITUDE
 40
37.795
  9
$LONGITUDE
 40
-122.394
  9
$NORTHDIRECTION
 40
0.0
  9
$TIMEZONE
 70
 -8000
  9
$LIGHTGLYPHDISPLAY
280
     1
  9
$TILEMODELIGHTSYNCH
280
     1
  9
$SOLIDHIST
280
     1
  9
$SHOWHIST
280
     1
  9
$DWFFRAME
280
     2
  9
$DGNFRAME
280
     2
  9
$REALWORLDSCALE
290
     1
  9
$INTERFERECOLOR
 62
   256
  9
$CSHADOW
280
     0
  9
$SHADOWPLANELOCATION
 40
0.0
  0
ENDSEC
  0
SECTION
  2
CLASSES
  0
CLASS
  1
LWPOLYLINE
  2
AcDbPolyline
  3
ObjectDBX Classes
 90
        0
 91
        1
280
     0
281
     1
  0
CLASS
  1
IMAGE
  2
AcDbRasterImage
  3
ISM
 90
      127
 91
        8
280
     0
281
     1
  0
CLASS
  1
OLE2FRAME
  2
AcDbOle2Frame
  3
ObjectDBX Classes
 90
        0
 91
        1
280
     0
281
     1
  0
CLASS
  1
HATCH
  2
AcDbHatch
  3
ObjectDBX Classes
 90
        0
 91
        1
280
     0
281
     1
  0
CLASS
  1
DICTIONARYVAR
  2
AcDbDictionaryVar
  3
ObjectDBX Classes
 90
        0
 91
        7
280
     0
281
     0
  0
CLASS
  1
RASTERVARIABLES
  2
AcDbRasterVariables
  3
ISM
 90
        0
 91
        7
280
     0
281
     0
  0
CLASS
  1
IMAGEDEF
  2
AcDbRasterImageDef
  3
ISM
 90
        0
 91
        7
280
     0
281
     0
  0
CLASS
  1
IMAGEDEF_REACTOR
  2
AcDbRasterImageDefReactor
  3
ISM
 90
        1
 91
        7
280
     0
281
     0
  0
CLASS
  1
IDBUFFER
  2
AcDbIdBuffer
  3
ObjectDBX Classes
 90
        0
 91
        7
280
     0
281
     0
  0
CLASS
  1
SPATIAL_FILTER
  2
AcDbSpatialFilter
  3
ObjectDBX Classes
 90
        0
 91
        7
280
     0
281
     0
  0
CLASS
  1
XRECORD
  2
AcDbXrecord
  3
ObjectDBX Classes
 90
        0
 91
        1
280
     0
281
     0
  0
CLASS
  1
SORTENTSTABLE
  2
AcDbSortentsTable
  3
ObjectDBX Classes
 90
        0
 91
        7
280
     0
281
     0
  0
CLASS
  1
LAYER_INDEX
  2
AcDbLayerIndex
  3
ObjectDBX Classes
 90
        0
 91
        7
280
     0
281
     0
  0
CLASS
  1
SPATIAL_INDEX
  2
AcDbSpatialIndex
  3
AutoCAD 2000
 90
        0
 91
        7
280
     0
281
     0
  0
CLASS
  1
OBJECT_PTR
  2
CAseDLPNTableRecord
  3
ASE-LPNTableRecord
 90
        1
 91
        7
280
     0
281
     0
  0
CLASS
  1
LAYOUT
  2
AcDbLayout
  3
ObjectDBX Classes
 90
        0
 91
        1
280
     0
281
     0
  0
CLASS
  1
PLOTSETTINGS
  2
AcDbPlotSettings
  3
ObjectDBX Classes
 90
        0
 91
        7
280
     0
281
     0
  0
CLASS
  1
ACDBDICTIONARYWDFLT
  2
AcDbDictionaryWithDefault
  3
ObjectDBX Classes
 90
        0
 91
        7
280
     0
281
     0
  0
CLASS
  1
ACDBPLACEHOLDER
  2
AcDbPlaceHolder
  3
ObjectDBX Classes
 90
        0
 91
        1
280
     0
281
     0
  0
CLASS
  1
SCALE
  2
AcDbScale
  3
ObjectDBX Classes
 90
     1153
 91
        7
280
     0
281
     0
  0
CLASS
  1
MATERIAL
  2
AcDbMaterial
  3
ObjectDBX Classes
 90
     1153
 91
        7
280
     0
281
     0
  0
CLASS
  1
VISUALSTYLE
  2
AcDbVisualStyle
  3
ObjectDBX Classes
 90
     4095
 91
        7
280
     0
281
     0
  0
CLASS
  1
TABLESTYLE
  2
AcDbTableStyle
  3
ObjectDBX Classes
 90
     4095
 91
        7
280
     0
281
     0
  0
CLASS
  1
DIMASSOC
  2
AcDbDimAssoc
  3
"AcDbDimAssoc|Product Desc:     AcDim ARX App For Dimension|Company:          Autodesk, Inc.|WEB Address:      www.autodesk.com"
 90
        0
 91
        7
280
     0
281
     0
  0
CLASS
  1
CELLSTYLEMAP
  2
AcDbCellStyleMap
  3
ObjectDBX Classes
 90
     1152
 91
        7
280
     0
281
     0
  0
CLASS
  1
SUN
  2
AcDbSun
  3
SCENEOE
 90
     1153
 91
        7
280
     0
281
     0
  0
CLASS
  1
MLEADERSTYLE
  2
AcDbMLeaderStyle
  3
ACDB_MLEADERSTYLE_CLASS
 90
     4095
 91
        7
280
     0
281
     0
  0
CLASS
  1
FIELD
  2
AcDbField
  3
ObjectDBX Classes
 90
     1152
 91
        7
280
     0
281
     0
  0
CLASS
  1
FIELDLIST
  2
AcDbFieldList
  3
ObjectDBX Classes
 90
     1152
 91
        7
280
     0
281
     0
  0
ENDSEC
  0
SECTION
  2
TABLES
  0
TABLE
  2
VPORT
  5
7
330
0
100
AcDbSymbolTable
 70
     1
  0
VPORT
  5
15
330
7
100
AcDbSymbolTableRecord
100
AcDbViewportTableRecord
  2
*ACTIVE
 70
     0
 10
0.0
 20
0.0
 11
1.0
 21
1.0
 12
616.0201356709003
 22
668.901285469834
 13
0.0
 23
0.0
 14
1.0
 24
1.0
 15
0.0
 25
0.0
 16
0.0
 26
0.0
 36
1.0
 17
-91.02013567090034
 27
73.59871453016603
 37
-46.86809886248109
 40
1514.7
 41
2.064935064935065
 42
50.0
 43
0.0
 44
0.0
 50
0.0
 51
0.0
 71
    16
 72
  2000
 73
     1
 74
     1
 75
     0
 76
     0
 77
     0
 78
     0
281
     0
 65
     1
110
0.0
120
0.0
130
0.0
111
1.0
121
0.0
131
0.0
112
0.0
122
1.0
132
0.0
 79
     0
146
0.0
348
26C
 60
     3
 61
     5
292
     1
282
     1
141
0.0
142
0.0
 63
   256
361
904
  0
ENDTAB
  0
TABLE
  2
LTYPE
  5
4
330
0
100
AcDbSymbolTable
 70
     4
  0
LTYPE
  5
11
330
4
100
AcDbSymbolTableRecord
100
AcDbLinetypeTableRecord
  2
ByBlock
 70
     0
  3

 72
    65
 73
     0
 40
0.0
  0
LTYPE
  5
12
330
4
100
AcDbSymbolTableRecord
100
AcDbLinetypeTableRecord
  2
ByLayer
 70
     0
  3

 72
    65
 73
     0
 40
0.0
  0
LTYPE
  5
13
330
4
100
AcDbSymbolTableRecord
100
AcDbLinetypeTableRecord
  2
Continuous
 70
     0
  3
Solid line
 72
    65
 73
     0
 40
0.0
  0
LTYPE
  5
D6C
330
4
100
AcDbSymbolTableRecord
100
AcDbLinetypeTableRecord
  2
BORDER
 70
     0
  3
Border __  __  . __  __  . __  __  . __  __  . 
 72
    65
 73
     6
 40
44.45
 49
12.7
 74
     0
 49
-6.35
 74
     0
 49
12.7
 74
     0
 49
-6.35
 74
     0
 49
0.0
 74
     0
 49
-6.35
 74
     0
  0
LTYPE
  5
FF9
330
4
100
AcDbSymbolTableRecord
100
AcDbLinetypeTableRecord
  2
CENTER
 70
     0
  3
 Center _____  _  _____  _  _____  _  _____  _ 
 72
    65
 73
     4
 40
50.8
 49
31.75
 74
     0
 49
-6.35
 74
     0
 49
6.35
 74
     0
 49
-6.35
 74
     0
  0
LTYPE
  5
178B
330
4
100
AcDbSymbolTableRecord
100
AcDbLinetypeTableRecord
  2
HIDDEN
 70
     0
  3
Hidden _ _ _ _ _ _ _ _ _ _ _ _ _ _ _ _ _ _ _ _ 
 72
    65
 73
     2
 40
9.524999999999999
 49
6.35
 74
     0
 49
-3.175
 74
     0
  0
ENDTAB
  0
TABLE
  2
LAYER
  5
2
102
{ACAD_XDICTIONARY
360
2E1
102
}
330
0
100
AcDbSymbolTable
 70
    11
  0
LAYER
  5
14
330
2
100
AcDbSymbolTableRecord
100
AcDbLayerTableRecord
  2
0
 70
     0
 62
     7
  6
Continuous
370
    -3
390
1D
347
266
  0
LAYER
  5
4B
330
2
100
AcDbSymbolTableRecord
100
AcDbLayerTableRecord
  2
TEMPLATE
 70
     0
 62
     7
  6
Continuous
370
    20
390
1D
347
266
  0
LAYER
  5
4C
330
2
100
AcDbSymbolTableRecord
100
AcDbLayerTableRecord
  2
DIM
 70
     0
 62
     7
  6
Continuous
370
    13
390
1D
347
266
  0
LAYER
  5
4D
330
2
100
AcDbSymbolTableRecord
100
AcDbLayerTableRecord
  2
MODEL
 70
     0
 62
     7
  6
Continuous
370
    20
390
1D
347
266
  0
LAYER
  5
667
330
2
100
AcDbSymbolTableRecord
100
AcDbLayerTableRecord
  2
LOGO
 70
     0
 62
     7
  6
Continuous
370
    -3
390
1D
347
266
  0
LAYER
  5
D6B
330
2
100
AcDbSymbolTableRecord
100
AcDbLayerTableRecord
  2
BORDER
 70
     0
 62
     4
  6
BORDER
290
     0
370
    20
390
1D
347
266
1001
AcAecLayerStandard
1000

1000

  0
LAYER
  5
D8C
330
2
100
AcDbSymbolTableRecord
100
AcDbLayerTableRecord
  2
Defpoints
 70
     0
 62
     7
  6
Continuous
290
     0
370
    -3
390
1D
347
266
  0
LAYER
  5
107F
330
2
100
AcDbSymbolTableRecord
100
AcDbLayerTableRecord
  2
レイヤー 1
 70
     0
 62
     7
  6
Continuous
370
    -3
390
1D
347
266
  0
LAYER
  5
28CC
330
2
100
AcDbSymbolTableRecord
100
AcDbLayerTableRecord
  2
モデル
 70
     0
 62
     7
  6
Continuous
370
    20
390
1D
347
266
1001
AcAecLayerStandard
1000

1000

  0
LAYER
  5
28CE
330
2
100
AcDbSymbolTableRecord
100
AcDbLayerTableRecord
  2
寸法
 70
     0
 62
     3
  6
Continuous
370
    13
390
1D
347
266
1001
AcAecLayerStandard
1000

1000

  0
LAYER
  5
28CF
330
2
100
AcDbSymbolTableRecord
100
AcDbLayerTableRecord
  2
CENTER
 70
     0
 62
   252
  6
CENTER
370
    20
390
1D
347
266
1001
AcAecLayerStandard
1000

1000

  0
ENDTAB
  0
TABLE
  2
STYLE
  5
3
330
0
100
AcDbSymbolTable
 70
     2
  0
STYLE
  5
17
330
3
100
AcDbSymbolTableRecord
100
AcDbTextStyleTableRecord
  2
Standard
 70
     0
 40
0.0
 41
1.0
 50
0.0
 71
     0
 42
2.5
  3
txt
  4
BIGFONT.SHX
  0
STYLE
  5
39
330
3
100
AcDbSymbolTableRecord
100
AcDbTextStyleTableRecord
  2
ＭＳ ゴシック
 70
     0
 40
0.0
 41
1.0
 50
0.0
 71
     0
 42
2.5
  3
msgothic.ttc
  4
ＭＳ ゴシック
1001
ACAD
1000
ＭＳ ゴシック
1071
        0
  0
ENDTAB
  0
TABLE
  2
VIEW
  5
5
330
0
100
AcDbSymbolTable
 70
     0
  0
ENDTAB
  0
TABLE
  2
UCS
  5
6
330
0
100
AcDbSymbolTable
 70
     0
  0
ENDTAB
  0
TABLE
  2
APPID
  5
8
330
0
100
AcDbSymbolTable
 70
     3
  0
APPID
  5
16
330
8
100
AcDbSymbolTableRecord
100
AcDbRegAppTableRecord
  2
ACAD
 70
     0
  0
APPID
  5
7AC
330
8
100
AcDbSymbolTableRecord
100
AcDbRegAppTableRecord
  2
AcAecLayerStandard
 70
     0
  0
APPID
  5
E29
330
8
100
AcDbSymbolTableRecord
100
AcDbRegAppTableRecord
  2
ACAD_MLEADERVER
 70
     0
  0
ENDTAB
  0
TABLE
  2
DIMSTYLE
  5
9
330
0
100
AcDbSymbolTable
 70
     2
100
AcDbDimStyleTable
  0
DIMSTYLE
105
18
330
9
100
AcDbSymbolTableRecord
100
AcDbDimStyleTableRecord
  2
Standard
 70
     0
178
     0
340
17
  0
DIMSTYLE
105
57
102
{ACAD_REACTORS
330
FA7
330
1037
330
2745
330
27E4
330
287B
330
291C
330
295A
330
2E01
102
}
330
9
100
AcDbSymbolTableRecord
100
AcDbDimStyleTableRecord
  2
tfrom線あり
 70
     0
  3
<>
  4
[]
 41
2.0
 42
5.0
 43
0.9999999999999999
 44
0.0
 73
     0
 74
     0
 77
     1
 78
    11
140
12.0
141
0.0
143
1.0
147
5.0
171
     1
174
     1
178
     0
179
     2
271
     0
272
     1
276
     2
284
    11
285
    11
286
    11
289
     0
340
39
341
4E
342
4E
  0
ENDTAB
  0
TABLE
  2
BLOCK_RECORD
  5
1
330
0
100
AcDbSymbolTable
 70
    54
  0
BLOCK_RECORD
  5
A
102
{ACAD_XDICTIONARY
360
144E
102
}
330
1
100
AcDbSymbolTableRecord
100
AcDbBlockTableRecord
  2
*MODEL_SPACE
340
20
 70
     0
280
     1
281
     0
  0
BLOCK_RECORD
  5
B
330
1
100
AcDbSymbolTableRecord
100
AcDbBlockTableRecord
  2
*PAPER_SPACE
340
21
 70
     0
280
     1
281
     0
  0
BLOCK_RECORD
  5
4E
330
1
100
AcDbSymbolTableRecord
100
AcDbBlockTableRecord
  2
_DOT
340
0
102
{BLKREFS
331
FAF
331
FB0
331
FBD
331
FBE
331
FC9
331
FCA
331
FD5
331
FD6
331
0
331
FE3
331
1023
331
1024
331
103E
331
103F
331
1051
331
1052
331
1468
331
1469
331
18C0
331
18C1
331
18CC
331
18CD
331
18D8
331
18D9
331
18E6
331
18E7
331
18F3
331
18F4
331
18FF
331
1900
331
190C
331
190D
331
1E84
331
1E85
331
1E93
331
1E94
331
25B7
331
25B8
331
25C6
331
25C7
331
2634
331
2635
331
269F
331
26A0
331
26AC
331
26AD
331
26B9
331
26BA
331
26C8
331
26C9
331
2706
331
2707
331
2712
331
2713
331
271E
331
271F
331
272C
331
272D
331
274D
331
274E
331
27AD
331
27AE
331
27C0
331
27C1
331
27D2
331
27D3
331
27DE
331
27DF
331
27EB
331
27EC
331
2821
331
2822
331
2830
331
2831
331
2884
331
2885
331
2908
331
2909
331
2924
331
2925
331
2962
331
2963
331
2E08
331
2E09
331
FE4
102
}
 70
     0
280
     1
281
     0
  0
BLOCK_RECORD
  5
68A
330
1
100
AcDbSymbolTableRecord
100
AcDbBlockTableRecord
  2
名称未設定-1
340
0
102
{BLKREFS
331
6B5
102
}
 70
     1
280
     1
281
     0
  0
BLOCK_RECORD
  5
68D
330
1
100
AcDbSymbolTableRecord
100
AcDbBlockTableRecord
  2
block 2
340
0
102
{BLKREFS
331
68C
331
11CD
331
162D
102
}
 70
     0
280
     1
281
     0
  0
BLOCK_RECORD
  5
690
330
1
100
AcDbSymbolTableRecord
100
AcDbBlockTableRecord
  2
block 3
340
0
102
{BLKREFS
331
68F
102
}
 70
     0
280
     1
281
     0
  0
BLOCK_RECORD
  5
693
330
1
100
AcDbSymbolTableRecord
100
AcDbBlockTableRecord
  2
block 4
340
0
102
{BLKREFS
331
692
102
}
 70
     0
280
     1
281
     0
  0
BLOCK_RECORD
  5
6A2
330
1
100
AcDbSymbolTableRecord
100
AcDbBlockTableRecord
  2
block 5
340
0
102
{BLKREFS
331
6A1
102
}
 70
     0
280
     1
281
     0
  0
BLOCK_RECORD
  5
FA8
330
1
100
AcDbSymbolTableRecord
100
AcDbBlockTableRecord
  2
*D6
340
0
 70
     0
280
     1
281
     0
  0
BLOCK_RECORD
  5
FB7
330
1
100
AcDbSymbolTableRecord
100
AcDbBlockTableRecord
  2
*D7
340
0
 70
     0
280
     1
281
     0
  0
BLOCK_RECORD
  5
FC3
330
1
100
AcDbSymbolTableRecord
100
AcDbBlockTableRecord
  2
*D8
340
0
 70
     0
280
     1
281
     0
  0
BLOCK_RECORD
  5
FCF
330
1
100
AcDbSymbolTableRecord
100
AcDbBlockTableRecord
  2
*D9
340
0
 70
     0
280
     1
281
     0
  0
BLOCK_RECORD
  5
FDB
330
1
100
AcDbSymbolTableRecord
100
AcDbBlockTableRecord
  2
*D10
340
0
 70
     0
280
     1
281
     0
  0
BLOCK_RECORD
  5
101C
330
1
100
AcDbSymbolTableRecord
100
AcDbBlockTableRecord
  2
*D11
340
0
 70
     0
280
     1
281
     0
  0
BLOCK_RECORD
  5
1038
330
1
100
AcDbSymbolTableRecord
100
AcDbBlockTableRecord
  2
*D12
340
0
 70
     0
280
     1
281
     0
  0
BLOCK_RECORD
  5
104A
330
1
100
AcDbSymbolTableRecord
100
AcDbBlockTableRecord
  2
*D13
340
0
 70
     0
280
     1
281
     0
  0
BLOCK_RECORD
  5
1186
330
1
100
AcDbSymbolTableRecord
100
AcDbBlockTableRecord
  2
block 6
340
0
 70
     0
280
     1
281
     0
  0
BLOCK_RECORD
  5
1194
330
1
100
AcDbSymbolTableRecord
100
AcDbBlockTableRecord
  2
block 7
340
0
 70
     0
280
     1
281
     0
  0
BLOCK_RECORD
  5
1462
330
1
100
AcDbSymbolTableRecord
100
AcDbBlockTableRecord
  2
*D16
340
0
 70
     0
280
     1
281
     0
  0
BLOCK_RECORD
  5
15C6
330
1
100
AcDbSymbolTableRecord
100
AcDbBlockTableRecord
  2
block 8
340
0
 70
     0
280
     1
281
     0
  0
BLOCK_RECORD
  5
15F5
330
1
100
AcDbSymbolTableRecord
100
AcDbBlockTableRecord
  2
block 9
340
0
102
{BLKREFS
331
15F4
102
}
 70
     0
280
     1
281
     0
  0
BLOCK_RECORD
  5
15F8
330
1
100
AcDbSymbolTableRecord
100
AcDbBlockTableRecord
  2
block 10
340
0
102
{BLKREFS
331
15F7
102
}
 70
     0
280
     1
281
     0
  0
BLOCK_RECORD
  5
15FC
330
1
100
AcDbSymbolTableRecord
100
AcDbBlockTableRecord
  2
block 11
340
0
102
{BLKREFS
331
15FB
102
}
 70
     0
280
     1
281
     0
  0
BLOCK_RECORD
  5
18BA
330
1
100
AcDbSymbolTableRecord
100
AcDbBlockTableRecord
  2
*D21
340
0
 70
     0
280
     1
281
     0
  0
BLOCK_RECORD
  5
18C6
330
1
100
AcDbSymbolTableRecord
100
AcDbBlockTableRecord
  2
*D22
340
0
 70
     0
280
     1
281
     0
  0
BLOCK_RECORD
  5
18D2
330
1
100
AcDbSymbolTableRecord
100
AcDbBlockTableRecord
  2
*D23
340
0
 70
     0
280
     1
281
     0
  0
BLOCK_RECORD
  5
18DE
330
1
100
AcDbSymbolTableRecord
100
AcDbBlockTableRecord
  2
*D24
340
0
 70
     0
280
     1
281
     0
  0
BLOCK_RECORD
  5
18EC
330
1
100
AcDbSymbolTableRecord
100
AcDbBlockTableRecord
  2
*D25
340
0
 70
     0
280
     1
281
     0
  0
BLOCK_RECORD
  5
18F9
330
1
100
AcDbSymbolTableRecord
100
AcDbBlockTableRecord
  2
*D26
340
0
 70
     0
280
     1
281
     0
  0
BLOCK_RECORD
  5
1905
330
1
100
AcDbSymbolTableRecord
100
AcDbBlockTableRecord
  2
*D27
340
0
 70
     0
280
     1
281
     0
  0
BLOCK_RECORD
  5
1E7E
330
1
100
AcDbSymbolTableRecord
100
AcDbBlockTableRecord
  2
*D28
340
0
 70
     0
280
     1
281
     0
  0
BLOCK_RECORD
  5
1E8D
330
1
100
AcDbSymbolTableRecord
100
AcDbBlockTableRecord
  2
*D29
340
0
 70
     0
280
     1
281
     0
  0
BLOCK_RECORD
  5
25B1
330
1
100
AcDbSymbolTableRecord
100
AcDbBlockTableRecord
  2
*D30
340
0
 70
     0
280
     1
281
     0
  0
BLOCK_RECORD
  5
25C0
330
1
100
AcDbSymbolTableRecord
100
AcDbBlockTableRecord
  2
*D31
340
0
 70
     0
280
     1
281
     0
  0
BLOCK_RECORD
  5
262E
330
1
100
AcDbSymbolTableRecord
100
AcDbBlockTableRecord
  2
*D32
340
0
 70
     0
280
     1
281
     0
  0
BLOCK_RECORD
  5
269A
330
1
100
AcDbSymbolTableRecord
100
AcDbBlockTableRecord
  2
*D33
340
0
 70
     0
280
     1
281
     0
  0
BLOCK_RECORD
  5
26A7
330
1
100
AcDbSymbolTableRecord
100
AcDbBlockTableRecord
  2
*D34
340
0
 70
     0
280
     1
281
     0
  0
BLOCK_RECORD
  5
26B4
330
1
100
AcDbSymbolTableRecord
100
AcDbBlockTableRecord
  2
*D35
340
0
 70
     0
280
     1
281
     0
  0
BLOCK_RECORD
  5
26C1
330
1
100
AcDbSymbolTableRecord
100
AcDbBlockTableRecord
  2
*D36
340
0
 70
     0
280
     1
281
     0
  0
BLOCK_RECORD
  5
2700
330
1
100
AcDbSymbolTableRecord
100
AcDbBlockTableRecord
  2
*D37
340
0
 70
     0
280
     1
281
     0
  0
BLOCK_RECORD
  5
270C
330
1
100
AcDbSymbolTableRecord
100
AcDbBlockTableRecord
  2
*D38
340
0
 70
     0
280
     1
281
     0
  0
BLOCK_RECORD
  5
2718
330
1
100
AcDbSymbolTableRecord
100
AcDbBlockTableRecord
  2
*D39
340
0
 70
     0
280
     1
281
     0
  0
BLOCK_RECORD
  5
2724
330
1
100
AcDbSymbolTableRecord
100
AcDbBlockTableRecord
  2
*D40
340
0
 70
     0
280
     1
281
     0
  0
BLOCK_RECORD
  5
2747
330
1
100
AcDbSymbolTableRecord
100
AcDbBlockTableRecord
  2
*D41
340
0
 70
     0
280
     1
281
     0
  0
BLOCK_RECORD
  5
27A7
330
1
100
AcDbSymbolTableRecord
100
AcDbBlockTableRecord
  2
*D42
340
0
 70
     0
280
     1
281
     0
  0
BLOCK_RECORD
  5
27BA
330
1
100
AcDbSymbolTableRecord
100
AcDbBlockTableRecord
  2
*D43
340
0
 70
     0
280
     1
281
     0
  0
BLOCK_RECORD
  5
27CC
330
1
100
AcDbSymbolTableRecord
100
AcDbBlockTableRecord
  2
*D44
340
0
 70
     0
280
     1
281
     0
  0
BLOCK_RECORD
  5
27D8
330
1
100
AcDbSymbolTableRecord
100
AcDbBlockTableRecord
  2
*D45
340
0
 70
     0
280
     1
281
     0
  0
BLOCK_RECORD
  5
27E5
330
1
100
AcDbSymbolTableRecord
100
AcDbBlockTableRecord
  2
*D46
340
0
 70
     0
280
     1
281
     0
  0
BLOCK_RECORD
  5
281B
330
1
100
AcDbSymbolTableRecord
100
AcDbBlockTableRecord
  2
*D47
340
0
 70
     0
280
     1
281
     0
  0
BLOCK_RECORD
  5
282A
330
1
100
AcDbSymbolTableRecord
100
AcDbBlockTableRecord
  2
*D48
340
0
 70
     0
280
     1
281
     0
  0
BLOCK_RECORD
  5
287E
330
1
100
AcDbSymbolTableRecord
100
AcDbBlockTableRecord
  2
*D49
340
0
 70
     0
280
     1
281
     0
  0
BLOCK_RECORD
  5
2903
330
1
100
AcDbSymbolTableRecord
100
AcDbBlockTableRecord
  2
*D50
340
0
 70
     0
280
     1
281
     0
  0
BLOCK_RECORD
  5
291E
330
1
100
AcDbSymbolTableRecord
100
AcDbBlockTableRecord
  2
*D51
340
0
 70
     0
280
     1
281
     0
  0
BLOCK_RECORD
  5
295D
330
1
100
AcDbSymbolTableRecord
100
AcDbBlockTableRecord
  2
*D52
340
0
 70
     0
280
     1
281
     0
  0
BLOCK_RECORD
  5
2E02
330
1
100
AcDbSymbolTableRecord
100
AcDbBlockTableRecord
  2
*D53
340
0
 70
     0
280
     1
281
     0
  0
ENDTAB
  0
ENDSEC
  0
SECTION
  2
BLOCKS
  0
BLOCK
  5
D
330
A
100
AcDbEntity
  8
0
390
1D
100
AcDbBlockBegin
  2
*MODEL_SPACE
 70
     0
 10
0.0
 20
0.0
 30
0.0
  3
*MODEL_SPACE
  1
*MODEL_SPACE
  0
ENDBLK
  5
E
330
A
100
AcDbEntity
  8
0
390
1D
100
AcDbBlockEnd
  0
BLOCK
  5
F
330
B
100
AcDbEntity
 67
     1
  8
0
390
1D
100
AcDbBlockBegin
  2
*PAPER_SPACE
 70
     0
 10
0.0
 20
0.0
 30
0.0
  3
*PAPER_SPACE
  1
*PAPER_SPACE
  0
ENDBLK
  5
10
330
B
100
AcDbEntity
 67
     1
  8
0
390
1D
100
AcDbBlockEnd
  0
BLOCK
  5
27FD
330
4E
100
AcDbEntity
  8
0
390
1D
100
AcDbBlockBegin
  2
_DOT
 70
     0
 10
0.0
 20
0.0
 30
0.0
  3
_DOT
  1
_DOT
  0
POLYLINE
  5
27FF
330
4E
100
AcDbEntity
  8
0
  6
ByBlock
 62
     0
370
    -2
390
1D
100
AcDb2dPolyline
 66
     1
 10
0.0
 20
0.0
 30
0.0
 70
     1
 40
0.5
 41
0.5
  0
VERTEX
  5
2800
330
27FF
100
AcDbEntity
  8
0
  6
ByBlock
 62
     0
370
    -2
390
1D
100
AcDbVertex
100
AcDb2dVertex
 10
-0.25
 20
0.0
 30
0.0
 42
1.0
  0
VERTEX
  5
2801
330
27FF
100
AcDbEntity
  8
0
  6
ByBlock
 62
     0
370
    -2
390
1D
100
AcDbVertex
100
AcDb2dVertex
 10
0.25
 20
0.0
 30
0.0
 42
1.0
  0
SEQEND
  5
2802
330
27FF
100
AcDbEntity
  8
0
390
1D
  0
LINE
  5
2803
330
4E
100
AcDbEntity
  8
0
  6
ByBlock
 62
     0
370
    -2
390
1D
100
AcDbLine
 10
-0.5
 20
0.0
 30
0.0
 11
-1.0
 21
0.0
 31
0.0
  0
ENDBLK
  5
2804
330
4E
100
AcDbEntity
  8
0
390
1D
100
AcDbBlockEnd
  0
BLOCK
  5
68B
330
68A
100
AcDbEntity
  8
0
100
AcDbBlockBegin
  2
名称未設定-1
 70
     0
 10
0.0
 20
0.0
 30
0.0
  3
名称未設定-1
  1
名称未設定-1
  0
INSERT
  5
68F
330
68A
100
AcDbEntity
  8
LOGO
100
AcDbBlockReference
  2
block 3
 10
0.0
 20
0.0
 30
0.0
  0
ENDBLK
  5
6B1
330
68A
100
AcDbEntity
  8
0
100
AcDbBlockEnd
  0
BLOCK
  5
68E
330
68D
100
AcDbEntity
  8
0
100
AcDbBlockBegin
  2
block 2
 70
     0
 10
0.0
 20
0.0
 30
0.0
  3
block 2
  1
block 2
  0
ENDBLK
  5
6B0
330
68D
100
AcDbEntity
  8
0
100
AcDbBlockEnd
  0
BLOCK
  5
691
330
690
100
AcDbEntity
  8
0
100
AcDbBlockBegin
  2
block 3
 70
     0
 10
0.0
 20
0.0
 30
0.0
  3
block 3
  1
block 3
  0
INSERT
  5
692
330
690
100
AcDbEntity
  8
LOGO
100
AcDbBlockReference
  2
block 4
 10
0.0
 20
0.0
 30
0.0
  0
INSERT
  5
6A1
330
690
100
AcDbEntity
  8
LOGO
100
AcDbBlockReference
  2
block 5
 10
0.0
 20
0.0
 30
0.0
  0
ENDBLK
  5
6AF
330
690
100
AcDbEntity
  8
0
100
AcDbBlockEnd
  0
BLOCK
  5
694
330
693
100
AcDbEntity
  8
0
100
AcDbBlockBegin
  2
block 4
 70
     0
 10
0.0
 20
0.0
 30
0.0
  3
block 4
  1
block 4
  0
POLYLINE
  5
695
330
693
100
AcDbEntity
  8
LOGO
370
     0
100
AcDb2dPolyline
 66
     1
 10
0.0
 20
0.0
 30
0.0
  0
VERTEX
  5
696
330
695
100
AcDbEntity
  8
LOGO
370
     0
100
AcDbVertex
100
AcDb2dVertex
 10
83.79545727667795
 20
167.6444858234922
 30
0.0
  0
VERTEX
  5
697
330
695
100
AcDbEntity
  8
LOGO
370
     0
100
AcDbVertex
100
AcDb2dVertex
 10
83.79545727667795
 20
159.7968976406313
 30
0.0
  0
VERTEX
  5
698
330
695
100
AcDbEntity
  8
LOGO
370
     0
100
AcDbVertex
100
AcDb2dVertex
 10
71.3631329975216
 20
159.7968976406313
 30
0.0
  0
VERTEX
  5
699
330
695
100
AcDbEntity
  8
LOGO
370
     0
100
AcDbVertex
100
AcDb2dVertex
 10
71.3631329975216
 20
127.8027915271048
 30
0.0
  0
VERTEX
  5
69A
330
695
100
AcDbEntity
  8
LOGO
370
     0
100
AcDbVertex
100
AcDb2dVertex
 10
60.43011526263018
 20
127.8027915271048
 30
0.0
  0
VERTEX
  5
69B
330
695
100
AcDbEntity
  8
LOGO
370
     0
100
AcDbVertex
100
AcDb2dVertex
 10
60.43011526263018
 20
159.7968976406313
 30
0.0
  0
VERTEX
  5
69C
330
695
100
AcDbEntity
  8
LOGO
370
     0
100
AcDbVertex
100
AcDb2dVertex
 10
48.21793273020759
 20
159.7968976406313
 30
0.0
  0
VERTEX
  5
69D
330
695
100
AcDbEntity
  8
LOGO
370
     0
100
AcDbVertex
100
AcDb2dVertex
 10
48.21793273020759
 20
167.6444858234922
 30
0.0
  0
VERTEX
  5
69E
330
695
100
AcDbEntity
  8
LOGO
370
     0
100
AcDbVertex
100
AcDb2dVertex
 10
83.79545727667795
 20
167.6444858234922
 30
0.0
  0
SEQEND
  5
69F
330
695
100
AcDbEntity
  8
LOGO
370
     0
  0
HATCH
  5
6A0
330
693
100
AcDbEntity
  8
LOGO
 62
   250
420
  2234388
100
AcDbHatch
 10
0.0
 20
0.0
 30
0.0
210
0.0
220
0.0
230
1.0
  2
SOLID
 70
     1
 71
     0
 91
        1
 92
        1
 93
        8
 72
     1
 10
83.79545727667795
 20
167.6444858234922
 11
83.79545727667795
 21
159.7968976406313
 72
     1
 10
83.79545727667795
 20
159.7968976406313
 11
71.3631329975216
 21
159.7968976406313
 72
     1
 10
71.3631329975216
 20
159.7968976406313
 11
71.3631329975216
 21
127.8027915271048
 72
     1
 10
71.3631329975216
 20
127.8027915271048
 11
60.43011526263018
 21
127.8027915271048
 72
     1
 10
60.43011526263018
 20
127.8027915271048
 11
60.43011526263018
 21
159.7968976406313
 72
     1
 10
60.43011526263018
 20
159.7968976406313
 11
48.21793273020759
 21
159.7968976406313
 72
     1
 10
48.21793273020759
 20
159.7968976406313
 11
48.21793273020759
 21
167.6444858234922
 72
     1
 10
48.21793273020759
 20
167.6444858234922
 11
83.79545727667795
 21
167.6444858234922
 97
        0
 75
     2
 76
     1
 98
        0
  0
ENDBLK
  5
6AE
330
693
100
AcDbEntity
  8
0
100
AcDbBlockEnd
  0
BLOCK
  5
6A3
330
6A2
100
AcDbEntity
  8
0
100
AcDbBlockBegin
  2
block 5
 70
     0
 10
0.0
 20
0.0
 30
0.0
  3
block 5
  1
block 5
  0
SPLINE
  5
6A4
330
6A2
100
AcDbEntity
  8
LOGO
370
     0
100
AcDbSpline
210
0.0
220
0.0
230
1.0
 70
    11
 71
     3
 72
    56
 73
    52
 74
     0
 42
0.000000001
 43
0.0000000001
 40
0.0
 40
0.0
 40
0.0
 40
0.0
 40
1.0
 40
1.0
 40
1.0
 40
2.0
 40
2.0
 40
2.0
 40
3.0
 40
3.0
 40
3.0
 40
4.0
 40
4.0
 40
4.0
 40
5.0
 40
5.0
 40
5.0
 40
6.0
 40
6.0
 40
6.0
 40
7.0
 40
7.0
 40
7.0
 40
8.0
 40
8.0
 40
8.0
 40
9.0
 40
9.0
 40
9.0
 40
10.0
 40
10.0
 40
10.0
 40
11.0
 40
11.0
 40
11.0
 40
12.0
 40
12.0
 40
12.0
 40
13.0
 40
13.0
 40
13.0
 40
14.0
 40
14.0
 40
14.0
 40
15.0
 40
15.0
 40
15.0
 40
16.0
 40
16.0
 40
16.0
 40
17.0
 40
17.0
 40
17.0
 40
17.0
 10
100.4504378777679
 20
166.69157178364
 30
0.0
 10
101.9848844191641
 20
167.1313385124438
 30
0.0
 10
103.9637485713373
 20
166.7649523658846
 30
0.0
 10
103.9637485713373
 20
166.7649523658846
 30
0.0
 10
103.9637485713373
 20
166.7649523658846
 30
0.0
 10
103.0132460999156
 20
163.911205638077
 30
0.0
 10
103.0132460999156
 20
163.911205638077
 30
0.0
 10
103.0132460999156
 20
163.911205638077
 30
0.0
 10
101.0674548862189
 20
164.3601018759394
 30
0.0
 10
99.57090442016032
 20
163.1805004036133
 30
0.0
 10
98.40508333886608
 20
162.258247733807
 30
0.0
 10
97.65301849830304
 20
159.804132345923
 30
0.0
 10
97.3598406791005
 20
158.8699940888517
 30
0.0
 10
97.3598406791005
 20
158.8699940888517
 30
0.0
 10
96.07137411762282
 20
154.9119212747295
 30
0.0
 10
96.07137411762282
 20
154.9119212747295
 30
0.0
 10
96.07137411762282
 20
154.9119212747295
 30
0.0
 10
100.3012651448482
 20
154.9119212747295
 30
0.0
 10
100.3012651448482
 20
154.9119212747295
 30
0.0
 10
100.3012651448482
 20
154.9119212747295
 30
0.0
 10
99.64152892419852
 20
152.4199098115079
 30
0.0
 10
99.64152892419852
 20
152.4199098115079
 30
0.0
 10
99.64152892419852
 20
152.4199098115079
 30
0.0
 10
95.38097652692731
 20
152.4199098115079
 30
0.0
 10
95.38097652692731
 20
152.4199098115079
 30
0.0
 10
95.38097652692731
 20
152.4199098115079
 30
0.0
 10
87.75353009080013
 20
127.8027915271048
 30
0.0
 10
87.75353009080013
 20
127.8027915271048
 30
0.0
 10
87.75353009080013
 20
127.8027915271048
 30
0.0
 10
85.36538832498108
 20
127.8027915271048
 30
0.0
 10
85.36538832498108
 20
127.8027915271048
 30
0.0
 10
85.36538832498108
 20
127.8027915271048
 30
0.0
 10
93.00006946639998
 20
152.4199098115079
 30
0.0
 10
93.00006946639998
 20
152.4199098115079
 30
0.0
 10
93.00006946639998
 20
152.4199098115079
 30
0.0
 10
89.85297266450198
 20
152.4199098115079
 30
0.0
 10
89.85297266450198
 20
152.4199098115079
 30
0.0
 10
89.85297266450198
 20
152.4199098115079
 30
0.0
 10
90.51270888515164
 20
154.9119212747295
 30
0.0
 10
90.51270888515164
 20
154.9119212747295
 30
0.0
 10
90.51270888515164
 20
154.9119212747295
 30
0.0
 10
93.6904670570955
 20
154.9119212747295
 30
0.0
 10
93.6904670570955
 20
154.9119212747295
 30
0.0
 10
93.6904670570955
 20
154.9119212747295
 30
0.0
 10
94.81598049462158
 20
158.3616699146644
 30
0.0
 10
94.81598049462158
 20
158.3616699146644
 30
0.0
 10
95.7237637538445
 20
161.2605474231013
 30
0.0
 10
96.4968436907311
 20
162.8139420021662
 30
0.0
 10
97.15657991138076
 20
163.9844139654337
 30
0.0
 10
97.81183750494507
 20
165.1523021053827
 30
0.0
 10
99.1047826935081
 20
166.3084769129547
 30
0.0
 10
100.4504378777679
 20
166.69157178364
 30
0.0
  0
HATCH
  5
6A5
330
6A2
100
AcDbEntity
  8
LOGO
 62
   250
420
  2234388
100
AcDbHatch
 10
0.0
 20
0.0
 30
0.0
210
0.0
220
0.0
230
1.0
  2
SOLID
 70
     1
 71
     0
 91
        1
 92
        1
 93
        1
 72
     4
 94
        3
 73
     0
 74
     1
 95
       56
 96
       52
 40
0.0
 40
0.0
 40
0.0
 40
0.0
 40
1.0
 40
1.0
 40
1.0
 40
2.0
 40
2.0
 40
2.0
 40
3.0
 40
3.0
 40
3.0
 40
4.0
 40
4.0
 40
4.0
 40
5.0
 40
5.0
 40
5.0
 40
6.0
 40
6.0
 40
6.0
 40
7.0
 40
7.0
 40
7.0
 40
8.0
 40
8.0
 40
8.0
 40
9.0
 40
9.0
 40
9.0
 40
10.0
 40
10.0
 40
10.0
 40
11.0
 40
11.0
 40
11.0
 40
12.0
 40
12.0
 40
12.0
 40
13.0
 40
13.0
 40
13.0
 40
14.0
 40
14.0
 40
14.0
 40
15.0
 40
15.0
 40
15.0
 40
16.0
 40
16.0
 40
16.0
 40
17.0
 40
17.0
 40
17.0
 40
17.0
 10
100.4504378777679
 20
166.69157178364
 10
101.9848844191641
 20
167.1313385124438
 10
103.9637485713373
 20
166.7649523658846
 10
103.9637485713373
 20
166.7649523658846
 10
103.9637485713373
 20
166.7649523658846
 10
103.0132460999156
 20
163.911205638077
 10
103.0132460999156
 20
163.911205638077
 10
103.0132460999156
 20
163.911205638077
 10
101.0674548862189
 20
164.3601018759394
 10
99.57090442016032
 20
163.1805004036133
 10
98.40508333886608
 20
162.258247733807
 10
97.65301849830304
 20
159.804132345923
 10
97.3598406791005
 20
158.8699940888517
 10
97.3598406791005
 20
158.8699940888517
 10
96.07137411762282
 20
154.9119212747295
 10
96.07137411762282
 20
154.9119212747295
 10
96.07137411762282
 20
154.9119212747295
 10
100.3012651448482
 20
154.9119212747295
 10
100.3012651448482
 20
154.9119212747295
 10
100.3012651448482
 20
154.9119212747295
 10
99.64152892419852
 20
152.4199098115079
 10
99.64152892419852
 20
152.4199098115079
 10
99.64152892419852
 20
152.4199098115079
 10
95.38097652692731
 20
152.4199098115079
 10
95.38097652692731
 20
152.4199098115079
 10
95.38097652692731
 20
152.4199098115079
 10
87.75353009080013
 20
127.8027915271048
 10
87.75353009080013
 20
127.8027915271048
 10
87.75353009080013
 20
127.8027915271048
 10
85.36538832498108
 20
127.8027915271048
 10
85.36538832498108
 20
127.8027915271048
 10
85.36538832498108
 20
127.8027915271048
 10
93.00006946639998
 20
152.4199098115079
 10
93.00006946639998
 20
152.4199098115079
 10
93.00006946639998
 20
152.4199098115079
 10
89.85297266450198
 20
152.4199098115079
 10
89.85297266450198
 20
152.4199098115079
 10
89.85297266450198
 20
152.4199098115079
 10
90.51270888515164
 20
154.9119212747295
 10
90.51270888515164
 20
154.9119212747295
 10
90.51270888515164
 20
154.9119212747295
 10
93.6904670570955
 20
154.9119212747295
 10
93.6904670570955
 20
154.9119212747295
 10
93.6904670570955
 20
154.9119212747295
 10
94.81598049462158
 20
158.3616699146644
 10
94.81598049462158
 20
158.3616699146644
 10
95.7237637538445
 20
161.2605474231013
 10
96.4968436907311
 20
162.8139420021662
 10
97.15657991138076
 20
163.9844139654337
 10
97.81183750494507
 20
165.1523021053827
 10
99.1047826935081
 20
166.3084769129547
 10
100.4504378777679
 20
166.69157178364
 97
        0
 75
     2
 76
     1
 98
        0
  0
SPLINE
  5
6A6
330
6A2
100
AcDbEntity
  8
LOGO
370
     0
100
AcDbSpline
210
0.0
220
0.0
230
1.0
 70
    11
 71
     3
 72
    38
 73
    34
 74
     0
 42
0.000000001
 43
0.0000000001
 40
0.0
 40
0.0
 40
0.0
 40
0.0
 40
1.0
 40
1.0
 40
1.0
 40
2.0
 40
2.0
 40
2.0
 40
3.0
 40
3.0
 40
3.0
 40
4.0
 40
4.0
 40
4.0
 40
5.0
 40
5.0
 40
5.0
 40
6.0
 40
6.0
 40
6.0
 40
7.0
 40
7.0
 40
7.0
 40
8.0
 40
8.0
 40
8.0
 40
9.0
 40
9.0
 40
9.0
 40
10.0
 40
10.0
 40
10.0
 40
11.0
 40
11.0
 40
11.0
 40
11.0
 10
126.377554584636
 20
154.8151140277308
 30
0.0
 10
126.377554584636
 20
154.8151140277308
 30
0.0
 10
128.8311532078563
 20
154.8151140277308
 30
0.0
 10
128.8311532078563
 20
154.8151140277308
 30
0.0
 10
128.8311532078563
 20
154.8151140277308
 30
0.0
 10
127.7345785914971
 20
151.3062819612468
 30
0.0
 10
127.7345785914971
 20
151.3062819612468
 30
0.0
 10
128.571392836906
 20
152.2922689395754
 30
0.0
 10
129.8860421413442
 20
153.604506675583
 30
0.0
 10
131.0163787157314
 20
154.2664822097754
 30
0.0
 10
132.7044766171327
 20
155.2500576196734
 30
0.0
 10
133.6642808525008
 20
155.3847609420097
 30
0.0
 10
134.7284715499351
 20
155.3565111403944
 30
0.0
 10
134.7284715499351
 20
155.3565111403944
 30
0.0
 10
133.6877075172549
 20
152.0345756272799
 30
0.0
 10
133.6877075172549
 20
152.0345756272799
 30
0.0
 10
133.011434827367
 20
152.3184516825359
 30
0.0
 10
130.930940291334
 20
151.7768823149844
 30
0.0
 10
129.739280976855
 20
150.9162968950455
 30
0.0
 10
128.66613302525
 20
150.1454562717016
 30
0.0
 10
127.9192358313239
 20
149.4857200510519
 30
0.0
 10
127.0393578639405
 20
147.8282835196966
 30
0.0
 10
126.164647543194
 20
146.1699857139017
 30
0.0
 10
125.4742499524985
 20
143.5262176944419
 30
0.0
 10
124.2822461282437
 20
139.6959580071401
 30
0.0
 10
124.2822461282437
 20
139.6959580071401
 30
0.0
 10
120.5753209406769
 20
127.8027915271048
 30
0.0
 10
120.5753209406769
 20
127.8027915271048
 30
0.0
 10
120.5753209406769
 20
127.8027915271048
 30
0.0
 10
118.1964809388044
 20
127.8027915271048
 30
0.0
 10
118.1964809388044
 20
127.8027915271048
 30
0.0
 10
118.1964809388044
 20
127.8027915271048
 30
0.0
 10
126.377554584636
 20
154.8151140277308
 30
0.0
 10
126.377554584636
 20
154.8151140277308
 30
0.0
  0
HATCH
  5
6A7
330
6A2
100
AcDbEntity
  8
LOGO
 62
   250
420
  2234388
100
AcDbHatch
 10
0.0
 20
0.0
 30
0.0
210
0.0
220
0.0
230
1.0
  2
SOLID
 70
     1
 71
     0
 91
        1
 92
        1
 93
        1
 72
     4
 94
        3
 73
     0
 74
     1
 95
       38
 96
       34
 40
0.0
 40
0.0
 40
0.0
 40
0.0
 40
1.0
 40
1.0
 40
1.0
 40
2.0
 40
2.0
 40
2.0
 40
3.0
 40
3.0
 40
3.0
 40
4.0
 40
4.0
 40
4.0
 40
5.0
 40
5.0
 40
5.0
 40
6.0
 40
6.0
 40
6.0
 40
7.0
 40
7.0
 40
7.0
 40
8.0
 40
8.0
 40
8.0
 40
9.0
 40
9.0
 40
9.0
 40
10.0
 40
10.0
 40
10.0
 40
11.0
 40
11.0
 40
11.0
 40
11.0
 10
126.377554584636
 20
154.8151140277308
 10
126.377554584636
 20
154.8151140277308
 10
128.8311532078563
 20
154.8151140277308
 10
128.8311532078563
 20
154.8151140277308
 10
128.8311532078563
 20
154.8151140277308
 10
127.7345785914971
 20
151.3062819612468
 10
127.7345785914971
 20
151.3062819612468
 10
128.571392836906
 20
152.2922689395754
 10
129.8860421413442
 20
153.604506675583
 10
131.0163787157314
 20
154.2664822097754
 10
132.7044766171327
 20
155.2500576196734
 10
133.6642808525008
 20
155.3847609420097
 10
134.7284715499351
 20
155.3565111403944
 10
134.7284715499351
 20
155.3565111403944
 10
133.6877075172549
 20
152.0345756272799
 10
133.6877075172549
 20
152.0345756272799
 10
133.011434827367
 20
152.3184516825359
 10
130.930940291334
 20
151.7768823149844
 10
129.739280976855
 20
150.9162968950455
 10
128.66613302525
 20
150.1454562717016
 10
127.9192358313239
 20
149.4857200510519
 10
127.0393578639405
 20
147.8282835196966
 10
126.164647543194
 20
146.1699857139017
 10
125.4742499524985
 20
143.5262176944419
 10
124.2822461282437
 20
139.6959580071401
 10
124.2822461282437
 20
139.6959580071401
 10
120.5753209406769
 20
127.8027915271048
 10
120.5753209406769
 20
127.8027915271048
 10
120.5753209406769
 20
127.8027915271048
 10
118.1964809388044
 20
127.8027915271048
 10
118.1964809388044
 20
127.8027915271048
 10
118.1964809388044
 20
127.8027915271048
 10
126.377554584636
 20
154.8151140277308
 10
126.377554584636
 20
154.8151140277308
 97
        0
 75
     2
 76
     1
 98
        0
  0
SPLINE
  5
6A8
330
6A2
100
AcDbEntity
  8
LOGO
370
     0
100
AcDbSpline
210
0.0
220
0.0
230
1.0
 70
    11
 71
     3
 72
   104
 73
   100
 74
     0
 42
0.000000001
 43
0.0000000001
 40
0.0
 40
0.0
 40
0.0
 40
0.0
 40
1.0
 40
1.0
 40
1.0
 40
2.0
 40
2.0
 40
2.0
 40
3.0
 40
3.0
 40
3.0
 40
4.0
 40
4.0
 40
4.0
 40
5.0
 40
5.0
 40
5.0
 40
6.0
 40
6.0
 40
6.0
 40
7.0
 40
7.0
 40
7.0
 40
8.0
 40
8.0
 40
8.0
 40
9.0
 40
9.0
 40
9.0
 40
10.0
 40
10.0
 40
10.0
 40
11.0
 40
11.0
 40
11.0
 40
12.0
 40
12.0
 40
12.0
 40
13.0
 40
13.0
 40
13.0
 40
14.0
 40
14.0
 40
14.0
 40
15.0
 40
15.0
 40
15.0
 40
16.0
 40
16.0
 40
16.0
 40
17.0
 40
17.0
 40
17.0
 40
18.0
 40
18.0
 40
18.0
 40
19.0
 40
19.0
 40
19.0
 40
20.0
 40
20.0
 40
20.0
 40
21.0
 40
21.0
 40
21.0
 40
22.0
 40
22.0
 40
22.0
 40
23.0
 40
23.0
 40
23.0
 40
24.0
 40
24.0
 40
24.0
 40
25.0
 40
25.0
 40
25.0
 40
26.0
 40
26.0
 40
26.0
 40
27.0
 40
27.0
 40
27.0
 40
28.0
 40
28.0
 40
28.0
 40
29.0
 40
29.0
 40
29.0
 40
30.0
 40
30.0
 40
30.0
 40
31.0
 40
31.0
 40
31.0
 40
32.0
 40
32.0
 40
32.0
 40
33.0
 40
33.0
 40
33.0
 40
33.0
 10
139.8926730891197
 20
154.8294111834263
 30
0.0
 10
139.8926730891197
 20
154.8294111834263
 30
0.0
 10
142.0344903652445
 20
154.8294111834263
 30
0.0
 10
142.0344903652445
 20
154.8294111834263
 30
0.0
 10
142.0344903652445
 20
154.8294111834263
 30
0.0
 10
140.9516961399171
 20
151.3157559800812
 30
0.0
 10
140.9516961399171
 20
151.3157559800812
 30
0.0
 10
141.8928968473923
 20
152.7887075264977
 30
0.0
 10
142.7341897198865
 20
153.4484437471474
 30
0.0
 10
143.8552245303272
 20
154.2926649527359
 30
0.0
 10
144.9803934580775
 20
155.1296514530327
 30
0.0
 10
146.3139908001845
 20
155.3044901642492
 30
0.0
 10
147.241066606852
 20
155.3044901642492
 30
0.0
 10
148.3855280820469
 20
155.3044901642492
 30
0.0
 10
149.4969166187653
 20
155.0752189084569
 30
0.0
 10
150.0784491203092
 20
153.8172414621372
 30
0.0
 10
150.5228667310863
 20
152.833838307127
 30
0.0
 10
150.5414702589793
 20
152.7201500811143
 30
0.0
 10
150.4140016419347
 20
150.7765981809602
 30
0.0
 10
151.5818897818837
 20
152.7699317437168
 30
0.0
 10
152.4424752018226
 20
153.6256940267945
 30
0.0
 10
153.9038856707499
 20
154.4507949398263
 30
0.0
 10
155.4455669174378
 20
155.3044901642492
 30
0.0
 10
156.339225275853
 20
155.3659851592288
 30
0.0
 10
157.3748216618963
 20
155.2147453676543
 30
0.0
 10
158.911679771723
 20
154.9877134254046
 30
0.0
 10
159.8859534176746
 20
154.4390816074493
 30
0.0
 10
160.3965169054045
 20
152.7816450760939
 30
0.0
 10
160.9070803931344
 20
151.1219692311958
 30
0.0
 10
160.6328506116007
 20
150.2303779314354
 30
0.0
 10
159.9992971339115
 20
147.597634224801
 30
0.0
 10
159.7105979417943
 20
146.4014962832367
 30
0.0
 10
159.2947746424084
 20
144.9400858143094
 30
0.0
 10
158.7463150793409
 20
143.2092687007094
 30
0.0
 10
158.7463150793409
 20
143.2092687007094
 30
0.0
 10
153.9038856707499
 20
127.8027915271048
 30
0.0
 10
153.9038856707499
 20
127.8027915271048
 30
0.0
 10
153.9038856707499
 20
127.8027915271048
 30
0.0
 10
151.3882752878863
 20
127.8027915271048
 30
0.0
 10
151.3882752878863
 20
127.8027915271048
 30
0.0
 10
151.3882752878863
 20
127.8027915271048
 30
0.0
 10
155.6250565106276
 20
141.2751908193897
 30
0.0
 10
155.6250565106276
 20
141.2751908193897
 30
0.0
 10
156.5094131050963
 20
144.0936252951782
 30
0.0
 10
157.109893644309
 20
146.1506931664571
 30
0.0
 10
157.4220195011804
 20
147.4415712963654
 30
0.0
 10
157.8095929989511
 20
149.0530157726519
 30
0.0
 10
157.9656559273867
 20
149.5826995529385
 30
0.0
 10
157.7816877071116
 20
150.7529992613181
 30
0.0
 10
157.6111553680925
 20
151.8430281919372
 30
0.0
 10
157.0582171779396
 20
152.5547853887321
 30
0.0
 10
156.1170164704645
 20
152.5547853887321
 30
0.0
 10
155.1096698860365
 20
152.5547853887321
 30
0.0
 10
154.2962823053817
 20
152.4412694176073
 30
0.0
 10
153.156643967048
 20
151.2945686288697
 30
0.0
 10
152.0170056287143
 20
150.1476955852443
 30
0.0
 10
151.076149431015
 20
148.7930831468137
 30
0.0
 10
150.3337308641742
 20
147.2290087646991
 30
0.0
 10
149.5957909244188
 20
145.6683794803425
 30
0.0
 10
148.8530278478023
 20
143.6822806228776
 30
0.0
 10
148.0964843801539
 20
141.2751908193897
 30
0.0
 10
148.0964843801539
 20
141.2751908193897
 30
0.0
 10
143.8552245303272
 20
127.8027915271048
 30
0.0
 10
143.8552245303272
 20
127.8027915271048
 30
0.0
 10
143.8552245303272
 20
127.8027915271048
 30
0.0
 10
141.486030802177
 20
127.8027915271048
 30
0.0
 10
141.486030802177
 20
127.8027915271048
 30
0.0
 10
141.486030802177
 20
127.8027915271048
 30
0.0
 10
146.3329388378533
 20
143.2092687007094
 30
0.0
 10
146.3329388378533
 20
143.2092687007094
 30
0.0
 10
146.8483254624444
 20
144.8408669988801
 30
0.0
 10
147.2314203331297
 20
146.1837661049335
 30
0.0
 10
147.4867020769946
 20
147.224185627838
 30
0.0
 10
147.9169947869641
 20
149.0197705792876
 30
0.0
 10
148.0306830129768
 20
150.2400242051577
 30
0.0
 10
147.709255392159
 20
151.3157559800812
 30
0.0
 10
147.3874832615654
 20
152.3916600098926
 30
0.0
 10
146.8245542879144
 20
152.6683013598569
 30
0.0
 10
145.8840425999909
 20
152.6683013598569
 30
0.0
 10
145.0989048209514
 20
152.6683013598569
 30
0.0
 10
144.3282364524954
 20
152.3275811915945
 30
0.0
 10
143.4531816219731
 20
151.6538923250251
 30
0.0
 10
142.34627171234
 20
150.8074318058939
 30
0.0
 10
141.901854101563
 20
150.1097995099067
 30
0.0
 10
141.3578731655808
 20
149.289521733736
 30
0.0
 10
140.6299240093235
 20
148.192602607601
 30
0.0
 10
140.2850697237515
 20
147.455696197173
 30
0.0
 10
139.6652966370942
 20
145.8385673095858
 30
0.0
 10
139.0506911970739
 20
144.2214384219986
 30
0.0
 10
138.463991048893
 20
142.3252566160164
 30
0.0
 10
138.0571250036777
 20
141.0154304484394
 30
0.0
 10
138.0571250036777
 20
141.0154304484394
 30
0.0
 10
133.9009590684727
 20
127.8027915271048
 30
0.0
 10
133.9009590684727
 20
127.8027915271048
 30
0.0
 10
133.9009590684727
 20
127.8027915271048
 30
0.0
 10
131.4180771143097
 20
127.8027915271048
 30
0.0
 10
131.4180771143097
 20
127.8027915271048
 30
0.0
 10
131.4180771143097
 20
127.8027915271048
 30
0.0
 10
139.8926730891197
 20
154.8294111834263
 30
0.0
 10
139.8926730891197
 20
154.8294111834263
 30
0.0
  0
HATCH
  5
6A9
330
6A2
100
AcDbEntity
  8
LOGO
 62
   250
420
  2234388
100
AcDbHatch
 10
0.0
 20
0.0
 30
0.0
210
0.0
220
0.0
230
1.0
  2
SOLID
 70
     1
 71
     0
 91
        1
 92
        1
 93
        1
 72
     4
 94
        3
 73
     0
 74
     1
 95
      104
 96
      100
 40
0.0
 40
0.0
 40
0.0
 40
0.0
 40
1.0
 40
1.0
 40
1.0
 40
2.0
 40
2.0
 40
2.0
 40
3.0
 40
3.0
 40
3.0
 40
4.0
 40
4.0
 40
4.0
 40
5.0
 40
5.0
 40
5.0
 40
6.0
 40
6.0
 40
6.0
 40
7.0
 40
7.0
 40
7.0
 40
8.0
 40
8.0
 40
8.0
 40
9.0
 40
9.0
 40
9.0
 40
10.0
 40
10.0
 40
10.0
 40
11.0
 40
11.0
 40
11.0
 40
12.0
 40
12.0
 40
12.0
 40
13.0
 40
13.0
 40
13.0
 40
14.0
 40
14.0
 40
14.0
 40
15.0
 40
15.0
 40
15.0
 40
16.0
 40
16.0
 40
16.0
 40
17.0
 40
17.0
 40
17.0
 40
18.0
 40
18.0
 40
18.0
 40
19.0
 40
19.0
 40
19.0
 40
20.0
 40
20.0
 40
20.0
 40
21.0
 40
21.0
 40
21.0
 40
22.0
 40
22.0
 40
22.0
 40
23.0
 40
23.0
 40
23.0
 40
24.0
 40
24.0
 40
24.0
 40
25.0
 40
25.0
 40
25.0
 40
26.0
 40
26.0
 40
26.0
 40
27.0
 40
27.0
 40
27.0
 40
28.0
 40
28.0
 40
28.0
 40
29.0
 40
29.0
 40
29.0
 40
30.0
 40
30.0
 40
30.0
 40
31.0
 40
31.0
 40
31.0
 40
32.0
 40
32.0
 40
32.0
 40
33.0
 40
33.0
 40
33.0
 40
33.0
 10
139.8926730891197
 20
154.8294111834263
 10
139.8926730891197
 20
154.8294111834263
 10
142.0344903652445
 20
154.8294111834263
 10
142.0344903652445
 20
154.8294111834263
 10
142.0344903652445
 20
154.8294111834263
 10
140.9516961399171
 20
151.3157559800812
 10
140.9516961399171
 20
151.3157559800812
 10
141.8928968473923
 20
152.7887075264977
 10
142.7341897198865
 20
153.4484437471474
 10
143.8552245303272
 20
154.2926649527359
 10
144.9803934580775
 20
155.1296514530327
 10
146.3139908001845
 20
155.3044901642492
 10
147.241066606852
 20
155.3044901642492
 10
148.3855280820469
 20
155.3044901642492
 10
149.4969166187653
 20
155.0752189084569
 10
150.0784491203092
 20
153.8172414621372
 10
150.5228667310863
 20
152.833838307127
 10
150.5414702589793
 20
152.7201500811143
 10
150.4140016419347
 20
150.7765981809602
 10
151.5818897818837
 20
152.7699317437168
 10
152.4424752018226
 20
153.6256940267945
 10
153.9038856707499
 20
154.4507949398263
 10
155.4455669174378
 20
155.3044901642492
 10
156.339225275853
 20
155.3659851592288
 10
157.3748216618963
 20
155.2147453676543
 10
158.911679771723
 20
154.9877134254046
 10
159.8859534176746
 20
154.4390816074493
 10
160.3965169054045
 20
152.7816450760939
 10
160.9070803931344
 20
151.1219692311958
 10
160.6328506116007
 20
150.2303779314354
 10
159.9992971339115
 20
147.597634224801
 10
159.7105979417943
 20
146.4014962832367
 10
159.2947746424084
 20
144.9400858143094
 10
158.7463150793409
 20
143.2092687007094
 10
158.7463150793409
 20
143.2092687007094
 10
153.9038856707499
 20
127.8027915271048
 10
153.9038856707499
 20
127.8027915271048
 10
153.9038856707499
 20
127.8027915271048
 10
151.3882752878863
 20
127.8027915271048
 10
151.3882752878863
 20
127.8027915271048
 10
151.3882752878863
 20
127.8027915271048
 10
155.6250565106276
 20
141.2751908193897
 10
155.6250565106276
 20
141.2751908193897
 10
156.5094131050963
 20
144.0936252951782
 10
157.109893644309
 20
146.1506931664571
 10
157.4220195011804
 20
147.4415712963654
 10
157.8095929989511
 20
149.0530157726519
 10
157.9656559273867
 20
149.5826995529385
 10
157.7816877071116
 20
150.7529992613181
 10
157.6111553680925
 20
151.8430281919372
 10
157.0582171779396
 20
152.5547853887321
 10
156.1170164704645
 20
152.5547853887321
 10
155.1096698860365
 20
152.5547853887321
 10
154.2962823053817
 20
152.4412694176073
 10
153.156643967048
 20
151.2945686288697
 10
152.0170056287143
 20
150.1476955852443
 10
151.076149431015
 20
148.7930831468137
 10
150.3337308641742
 20
147.2290087646991
 10
149.5957909244188
 20
145.6683794803425
 10
148.8530278478023
 20
143.6822806228776
 10
148.0964843801539
 20
141.2751908193897
 10
148.0964843801539
 20
141.2751908193897
 10
143.8552245303272
 20
127.8027915271048
 10
143.8552245303272
 20
127.8027915271048
 10
143.8552245303272
 20
127.8027915271048
 10
141.486030802177
 20
127.8027915271048
 10
141.486030802177
 20
127.8027915271048
 10
141.486030802177
 20
127.8027915271048
 10
146.3329388378533
 20
143.2092687007094
 10
146.3329388378533
 20
143.2092687007094
 10
146.8483254624444
 20
144.8408669988801
 10
147.2314203331297
 20
146.1837661049335
 10
147.4867020769946
 20
147.224185627838
 10
147.9169947869641
 20
149.0197705792876
 10
148.0306830129768
 20
150.2400242051577
 10
147.709255392159
 20
151.3157559800812
 10
147.3874832615654
 20
152.3916600098926
 10
146.8245542879144
 20
152.6683013598569
 10
145.8840425999909
 20
152.6683013598569
 10
145.0989048209514
 20
152.6683013598569
 10
144.3282364524954
 20
152.3275811915945
 10
143.4531816219731
 20
151.6538923250251
 10
142.34627171234
 20
150.8074318058939
 10
141.901854101563
 20
150.1097995099067
 10
141.3578731655808
 20
149.289521733736
 10
140.6299240093235
 20
148.192602607601
 10
140.2850697237515
 20
147.455696197173
 10
139.6652966370942
 20
145.8385673095858
 10
139.0506911970739
 20
144.2214384219986
 10
138.463991048893
 20
142.3252566160164
 10
138.0571250036777
 20
141.0154304484394
 10
138.0571250036777
 20
141.0154304484394
 10
133.9009590684727
 20
127.8027915271048
 10
133.9009590684727
 20
127.8027915271048
 10
133.9009590684727
 20
127.8027915271048
 10
131.4180771143097
 20
127.8027915271048
 10
131.4180771143097
 20
127.8027915271048
 10
131.4180771143097
 20
127.8027915271048
 10
139.8926730891197
 20
154.8294111834263
 10
139.8926730891197
 20
154.8294111834263
 97
        0
 75
     2
 76
     1
 98
        0
  0
SPLINE
  5
6AA
330
6A2
100
AcDbEntity
  8
LOGO
370
     0
100
AcDbSpline
210
0.0
220
0.0
230
1.0
 70
    11
 71
     3
 72
    29
 73
    25
 74
     0
 42
0.000000001
 43
0.0000000001
 40
0.0
 40
0.0
 40
0.0
 40
0.0
 40
1.0
 40
1.0
 40
1.0
 40
2.0
 40
2.0
 40
2.0
 40
3.0
 40
3.0
 40
3.0
 40
4.0
 40
4.0
 40
4.0
 40
5.0
 40
5.0
 40
5.0
 40
6.0
 40
6.0
 40
6.0
 40
7.0
 40
7.0
 40
7.0
 40
8.0
 40
8.0
 40
8.0
 40
8.0
 10
101.6420971922469
 20
132.8388354296931
 30
0.0
 10
101.630039350094
 20
134.7164137077823
 30
0.0
 10
102.2236296937908
 20
138.0598810818841
 30
0.0
 10
103.7487744712405
 20
142.5378191476827
 30
0.0
 10
105.819967243327
 20
148.5896501242061
 30
0.0
 10
107.0602024361932
 20
150.8074318058939
 30
0.0
 10
108.1522984254671
 20
151.8833358357054
 30
0.0
 10
109.741177511439
 20
153.4532668840085
 30
0.0
 10
111.8740375333931
 20
153.5290590346837
 30
0.0
 10
112.5075910110823
 20
153.4532668840085
 30
0.0
 10
113.4012493694975
 20
153.3490526768302
 30
0.0
 10
114.6683563248758
 20
152.7580461564518
 30
0.0
 10
114.7493161221879
 20
150.7838328862519
 30
0.0
 10
114.8106388622796
 20
149.0909118479895
 30
0.0
 10
114.3186789024427
 20
145.9191825971221
 30
0.0
 10
112.6164561002338
 20
140.9489400617108
 30
0.0
 10
110.6444821435766
 20
135.1746117095912
 30
0.0
 10
109.4669477299053
 20
132.8960240524753
 30
0.0
 10
108.5212683953448
 20
131.9072809959403
 30
0.0
 10
106.7346406980658
 20
130.0538184021569
 30
0.0
 10
104.8222669326213
 20
130.2336525051225
 30
0.0
 10
104.5408024457958
 20
130.2336525051225
 30
0.0
 10
104.1721769856939
 20
130.2336525051225
 30
0.0
 10
101.6465758193322
 20
130.6305277668397
 30
0.0
 10
101.6420971922469
 20
132.8388354296931
 30
0.0
  0
SPLINE
  5
6AB
330
6A2
100
AcDbEntity
  8
LOGO
370
     0
100
AcDbSpline
210
0.0
220
0.0
230
1.0
 70
    11
 71
     3
 72
    32
 73
    28
 74
     0
 42
0.000000001
 43
0.0000000001
 40
0.0
 40
0.0
 40
0.0
 40
0.0
 40
1.0
 40
1.0
 40
1.0
 40
2.0
 40
2.0
 40
2.0
 40
3.0
 40
3.0
 40
3.0
 40
4.0
 40
4.0
 40
4.0
 40
5.0
 40
5.0
 40
5.0
 40
6.0
 40
6.0
 40
6.0
 40
7.0
 40
7.0
 40
7.0
 40
8.0
 40
8.0
 40
8.0
 40
9.0
 40
9.0
 40
9.0
 40
9.0
 10
106.2595617172429
 20
153.4105476718098
 30
0.0
 10
104.8222669326213
 20
151.5474388043041
 30
0.0
 10
103.7177685914188
 20
149.8758773721411
 30
0.0
 10
101.9232171692965
 20
144.6141795664062
 30
0.0
 10
100.2754269116635
 20
139.7999999594306
 30
0.0
 10
99.22777268346732
 20
136.3052927937542
 30
0.0
 10
99.06964269637689
 20
132.039572749846
 30
0.0
 10
98.94665270641765
 20
128.8673267343149
 30
0.0
 10
100.8807305877373
 20
127.8027915271048
 30
0.0
 10
103.7129454545577
 20
127.8027915271048
 30
0.0
 10
104.9352661390825
 20
127.8027915271048
 30
0.0
 10
108.0151835347002
 20
127.8827177950895
 30
0.0
 10
110.2045431598849
 20
130.5926316915021
 30
0.0
 10
111.7417457794874
 20
132.4984597712065
 30
0.0
 10
113.155269389579
 20
134.475256864725
 30
0.0
 10
115.0562743324223
 20
140.9489400617108
 30
0.0
 10
116.6361961642235
 20
146.3680788349845
 30
0.0
 10
117.7282921534974
 20
149.8639917848761
 30
0.0
 10
117.6480213757369
 20
151.8595646611754
 30
0.0
 10
117.6480213757369
 20
151.8595646611754
 30
0.0
 10
117.6480213757369
 20
151.8595646611754
 30
0.0
 10
117.6480213757369
 20
151.8595646611754
 30
0.0
 10
117.13229024137
 20
155.18150017429
 30
0.0
 10
114.7162431837115
 20
155.886194920681
 30
0.0
 10
113.3351034925446
 20
155.886194920681
 30
0.0
 10
111.9829026225447
 20
155.886194920681
 30
0.0
 10
108.3414342923792
 20
156.1251124501957
 30
0.0
 10
106.2595617172429
 20
153.4105476718098
 30
0.0
  0
HATCH
  5
6AC
330
6A2
100
AcDbEntity
  8
LOGO
 62
   250
420
  2234388
100
AcDbHatch
 10
0.0
 20
0.0
 30
0.0
210
0.0
220
0.0
230
1.0
  2
SOLID
 70
     1
 71
     0
 91
        2
 92
        1
 93
        1
 72
     4
 94
        3
 73
     0
 74
     1
 95
       29
 96
       25
 40
0.0
 40
0.0
 40
0.0
 40
0.0
 40
1.0
 40
1.0
 40
1.0
 40
2.0
 40
2.0
 40
2.0
 40
3.0
 40
3.0
 40
3.0
 40
4.0
 40
4.0
 40
4.0
 40
5.0
 40
5.0
 40
5.0
 40
6.0
 40
6.0
 40
6.0
 40
7.0
 40
7.0
 40
7.0
 40
8.0
 40
8.0
 40
8.0
 40
8.0
 10
101.6420971922469
 20
132.8388354296931
 10
101.630039350094
 20
134.7164137077823
 10
102.2236296937908
 20
138.0598810818841
 10
103.7487744712405
 20
142.5378191476827
 10
105.819967243327
 20
148.5896501242061
 10
107.0602024361932
 20
150.8074318058939
 10
108.1522984254671
 20
151.8833358357054
 10
109.741177511439
 20
153.4532668840085
 10
111.8740375333931
 20
153.5290590346837
 10
112.5075910110823
 20
153.4532668840085
 10
113.4012493694975
 20
153.3490526768302
 10
114.6683563248758
 20
152.7580461564518
 10
114.7493161221879
 20
150.7838328862519
 10
114.8106388622796
 20
149.0909118479895
 10
114.3186789024427
 20
145.9191825971221
 10
112.6164561002338
 20
140.9489400617108
 10
110.6444821435766
 20
135.1746117095912
 10
109.4669477299053
 20
132.8960240524753
 10
108.5212683953448
 20
131.9072809959403
 10
106.7346406980658
 20
130.0538184021569
 10
104.8222669326213
 20
130.2336525051225
 10
104.5408024457958
 20
130.2336525051225
 10
104.1721769856939
 20
130.2336525051225
 10
101.6465758193322
 20
130.6305277668397
 10
101.6420971922469
 20
132.8388354296931
 97
        0
 92
        1
 93
        1
 72
     4
 94
        3
 73
     0
 74
     1
 95
       32
 96
       28
 40
0.0
 40
0.0
 40
0.0
 40
0.0
 40
1.0
 40
1.0
 40
1.0
 40
2.0
 40
2.0
 40
2.0
 40
3.0
 40
3.0
 40
3.0
 40
4.0
 40
4.0
 40
4.0
 40
5.0
 40
5.0
 40
5.0
 40
6.0
 40
6.0
 40
6.0
 40
7.0
 40
7.0
 40
7.0
 40
8.0
 40
8.0
 40
8.0
 40
9.0
 40
9.0
 40
9.0
 40
9.0
 10
106.2595617172429
 20
153.4105476718098
 10
104.8222669326213
 20
151.5474388043041
 10
103.7177685914188
 20
149.8758773721411
 10
101.9232171692965
 20
144.6141795664062
 10
100.2754269116635
 20
139.7999999594306
 10
99.22777268346732
 20
136.3052927937542
 10
99.06964269637689
 20
132.039572749846
 10
98.94665270641765
 20
128.8673267343149
 10
100.8807305877373
 20
127.8027915271048
 10
103.7129454545577
 20
127.8027915271048
 10
104.9352661390825
 20
127.8027915271048
 10
108.0151835347002
 20
127.8827177950895
 10
110.2045431598849
 20
130.5926316915021
 10
111.7417457794874
 20
132.4984597712065
 10
113.155269389579
 20
134.475256864725
 10
115.0562743324223
 20
140.9489400617108
 10
116.6361961642235
 20
146.3680788349845
 10
117.7282921534974
 20
149.8639917848761
 10
117.6480213757369
 20
151.8595646611754
 10
117.6480213757369
 20
151.8595646611754
 10
117.6480213757369
 20
151.8595646611754
 10
117.6480213757369
 20
151.8595646611754
 10
117.13229024137
 20
155.18150017429
 10
114.7162431837115
 20
155.886194920681
 10
113.3351034925446
 20
155.886194920681
 10
111.9829026225447
 20
155.886194920681
 10
108.3414342923792
 20
156.1251124501957
 10
106.2595617172429
 20
153.4105476718098
 97
        0
 75
     2
 76
     1
 98
        0
  0
ENDBLK
  5
6AD
330
6A2
100
AcDbEntity
  8
0
100
AcDbBlockEnd
  0
BLOCK
  5
FA9
330
FA8
100
AcDbEntity
  8
0
100
AcDbBlockBegin
  2
*D6
 70
     1
 10
0.0
 20
0.0
 30
0.0
  3
*D6
  1
*D17
  0
LINE
  5
FAB
330
FA8
100
AcDbEntity
  8
DIM
 62
     0
370
    -2
100
AcDbLine
 10
305.8168279708768
 20
481.5941356416167
 30
0.0
 11
305.8168279708768
 21
447.3489304204699
 31
0.0
  0
LINE
  5
FAC
330
FA8
100
AcDbEntity
  8
DIM
 62
     0
370
    -2
100
AcDbLine
 10
320.0168279708757
 20
481.5941356416167
 30
0.0
 11
320.0168279708757
 21
447.3489304204699
 31
0.0
  0
LINE
  5
FAD
330
FA8
100
AcDbEntity
  8
DIM
 62
     0
370
    -2
100
AcDbLine
 10
320.0168279708757
 20
447.3489304204699
 30
0.0
 11
365.5408279708757
 21
447.3489304204699
 31
0.0
  0
LINE
  5
FAE
330
FA8
100
AcDbEntity
  8
DIM
 62
     0
370
    -2
100
AcDbLine
 10
311.8168279708768
 20
447.3489304204699
 30
0.0
 11
314.0168279708757
 21
447.3489304204699
 31
0.0
  0
INSERT
  5
FAF
330
FA8
100
AcDbEntity
  8
DIM
 62
     0
370
    -2
100
AcDbBlockReference
  2
_DOT
 10
305.8168279708768
 20
447.3489304204699
 30
0.0
 41
6.0
 42
6.0
 43
6.0
 50
180.0
  0
INSERT
  5
FB0
330
FA8
100
AcDbEntity
  8
DIM
 62
     0
370
    -2
100
AcDbBlockReference
  2
_DOT
 10
320.0168279708757
 20
447.3489304204699
 30
0.0
 41
6.0
 42
6.0
 43
6.0
  0
MTEXT
  5
FB1
330
FA8
100
AcDbEntity
  8
DIM
 62
     0
 48
0.05
100
AcDbMText
 10
342.0168279708757
 20
469.3489304204699
 30
0.0
 40
12.0
 41
0.0
 46
0.0
 71
     1
 72
     1
  1
\A1;14
  7
ＭＳ ゴシック
 73
     1
 44
1.0
  0
POINT
  5
FB2
330
FA8
100
AcDbEntity
  8
Defpoints
 62
     0
100
AcDbPoint
 10
305.8168279708768
 20
486.5941356416167
 30
0.0
  0
POINT
  5
FB3
330
FA8
100
AcDbEntity
  8
Defpoints
 62
     0
100
AcDbPoint
 10
320.0168279708757
 20
486.5941356416167
 30
0.0
  0
POINT
  5
100D
330
FA8
100
AcDbEntity
  8
Defpoints
 62
     0
100
AcDbPoint
 10
320.0168279708757
 20
447.3489304204699
 30
0.0
  0
ENDBLK
  5
FAA
330
FA8
100
AcDbEntity
  8
0
100
AcDbBlockEnd
  0
BLOCK
  5
FB8
330
FB7
100
AcDbEntity
  8
0
100
AcDbBlockBegin
  2
*D7
 70
     1
 10
0.0
 20
0.0
 30
0.0
  3
*D7
  1
*D18
  0
LINE
  5
FBA
330
FB7
100
AcDbEntity
  8
DIM
 62
     0
370
    -2
100
AcDbLine
 10
857.7826976957526
 20
983.3465873835016
 30
0.0
 11
908.9826976957542
 21
983.3465873835019
 31
0.0
  0
LINE
  5
FBB
330
FB7
100
AcDbEntity
  8
DIM
 62
     0
370
    -2
100
AcDbLine
 10
857.7826976957554
 20
383.3465873835012
 30
0.0
 11
908.9826976957562
 21
383.3465873835014
 31
0.0
  0
LINE
  5
FBC
330
FB7
100
AcDbEntity
  8
DIM
 62
     0
370
    -2
100
AcDbLine
 10
908.9826976957542
 20
981.3465873835019
 30
0.0
 11
908.9826976957562
 21
385.3465873835014
 31
0.0
  0
INSERT
  5
FBD
330
FB7
100
AcDbEntity
  8
DIM
 62
     0
370
    -2
100
AcDbBlockReference
  2
_DOT
 10
908.9826976957542
 20
983.3465873835019
 30
0.0
 41
2.0
 42
2.0
 43
2.0
 50
90.0000000000002
  0
INSERT
  5
FBE
330
FB7
100
AcDbEntity
  8
DIM
 62
     0
370
    -2
100
AcDbBlockReference
  2
_DOT
 10
908.9826976957562
 20
383.3465873835014
 30
0.0
 41
2.0
 42
2.0
 43
2.0
 50
270.0000000000002
  0
MTEXT
  5
FBF
330
FB7
100
AcDbEntity
  8
DIM
 62
     0
 48
0.05
100
AcDbMText
 10
891.9826976957552
 20
672.3785873835011
 30
0.0
 40
12.0
 41
0.0
 46
0.0
 71
     1
 72
     1
  1
\A1;600
  7
ＭＳ ゴシック
 11
-3.410605131648478E-15
 21
1.0
 31
0.0
 73
     1
 44
1.0
  0
POINT
  5
FC0
330
FB7
100
AcDbEntity
  8
Defpoints
 62
     0
100
AcDbPoint
 10
852.7826976957526
 20
983.3465873835016
 30
0.0
  0
POINT
  5
FC1
330
FB7
100
AcDbEntity
  8
Defpoints
 62
     0
100
AcDbPoint
 10
852.7826976957554
 20
383.3465873835012
 30
0.0
  0
POINT
  5
FC2
330
FB7
100
AcDbEntity
  8
Defpoints
 62
     0
100
AcDbPoint
 10
908.9826976957562
 20
383.3465873835014
 30
0.0
  0
ENDBLK
  5
FB9
330
FB7
100
AcDbEntity
  8
0
100
AcDbBlockEnd
  0
BLOCK
  5
FC4
330
FC3
100
AcDbEntity
  8
0
100
AcDbBlockBegin
  2
*D8
 70
     1
 10
0.0
 20
0.0
 30
0.0
  3
*D8
  1
*D19
  0
LINE
  5
FC6
330
FC3
100
AcDbEntity
  8
DIM
 62
     0
370
    -2
100
AcDbLine
 10
558.2472911675648
 20
1085.381357071466
 30
0.0
 11
537.3930710471711
 21
1085.381357071466
 31
0.0
  0
LINE
  5
FC7
330
FC3
100
AcDbEntity
  8
DIM
 62
     0
370
    -2
100
AcDbLine
 10
558.2472911675648
 20
1115.381357071466
 30
0.0
 11
537.393071047171
 21
1115.381357071466
 31
0.0
  0
LINE
  5
FC8
330
FC3
100
AcDbEntity
  8
DIM
 62
     0
370
    -2
100
AcDbLine
 10
537.3930710471711
 20
1087.381357071466
 30
0.0
 11
537.393071047171
 21
1113.381357071466
 31
0.0
  0
INSERT
  5
FC9
330
FC3
100
AcDbEntity
  8
DIM
 62
     0
370
    -2
100
AcDbBlockReference
  2
_DOT
 10
537.3930710471711
 20
1085.381357071466
 30
0.0
 41
2.0
 42
2.0
 43
2.0
 50
270.0000000000002
  0
INSERT
  5
FCA
330
FC3
100
AcDbEntity
  8
DIM
 62
     0
370
    -2
100
AcDbBlockReference
  2
_DOT
 10
537.393071047171
 20
1115.381357071466
 30
0.0
 41
2.0
 42
2.0
 43
2.0
 50
90.00000000000021
  0
MTEXT
  5
FCB
330
FC3
100
AcDbEntity
  8
DIM
 62
     0
 48
0.05
100
AcDbMText
 10
520.3930710471711
 20
1093.223357071465
 30
0.0
 40
12.0
 41
0.0
 46
0.0
 71
     1
 72
     1
  1
\A1;30
  7
ＭＳ ゴシック
 11
-3.789561257387229E-15
 21
1.0
 31
0.0
 73
     1
 44
1.0
  0
POINT
  5
FCC
330
FC3
100
AcDbEntity
  8
Defpoints
 62
     0
100
AcDbPoint
 10
563.2472911675648
 20
1085.381357071466
 30
0.0
  0
POINT
  5
FCD
330
FC3
100
AcDbEntity
  8
Defpoints
 62
     0
100
AcDbPoint
 10
563.2472911675648
 20
1115.381357071466
 30
0.0
  0
POINT
  5
FCE
330
FC3
100
AcDbEntity
  8
Defpoints
 62
     0
100
AcDbPoint
 10
537.393071047171
 20
1115.381357071466
 30
0.0
  0
ENDBLK
  5
FC5
330
FC3
100
AcDbEntity
  8
0
100
AcDbBlockEnd
  0
BLOCK
  5
FD0
330
FCF
100
AcDbEntity
  8
0
100
AcDbBlockBegin
  2
*D9
 70
     1
 10
0.0
 20
0.0
 30
0.0
  3
*D9
  1
*D20
  0
LINE
  5
FD2
330
FCF
100
AcDbEntity
  8
DIM
 62
     0
370
    -2
100
AcDbLine
 10
273.3863903967738
 20
1191.387339917921
 30
0.0
 11
253.0807056814159
 21
1191.387339917921
 31
0.0
  0
LINE
  5
FD3
330
FCF
100
AcDbEntity
  8
DIM
 62
     0
370
    -2
100
AcDbLine
 10
276.4959921972909
 20
1252.587339917919
 30
0.0
 11
253.0807056814157
 21
1252.587339917919
 31
0.0
  0
LINE
  5
FD4
330
FCF
100
AcDbEntity
  8
DIM
 62
     0
370
    -2
100
AcDbLine
 10
253.0807056814159
 20
1193.387339917921
 30
0.0
 11
253.0807056814157
 21
1250.587339917919
 31
0.0
  0
INSERT
  5
FD5
330
FCF
100
AcDbEntity
  8
DIM
 62
     0
370
    -2
100
AcDbBlockReference
  2
_DOT
 10
253.0807056814159
 20
1191.387339917921
 30
0.0
 41
2.0
 42
2.0
 43
2.0
 50
270.0000000000002
  0
INSERT
  5
FD6
330
FCF
100
AcDbEntity
  8
DIM
 62
     0
370
    -2
100
AcDbBlockReference
  2
_DOT
 10
253.0807056814157
 20
1252.587339917919
 30
0.0
 41
2.0
 42
2.0
 43
2.0
 50
90.00000000000026
  0
MTEXT
  5
FD7
330
FCF
100
AcDbEntity
  8
DIM
 62
     0
 48
0.05
100
AcDbMText
 10
231.0807056814158
 20
1216.137339917919
 30
0.0
 40
12.0
 41
0.0
 46
0.0
 71
     1
 72
     1
  1
\A1;61
  7
ＭＳ ゴシック
 11
-4.644070168366837E-15
 21
1.0
 31
0.0
 73
     1
 44
1.0
  0
POINT
  5
FD8
330
FCF
100
AcDbEntity
  8
Defpoints
 62
     0
100
AcDbPoint
 10
278.3863903967738
 20
1191.387339917921
 30
0.0
  0
POINT
  5
FD9
330
FCF
100
AcDbEntity
  8
Defpoints
 62
     0
100
AcDbPoint
 10
281.4959921972909
 20
1252.587339917919
 30
0.0
  0
POINT
  5
FDA
330
FCF
100
AcDbEntity
  8
Defpoints
 62
     0
100
AcDbPoint
 10
253.0807056814158
 20
1252.587339917919
 30
0.0
  0
ENDBLK
  5
FD1
330
FCF
100
AcDbEntity
  8
0
100
AcDbBlockEnd
  0
BLOCK
  5
FDC
330
FDB
100
AcDbEntity
  8
0
100
AcDbBlockBegin
  2
*D10
 70
     1
 10
0.0
 20
0.0
 30
0.0
  3
*D10
  1
*D21
  0
LINE
  5
FDE
330
FDB
100
AcDbEntity
  8
寸法
 62
     0
370
    -2
100
AcDbLine
 10
563.7693979924895
 20
1001.846587383501
 30
0.0
 11
563.7693979924895
 21
1023.75227209886
 31
0.0
  0
LINE
  5
FDF
330
FDB
100
AcDbEntity
  8
寸法
 62
     0
370
    -2
100
AcDbLine
 10
571.7693979924886
 20
1001.846587383501
 30
0.0
 11
571.7693979924886
 21
1023.75227209886
 31
0.0
  0
LINE
  5
FE0
330
FDB
100
AcDbEntity
  8
寸法
 62
     0
370
    -2
100
AcDbLine
 10
563.7693979924895
 20
1023.75227209886
 30
0.0
 11
727.6933979924886
 21
1023.75227209886
 31
0.0
  0
LINE
  5
FE1
330
FDB
100
AcDbEntity
  8
寸法
 62
     0
370
    -2
100
AcDbLine
 10
565.7693979924895
 20
1023.75227209886
 30
0.0
 11
569.7693979924886
 21
1023.75227209886
 31
0.0
  0
LINE
  5
FE2
330
FDB
100
AcDbEntity
  8
寸法
 62
     0
370
    -2
100
AcDbLine
 10
569.7693979924886
 20
1023.75227209886
 30
0.0
 11
567.7693979924886
 21
1023.75227209886
 31
0.0
  0
INSERT
  5
FE3
330
FDB
100
AcDbEntity
  8
寸法
 62
     0
370
    -2
100
AcDbBlockReference
  2
_DOT
 10
563.7693979924895
 20
1023.75227209886
 30
0.0
 41
2.0
 42
2.0
 43
2.0
 50
180.0
  0
INSERT
  5
FE4
330
FDB
100
AcDbEntity
  8
寸法
 62
     0
370
    -2
100
AcDbBlockReference
  2
_DOT
 10
571.7693979924886
 20
1023.75227209886
 30
0.0
 41
2.0
 42
2.0
 43
2.0
  0
MTEXT
  5
FE5
330
FDB
100
AcDbEntity
  8
寸法
 62
     0
 48
0.05
100
AcDbMText
 10
584.6693979924887
 20
1043.18827209886
 30
0.0
 40
12.0
 41
0.0
 46
0.0
 71
     1
 72
     1
  1
\A1;ガラス厚み 8～12mm
  7
ＭＳ ゴシック
 73
     1
 44
1.0
  0
POINT
  5
FE6
330
FDB
100
AcDbEntity
  8
Defpoints
 62
     0
100
AcDbPoint
 10
563.7693979924895
 20
996.8465873835007
 30
0.0
  0
POINT
  5
2768
330
FDB
100
AcDbEntity
  8
Defpoints
 62
     0
100
AcDbPoint
 10
571.7693979924886
 20
996.8465873835007
 30
0.0
  0
POINT
  5
2E4A
330
FDB
100
AcDbEntity
  8
Defpoints
 62
     0
100
AcDbPoint
 10
571.7693979924886
 20
1023.75227209886
 30
0.0
  0
ENDBLK
  5
FDD
330
FDB
100
AcDbEntity
  8
0
100
AcDbBlockEnd
  0
BLOCK
  5
101D
330
101C
100
AcDbEntity
  8
0
100
AcDbBlockBegin
  2
*D11
 70
     1
 10
0.0
 20
0.0
 30
0.0
  3
*D11
  1
*D11
  0
LINE
  5
101F
330
101C
100
AcDbEntity
  8
DIM
 62
     0
 48
0.05
370
    -2
100
AcDbLine
 10
563.2472911675648
 20
805.3813570714655
 30
0.0
 11
563.2472911675648
 21
817.4254101410864
 31
0.0
  0
LINE
  5
1020
330
101C
100
AcDbEntity
  8
DIM
 62
     0
 48
0.05
370
    -2
100
AcDbLine
 10
569.4472911675637
 20
805.3813570714655
 30
0.0
 11
569.4472911675637
 21
817.4254101410864
 31
0.0
  0
LINE
  5
1021
330
101C
100
AcDbEntity
  8
DIM
 62
     0
 48
0.05
370
    -2
100
AcDbLine
 10
569.4472911675637
 20
817.4254101410864
 30
0.0
 11
602.5312911675637
 21
817.4254101410864
 31
0.0
  0
LINE
  5
1022
330
101C
100
AcDbEntity
  8
DIM
 62
     0
 48
0.05
370
    -2
100
AcDbLine
 10
565.2472911675648
 20
817.4254101410864
 30
0.0
 11
567.4472911675637
 21
817.4254101410864
 31
0.0
  0
INSERT
  5
1023
330
101C
100
AcDbEntity
  8
DIM
 62
     0
370
    -2
100
AcDbBlockReference
  2
_DOT
 10
563.2472911675648
 20
817.4254101410864
 30
0.0
 41
2.0
 42
2.0
 43
2.0
 50
180.0
  0
INSERT
  5
1024
330
101C
100
AcDbEntity
  8
DIM
 62
     0
370
    -2
100
AcDbBlockReference
  2
_DOT
 10
569.4472911675637
 20
817.4254101410864
 30
0.0
 41
2.0
 42
2.0
 43
2.0
  0
MTEXT
  5
1025
330
101C
100
AcDbEntity
  8
DIM
 62
     0
 48
0.05
100
AcDbMText
 10
594.4892911675637
 20
828.4254101410864
 30
0.0
 40
12.0
 41
0.0
 46
0.0
 71
     5
 72
     1
  1
\A1;6
  7
ＭＳ ゴシック
 73
     1
 44
1.0
  0
POINT
  5
1026
330
101C
100
AcDbEntity
  8
Defpoints
 62
     0
100
AcDbPoint
 10
563.2472911675648
 20
800.3813570714655
 30
0.0
  0
POINT
  5
1027
330
101C
100
AcDbEntity
  8
Defpoints
 62
     0
100
AcDbPoint
 10
569.4472911675637
 20
800.3813570714655
 30
0.0
  0
POINT
  5
1028
330
101C
100
AcDbEntity
  8
Defpoints
 62
     0
100
AcDbPoint
 10
569.4472911675637
 20
817.4254101410864
 30
0.0
  0
ENDBLK
  5
101E
330
101C
100
AcDbEntity
  8
0
100
AcDbBlockEnd
  0
BLOCK
  5
1039
330
1038
100
AcDbEntity
  8
0
100
AcDbBlockBegin
  2
*D12
 70
     1
 10
0.0
 20
0.0
 30
0.0
  3
*D12
  1
*D12
  0
LINE
  5
103B
330
1038
100
AcDbEntity
  8
寸法
 62
     0
 48
0.05
370
    -2
100
AcDbLine
 10
237.4084972216995
 20
998.4465873835015
 30
0.0
 11
294.5394591472978
 21
998.4465873835015
 31
0.0
  0
LINE
  5
103C
330
1038
100
AcDbEntity
  8
寸法
 62
     0
 48
0.05
370
    -2
100
AcDbLine
 10
237.4084972216995
 20
368.4465873835013
 30
0.0
 11
294.5394591472977
 21
368.4465873835013
 31
0.0
  0
LINE
  5
103D
330
1038
100
AcDbEntity
  8
寸法
 62
     0
 48
0.05
370
    -2
100
AcDbLine
 10
294.5394591472978
 20
996.4465873835015
 30
0.0
 11
294.5394591472977
 21
370.4465873835013
 31
0.0
  0
INSERT
  5
103E
330
1038
100
AcDbEntity
  8
寸法
 62
     0
370
    -2
100
AcDbBlockReference
  2
_DOT
 10
294.5394591472978
 20
998.4465873835015
 30
0.0
 41
2.0
 42
2.0
 43
2.0
 50
90.0
  0
INSERT
  5
103F
330
1038
100
AcDbEntity
  8
寸法
 62
     0
370
    -2
100
AcDbBlockReference
  2
_DOT
 10
294.5394591472977
 20
368.4465873835013
 30
0.0
 41
2.0
 42
2.0
 43
2.0
 50
270.0
  0
MTEXT
  5
1040
330
1038
100
AcDbEntity
  8
寸法
 62
     0
 48
0.05
100
AcDbMText
 10
283.5394591472977
 20
683.4465873835014
 30
0.0
 40
12.0
 41
0.0
 46
0.0
 71
     5
 72
     1
  1
\A1;630
  7
ＭＳ ゴシック
 11
9.022764898540951E-17
 21
1.0
 31
0.0
 73
     1
 44
1.0
  0
POINT
  5
1041
330
1038
100
AcDbEntity
  8
Defpoints
 62
     0
100
AcDbPoint
 10
232.4084972216995
 20
998.4465873835015
 30
0.0
  0
POINT
  5
1042
330
1038
100
AcDbEntity
  8
Defpoints
 62
     0
100
AcDbPoint
 10
232.4084972216995
 20
368.4465873835013
 30
0.0
  0
POINT
  5
1043
330
1038
100
AcDbEntity
  8
Defpoints
 62
     0
100
AcDbPoint
 10
294.5394591472977
 20
368.4465873835013
 30
0.0
  0
ENDBLK
  5
103A
330
1038
100
AcDbEntity
  8
0
100
AcDbBlockEnd
  0
BLOCK
  5
104B
330
104A
100
AcDbEntity
  8
0
100
AcDbBlockBegin
  2
*D13
 70
     1
 10
0.0
 20
0.0
 30
0.0
  3
*D13
  1
*D13
  0
LINE
  5
104D
330
104A
100
AcDbEntity
  8
DIM
 62
     0
 48
0.05
370
    -2
100
AcDbLine
 10
278.3863903967738
 20
480.781357071465
 30
0.0
 11
278.3863903967738
 21
442.6745029605815
 31
0.0
  0
LINE
  5
104E
330
104A
100
AcDbEntity
  8
DIM
 62
     0
 48
0.05
370
    -2
100
AcDbLine
 10
293.3863903967738
 20
480.781357071465
 30
0.0
 11
293.3863903967738
 21
442.6745029605815
 31
0.0
  0
LINE
  5
104F
330
104A
100
AcDbEntity
  8
DIM
 62
     0
 48
0.05
370
    -2
100
AcDbLine
 10
293.3863903967738
 20
442.6745029605815
 30
0.0
 11
338.5383903967738
 21
442.6745029605815
 31
0.0
  0
LINE
  5
1050
330
104A
100
AcDbEntity
  8
DIM
 62
     0
 48
0.05
370
    -2
100
AcDbLine
 10
280.3863903967738
 20
442.6745029605815
 30
0.0
 11
291.3863903967738
 21
442.6745029605815
 31
0.0
  0
INSERT
  5
1051
330
104A
100
AcDbEntity
  8
DIM
 62
     0
370
    -2
100
AcDbBlockReference
  2
_DOT
 10
278.3863903967738
 20
442.6745029605815
 30
0.0
 41
2.0
 42
2.0
 43
2.0
 50
180.0
  0
INSERT
  5
1052
330
104A
100
AcDbEntity
  8
DIM
 62
     0
370
    -2
100
AcDbBlockReference
  2
_DOT
 10
293.3863903967738
 20
442.6745029605815
 30
0.0
 41
2.0
 42
2.0
 43
2.0
  0
MTEXT
  5
1053
330
104A
100
AcDbEntity
  8
DIM
 62
     0
 48
0.05
100
AcDbMText
 10
321.9623903967738
 20
458.6745029605815
 30
0.0
 40
12.0
 41
0.0
 46
0.0
 71
     5
 72
     1
  1
\A1;15
  7
ＭＳ ゴシック
 73
     1
 44
1.0
  0
POINT
  5
1054
330
104A
100
AcDbEntity
  8
Defpoints
 62
     0
100
AcDbPoint
 10
278.3863903967738
 20
485.781357071465
 30
0.0
  0
POINT
  5
1055
330
104A
100
AcDbEntity
  8
Defpoints
 62
     0
100
AcDbPoint
 10
293.3863903967738
 20
485.781357071465
 30
0.0
  0
POINT
  5
105C
330
104A
100
AcDbEntity
  8
Defpoints
 62
     0
100
AcDbPoint
 10
293.3863903967738
 20
442.6745029605815
 30
0.0
  0
ENDBLK
  5
104C
330
104A
100
AcDbEntity
  8
0
100
AcDbBlockEnd
  0
BLOCK
  5
1187
330
1186
100
AcDbEntity
  8
0
100
AcDbBlockBegin
  2
block 6
 70
     0
 10
0.0
 20
0.0
 30
0.0
  3
block 6
  1
block 6
  0
SPLINE
  5
1188
330
1186
100
AcDbEntity
  8
レイヤー 1
 62
     7
420
 16777215
370
     9
100
AcDbSpline
210
0.0
220
0.0
230
1.0
 70
    11
 71
     3
 72
    17
 73
    13
 74
     0
 42
0.000000001
 43
0.0000000001
 40
0.0
 40
0.0
 40
0.0
 40
0.0
 40
1.0
 40
1.0
 40
1.0
 40
2.0
 40
2.0
 40
2.0
 40
3.0
 40
3.0
 40
3.0
 40
4.0
 40
4.0
 40
4.0
 40
4.0
 10
427.02099609375
 20
599.13818359375
 30
0.0
 10
427.02099609375
 20
600.17333984375
 30
0.0
 10
426.18212890625
 20
600.52783203125
 30
0.0
 10
425.14794921875
 20
599.9306640625
 30
0.0
 10
424.11279296875
 20
599.3330078125
 30
0.0
 10
423.27392578125
 20
598.009765625
 30
0.0
 10
423.27392578125
 20
596.974609375
 30
0.0
 10
423.27392578125
 20
595.93994140625
 30
0.0
 10
424.11279296875
 20
595.5859375
 30
0.0
 10
425.14794921875
 20
596.18359375
 30
0.0
 10
426.18212890625
 20
596.78076171875
 30
0.0
 10
427.02099609375
 20
598.103515625
 30
0.0
 10
427.02099609375
 20
599.13818359375
 30
0.0
  0
SPLINE
  5
1189
330
1186
100
AcDbEntity
  8
レイヤー 1
 62
     7
420
 16777215
370
     9
100
AcDbSpline
210
0.0
220
0.0
230
1.0
 70
    11
 71
     3
 72
    17
 73
    13
 74
     0
 42
0.000000001
 43
0.0000000001
 40
0.0
 40
0.0
 40
0.0
 40
0.0
 40
1.0
 40
1.0
 40
1.0
 40
2.0
 40
2.0
 40
2.0
 40
3.0
 40
3.0
 40
3.0
 40
4.0
 40
4.0
 40
4.0
 40
4.0
 10
424.11376953125
 20
600.73095703125
 30
0.0
 10
424.11376953125
 20
601.76611328125
 30
0.0
 10
423.27490234375
 20
602.12060546875
 30
0.0
 10
422.24072265625
 20
601.5234375
 30
0.0
 10
421.20556640625
 20
600.92578125
 30
0.0
 10
420.36669921875
 20
599.6025390625
 30
0.0
 10
420.36669921875
 20
598.5673828125
 30
0.0
 10
420.36669921875
 20
597.53271484375
 30
0.0
 10
421.20556640625
 20
597.1787109375
 30
0.0
 10
422.24072265625
 20
597.7763671875
 30
0.0
 10
423.27490234375
 20
598.37353515625
 30
0.0
 10
424.11376953125
 20
599.6962890625
 30
0.0
 10
424.11376953125
 20
600.73095703125
 30
0.0
  0
POLYLINE
  5
118A
330
1186
100
AcDbEntity
  8
レイヤー 1
 62
     7
420
 16777215
370
     9
100
AcDb2dPolyline
 66
     1
 10
0.0
 20
0.0
 30
0.0
  0
VERTEX
  5
118B
330
118A
100
AcDbEntity
  8
レイヤー 1
 62
     7
420
 16777215
370
     9
100
AcDbVertex
100
AcDb2dVertex
 10
423.61669921875
 20
601.74951171875
 30
0.0
  0
VERTEX
  5
118C
330
118A
100
AcDbEntity
  8
レイヤー 1
 62
     7
420
 16777215
370
     9
100
AcDbVertex
100
AcDb2dVertex
 10
426.26220703125
 20
600.22705078125
 30
0.0
  0
SEQEND
  5
118D
330
118A
100
AcDbEntity
  8
レイヤー 1
370
     9
  0
POLYLINE
  5
118E
330
1186
100
AcDbEntity
  8
レイヤー 1
 62
     7
420
 16777215
370
     9
100
AcDb2dPolyline
 66
     1
 10
0.0
 20
0.0
 30
0.0
  0
VERTEX
  5
118F
330
118E
100
AcDbEntity
  8
レイヤー 1
 62
     7
420
 16777215
370
     9
100
AcDbVertex
100
AcDb2dVertex
 10
420.73974609375
 20
597.6669921875
 30
0.0
  0
VERTEX
  5
1190
330
118E
100
AcDbEntity
  8
レイヤー 1
 62
     7
420
 16777215
370
     9
100
AcDbVertex
100
AcDb2dVertex
 10
423.74072265625
 20
595.9609375
 30
0.0
  0
SEQEND
  5
1191
330
118E
100
AcDbEntity
  8
レイヤー 1
370
     9
  0
ENDBLK
  5
1192
330
1186
100
AcDbEntity
  8
0
100
AcDbBlockEnd
  0
BLOCK
  5
1195
330
1194
100
AcDbEntity
  8
0
100
AcDbBlockBegin
  2
block 7
 70
     0
 10
0.0
 20
0.0
 30
0.0
  3
block 7
  1
block 7
  0
POLYLINE
  5
1196
330
1194
100
AcDbEntity
  8
レイヤー 1
 62
     7
420
 16777215
370
     9
100
AcDb2dPolyline
 66
     1
 10
0.0
 20
0.0
 30
0.0
  0
VERTEX
  5
1197
330
1196
100
AcDbEntity
  8
レイヤー 1
 62
     7
420
 16777215
370
     9
100
AcDbVertex
100
AcDb2dVertex
 10
376.05322265625
 20
638.92041015625
 30
0.0
  0
VERTEX
  5
1198
330
1196
100
AcDbEntity
  8
レイヤー 1
 62
     7
420
 16777215
370
     9
100
AcDbVertex
100
AcDb2dVertex
 10
345.45361328125
 20
656.5869140625
 30
0.0
  0
VERTEX
  5
1199
330
1196
100
AcDbEntity
  8
レイヤー 1
 62
     7
420
 16777215
370
     9
100
AcDbVertex
100
AcDb2dVertex
 10
337.92041015625
 20
652.2373046875
 30
0.0
  0
VERTEX
  5
119A
330
1196
100
AcDbEntity
  8
レイヤー 1
 62
     7
420
 16777215
370
     9
100
AcDbVertex
100
AcDb2dVertex
 10
368.52001953125
 20
634.57080078125
 30
0.0
  0
VERTEX
  5
119B
330
1196
100
AcDbEntity
  8
レイヤー 1
 62
     7
420
 16777215
370
     9
100
AcDbVertex
100
AcDb2dVertex
 10
376.05322265625
 20
638.92041015625
 30
0.0
  0
SEQEND
  5
119C
330
1196
100
AcDbEntity
  8
レイヤー 1
370
     9
  0
POLYLINE
  5
119D
330
1194
100
AcDbEntity
  8
レイヤー 1
 62
     7
420
 16777215
370
     9
100
AcDb2dPolyline
 66
     1
 10
0.0
 20
0.0
 30
0.0
  0
VERTEX
  5
119E
330
119D
100
AcDbEntity
  8
レイヤー 1
 62
     7
420
 16777215
370
     9
100
AcDbVertex
100
AcDb2dVertex
 10
368.52001953125
 20
618.14501953125
 30
0.0
  0
VERTEX
  5
119F
330
119D
100
AcDbEntity
  8
レイヤー 1
 62
     7
420
 16777215
370
     9
100
AcDbVertex
100
AcDb2dVertex
 10
368.52001953125
 20
634.57080078125
 30
0.0
  0
VERTEX
  5
11A0
330
119D
100
AcDbEntity
  8
レイヤー 1
 62
     7
420
 16777215
370
     9
100
AcDbVertex
100
AcDb2dVertex
 10
337.92041015625
 20
652.2373046875
 30
0.0
  0
VERTEX
  5
11A1
330
119D
100
AcDbEntity
  8
レイヤー 1
 62
     7
420
 16777215
370
     9
100
AcDbVertex
100
AcDb2dVertex
 10
337.92041015625
 20
635.79736328125
 30
0.0
  0
VERTEX
  5
11A2
330
119D
100
AcDbEntity
  8
レイヤー 1
 62
     7
420
 16777215
370
     9
100
AcDbVertex
100
AcDb2dVertex
 10
368.52001953125
 20
618.130859375
 30
0.0
  0
VERTEX
  5
11A3
330
119D
100
AcDbEntity
  8
レイヤー 1
 62
     7
420
 16777215
370
     9
100
AcDbVertex
100
AcDb2dVertex
 10
368.52001953125
 20
618.14501953125
 30
0.0
  0
SEQEND
  5
11A4
330
119D
100
AcDbEntity
  8
レイヤー 1
370
     9
  0
SPLINE
  5
11A5
330
1194
100
AcDbEntity
  8
レイヤー 1
 62
     7
420
 16777215
370
     9
100
AcDbSpline
210
0.0
220
0.0
230
1.0
 70
    11
 71
     3
 72
   116
 73
   112
 74
     0
 42
0.000000001
 43
0.0000000001
 40
0.0
 40
0.0
 40
0.0
 40
0.0
 40
1.0
 40
1.0
 40
1.0
 40
2.0
 40
2.0
 40
2.0
 40
3.0
 40
3.0
 40
3.0
 40
4.0
 40
4.0
 40
4.0
 40
5.0
 40
5.0
 40
5.0
 40
6.0
 40
6.0
 40
6.0
 40
7.0
 40
7.0
 40
7.0
 40
8.0
 40
8.0
 40
8.0
 40
9.0
 40
9.0
 40
9.0
 40
10.0
 40
10.0
 40
10.0
 40
11.0
 40
11.0
 40
11.0
 40
12.0
 40
12.0
 40
12.0
 40
13.0
 40
13.0
 40
13.0
 40
14.0
 40
14.0
 40
14.0
 40
15.0
 40
15.0
 40
15.0
 40
16.0
 40
16.0
 40
16.0
 40
17.0
 40
17.0
 40
17.0
 40
18.0
 40
18.0
 40
18.0
 40
19.0
 40
19.0
 40
19.0
 40
20.0
 40
20.0
 40
20.0
 40
21.0
 40
21.0
 40
21.0
 40
22.0
 40
22.0
 40
22.0
 40
23.0
 40
23.0
 40
23.0
 40
24.0
 40
24.0
 40
24.0
 40
25.0
 40
25.0
 40
25.0
 40
26.0
 40
26.0
 40
26.0
 40
27.0
 40
27.0
 40
27.0
 40
28.0
 40
28.0
 40
28.0
 40
29.0
 40
29.0
 40
29.0
 40
30.0
 40
30.0
 40
30.0
 40
31.0
 40
31.0
 40
31.0
 40
32.0
 40
32.0
 40
32.0
 40
33.0
 40
33.0
 40
33.0
 40
34.0
 40
34.0
 40
34.0
 40
35.0
 40
35.0
 40
35.0
 40
36.0
 40
36.0
 40
36.0
 40
37.0
 40
37.0
 40
37.0
 40
37.0
 10
309.60986328125
 20
687.5
 30
0.0
 10
309.60986328125
 20
687.5
 30
0.0
 10
309.60986328125
 20
509.75
 30
0.0
 10
309.60986328125
 20
509.75
 30
0.0
 10
309.60986328125
 20
509.75
 30
0.0
 10
334.38037109375
 20
509.75
 30
0.0
 10
334.38037109375
 20
509.75
 30
0.0
 10
334.38037109375
 20
509.75
 30
0.0
 10
334.38037109375
 20
654.34130859375
 30
0.0
 10
334.38037109375
 20
654.34130859375
 30
0.0
 10
334.38037109375
 20
654.34130859375
 30
0.0
 10
341.91357421875
 20
658.69091796875
 30
0.0
 10
341.91357421875
 20
658.69091796875
 30
0.0
 10
341.91357421875
 20
658.69091796875
 30
0.0
 10
345.45361328125
 20
656.64697265625
 30
0.0
 10
345.45361328125
 20
656.64697265625
 30
0.0
 10
345.45361328125
 20
656.64697265625
 30
0.0
 10
341.91357421875
 20
658.69091796875
 30
0.0
 10
341.91357421875
 20
658.69091796875
 30
0.0
 10
341.91357421875
 20
658.69091796875
 30
0.0
 10
334.38037109375
 20
654.34130859375
 30
0.0
 10
334.38037109375
 20
654.34130859375
 30
0.0
 10
334.38037109375
 20
654.34130859375
 30
0.0
 10
337.92041015625
 20
652.29736328125
 30
0.0
 10
337.92041015625
 20
652.29736328125
 30
0.0
 10
337.92041015625
 20
652.29736328125
 30
0.0
 10
334.38037109375
 20
654.34130859375
 30
0.0
 10
334.38037109375
 20
654.34130859375
 30
0.0
 10
334.38037109375
 20
654.34130859375
 30
0.0
 10
334.38037109375
 20
509.75
 30
0.0
 10
334.38037109375
 20
509.75
 30
0.0
 10
334.38037109375
 20
509.75
 30
0.0
 10
337.92041015625
 20
509.75
 30
0.0
 10
337.92041015625
 20
509.75
 30
0.0
 10
337.92041015625
 20
509.75
 30
0.0
 10
337.92041015625
 20
635.79736328125
 30
0.0
 10
337.92041015625
 20
635.79736328125
 30
0.0
 10
337.92041015625
 20
635.79736328125
 30
0.0
 10
337.92041015625
 20
652.2373046875
 30
0.0
 10
337.92041015625
 20
652.2373046875
 30
0.0
 10
337.92041015625
 20
652.2373046875
 30
0.0
 10
345.45361328125
 20
656.5869140625
 30
0.0
 10
345.45361328125
 20
656.5869140625
 30
0.0
 10
345.45361328125
 20
656.5869140625
 30
0.0
 10
376.05322265625
 20
638.92041015625
 30
0.0
 10
376.05322265625
 20
638.92041015625
 30
0.0
 10
376.05322265625
 20
638.92041015625
 30
0.0
 10
368.52001953125
 20
634.57080078125
 30
0.0
 10
368.52001953125
 20
634.57080078125
 30
0.0
 10
368.52001953125
 20
634.57080078125
 30
0.0
 10
368.52001953125
 20
618.14501953125
 30
0.0
 10
368.52001953125
 20
618.14501953125
 30
0.0
 10
368.52001953125
 20
618.14501953125
 30
0.0
 10
376.05322265625
 20
622.49462890625
 30
0.0
 10
376.05322265625
 20
622.49462890625
 30
0.0
 10
376.05322265625
 20
622.49462890625
 30
0.0
 10
368.52001953125
 20
618.14501953125
 30
0.0
 10
368.52001953125
 20
618.14501953125
 30
0.0
 10
368.52001953125
 20
618.14501953125
 30
0.0
 10
368.52001953125
 20
618.130859375
 30
0.0
 10
368.52001953125
 20
618.130859375
 30
0.0
 10
368.52001953125
 20
618.130859375
 30
0.0
 10
337.92041015625
 20
635.79736328125
 30
0.0
 10
337.92041015625
 20
635.79736328125
 30
0.0
 10
337.92041015625
 20
635.79736328125
 30
0.0
 10
337.92041015625
 20
509.75
 30
0.0
 10
337.92041015625
 20
509.75
 30
0.0
 10
337.92041015625
 20
509.75
 30
0.0
 10
345.45361328125
 20
509.75
 30
0.0
 10
345.45361328125
 20
509.75
 30
0.0
 10
345.45361328125
 20
509.75
 30
0.0
 10
345.45361328125
 20
631.375
 30
0.0
 10
345.45361328125
 20
631.375
 30
0.0
 10
345.45361328125
 20
631.375
 30
0.0
 10
345.45361328125
 20
509.75
 30
0.0
 10
345.45361328125
 20
509.75
 30
0.0
 10
345.45361328125
 20
509.75
 30
0.0
 10
487.77880859375
 20
509.75
 30
0.0
 10
487.77880859375
 20
509.75
 30
0.0
 10
487.77880859375
 20
509.75
 30
0.0
 10
487.77880859375
 20
565.65673828125
 30
0.0
 10
487.77880859375
 20
565.65673828125
 30
0.0
 10
487.77880859375
 20
565.65673828125
 30
0.0
 10
487.77880859375
 20
509.75
 30
0.0
 10
487.77880859375
 20
509.75
 30
0.0
 10
487.77880859375
 20
509.75
 30
0.0
 10
491.25830078125
 20
509.75
 30
0.0
 10
491.25830078125
 20
509.75
 30
0.0
 10
491.25830078125
 20
509.75
 30
0.0
 10
491.25830078125
 20
563.7080078125
 30
0.0
 10
491.25830078125
 20
563.7080078125
 30
0.0
 10
491.25830078125
 20
563.7080078125
 30
0.0
 10
491.25830078125
 20
509.75
 30
0.0
 10
491.25830078125
 20
509.75
 30
0.0
 10
491.25830078125
 20
509.75
 30
0.0
 10
498.79150390625
 20
509.75
 30
0.0
 10
498.79150390625
 20
509.75
 30
0.0
 10
498.79150390625
 20
509.75
 30
0.0
 10
498.79150390625
 20
568.0576171875
 30
0.0
 10
498.79150390625
 20
568.0576171875
 30
0.0
 10
498.79150390625
 20
568.0576171875
 30
0.0
 10
498.79150390625
 20
509.75
 30
0.0
 10
498.79150390625
 20
509.75
 30
0.0
 10
498.79150390625
 20
509.75
 30
0.0
 10
518.63330078125
 20
509.75
 30
0.0
 10
518.63330078125
 20
509.75
 30
0.0
 10
518.63330078125
 20
509.75
 30
0.0
 10
518.63330078125
 20
687.5
 30
0.0
 10
518.63330078125
 20
687.5
 30
0.0
 10
518.63330078125
 20
687.5
 30
0.0
 10
309.60986328125
 20
687.5
 30
0.0
 10
309.60986328125
 20
687.5
 30
0.0
  0
SPLINE
  5
11A6
330
1194
100
AcDbEntity
  8
レイヤー 1
 62
     7
420
 16777215
370
     9
100
AcDbSpline
210
0.0
220
0.0
230
1.0
 70
    11
 71
     3
 72
    29
 73
    25
 74
     0
 42
0.000000001
 43
0.0000000001
 40
0.0
 40
0.0
 40
0.0
 40
0.0
 40
1.0
 40
1.0
 40
1.0
 40
2.0
 40
2.0
 40
2.0
 40
3.0
 40
3.0
 40
3.0
 40
4.0
 40
4.0
 40
4.0
 40
5.0
 40
5.0
 40
5.0
 40
6.0
 40
6.0
 40
6.0
 40
7.0
 40
7.0
 40
7.0
 40
8.0
 40
8.0
 40
8.0
 40
8.0
 10
375.50048828125
 20
622.84375
 30
0.0
 10
375.50048828125
 20
622.84375
 30
0.0
 10
369.06005859375
 20
619.12548828125
 30
0.0
 10
369.06005859375
 20
619.12548828125
 30
0.0
 10
369.06005859375
 20
619.12548828125
 30
0.0
 10
369.06005859375
 20
622.4951171875
 30
0.0
 10
369.06005859375
 20
622.4951171875
 30
0.0
 10
369.06005859375
 20
622.4951171875
 30
0.0
 10
369.06005859375
 20
626.56201171875
 30
0.0
 10
369.06005859375
 20
626.56201171875
 30
0.0
 10
369.06005859375
 20
626.56201171875
 30
0.0
 10
369.06005859375
 20
634.203125
 30
0.0
 10
369.06005859375
 20
634.203125
 30
0.0
 10
369.06005859375
 20
634.203125
 30
0.0
 10
375.50048828125
 20
637.8515625
 30
0.0
 10
375.50048828125
 20
637.8515625
 30
0.0
 10
375.50048828125
 20
637.8515625
 30
0.0
 10
369.06005859375
 20
634.203125
 30
0.0
 10
369.06005859375
 20
634.203125
 30
0.0
 10
369.06005859375
 20
634.203125
 30
0.0
 10
369.06005859375
 20
626.56201171875
 30
0.0
 10
369.06005859375
 20
626.56201171875
 30
0.0
 10
369.06005859375
 20
626.56201171875
 30
0.0
 10
375.50048828125
 20
622.84375
 30
0.0
 10
375.50048828125
 20
622.84375
 30
0.0
  0
SPLINE
  5
11A7
330
1194
100
AcDbEntity
  8
レイヤー 1
 62
     7
420
 16777215
370
     9
100
AcDbSpline
210
0.0
220
0.0
230
1.0
 70
    11
 71
     3
 72
    29
 73
    25
 74
     0
 42
0.000000001
 43
0.0000000001
 40
0.0
 40
0.0
 40
0.0
 40
0.0
 40
1.0
 40
1.0
 40
1.0
 40
2.0
 40
2.0
 40
2.0
 40
3.0
 40
3.0
 40
3.0
 40
4.0
 40
4.0
 40
4.0
 40
5.0
 40
5.0
 40
5.0
 40
6.0
 40
6.0
 40
6.0
 40
7.0
 40
7.0
 40
7.0
 40
8.0
 40
8.0
 40
8.0
 40
8.0
 10
370.14599609375
 20
623.05712890625
 30
0.0
 10
370.74560546875
 20
623.05712890625
 30
0.0
 10
371.23095703125
 20
622.8056640625
 30
0.0
 10
371.23095703125
 20
622.4951171875
 30
0.0
 10
371.23095703125
 20
622.1845703125
 30
0.0
 10
370.74560546875
 20
621.9326171875
 30
0.0
 10
370.14599609375
 20
621.9326171875
 30
0.0
 10
369.54638671875
 20
621.9326171875
 30
0.0
 10
369.06005859375
 20
622.1845703125
 30
0.0
 10
369.06005859375
 20
622.4951171875
 30
0.0
 10
369.06005859375
 20
622.4951171875
 30
0.0
 10
369.06005859375
 20
619.12548828125
 30
0.0
 10
369.06005859375
 20
619.12548828125
 30
0.0
 10
369.06005859375
 20
619.12548828125
 30
0.0
 10
375.50048828125
 20
622.84375
 30
0.0
 10
375.50048828125
 20
622.84375
 30
0.0
 10
375.50048828125
 20
622.84375
 30
0.0
 10
369.06005859375
 20
626.56201171875
 30
0.0
 10
369.06005859375
 20
626.56201171875
 30
0.0
 10
369.06005859375
 20
626.56201171875
 30
0.0
 10
369.06005859375
 20
622.4951171875
 30
0.0
 10
369.06005859375
 20
622.4951171875
 30
0.0
 10
369.06005859375
 20
622.8056640625
 30
0.0
 10
369.54638671875
 20
623.05712890625
 30
0.0
 10
370.14599609375
 20
623.05712890625
 30
0.0
  0
SPLINE
  5
11A8
330
1194
100
AcDbEntity
  8
レイヤー 1
 62
     7
420
 16777215
370
     9
100
AcDbSpline
210
0.0
220
0.0
230
1.0
 70
    11
 71
     3
 72
    17
 73
    13
 74
     0
 42
0.000000001
 43
0.0000000001
 40
0.0
 40
0.0
 40
0.0
 40
0.0
 40
1.0
 40
1.0
 40
1.0
 40
2.0
 40
2.0
 40
2.0
 40
3.0
 40
3.0
 40
3.0
 40
4.0
 40
4.0
 40
4.0
 40
4.0
 10
370.14599609375
 20
621.9326171875
 30
0.0
 10
370.74560546875
 20
621.9326171875
 30
0.0
 10
371.23095703125
 20
622.1845703125
 30
0.0
 10
371.23095703125
 20
622.4951171875
 30
0.0
 10
371.23095703125
 20
622.8056640625
 30
0.0
 10
370.74560546875
 20
623.05712890625
 30
0.0
 10
370.14599609375
 20
623.05712890625
 30
0.0
 10
369.54638671875
 20
623.05712890625
 30
0.0
 10
369.06005859375
 20
622.8056640625
 30
0.0
 10
369.06005859375
 20
622.4951171875
 30
0.0
 10
369.06005859375
 20
622.1845703125
 30
0.0
 10
369.54638671875
 20
621.9326171875
 30
0.0
 10
370.14599609375
 20
621.9326171875
 30
0.0
  0
ENDBLK
  5
11A9
330
1194
100
AcDbEntity
  8
0
100
AcDbBlockEnd
  0
BLOCK
  5
1463
330
1462
100
AcDbEntity
  8
0
100
AcDbBlockBegin
  2
*D16
 70
     1
 10
0.0
 20
0.0
 30
0.0
  3
*D16
  1
*D19
  0
LINE
  5
1465
330
1462
100
AcDbEntity
  8
DIM
 62
     0
 48
0.05
370
    -2
100
AcDbLine
 10
294.7825947781708
 20
198.7897639839813
 30
0.0
 11
294.7825947781708
 21
183.1295056228595
 31
0.0
  0
LINE
  5
1466
330
1462
100
AcDbEntity
  8
DIM
 62
     0
 48
0.05
370
    -2
100
AcDbLine
 10
732.6245097736243
 20
198.9887855879433
 30
0.0
 11
732.6245097736243
 21
183.1295056228595
 31
0.0
  0
LINE
  5
1467
330
1462
100
AcDbEntity
  8
DIM
 62
     0
 48
0.05
370
    -2
100
AcDbLine
 10
300.7825947781708
 20
183.1295056228595
 30
0.0
 11
726.6245097736243
 21
183.1295056228595
 31
0.0
  0
INSERT
  5
1468
330
1462
100
AcDbEntity
  8
DIM
 62
     0
370
    -2
100
AcDbBlockReference
  2
_DOT
 10
294.7825947781708
 20
183.1295056228595
 30
0.0
 41
6.0
 42
6.0
 43
6.0
 50
180.0
  0
INSERT
  5
1469
330
1462
100
AcDbEntity
  8
DIM
 62
     0
370
    -2
100
AcDbBlockReference
  2
_DOT
 10
732.6245097736243
 20
183.1295056228595
 30
0.0
 41
6.0
 42
6.0
 43
6.0
  0
MTEXT
  5
146A
330
1462
100
AcDbEntity
  8
DIM
 62
     0
 48
0.05
100
AcDbMText
 10
513.7035522758976
 20
199.1295056228595
 30
0.0
 40
12.0
 41
0.0
 46
0.0
 71
     5
 72
     1
  1
\A1;438
  7
ＭＳ ゴシック
 73
     1
 44
1.0
  0
POINT
  5
146B
330
1462
100
AcDbEntity
  8
Defpoints
 62
     0
100
AcDbPoint
 10
294.7825947781708
 20
203.7897639839813
 30
0.0
  0
POINT
  5
146C
330
1462
100
AcDbEntity
  8
Defpoints
 62
     0
100
AcDbPoint
 10
732.6245097736243
 20
203.9887855879433
 30
0.0
  0
POINT
  5
146D
330
1462
100
AcDbEntity
  8
Defpoints
 62
     0
100
AcDbPoint
 10
732.6245097736243
 20
183.1295056228595
 30
0.0
  0
ENDBLK
  5
1464
330
1462
100
AcDbEntity
  8
0
100
AcDbBlockEnd
  0
BLOCK
  5
15C7
330
15C6
100
AcDbEntity
  8
0
100
AcDbBlockBegin
  2
block 8
 70
     0
 10
0.0
 20
0.0
 30
0.0
  3
block 8
  1
block 8
  0
POLYLINE
  5
15C8
330
15C6
100
AcDbEntity
  8
レイヤー 1
370
     0
100
AcDb2dPolyline
 66
     1
 10
0.0
 20
0.0
 30
0.0
  0
VERTEX
  5
15C9
330
15C8
100
AcDbEntity
  8
レイヤー 1
370
     0
100
AcDbVertex
100
AcDb2dVertex
 10
369.06005859375
 20
619.12548828125
 30
0.0
  0
VERTEX
  5
15CA
330
15C8
100
AcDbEntity
  8
レイヤー 1
370
     0
100
AcDbVertex
100
AcDb2dVertex
 10
375.50048828125
 20
622.84375
 30
0.0
  0
VERTEX
  5
15CB
330
15C8
100
AcDbEntity
  8
レイヤー 1
370
     0
100
AcDbVertex
100
AcDb2dVertex
 10
369.06005859375
 20
626.56201171875
 30
0.0
  0
VERTEX
  5
15CC
330
15C8
100
AcDbEntity
  8
レイヤー 1
370
     0
100
AcDbVertex
100
AcDb2dVertex
 10
369.06005859375
 20
622.4951171875
 30
0.0
  0
VERTEX
  5
15CD
330
15C8
100
AcDbEntity
  8
レイヤー 1
370
     0
100
AcDbVertex
100
AcDb2dVertex
 10
369.06005859375
 20
619.12548828125
 30
0.0
  0
SEQEND
  5
15CE
330
15C8
100
AcDbEntity
  8
レイヤー 1
370
     0
  0
POLYLINE
  5
15CF
330
15C6
100
AcDbEntity
  8
レイヤー 1
370
     0
100
AcDb2dPolyline
 66
     1
 10
0.0
 20
0.0
 30
0.0
  0
VERTEX
  5
15D0
330
15CF
100
AcDbEntity
  8
レイヤー 1
370
     0
100
AcDbVertex
100
AcDb2dVertex
 10
368.52001953125
 20
618.14501953125
 30
0.0
  0
VERTEX
  5
15D1
330
15CF
100
AcDbEntity
  8
レイヤー 1
370
     0
100
AcDbVertex
100
AcDb2dVertex
 10
368.52001953125
 20
634.57080078125
 30
0.0
  0
VERTEX
  5
15D2
330
15CF
100
AcDbEntity
  8
レイヤー 1
370
     0
100
AcDbVertex
100
AcDb2dVertex
 10
376.05322265625
 20
638.92041015625
 30
0.0
  0
VERTEX
  5
15D3
330
15CF
100
AcDbEntity
  8
レイヤー 1
370
     0
100
AcDbVertex
100
AcDb2dVertex
 10
345.45361328125
 20
656.5869140625
 30
0.0
  0
VERTEX
  5
15D4
330
15CF
100
AcDbEntity
  8
レイヤー 1
370
     0
100
AcDbVertex
100
AcDb2dVertex
 10
337.92041015625
 20
652.2373046875
 30
0.0
  0
VERTEX
  5
15D5
330
15CF
100
AcDbEntity
  8
レイヤー 1
370
     0
100
AcDbVertex
100
AcDb2dVertex
 10
337.92041015625
 20
635.79736328125
 30
0.0
  0
VERTEX
  5
15D6
330
15CF
100
AcDbEntity
  8
レイヤー 1
370
     0
100
AcDbVertex
100
AcDb2dVertex
 10
368.52001953125
 20
618.130859375
 30
0.0
  0
VERTEX
  5
15D7
330
15CF
100
AcDbEntity
  8
レイヤー 1
370
     0
100
AcDbVertex
100
AcDb2dVertex
 10
368.52001953125
 20
618.14501953125
 30
0.0
  0
SEQEND
  5
15D8
330
15CF
100
AcDbEntity
  8
レイヤー 1
370
     0
  0
POLYLINE
  5
15D9
330
15C6
100
AcDbEntity
  8
レイヤー 1
 62
     7
420
 16777215
370
     9
100
AcDb2dPolyline
 66
     1
 10
0.0
 20
0.0
 30
0.0
  0
VERTEX
  5
15DA
330
15D9
100
AcDbEntity
  8
レイヤー 1
 62
     7
420
 16777215
370
     9
100
AcDbVertex
100
AcDb2dVertex
 10
337.92041015625
 20
635.79736328125
 30
0.0
  0
VERTEX
  5
15DB
330
15D9
100
AcDbEntity
  8
0
100
AcDbVertex
100
AcDb2dVertex
 10
337.92041015625
 20
635.79736328125
 30
0.0
  0
SEQEND
  5
15DC
330
15D9
100
AcDbEntity
  8
レイヤー 1
370
     9
  0
SPLINE
  5
15DD
330
15C6
100
AcDbEntity
  8
レイヤー 1
 62
     7
420
 16777215
370
     9
100
AcDbSpline
210
0.0
220
0.0
230
1.0
 70
     8
 71
     3
 72
    32
 73
    28
 74
     0
 42
0.000000001
 43
0.0000000001
 40
0.0
 40
0.0
 40
0.0
 40
0.0
 40
1.0
 40
1.0
 40
1.0
 40
2.0
 40
2.0
 40
2.0
 40
3.0
 40
3.0
 40
3.0
 40
4.0
 40
4.0
 40
4.0
 40
5.0
 40
5.0
 40
5.0
 40
6.0
 40
6.0
 40
6.0
 40
7.0
 40
7.0
 40
7.0
 40
8.0
 40
8.0
 40
8.0
 40
9.0
 40
9.0
 40
9.0
 40
9.0
 10
337.92041015625
 20
512.63037109375
 30
0.0
 10
337.92041015625
 20
512.63037109375
 30
0.0
 10
337.92041015625
 20
635.79736328125
 30
0.0
 10
337.92041015625
 20
635.79736328125
 30
0.0
 10
337.92041015625
 20
635.79736328125
 30
0.0
 10
337.92041015625
 20
652.2373046875
 30
0.0
 10
337.92041015625
 20
652.2373046875
 30
0.0
 10
337.92041015625
 20
652.2373046875
 30
0.0
 10
345.45361328125
 20
656.5869140625
 30
0.0
 10
345.45361328125
 20
656.5869140625
 30
0.0
 10
345.45361328125
 20
656.5869140625
 30
0.0
 10
376.05322265625
 20
638.92041015625
 30
0.0
 10
376.05322265625
 20
638.92041015625
 30
0.0
 10
376.05322265625
 20
638.92041015625
 30
0.0
 10
368.52001953125
 20
634.57080078125
 30
0.0
 10
368.52001953125
 20
634.57080078125
 30
0.0
 10
368.52001953125
 20
634.57080078125
 30
0.0
 10
368.52001953125
 20
618.14501953125
 30
0.0
 10
368.52001953125
 20
618.14501953125
 30
0.0
 10
368.52001953125
 20
618.14501953125
 30
0.0
 10
376.05322265625
 20
622.49462890625
 30
0.0
 10
376.05322265625
 20
622.49462890625
 30
0.0
 10
376.05322265625
 20
622.49462890625
 30
0.0
 10
368.52001953125
 20
618.14501953125
 30
0.0
 10
368.52001953125
 20
618.14501953125
 30
0.0
 10
368.52001953125
 20
618.14501953125
 30
0.0
 10
368.52001953125
 20
618.130859375
 30
0.0
 10
368.52001953125
 20
618.130859375
 30
0.0
  0
SPLINE
  5
15DE
330
15C6
100
AcDbEntity
  8
レイヤー 1
 62
     7
420
 16777215
370
     9
100
AcDbSpline
210
0.0
220
0.0
230
1.0
 70
     8
 71
     3
 72
    26
 73
    22
 74
     0
 42
0.000000001
 43
0.0000000001
 40
0.0
 40
0.0
 40
0.0
 40
0.0
 40
1.0
 40
1.0
 40
1.0
 40
2.0
 40
2.0
 40
2.0
 40
3.0
 40
3.0
 40
3.0
 40
4.0
 40
4.0
 40
4.0
 40
5.0
 40
5.0
 40
5.0
 40
6.0
 40
6.0
 40
6.0
 40
7.0
 40
7.0
 40
7.0
 40
7.0
 10
334.38037109375
 20
654.34130859375
 30
0.0
 10
334.38037109375
 20
654.34130859375
 30
0.0
 10
341.91357421875
 20
658.69091796875
 30
0.0
 10
341.91357421875
 20
658.69091796875
 30
0.0
 10
341.91357421875
 20
658.69091796875
 30
0.0
 10
345.45361328125
 20
656.64697265625
 30
0.0
 10
345.45361328125
 20
656.64697265625
 30
0.0
 10
345.45361328125
 20
656.64697265625
 30
0.0
 10
341.91357421875
 20
658.69091796875
 30
0.0
 10
341.91357421875
 20
658.69091796875
 30
0.0
 10
341.91357421875
 20
658.69091796875
 30
0.0
 10
334.38037109375
 20
654.34130859375
 30
0.0
 10
334.38037109375
 20
654.34130859375
 30
0.0
 10
334.38037109375
 20
654.34130859375
 30
0.0
 10
337.92041015625
 20
652.29736328125
 30
0.0
 10
337.92041015625
 20
652.29736328125
 30
0.0
 10
337.92041015625
 20
652.29736328125
 30
0.0
 10
334.38037109375
 20
654.34130859375
 30
0.0
 10
334.38037109375
 20
654.34130859375
 30
0.0
 10
334.38037109375
 20
654.34130859375
 30
0.0
 10
334.38037109375
 20
512.63037109375
 30
0.0
 10
334.38037109375
 20
512.63037109375
 30
0.0
  0
POLYLINE
  5
15DF
330
15C6
100
AcDbEntity
  8
レイヤー 1
 62
     7
420
 16777215
370
     9
100
AcDb2dPolyline
 66
     1
 10
0.0
 20
0.0
 30
0.0
  0
VERTEX
  5
15E0
330
15DF
100
AcDbEntity
  8
レイヤー 1
 62
     7
420
 16777215
370
     9
100
AcDbVertex
100
AcDb2dVertex
 10
498.79150390625
 20
512.25048828125
 30
0.0
  0
VERTEX
  5
15E1
330
15DF
100
AcDbEntity
  8
レイヤー 1
 62
     7
420
 16777215
370
     9
100
AcDbVertex
100
AcDb2dVertex
 10
498.79150390625
 20
568.0576171875
 30
0.0
  0
SEQEND
  5
15E2
330
15DF
100
AcDbEntity
  8
レイヤー 1
370
     9
  0
POLYLINE
  5
15E3
330
15C6
100
AcDbEntity
  8
レイヤー 1
 62
     7
420
 16777215
370
     9
100
AcDb2dPolyline
 66
     1
 10
0.0
 20
0.0
 30
0.0
  0
VERTEX
  5
15E4
330
15E3
100
AcDbEntity
  8
レイヤー 1
 62
     7
420
 16777215
370
     9
100
AcDbVertex
100
AcDb2dVertex
 10
491.25830078125
 20
512.25
 30
0.0
  0
VERTEX
  5
15E5
330
15E3
100
AcDbEntity
  8
レイヤー 1
 62
     7
420
 16777215
370
     9
100
AcDbVertex
100
AcDb2dVertex
 10
491.25830078125
 20
563.7080078125
 30
0.0
  0
SEQEND
  5
15E6
330
15E3
100
AcDbEntity
  8
レイヤー 1
370
     9
  0
POLYLINE
  5
15E7
330
15C6
100
AcDbEntity
  8
レイヤー 1
 62
     7
420
 16777215
370
     9
100
AcDb2dPolyline
 66
     1
 10
0.0
 20
0.0
 30
0.0
  0
VERTEX
  5
15E8
330
15E7
100
AcDbEntity
  8
レイヤー 1
 62
     7
420
 16777215
370
     9
100
AcDbVertex
100
AcDb2dVertex
 10
487.77880859375
 20
565.65673828125
 30
0.0
  0
VERTEX
  5
15E9
330
15E7
100
AcDbEntity
  8
レイヤー 1
 62
     7
420
 16777215
370
     9
100
AcDbVertex
100
AcDb2dVertex
 10
487.77880859375
 20
513.375
 30
0.0
  0
SEQEND
  5
15EA
330
15E7
100
AcDbEntity
  8
レイヤー 1
370
     9
  0
POLYLINE
  5
15EB
330
15C6
100
AcDbEntity
  8
レイヤー 1
 62
     7
420
 16777215
370
     9
100
AcDb2dPolyline
 66
     1
 10
0.0
 20
0.0
 30
0.0
  0
VERTEX
  5
15EC
330
15EB
100
AcDbEntity
  8
レイヤー 1
 62
     7
420
 16777215
370
     9
100
AcDbVertex
100
AcDb2dVertex
 10
309.60986328125
 20
509.75
 30
0.0
  0
VERTEX
  5
15ED
330
15EB
100
AcDbEntity
  8
レイヤー 1
 62
     7
420
 16777215
370
     9
100
AcDbVertex
100
AcDb2dVertex
 10
518.63330078125
 20
509.75
 30
0.0
  0
SEQEND
  5
15EE
330
15EB
100
AcDbEntity
  8
レイヤー 1
370
     9
  0
POLYLINE
  5
15EF
330
15C6
100
AcDbEntity
  8
レイヤー 1
 62
     7
420
 16777215
370
     9
100
AcDb2dPolyline
 66
     1
 10
0.0
 20
0.0
 30
0.0
  0
VERTEX
  5
15F0
330
15EF
100
AcDbEntity
  8
レイヤー 1
 62
     7
420
 16777215
370
     9
100
AcDbVertex
100
AcDb2dVertex
 10
345.45361328125
 20
631.375
 30
0.0
  0
VERTEX
  5
15F1
330
15EF
100
AcDbEntity
  8
レイヤー 1
 62
     7
420
 16777215
370
     9
100
AcDbVertex
100
AcDb2dVertex
 10
345.45361328125
 20
514.67431640625
 30
0.0
  0
SEQEND
  5
15F2
330
15EF
100
AcDbEntity
  8
レイヤー 1
370
     9
  0
SPLINE
  5
15F3
330
15C6
100
AcDbEntity
  8
レイヤー 1
 62
     7
420
 16777215
370
     9
100
AcDbSpline
210
0.0
220
0.0
230
1.0
 70
    11
 71
     3
 72
    29
 73
    25
 74
     0
 42
0.000000001
 43
0.0000000001
 40
0.0
 40
0.0
 40
0.0
 40
0.0
 40
1.0
 40
1.0
 40
1.0
 40
2.0
 40
2.0
 40
2.0
 40
3.0
 40
3.0
 40
3.0
 40
4.0
 40
4.0
 40
4.0
 40
5.0
 40
5.0
 40
5.0
 40
6.0
 40
6.0
 40
6.0
 40
7.0
 40
7.0
 40
7.0
 40
8.0
 40
8.0
 40
8.0
 40
8.0
 10
375.50048828125
 20
622.84375
 30
0.0
 10
375.50048828125
 20
622.84375
 30
0.0
 10
369.06005859375
 20
619.12548828125
 30
0.0
 10
369.06005859375
 20
619.12548828125
 30
0.0
 10
369.06005859375
 20
619.12548828125
 30
0.0
 10
369.06005859375
 20
622.4951171875
 30
0.0
 10
369.06005859375
 20
622.4951171875
 30
0.0
 10
369.06005859375
 20
622.4951171875
 30
0.0
 10
369.06005859375
 20
626.56201171875
 30
0.0
 10
369.06005859375
 20
626.56201171875
 30
0.0
 10
369.06005859375
 20
626.56201171875
 30
0.0
 10
369.06005859375
 20
634.203125
 30
0.0
 10
369.06005859375
 20
634.203125
 30
0.0
 10
369.06005859375
 20
634.203125
 30
0.0
 10
375.50048828125
 20
637.8515625
 30
0.0
 10
375.50048828125
 20
637.8515625
 30
0.0
 10
375.50048828125
 20
637.8515625
 30
0.0
 10
369.06005859375
 20
634.203125
 30
0.0
 10
369.06005859375
 20
634.203125
 30
0.0
 10
369.06005859375
 20
634.203125
 30
0.0
 10
369.06005859375
 20
626.56201171875
 30
0.0
 10
369.06005859375
 20
626.56201171875
 30
0.0
 10
369.06005859375
 20
626.56201171875
 30
0.0
 10
375.50048828125
 20
622.84375
 30
0.0
 10
375.50048828125
 20
622.84375
 30
0.0
  0
INSERT
  5
15F4
330
15C6
100
AcDbEntity
  8
レイヤー 1
100
AcDbBlockReference
  2
block 9
 10
0.0
 20
0.0
 30
0.0
  0
ENDBLK
  5
1606
330
15C6
100
AcDbEntity
  8
0
100
AcDbBlockEnd
  0
BLOCK
  5
15F6
330
15F5
100
AcDbEntity
  8
0
100
AcDbBlockBegin
  2
block 9
 70
     0
 10
0.0
 20
0.0
 30
0.0
  3
block 9
  1
block 9
  0
INSERT
  5
15F7
330
15F5
100
AcDbEntity
  8
レイヤー 1
100
AcDbBlockReference
  2
block 10
 10
0.0
 20
0.0
 30
0.0
  0
INSERT
  5
15FB
330
15F5
100
AcDbEntity
  8
レイヤー 1
100
AcDbBlockReference
  2
block 11
 10
0.0
 20
0.0
 30
0.0
  0
ENDBLK
  5
1605
330
15F5
100
AcDbEntity
  8
0
100
AcDbBlockEnd
  0
BLOCK
  5
15F9
330
15F8
100
AcDbEntity
  8
0
100
AcDbBlockBegin
  2
block 10
 70
     0
 10
0.0
 20
0.0
 30
0.0
  3
block 10
  1
block 10
  0
ENDBLK
  5
15FA
330
15F8
100
AcDbEntity
  8
0
100
AcDbBlockEnd
  0
BLOCK
  5
15FD
330
15FC
100
AcDbEntity
  8
0
100
AcDbBlockBegin
  2
block 11
 70
     0
 10
0.0
 20
0.0
 30
0.0
  3
block 11
  1
block 11
  0
POLYLINE
  5
15FE
330
15FC
100
AcDbEntity
  8
レイヤー 1
 62
     7
420
 16777215
370
     9
100
AcDb2dPolyline
 66
     1
 10
0.0
 20
0.0
 30
0.0
  0
VERTEX
  5
15FF
330
15FE
100
AcDbEntity
  8
レイヤー 1
 62
     7
420
 16777215
370
     9
100
AcDbVertex
100
AcDb2dVertex
 10
518.62939453125
 20
509.75
 30
0.0
  0
VERTEX
  5
1600
330
15FE
100
AcDbEntity
  8
レイヤー 1
 62
     7
420
 16777215
370
     9
100
AcDbVertex
100
AcDb2dVertex
 10
518.62939453125
 20
689.5
 30
0.0
  0
VERTEX
  5
1601
330
15FE
100
AcDbEntity
  8
レイヤー 1
 62
     7
420
 16777215
370
     9
100
AcDbVertex
100
AcDb2dVertex
 10
309.60986328125
 20
689.5
 30
0.0
  0
VERTEX
  5
1602
330
15FE
100
AcDbEntity
  8
レイヤー 1
 62
     7
420
 16777215
370
     9
100
AcDbVertex
100
AcDb2dVertex
 10
309.60986328125
 20
509.75
 30
0.0
  0
SEQEND
  5
1603
330
15FE
100
AcDbEntity
  8
レイヤー 1
370
     9
  0
ENDBLK
  5
1604
330
15FC
100
AcDbEntity
  8
0
100
AcDbBlockEnd
  0
BLOCK
  5
18BB
330
18BA
100
AcDbEntity
  8
0
100
AcDbBlockBegin
  2
*D21
 70
     1
 10
0.0
 20
0.0
 30
0.0
  3
*D21
  1
*D26
  0
LINE
  5
18BD
330
18BA
100
AcDbEntity
  8
DIM
 62
     0
370
    -2
100
AcDbLine
 10
1752.447291167563
 20
1291.125524976369
 30
0.0
 11
1803.647291167564
 21
1291.125524976369
 31
0.0
  0
LINE
  5
18BE
330
18BA
100
AcDbEntity
  8
DIM
 62
     0
370
    -2
100
AcDbLine
 10
1752.447291167565
 20
691.1255249763691
 30
0.0
 11
1803.647291167566
 21
691.1255249763693
 31
0.0
  0
LINE
  5
18BF
330
18BA
100
AcDbEntity
  8
DIM
 62
     0
370
    -2
100
AcDbLine
 10
1803.647291167564
 20
1289.125524976369
 30
0.0
 11
1803.647291167566
 21
693.1255249763693
 31
0.0
  0
INSERT
  5
18C0
330
18BA
100
AcDbEntity
  8
DIM
 62
     0
370
    -2
100
AcDbBlockReference
  2
_DOT
 10
1803.647291167564
 20
1291.125524976369
 30
0.0
 41
2.0
 42
2.0
 43
2.0
 50
90.0000000000002
  0
INSERT
  5
18C1
330
18BA
100
AcDbEntity
  8
DIM
 62
     0
370
    -2
100
AcDbBlockReference
  2
_DOT
 10
1803.647291167566
 20
691.1255249763693
 30
0.0
 41
2.0
 42
2.0
 43
2.0
 50
270.0000000000002
  0
MTEXT
  5
18C2
330
18BA
100
AcDbEntity
  8
DIM
 62
     0
 48
0.05
100
AcDbMText
 10
1781.647291167565
 20
980.157524976369
 30
0.0
 40
12.0
 41
0.0
 46
0.0
 71
     1
 72
     1
  1
\A1;600
  7
ＭＳ ゴシック
 11
-3.410605131648480E-15
 21
1.0
 31
0.0
 73
     1
 44
1.0
  0
POINT
  5
18C3
330
18BA
100
AcDbEntity
  8
Defpoints
 62
     0
100
AcDbPoint
 10
1747.447291167563
 20
1291.125524976369
 30
0.0
  0
POINT
  5
18C4
330
18BA
100
AcDbEntity
  8
Defpoints
 62
     0
100
AcDbPoint
 10
1747.447291167565
 20
691.1255249763691
 30
0.0
  0
POINT
  5
18C5
330
18BA
100
AcDbEntity
  8
Defpoints
 62
     0
100
AcDbPoint
 10
1803.647291167566
 20
691.1255249763693
 30
0.0
  0
ENDBLK
  5
18BC
330
18BA
100
AcDbEntity
  8
0
100
AcDbBlockEnd
  0
BLOCK
  5
18C7
330
18C6
100
AcDbEntity
  8
0
100
AcDbBlockBegin
  2
*D22
 70
     1
 10
0.0
 20
0.0
 30
0.0
  3
*D22
  1
*D27
  0
LINE
  5
18C9
330
18C6
100
AcDbEntity
  8
DIM
 62
     0
370
    -2
100
AcDbLine
 10
1614.447291167564
 20
1276.125524976369
 30
0.0
 11
1593.59307104717
 21
1276.125524976369
 31
0.0
  0
LINE
  5
18CA
330
18C6
100
AcDbEntity
  8
DIM
 62
     0
370
    -2
100
AcDbLine
 10
1614.447291167564
 20
1306.125524976369
 30
0.0
 11
1593.59307104717
 21
1306.125524976369
 31
0.0
  0
LINE
  5
18CB
330
18C6
100
AcDbEntity
  8
DIM
 62
     0
370
    -2
100
AcDbLine
 10
1593.59307104717
 20
1278.125524976369
 30
0.0
 11
1593.59307104717
 21
1304.125524976369
 31
0.0
  0
INSERT
  5
18CC
330
18C6
100
AcDbEntity
  8
DIM
 62
     0
370
    -2
100
AcDbBlockReference
  2
_DOT
 10
1593.59307104717
 20
1276.125524976369
 30
0.0
 41
2.0
 42
2.0
 43
2.0
 50
270.0
  0
INSERT
  5
18CD
330
18C6
100
AcDbEntity
  8
DIM
 62
     0
370
    -2
100
AcDbBlockReference
  2
_DOT
 10
1593.59307104717
 20
1306.125524976369
 30
0.0
 41
2.0
 42
2.0
 43
2.0
 50
90.0
  0
MTEXT
  5
18CE
330
18C6
100
AcDbEntity
  8
DIM
 62
     0
 48
0.05
100
AcDbMText
 10
1571.59307104717
 20
1283.967524976368
 30
0.0
 40
12.0
 41
0.0
 46
0.0
 71
     1
 72
     1
  1
\A1;30
  7
ＭＳ ゴシック
 11
0.0
 21
1.0
 31
0.0
 73
     1
 44
1.0
  0
POINT
  5
18CF
330
18C6
100
AcDbEntity
  8
Defpoints
 62
     0
100
AcDbPoint
 10
1619.447291167564
 20
1276.125524976369
 30
0.0
  0
POINT
  5
18D0
330
18C6
100
AcDbEntity
  8
Defpoints
 62
     0
100
AcDbPoint
 10
1619.447291167564
 20
1306.125524976369
 30
0.0
  0
POINT
  5
18D1
330
18C6
100
AcDbEntity
  8
Defpoints
 62
     0
100
AcDbPoint
 10
1593.59307104717
 20
1306.125524976369
 30
0.0
  0
ENDBLK
  5
18C8
330
18C6
100
AcDbEntity
  8
0
100
AcDbBlockEnd
  0
BLOCK
  5
18D3
330
18D2
100
AcDbEntity
  8
0
100
AcDbBlockBegin
  2
*D23
 70
     1
 10
0.0
 20
0.0
 30
0.0
  3
*D23
  1
*D28
  0
LINE
  5
18D5
330
18D2
100
AcDbEntity
  8
DIM
 62
     0
370
    -2
100
AcDbLine
 10
1613.247291167563
 20
1311.225524976369
 30
0.0
 11
1613.247291167563
 21
1331.531209691727
 31
0.0
  0
LINE
  5
18D6
330
18D2
100
AcDbEntity
  8
DIM
 62
     0
370
    -2
100
AcDbLine
 10
1674.447291167561
 20
1308.115923175852
 30
0.0
 11
1674.447291167561
 21
1331.531209691727
 31
0.0
  0
LINE
  5
18D7
330
18D2
100
AcDbEntity
  8
DIM
 62
     0
370
    -2
100
AcDbLine
 10
1615.247291167563
 20
1331.531209691727
 30
0.0
 11
1672.447291167561
 21
1331.531209691727
 31
0.0
  0
INSERT
  5
18D8
330
18D2
100
AcDbEntity
  8
DIM
 62
     0
370
    -2
100
AcDbBlockReference
  2
_DOT
 10
1613.247291167563
 20
1331.531209691727
 30
0.0
 41
2.0
 42
2.0
 43
2.0
 50
180.0
  0
INSERT
  5
18D9
330
18D2
100
AcDbEntity
  8
DIM
 62
     0
370
    -2
100
AcDbBlockReference
  2
_DOT
 10
1674.447291167561
 20
1331.531209691727
 30
0.0
 41
2.0
 42
2.0
 43
2.0
  0
MTEXT
  5
18DA
330
18D2
100
AcDbEntity
  8
DIM
 62
     0
 48
0.05
100
AcDbMText
 10
1637.997291167562
 20
1353.531209691727
 30
0.0
 40
12.0
 41
0.0
 46
0.0
 71
     1
 72
     1
  1
\A1;61
  7
ＭＳ ゴシック
 73
     1
 44
1.0
  0
POINT
  5
18DB
330
18D2
100
AcDbEntity
  8
Defpoints
 62
     0
100
AcDbPoint
 10
1613.247291167563
 20
1306.225524976369
 30
0.0
  0
POINT
  5
18DC
330
18D2
100
AcDbEntity
  8
Defpoints
 62
     0
100
AcDbPoint
 10
1674.447291167561
 20
1303.115923175852
 30
0.0
  0
POINT
  5
18DD
330
18D2
100
AcDbEntity
  8
Defpoints
 62
     0
100
AcDbPoint
 10
1674.447291167561
 20
1331.531209691727
 30
0.0
  0
ENDBLK
  5
18D4
330
18D2
100
AcDbEntity
  8
0
100
AcDbBlockEnd
  0
BLOCK
  5
18DF
330
18DE
100
AcDbEntity
  8
0
100
AcDbBlockBegin
  2
*D24
 70
     1
 10
0.0
 20
0.0
 30
0.0
  3
*D24
  1
*D29
  0
LINE
  5
18E1
330
18DE
100
AcDbEntity
  8
DIM
 62
     0
370
    -2
100
AcDbLine
 10
1674.447291167564
 20
1309.625524976368
 30
0.0
 11
1674.447291167564
 21
1331.531209691727
 31
0.0
  0
LINE
  5
18E2
330
18DE
100
AcDbEntity
  8
DIM
 62
     0
370
    -2
100
AcDbLine
 10
1682.447291167563
 20
1309.625524976368
 30
0.0
 11
1682.447291167563
 21
1331.531209691727
 31
0.0
  0
LINE
  5
18E3
330
18DE
100
AcDbEntity
  8
DIM
 62
     0
370
    -2
100
AcDbLine
 10
1682.447291167563
 20
1331.531209691727
 30
0.0
 11
1852.471291167563
 21
1331.531209691727
 31
0.0
  0
LINE
  5
18E4
330
18DE
100
AcDbEntity
  8
DIM
 62
     0
370
    -2
100
AcDbLine
 10
1672.447291167564
 20
1331.531209691727
 30
0.0
 11
1670.447291167564
 21
1331.531209691727
 31
0.0
  0
LINE
  5
18E5
330
18DE
100
AcDbEntity
  8
DIM
 62
     0
370
    -2
100
AcDbLine
 10
1684.447291167563
 20
1331.531209691727
 30
0.0
 11
1686.447291167563
 21
1331.531209691727
 31
0.0
  0
INSERT
  5
18E6
330
18DE
100
AcDbEntity
  8
DIM
 62
     0
370
    -2
100
AcDbBlockReference
  2
_DOT
 10
1674.447291167564
 20
1331.531209691727
 30
0.0
 41
2.0
 42
2.0
 43
2.0
  0
INSERT
  5
18E7
330
18DE
100
AcDbEntity
  8
DIM
 62
     0
370
    -2
100
AcDbBlockReference
  2
_DOT
 10
1682.447291167563
 20
1331.531209691727
 30
0.0
 41
2.0
 42
2.0
 43
2.0
 50
180.0
  0
MTEXT
  5
18E8
330
18DE
100
AcDbEntity
  8
DIM
 62
     0
 48
0.05
100
AcDbMText
 10
1704.447291167563
 20
1355.967209691727
 30
0.0
 40
12.0
 41
0.0
 46
0.0
 71
     1
 72
     1
  1
\A1;ガラス厚み　～10mm
  7
ＭＳ ゴシック
 73
     1
 44
1.0
  0
POINT
  5
18E9
330
18DE
100
AcDbEntity
  8
Defpoints
 62
     0
100
AcDbPoint
 10
1674.447291167564
 20
1304.625524976368
 30
0.0
  0
POINT
  5
18EA
330
18DE
100
AcDbEntity
  8
Defpoints
 62
     0
100
AcDbPoint
 10
1682.447291167563
 20
1304.625524976368
 30
0.0
  0
POINT
  5
18EB
330
18DE
100
AcDbEntity
  8
Defpoints
 62
     0
100
AcDbPoint
 10
1682.447291167563
 20
1331.531209691727
 30
0.0
  0
ENDBLK
  5
18E0
330
18DE
100
AcDbEntity
  8
0
100
AcDbBlockEnd
  0
BLOCK
  5
18ED
330
18EC
100
AcDbEntity
  8
0
100
AcDbBlockBegin
  2
*D25
 70
     1
 10
0.0
 20
0.0
 30
0.0
  3
*D25
  1
*D30
  0
LINE
  5
18EF
330
18EC
100
AcDbEntity
  8
DIM
 62
     0
 48
0.05
370
    -2
100
AcDbLine
 10
1613.247291167565
 20
996.1255249763691
 30
0.0
 11
1613.247291167565
 21
1008.16957804599
 31
0.0
  0
LINE
  5
18F0
330
18EC
100
AcDbEntity
  8
DIM
 62
     0
 48
0.05
370
    -2
100
AcDbLine
 10
1619.447291167564
 20
996.1255249763691
 30
0.0
 11
1619.447291167564
 21
1008.16957804599
 31
0.0
  0
LINE
  5
18F1
330
18EC
100
AcDbEntity
  8
DIM
 62
     0
 48
0.05
370
    -2
100
AcDbLine
 10
1619.447291167564
 20
1008.16957804599
 30
0.0
 11
1657.531291167564
 21
1008.16957804599
 31
0.0
  0
LINE
  5
18F2
330
18EC
100
AcDbEntity
  8
DIM
 62
     0
 48
0.05
370
    -2
100
AcDbLine
 10
1615.247291167565
 20
1008.16957804599
 30
0.0
 11
1617.447291167564
 21
1008.16957804599
 31
0.0
  0
INSERT
  5
18F3
330
18EC
100
AcDbEntity
  8
DIM
 62
     0
370
    -2
100
AcDbBlockReference
  2
_DOT
 10
1613.247291167565
 20
1008.16957804599
 30
0.0
 41
2.0
 42
2.0
 43
2.0
 50
180.0
  0
INSERT
  5
18F4
330
18EC
100
AcDbEntity
  8
DIM
 62
     0
370
    -2
100
AcDbBlockReference
  2
_DOT
 10
1619.447291167564
 20
1008.16957804599
 30
0.0
 41
2.0
 42
2.0
 43
2.0
  0
MTEXT
  5
18F5
330
18EC
100
AcDbEntity
  8
DIM
 62
     0
 48
0.05
100
AcDbMText
 10
1644.489291167564
 20
1024.16957804599
 30
0.0
 40
12.0
 41
0.0
 46
0.0
 71
     5
 72
     1
  1
\A1;6
  7
ＭＳ ゴシック
 73
     1
 44
1.0
  0
POINT
  5
18F6
330
18EC
100
AcDbEntity
  8
Defpoints
 62
     0
100
AcDbPoint
 10
1613.247291167565
 20
991.1255249763691
 30
0.0
  0
POINT
  5
18F7
330
18EC
100
AcDbEntity
  8
Defpoints
 62
     0
100
AcDbPoint
 10
1619.447291167564
 20
991.1255249763691
 30
0.0
  0
POINT
  5
18F8
330
18EC
100
AcDbEntity
  8
Defpoints
 62
     0
100
AcDbPoint
 10
1619.447291167564
 20
1008.16957804599
 30
0.0
  0
ENDBLK
  5
18EE
330
18EC
100
AcDbEntity
  8
0
100
AcDbBlockEnd
  0
BLOCK
  5
18FA
330
18F9
100
AcDbEntity
  8
0
100
AcDbBlockBegin
  2
*D26
 70
     1
 10
0.0
 20
0.0
 30
0.0
  3
*D26
  1
*D31
  0
LINE
  5
18FC
330
18F9
100
AcDbEntity
  8
DIM
 62
     0
 48
0.05
370
    -2
100
AcDbLine
 10
1348.086390396774
 20
1306.225524976369
 30
0.0
 11
1405.217352322372
 21
1306.225524976369
 31
0.0
  0
LINE
  5
18FD
330
18F9
100
AcDbEntity
  8
DIM
 62
     0
 48
0.05
370
    -2
100
AcDbLine
 10
1348.086390396774
 20
676.2255249763692
 30
0.0
 11
1405.217352322372
 21
676.2255249763692
 31
0.0
  0
LINE
  5
18FE
330
18F9
100
AcDbEntity
  8
DIM
 62
     0
 48
0.05
370
    -2
100
AcDbLine
 10
1405.217352322372
 20
1304.225524976369
 30
0.0
 11
1405.217352322372
 21
678.2255249763692
 31
0.0
  0
INSERT
  5
18FF
330
18F9
100
AcDbEntity
  8
DIM
 62
     0
370
    -2
100
AcDbBlockReference
  2
_DOT
 10
1405.217352322372
 20
1306.225524976369
 30
0.0
 41
2.0
 42
2.0
 43
2.0
 50
90.0
  0
INSERT
  5
1900
330
18F9
100
AcDbEntity
  8
DIM
 62
     0
370
    -2
100
AcDbBlockReference
  2
_DOT
 10
1405.217352322372
 20
676.2255249763692
 30
0.0
 41
2.0
 42
2.0
 43
2.0
 50
270.0
  0
MTEXT
  5
1901
330
18F9
100
AcDbEntity
  8
DIM
 62
     0
 48
0.05
100
AcDbMText
 10
1389.217352322372
 20
991.2255249763691
 30
0.0
 40
12.0
 41
0.0
 46
0.0
 71
     5
 72
     1
  1
\A1;630
  7
ＭＳ ゴシック
 11
0.0
 21
1.0
 31
0.0
 73
     1
 44
1.0
  0
POINT
  5
1902
330
18F9
100
AcDbEntity
  8
Defpoints
 62
     0
100
AcDbPoint
 10
1343.086390396774
 20
1306.225524976369
 30
0.0
  0
POINT
  5
1903
330
18F9
100
AcDbEntity
  8
Defpoints
 62
     0
100
AcDbPoint
 10
1343.086390396774
 20
676.2255249763692
 30
0.0
  0
POINT
  5
1904
330
18F9
100
AcDbEntity
  8
Defpoints
 62
     0
100
AcDbPoint
 10
1405.217352322372
 20
676.2255249763692
 30
0.0
  0
ENDBLK
  5
18FB
330
18F9
100
AcDbEntity
  8
0
100
AcDbBlockEnd
  0
BLOCK
  5
1906
330
1905
100
AcDbEntity
  8
0
100
AcDbBlockBegin
  2
*D27
 70
     1
 10
0.0
 20
0.0
 30
0.0
  3
*D27
  1
*D32
  0
LINE
  5
1908
330
1905
100
AcDbEntity
  8
DIM
 62
     0
 48
0.05
370
    -2
100
AcDbLine
 10
1328.386390396774
 20
671.5255249763686
 30
0.0
 11
1328.386390396774
 21
633.4186708654852
 31
0.0
  0
LINE
  5
1909
330
1905
100
AcDbEntity
  8
DIM
 62
     0
 48
0.05
370
    -2
100
AcDbLine
 10
1343.386390396774
 20
671.5255249763686
 30
0.0
 11
1343.386390396774
 21
633.4186708654852
 31
0.0
  0
LINE
  5
190A
330
1905
100
AcDbEntity
  8
DIM
 62
     0
 48
0.05
370
    -2
100
AcDbLine
 10
1343.386390396774
 20
633.4186708654852
 30
0.0
 11
1388.538390396774
 21
633.4186708654852
 31
0.0
  0
LINE
  5
190B
330
1905
100
AcDbEntity
  8
DIM
 62
     0
 48
0.05
370
    -2
100
AcDbLine
 10
1330.386390396774
 20
633.4186708654852
 30
0.0
 11
1341.386390396774
 21
633.4186708654852
 31
0.0
  0
INSERT
  5
190C
330
1905
100
AcDbEntity
  8
DIM
 62
     0
370
    -2
100
AcDbBlockReference
  2
_DOT
 10
1328.386390396774
 20
633.4186708654852
 30
0.0
 41
2.0
 42
2.0
 43
2.0
 50
180.0
  0
INSERT
  5
190D
330
1905
100
AcDbEntity
  8
DIM
 62
     0
370
    -2
100
AcDbBlockReference
  2
_DOT
 10
1343.386390396774
 20
633.4186708654852
 30
0.0
 41
2.0
 42
2.0
 43
2.0
  0
MTEXT
  5
190E
330
1905
100
AcDbEntity
  8
DIM
 62
     0
 48
0.05
100
AcDbMText
 10
1371.962390396774
 20
649.4186708654852
 30
0.0
 40
12.0
 41
0.0
 46
0.0
 71
     5
 72
     1
  1
\A1;15
  7
ＭＳ ゴシック
 73
     1
 44
1.0
  0
POINT
  5
190F
330
1905
100
AcDbEntity
  8
Defpoints
 62
     0
100
AcDbPoint
 10
1328.386390396774
 20
676.5255249763686
 30
0.0
  0
POINT
  5
1910
330
1905
100
AcDbEntity
  8
Defpoints
 62
     0
100
AcDbPoint
 10
1343.386390396774
 20
676.5255249763686
 30
0.0
  0
POINT
  5
1911
330
1905
100
AcDbEntity
  8
Defpoints
 62
     0
100
AcDbPoint
 10
1343.386390396774
 20
633.4186708654852
 30
0.0
  0
ENDBLK
  5
1907
330
1905
100
AcDbEntity
  8
0
100
AcDbBlockEnd
  0
BLOCK
  5
1E7F
330
1E7E
100
AcDbEntity
  8
0
100
AcDbBlockBegin
  2
*D28
 70
     1
 10
0.0
 20
0.0
 30
0.0
  3
*D28
  1
*D29
  0
LINE
  5
1E81
330
1E7E
100
AcDbEntity
  8
DIM
 62
     0
 48
0.05
370
    -2
100
AcDbLine
 10
1559.17740846941
 20
1437.556757664858
 30
0.0
 11
1719.410667800859
 21
1437.556757664858
 31
0.0
  0
LINE
  5
1E82
330
1E7E
100
AcDbEntity
  8
DIM
 62
     0
 48
0.05
370
    -2
100
AcDbLine
 10
1559.17740846941
 20
1044.803007664857
 30
0.0
 11
1719.410667800859
 21
1044.803007664857
 31
0.0
  0
LINE
  5
1E83
330
1E7E
100
AcDbEntity
  8
DIM
 62
     0
 48
0.05
370
    -2
100
AcDbLine
 10
1719.410667800859
 20
1435.556757664858
 30
0.0
 11
1719.410667800859
 21
1046.803007664857
 31
0.0
  0
INSERT
  5
1E84
330
1E7E
100
AcDbEntity
  8
DIM
 62
     0
370
    -2
100
AcDbBlockReference
  2
_DOT
 10
1719.410667800859
 20
1437.556757664858
 30
0.0
 41
2.0
 42
2.0
 43
2.0
 50
90.0
  0
INSERT
  5
1E85
330
1E7E
100
AcDbEntity
  8
DIM
 62
     0
370
    -2
100
AcDbBlockReference
  2
_DOT
 10
1719.410667800859
 20
1044.803007664857
 30
0.0
 41
2.0
 42
2.0
 43
2.0
 50
270.0
  0
MTEXT
  5
1E86
330
1E7E
100
AcDbEntity
  8
DIM
 62
     0
 48
0.05
100
AcDbMText
 10
1703.410667800859
 20
1241.179882664857
 30
0.0
 40
12.0
 41
0.0
 46
0.0
 71
     5
 72
     1
  1
\A1;393
  7
ＭＳ ゴシック
 11
0.0
 21
1.0
 31
0.0
 73
     1
 44
1.0
  0
POINT
  5
1E87
330
1E7E
100
AcDbEntity
  8
Defpoints
 62
     0
100
AcDbPoint
 10
1554.17740846941
 20
1437.556757664858
 30
0.0
  0
POINT
  5
1E88
330
1E7E
100
AcDbEntity
  8
Defpoints
 62
     0
100
AcDbPoint
 10
1554.17740846941
 20
1044.803007664857
 30
0.0
  0
POINT
  5
1E89
330
1E7E
100
AcDbEntity
  8
Defpoints
 62
     0
100
AcDbPoint
 10
1719.410667800859
 20
1044.803007664857
 30
0.0
  0
ENDBLK
  5
1E80
330
1E7E
100
AcDbEntity
  8
0
100
AcDbBlockEnd
  0
BLOCK
  5
1E8E
330
1E8D
100
AcDbEntity
  8
0
100
AcDbBlockBegin
  2
*D29
 70
     1
 10
0.0
 20
0.0
 30
0.0
  3
*D29
  1
*D30
  0
LINE
  5
1E90
330
1E8D
100
AcDbEntity
  8
DIM
 62
     0
 48
0.05
370
    -2
100
AcDbLine
 10
1792.470887711705
 20
1448.573336753213
 30
0.0
 11
1857.691749524484
 21
1448.573336753213
 31
0.0
  0
LINE
  5
1E91
330
1E8D
100
AcDbEntity
  8
DIM
 62
     0
 48
0.05
370
    -2
100
AcDbLine
 10
1792.470887711705
 20
176.0733367532141
 30
0.0
 11
1857.691749524484
 21
176.0733367532141
 31
0.0
  0
LINE
  5
1E92
330
1E8D
100
AcDbEntity
  8
DIM
 62
     0
 48
0.05
370
    -2
100
AcDbLine
 10
1857.691749524484
 20
1446.573336753213
 30
0.0
 11
1857.691749524484
 21
178.0733367532141
 31
0.0
  0
INSERT
  5
1E93
330
1E8D
100
AcDbEntity
  8
DIM
 62
     0
370
    -2
100
AcDbBlockReference
  2
_DOT
 10
1857.691749524484
 20
1448.573336753213
 30
0.0
 41
2.0
 42
2.0
 43
2.0
 50
90.0
  0
INSERT
  5
1E94
330
1E8D
100
AcDbEntity
  8
DIM
 62
     0
370
    -2
100
AcDbBlockReference
  2
_DOT
 10
1857.691749524484
 20
176.0733367532141
 30
0.0
 41
2.0
 42
2.0
 43
2.0
 50
270.0
  0
MTEXT
  5
1E95
330
1E8D
100
AcDbEntity
  8
DIM
 62
     0
 48
0.05
100
AcDbMText
 10
1841.691749524484
 20
812.3233367532135
 30
0.0
 40
12.0
 41
0.0
 46
0.0
 71
     5
 72
     1
  1
\A1;1273
  7
ＭＳ ゴシック
 11
0.0
 21
1.0
 31
0.0
 73
     1
 44
1.0
  0
POINT
  5
1E96
330
1E8D
100
AcDbEntity
  8
Defpoints
 62
     0
100
AcDbPoint
 10
1787.470887711705
 20
1448.573336753213
 30
0.0
  0
POINT
  5
1E97
330
1E8D
100
AcDbEntity
  8
Defpoints
 62
     0
100
AcDbPoint
 10
1787.470887711705
 20
176.0733367532141
 30
0.0
  0
POINT
  5
1E98
330
1E8D
100
AcDbEntity
  8
Defpoints
 62
     0
100
AcDbPoint
 10
1857.691749524484
 20
176.0733367532141
 30
0.0
  0
ENDBLK
  5
1E8F
330
1E8D
100
AcDbEntity
  8
0
100
AcDbBlockEnd
  0
BLOCK
  5
25B2
330
25B1
100
AcDbEntity
  8
0
100
AcDbBlockBegin
  2
*D30
 70
     1
 10
0.0
 20
0.0
 30
0.0
  3
*D30
  1
*D38
  0
LINE
  5
25B4
330
25B1
100
AcDbEntity
  8
DIM
 62
     0
 48
0.05
370
    -2
100
AcDbLine
 10
3267.675241713972
 20
1425.073336753213
 30
0.0
 11
3145.415401006358
 21
1425.073336753213
 31
0.0
  0
LINE
  5
25B5
330
25B1
100
AcDbEntity
  8
DIM
 62
     0
 48
0.05
370
    -2
100
AcDbLine
 10
3267.675241713972
 20
1032.319586753212
 30
0.0
 11
3145.415401006358
 21
1032.319586753212
 31
0.0
  0
LINE
  5
25B6
330
25B1
100
AcDbEntity
  8
DIM
 62
     0
 48
0.05
370
    -2
100
AcDbLine
 10
3145.415401006358
 20
1423.073336753213
 30
0.0
 11
3145.415401006358
 21
1034.319586753212
 31
0.0
  0
INSERT
  5
25B7
330
25B1
100
AcDbEntity
  8
DIM
 62
     0
370
    -2
100
AcDbBlockReference
  2
_DOT
 10
3145.415401006358
 20
1425.073336753213
 30
0.0
 41
2.0
 42
2.0
 43
2.0
 50
90.0
  0
INSERT
  5
25B8
330
25B1
100
AcDbEntity
  8
DIM
 62
     0
370
    -2
100
AcDbBlockReference
  2
_DOT
 10
3145.415401006358
 20
1032.319586753212
 30
0.0
 41
2.0
 42
2.0
 43
2.0
 50
270.0
  0
MTEXT
  5
25B9
330
25B1
100
AcDbEntity
  8
DIM
 62
     0
 48
0.05
100
AcDbMText
 10
3129.415401006358
 20
1228.696461753213
 30
0.0
 40
12.0
 41
0.0
 46
0.0
 71
     5
 72
     1
  1
\A1;393
  7
ＭＳ ゴシック
 11
0.0
 21
1.0
 31
0.0
 73
     1
 44
1.0
  0
POINT
  5
25BA
330
25B1
100
AcDbEntity
  8
Defpoints
 62
     0
100
AcDbPoint
 10
3272.675241713972
 20
1425.073336753213
 30
0.0
  0
POINT
  5
25BB
330
25B1
100
AcDbEntity
  8
Defpoints
 62
     0
100
AcDbPoint
 10
3272.675241713972
 20
1032.319586753212
 30
0.0
  0
POINT
  5
25BC
330
25B1
100
AcDbEntity
  8
Defpoints
 62
     0
100
AcDbPoint
 10
3145.415401006358
 20
1032.319586753212
 30
0.0
  0
ENDBLK
  5
25B3
330
25B1
100
AcDbEntity
  8
0
100
AcDbBlockEnd
  0
BLOCK
  5
25C1
330
25C0
100
AcDbEntity
  8
0
100
AcDbBlockBegin
  2
*D31
 70
     1
 10
0.0
 20
0.0
 30
0.0
  3
*D31
  1
*D39
  0
LINE
  5
25C3
330
25C0
100
AcDbEntity
  8
DIM
 62
     0
 48
0.05
370
    -2
100
AcDbLine
 10
2739.536363938509
 20
1328.566925518066
 30
0.0
 11
2836.631740441817
 21
1328.566925518066
 31
0.0
  0
LINE
  5
25C4
330
25C0
100
AcDbEntity
  8
DIM
 62
     0
 48
0.05
370
    -2
100
AcDbLine
 10
2739.536363938509
 20
1722.909927735364
 30
0.0
 11
2836.631740441817
 21
1722.909927735364
 31
0.0
  0
LINE
  5
25C5
330
25C0
100
AcDbEntity
  8
DIM
 62
     0
 48
0.05
370
    -2
100
AcDbLine
 10
2836.631740441817
 20
1330.566925518066
 30
0.0
 11
2836.631740441817
 21
1720.909927735364
 31
0.0
  0
INSERT
  5
25C6
330
25C0
100
AcDbEntity
  8
DIM
 62
     0
370
    -2
100
AcDbBlockReference
  2
_DOT
 10
2836.631740441817
 20
1328.566925518066
 30
0.0
 41
2.0
 42
2.0
 43
2.0
 50
270.0
  0
INSERT
  5
25C7
330
25C0
100
AcDbEntity
  8
DIM
 62
     0
370
    -2
100
AcDbBlockReference
  2
_DOT
 10
2836.631740441817
 20
1722.909927735364
 30
0.0
 41
2.0
 42
2.0
 43
2.0
 50
90.0
  0
MTEXT
  5
25C8
330
25C0
100
AcDbEntity
  8
DIM
 62
     0
 48
0.05
100
AcDbMText
 10
2820.631740441817
 20
1525.738426626715
 30
0.0
 40
12.0
 41
0.0
 46
0.0
 71
     5
 72
     1
  1
\A1;394
  7
ＭＳ ゴシック
 11
0.0
 21
1.0
 31
0.0
 73
     1
 44
1.0
  0
POINT
  5
25C9
330
25C0
100
AcDbEntity
  8
Defpoints
 62
     0
100
AcDbPoint
 10
2734.536363938509
 20
1328.566925518066
 30
0.0
  0
POINT
  5
25CA
330
25C0
100
AcDbEntity
  8
Defpoints
 62
     0
100
AcDbPoint
 10
2734.536363938509
 20
1722.909927735364
 30
0.0
  0
POINT
  5
25CB
330
25C0
100
AcDbEntity
  8
Defpoints
 62
     0
100
AcDbPoint
 10
2836.631740441817
 20
1722.909927735364
 30
0.0
  0
ENDBLK
  5
25C2
330
25C0
100
AcDbEntity
  8
0
100
AcDbBlockEnd
  0
BLOCK
  5
262F
330
262E
100
AcDbEntity
  8
0
100
AcDbBlockBegin
  2
*D32
 70
     1
 10
0.0
 20
0.0
 30
0.0
  3
*D32
  1
*D40
  0
LINE
  5
2631
330
262E
100
AcDbEntity
  8
DIM
 62
     0
 48
0.05
370
    -2
100
AcDbLine
 10
278.3863903967738
 20
1119.981357071466
 30
0.0
 11
278.3863903967738
 21
1132.547404691019
 31
0.0
  0
LINE
  5
2632
330
262E
100
AcDbEntity
  8
DIM
 62
     0
 48
0.05
370
    -2
100
AcDbLine
 10
293.3863903967738
 20
1119.981357071466
 30
0.0
 11
293.3863903967738
 21
1132.547404691019
 31
0.0
  0
LINE
  5
2633
330
262E
100
AcDbEntity
  8
DIM
 62
     0
 48
0.05
370
    -2
100
AcDbLine
 10
280.3863903967738
 20
1132.547404691019
 30
0.0
 11
291.3863903967738
 21
1132.547404691019
 31
0.0
  0
INSERT
  5
2634
330
262E
100
AcDbEntity
  8
DIM
 62
     0
370
    -2
100
AcDbBlockReference
  2
_DOT
 10
278.3863903967738
 20
1132.547404691019
 30
0.0
 41
2.0
 42
2.0
 43
2.0
 50
180.0
  0
INSERT
  5
2635
330
262E
100
AcDbEntity
  8
DIM
 62
     0
370
    -2
100
AcDbBlockReference
  2
_DOT
 10
293.3863903967738
 20
1132.547404691019
 30
0.0
 41
2.0
 42
2.0
 43
2.0
  0
MTEXT
  5
2636
330
262E
100
AcDbEntity
  8
DIM
 62
     0
 48
0.05
100
AcDbMText
 10
285.8863903967738
 20
1148.547404691019
 30
0.0
 40
12.0
 41
0.0
 46
0.0
 71
     5
 72
     1
  1
\A1;15
  7
ＭＳ ゴシック
 73
     1
 44
1.0
  0
POINT
  5
2637
330
262E
100
AcDbEntity
  8
Defpoints
 62
     0
100
AcDbPoint
 10
278.3863903967738
 20
1114.981357071466
 30
0.0
  0
POINT
  5
2638
330
262E
100
AcDbEntity
  8
Defpoints
 62
     0
100
AcDbPoint
 10
293.3863903967738
 20
1114.981357071466
 30
0.0
  0
POINT
  5
2639
330
262E
100
AcDbEntity
  8
Defpoints
 62
     0
100
AcDbPoint
 10
293.3863903967738
 20
1132.547404691019
 30
0.0
  0
ENDBLK
  5
2630
330
262E
100
AcDbEntity
  8
0
100
AcDbBlockEnd
  0
BLOCK
  5
269B
330
269A
100
AcDbEntity
  8
0
100
AcDbBlockBegin
  2
*D33
 70
     1
 10
0.0
 20
0.0
 30
0.0
  3
*D33
  1
*D18
  0
LINE
  5
269C
330
269A
100
AcDbEntity
  8
DIM
 62
     0
370
    -2
100
AcDbLine
 10
180.8542201203927
 20
614.600000000001
 30
0.0
 11
232.0542201203942
 21
614.6000000000013
 31
0.0
  0
LINE
  5
269D
330
269A
100
AcDbEntity
  8
DIM
 62
     0
370
    -2
100
AcDbLine
 10
180.8542201203954
 20
14.6000000000005
 30
0.0
 11
232.0542201203963
 21
14.6000000000007
 31
0.0
  0
LINE
  5
269E
330
269A
100
AcDbEntity
  8
DIM
 62
     0
370
    -2
100
AcDbLine
 10
232.0542201203942
 20
612.6000000000013
 30
0.0
 11
232.0542201203963
 21
16.6000000000007
 31
0.0
  0
INSERT
  5
269F
330
269A
100
AcDbEntity
  8
DIM
 62
     0
370
    -2
100
AcDbBlockReference
  2
_DOT
 10
232.0542201203942
 20
614.6000000000013
 30
0.0
 41
2.0
 42
2.0
 43
2.0
 50
90.0000000000002
  0
INSERT
  5
26A0
330
269A
100
AcDbEntity
  8
DIM
 62
     0
370
    -2
100
AcDbBlockReference
  2
_DOT
 10
232.0542201203963
 20
14.6000000000007
 30
0.0
 41
2.0
 42
2.0
 43
2.0
 50
270.0000000000002
  0
MTEXT
  5
26A1
330
269A
100
AcDbEntity
  8
DIM
 62
     0
 48
0.05
100
AcDbMText
 10
215.0542201203953
 20
303.6320000000004
 30
0.0
 40
12.0
 41
0.0
 46
0.0
 71
     1
 72
     1
  1
\A1;600
  7
ＭＳ ゴシック
 11
-3.505344163083157E-15
 21
1.0
 31
0.0
 73
     1
 44
1.0
  0
POINT
  5
26A2
330
269A
100
AcDbEntity
  8
Defpoints
 62
     0
100
AcDbPoint
 10
175.8542201203927
 20
614.600000000001
 30
0.0
  0
POINT
  5
26A3
330
269A
100
AcDbEntity
  8
Defpoints
 62
     0
100
AcDbPoint
 10
175.8542201203954
 20
14.60000000000048
 30
0.0
  0
POINT
  5
26A4
330
269A
100
AcDbEntity
  8
Defpoints
 62
     0
100
AcDbPoint
 10
232.0542201203963
 20
14.60000000000069
 30
0.0
  0
ENDBLK
  5
26A5
330
269A
100
AcDbEntity
  8
0
100
AcDbBlockEnd
  0
BLOCK
  5
26A8
330
26A7
100
AcDbEntity
  8
0
100
AcDbBlockBegin
  2
*D34
 70
     1
 10
0.0
 20
0.0
 30
0.0
  3
*D34
  1
*D19
  0
LINE
  5
26A9
330
26A7
100
AcDbEntity
  8
DIM
 62
     0
370
    -2
100
AcDbLine
 10
42.85422012039362
 20
599.600000000001
 30
0.0
 11
22.00000000000005
 21
599.6000000000009
 31
0.0
  0
LINE
  5
26AA
330
26A7
100
AcDbEntity
  8
DIM
 62
     0
370
    -2
100
AcDbLine
 10
42.85422012039362
 20
629.6000000000008
 30
0.0
 11
21.99999999999995
 21
629.6000000000007
 31
0.0
  0
LINE
  5
26AB
330
26A7
100
AcDbEntity
  8
DIM
 62
     0
370
    -2
100
AcDbLine
 10
22.00000000000004
 20
601.6000000000009
 30
0.0
 11
21.99999999999995
 21
627.6000000000007
 31
0.0
  0
INSERT
  5
26AC
330
26A7
100
AcDbEntity
  8
DIM
 62
     0
370
    -2
100
AcDbBlockReference
  2
_DOT
 10
22.00000000000005
 20
599.6000000000009
 30
0.0
 41
2.0
 42
2.0
 43
2.0
 50
270.0000000000002
  0
INSERT
  5
26AD
330
26A7
100
AcDbEntity
  8
DIM
 62
     0
370
    -2
100
AcDbBlockReference
  2
_DOT
 10
21.99999999999995
 20
629.6000000000007
 30
0.0
 41
2.0
 42
2.0
 43
2.0
 50
90.0000000000002
  0
MTEXT
  5
26AE
330
26A7
100
AcDbEntity
  8
DIM
 62
     0
 48
0.05
100
AcDbMText
 10
5.000000000000025
 20
607.4419999999999
 30
0.0
 40
12.0
 41
0.0
 46
0.0
 71
     1
 72
     1
  1
\A1;30
  7
ＭＳ ゴシック
 11
-3.434289889507177E-15
 21
1.0
 31
0.0
 73
     1
 44
1.0
  0
POINT
  5
26AF
330
26A7
100
AcDbEntity
  8
Defpoints
 62
     0
100
AcDbPoint
 10
47.85422012039362
 20
599.600000000001
 30
0.0
  0
POINT
  5
26B0
330
26A7
100
AcDbEntity
  8
Defpoints
 62
     0
100
AcDbPoint
 10
47.85422012039362
 20
629.6000000000008
 30
0.0
  0
POINT
  5
26B1
330
26A7
100
AcDbEntity
  8
Defpoints
 62
     0
100
AcDbPoint
 10
21.99999999999995
 20
629.6000000000007
 30
0.0
  0
ENDBLK
  5
26B2
330
26A7
100
AcDbEntity
  8
0
100
AcDbBlockEnd
  0
BLOCK
  5
26B5
330
26B4
100
AcDbEntity
  8
0
100
AcDbBlockBegin
  2
*D35
 70
     1
 10
0.0
 20
0.0
 30
0.0
  3
*D35
  1
*D20
  0
LINE
  5
26B6
330
26B4
100
AcDbEntity
  8
DIM
 62
     0
370
    -2
100
AcDbLine
 10
41.65422012039289
 20
634.700000000001
 30
0.0
 11
41.65422012039289
 21
655.0056847153589
 31
0.0
  0
LINE
  5
26B7
330
26B4
100
AcDbEntity
  8
DIM
 62
     0
370
    -2
100
AcDbLine
 10
102.8542201203909
 20
631.5903981994838
 30
0.0
 11
102.8542201203909
 21
655.0056847153589
 31
0.0
  0
LINE
  5
26B8
330
26B4
100
AcDbEntity
  8
DIM
 62
     0
370
    -2
100
AcDbLine
 10
43.65422012039289
 20
655.0056847153589
 30
0.0
 11
100.8542201203909
 21
655.0056847153589
 31
0.0
  0
INSERT
  5
26B9
330
26B4
100
AcDbEntity
  8
DIM
 62
     0
370
    -2
100
AcDbBlockReference
  2
_DOT
 10
41.65422012039289
 20
655.0056847153589
 30
0.0
 41
2.0
 42
2.0
 43
2.0
 50
180.0
  0
INSERT
  5
26BA
330
26B4
100
AcDbEntity
  8
DIM
 62
     0
370
    -2
100
AcDbBlockReference
  2
_DOT
 10
102.8542201203909
 20
655.0056847153589
 30
0.0
 41
2.0
 42
2.0
 43
2.0
  0
MTEXT
  5
26BB
330
26B4
100
AcDbEntity
  8
DIM
 62
     0
 48
0.05
100
AcDbMText
 10
66.40422012039144
 20
672.0056847153589
 30
0.0
 40
12.0
 41
0.0
 46
0.0
 71
     1
 72
     1
  1
\A1;61
  7
ＭＳ ゴシック
 73
     1
 44
1.0
  0
POINT
  5
26BC
330
26B4
100
AcDbEntity
  8
Defpoints
 62
     0
100
AcDbPoint
 10
41.65422012039289
 20
629.700000000001
 30
0.0
  0
POINT
  5
26BD
330
26B4
100
AcDbEntity
  8
Defpoints
 62
     0
100
AcDbPoint
 10
102.8542201203909
 20
626.5903981994838
 30
0.0
  0
POINT
  5
26BE
330
26B4
100
AcDbEntity
  8
Defpoints
 62
     0
100
AcDbPoint
 10
102.8542201203909
 20
655.0056847153589
 30
0.0
  0
ENDBLK
  5
26BF
330
26B4
100
AcDbEntity
  8
0
100
AcDbBlockEnd
  0
BLOCK
  5
26C2
330
26C1
100
AcDbEntity
  8
0
100
AcDbBlockBegin
  2
*D36
 70
     1
 10
0.0
 20
0.0
 30
0.0
  3
*D36
  1
*D21
  0
LINE
  5
26C3
330
26C1
100
AcDbEntity
  8
DIM
 62
     0
370
    -2
100
AcDbLine
 10
102.8542201203936
 20
633.0999999999999
 30
0.0
 11
102.8542201203936
 21
655.0056847153589
 31
0.0
  0
LINE
  5
26C4
330
26C1
100
AcDbEntity
  8
DIM
 62
     0
370
    -2
100
AcDbLine
 10
110.8542201203927
 20
633.0999999999999
 30
0.0
 11
110.8542201203927
 21
655.0056847153589
 31
0.0
  0
LINE
  5
26C5
330
26C1
100
AcDbEntity
  8
DIM
 62
     0
370
    -2
100
AcDbLine
 10
110.8542201203927
 20
655.0056847153589
 30
0.0
 11
275.8782201203927
 21
655.0056847153589
 31
0.0
  0
LINE
  5
26C6
330
26C1
100
AcDbEntity
  8
DIM
 62
     0
370
    -2
100
AcDbLine
 10
100.8542201203936
 20
655.0056847153589
 30
0.0
 11
98.85422012039362
 21
655.0056847153589
 31
0.0
  0
LINE
  5
26C7
330
26C1
100
AcDbEntity
  8
DIM
 62
     0
370
    -2
100
AcDbLine
 10
112.8542201203927
 20
655.0056847153589
 30
0.0
 11
114.8542201203927
 21
655.0056847153589
 31
0.0
  0
INSERT
  5
26C8
330
26C1
100
AcDbEntity
  8
DIM
 62
     0
370
    -2
100
AcDbBlockReference
  2
_DOT
 10
102.8542201203936
 20
655.0056847153589
 30
0.0
 41
2.0
 42
2.0
 43
2.0
  0
INSERT
  5
26C9
330
26C1
100
AcDbEntity
  8
DIM
 62
     0
370
    -2
100
AcDbBlockReference
  2
_DOT
 10
110.8542201203927
 20
655.0056847153589
 30
0.0
 41
2.0
 42
2.0
 43
2.0
 50
180.0
  0
MTEXT
  5
26CA
330
26C1
100
AcDbEntity
  8
DIM
 62
     0
 48
0.05
100
AcDbMText
 10
132.8542201203927
 20
674.4416847153589
 30
0.0
 40
12.0
 41
0.0
 46
0.0
 71
     1
 72
     1
  1
\A1;ガラス厚み　～10mm
  7
ＭＳ ゴシック
 73
     1
 44
1.0
  0
POINT
  5
26CB
330
26C1
100
AcDbEntity
  8
Defpoints
 62
     0
100
AcDbPoint
 10
102.8542201203936
 20
628.0999999999999
 30
0.0
  0
POINT
  5
26CC
330
26C1
100
AcDbEntity
  8
Defpoints
 62
     0
100
AcDbPoint
 10
110.8542201203927
 20
628.0999999999999
 30
0.0
  0
POINT
  5
26CD
330
26C1
100
AcDbEntity
  8
Defpoints
 62
     0
100
AcDbPoint
 10
110.8542201203927
 20
655.0056847153589
 30
0.0
  0
ENDBLK
  5
26CE
330
26C1
100
AcDbEntity
  8
0
100
AcDbBlockEnd
  0
BLOCK
  5
2701
330
2700
100
AcDbEntity
  8
0
100
AcDbBlockBegin
  2
*D37
 70
     1
 10
0.0
 20
0.0
 30
0.0
  3
*D37
  1
*D46
  0
LINE
  5
2703
330
2700
100
AcDbEntity
  8
DIM
 62
     0
370
    -2
100
AcDbLine
 10
-462.7933820080973
 20
1496.733622235902
 30
0.0
 11
-411.5933820080958
 21
1496.733622235902
 31
0.0
  0
LINE
  5
2704
330
2700
100
AcDbEntity
  8
DIM
 62
     0
370
    -2
100
AcDbLine
 10
-462.7933820080946
 20
896.7336222359014
 30
0.0
 11
-411.5933820080937
 21
896.7336222359016
 31
0.0
  0
LINE
  5
2705
330
2700
100
AcDbEntity
  8
DIM
 62
     0
370
    -2
100
AcDbLine
 10
-411.5933820080958
 20
1494.733622235902
 30
0.0
 11
-411.5933820080937
 21
898.7336222359016
 31
0.0
  0
INSERT
  5
2706
330
2700
100
AcDbEntity
  8
DIM
 62
     0
370
    -2
100
AcDbBlockReference
  2
_DOT
 10
-411.5933820080958
 20
1496.733622235902
 30
0.0
 41
2.0
 42
2.0
 43
2.0
 50
90.0000000000002
  0
INSERT
  5
2707
330
2700
100
AcDbEntity
  8
DIM
 62
     0
370
    -2
100
AcDbBlockReference
  2
_DOT
 10
-411.5933820080937
 20
896.7336222359016
 30
0.0
 41
2.0
 42
2.0
 43
2.0
 50
270.0000000000002
  0
MTEXT
  5
2708
330
2700
100
AcDbEntity
  8
DIM
 62
     0
 48
0.05
100
AcDbMText
 10
-433.5933820080947
 20
1185.765622235901
 30
0.0
 40
12.0
 41
0.0
 46
0.0
 71
     1
 72
     1
  1
\A1;600
  7
ＭＳ ゴシック
 11
-3.505344163083157E-15
 21
1.0
 31
0.0
 73
     1
 44
1.0
  0
POINT
  5
2709
330
2700
100
AcDbEntity
  8
Defpoints
 62
     0
100
AcDbPoint
 10
-467.7933820080973
 20
1496.733622235902
 30
0.0
  0
POINT
  5
270A
330
2700
100
AcDbEntity
  8
Defpoints
 62
     0
100
AcDbPoint
 10
-467.7933820080946
 20
896.7336222359014
 30
0.0
  0
POINT
  5
270B
330
2700
100
AcDbEntity
  8
Defpoints
 62
     0
100
AcDbPoint
 10
-411.5933820080937
 20
896.7336222359016
 30
0.0
  0
ENDBLK
  5
2702
330
2700
100
AcDbEntity
  8
0
100
AcDbBlockEnd
  0
BLOCK
  5
270D
330
270C
100
AcDbEntity
  8
0
100
AcDbBlockBegin
  2
*D38
 70
     1
 10
0.0
 20
0.0
 30
0.0
  3
*D38
  1
*D47
  0
LINE
  5
270F
330
270C
100
AcDbEntity
  8
DIM
 62
     0
370
    -2
100
AcDbLine
 10
-600.7933820080964
 20
1481.733622235902
 30
0.0
 11
-621.64760212849
 21
1481.733622235902
 31
0.0
  0
LINE
  5
2710
330
270C
100
AcDbEntity
  8
DIM
 62
     0
370
    -2
100
AcDbLine
 10
-600.7933820080964
 20
1511.733622235902
 30
0.0
 11
-621.6476021284901
 21
1511.733622235902
 31
0.0
  0
LINE
  5
2711
330
270C
100
AcDbEntity
  8
DIM
 62
     0
370
    -2
100
AcDbLine
 10
-621.64760212849
 20
1483.733622235902
 30
0.0
 11
-621.6476021284901
 21
1509.733622235902
 31
0.0
  0
INSERT
  5
2712
330
270C
100
AcDbEntity
  8
DIM
 62
     0
370
    -2
100
AcDbBlockReference
  2
_DOT
 10
-621.64760212849
 20
1481.733622235902
 30
0.0
 41
2.0
 42
2.0
 43
2.0
 50
270.0000000000002
  0
INSERT
  5
2713
330
270C
100
AcDbEntity
  8
DIM
 62
     0
370
    -2
100
AcDbBlockReference
  2
_DOT
 10
-621.6476021284901
 20
1511.733622235902
 30
0.0
 41
2.0
 42
2.0
 43
2.0
 50
90.00000000000021
  0
MTEXT
  5
2714
330
270C
100
AcDbEntity
  8
DIM
 62
     0
 48
0.05
100
AcDbMText
 10
-643.64760212849
 20
1489.575622235901
 30
0.0
 40
12.0
 41
0.0
 46
0.0
 71
     1
 72
     1
  1
\A1;30
  7
ＭＳ ゴシック
 11
-3.789561257387229E-15
 21
1.0
 31
0.0
 73
     1
 44
1.0
  0
POINT
  5
2715
330
270C
100
AcDbEntity
  8
Defpoints
 62
     0
100
AcDbPoint
 10
-595.7933820080964
 20
1481.733622235902
 30
0.0
  0
POINT
  5
2716
330
270C
100
AcDbEntity
  8
Defpoints
 62
     0
100
AcDbPoint
 10
-595.7933820080964
 20
1511.733622235902
 30
0.0
  0
POINT
  5
2717
330
270C
100
AcDbEntity
  8
Defpoints
 62
     0
100
AcDbPoint
 10
-621.64760212849
 20
1511.733622235902
 30
0.0
  0
ENDBLK
  5
270E
330
270C
100
AcDbEntity
  8
0
100
AcDbBlockEnd
  0
BLOCK
  5
2719
330
2718
100
AcDbEntity
  8
0
100
AcDbBlockBegin
  2
*D39
 70
     1
 10
0.0
 20
0.0
 30
0.0
  3
*D39
  1
*D48
  0
LINE
  5
271B
330
2718
100
AcDbEntity
  8
DIM
 62
     0
370
    -2
100
AcDbLine
 10
-601.9933820080971
 20
1516.833622235902
 30
0.0
 11
-601.9933820080971
 21
1537.13930695126
 31
0.0
  0
LINE
  5
271C
330
2718
100
AcDbEntity
  8
DIM
 62
     0
370
    -2
100
AcDbLine
 10
-540.7933820080991
 20
1513.724020435385
 30
0.0
 11
-540.7933820080991
 21
1537.13930695126
 31
0.0
  0
LINE
  5
271D
330
2718
100
AcDbEntity
  8
DIM
 62
     0
370
    -2
100
AcDbLine
 10
-599.9933820080971
 20
1537.13930695126
 30
0.0
 11
-542.7933820080991
 21
1537.13930695126
 31
0.0
  0
INSERT
  5
271E
330
2718
100
AcDbEntity
  8
DIM
 62
     0
370
    -2
100
AcDbBlockReference
  2
_DOT
 10
-601.9933820080971
 20
1537.13930695126
 30
0.0
 41
2.0
 42
2.0
 43
2.0
 50
180.0
  0
INSERT
  5
271F
330
2718
100
AcDbEntity
  8
DIM
 62
     0
370
    -2
100
AcDbBlockReference
  2
_DOT
 10
-540.7933820080991
 20
1537.13930695126
 30
0.0
 41
2.0
 42
2.0
 43
2.0
  0
MTEXT
  5
2720
330
2718
100
AcDbEntity
  8
DIM
 62
     0
 48
0.05
100
AcDbMText
 10
-577.2433820080986
 20
1559.13930695126
 30
0.0
 40
12.0
 41
0.0
 46
0.0
 71
     1
 72
     1
  1
\A1;61
  7
ＭＳ ゴシック
 73
     1
 44
1.0
  0
POINT
  5
2721
330
2718
100
AcDbEntity
  8
Defpoints
 62
     0
100
AcDbPoint
 10
-601.9933820080971
 20
1511.833622235902
 30
0.0
  0
POINT
  5
2722
330
2718
100
AcDbEntity
  8
Defpoints
 62
     0
100
AcDbPoint
 10
-540.7933820080991
 20
1508.724020435385
 30
0.0
  0
POINT
  5
2723
330
2718
100
AcDbEntity
  8
Defpoints
 62
     0
100
AcDbPoint
 10
-540.7933820080991
 20
1537.13930695126
 30
0.0
  0
ENDBLK
  5
271A
330
2718
100
AcDbEntity
  8
0
100
AcDbBlockEnd
  0
BLOCK
  5
2725
330
2724
100
AcDbEntity
  8
0
100
AcDbBlockBegin
  2
*D40
 70
     1
 10
0.0
 20
0.0
 30
0.0
  3
*D40
  1
*D49
  0
LINE
  5
2727
330
2724
100
AcDbEntity
  8
DIM
 62
     0
370
    -2
100
AcDbLine
 10
-540.7933820080964
 20
1515.233622235901
 30
0.0
 11
-540.7933820080964
 21
1537.13930695126
 31
0.0
  0
LINE
  5
2728
330
2724
100
AcDbEntity
  8
DIM
 62
     0
370
    -2
100
AcDbLine
 10
-532.7933820080973
 20
1515.233622235901
 30
0.0
 11
-532.7933820080973
 21
1537.13930695126
 31
0.0
  0
LINE
  5
2729
330
2724
100
AcDbEntity
  8
DIM
 62
     0
370
    -2
100
AcDbLine
 10
-532.7933820080973
 20
1537.13930695126
 30
0.0
 11
-362.7693820080974
 21
1537.13930695126
 31
0.0
  0
LINE
  5
272A
330
2724
100
AcDbEntity
  8
DIM
 62
     0
370
    -2
100
AcDbLine
 10
-542.7933820080964
 20
1537.13930695126
 30
0.0
 11
-544.7933820080964
 21
1537.13930695126
 31
0.0
  0
LINE
  5
272B
330
2724
100
AcDbEntity
  8
DIM
 62
     0
370
    -2
100
AcDbLine
 10
-530.7933820080973
 20
1537.13930695126
 30
0.0
 11
-528.7933820080973
 21
1537.13930695126
 31
0.0
  0
INSERT
  5
272C
330
2724
100
AcDbEntity
  8
DIM
 62
     0
370
    -2
100
AcDbBlockReference
  2
_DOT
 10
-540.7933820080964
 20
1537.13930695126
 30
0.0
 41
2.0
 42
2.0
 43
2.0
  0
INSERT
  5
272D
330
2724
100
AcDbEntity
  8
DIM
 62
     0
370
    -2
100
AcDbBlockReference
  2
_DOT
 10
-532.7933820080973
 20
1537.13930695126
 30
0.0
 41
2.0
 42
2.0
 43
2.0
 50
180.0
  0
MTEXT
  5
272E
330
2724
100
AcDbEntity
  8
DIM
 62
     0
 48
0.05
100
AcDbMText
 10
-510.7933820080974
 20
1561.57530695126
 30
0.0
 40
12.0
 41
0.0
 46
0.0
 71
     1
 72
     1
  1
\A1;ガラス厚み　～10mm
  7
ＭＳ ゴシック
 73
     1
 44
1.0
  0
POINT
  5
272F
330
2724
100
AcDbEntity
  8
Defpoints
 62
     0
100
AcDbPoint
 10
-540.7933820080964
 20
1510.233622235901
 30
0.0
  0
POINT
  5
2730
330
2724
100
AcDbEntity
  8
Defpoints
 62
     0
100
AcDbPoint
 10
-532.7933820080973
 20
1510.233622235901
 30
0.0
  0
POINT
  5
2731
330
2724
100
AcDbEntity
  8
Defpoints
 62
     0
100
AcDbPoint
 10
-532.7933820080973
 20
1537.13930695126
 30
0.0
  0
ENDBLK
  5
2726
330
2724
100
AcDbEntity
  8
0
100
AcDbBlockEnd
  0
BLOCK
  5
2748
330
2747
100
AcDbEntity
  8
0
100
AcDbBlockBegin
  2
*D41
 70
     1
 10
0.0
 20
0.0
 30
0.0
  3
*D41
  1
*D50
  0
LINE
  5
274A
330
2747
100
AcDbEntity
  8
寸法
 62
     0
 48
0.05
370
    -2
100
AcDbLine
 10
217.7084972216996
 20
1148.12597290455
 30
0.0
 11
217.7084972216996
 21
1114.136926434274
 31
0.0
  0
LINE
  5
274B
330
2747
100
AcDbEntity
  8
寸法
 62
     0
 48
0.05
370
    -2
100
AcDbLine
 10
232.9084972217004
 20
1148.12597290455
 30
0.0
 11
232.9084972217004
 21
1114.136926434274
 31
0.0
  0
LINE
  5
274C
330
2747
100
AcDbEntity
  8
寸法
 62
     0
 48
0.05
370
    -2
100
AcDbLine
 10
219.7084972216996
 20
1114.136926434274
 30
0.0
 11
230.9084972217004
 21
1114.136926434274
 31
0.0
  0
INSERT
  5
274D
330
2747
100
AcDbEntity
  8
寸法
 62
     0
370
    -2
100
AcDbBlockReference
  2
_DOT
 10
217.7084972216996
 20
1114.136926434274
 30
0.0
 41
2.0
 42
2.0
 43
2.0
 50
180.0
  0
INSERT
  5
274E
330
2747
100
AcDbEntity
  8
寸法
 62
     0
370
    -2
100
AcDbBlockReference
  2
_DOT
 10
232.9084972217004
 20
1114.136926434274
 30
0.0
 41
2.0
 42
2.0
 43
2.0
  0
MTEXT
  5
274F
330
2747
100
AcDbEntity
  8
寸法
 62
     0
 48
0.05
100
AcDbMText
 10
225.2084972216996
 20
1125.136926434274
 30
0.0
 40
12.0
 41
0.0
 46
0.0
 71
     5
 72
     1
  1
\A1;15
  7
ＭＳ ゴシック
 73
     1
 44
1.0
  0
POINT
  5
2750
330
2747
100
AcDbEntity
  8
Defpoints
 62
     0
100
AcDbPoint
 10
217.7084972216996
 20
1153.12597290455
 30
0.0
  0
POINT
  5
2751
330
2747
100
AcDbEntity
  8
Defpoints
 62
     0
100
AcDbPoint
 10
232.9084972217004
 20
1153.12597290455
 30
0.0
  0
POINT
  5
2752
330
2747
100
AcDbEntity
  8
Defpoints
 62
     0
100
AcDbPoint
 10
232.9084972217004
 20
1114.136926434274
 30
0.0
  0
ENDBLK
  5
2749
330
2747
100
AcDbEntity
  8
0
100
AcDbBlockEnd
  0
BLOCK
  5
27A8
330
27A7
100
AcDbEntity
  8
0
100
AcDbBlockBegin
  2
*D42
 70
     1
 10
0.0
 20
0.0
 30
0.0
  3
*D42
  1
*D51
  0
LINE
  5
27AA
330
27A7
100
AcDbEntity
  8
DIM
 62
     0
 48
0.05
370
    -2
100
AcDbLine
 10
298.5863903967745
 20
1197.587339917922
 30
0.0
 11
324.3075987988299
 21
1197.587339917922
 31
0.0
  0
LINE
  5
27AB
330
27A7
100
AcDbEntity
  8
DIM
 62
     0
 48
0.05
370
    -2
100
AcDbLine
 10
298.5863903967745
 20
1191.387339917923
 30
0.0
 11
324.3075987988299
 21
1191.387339917923
 31
0.0
  0
LINE
  5
27AC
330
27A7
100
AcDbEntity
  8
DIM
 62
     0
 48
0.05
370
    -2
100
AcDbLine
 10
324.3075987988299
 20
1195.587339917922
 30
0.0
 11
324.3075987988299
 21
1193.387339917923
 31
0.0
  0
INSERT
  5
27AD
330
27A7
100
AcDbEntity
  8
DIM
 62
     0
370
    -2
100
AcDbBlockReference
  2
_DOT
 10
324.3075987988299
 20
1197.587339917922
 30
0.0
 41
2.0
 42
2.0
 43
2.0
 50
90.0
  0
INSERT
  5
27AE
330
27A7
100
AcDbEntity
  8
DIM
 62
     0
370
    -2
100
AcDbBlockReference
  2
_DOT
 10
324.3075987988299
 20
1191.387339917923
 30
0.0
 41
2.0
 42
2.0
 43
2.0
 50
270.0
  0
MTEXT
  5
27AF
330
27A7
100
AcDbEntity
  8
DIM
 62
     0
 48
0.05
100
AcDbMText
 10
308.3075987988299
 20
1194.487339917922
 30
0.0
 40
12.0
 41
0.0
 46
0.0
 71
     5
 72
     1
  1
\A1;6
  7
ＭＳ ゴシック
 11
0.0
 21
1.0
 31
0.0
 73
     1
 44
1.0
  0
POINT
  5
27B0
330
27A7
100
AcDbEntity
  8
Defpoints
 62
     0
100
AcDbPoint
 10
293.5863903967745
 20
1197.587339917922
 30
0.0
  0
POINT
  5
27B1
330
27A7
100
AcDbEntity
  8
Defpoints
 62
     0
100
AcDbPoint
 10
293.5863903967745
 20
1191.387339917923
 30
0.0
  0
POINT
  5
27B2
330
27A7
100
AcDbEntity
  8
Defpoints
 62
     0
100
AcDbPoint
 10
324.3075987988299
 20
1191.387339917923
 30
0.0
  0
ENDBLK
  5
27A9
330
27A7
100
AcDbEntity
  8
0
100
AcDbBlockEnd
  0
BLOCK
  5
27BB
330
27BA
100
AcDbEntity
  8
0
100
AcDbBlockBegin
  2
*D43
 70
     1
 10
0.0
 20
0.0
 30
0.0
  3
*D43
  1
*D52
  0
LINE
  5
27BD
330
27BA
100
AcDbEntity
  8
DIM
 62
     0
 48
0.05
370
    -2
100
AcDbLine
 10
298.5863903967745
 20
1252.587339917922
 30
0.0
 11
324.3075987988299
 21
1252.587339917922
 31
0.0
  0
LINE
  5
27BE
330
27BA
100
AcDbEntity
  8
DIM
 62
     0
 48
0.05
370
    -2
100
AcDbLine
 10
298.5863903967745
 20
1197.587339917922
 30
0.0
 11
324.3075987988299
 21
1197.587339917922
 31
0.0
  0
LINE
  5
27BF
330
27BA
100
AcDbEntity
  8
DIM
 62
     0
 48
0.05
370
    -2
100
AcDbLine
 10
324.3075987988299
 20
1250.587339917922
 30
0.0
 11
324.3075987988299
 21
1199.587339917922
 31
0.0
  0
INSERT
  5
27C0
330
27BA
100
AcDbEntity
  8
DIM
 62
     0
370
    -2
100
AcDbBlockReference
  2
_DOT
 10
324.3075987988299
 20
1252.587339917922
 30
0.0
 41
2.0
 42
2.0
 43
2.0
 50
90.0
  0
INSERT
  5
27C1
330
27BA
100
AcDbEntity
  8
DIM
 62
     0
370
    -2
100
AcDbBlockReference
  2
_DOT
 10
324.3075987988299
 20
1197.587339917922
 30
0.0
 41
2.0
 42
2.0
 43
2.0
 50
270.0
  0
MTEXT
  5
27C2
330
27BA
100
AcDbEntity
  8
DIM
 62
     0
 48
0.05
100
AcDbMText
 10
308.3075987988299
 20
1225.087339917922
 30
0.0
 40
12.0
 41
0.0
 46
0.0
 71
     5
 72
     1
  1
\A1;55
  7
ＭＳ ゴシック
 11
0.0
 21
1.0
 31
0.0
 73
     1
 44
1.0
  0
POINT
  5
27C3
330
27BA
100
AcDbEntity
  8
Defpoints
 62
     0
100
AcDbPoint
 10
293.5863903967745
 20
1252.587339917922
 30
0.0
  0
POINT
  5
27C4
330
27BA
100
AcDbEntity
  8
Defpoints
 62
     0
100
AcDbPoint
 10
293.5863903967745
 20
1197.587339917922
 30
0.0
  0
POINT
  5
27C5
330
27BA
100
AcDbEntity
  8
Defpoints
 62
     0
100
AcDbPoint
 10
324.3075987988299
 20
1197.587339917922
 30
0.0
  0
ENDBLK
  5
27BC
330
27BA
100
AcDbEntity
  8
0
100
AcDbBlockEnd
  0
BLOCK
  5
27CD
330
27CC
100
AcDbEntity
  8
0
100
AcDbBlockBegin
  2
*D44
 70
     1
 10
0.0
 20
0.0
 30
0.0
  3
*D44
  1
*D53
  0
LINE
  5
27CF
330
27CC
100
AcDbEntity
  8
寸法
 62
     0
 48
0.05
370
    -2
100
AcDbLine
 10
273.3863903967738
 20
1159.325972904549
 30
0.0
 11
247.6651819947184
 21
1159.325972904549
 31
0.0
  0
LINE
  5
27D0
330
27CC
100
AcDbEntity
  8
寸法
 62
     0
 48
0.05
370
    -2
100
AcDbLine
 10
273.3863903967738
 20
1153.12597290455
 30
0.0
 11
247.6651819947184
 21
1153.12597290455
 31
0.0
  0
LINE
  5
27D1
330
27CC
100
AcDbEntity
  8
寸法
 62
     0
 48
0.05
370
    -2
100
AcDbLine
 10
247.6651819947184
 20
1157.325972904549
 30
0.0
 11
247.6651819947184
 21
1155.12597290455
 31
0.0
  0
INSERT
  5
27D2
330
27CC
100
AcDbEntity
  8
寸法
 62
     0
370
    -2
100
AcDbBlockReference
  2
_DOT
 10
247.6651819947184
 20
1159.325972904549
 30
0.0
 41
2.0
 42
2.0
 43
2.0
 50
90.0
  0
INSERT
  5
27D3
330
27CC
100
AcDbEntity
  8
寸法
 62
     0
370
    -2
100
AcDbBlockReference
  2
_DOT
 10
247.6651819947184
 20
1153.12597290455
 30
0.0
 41
2.0
 42
2.0
 43
2.0
 50
270.0
  0
MTEXT
  5
27D4
330
27CC
100
AcDbEntity
  8
寸法
 62
     0
 48
0.05
100
AcDbMText
 10
236.6651819947184
 20
1156.225972904549
 30
0.0
 40
12.0
 41
0.0
 46
0.0
 71
     5
 72
     1
  1
\A1;6
  7
ＭＳ ゴシック
 11
0.0
 21
1.0
 31
0.0
 73
     1
 44
1.0
  0
POINT
  5
27D5
330
27CC
100
AcDbEntity
  8
Defpoints
 62
     0
100
AcDbPoint
 10
278.3863903967738
 20
1159.325972904549
 30
0.0
  0
POINT
  5
27D6
330
27CC
100
AcDbEntity
  8
Defpoints
 62
     0
100
AcDbPoint
 10
278.3863903967738
 20
1153.12597290455
 30
0.0
  0
POINT
  5
27D7
330
27CC
100
AcDbEntity
  8
Defpoints
 62
     0
100
AcDbPoint
 10
247.6651819947184
 20
1153.12597290455
 30
0.0
  0
ENDBLK
  5
27CE
330
27CC
100
AcDbEntity
  8
0
100
AcDbBlockEnd
  0
BLOCK
  5
27D9
330
27D8
100
AcDbEntity
  8
0
100
AcDbBlockBegin
  2
*D45
 70
     1
 10
0.0
 20
0.0
 30
0.0
  3
*D45
  1
*D54
  0
LINE
  5
27DB
330
27D8
100
AcDbEntity
  8
寸法
 62
     0
 48
0.05
370
    -2
100
AcDbLine
 10
273.3863903967737
 20
1214.325972904549
 30
0.0
 11
247.6651819947184
 21
1214.325972904549
 31
0.0
  0
LINE
  5
27DC
330
27D8
100
AcDbEntity
  8
寸法
 62
     0
 48
0.05
370
    -2
100
AcDbLine
 10
273.3863903967738
 20
1159.325972904549
 30
0.0
 11
247.6651819947184
 21
1159.325972904549
 31
0.0
  0
LINE
  5
27DD
330
27D8
100
AcDbEntity
  8
寸法
 62
     0
 48
0.05
370
    -2
100
AcDbLine
 10
247.6651819947184
 20
1212.325972904549
 30
0.0
 11
247.6651819947184
 21
1161.325972904549
 31
0.0
  0
INSERT
  5
27DE
330
27D8
100
AcDbEntity
  8
寸法
 62
     0
370
    -2
100
AcDbBlockReference
  2
_DOT
 10
247.6651819947184
 20
1214.325972904549
 30
0.0
 41
2.0
 42
2.0
 43
2.0
 50
90.00000000000004
  0
INSERT
  5
27DF
330
27D8
100
AcDbEntity
  8
寸法
 62
     0
370
    -2
100
AcDbBlockReference
  2
_DOT
 10
247.6651819947184
 20
1159.325972904549
 30
0.0
 41
2.0
 42
2.0
 43
2.0
 50
270.0
  0
MTEXT
  5
27E0
330
27D8
100
AcDbEntity
  8
寸法
 62
     0
 48
0.05
100
AcDbMText
 10
236.6651819947184
 20
1186.825972904549
 30
0.0
 40
12.0
 41
0.0
 46
0.0
 71
     5
 72
     1
  1
\A1;55
  7
ＭＳ ゴシック
 11
-5.167583532800728E-16
 21
1.0
 31
0.0
 73
     1
 44
1.0
  0
POINT
  5
27E1
330
27D8
100
AcDbEntity
  8
Defpoints
 62
     0
100
AcDbPoint
 10
278.3863903967737
 20
1214.325972904549
 30
0.0
  0
POINT
  5
27E2
330
27D8
100
AcDbEntity
  8
Defpoints
 62
     0
100
AcDbPoint
 10
278.3863903967738
 20
1159.325972904549
 30
0.0
  0
POINT
  5
27E3
330
27D8
100
AcDbEntity
  8
Defpoints
 62
     0
100
AcDbPoint
 10
247.6651819947184
 20
1159.325972904549
 30
0.0
  0
ENDBLK
  5
27DA
330
27D8
100
AcDbEntity
  8
0
100
AcDbBlockEnd
  0
BLOCK
  5
27E6
330
27E5
100
AcDbEntity
  8
0
100
AcDbBlockBegin
  2
*D46
 70
     1
 10
0.0
 20
0.0
 30
0.0
  3
*D46
  1
*D55
  0
LINE
  5
27E8
330
27E5
100
AcDbEntity
  8
寸法
 62
     0
370
    -2
100
AcDbLine
 10
237.9084972217004
 20
1153.125972904548
 30
0.0
 11
272.357683002546
 21
1153.125972904548
 31
0.0
  0
LINE
  5
27E9
330
27E5
100
AcDbEntity
  8
寸法
 62
     0
370
    -2
100
AcDbLine
 10
237.9084972217004
 20
1214.325972904549
 30
0.0
 11
272.3576830025463
 21
1214.325972904549
 31
0.0
  0
LINE
  5
27EA
330
27E5
100
AcDbEntity
  8
寸法
 62
     0
370
    -2
100
AcDbLine
 10
272.357683002546
 20
1155.125972904548
 30
0.0
 11
272.3576830025463
 21
1212.325972904549
 31
0.0
  0
INSERT
  5
27EB
330
27E5
100
AcDbEntity
  8
寸法
 62
     0
370
    -2
100
AcDbBlockReference
  2
_DOT
 10
272.357683002546
 20
1153.125972904548
 30
0.0
 41
2.0
 42
2.0
 43
2.0
 50
269.9999999999998
  0
INSERT
  5
27EC
330
27E5
100
AcDbEntity
  8
寸法
 62
     0
370
    -2
100
AcDbBlockReference
  2
_DOT
 10
272.3576830025463
 20
1214.325972904549
 30
0.0
 41
2.0
 42
2.0
 43
2.0
 50
89.99999999999973
  0
MTEXT
  5
27ED
330
27E5
100
AcDbEntity
  8
寸法
 62
     0
 48
0.05
100
AcDbMText
 10
255.3576830025461
 20
1177.875972904547
 30
0.0
 40
12.0
 41
0.0
 46
0.0
 71
     1
 72
     1
  1
\A1;61
  7
ＭＳ ゴシック
 11
4.644070168366595E-15
 21
1.0
 31
0.0
 73
     1
 44
1.0
  0
POINT
  5
27EE
330
27E5
100
AcDbEntity
  8
Defpoints
 62
     0
100
AcDbPoint
 10
232.9084972217004
 20
1153.125972904548
 30
0.0
  0
POINT
  5
27EF
330
27E5
100
AcDbEntity
  8
Defpoints
 62
     0
100
AcDbPoint
 10
232.9084972217004
 20
1214.325972904549
 30
0.0
  0
POINT
  5
27F0
330
27E5
100
AcDbEntity
  8
Defpoints
 62
     0
100
AcDbPoint
 10
272.3576830025463
 20
1214.325972904549
 30
0.0
  0
ENDBLK
  5
27E7
330
27E5
100
AcDbEntity
  8
0
100
AcDbBlockEnd
  0
BLOCK
  5
281C
330
281B
100
AcDbEntity
  8
0
100
AcDbBlockBegin
  2
*D47
 70
     1
 10
0.0
 20
0.0
 30
0.0
  3
*D47
  1
*D56
  0
LINE
  5
281E
330
281B
100
AcDbEntity
  8
DIM
 62
     0
 48
0.05
370
    -2
100
AcDbLine
 10
298.5863903967737
 20
1114.981357071466
 30
0.0
 11
325.3656159331873
 21
1114.981357071466
 31
0.0
  0
LINE
  5
281F
330
281B
100
AcDbEntity
  8
DIM
 62
     0
 48
0.05
370
    -2
100
AcDbLine
 10
295.9096578631725
 20
1085.381357071466
 30
0.0
 11
325.3656159331873
 21
1085.381357071466
 31
0.0
  0
LINE
  5
2820
330
281B
100
AcDbEntity
  8
DIM
 62
     0
 48
0.05
370
    -2
100
AcDbLine
 10
325.3656159331873
 20
1112.981357071466
 30
0.0
 11
325.3656159331873
 21
1087.381357071466
 31
0.0
  0
INSERT
  5
2821
330
281B
100
AcDbEntity
  8
DIM
 62
     0
370
    -2
100
AcDbBlockReference
  2
_DOT
 10
325.3656159331873
 20
1114.981357071466
 30
0.0
 41
2.0
 42
2.0
 43
2.0
 50
90.0
  0
INSERT
  5
2822
330
281B
100
AcDbEntity
  8
DIM
 62
     0
370
    -2
100
AcDbBlockReference
  2
_DOT
 10
325.3656159331873
 20
1085.381357071466
 30
0.0
 41
2.0
 42
2.0
 43
2.0
 50
270.0
  0
MTEXT
  5
2823
330
281B
100
AcDbEntity
  8
DIM
 62
     0
 48
0.05
100
AcDbMText
 10
314.3656159331873
 20
1100.181357071466
 30
0.0
 40
12.0
 41
0.0
 46
0.0
 71
     5
 72
     1
  1
\A1;30
  7
ＭＳ ゴシック
 11
0.0
 21
1.0
 31
0.0
 73
     1
 44
1.0
  0
POINT
  5
2824
330
281B
100
AcDbEntity
  8
Defpoints
 62
     0
100
AcDbPoint
 10
293.5863903967737
 20
1114.981357071466
 30
0.0
  0
POINT
  5
2825
330
281B
100
AcDbEntity
  8
Defpoints
 62
     0
100
AcDbPoint
 10
290.9096578631725
 20
1085.381357071466
 30
0.0
  0
POINT
  5
2826
330
281B
100
AcDbEntity
  8
Defpoints
 62
     0
100
AcDbPoint
 10
325.3656159331873
 20
1085.381357071466
 30
0.0
  0
ENDBLK
  5
281D
330
281B
100
AcDbEntity
  8
0
100
AcDbBlockEnd
  0
BLOCK
  5
282B
330
282A
100
AcDbEntity
  8
0
100
AcDbBlockBegin
  2
*D48
 70
     1
 10
0.0
 20
0.0
 30
0.0
  3
*D48
  1
*D57
  0
LINE
  5
282D
330
282A
100
AcDbEntity
  8
DIM
 62
     0
 48
0.05
370
    -2
100
AcDbLine
 10
298.0863903967736
 20
998.4465873835015
 30
0.0
 11
330.9076582846707
 21
998.4465873835015
 31
0.0
  0
LINE
  5
282E
330
282A
100
AcDbEntity
  8
DIM
 62
     0
 48
0.05
370
    -2
100
AcDbLine
 10
298.5863903967745
 20
968.3465873835017
 30
0.0
 11
330.9076582846707
 21
968.3465873835017
 31
0.0
  0
LINE
  5
282F
330
282A
100
AcDbEntity
  8
DIM
 62
     0
 48
0.05
370
    -2
100
AcDbLine
 10
330.9076582846707
 20
996.4465873835015
 30
0.0
 11
330.9076582846707
 21
970.3465873835017
 31
0.0
  0
INSERT
  5
2830
330
282A
100
AcDbEntity
  8
DIM
 62
     0
370
    -2
100
AcDbBlockReference
  2
_DOT
 10
330.9076582846707
 20
998.4465873835015
 30
0.0
 41
2.0
 42
2.0
 43
2.0
 50
90.0
  0
INSERT
  5
2831
330
282A
100
AcDbEntity
  8
DIM
 62
     0
370
    -2
100
AcDbBlockReference
  2
_DOT
 10
330.9076582846707
 20
968.3465873835017
 30
0.0
 41
2.0
 42
2.0
 43
2.0
 50
270.0
  0
MTEXT
  5
2832
330
282A
100
AcDbEntity
  8
DIM
 62
     0
 48
0.05
100
AcDbMText
 10
319.9076582846707
 20
983.3965873835016
 30
0.0
 40
12.0
 41
0.0
 46
0.0
 71
     5
 72
     1
  1
\A1;30
  7
ＭＳ ゴシック
 11
0.0
 21
1.0
 31
0.0
 73
     1
 44
1.0
  0
POINT
  5
2833
330
282A
100
AcDbEntity
  8
Defpoints
 62
     0
100
AcDbPoint
 10
293.0863903967736
 20
998.4465873835015
 30
0.0
  0
POINT
  5
2834
330
282A
100
AcDbEntity
  8
Defpoints
 62
     0
100
AcDbPoint
 10
293.5863903967745
 20
968.3465873835017
 30
0.0
  0
POINT
  5
2835
330
282A
100
AcDbEntity
  8
Defpoints
 62
     0
100
AcDbPoint
 10
330.9076582846707
 20
968.3465873835017
 30
0.0
  0
ENDBLK
  5
282C
330
282A
100
AcDbEntity
  8
0
100
AcDbBlockEnd
  0
BLOCK
  5
287F
330
287E
100
AcDbEntity
  8
0
100
AcDbBlockBegin
  2
*D49
 70
     1
 10
0.0
 20
0.0
 30
0.0
  3
*D49
  1
*D58
  0
LINE
  5
2881
330
287E
100
AcDbEntity
  8
寸法
 62
     0
 48
0.05
370
    -2
100
AcDbLine
 10
213.2084972216996
 20
998.4465873835015
 30
0.0
 11
186.9872888196443
 21
998.4465873835015
 31
0.0
  0
LINE
  5
2882
330
287E
100
AcDbEntity
  8
寸法
 62
     0
 48
0.05
370
    -2
100
AcDbLine
 10
212.7084972216988
 20
968.3465873835017
 30
0.0
 11
186.9872888196443
 21
968.3465873835017
 31
0.0
  0
LINE
  5
2883
330
287E
100
AcDbEntity
  8
寸法
 62
     0
 48
0.05
370
    -2
100
AcDbLine
 10
186.9872888196443
 20
996.4465873835015
 30
0.0
 11
186.9872888196443
 21
970.3465873835017
 31
0.0
  0
INSERT
  5
2884
330
287E
100
AcDbEntity
  8
寸法
 62
     0
370
    -2
100
AcDbBlockReference
  2
_DOT
 10
186.9872888196443
 20
998.4465873835015
 30
0.0
 41
2.0
 42
2.0
 43
2.0
 50
90.0
  0
INSERT
  5
2885
330
287E
100
AcDbEntity
  8
寸法
 62
     0
370
    -2
100
AcDbBlockReference
  2
_DOT
 10
186.9872888196443
 20
968.3465873835017
 30
0.0
 41
2.0
 42
2.0
 43
2.0
 50
270.0
  0
MTEXT
  5
2886
330
287E
100
AcDbEntity
  8
寸法
 62
     0
 48
0.05
100
AcDbMText
 10
175.9872888196443
 20
983.3965873835016
 30
0.0
 40
12.0
 41
0.0
 46
0.0
 71
     5
 72
     1
  1
\A1;30
  7
ＭＳ ゴシック
 11
0.0
 21
1.0
 31
0.0
 73
     1
 44
1.0
  0
POINT
  5
2887
330
287E
100
AcDbEntity
  8
Defpoints
 62
     0
100
AcDbPoint
 10
218.2084972216996
 20
998.4465873835015
 30
0.0
  0
POINT
  5
2888
330
287E
100
AcDbEntity
  8
Defpoints
 62
     0
100
AcDbPoint
 10
217.7084972216988
 20
968.3465873835017
 30
0.0
  0
POINT
  5
2889
330
287E
100
AcDbEntity
  8
Defpoints
 62
     0
100
AcDbPoint
 10
186.9872888196443
 20
968.3465873835017
 30
0.0
  0
ENDBLK
  5
2880
330
287E
100
AcDbEntity
  8
0
100
AcDbBlockEnd
  0
BLOCK
  5
2904
330
2903
100
AcDbEntity
  8
0
100
AcDbBlockBegin
  2
*D50
 70
     1
 10
0.0
 20
0.0
 30
0.0
  3
*D50
  1
*D512
  0
LINE
  5
2905
330
2903
100
AcDbEntity
  8
寸法
 62
     0
370
    -2
100
AcDbLine
 10
61.48488394005506
 20
654.9818220261426
 30
0.0
 11
110.4897744702447
 21
654.9818220261426
 31
0.0
  0
LINE
  5
2906
330
2903
100
AcDbEntity
  8
寸法
 62
     0
370
    -2
100
AcDbLine
 10
61.48488394005506
 20
54.98182202614259
 30
0.0
 11
110.4897744702447
 21
54.98182202614259
 31
0.0
  0
LINE
  5
2907
330
2903
100
AcDbEntity
  8
寸法
 62
     0
370
    -2
100
AcDbLine
 10
110.4897744702447
 20
652.9818220261426
 30
0.0
 11
110.4897744702447
 21
56.98182202614259
 31
0.0
  0
INSERT
  5
2908
330
2903
100
AcDbEntity
  8
寸法
 62
     0
370
    -2
100
AcDbBlockReference
  2
_DOT
 10
110.4897744702447
 20
654.9818220261426
 30
0.0
 41
2.0
 42
2.0
 43
2.0
 50
90.0
  0
INSERT
  5
2909
330
2903
100
AcDbEntity
  8
寸法
 62
     0
370
    -2
100
AcDbBlockReference
  2
_DOT
 10
110.4897744702447
 20
54.98182202614259
 30
0.0
 41
2.0
 42
2.0
 43
2.0
 50
270.0
  0
MTEXT
  5
290A
330
2903
100
AcDbEntity
  8
寸法
 62
     0
 48
0.05
100
AcDbMText
 10
99.48977447024473
 20
354.9818220261426
 30
0.0
 40
12.0
 41
0.0
 46
0.0
 71
     5
 72
     1
  1
\A1;600
  7
ＭＳ ゴシック
 11
7.105427357601002E-17
 21
1.0
 31
0.0
 73
     1
 44
1.0
  0
POINT
  5
290B
330
2903
100
AcDbEntity
  8
Defpoints
 62
     0
100
AcDbPoint
 10
56.48488394005506
 20
654.9818220261426
 30
0.0
  0
POINT
  5
290C
330
2903
100
AcDbEntity
  8
Defpoints
 62
     0
100
AcDbPoint
 10
56.48488394005506
 20
54.98182202614259
 30
0.0
  0
POINT
  5
290D
330
2903
100
AcDbEntity
  8
Defpoints
 62
     0
100
AcDbPoint
 10
110.4897744702447
 20
54.98182202614259
 30
0.0
  0
ENDBLK
  5
290E
330
2903
100
AcDbEntity
  8
0
100
AcDbBlockEnd
  0
BLOCK
  5
291F
330
291E
100
AcDbEntity
  8
0
100
AcDbBlockBegin
  2
*D51
 70
     1
 10
0.0
 20
0.0
 30
0.0
  3
*D51
  1
*D52
  0
LINE
  5
2921
330
291E
100
AcDbEntity
  8
寸法
 62
     0
370
    -2
100
AcDbLine
 10
854.0383933534356
 20
983.3465873835012
 30
0.0
 11
903.0432838836252
 21
983.3465873835012
 31
0.0
  0
LINE
  5
2922
330
291E
100
AcDbEntity
  8
寸法
 62
     0
370
    -2
100
AcDbLine
 10
854.0383933534356
 20
383.3465873835012
 30
0.0
 11
903.0432838836252
 21
383.3465873835012
 31
0.0
  0
LINE
  5
2923
330
291E
100
AcDbEntity
  8
寸法
 62
     0
370
    -2
100
AcDbLine
 10
903.0432838836252
 20
981.3465873835012
 30
0.0
 11
903.0432838836252
 21
385.3465873835012
 31
0.0
  0
INSERT
  5
2924
330
291E
100
AcDbEntity
  8
寸法
 62
     0
370
    -2
100
AcDbBlockReference
  2
_DOT
 10
903.0432838836252
 20
983.3465873835012
 30
0.0
 41
2.0
 42
2.0
 43
2.0
 50
90.0
  0
INSERT
  5
2925
330
291E
100
AcDbEntity
  8
寸法
 62
     0
370
    -2
100
AcDbBlockReference
  2
_DOT
 10
903.0432838836252
 20
383.3465873835012
 30
0.0
 41
2.0
 42
2.0
 43
2.0
 50
270.0
  0
MTEXT
  5
2926
330
291E
100
AcDbEntity
  8
寸法
 62
     0
 48
0.05
100
AcDbMText
 10
892.0432838836252
 20
683.3465873835012
 30
0.0
 40
12.0
 41
0.0
 46
0.0
 71
     5
 72
     1
  1
\A1;600
  7
ＭＳ ゴシック
 11
0.0
 21
1.0
 31
0.0
 73
     1
 44
1.0
  0
POINT
  5
2927
330
291E
100
AcDbEntity
  8
Defpoints
 62
     0
100
AcDbPoint
 10
849.0383933534356
 20
983.3465873835012
 30
0.0
  0
POINT
  5
2928
330
291E
100
AcDbEntity
  8
Defpoints
 62
     0
100
AcDbPoint
 10
849.0383933534356
 20
383.3465873835012
 30
0.0
  0
POINT
  5
2929
330
291E
100
AcDbEntity
  8
Defpoints
 62
     0
100
AcDbPoint
 10
903.0432838836252
 20
383.3465873835012
 30
0.0
  0
ENDBLK
  5
2920
330
291E
100
AcDbEntity
  8
0
100
AcDbBlockEnd
  0
BLOCK
  5
295E
330
295D
100
AcDbEntity
  8
0
100
AcDbBlockBegin
  2
*D52
 70
     1
 10
0.0
 20
0.0
 30
0.0
  3
*D52
  1
*D53
  0
LINE
  5
2960
330
295D
100
AcDbEntity
  8
寸法
 62
     0
 48
0.05
370
    -2
100
AcDbLine
 10
502.5693979924906
 20
683.3465873835014
 30
0.0
 11
482.4853979924906
 21
683.3465873835014
 31
0.0
  0
LINE
  5
2961
330
295D
100
AcDbEntity
  8
寸法
 62
     0
 48
0.05
370
    -2
100
AcDbLine
 10
504.5693979924906
 20
683.3465873835014
 30
0.0
 11
506.7693979924895
 21
683.3465873835014
 31
0.0
  0
INSERT
  5
2962
330
295D
100
AcDbEntity
  8
寸法
 62
     0
370
    -2
100
AcDbBlockReference
  2
_DOT
 10
502.5693979924906
 20
683.3465873835014
 30
0.0
 41
2.0
 42
2.0
 43
2.0
 50
180.0
  0
INSERT
  5
2963
330
295D
100
AcDbEntity
  8
寸法
 62
     0
370
    -2
100
AcDbBlockReference
  2
_DOT
 10
508.7693979924895
 20
683.3465873835014
 30
0.0
 41
2.0
 42
2.0
 43
2.0
  0
MTEXT
  5
2964
330
295D
100
AcDbEntity
  8
寸法
 62
     0
 48
0.05
100
AcDbMText
 10
490.5273979924906
 20
694.3465873835014
 30
0.0
 40
12.0
 41
0.0
 46
0.0
 71
     5
 72
     1
  1
\A1;6
  7
ＭＳ ゴシック
 73
     1
 44
1.0
  0
POINT
  5
2965
330
295D
100
AcDbEntity
  8
Defpoints
 62
     0
100
AcDbPoint
 10
502.5693979924906
 20
683.3465873835014
 30
0.0
  0
POINT
  5
2966
330
295D
100
AcDbEntity
  8
Defpoints
 62
     0
100
AcDbPoint
 10
508.7693979924895
 20
683.3465873835014
 30
0.0
  0
POINT
  5
2967
330
295D
100
AcDbEntity
  8
Defpoints
 62
     0
100
AcDbPoint
 10
508.7693979924895
 20
683.3465873835014
 30
0.0
  0
ENDBLK
  5
295F
330
295D
100
AcDbEntity
  8
0
100
AcDbBlockEnd
  0
BLOCK
  5
2E03
330
2E02
100
AcDbEntity
  8
0
100
AcDbBlockBegin
  2
*D53
 70
     1
 10
0.0
 20
0.0
 30
0.0
  3
*D53
  1
*D54
  0
LINE
  5
2E05
330
2E02
100
AcDbEntity
  8
寸法
 62
     0
370
    -2
100
AcDbLine
 10
637.9693979924903
 20
983.3465873835012
 30
0.0
 11
686.9742885226799
 21
983.3465873835012
 31
0.0
  0
LINE
  5
2E06
330
2E02
100
AcDbEntity
  8
寸法
 62
     0
370
    -2
100
AcDbLine
 10
637.9693979924903
 20
383.3465873835012
 30
0.0
 11
686.9742885226799
 21
383.3465873835012
 31
0.0
  0
LINE
  5
2E07
330
2E02
100
AcDbEntity
  8
寸法
 62
     0
370
    -2
100
AcDbLine
 10
686.9742885226799
 20
981.3465873835012
 30
0.0
 11
686.9742885226799
 21
385.3465873835012
 31
0.0
  0
INSERT
  5
2E08
330
2E02
100
AcDbEntity
  8
寸法
 62
     0
370
    -2
100
AcDbBlockReference
  2
_DOT
 10
686.9742885226799
 20
983.3465873835012
 30
0.0
 41
2.0
 42
2.0
 43
2.0
 50
90.0
  0
INSERT
  5
2E09
330
2E02
100
AcDbEntity
  8
寸法
 62
     0
370
    -2
100
AcDbBlockReference
  2
_DOT
 10
686.9742885226799
 20
383.3465873835012
 30
0.0
 41
2.0
 42
2.0
 43
2.0
 50
270.0
  0
MTEXT
  5
2E0A
330
2E02
100
AcDbEntity
  8
寸法
 62
     0
 48
0.05
100
AcDbMText
 10
675.9742885226799
 20
683.3465873835012
 30
0.0
 40
12.0
 41
0.0
 46
0.0
 71
     5
 72
     1
  1
\A1;600
  7
ＭＳ ゴシック
 11
0.0
 21
1.0
 31
0.0
 73
     1
 44
1.0
  0
POINT
  5
2E0B
330
2E02
100
AcDbEntity
  8
Defpoints
 62
     0
100
AcDbPoint
 10
632.9693979924903
 20
983.3465873835012
 30
0.0
  0
POINT
  5
2E0C
330
2E02
100
AcDbEntity
  8
Defpoints
 62
     0
100
AcDbPoint
 10
632.9693979924903
 20
383.3465873835012
 30
0.0
  0
POINT
  5
2E0D
330
2E02
100
AcDbEntity
  8
Defpoints
 62
     0
100
AcDbPoint
 10
686.9742885226799
 20
383.3465873835012
 30
0.0
  0
ENDBLK
  5
2E04
330
2E02
100
AcDbEntity
  8
0
100
AcDbBlockEnd
  0
ENDSEC
  0
SECTION
  2
ENTITIES
  0
MTEXT
  5
177
330
A
100
AcDbEntity
  8
TEMPLATE
390
1D
100
AcDbMText
 10
39.60107227386538
 20
171.8658758157141
 30
0.0
 40
8.144205729166663
 41
0.0
 46
0.0
 71
     1
 72
     1
  1
品名
  7
ＭＳ ゴシック
 73
     1
 44
0.7828267384257843
  0
MTEXT
  5
178
330
A
100
AcDbEntity
  8
TEMPLATE
390
1D
100
AcDbMText
 10
39.60107227386538
 20
129.365875815714
 30
0.0
 40
8.144205729166663
 41
0.0
 46
0.0
 71
     1
 72
     1
  1
仕様
  7
ＭＳ ゴシック
 73
     1
 44
0.7828267384257843
  0
LINE
  5
179
330
A
100
AcDbEntity
  8
TEMPLATE
390
1D
100
AcDbLine
 10
1011.101072273624
 20
133.5733367532142
 30
0.0
 11
36.10107227362437
 21
133.5733367532142
 31
0.0
  0
LWPOLYLINE
  5
17A
330
A
100
AcDbEntity
  8
TEMPLATE
390
1D
100
AcDbPolyline
 90
        5
 70
   128
 43
0.0
 10
1011.101072273624
 20
1448.573336753213
 10
36.10107227362437
 20
1448.573336753213
 10
36.10107227362437
 20
48.57333675321413
 10
1011.101072273624
 20
48.57333675321413
 10
1011.101072273624
 20
1448.573336753213
  0
LINE
  5
17B
330
A
100
AcDbEntity
  8
TEMPLATE
390
1D
100
AcDbLine
 10
1011.101072273624
 20
176.0733367532141
 30
0.0
 11
36.10107227362437
 21
176.0733367532141
 31
0.0
  0
LINE
  5
17C
330
A
100
AcDbEntity
  8
TEMPLATE
390
1D
100
AcDbLine
 10
1011.101072273866
 20
91.07333675321412
 30
0.0
 11
634.601072273865
 21
91.07333675321412
 31
0.0
  0
MTEXT
  5
17E
330
A
100
AcDbEntity
  8
TEMPLATE
390
1D
100
AcDbMText
 10
649.5367753999956
 20
76.11813951656006
 30
0.0
 40
12.21630859375
 41
0.0
 46
0.0
 71
     1
 72
     1
  1
大洋金物株式会社 ティーフォルム事業部
  7
ＭＳ ゴシック
 73
     1
 44
0.7828267384257843
  0
MTEXT
  5
180
330
A
100
AcDbEntity
  8
TEMPLATE
390
1D
100
AcDbMText
 10
915.601072273995
 20
115.0746453469641
 30
0.0
 40
12.21630859375
 41
0.0
 46
12.21630859375
 71
     1
 72
     1
  1
{1:5}
  7
ＭＳ ゴシック
 73
     1
 44
0.7828267384257843
1001
ACAD
1000
ACAD_MTEXT_DEFINED_HEIGHT_BEGIN
1070
    46
1040
12.21630859375
1000
ACAD_MTEXT_DEFINED_HEIGHT_END
  0
MTEXT
  5
181
330
A
100
AcDbEntity
  8
TEMPLATE
390
1D
100
AcDbMText
 10
889.101072273995
 20
129.365875815714
 30
0.0
 40
8.144205729166663
 41
0.0
 46
0.0
 71
     1
 72
     1
  1
縮尺
  7
ＭＳ ゴシック
 73
     1
 44
0.7828267384257843
  0
LINE
  5
182
330
A
100
AcDbEntity
  8
TEMPLATE
390
1D
100
AcDbLine
 10
885.601072273995
 20
91.07333675321412
 30
0.0
 11
885.601072273995
 21
133.5733367532142
 31
0.0
  0
MTEXT
  5
183
330
A
100
AcDbEntity
  8
TEMPLATE
390
1D
100
AcDbMText
 10
763.601072273995
 20
129.365875815714
 30
0.0
 40
8.144205729166663
 41
0.0
 46
0.0
 71
     1
 72
     1
  1
容量
  7
ＭＳ ゴシック
 73
     1
 44
0.7828267384257843
  0
LINE
  5
184
330
A
100
AcDbEntity
  8
TEMPLATE
390
1D
100
AcDbLine
 10
760.101072273995
 20
91.07333675321412
 30
0.0
 11
760.101072273995
 21
133.5733367532142
 31
0.0
  0
MTEXT
  5
185
330
A
100
AcDbEntity
  8
TEMPLATE
390
1D
100
AcDbMText
 10
638.101072273995
 20
171.8658758157141
 30
0.0
 40
8.144205729166663
 41
0.0
 46
0.0
 71
     1
 72
     1
  1
品番
  7
ＭＳ ゴシック
 73
     1
 44
0.7828267384257843
  0
MTEXT
  5
186
330
A
100
AcDbEntity
  8
TEMPLATE
390
1D
100
AcDbMText
 10
638.101072273995
 20
129.365875815714
 30
0.0
 40
8.144205729166663
 41
0.0
 46
0.0
 71
     1
 72
     1
  1
重量
  7
ＭＳ ゴシック
 73
     1
 44
0.7828267384257843
  0
MTEXT
  5
187
330
A
100
AcDbEntity
  8
TEMPLATE
390
1D
100
AcDbMText
 10
664.601072273995
 20
157.5746453469641
 30
0.0
 40
12.21630859375
 41
0.0
 46
12.21630859375
 71
     1
 72
     1
  1
{FRF82-2504}
  7
ＭＳ ゴシック
 73
     1
 44
0.7828267384257843
1001
ACAD
1000
ACAD_MTEXT_DEFINED_HEIGHT_BEGIN
1070
    46
1040
12.21630859375
1000
ACAD_MTEXT_DEFINED_HEIGHT_END
  0
LINE
  5
188
330
A
100
AcDbEntity
  8
TEMPLATE
390
1D
100
AcDbLine
 10
634.601072273995
 20
48.57333675321413
 30
0.0
 11
634.601072273995
 21
176.0733367532141
 31
0.0
  0
MTEXT
  5
189
330
A
100
AcDbEntity
  8
TEMPLATE
390
1D
100
AcDbMText
 10
66.10107227386537
 20
157.5746453469641
 30
0.0
 40
12.21630859375
 41
0.0
 46
12.900421875
 71
     1
 72
     1
  1
{シャワードアハンドル　-LANGBERGER-}
  7
ＭＳ ゴシック
 73
     1
 44
0.7828267384257843
1001
ACAD
1000
ACAD_MTEXT_DEFINED_HEIGHT_BEGIN
1070
    46
1040
12.900421875
1000
ACAD_MTEXT_DEFINED_HEIGHT_END
  0
INSERT
  5
6B5
330
A
100
AcDbEntity
  8
TEMPLATE
100
AcDbBlockReference
  2
名称未設定-1
 10
935.3753740442249
 20
12.97338287832691
 30
0.0
 41
0.3809999999999999
 42
0.3809999999999999
 43
0.3809999999999999
  0
MTEXT
  5
7D9
330
A
100
AcDbEntity
  8
TEMPLATE
390
1D
100
AcDbMText
 10
62.62717263801819
 20
113.4059880146976
 30
0.0
 40
12.21630859375
 41
0.0
 46
14.16030768938184
 71
     1
 72
     1
  1
{取付ビスM5/取付下穴\fＭＳ ゴシック|b0|i0|c1|p0;\H0.982293x;φ\fＭＳ ゴシック|b0|i0|c0|p0;\H1.01803x;8}
  7
ＭＳ ゴシック
 73
     1
 44
0.7828267384257843
1001
ACAD
1000
ACAD_MTEXT_DEFINED_HEIGHT_BEGIN
1070
    46
1040
14.16030768938184
1000
ACAD_MTEXT_DEFINED_HEIGHT_END
  0
INSERT
  5
68C
330
A
100
AcDbEntity
  8
TEMPLATE
100
AcDbBlockReference
  2
block 2
 10
919.2743017702577
 20
8.373076514336368
 30
0.0
 41
0.3809999999999999
 42
0.3809999999999999
 43
0.3809999999999999
  0
LWPOLYLINE
  5
D69
330
A
100
AcDbEntity
  8
BORDER
 48
0.05
100
AcDbPolyline
 90
        4
 70
     1
 43
0.0
 10
0.0
 20
0.0
 10
0.0
 20
1485.0
 10
1050.0
 20
1485.0
 10
1050.0
 20
0.0
  0
ARC
  5
F49
330
A
100
AcDbEntity
  8
MODEL
  6
Continuous
100
AcDbCircle
 10
218.2084972216996
 20
997.9465873835015
 30
0.0
 40
0.5000000000001137
100
AcDbArc
 50
90.0
 51
180.0
  0
LINE
  5
F4A
330
A
100
AcDbEntity
  8
MODEL
  6
Continuous
100
AcDbLine
 10
218.2084972216996
 20
998.4465873835015
 30
0.0
 11
232.4084972216995
 21
998.4465873835015
 31
0.0
  0
ARC
  5
F4B
330
A
100
AcDbEntity
  8
MODEL
  6
Continuous
100
AcDbCircle
 10
232.4084972216995
 20
997.9465873835015
 30
0.0
 40
0.5000000000001137
100
AcDbArc
 50
0.0
 51
90.0
  0
LINE
  5
F4C
330
A
100
AcDbEntity
  8
MODEL
  6
Continuous
100
AcDbLine
 10
232.9084972217004
 20
997.9465873835015
 30
0.0
 11
232.9084972217004
 21
368.7465873835007
 31
0.0
  0
ARC
  5
F4D
330
A
100
AcDbEntity
  8
MODEL
  6
Continuous
100
AcDbCircle
 10
232.4084972216995
 20
368.7465873835007
 30
0.0
 40
0.5000000000000071
100
AcDbArc
 50
270.0
 51
0.0
  0
LINE
  5
F4E
330
A
100
AcDbEntity
  8
MODEL
  6
Continuous
100
AcDbLine
 10
218.2084972216996
 20
368.2465873835007
 30
0.0
 11
232.4084972216995
 21
368.2465873835007
 31
0.0
  0
ARC
  5
F4F
330
A
100
AcDbEntity
  8
MODEL
  6
Continuous
100
AcDbCircle
 10
218.2084972216996
 20
368.7465873835007
 30
0.0
 40
0.5000000000000071
100
AcDbArc
 50
180.0
 51
270.0
  0
LINE
  5
F50
330
A
100
AcDbEntity
  8
MODEL
  6
Continuous
100
AcDbLine
 10
217.7084972216996
 20
997.9465873835015
 30
0.0
 11
217.7084972216996
 21
368.7465873835007
 31
0.0
  0
LINE
  5
F52
330
A
100
AcDbEntity
  8
MODEL
  6
Continuous
100
AcDbLine
 10
563.7693979924904
 20
980.5965873835016
 30
0.0
 11
571.7693979924895
 21
980.5965873835016
 31
0.0
  0
LINE
  5
F53
330
A
100
AcDbEntity
  8
MODEL
  6
Continuous
100
AcDbLine
 10
571.7693979924895
 20
985.5965873835016
 30
0.0
 11
563.7693979924895
 21
985.5965873835016
 31
0.0
  0
LINE
  5
F54
330
A
100
AcDbEntity
  8
MODEL
  6
Continuous
100
AcDbLine
 10
563.7693979924904
 20
380.5965873835012
 30
0.0
 11
571.7693979924895
 21
380.5965873835012
 31
0.0
  0
LINE
  5
F55
330
A
100
AcDbEntity
  8
MODEL
  6
Continuous
100
AcDbLine
 10
571.7693979924895
 20
385.5965873835012
 30
0.0
 11
563.7693979924895
 21
385.5965873835012
 31
0.0
  0
LINE
  5
F56
330
A
100
AcDbEntity
  8
MODEL
  6
Continuous
100
AcDbLine
 10
572.7693979924886
 20
996.8465873835016
 30
0.0
 11
571.7693979924895
 21
996.8465873835016
 31
0.0
  0
LINE
  5
F57
330
A
100
AcDbEntity
  8
MODEL
  6
Continuous
100
AcDbLine
 10
571.7693979924895
 20
969.3465873835017
 30
0.0
 11
572.7693979924895
 21
969.3465873835017
 31
0.0
  0
LINE
  5
F58
330
A
100
AcDbEntity
  8
MODEL
  6
Continuous
100
AcDbLine
 10
571.7693979924895
 20
996.8465873835016
 30
0.0
 11
571.7693979924895
 21
969.3465873835017
 31
0.0
  0
LINE
  5
F59
330
A
100
AcDbEntity
  8
MODEL
  6
Continuous
100
AcDbLine
 10
571.7693979924895
 20
996.8465873835016
 30
0.0
 11
571.7693979924895
 21
997.8465873835016
 31
0.0
  0
LINE
  5
F5A
330
A
100
AcDbEntity
  8
MODEL
  6
Continuous
100
AcDbLine
 10
571.7693979924895
 20
997.8465873835016
 30
0.0
 11
572.7693979924886
 21
997.8465873835016
 31
0.0
  0
LINE
  5
F5B
330
A
100
AcDbEntity
  8
MODEL
  6
Continuous
100
AcDbLine
 10
572.7693979924895
 20
968.3465873835017
 30
0.0
 11
571.7693979924895
 21
968.3465873835017
 31
0.0
  0
LINE
  5
F5C
330
A
100
AcDbEntity
  8
MODEL
  6
Continuous
100
AcDbLine
 10
571.7693979924895
 20
968.3465873835017
 30
0.0
 11
571.7693979924895
 21
969.3465873835017
 31
0.0
  0
LINE
  5
F5D
330
A
100
AcDbEntity
  8
MODEL
  6
Continuous
100
AcDbLine
 10
572.7693979924886
 20
396.8465873835012
 30
0.0
 11
571.7693979924895
 21
396.8465873835012
 31
0.0
  0
LINE
  5
F5E
330
A
100
AcDbEntity
  8
MODEL
  6
Continuous
100
AcDbLine
 10
571.7693979924895
 20
369.3465873835012
 30
0.0
 11
572.7693979924895
 21
369.3465873835012
 31
0.0
  0
LINE
  5
F5F
330
A
100
AcDbEntity
  8
MODEL
  6
Continuous
100
AcDbLine
 10
571.7693979924895
 20
396.8465873835012
 30
0.0
 11
571.7693979924895
 21
369.3465873835012
 31
0.0
  0
LINE
  5
F60
330
A
100
AcDbEntity
  8
MODEL
  6
Continuous
100
AcDbLine
 10
571.7693979924895
 20
396.8465873835012
 30
0.0
 11
571.7693979924895
 21
397.8465873835012
 31
0.0
  0
LINE
  5
F61
330
A
100
AcDbEntity
  8
MODEL
  6
Continuous
100
AcDbLine
 10
571.7693979924895
 20
397.8465873835012
 30
0.0
 11
572.7693979924886
 21
397.8465873835012
 31
0.0
  0
LINE
  5
F62
330
A
100
AcDbEntity
  8
MODEL
  6
Continuous
100
AcDbLine
 10
572.7693979924895
 20
368.3465873835012
 30
0.0
 11
571.7693979924895
 21
368.3465873835012
 31
0.0
  0
LINE
  5
F63
330
A
100
AcDbEntity
  8
MODEL
  6
Continuous
100
AcDbLine
 10
571.7693979924895
 20
368.3465873835012
 30
0.0
 11
571.7693979924895
 21
369.3465873835012
 31
0.0
  0
LINE
  5
F64
330
A
100
AcDbEntity
  8
MODEL
  6
Continuous
100
AcDbLine
 10
562.7693979924895
 20
397.8465873835012
 30
0.0
 11
563.7693979924895
 21
397.8465873835012
 31
0.0
  0
LINE
  5
F65
330
A
100
AcDbEntity
  8
MODEL
  6
Continuous
100
AcDbLine
 10
563.7693979924895
 20
397.8465873835012
 30
0.0
 11
563.7693979924895
 21
396.8465873835012
 31
0.0
  0
LINE
  5
F66
330
A
100
AcDbEntity
  8
MODEL
  6
Continuous
100
AcDbLine
 10
563.7693979924895
 20
396.8465873835012
 30
0.0
 11
562.7693979924895
 21
396.8465873835012
 31
0.0
  0
LINE
  5
F67
330
A
100
AcDbEntity
  8
MODEL
  6
Continuous
100
AcDbLine
 10
562.7693979924895
 20
369.3465873835012
 30
0.0
 11
563.7693979924904
 21
369.3465873835012
 31
0.0
  0
LINE
  5
F68
330
A
100
AcDbEntity
  8
MODEL
  6
Continuous
100
AcDbLine
 10
563.7693979924904
 20
369.3465873835012
 30
0.0
 11
563.7693979924895
 21
396.8465873835012
 31
0.0
  0
LINE
  5
F69
330
A
100
AcDbEntity
  8
MODEL
  6
Continuous
100
AcDbLine
 10
563.7693979924904
 20
368.3465873835012
 30
0.0
 11
562.7693979924895
 21
368.3465873835012
 31
0.0
  0
LINE
  5
F6A
330
A
100
AcDbEntity
  8
MODEL
  6
Continuous
100
AcDbLine
 10
563.7693979924904
 20
369.3465873835012
 30
0.0
 11
563.7693979924904
 21
368.3465873835012
 31
0.0
  0
LINE
  5
F6B
330
A
100
AcDbEntity
  8
MODEL
  6
Continuous
100
AcDbLine
 10
562.7693979924895
 20
997.8465873835016
 30
0.0
 11
563.7693979924895
 21
997.8465873835016
 31
0.0
  0
LINE
  5
F6C
330
A
100
AcDbEntity
  8
MODEL
  6
Continuous
100
AcDbLine
 10
563.7693979924895
 20
997.8465873835016
 30
0.0
 11
563.7693979924895
 21
996.8465873835016
 31
0.0
  0
LINE
  5
F6D
330
A
100
AcDbEntity
  8
MODEL
  6
Continuous
100
AcDbLine
 10
563.7693979924895
 20
996.8465873835016
 30
0.0
 11
562.7693979924895
 21
996.8465873835016
 31
0.0
  0
LINE
  5
F6E
330
A
100
AcDbEntity
  8
MODEL
  6
Continuous
100
AcDbLine
 10
562.7693979924895
 20
969.3465873835017
 30
0.0
 11
563.7693979924904
 21
969.3465873835017
 31
0.0
  0
LINE
  5
F6F
330
A
100
AcDbEntity
  8
MODEL
  6
Continuous
100
AcDbLine
 10
563.7693979924904
 20
969.3465873835017
 30
0.0
 11
563.7693979924895
 21
996.8465873835016
 31
0.0
  0
LINE
  5
F70
330
A
100
AcDbEntity
  8
MODEL
  6
Continuous
100
AcDbLine
 10
563.7693979924904
 20
968.3465873835017
 30
0.0
 11
562.7693979924895
 21
968.3465873835017
 31
0.0
  0
LINE
  5
F71
330
A
100
AcDbEntity
  8
MODEL
  6
Continuous
100
AcDbLine
 10
563.7693979924904
 20
969.3465873835017
 30
0.0
 11
563.7693979924904
 21
968.3465873835017
 31
0.0
  0
LINE
  5
F72
330
A
100
AcDbEntity
  8
MODEL
  6
Continuous
100
AcDbLine
 10
562.7693979924895
 20
397.8465873835012
 30
0.0
 11
508.7693979924895
 21
397.8465873835012
 31
0.0
  0
LINE
  5
F73
330
A
100
AcDbEntity
  8
MODEL
  6
Continuous
100
AcDbLine
 10
562.7693979924895
 20
368.8465873835012
 30
0.0
 11
562.7693979924895
 21
397.8465873835012
 31
0.0
  0
LINE
  5
F74
330
A
100
AcDbEntity
  8
MODEL
  6
Continuous
100
AcDbLine
 10
508.7693979924895
 20
368.8465873835012
 30
0.0
 11
562.7693979924895
 21
368.8465873835012
 31
0.0
  0
LINE
  5
F75
330
A
100
AcDbEntity
  8
MODEL
  6
Continuous
100
AcDbLine
 10
508.7693979924895
 20
398.3465873835012
 30
0.0
 11
562.7693979924895
 21
398.3465873835012
 31
0.0
  0
LINE
  5
F76
330
A
100
AcDbEntity
  8
MODEL
  6
Continuous
100
AcDbLine
 10
562.7693979924895
 20
398.3465873835012
 30
0.0
 11
562.7693979924895
 21
397.8465873835012
 31
0.0
  0
LINE
  5
F77
330
A
100
AcDbEntity
  8
MODEL
  6
Continuous
100
AcDbLine
 10
562.7693979924895
 20
368.8465873835012
 30
0.0
 11
562.7693979924895
 21
368.3465873835012
 31
0.0
  0
LINE
  5
F78
330
A
100
AcDbEntity
  8
MODEL
  6
Continuous
100
AcDbLine
 10
562.7693979924895
 20
368.3465873835012
 30
0.0
 11
508.7693979924895
 21
368.3465873835012
 31
0.0
  0
LINE
  5
F79
330
A
100
AcDbEntity
  8
MODEL
  6
Continuous
100
AcDbLine
 10
626.7693979924895
 20
397.8465873835012
 30
0.0
 11
572.7693979924895
 21
397.8465873835012
 31
0.0
  0
LINE
  5
F7A
330
A
100
AcDbEntity
  8
MODEL
  6
Continuous
100
AcDbLine
 10
572.7693979924895
 20
397.8465873835012
 30
0.0
 11
572.7693979924895
 21
398.3465873835012
 31
0.0
  0
LINE
  5
F7B
330
A
100
AcDbEntity
  8
MODEL
  6
Continuous
100
AcDbLine
 10
572.7693979924895
 20
398.3465873835012
 30
0.0
 11
626.7693979924895
 21
398.3465873835012
 31
0.0
  0
LINE
  5
F7C
330
A
100
AcDbEntity
  8
MODEL
  6
Continuous
100
AcDbLine
 10
572.7693979924895
 20
368.8465873835012
 30
0.0
 11
626.7693979924895
 21
368.8465873835012
 31
0.0
  0
LINE
  5
F7D
330
A
100
AcDbEntity
  8
MODEL
  6
Continuous
100
AcDbLine
 10
572.7693979924895
 20
397.8465873835012
 30
0.0
 11
572.7693979924895
 21
368.8465873835012
 31
0.0
  0
LINE
  5
F7E
330
A
100
AcDbEntity
  8
MODEL
  6
Continuous
100
AcDbLine
 10
626.7693979924895
 20
368.3465873835012
 30
0.0
 11
572.7693979924895
 21
368.3465873835012
 31
0.0
  0
LINE
  5
F7F
330
A
100
AcDbEntity
  8
MODEL
  6
Continuous
100
AcDbLine
 10
572.7693979924895
 20
368.3465873835012
 30
0.0
 11
572.7693979924895
 21
368.8465873835012
 31
0.0
  0
LINE
  5
F80
330
A
100
AcDbEntity
  8
MODEL
  6
Continuous
100
AcDbLine
 10
562.7693979924895
 20
997.8465873835016
 30
0.0
 11
508.7693979924895
 21
997.8465873835016
 31
0.0
  0
LINE
  5
F81
330
A
100
AcDbEntity
  8
MODEL
  6
Continuous
100
AcDbLine
 10
562.7693979924895
 20
968.8465873835017
 30
0.0
 11
562.7693979924895
 21
997.8465873835016
 31
0.0
  0
LINE
  5
F82
330
A
100
AcDbEntity
  8
MODEL
  6
Continuous
100
AcDbLine
 10
508.7693979924895
 20
968.8465873835017
 30
0.0
 11
562.7693979924895
 21
968.8465873835017
 31
0.0
  0
LINE
  5
F83
330
A
100
AcDbEntity
  8
MODEL
  6
Continuous
100
AcDbLine
 10
508.7693979924895
 20
998.3465873835016
 30
0.0
 11
562.7693979924895
 21
998.3465873835016
 31
0.0
  0
LINE
  5
F84
330
A
100
AcDbEntity
  8
MODEL
  6
Continuous
100
AcDbLine
 10
562.7693979924895
 20
998.3465873835016
 30
0.0
 11
562.7693979924895
 21
997.8465873835016
 31
0.0
  0
LINE
  5
F85
330
A
100
AcDbEntity
  8
MODEL
  6
Continuous
100
AcDbLine
 10
562.7693979924895
 20
968.8465873835017
 30
0.0
 11
562.7693979924895
 21
968.3465873835017
 31
0.0
  0
LINE
  5
F86
330
A
100
AcDbEntity
  8
MODEL
  6
Continuous
100
AcDbLine
 10
562.7693979924895
 20
968.3465873835017
 30
0.0
 11
508.7693979924895
 21
968.3465873835017
 31
0.0
  0
LINE
  5
F87
330
A
100
AcDbEntity
  8
MODEL
  6
Continuous
100
AcDbLine
 10
626.7693979924895
 20
997.8465873835016
 30
0.0
 11
572.7693979924895
 21
997.8465873835016
 31
0.0
  0
LINE
  5
F88
330
A
100
AcDbEntity
  8
MODEL
  6
Continuous
100
AcDbLine
 10
572.7693979924895
 20
997.8465873835016
 30
0.0
 11
572.7693979924895
 21
998.3465873835016
 31
0.0
  0
LINE
  5
F89
330
A
100
AcDbEntity
  8
MODEL
  6
Continuous
100
AcDbLine
 10
572.7693979924895
 20
998.3465873835016
 30
0.0
 11
626.7693979924895
 21
998.3465873835016
 31
0.0
  0
LINE
  5
F8A
330
A
100
AcDbEntity
  8
MODEL
  6
Continuous
100
AcDbLine
 10
572.7693979924895
 20
968.8465873835006
 30
0.0
 11
626.7693979924895
 21
968.8465873835006
 31
0.0
  0
LINE
  5
F8B
330
A
100
AcDbEntity
  8
MODEL
  6
Continuous
100
AcDbLine
 10
572.7693979924895
 20
997.8465873835016
 30
0.0
 11
572.7693979924895
 21
968.8465873835006
 31
0.0
  0
LINE
  5
F8C
330
A
100
AcDbEntity
  8
MODEL
  6
Continuous
100
AcDbLine
 10
626.7693979924895
 20
968.3465873835017
 30
0.0
 11
572.7693979924895
 21
968.3465873835017
 31
0.0
  0
LINE
  5
F8D
330
A
100
AcDbEntity
  8
MODEL
  6
Continuous
100
AcDbLine
 10
572.7693979924895
 20
968.3465873835017
 30
0.0
 11
572.7693979924895
 21
968.8465873835006
 31
0.0
  0
LINE
  5
F8E
330
A
100
AcDbEntity
  8
MODEL
  6
Continuous
100
AcDbLine
 10
626.7693979924895
 20
998.4465873835015
 30
0.0
 11
632.9693979924903
 21
998.4465873835015
 31
0.0
  0
LINE
  5
F8F
330
A
100
AcDbEntity
  8
MODEL
  6
Continuous
100
AcDbLine
 10
632.9693979924903
 20
998.4465873835015
 30
0.0
 11
632.9693979924903
 21
997.9465873835015
 31
0.0
  0
LINE
  5
F90
330
A
100
AcDbEntity
  8
MODEL
  6
Continuous
100
AcDbLine
 10
632.9693979924903
 20
997.9465873835015
 30
0.0
 11
626.7693979924895
 21
997.9465873835015
 31
0.0
  0
LINE
  5
F91
330
A
100
AcDbEntity
  8
MODEL
  6
Continuous
100
AcDbLine
 10
626.7693979924895
 20
997.9465873835015
 30
0.0
 11
626.7693979924895
 21
998.4465873835015
 31
0.0
  0
LINE
  5
F92
330
A
100
AcDbEntity
  8
MODEL
  6
Continuous
100
AcDbLine
 10
632.9693979924903
 20
997.9465873835015
 30
0.0
 11
632.9693979924903
 21
368.7465873835007
 31
0.0
  0
LINE
  5
F93
330
A
100
AcDbEntity
  8
MODEL
  6
Continuous
100
AcDbLine
 10
626.7693979924895
 20
368.7465873835007
 30
0.0
 11
632.9693979924903
 21
368.7465873835007
 31
0.0
  0
LINE
  5
F94
330
A
100
AcDbEntity
  8
MODEL
  6
Continuous
100
AcDbLine
 10
626.7693979924895
 20
997.9465873835015
 30
0.0
 11
626.7693979924895
 21
368.7465873835007
 31
0.0
  0
LINE
  5
F95
330
A
100
AcDbEntity
  8
MODEL
  6
Continuous
100
AcDbLine
 10
632.9693979924903
 20
368.2465873835007
 30
0.0
 11
626.7693979924895
 21
368.2465873835007
 31
0.0
  0
LINE
  5
F96
330
A
100
AcDbEntity
  8
MODEL
  6
Continuous
100
AcDbLine
 10
632.9693979924903
 20
368.7465873835007
 30
0.0
 11
632.9693979924903
 21
368.2465873835007
 31
0.0
  0
LINE
  5
F97
330
A
100
AcDbEntity
  8
MODEL
  6
Continuous
100
AcDbLine
 10
626.7693979924895
 20
368.2465873835007
 30
0.0
 11
626.7693979924895
 21
368.7465873835007
 31
0.0
  0
LINE
  5
F98
330
A
100
AcDbEntity
  8
MODEL
  6
Continuous
100
AcDbLine
 10
508.7693979924895
 20
997.9465873835015
 30
0.0
 11
502.5693979924906
 21
997.9465873835015
 31
0.0
  0
LINE
  5
F99
330
A
100
AcDbEntity
  8
MODEL
  6
Continuous
100
AcDbLine
 10
502.5693979924906
 20
998.4465873835015
 30
0.0
 11
508.7693979924895
 21
998.4465873835015
 31
0.0
  0
LINE
  5
F9A
330
A
100
AcDbEntity
  8
MODEL
  6
Continuous
100
AcDbLine
 10
508.7693979924895
 20
998.4465873835015
 30
0.0
 11
508.7693979924895
 21
997.9465873835015
 31
0.0
  0
LINE
  5
F9B
330
A
100
AcDbEntity
  8
MODEL
  6
Continuous
100
AcDbLine
 10
502.5693979924906
 20
997.9465873835015
 30
0.0
 11
502.5693979924906
 21
998.4465873835015
 31
0.0
  0
LINE
  5
F9C
330
A
100
AcDbEntity
  8
MODEL
  6
Continuous
100
AcDbLine
 10
502.5693979924906
 20
368.7465873835013
 30
0.0
 11
508.7693979924895
 21
368.7465873835013
 31
0.0
  0
LINE
  5
F9D
102
{ACAD_REACTORS
330
295C
102
}
330
A
100
AcDbEntity
  8
MODEL
  6
Continuous
100
AcDbLine
 10
508.7693979924895
 20
368.7465873835013
 30
0.0
 11
508.7693979924895
 21
997.9465873835015
 31
0.0
  0
LINE
  5
F9E
102
{ACAD_REACTORS
330
295C
102
}
330
A
100
AcDbEntity
  8
MODEL
  6
Continuous
100
AcDbLine
 10
502.5693979924906
 20
368.7465873835013
 30
0.0
 11
502.5693979924906
 21
997.9465873835015
 31
0.0
  0
LINE
  5
F9F
330
A
100
AcDbEntity
  8
MODEL
  6
Continuous
100
AcDbLine
 10
508.7693979924895
 20
368.2465873835007
 30
0.0
 11
502.5693979924906
 21
368.2465873835007
 31
0.0
  0
LINE
  5
FA0
330
A
100
AcDbEntity
  8
MODEL
  6
Continuous
100
AcDbLine
 10
508.7693979924895
 20
368.7465873835013
 30
0.0
 11
508.7693979924895
 21
368.2465873835007
 31
0.0
  0
LINE
  5
FA1
330
A
100
AcDbEntity
  8
MODEL
  6
Continuous
100
AcDbLine
 10
502.5693979924906
 20
368.2465873835007
 30
0.0
 11
502.5693979924906
 21
368.7465873835013
 31
0.0
  0
DIMENSION
  5
FA7
330
A
100
AcDbEntity
  8
寸法
100
AcDbDimension
  2
*D10
 10
571.7693979924886
 20
1023.75227209886
 30
0.0
 11
653.6813979924887
 21
1023.75227209886
 31
0.0
 70
   160
  1
ガラス厚み 8～12mm
 71
     1
 42
7.999999999999091
 73
     0
 74
     1
 75
     1
  3
tfrom線あり
100
AcDbAlignedDimension
 13
563.7693979924895
 23
996.8465873835007
 33
0.0
 14
571.7693979924886
 24
996.8465873835007
 34
0.0
100
AcDbRotatedDimension
1001
ACAD
1000
DSTYLE
1002
{
1070
   172
1070
     1
1002
}
  0
DIMENSION
  5
1037
330
A
100
AcDbEntity
  8
寸法
 48
0.05
100
AcDbDimension
  2
*D12
 10
294.5394591472977
 20
368.4465873835013
 30
0.0
 11
283.5394591472977
 21
683.4465873835014
 31
0.0
 70
    32
 71
     5
 42
630.0000000000002
 73
     0
 74
     0
 75
     0
  3
tfrom線あり
100
AcDbAlignedDimension
 13
232.4084972216995
 23
998.4465873835015
 33
0.0
 14
232.4084972216995
 24
368.4465873835013
 34
0.0
 50
90.0
100
AcDbRotatedDimension
  0
INSERT
  5
11CD
330
A
100
AcDbEntity
  8
レイヤー 1
100
AcDbBlockReference
  2
block 2
 10
388.4412316638487
 20
-257.1325050469738
 30
0.0
  0
INSERT
  5
162D
330
A
100
AcDbEntity
  8
レイヤー 1
100
AcDbBlockReference
  2
block 2
 10
864.1360510698319
 20
-267.2370527388924
 30
0.0
  0
MTEXT
  5
1912
330
A
100
AcDbEntity
  8
TEMPLATE
390
1D
100
AcDbMText
 10
62.62717263801819
 20
94.96851045154752
 30
0.0
 40
12.21630859375
 41
0.0
 46
12.39955322265625
 71
     1
 72
     1
  1
{クローム}
  7
ＭＳ ゴシック
 73
     1
 44
0.7828267384257843
1001
ACAD
1000
ACAD_MTEXT_DEFINED_HEIGHT_BEGIN
1070
    46
1040
12.39955322265625
1000
ACAD_MTEXT_DEFINED_HEIGHT_END
  0
MTEXT
  5
2293
102
{ACAD_XDICTIONARY
360
2295
102
}
330
A
100
AcDbEntity
  8
DIM
 48
0.05
100
AcDbMText
 10
37.93237882135193
 20
43.48927212713645
 30
0.0
 40
11.0
 41
0.0
 46
11.0
 71
     1
 72
     1
  1
{20170908N}
  7
ＭＳ ゴシック
 73
     1
 44
1.0
1001
ACAD
1000
ACAD_MTEXT_DEFINED_HEIGHT_BEGIN
1070
    46
1040
11.0
1000
ACAD_MTEXT_DEFINED_HEIGHT_END
  0
LINE
  5
263F
330
A
100
AcDbEntity
  8
MODEL
 48
0.05
100
AcDbLine
 10
217.7084972216996
 20
1153.12597290455
 30
0.0
 11
217.7084972216996
 21
1214.325972904549
 31
0.0
  0
LINE
  5
2640
330
A
100
AcDbEntity
  8
MODEL
 48
0.05
100
AcDbLine
 10
232.9084972217004
 20
1153.12597290455
 30
0.0
 11
232.9084972217004
 21
1214.325972904549
 31
0.0
  0
LINE
  5
2732
330
A
100
AcDbEntity
  8
MODEL
 48
0.05
100
AcDbLine
 10
232.9084972217004
 20
1153.12597290455
 30
0.0
 11
217.7084972216996
 21
1153.12597290455
 31
0.0
  0
LINE
  5
2733
330
A
100
AcDbEntity
  8
MODEL
 48
0.05
100
AcDbLine
 10
232.9084972217004
 20
1159.325972904549
 30
0.0
 11
217.7084972216996
 21
1159.325972904549
 31
0.0
  0
LINE
  5
2734
330
A
100
AcDbEntity
  8
MODEL
 48
0.05
100
AcDbLine
 10
232.9084972217004
 20
1213.325972904549
 30
0.0
 11
217.7084972216996
 21
1213.325972904549
 31
0.0
  0
LINE
  5
2735
330
A
100
AcDbEntity
  8
MODEL
 48
0.05
100
AcDbLine
 10
232.9084972217004
 20
1214.325972904549
 30
0.0
 11
217.7084972216996
 21
1214.325972904549
 31
0.0
  0
LINE
  5
2736
330
A
100
AcDbEntity
  8
MODEL
 48
0.05
100
AcDbLine
 10
232.9084972217004
 20
1222.325972904549
 30
0.0
 11
217.7084972216996
 21
1222.325972904549
 31
0.0
  0
LINE
  5
2737
330
A
100
AcDbEntity
  8
MODEL
 48
0.05
100
AcDbLine
 10
232.9084972217004
 20
1223.325972904549
 30
0.0
 11
217.7084972216996
 21
1223.325972904549
 31
0.0
  0
LINE
  5
2738
330
A
100
AcDbEntity
  8
MODEL
 48
0.05
100
AcDbLine
 10
232.9084972217004
 20
1277.325972904549
 30
0.0
 11
217.7084972216996
 21
1277.325972904549
 31
0.0
  0
LINE
  5
2739
330
A
100
AcDbEntity
  8
MODEL
 48
0.05
100
AcDbLine
 10
232.9084972217004
 20
1283.525972904549
 30
0.0
 11
217.7084972216996
 21
1283.525972904549
 31
0.0
  0
LINE
  5
273E
330
A
100
AcDbEntity
  8
MODEL
  6
Continuous
100
AcDbLine
 10
227.8084972216999
 20
1214.325972904549
 30
0.0
 11
227.8084972216999
 21
1222.325972904548
 31
0.0
  0
LINE
  5
273F
330
A
100
AcDbEntity
  8
MODEL
  6
Continuous
100
AcDbLine
 10
222.8084972217002
 20
1222.325972904548
 30
0.0
 11
222.8084972217002
 21
1214.325972904548
 31
0.0
  0
LINE
  5
2740
330
A
100
AcDbEntity
  8
MODEL
 48
0.05
100
AcDbLine
 10
232.9084972217004
 20
1222.325972904549
 30
0.0
 11
232.9084972217004
 21
1283.525972904549
 31
0.0
  0
LINE
  5
2741
330
A
100
AcDbEntity
  8
MODEL
 48
0.05
100
AcDbLine
 10
217.7084972216996
 20
1222.325972904549
 30
0.0
 11
217.7084972216996
 21
1283.525972904549
 31
0.0
  0
DIMENSION
  5
2745
330
A
100
AcDbEntity
  8
寸法
 48
0.05
100
AcDbDimension
  2
*D41
 10
232.9084972217004
 20
1114.136926434274
 30
0.0
 11
225.2084972216996
 21
1114.136926434274
 31
0.0
 70
   160
 71
     5
 42
15.20000000000078
 73
     0
 74
     0
 75
     0
  3
tfrom線あり
100
AcDbAlignedDimension
 13
217.7084972216996
 23
1153.12597290455
 33
0.0
 14
232.9084972217004
 24
1153.12597290455
 34
0.0
100
AcDbRotatedDimension
1001
ACAD
1000
DSTYLE
1002
{
1070
   172
1070
     1
1002
}
  0
LINE
  5
2781
330
A
100
AcDbEntity
  8
DIM
  6
HIDDEN
 48
0.015
100
AcDbLine
 10
232.9084972217004
 20
968.3465873835017
 30
0.0
 11
217.7084972216996
 21
968.3465873835017
 31
0.0
  0
LINE
  5
2788
330
A
100
AcDbEntity
  8
DIM
  6
HIDDEN
 48
0.015
100
AcDbLine
 10
232.9084972217004
 20
398.3465873835006
 30
0.0
 11
217.7084972216996
 21
398.3465873835006
 31
0.0
  0
DIMENSION
  5
27E4
330
A
100
AcDbEntity
  8
寸法
100
AcDbDimension
  2
*D46
 10
272.3576830025463
 20
1214.325972904549
 30
0.0
 11
272.3576830025461
 21
1183.725972904547
 31
0.0
 70
   160
 71
     1
 42
61.20000000000095
 73
     0
 74
     0
 75
     0
 52
-90.00000000000001
  3
tfrom線あり
100
AcDbAlignedDimension
 13
232.9084972217004
 23
1153.125972904548
 33
0.0
 14
232.9084972217004
 24
1214.325972904549
 34
0.0
 50
89.99999999999974
100
AcDbRotatedDimension
  0
DIMENSION
  5
287B
330
A
100
AcDbEntity
  8
寸法
 48
0.05
100
AcDbDimension
  2
*D49
 10
186.9872888196443
 20
968.3465873835017
 30
0.0
 11
175.9872888196443
 21
983.3965873835016
 31
0.0
 70
    32
 71
     5
 42
30.0999999999998
 73
     0
 74
     0
 75
     0
 52
-90.0
  3
tfrom線あり
100
AcDbAlignedDimension
 13
218.2084972216996
 23
998.4465873835015
 33
0.0
 14
217.7084972216988
 24
968.3465873835017
 34
0.0
 50
90.00000000000001
100
AcDbRotatedDimension
  0
LINE
  5
2913
330
A
100
AcDbEntity
  8
CENTER
100
AcDbLine
 10
829.9456065471816
 20
983.3465873835012
 30
0.0
 11
849.0383933534356
 21
983.3465873835012
 31
0.0
  0
LINE
  5
2914
330
A
100
AcDbEntity
  8
CENTER
100
AcDbLine
 10
839.4919999503088
 20
973.8001939803742
 30
0.0
 11
839.4919999503088
 21
992.8929807866282
 31
0.0
  0
CIRCLE
  5
2915
102
{ACAD_REACTORS
330
2918
102
}
330
A
100
AcDbEntity
  8
モデル
100
AcDbCircle
 10
839.4919999503088
 20
383.3465873835012
 30
0.0
 40
4.0
  0
LINE
  5
2916
330
A
100
AcDbEntity
  8
CENTER
100
AcDbLine
 10
829.9456065471816
 20
383.3465873835012
 30
0.0
 11
849.0383933534356
 21
383.3465873835012
 31
0.0
  0
LINE
  5
2917
330
A
100
AcDbEntity
  8
CENTER
100
AcDbLine
 10
839.4919999503088
 20
392.8929807866282
 30
0.0
 11
839.4919999503088
 21
373.8001939803742
 31
0.0
  0
HATCH
  5
2918
330
A
100
AcDbEntity
  8
モデル
100
AcDbHatch
 10
0.0
 20
0.0
 30
0.0
210
0.0
220
0.0
230
1.0
  2
ANSI31
 70
     0
 71
     1
 91
        1
 92
        1
 93
        1
 72
     2
 10
839.4919999503088
 20
383.3465873835012
 40
4.0
 50
0.0
 51
360.0
 73
     1
 97
        1
330
2915
 75
     0
 76
     1
 52
0.0
 41
0.5
 77
     0
 78
     1
 53
45.0
 43
-20.22596439169138
 44
0.0
 45
-1.122532015133644
 46
1.122532015133644
 79
     0
 98
        1
 10
338.3633699224217
 20
-781.5328484080705
1001
ACAD
1010
0.0
1020
0.0
1030
0.0
  0
CIRCLE
  5
2919
102
{ACAD_REACTORS
330
291A
102
}
330
A
100
AcDbEntity
  8
モデル
100
AcDbCircle
 10
839.4919999503088
 20
983.3465873835012
 30
0.0
 40
4.0
  0
HATCH
  5
291A
330
A
100
AcDbEntity
  8
モデル
100
AcDbHatch
 10
0.0
 20
0.0
 30
0.0
210
0.0
220
0.0
230
1.0
  2
ANSI31
 70
     0
 71
     1
 91
        1
 92
        1
 93
        1
 72
     2
 10
839.4919999503088
 20
983.3465873835012
 40
4.0
 50
0.0
 51
360.0
 73
     1
 97
        1
330
2919
 75
     0
 76
     1
 52
0.0
 41
0.5
 77
     0
 78
     1
 53
45.0
 43
-20.22596439169138
 44
0.0
 45
-1.122532015133644
 46
1.122532015133644
 79
     0
 98
        1
 10
338.3633699224217
 20
-181.5328484080704
1001
ACAD
1010
0.0
1020
0.0
1030
0.0
  0
TEXT
  5
291B
330
A
100
AcDbEntity
  8
寸法
100
AcDbText
 10
836.8828101101752
 20
1029.993973845915
 30
0.0
 40
12.0
  1
<切欠図>
  7
ＭＳ ゴシック
100
AcDbText
  0
DIMENSION
  5
291C
330
A
100
AcDbEntity
  8
寸法
100
AcDbDimension
  2
*D51
 10
903.0432838836252
 20
383.3465873835012
 30
0.0
 11
892.0432838836252
 21
683.3465873835012
 31
0.0
 70
    32
 71
     5
 42
600.0
 73
     0
 74
     0
 75
     0
  3
tfrom線あり
100
AcDbAlignedDimension
 13
849.0383933534356
 23
983.3465873835012
 33
0.0
 14
849.0383933534356
 24
383.3465873835012
 34
0.0
 50
90.0
100
AcDbRotatedDimension
  0
TEXT
  5
291D
330
A
100
AcDbEntity
  8
寸法
100
AcDbText
 10
813.0614685773713
 20
351.884173241973
 30
0.0
 40
12.0
  1
ø8
 50
360.0
  7
ＭＳ ゴシック
100
AcDbText
  0
LINE
  5
2943
330
A
100
AcDbEntity
  8
寸法
 48
0.05
100
AcDbLine
 10
837.2664917106888
 20
380.0228676186318
 30
0.0
 11
826.8697193545895
 21
366.0987437001796
 31
0.0
  0
DIMENSION
  5
295A
102
{ACAD_REACTORS
330
295C
102
}
102
{ACAD_XDICTIONARY
360
295B
102
}
330
A
100
AcDbEntity
  8
寸法
 48
0.05
100
AcDbDimension
  2
*D52
 10
508.7693979924895
 20
683.3465873835014
 30
0.0
 11
490.5273979924906
 21
683.3465873835014
 31
0.0
 70
   160
 71
     5
 42
6.199999999998909
 73
     0
 74
     1
 75
     1
  3
tfrom線あり
100
AcDbAlignedDimension
 13
502.5693979924906
 23
683.3465873835014
 33
0.0
 14
508.7693979924895
 24
683.3465873835014
 34
0.0
100
AcDbRotatedDimension
1001
ACAD
1000
DSTYLE
1002
{
1070
    76
1070
     1
1070
    75
1070
     1
1070
   172
1070
     1
1002
}
  0
TEXT
  5
2992
330
A
100
AcDbEntity
  8
寸法
100
AcDbText
 10
813.0614685773713
 20
951.884173241973
 30
0.0
 40
12.0
  1
ø8
 50
360.0
  7
ＭＳ ゴシック
100
AcDbText
  0
LINE
  5
2993
330
A
100
AcDbEntity
  8
寸法
 48
0.05
100
AcDbLine
 10
837.2664917106888
 20
980.0228676186318
 30
0.0
 11
826.8697193545895
 21
966.0987437001796
 31
0.0
  0
DIMENSION
  5
2E01
330
A
100
AcDbEntity
  8
寸法
100
AcDbDimension
  2
*D53
 10
686.9742885226799
 20
383.3465873835012
 30
0.0
 11
675.9742885226799
 21
683.3465873835012
 31
0.0
 70
    32
 71
     5
 42
600.0
 73
     0
 74
     0
 75
     0
  3
tfrom線あり
100
AcDbAlignedDimension
 13
632.9693979924903
 23
983.3465873835012
 33
0.0
 14
632.9693979924903
 24
383.3465873835012
 34
0.0
 50
90.0
100
AcDbRotatedDimension
  0
VIEWPORT
  5
349
330
B
100
AcDbEntity
 67
     1
  8
0
100
AcDbViewport
 10
202.5
 20
128.5
 30
0.0
 40
486.0
 41
308.4
 68
     1
 69
     1
 12
202.5
 22
128.5
 13
0.0
 23
0.0
 14
0.5
 24
0.5
 15
0.0
 25
0.0
 16
0.0
 26
0.0
 36
1.0
 17
0.0
 27
0.0
 37
0.0
 42
50.0
 43
0.0
 44
0.0
 45
308.4
 50
0.0
 51
0.0
 72
   100
 90
   557152
  1

281
     0
 71
     1
 74
     0
110
0.0
120
0.0
130
0.0
111
1.0
121
0.0
131
0.0
112
0.0
122
1.0
132
0.0
 79
     0
146
0.0
170
     0
 61
     5
348
26C
292
     1
282
     1
141
0.0
142
0.0
 63
   256
  0
VIEWPORT
  5
34A
330
B
100
AcDbEntity
 67
     1
  8
0
100
AcDbViewport
 10
202.5
 20
128.5
 30
0.0
 40
324.0
 41
205.6
 68
     2
 69
     2
 12
986.6781359294573
 22
1427.077061889956
 13
0.0
 23
0.0
 14
0.5
 24
0.5
 15
0.0
 25
0.0
 16
0.0
 26
0.0
 36
1.0
 17
0.0
 27
0.0
 37
0.0
 42
50.0
 43
0.0
 44
0.0
 45
2890.021615685494
 50
0.0
 51
0.0
 72
   100
 90
   557152
  1

281
     0
 71
     1
 74
     0
110
0.0
120
0.0
130
0.0
111
1.0
121
0.0
131
0.0
112
0.0
122
1.0
132
0.0
 79
     0
146
0.0
170
     0
 61
     5
348
26C
292
     1
282
     1
141
0.0
142
0.0
 63
   256
  0
ENDSEC
  0
SECTION
  2
OBJECTS
  0
DICTIONARY
  5
19
330
0
100
AcDbDictionary
281
     1
  3
ACAD_COLOR
350
674
  3
ACAD_DETAILVIEWSTYLE
350
BBF
  3
ACAD_FIELDLIST
350
2297
  3
ACAD_GROUP
350
1A
  3
ACAD_IMAGE_VARS
350
27B
  3
ACAD_LAYOUT
350
1E
  3
ACAD_MATERIAL
350
263
  3
ACAD_MLEADERSTYLE
350
336
  3
ACAD_MLINESTYLE
350
1B
  3
ACAD_PLOTSETTINGS
350
22
  3
ACAD_PLOTSTYLENAME
350
1F
  3
ACAD_SCALELIST
350
241
  3
ACAD_SECTIONVIEWSTYLE
350
BC0
  3
ACAD_TABLESTYLE
350
278
  3
ACAD_VISUALSTYLE
350
267
  3
ACDB_RECOMPOSE_DATA
350
2E53
  3
AcDbVariableDictionary
350
330
  3
APPDATA
350
27A
  3
DimOffsetDictionary
350
145A
  0
SUN
  5
904
330
15
100
AcDbSun
 90
        1
290
     0
 63
     7
421
 16777215
 40
1.0
291
     1
 91
  2455826
 92
 54000000
292
     0
 70
     2
 71
   256
280
     1
  0
DICTIONARY
  5
2E1
330
2
100
AcDbDictionary
280
     1
281
     1
  3
ACAD_LAYERSTATES
360
2E2
  3
ACLYDICTIONARY
360
178E
  0
DICTIONARY
  5
144E
330
A
100
AcDbDictionary
280
     1
281
     1
  3
ACAD_SORTENTS
360
144F
  0
DICTIONARY
  5
2295
330
2293
100
AcDbDictionary
280
     1
281
     1
  3
ACAD_FIELD
360
2299
  0
DICTIONARY
  5
295B
330
295A
100
AcDbDictionary
280
     1
281
     1
  3
ACAD_DIMASSOC
360
295C
  0
DICTIONARY
  5
674
102
{ACAD_REACTORS
330
19
102
}
330
19
100
AcDbDictionary
281
     1
  0
DICTIONARY
  5
BBF
102
{ACAD_REACTORS
330
19
102
}
330
19
100
AcDbDictionary
281
     1
  0
FIELDLIST
  5
2297
102
{ACAD_REACTORS
330
19
102
}
330
19
100
AcDbIdSet
 90
        2
330
2298
330
2294
100
AcDbFieldList
  0
DICTIONARY
  5
1A
102
{ACAD_REACTORS
330
19
102
}
330
19
100
AcDbDictionary
281
     1
  0
RASTERVARIABLES
  5
27B
102
{ACAD_REACTORS
330
19
102
}
330
19
100
AcDbRasterVariables
 90
        0
 70
     1
 71
     1
 72
     1
  0
DICTIONARY
  5
1E
102
{ACAD_REACTORS
330
19
102
}
330
19
100
AcDbDictionary
281
     1
  3
Layout1
350
21
  3
Model
350
20
  0
DICTIONARY
  5
263
102
{ACAD_REACTORS
330
19
102
}
330
19
100
AcDbDictionary
281
     1
  3
ByBlock
350
1003
  3
ByLayer
350
264
  3
Global
350
266
  0
DICTIONARY
  5
336
102
{ACAD_REACTORS
330
19
102
}
330
19
100
AcDbDictionary
281
     1
  3
Standard
350
D59
  0
DICTIONARY
  5
1B
102
{ACAD_REACTORS
330
19
102
}
330
19
100
AcDbDictionary
281
     1
  3
Standard
350
1C
  0
DICTIONARY
  5
22
102
{ACAD_REACTORS
330
19
102
}
330
19
100
AcDbDictionary
281
     1
  0
ACDBDICTIONARYWDFLT
  5
1F
102
{ACAD_REACTORS
330
19
102
}
330
19
100
AcDbDictionary
281
     1
  3
Normal
350
1D
100
AcDbDictionaryWithDefault
340
1D
  0
DICTIONARY
  5
241
102
{ACAD_REACTORS
330
19
102
}
330
19
100
AcDbDictionary
281
     1
  3
*A1
350
E8C
  3
A0
350
242
  3
A1
350
243
  3
A2
350
244
  3
A3
350
245
  3
A4
350
246
  3
A5
350
247
  3
A6
350
248
  3
A7
350
249
  3
A8
350
24A
  3
A9
350
24B
  3
B0
350
24C
  3
B1
350
24D
  3
B2
350
24E
  3
B3
350
24F
  3
B4
350
250
  3
B5
350
251
  3
B6
350
252
  3
B7
350
253
  3
B8
350
254
  3
B9
350
255
  3
C0
350
256
  3
C1
350
257
  3
C2
350
258
  3
C3
350
259
  3
C4
350
25A
  3
C5
350
25B
  3
C6
350
25C
  3
C7
350
25D
  3
C8
350
25E
  3
C9
350
25F
  3
D0
350
260
  3
D1
350
261
  3
D2
350
262
  0
DICTIONARY
  5
BC0
102
{ACAD_REACTORS
330
19
102
}
330
19
100
AcDbDictionary
281
     1
  0
DICTIONARY
  5
278
102
{ACAD_REACTORS
330
19
102
}
330
19
100
AcDbDictionary
281
     1
  3
Standard
350
279
  0
DICTIONARY
  5
267
102
{ACAD_REACTORS
330
19
102
}
330
19
100
AcDbDictionary
281
     1
  3
2dWireframe
350
26C
  3
3D Hidden
350
26E
  3
3dWireframe
350
26D
  3
Basic
350
26F
  3
Brighten
350
273
  3
ColorChange
350
277
  3
Conceptual
350
271
  3
Dim
350
272
  3
EdgeColorOff
350
8FE
  3
Facepattern
350
276
  3
Flat
350
268
  3
FlatWithEdges
350
269
  3
Gouraud
350
26A
  3
GouraudWithEdges
350
26B
  3
Hidden
350
8FB
  3
JitterOff
350
8FC
  3
Linepattern
350
275
  3
OverhangOff
350
8FD
  3
Realistic
350
270
  3
Shaded
350
903
  3
Shaded with edges
350
902
  3
Shades of Gray
350
8FF
  3
Sketchy
350
900
  3
Thicken
350
274
  3
Wireframe
350
8FA
  3
X-Ray
350
901
  0
XRECORD
  5
2E53
102
{ACAD_REACTORS
330
19
102
}
330
19
100
AcDbXrecord
280
     1
 90
        1
330
279
  0
DICTIONARY
  5
330
102
{ACAD_REACTORS
330
19
102
}
330
19
100
AcDbDictionary
281
     1
  3
CANNOSCALE
350
331
  3
CMLEADERSTYLE
350
D5E
  3
CTABLESTYLE
350
335
  3
HPTRANSPARENCY
350
D52
  3
XCLIPFRAME
350
896
  0
DICTIONARY
  5
27A
102
{ACAD_REACTORS
330
19
102
}
330
19
100
AcDbDictionary
281
     1
  0
DICTIONARY
  5
145A
102
{ACAD_REACTORS
330
19
102
}
330
19
100
AcDbDictionary
281
     1
  3
DIMRAILANGLE
350
2807
  3
DIMRAILFIRSTOFFSET
350
2805
  3
DIMRAILOFFSET
350
2806
  3
DIMRAILSENABLED
350
2808
  0
DICTIONARY
  5
2E2
102
{ACAD_REACTORS
330
2E1
102
}
330
2E1
100
AcDbDictionary
281
     1
  0
DICTIONARY
  5
178E
102
{ACAD_REACTORS
330
2E1
102
}
330
2E1
100
AcDbDictionary
281
     1
1001
ACAD
1000
<All
  0
SORTENTSTABLE
  5
144F
102
{ACAD_REACTORS
330
144E
102
}
330
144E
100
AcDbSortentsTable
330
A
331
0
  5
11B9
331
177
  5
17D
331
178
  5
17E
331
179
  5
180
331
17A
  5
181
331
17B
  5
182
331
17C
  5
184
331
17E
  5
185
331
180
  5
186
331
181
  5
187
331
182
  5
188
331
183
  5
189
331
184
  5
68C
331
185
  5
6B5
331
186
  5
7D9
331
187
  5
D69
331
188
  5
F49
331
189
  5
F4A
331
68C
  5
F4B
331
6B5
  5
F4C
331
7D9
  5
F4D
331
D69
  5
F4E
331
F49
  5
F4F
331
F4A
  5
F50
331
F4B
  5
F52
331
F4C
  5
F53
331
F4D
  5
F54
331
F4E
  5
F55
331
F4F
  5
F56
331
F50
  5
F57
331
F52
  5
F58
331
F53
  5
F59
331
F54
  5
F5A
331
F55
  5
F5B
331
F56
  5
F5C
331
F57
  5
F5D
331
F58
  5
F5E
331
F59
  5
F5F
331
F5A
  5
F60
331
F5B
  5
F61
331
F5C
  5
F62
331
F5D
  5
F63
331
F5E
  5
F64
331
F5F
  5
F65
331
F60
  5
F66
331
F61
  5
F67
331
F62
  5
F68
331
F63
  5
F69
331
F64
  5
F6A
331
F65
  5
F6B
331
F66
  5
F6C
331
F67
  5
F6D
331
F68
  5
F6E
331
F69
  5
F6F
331
F6A
  5
F70
331
F6B
  5
F71
331
F6C
  5
F72
331
F6D
  5
F73
331
F6E
  5
F74
331
F6F
  5
F75
331
F70
  5
F76
331
F71
  5
F77
331
F72
  5
F78
331
F73
  5
F79
331
F74
  5
F7A
331
F75
  5
F7B
331
F76
  5
F7C
331
F77
  5
F7D
331
F78
  5
F7E
331
F79
  5
F7F
331
F7A
  5
F80
331
F7B
  5
F81
331
F7C
  5
F82
331
F7D
  5
F83
331
F7E
  5
F84
331
F7F
  5
F85
331
F80
  5
F86
331
F81
  5
F87
331
F82
  5
F88
331
F83
  5
F89
331
F84
  5
F8A
331
F85
  5
F8B
331
F86
  5
F8C
331
F87
  5
F8D
331
F88
  5
F8E
331
F89
  5
F8F
331
F8A
  5
F90
331
F8B
  5
F91
331
F8C
  5
F92
331
F8D
  5
F93
331
F8E
  5
F94
331
F8F
  5
F95
331
F90
  5
F96
331
F91
  5
F97
331
F92
  5
F98
331
F93
  5
F99
331
F94
  5
F9A
331
F95
  5
F9B
331
F96
  5
F9C
331
F97
  5
F9D
331
F98
  5
F9E
331
F99
  5
F9F
331
F9A
  5
FA0
331
F9B
  5
FA1
331
F9C
  5
FA2
331
F9D
  5
FA3
331
F9E
  5
FA6
331
F9F
  5
FA7
331
FA0
  5
1019
331
FA1
  5
1037
331
FA7
  5
11C1
331
1037
  5
11D8
331
11CD
  5
1636
331
162D
  5
17CD
331
1912
  5
2293
331
2293
  5
22A1
  0
DICTIONARY
  5
2299
102
{ACAD_REACTORS
330
2295
102
}
330
2295
100
AcDbDictionary
280
     1
281
     1
  3
TEXT
360
2294
  0
DIMASSOC
  5
295C
102
{ACAD_REACTORS
330
295B
102
}
330
295B
100
AcDbDimAssoc
330
295A
 90
        3
 70
     0
 71
     1
  1
AcDbOsnapPointRef
 72
     2
331
F9E
 73
     0
 91
        0
 40
0.4999999999999998
 10
0.0
 20
0.0
 30
0.0
 75
     0
  1
AcDbOsnapPointRef
 72
     2
331
F9D
 73
     0
 91
        0
 40
0.4999999999999998
 10
0.0
 20
0.0
 30
0.0
 75
     0
  0
LAYOUT
  5
21
102
{ACAD_REACTORS
330
1E
102
}
330
1E
100
AcDbPlotSettings
  1

  2
none_device
  4
ISO_A3_(420.00_x_297.00_MM)
  6

 40
7.5
 41
20.0
 42
7.5
 43
20.0
 44
420.0
 45
297.0
 46
0.0
 47
0.0
 48
0.0
 49
0.0
140
0.0
141
0.0
142
1.0
143
1.0
 70
     0
 72
     1
 73
     0
 74
     0
  7

 75
     0
 76
     0
 77
     2
 78
   300
147
1.0
148
0.0
149
0.0
100
AcDbLayout
  1
Layout1
 70
     0
 71
     0
 10
-7.5
 20
-20.0
 11
412.5
 21
277.0
 12
0.0
 22
0.0
 32
0.0
 14
0.0
 24
0.0
 34
0.0
 15
0.0
 25
0.0
 35
0.0
146
0.0
 13
0.0
 23
0.0
 33
0.0
 16
0.0
 26
0.0
 36
0.0
 17
0.0
 27
0.0
 37
0.0
 76
     0
330
B
331
349
  0
LAYOUT
  5
20
102
{ACAD_REACTORS
330
1E
102
}
330
1E
100
AcDbPlotSettings
  1

  2
none_device
  4
ISO_A3_(420.00_x_297.00_MM)
  6

 40
7.5
 41
20.0
 42
7.5
 43
20.0
 44
420.0
 45
297.0
 46
0.0
 47
0.0
 48
0.0
 49
0.0
140
0.0
141
0.0
142
1.0
143
1.0
 70
  1024
 72
     1
 73
     0
 74
     0
  7

 75
     0
 76
     0
 77
     2
 78
   300
147
1.0
148
0.0
149
0.0
100
AcDbLayout
  1
Model
 70
     0
 71
     1
 10
0.0
 20
0.0
 11
1050.0
 21
1485.0
 12
0.0
 22
0.0
 32
0.0
 14
0.0
 24
0.0
 34
-0.0000000000000142
 15
1050.0
 25
1485.0
 35
0.0000000000000071
146
0.0
 13
0.0
 23
0.0
 33
0.0
 16
0.0
 26
0.0
 36
0.0
 17
0.0
 27
0.0
 37
0.0
 76
     0
330
A
331
15
  0
MATERIAL
  5
1003
102
{ACAD_REACTORS
330
263
102
}
330
263
100
AcDbMaterial
  1
ByBlock
 72
     1
 94
      127
  0
MATERIAL
  5
264
102
{ACAD_REACTORS
330
263
102
}
330
263
100
AcDbMaterial
  1
ByLayer
 72
     1
 94
      127
  0
MATERIAL
  5
266
102
{ACAD_REACTORS
330
263
102
}
330
263
100
AcDbMaterial
  1
Global
 72
     1
 94
      127
  0
MLEADERSTYLE
  5
D59
102
{ACAD_REACTORS
330
336
102
}
330
336
100
AcDbMLeaderStyle
170
     2
171
     1
172
     0
 90
        2
 40
0.0
 41
0.0
173
     1
 91
-1056964608
340
11
 92
       -2
290
     1
 42
2.0
291
     1
 43
8.0
  3
Standard
341
0
 44
4.0
300

342
17
174
     1
178
     6
175
     1
176
     0
 93
-1056964608
 45
4.0
292
     0
297
     0
 46
4.0
343
0
 94
-1056964608
 47
1.0
 49
1.0
140
1.0
293
     1
141
0.0
294
     1
177
     0
142
1.0
295
     0
296
     0
143
3.75
1001
ACAD_MLEADERVER
1070
     2
  0
MLINESTYLE
  5
1C
102
{ACAD_REACTORS
330
1B
102
}
330
1B
100
AcDbMlineStyle
  2
Standard
 70
     0
  3

 62
     0
 51
90.0
 52
90.0
 71
     2
 49
0.5
 62
   256
  6
BYLAYER
 49
-0.5
 62
   256
  6
BYLAYER
  0
ACDBPLACEHOLDER
  5
1D
102
{ACAD_REACTORS
330
1F
102
}
330
1F
  0
SCALE
  5
E8C
102
{ACAD_REACTORS
330
241
102
}
330
241
100
AcDbScale
 70
     0
300
1:1_XREF_XREF
140
1.0
141
1.0
290
     0
  0
SCALE
  5
242
102
{ACAD_REACTORS
330
241
102
}
330
241
100
AcDbScale
 70
     0
300
1:1
140
1.0
141
1.0
290
     1
  0
SCALE
  5
243
102
{ACAD_REACTORS
330
241
102
}
330
241
100
AcDbScale
 70
     0
300
1:2
140
1.0
141
2.0
290
     0
  0
SCALE
  5
244
102
{ACAD_REACTORS
330
241
102
}
330
241
100
AcDbScale
 70
     0
300
1:4
140
1.0
141
4.0
290
     0
  0
SCALE
  5
245
102
{ACAD_REACTORS
330
241
102
}
330
241
100
AcDbScale
 70
     0
300
1:5
140
1.0
141
5.0
290
     0
  0
SCALE
  5
246
102
{ACAD_REACTORS
330
241
102
}
330
241
100
AcDbScale
 70
     0
300
1:8
140
1.0
141
8.0
290
     0
  0
SCALE
  5
247
102
{ACAD_REACTORS
330
241
102
}
330
241
100
AcDbScale
 70
     0
300
1:10
140
1.0
141
10.0
290
     0
  0
SCALE
  5
248
102
{ACAD_REACTORS
330
241
102
}
330
241
100
AcDbScale
 70
     0
300
1:16
140
1.0
141
16.0
290
     0
  0
SCALE
  5
249
102
{ACAD_REACTORS
330
241
102
}
330
241
100
AcDbScale
 70
     0
300
1:20
140
1.0
141
20.0
290
     0
  0
SCALE
  5
24A
102
{ACAD_REACTORS
330
241
102
}
330
241
100
AcDbScale
 70
     0
300
1:30
140
1.0
141
30.0
290
     0
  0
SCALE
  5
24B
102
{ACAD_REACTORS
330
241
102
}
330
241
100
AcDbScale
 70
     0
300
1:40
140
1.0
141
40.0
290
     0
  0
SCALE
  5
24C
102
{ACAD_REACTORS
330
241
102
}
330
241
100
AcDbScale
 70
     0
300
1:50
140
1.0
141
50.0
290
     0
  0
SCALE
  5
24D
102
{ACAD_REACTORS
330
241
102
}
330
241
100
AcDbScale
 70
     0
300
1:100
140
1.0
141
100.0
290
     0
  0
SCALE
  5
24E
102
{ACAD_REACTORS
330
241
102
}
330
241
100
AcDbScale
 70
     0
300
2:1
140
2.0
141
1.0
290
     0
  0
SCALE
  5
24F
102
{ACAD_REACTORS
330
241
102
}
330
241
100
AcDbScale
 70
     0
300
4:1
140
4.0
141
1.0
290
     0
  0
SCALE
  5
250
102
{ACAD_REACTORS
330
241
102
}
330
241
100
AcDbScale
 70
     0
300
8:1
140
8.0
141
1.0
290
     0
  0
SCALE
  5
251
102
{ACAD_REACTORS
330
241
102
}
330
241
100
AcDbScale
 70
     0
300
10:1
140
10.0
141
1.0
290
     0
  0
SCALE
  5
252
102
{ACAD_REACTORS
330
241
102
}
330
241
100
AcDbScale
 70
     0
300
100:1
140
100.0
141
1.0
290
     0
  0
SCALE
  5
253
102
{ACAD_REACTORS
330
241
102
}
330
241
100
AcDbScale
 70
     0
300
1/128" = 1'-0"
140
0.0078125
141
12.0
290
     0
  0
SCALE
  5
254
102
{ACAD_REACTORS
330
241
102
}
330
241
100
AcDbScale
 70
     0
300
1/64" = 1'-0"
140
0.015625
141
12.0
290
     0
  0
SCALE
  5
255
102
{ACAD_REACTORS
330
241
102
}
330
241
100
AcDbScale
 70
     0
300
1/32" = 1'-0"
140
0.03125
141
12.0
290
     0
  0
SCALE
  5
256
102
{ACAD_REACTORS
330
241
102
}
330
241
100
AcDbScale
 70
     0
300
1/16" = 1'-0"
140
0.0625
141
12.0
290
     0
  0
SCALE
  5
257
102
{ACAD_REACTORS
330
241
102
}
330
241
100
AcDbScale
 70
     0
300
3/32" = 1'-0"
140
0.09375
141
12.0
290
     0
  0
SCALE
  5
258
102
{ACAD_REACTORS
330
241
102
}
330
241
100
AcDbScale
 70
     0
300
1/8" = 1'-0"
140
0.125
141
12.0
290
     0
  0
SCALE
  5
259
102
{ACAD_REACTORS
330
241
102
}
330
241
100
AcDbScale
 70
     0
300
3/16" = 1'-0"
140
0.1875
141
12.0
290
     0
  0
SCALE
  5
25A
102
{ACAD_REACTORS
330
241
102
}
330
241
100
AcDbScale
 70
     0
300
1/4" = 1'-0"
140
0.25
141
12.0
290
     0
  0
SCALE
  5
25B
102
{ACAD_REACTORS
330
241
102
}
330
241
100
AcDbScale
 70
     0
300
3/8" = 1'-0"
140
0.375
141
12.0
290
     0
  0
SCALE
  5
25C
102
{ACAD_REACTORS
330
241
102
}
330
241
100
AcDbScale
 70
     0
300
1/2" = 1'-0"
140
0.5
141
12.0
290
     0
  0
SCALE
  5
25D
102
{ACAD_REACTORS
330
241
102
}
330
241
100
AcDbScale
 70
     0
300
3/4" = 1'-0"
140
0.75
141
12.0
290
     0
  0
SCALE
  5
25E
102
{ACAD_REACTORS
330
241
102
}
330
241
100
AcDbScale
 70
     0
300
1" = 1'-0"
140
1.0
141
12.0
290
     0
  0
SCALE
  5
25F
102
{ACAD_REACTORS
330
241
102
}
330
241
100
AcDbScale
 70
     0
300
1-1/2" = 1'-0"
140
1.5
141
12.0
290
     0
  0
SCALE
  5
260
102
{ACAD_REACTORS
330
241
102
}
330
241
100
AcDbScale
 70
     0
300
3" = 1'-0"
140
3.0
141
12.0
290
     0
  0
SCALE
  5
261
102
{ACAD_REACTORS
330
241
102
}
330
241
100
AcDbScale
 70
     0
300
6" = 1'-0"
140
6.0
141
12.0
290
     0
  0
SCALE
  5
262
102
{ACAD_REACTORS
330
241
102
}
330
241
100
AcDbScale
 70
     0
300
1'-0" = 1'-0"
140
12.0
141
12.0
290
     0
  0
TABLESTYLE
  5
279
102
{ACAD_REACTORS
330
278
102
}
102
{ACAD_XDICTIONARY
360
2E51
102
}
330
278
100
AcDbTableStyle
  3
Standard
 70
     0
 71
     0
 40
0.06
 41
0.06
280
     0
281
     0
  7
Standard
140
4.5
170
     2
 62
     0
 63
   257
283
     0
 90
        4
 91
        0
  1

274
    -2
284
     1
 64
     0
275
    -2
285
     1
 65
     0
276
    -2
286
     1
 66
     0
277
    -2
287
     1
 67
     0
278
    -2
288
     1
 68
     0
279
    -2
289
     1
 69
     0
  7
Standard
140
6.0
170
     5
 62
     0
 63
   257
283
     0
 90
        4
 91
        0
  1

274
    -2
284
     1
 64
     0
275
    -2
285
     1
 65
     0
276
    -2
286
     1
 66
     0
277
    -2
287
     1
 67
     0
278
    -2
288
     1
 68
     0
279
    -2
289
     1
 69
     0
  7
Standard
140
4.5
170
     5
 62
     0
 63
   257
283
     0
 90
        4
 91
        0
  1

274
    -2
284
     1
 64
     0
275
    -2
285
     1
 65
     0
276
    -2
286
     1
 66
     0
277
    -2
287
     1
 67
     0
278
    -2
288
     1
 68
     0
279
    -2
289
     1
 69
     0
  0
VISUALSTYLE
  5
26C
102
{ACAD_REACTORS
330
267
102
}
330
267
100
AcDbVisualStyle
  2
2dWireframe
 70
     4
 71
     0
 72
     2
 73
     0
 90
        0
 40
-0.6
 41
-30.0
 62
     5
 63
     7
421
 16777215
 74
     1
 91
        4
 64
     7
 65
   257
 75
     1
175
     1
 42
1.0
 92
        0
 66
   257
 43
1.0
 76
     1
 77
     6
 78
     2
 67
     7
 79
     5
170
     0
171
     0
290
     0
174
     0
 93
        1
 44
0.0
173
     0
291
     0
 45
0.0
  0
VISUALSTYLE
  5
26E
102
{ACAD_REACTORS
330
267
102
}
330
267
100
AcDbVisualStyle
  2
3D Hidden
 70
     6
 71
     1
 72
     2
 73
     2
 90
        0
 40
-0.6
 41
-30.0
 62
     5
 63
     7
421
 16777215
 74
     2
 91
        2
 64
     7
 65
   257
 75
     2
175
     1
 42
40.0
 92
        0
 66
   257
 43
1.0
 76
     1
 77
     6
 78
     2
 67
     7
 79
     3
170
     0
171
     0
290
     0
174
     0
 93
        1
 44
0.0
173
     0
291
     0
 45
0.0
  0
VISUALSTYLE
  5
26D
102
{ACAD_REACTORS
330
267
102
}
330
267
100
AcDbVisualStyle
  2
3dWireframe
 70
     5
 71
     0
 72
     2
 73
     0
 90
        0
 40
-0.6
 41
-30.0
 62
     5
 63
     7
421
 16777215
 74
     1
 91
        4
 64
     7
 65
   257
 75
     1
175
     1
 42
1.0
 92
        0
 66
   257
 43
1.0
 76
     1
 77
     6
 78
     2
 67
     7
 79
     5
170
     0
171
     0
290
     0
174
     0
 93
        1
 44
0.0
173
     0
291
     0
 45
0.0
  0
VISUALSTYLE
  5
26F
102
{ACAD_REACTORS
330
267
102
}
330
267
100
AcDbVisualStyle
  2
Basic
 70
     7
 71
     1
 72
     0
 73
     1
 90
        0
 40
-0.6
 41
-30.0
 62
     5
 63
     7
421
 16777215
 74
     0
 91
        4
 64
     7
 65
   257
 75
     1
175
     1
 42
1.0
 92
        8
 66
     7
 43
1.0
 76
     1
 77
     6
 78
     2
 67
     7
 79
     5
170
     0
171
     0
290
     0
174
     0
 93
        1
 44
0.0
173
     0
291
     1
 45
0.0
  0
VISUALSTYLE
  5
273
102
{ACAD_REACTORS
330
267
102
}
330
267
100
AcDbVisualStyle
  2
Brighten
 70
    12
 71
     2
 72
     2
 73
     0
 90
        0
 40
-0.6
 41
-30.0
 62
     5
 63
     7
421
 16777215
 74
     1
 91
        4
 64
     7
 65
   257
 75
     1
175
     1
 42
1.0
 92
        8
 66
     7
 43
1.0
 76
     1
 77
     6
 78
     2
 67
     7
 79
     5
170
     0
171
     0
290
     0
174
     0
 93
        1
 44
50.0
173
     0
291
     1
 45
0.0
  0
VISUALSTYLE
  5
277
102
{ACAD_REACTORS
330
267
102
}
330
267
100
AcDbVisualStyle
  2
ColorChange
 70
    16
 71
     2
 72
     2
 73
     3
 90
        0
 40
-0.6
 41
-30.0
 62
     5
 63
     8
421
  8421504
 74
     1
 91
        4
 64
     7
 65
   257
 75
     1
175
     1
 42
1.0
 92
        8
 66
     8
424
  8421504
 43
1.0
 76
     1
 77
     6
 78
     2
 67
     7
 79
     5
170
     0
171
     0
290
     0
174
     0
 93
        1
 44
0.0
173
     0
291
     1
 45
0.0
  0
VISUALSTYLE
  5
271
102
{ACAD_REACTORS
330
267
102
}
330
267
100
AcDbVisualStyle
  2
Conceptual
 70
     9
 71
     3
 72
     2
 73
     0
 90
        0
 40
-0.6
 41
-30.0
 62
     5
 63
     7
421
 16777215
 74
     2
 91
        2
 64
     7
 65
   257
 75
     1
175
     1
 42
40.0
 92
        8
 66
     7
 43
1.0
 76
     1
 77
     6
 78
     2
 67
     7
 79
     3
170
     0
171
     0
290
     0
174
     0
 93
        1
 44
0.0
173
     0
291
     0
 45
0.0
  0
VISUALSTYLE
  5
272
102
{ACAD_REACTORS
330
267
102
}
330
267
100
AcDbVisualStyle
  2
Dim
 70
    11
 71
     2
 72
     2
 73
     0
 90
        0
 40
-0.6
 41
-30.0
 62
     5
 63
     7
421
 16777215
 74
     1
 91
        4
 64
     7
 65
   257
 75
     1
175
     1
 42
1.0
 92
        8
 66
     7
 43
1.0
 76
     1
 77
     6
 78
     2
 67
     7
 79
     5
170
     0
171
     0
290
     0
174
     0
 93
        1
 44
-50.0
173
     0
291
     1
 45
0.0
  0
VISUALSTYLE
  5
8FE
102
{ACAD_REACTORS
330
267
102
}
330
267
100
AcDbVisualStyle
  2
EdgeColorOff
 70
    22
 71
     2
 72
     2
 73
     0
 90
        0
 40
0.6
 41
30.0
 62
     5
 63
     7
421
 16777215
 74
     1
 91
        4
 64
     7
 65
   257
 75
     1
175
     1
 42
1.0
 92
        8
 66
     7
 43
1.0
 76
     1
 77
     6
 78
     2
 67
     7
 79
     5
170
     0
171
     0
290
     0
174
     0
 93
        1
 44
0.0
173
     0
291
     1
 45
0.0
  0
VISUALSTYLE
  5
276
102
{ACAD_REACTORS
330
267
102
}
330
267
100
AcDbVisualStyle
  2
Facepattern
 70
    15
 71
     2
 72
     2
 73
     0
 90
        0
 40
-0.6
 41
-30.0
 62
     5
 63
     7
421
 16777215
 74
     1
 91
        4
 64
     7
 65
   257
 75
     1
175
     1
 42
1.0
 92
        8
 66
     7
 43
1.0
 76
     1
 77
     6
 78
     2
 67
     7
 79
     5
170
     0
171
     0
290
     0
174
     0
 93
        1
 44
0.0
173
     0
291
     1
 45
0.0
  0
VISUALSTYLE
  5
268
102
{ACAD_REACTORS
330
267
102
}
330
267
100
AcDbVisualStyle
  2
Flat
 70
     0
 71
     2
 72
     1
 73
     1
 90
        2
 40
-0.6
 41
30.0
 62
     5
 63
     7
421
 16777215
 74
     0
 91
        4
 64
     7
 65
   257
 75
     1
175
     1
 42
1.0
 92
        8
 66
     7
 43
1.0
 76
     1
 77
     6
 78
     2
 67
     7
 79
     5
170
     0
171
     0
290
     0
174
     0
 93
       13
 44
0.0
173
     0
291
     1
 45
0.0
  0
VISUALSTYLE
  5
269
102
{ACAD_REACTORS
330
267
102
}
330
267
100
AcDbVisualStyle
  2
FlatWithEdges
 70
     1
 71
     2
 72
     1
 73
     1
 90
        2
 40
-0.6
 41
30.0
 62
     5
 63
     7
421
 16777215
 74
     1
 91
        4
 64
     7
 65
   257
 75
     1
175
     1
 42
1.0
 92
        0
 66
   257
 43
1.0
 76
     1
 77
     6
 78
     2
 67
     7
 79
     5
170
     0
171
     0
290
     0
174
     0
 93
       13
 44
0.0
173
     0
291
     1
 45
0.0
  0
VISUALSTYLE
  5
26A
102
{ACAD_REACTORS
330
267
102
}
330
267
100
AcDbVisualStyle
  2
Gouraud
 70
     2
 71
     2
 72
     2
 73
     1
 90
        2
 40
-0.6
 41
30.0
 62
     5
 63
     7
421
 16777215
 74
     0
 91
        4
 64
     7
 65
   257
 75
     1
175
     1
 42
1.0
 92
        0
 66
     7
 43
1.0
 76
     1
 77
     6
 78
     2
 67
     7
 79
     5
170
     0
171
     0
290
     0
174
     0
 93
       13
 44
0.0
173
     0
291
     1
 45
0.0
  0
VISUALSTYLE
  5
26B
102
{ACAD_REACTORS
330
267
102
}
330
267
100
AcDbVisualStyle
  2
GouraudWithEdges
 70
     3
 71
     2
 72
     2
 73
     1
 90
        2
 40
-0.6
 41
30.0
 62
     5
 63
     7
421
 16777215
 74
     1
 91
        4
 64
     7
 65
   257
 75
     1
175
     1
 42
1.0
 92
        0
 66
   257
 43
1.0
 76
     1
 77
     6
 78
     2
 67
     7
 79
     5
170
     0
171
     0
290
     0
174
     0
 93
       13
 44
0.0
173
     0
291
     1
 45
0.0
  0
VISUALSTYLE
  5
8FB
102
{ACAD_REACTORS
330
267
102
}
330
267
100
AcDbVisualStyle
  2
Hidden
 70
     6
 71
     1
 72
     2
 73
     2
 90
        0
 40
0.6
 41
30.0
 62
     5
 63
     7
421
 16777215
 74
     2
 91
        2
 64
     7
 65
   257
 75
     2
175
     1
 42
40.0
 92
        0
 66
   257
 43
1.0
 76
     1
 77
     6
 78
     2
 67
     7
 79
     3
170
     0
171
     0
290
     0
174
     0
 93
        1
 44
0.0
173
     0
291
     0
 45
0.0
  0
VISUALSTYLE
  5
8FC
102
{ACAD_REACTORS
330
267
102
}
330
267
100
AcDbVisualStyle
  2
JitterOff
 70
    20
 71
     2
 72
     2
 73
     0
 90
        0
 40
0.6
 41
30.0
 62
     5
 63
     7
421
 16777215
 74
     1
 91
        4
 64
     7
 65
   257
 75
     1
175
     1
 42
1.0
 92
       10
 66
     7
 43
1.0
 76
     1
 77
     6
 78
     2
 67
     7
 79
     5
170
     0
171
     0
290
     0
174
     0
 93
        1
 44
0.0
173
     0
291
     1
 45
0.0
  0
VISUALSTYLE
  5
275
102
{ACAD_REACTORS
330
267
102
}
330
267
100
AcDbVisualStyle
  2
Linepattern
 70
    14
 71
     2
 72
     2
 73
     0
 90
        0
 40
-0.6
 41
-30.0
 62
     5
 63
     7
421
 16777215
 74
     1
 91
        4
 64
     7
 65
   257
 75
     7
175
     7
 42
1.0
 92
        8
 66
     7
 43
1.0
 76
     1
 77
     6
 78
     2
 67
     7
 79
     5
170
     0
171
     0
290
     0
174
     0
 93
        1
 44
0.0
173
     0
291
     1
 45
0.0
  0
VISUALSTYLE
  5
8FD
102
{ACAD_REACTORS
330
267
102
}
330
267
100
AcDbVisualStyle
  2
OverhangOff
 70
    21
 71
     2
 72
     2
 73
     0
 90
        0
 40
0.6
 41
30.0
 62
     5
 63
     7
421
 16777215
 74
     1
 91
        4
 64
     7
 65
   257
 75
     1
175
     1
 42
1.0
 92
        9
 66
     7
 43
1.0
 76
     1
 77
     6
 78
     2
 67
     7
 79
     5
170
     0
171
     0
290
     0
174
     0
 93
        1
 44
0.0
173
     0
291
     1
 45
0.0
  0
VISUALSTYLE
  5
270
102
{ACAD_REACTORS
330
267
102
}
330
267
100
AcDbVisualStyle
  2
Realistic
 70
     8
 71
     2
 72
     2
 73
     0
 90
        0
 40
-0.6
 41
-30.0
 62
     5
 63
     7
421
 16777215
 74
     1
 91
        0
 64
     7
 65
   257
 75
     1
175
     1
 42
1.0
 92
        8
 66
     8
424
  7895160
 43
1.0
 76
     1
 77
     6
 78
     2
 67
     7
 79
     5
170
     0
171
     0
290
     0
174
     0
 93
       13
 44
0.0
173
     0
291
     0
 45
0.0
  0
VISUALSTYLE
  5
903
102
{ACAD_REACTORS
330
267
102
}
330
267
100
AcDbVisualStyle
  2
Shaded
 70
    27
 71
     2
 72
     2
 73
     1
 90
        2
 40
0.6
 41
30.0
 62
     5
 63
     7
421
 16777215
 74
     0
 91
        4
 64
     7
 65
   257
 75
     1
175
     1
 42
1.0
 92
        8
 66
   257
 43
1.0
 76
     1
 77
     6
 78
     2
 67
     8
425
  7895160
 79
     3
170
     0
171
     0
290
     0
174
     0
 93
        5
 44
0.0
173
     0
291
     0
 45
0.0
  0
VISUALSTYLE
  5
902
102
{ACAD_REACTORS
330
267
102
}
330
267
100
AcDbVisualStyle
  2
Shaded with edges
 70
    26
 71
     2
 72
     2
 73
     1
 90
        2
 40
0.6
 41
30.0
 62
     5
 63
     7
421
 16777215
 74
     1
 91
       10
 64
     7
 65
   257
 75
     2
175
     1
 42
1.0
 92
        8
 66
   257
 43
1.0
 76
     1
 77
     6
 78
     2
 67
     7
 79
     3
170
     0
171
     0
290
     0
174
     0
 93
        5
 44
0.0
173
     0
291
     0
 45
0.0
  0
VISUALSTYLE
  5
8FF
102
{ACAD_REACTORS
330
267
102
}
330
267
100
AcDbVisualStyle
  2
Shades of Gray
 70
    23
 71
     2
 72
     2
 73
     3
 90
        0
 40
0.6
 41
30.0
 62
     5
 63
     7
421
 16777215
 74
     2
 91
        2
 64
     7
 65
     7
 75
     1
175
     1
 42
40.0
 92
        8
 66
     7
 43
1.0
 76
     1
 77
     6
 78
     2
 67
     7
 79
     3
170
     0
171
     0
290
     0
174
     0
 93
        1
 44
0.0
173
     0
291
     0
 45
0.0
  0
VISUALSTYLE
  5
900
102
{ACAD_REACTORS
330
267
102
}
330
267
100
AcDbVisualStyle
  2
Sketchy
 70
    24
 71
     1
 72
     2
 73
     2
 90
        0
 40
0.6
 41
30.0
 62
     5
 63
     7
421
 16777215
 74
     2
 91
        2
 64
     7
 65
     7
 75
     1
175
     1
 42
40.0
 92
       11
 66
     7
 43
1.0
 76
     1
 77
     6
 78
     2
 67
     7
 79
     6
170
     0
171
     0
290
     0
174
     0
 93
        1
 44
0.0
173
     0
291
     0
 45
0.0
  0
VISUALSTYLE
  5
274
102
{ACAD_REACTORS
330
267
102
}
330
267
100
AcDbVisualStyle
  2
Thicken
 70
    13
 71
     2
 72
     2
 73
     0
 90
        0
 40
-0.6
 41
-30.0
 62
     5
 63
     7
421
 16777215
 74
     1
 91
        4
 64
     7
 65
   257
 75
     1
175
     1
 42
1.0
 92
       12
 66
     7
 43
1.0
 76
     1
 77
     6
 78
     2
 67
     7
 79
     5
170
     0
171
     0
290
     0
174
     0
 93
        1
 44
0.0
173
     0
291
     1
 45
0.0
  0
VISUALSTYLE
  5
8FA
102
{ACAD_REACTORS
330
267
102
}
330
267
100
AcDbVisualStyle
  2
Wireframe
 70
     5
 71
     0
 72
     2
 73
     0
 90
        0
 40
0.6
 41
30.0
 62
     5
 63
     7
421
 16777215
 74
     1
 91
        4
 64
     7
 65
   257
 75
     1
175
     1
 42
1.0
 92
        0
 66
   257
 43
1.0
 76
     1
 77
     6
 78
     2
 67
     7
 79
     3
170
     0
171
     0
290
     0
174
     0
 93
        1
 44
0.0
173
     0
291
     0
 45
0.0
  0
VISUALSTYLE
  5
901
102
{ACAD_REACTORS
330
267
102
}
330
267
100
AcDbVisualStyle
  2
X-Ray
 70
    25
 71
     2
 72
     2
 73
     1
 90
        1
 40
0.5
 41
30.0
 62
     5
 63
     7
421
 16777215
 74
     1
 91
        0
 64
     7
 65
   257
 75
     1
175
     1
 42
1.0
 92
        8
 66
     7
 43
1.0
 76
     1
 77
     6
 78
     2
 67
     7
 79
     3
170
     0
171
     0
290
     0
174
     0
 93
       13
 44
0.0
173
     0
291
     0
 45
0.0
  0
DICTIONARYVAR
  5
331
102
{ACAD_REACTORS
330
330
102
}
330
330
100
DictionaryVariables
280
     0
  1
1:1
  0
DICTIONARYVAR
  5
D5E
102
{ACAD_REACTORS
330
330
102
}
330
330
100
DictionaryVariables
280
     0
  1
Standard
  0
DICTIONARYVAR
  5
335
102
{ACAD_REACTORS
330
330
102
}
330
330
100
DictionaryVariables
280
     0
  1
Standard
  0
DICTIONARYVAR
  5
D52
102
{ACAD_REACTORS
330
330
102
}
330
330
100
DictionaryVariables
280
     0
  1
ByLayer
  0
DICTIONARYVAR
  5
896
102
{ACAD_REACTORS
330
330
102
}
330
330
100
DictionaryVariables
280
     0
  1
0
  0
DICTIONARYVAR
  5
2807
102
{ACAD_REACTORS
330
145A
102
}
330
145A
100
DictionaryVariables
280
     0
  1
0.261799
  0
DICTIONARYVAR
  5
2805
102
{ACAD_REACTORS
330
145A
102
}
330
145A
100
DictionaryVariables
280
     0
  1
0.400000
  0
DICTIONARYVAR
  5
2806
102
{ACAD_REACTORS
330
145A
102
}
330
145A
100
DictionaryVariables
280
     0
  1
0.250000
  0
DICTIONARYVAR
  5
2808
102
{ACAD_REACTORS
330
145A
102
}
330
145A
100
DictionaryVariables
280
     0
  1
1
  0
FIELD
  5
2294
102
{ACAD_REACTORS
330
2299
102
}
330
2299
100
AcDbField
  1
_text
  2
{%<\_FldIdx 0>%N}
 90
        1
360
2298
 97
        0
 91
       63
 92
        0
 94
        8
 95
        2
 96
        0
300

 93
        1
  6
ACFD_FIELDTEXT_CHECKSUM
 93
        2
 90
        2
140
4568.0
 94
        0
300

302

304
ACVALUE_END
  7
ACFD_FIELD_VALUE
 93
        6
 90
        4
  1
{20170908N}
 94
        0
300

302

304
ACVALUE_END
301
{20170908N}
 98
       11
  0
DICTIONARY
  5
2E51
330
279
100
AcDbDictionary
280
     1
281
     1
  3
ACAD_ROUNDTRIP_2008_TABLESTYLE_CELLSTYLEMAP
360
2E52
  0
FIELD
  5
2298
330
2294
100
AcDbField
  1
AcVar
  2
\AcVar Date \f "yyyyMMdd"
 90
        0
 97
        0
 91
       63
 92
        0
 94
        8
 95
        2
 96
        0
300

 93
        1
  6
Variable
 93
        2
 90
        4
  1
Date
 94
        0
300

302

304
ACVALUE_END
  7
ACFD_FIELD_VALUE
 93
        6
 90
        8
 92
       16
310
E1070900000007001100130034000000
 94
        0
300
yyyyMMdd
302

304
ACVALUE_END
301
20170908
 98
        8
  0
CELLSTYLEMAP
  5
2E52
102
{ACAD_REACTORS
330
2E51
102
}
330
2E51
100
AcDbCellStyleMap
 90
        3
300
CELLSTYLE
  1
TABLEFORMAT_BEGIN
 90
        5
170
     1
 91
        0
 92
    32768
 62
   257
 93
        1
300
CONTENTFORMAT
  1
CONTENTFORMAT_BEGIN
 90
        0
 91
        0
 92
        4
 93
        0
300

 40
0.0
140
1.0
 94
        5
 62
     0
340
17
144
6.0
309
CONTENTFORMAT_END
171
     1
301
MARGIN
  1
CELLMARGIN_BEGIN
 40
0.06
 40
0.06
 40
0.06
 40
0.06
 40
0.18
 40
0.18
309
CELLMARGIN_END
 94
        6
 95
        1
302
GRIDFORMAT
  1
GRIDFORMAT_BEGIN
 90
        0
 91
        1
 62
     0
 92
       -2
340
0
 93
        0
 40
0.045
309
GRIDFORMAT_END
 95
        2
302
GRIDFORMAT
  1
GRIDFORMAT_BEGIN
 90
        0
 91
        1
 62
     0
 92
       -2
340
0
 93
        0
 40
0.045
309
GRIDFORMAT_END
 95
        4
302
GRIDFORMAT
  1
GRIDFORMAT_BEGIN
 90
        0
 91
        1
 62
     0
 92
       -2
340
0
 93
        0
 40
0.045
309
GRIDFORMAT_END
 95
        8
302
GRIDFORMAT
  1
GRIDFORMAT_BEGIN
 90
        0
 91
        1
 62
     0
 92
       -2
340
0
 93
        0
 40
0.045
309
GRIDFORMAT_END
 95
       16
302
GRIDFORMAT
  1
GRIDFORMAT_BEGIN
 90
        0
 91
        1
 62
     0
 92
       -2
340
0
 93
        0
 40
0.045
309
GRIDFORMAT_END
 95
       32
302
GRIDFORMAT
  1
GRIDFORMAT_BEGIN
 90
        0
 91
        1
 62
     0
 92
       -2
340
0
 93
        0
 40
0.045
309
GRIDFORMAT_END
309
TABLEFORMAT_END
  1
CELLSTYLE_BEGIN
 90
        1
 91
        1
300
_TITLE
309
CELLSTYLE_END
300
CELLSTYLE
  1
TABLEFORMAT_BEGIN
 90
        5
170
     1
 91
        0
 92
        0
 62
   257
 93
        1
300
CONTENTFORMAT
  1
CONTENTFORMAT_BEGIN
 90
        0
 91
        0
 92
        4
 93
        0
300

 40
0.0
140
1.0
 94
        5
 62
     0
340
17
144
4.5
309
CONTENTFORMAT_END
171
     1
301
MARGIN
  1
CELLMARGIN_BEGIN
 40
0.06
 40
0.06
 40
0.06
 40
0.06
 40
0.18
 40
0.18
309
CELLMARGIN_END
 94
        6
 95
        1
302
GRIDFORMAT
  1
GRIDFORMAT_BEGIN
 90
        0
 91
        1
 62
     0
 92
       -2
340
0
 93
        0
 40
0.045
309
GRIDFORMAT_END
 95
        2
302
GRIDFORMAT
  1
GRIDFORMAT_BEGIN
 90
        0
 91
        1
 62
     0
 92
       -2
340
0
 93
        0
 40
0.045
309
GRIDFORMAT_END
 95
        4
302
GRIDFORMAT
  1
GRIDFORMAT_BEGIN
 90
        0
 91
        1
 62
     0
 92
       -2
340
0
 93
        0
 40
0.045
309
GRIDFORMAT_END
 95
        8
302
GRIDFORMAT
  1
GRIDFORMAT_BEGIN
 90
        0
 91
        1
 62
     0
 92
       -2
340
0
 93
        0
 40
0.045
309
GRIDFORMAT_END
 95
       16
302
GRIDFORMAT
  1
GRIDFORMAT_BEGIN
 90
        0
 91
        1
 62
     0
 92
       -2
340
0
 93
        0
 40
0.045
309
GRIDFORMAT_END
 95
       32
302
GRIDFORMAT
  1
GRIDFORMAT_BEGIN
 90
        0
 91
        1
 62
     0
 92
       -2
340
0
 93
        0
 40
0.045
309
GRIDFORMAT_END
309
TABLEFORMAT_END
  1
CELLSTYLE_BEGIN
 90
        2
 91
        1
300
_HEADER
309
CELLSTYLE_END
300
CELLSTYLE
  1
TABLEFORMAT_BEGIN
 90
        5
170
     1
 91
        0
 92
        0
 62
   257
 93
        1
300
CONTENTFORMAT
  1
CONTENTFORMAT_BEGIN
 90
        0
 91
        0
 92
        4
 93
        0
300

 40
0.0
140
1.0
 94
        2
 62
     0
340
17
144
4.5
309
CONTENTFORMAT_END
171
     1
301
MARGIN
  1
CELLMARGIN_BEGIN
 40
0.06
 40
0.06
 40
0.06
 40
0.06
 40
0.18
 40
0.18
309
CELLMARGIN_END
 94
        6
 95
        1
302
GRIDFORMAT
  1
GRIDFORMAT_BEGIN
 90
        0
 91
        1
 62
     0
 92
       -2
340
0
 93
        0
 40
0.045
309
GRIDFORMAT_END
 95
        2
302
GRIDFORMAT
  1
GRIDFORMAT_BEGIN
 90
        0
 91
        1
 62
     0
 92
       -2
340
0
 93
        0
 40
0.045
309
GRIDFORMAT_END
 95
        4
302
GRIDFORMAT
  1
GRIDFORMAT_BEGIN
 90
        0
 91
        1
 62
     0
 92
       -2
340
0
 93
        0
 40
0.045
309
GRIDFORMAT_END
 95
        8
302
GRIDFORMAT
  1
GRIDFORMAT_BEGIN
 90
        0
 91
        1
 62
     0
 92
       -2
340
0
 93
        0
 40
0.045
309
GRIDFORMAT_END
 95
       16
302
GRIDFORMAT
  1
GRIDFORMAT_BEGIN
 90
        0
 91
        1
 62
     0
 92
       -2
340
0
 93
        0
 40
0.045
309
GRIDFORMAT_END
 95
       32
302
GRIDFORMAT
  1
GRIDFORMAT_BEGIN
 90
        0
 91
        1
 62
     0
 92
       -2
340
0
 93
        0
 40
0.045
309
GRIDFORMAT_END
309
TABLEFORMAT_END
  1
CELLSTYLE_BEGIN
 90
        3
 91
        2
300
_DATA
309
CELLSTYLE_END
  0
ENDSEC
  0
EOF
