  0
SECTION
  2
HEADER
  9
$ACADVER
  1
AC1014
  9
$ACADMAINTVER
 70
     9
  9
$DWGCODEPAGE
  3
DOS932
  9
$INSBASE
 10
0.0
 20
0.0
 30
0.0
  9
$EXTMIN
 10
0.0
 20
0.0
 30
0.0
  9
$EXTMAX
 10
210.0
 20
297.0
 30
0.0
  9
$LIMMIN
 10
0.0
 20
0.0
  9
$LIMMAX
 10
210.0
 20
297.0
  9
$ORTHOMODE
 70
     0
  9
$REGENMODE
 70
     1
  9
$FILLMODE
 70
     1
  9
$QTEXTMODE
 70
     0
  9
$MIRRTEXT
 70
     1
  9
$DRAGMODE
 70
     2
  9
$LTSCALE
 40
1.0
  9
$OSMODE
 70
    37
  9
$ATTMODE
 70
     1
  9
$TEXTSIZE
 40
3.8805555556
  9
$TRACEWID
 40
1.0
  9
$TEXTSTYLE
  7
STANDARD
  9
$CLAYER
  8
0
  9
$CELTYPE
  6
BYLAYER
  9
$CECOLOR
 62
   256
  9
$CELTSCALE
 40
1.0
  9
$DELOBJ
 70
     1
  9
$DISPSILH
 70
     0
  9
$DIMSCALE
 40
1.0
  9
$DIMASZ
 40
3.0
  9
$DIMEXO
 40
0.0
  9
$DIMDLI
 40
3.75
  9
$DIMRND
 40
0.0
  9
$DIMDLE
 40
0.0
  9
$DIMEXE
 40
1.0
  9
$DIMTP
 40
0.0
  9
$DIMTM
 40
0.0
  9
$DIMTXT
 40
3.5277777778
  9
$DIMCEN
 40
2.5
  9
$DIMTSZ
 40
0.0
  9
$DIMTOL
 70
     0
  9
$DIMLIM
 70
     0
  9
$DIMTIH
 70
     1
  9
$DIMTOH
 70
     1
  9
$DIMSE1
 70
     0
  9
$DIMSE2
 70
     0
  9
$DIMTAD
 70
     1
  9
$DIMZIN
 70
     0
  9
$DIMBLK
  1

  9
$DIMASO
 70
     1
  9
$DIMSHO
 70
     1
  9
$DIMPOST
  1

  9
$DIMAPOST
  1

  9
$DIMALT
 70
     0
  9
$DIMALTD
 70
     3
  9
$DIMALTF
 40
0.0393700787
  9
$DIMLFAC
 40
1.0
  9
$DIMTOFL
 70
     1
  9
$DIMTVP
 40
0.0
  9
$DIMTIX
 70
     0
  9
$DIMSOXD
 70
     0
  9
$DIMSAH
 70
     0
  9
$DIMBLK1
  1

  9
$DIMBLK2
  1

  9
$DIMSTYLE
  2
ISO-25
  9
$DIMCLRD
 70
     0
  9
$DIMCLRE
 70
     0
  9
$DIMCLRT
 70
     0
  9
$DIMTFAC
 40
1.0
  9
$DIMGAP
 40
1.0
  9
$DIMJUST
 70
     0
  9
$DIMSD1
 70
     0
  9
$DIMSD2
 70
     0
  9
$DIMTOLJ
 70
     0
  9
$DIMTZIN
 70
     0
  9
$DIMALTZ
 70
     0
  9
$DIMALTTZ
 70
     0
  9
$DIMFIT
 70
     3
  9
$DIMUPT
 70
     0
  9
$DIMUNIT
 70
     2
  9
$DIMDEC
 70
     2
  9
$DIMTDEC
 70
     2
  9
$DIMALTU
 70
     2
  9
$DIMALTTD
 70
     3
  9
$DIMTXSTY
  7
STANDARD
  9
$DIMAUNIT
 70
     0
  9
$LUNITS
 70
     2
  9
$LUPREC
 70
     2
  9
$SKETCHINC
 40
1.0
  9
$FILLETRAD
 40
10.0
  9
$AUNITS
 70
     0
  9
$AUPREC
 70
     2
  9
$MENU
  1
.
  9
$ELEVATION
 40
0.0
  9
$PELEVATION
 40
0.0
  9
$THICKNESS
 40
0.0
  9
$LIMCHECK
 70
     0
  9
$CHAMFERA
 40
10.0
  9
$CHAMFERB
 40
10.0
  9
$CHAMFERC
 40
20.0
  9
$CHAMFERD
 40
0.0
  9
$SKPOLY
 70
     0
  9
$TDCREATE
 40
2456399.494776331
  9
$TDUPDATE
 40
2456399.494776343
  9
$TDINDWG
 40
0.0000000116
  9
$TDUSRTIMER
 40
0.0000000116
  9
$USRTIMER
 70
     1
  9
$ANGBASE
 50
0.0
  9
$ANGDIR
 70
     0
  9
$PDMODE
 70
     0
  9
$PDSIZE
 40
-1.0
  9
$PLINEWID
 40
0.0
  9
$COORDS
 70
     1
  9
$SPLFRAME
 70
     0
  9
$SPLINETYPE
 70
     6
  9
$SPLINESEGS
 70
     8
  9
$ATTDIA
 70
     0
  9
$ATTREQ
 70
     1
  9
$HANDLING
 70
     1
  9
$HANDSEED
  5
218
  9
$SURFTAB1
 70
     6
  9
$SURFTAB2
 70
     6
  9
$SURFTYPE
 70
     6
  9
$SURFU
 70
     6
  9
$SURFV
 70
     6
  9
$UCSNAME
  2

  9
$UCSORG
 10
0.0
 20
0.0
 30
0.0
  9
$UCSXDIR
 10
1.0
 20
0.0
 30
0.0
  9
$UCSYDIR
 10
0.0
 20
1.0
 30
0.0
  9
$PUCSNAME
  2

  9
$PUCSORG
 10
0.0
 20
0.0
 30
0.0
  9
$PUCSXDIR
 10
1.0
 20
0.0
 30
0.0
  9
$PUCSYDIR
 10
0.0
 20
1.0
 30
0.0
  9
$USERI1
 70
     0
  9
$USERI2
 70
     0
  9
$USERI3
 70
     0
  9
$USERI4
 70
     0
  9
$USERI5
 70
     0
  9
$USERR1
 40
0.0
  9
$USERR2
 40
0.0
  9
$USERR3
 40
0.0
  9
$USERR4
 40
0.0
  9
$USERR5
 40
0.0
  9
$WORLDVIEW
 70
     1
  9
$SHADEDGE
 70
     3
  9
$SHADEDIF
 70
    70
  9
$TILEMODE
 70
     1
  9
$MAXACTVP
 70
    64
  9
$PINSBASE
 10
0.0
 20
0.0
 30
0.0
  9
$PLIMCHECK
 70
     0
  9
$PEXTMIN
 10
1.0000000000E+20
 20
1.0000000000E+20
 30
1.0000000000E+20
  9
$PEXTMAX
 10
-1.0000000000E+20
 20
-1.0000000000E+20
 30
-1.0000000000E+20
  9
$PLIMMIN
 10
0.0
 20
0.0
  9
$PLIMMAX
 10
420.0
 20
297.0
  9
$UNITMODE
 70
     0
  9
$VISRETAIN
 70
     1
  9
$PLINEGEN
 70
     0
  9
$PSLTSCALE
 70
     1
  9
$TREEDEPTH
 70
  3020
  9
$PICKSTYLE
 70
     1
  9
$CMLSTYLE
  2
STANDARD
  9
$CMLJUST
 70
     0
  9
$CMLSCALE
 40
20.0
  9
$PROXYGRAPHICS
 70
     1
  9
$MEASUREMENT
 70
     1
  0
ENDSEC
  0
SECTION
  2
CLASSES
  0
CLASS
  1
ACDBDICTIONARYWDFLT
  2
AcDbDictionaryWithDefault
  3
ObjectDBX Classes
 90
        0
280
     0
281
     0
  0
CLASS
  1
VISUALSTYLE
  2
AcDbVisualStyle
  3
ObjectDBX Classes
 90
     4095
280
     0
281
     0
  0
CLASS
  1
MATERIAL
  2
AcDbMaterial
  3
ObjectDBX Classes
 90
     1153
280
     0
281
     0
  0
CLASS
  1
XRECORD
  2
AcDbXrecord
  3
AutoCAD 2000
 90
        0
280
     0
281
     0
  0
CLASS
  1
LWPOLYLINE
  2
AcDbPolyline
  3
AutoCAD 2000
 90
        0
280
     0
281
     1
  0
CLASS
  1
HATCH
  2
AcDbHatch
  3
AutoCAD 2000
 90
        0
280
     0
281
     1
  0
ENDSEC
  0
SECTION
  2
TABLES
  0
TABLE
  2
VPORT
  5
8
330
0
100
AcDbSymbolTable
 70
     1
  0
VPORT
  5
29
330
8
100
AcDbSymbolTableRecord
100
AcDbViewportTableRecord
  2
*ACTIVE
 70
     0
 10
0.0
 20
0.0
 11
1.0
 21
1.0
 12
105.0
 22
148.5
 13
0.0
 23
0.0
 14
10.0
 24
10.0
 15
10.0
 25
10.0
 16
0.0
 26
0.0
 36
1.0
 17
0.0
 27
0.0
 37
0.0
 40
297.0
 41
0.7070707071
 42
50.0
 43
0.0
 44
0.0
 50
0.0
 51
0.0
 71
     0
 72
  2000
 73
     1
 74
     3
 75
     0
 76
     0
 77
     0
 78
     0
  0
ENDTAB
  0
TABLE
  2
LTYPE
  5
5
330
0
100
AcDbSymbolTable
 70
     6
  0
LTYPE
  5
14
330
5
100
AcDbSymbolTableRecord
100
AcDbLinetypeTableRecord
  2
BYBLOCK
 70
     0
  3

 72
    65
 73
     0
 40
0.0
  0
LTYPE
  5
15
330
5
100
AcDbSymbolTableRecord
100
AcDbLinetypeTableRecord
  2
BYLAYER
 70
     0
  3

 72
    65
 73
     0
 40
0.0
  0
LTYPE
  5
16
330
5
100
AcDbSymbolTableRecord
100
AcDbLinetypeTableRecord
  2
CONTINUOUS
 70
     0
  3
Solid line
 72
    65
 73
     0
 40
0.0
  0
LTYPE
  5
3F
330
5
100
AcDbSymbolTableRecord
100
AcDbLinetypeTableRecord
  2
HIDDEN
 70
     0
  3
Hidden __ __ __ __ __ __ __ __ __ __ __ __ __ __
 72
    65
 73
     2
 40
1.905
 49
1.27
 74
     0
 49
-0.635
 74
     0
  0
LTYPE
  5
40
330
5
100
AcDbSymbolTableRecord
100
AcDbLinetypeTableRecord
  2
PHANTOM
 70
     0
  3
Phantom ______  __  __  ______  __  __  ______
 72
    65
 73
     6
 40
12.7
 49
6.35
 74
     0
 49
-1.27
 74
     0
 49
1.27
 74
     0
 49
-1.27
 74
     0
 49
1.27
 74
     0
 49
-1.27
 74
     0
  0
LTYPE
  5
41
330
5
100
AcDbSymbolTableRecord
100
AcDbLinetypeTableRecord
  2
CENTER
 70
     0
  3
Center ____ _ ____ _ ____ _ ____ _ ____ _ ____
 72
    65
 73
     4
 40
10.16
 49
6.35
 74
     0
 49
-1.27
 74
     0
 49
1.27
 74
     0
 49
-1.27
 74
     0
  0
LTYPE
  5
42
330
5
100
AcDbSymbolTableRecord
100
AcDbLinetypeTableRecord
  2
CENTERX2
 70
     0
  3
Center (2x) ________  __  ________  __  _____
 72
    65
 73
     4
 40
20.32
 49
12.7
 74
     0
 49
-2.54
 74
     0
 49
2.54
 74
     0
 49
-2.54
 74
     0
  0
LTYPE
  5
43
330
5
100
AcDbSymbolTableRecord
100
AcDbLinetypeTableRecord
  2
DOT2
 70
     0
  3
Dot (.5x) ........................................
 72
    65
 73
     2
 40
0.635
 49
0.0
 74
     0
 49
-0.635
 74
     0
  0
ENDTAB
  0
TABLE
  2
LAYER
  5
2
330
0
100
AcDbSymbolTable
 70
     6
  0
LAYER
  5
10
330
2
100
AcDbSymbolTableRecord
100
AcDbLayerTableRecord
  2
0
 70
     0
 62
     7
  6
CONTINUOUS
  0
LAYER
  5
44
330
2
100
AcDbSymbolTableRecord
100
AcDbLayerTableRecord
  2
SLD-0
 70
     0
 62
     7
  6
CONTINUOUS
  0
LAYER
  5
45
330
2
100
AcDbSymbolTableRecord
100
AcDbLayerTableRecord
  2
8
 70
     0
 62
     7
  6
CONTINUOUS
  0
LAYER
  5
46
330
2
100
AcDbSymbolTableRecord
100
AcDbLayerTableRecord
  2
9
 70
     0
 62
     7
  6
CONTINUOUS
  0
LAYER
  5
47
330
2
100
AcDbSymbolTableRecord
100
AcDbLayerTableRecord
  2
10
 70
     0
 62
     1
  6
CONTINUOUS
  0
LAYER
  5
48
330
2
100
AcDbSymbolTableRecord
100
AcDbLayerTableRecord
  2
11
 70
     0
 62
     7
  6
CONTINUOUS
  0
ENDTAB
  0
TABLE
  2
STYLE
  5
3
330
0
100
AcDbSymbolTable
 70
     3
  0
STYLE
  5
11
330
3
100
AcDbSymbolTableRecord
100
AcDbTextStyleTableRecord
  2
STANDARD
 70
     0
 40
0.0
 41
1.0
 50
0.0
 71
     0
 42
2.5
  3
MSGOTHIC.TTC
  4

1001
ACAD
1000
ＭＳ Ｐゴシック
1071
    32818
  0
STYLE
  5
162
330
3
100
AcDbSymbolTableRecord
100
AcDbTextStyleTableRecord
  2
SLDTEXTSTYLE0
 70
     0
 40
0.0
 41
1.0
 50
0.0
 71
     0
 42
0.2
  3
MSGOTHIC.TTC
  4

1001
ACAD
1000
ＭＳ Ｐゴシック
1071
      306
  0
STYLE
  5
1AB
330
3
100
AcDbSymbolTableRecord
100
AcDbTextStyleTableRecord
  2
SLDTEXTSTYLE1
 70
     0
 40
0.0
 41
1.0
 50
0.0
 71
     0
 42
0.2
  3
MSGOTHIC.TTC
  4
bigfont
1001
ACAD
1000
ＭＳ Ｐゴシック
1071
      306
  0
ENDTAB
  0
TABLE
  2
VIEW
  5
6
330
0
100
AcDbSymbolTable
 70
     0
  0
ENDTAB
  0
TABLE
  2
UCS
  5
7
330
0
100
AcDbSymbolTable
 70
     0
  0
ENDTAB
  0
TABLE
  2
APPID
  5
9
330
0
100
AcDbSymbolTable
 70
     1
  0
APPID
  5
12
330
9
100
AcDbSymbolTableRecord
100
AcDbRegAppTableRecord
  2
ACAD
 70
     0
  0
ENDTAB
  0
TABLE
  2
DIMSTYLE
  5
A
330
0
100
AcDbSymbolTable
 70
     3
  0
DIMSTYLE
105
27
330
A
100
AcDbSymbolTableRecord
100
AcDbDimStyleTableRecord
  2
ISO-25
 70
     0
  3

  4

  5

  6

  7

 40
1.0
 41
2.5
 42
0.625
 43
3.75
 44
1.25
 45
0.0
 46
0.0
 47
0.0
 48
0.0
140
2.5
141
2.5
142
0.0
143
0.0393700787
144
1.0
145
0.0
146
1.0
147
0.625
 71
     0
 72
     0
 73
     0
 74
     0
 75
     0
 76
     0
 77
     1
 78
     8
170
     0
171
     3
172
     1
173
     0
174
     0
175
     0
176
     0
177
     0
178
     0
270
     2
271
     2
272
     2
273
     2
274
     3
340
11
275
     0
280
     0
281
     0
282
     0
283
     0
284
     8
285
     0
286
     0
287
     3
288
     0
  0
DIMSTYLE
105
163
102
{ACAD_REACTORS
330
161
330
173
330
17D
330
187
330
19E
102
}
330
A
100
AcDbSymbolTableRecord
100
AcDbDimStyleTableRecord
  2
SLDDIMSTYLE0
 70
     0
  3

  4

  5

  6
OPEN30
  7
OPEN30
 40
1.0
 41
3.0
 42
0.0625
 43
0.38
 44
0.0
 45
0.000000001
 46
0.0
 47
0.0
 48
0.0
140
3.0316840278
141
0.09
142
0.0
143
25.4
144
1.0
145
0.0
146
1.0
147
0.7579210069
 71
     0
 72
     0
 73
     0
 74
     0
 75
     0
 76
     0
 77
     3
 78
    12
170
     0
171
     2
172
     0
173
     1
174
     0
175
     0
176
     0
177
     0
178
     0
270
     2
271
     2
272
     2
273
     2
274
     2
340
162
275
     0
280
     0
281
     0
282
     0
283
     1
284
    12
285
     0
286
     0
287
     3
288
     0
  0
DIMSTYLE
105
192
102
{ACAD_REACTORS
330
191
102
}
330
A
100
AcDbSymbolTableRecord
100
AcDbDimStyleTableRecord
  2
SLDDIMSTYLE1
 70
     0
  3

  4

  5

  6
OPEN30
  7
OPEN30
 40
1.0
 41
3.0
 42
0.0625
 43
0.38
 44
0.0
 45
0.000000001
 46
0.0
 47
0.0
 48
0.0
140
3.0316840278
141
0.09
142
0.0
143
25.4
144
1.0
145
0.0
146
1.0
147
0.7579210069
 71
     0
 72
     0
 73
     0
 74
     0
 75
     0
 76
     0
 77
     3
 78
    12
170
     0
171
     2
172
     1
173
     1
174
     0
175
     0
176
     0
177
     0
178
     0
270
     2
271
     2
272
     2
273
     2
274
     2
340
162
275
     0
280
     0
281
     0
282
     0
283
     1
284
    12
285
     0
286
     0
288
     0
  0
ENDTAB
  0
TABLE
  2
BLOCK_RECORD
  5
1
330
0
100
AcDbSymbolTable
 70
    14
  0
BLOCK_RECORD
  5
1F
330
1
100
AcDbSymbolTableRecord
100
AcDbBlockTableRecord
  2
*MODEL_SPACE
  0
BLOCK_RECORD
  5
1B
330
1
100
AcDbSymbolTableRecord
100
AcDbBlockTableRecord
  2
*PAPER_SPACE
  0
BLOCK_RECORD
  5
23
330
1
100
AcDbSymbolTableRecord
100
AcDbBlockTableRecord
  2
*PAPER_SPACE0
  0
BLOCK_RECORD
  5
49
330
1
100
AcDbSymbolTableRecord
100
AcDbBlockTableRecord
  2
_SUGATSUNE_
  0
BLOCK_RECORD
  5
164
330
1
100
AcDbSymbolTableRecord
100
AcDbBlockTableRecord
  2
_OPEN30
  0
BLOCK_RECORD
  5
16A
330
1
100
AcDbSymbolTableRecord
100
AcDbBlockTableRecord
  2
*D3
  0
BLOCK_RECORD
  5
174
330
1
100
AcDbSymbolTableRecord
100
AcDbBlockTableRecord
  2
*D4
  0
BLOCK_RECORD
  5
17E
330
1
100
AcDbSymbolTableRecord
100
AcDbBlockTableRecord
  2
*D5
  0
BLOCK_RECORD
  5
188
330
1
100
AcDbSymbolTableRecord
100
AcDbBlockTableRecord
  2
*D6
  0
BLOCK_RECORD
  5
193
330
1
100
AcDbSymbolTableRecord
100
AcDbBlockTableRecord
  2
*D7
  0
BLOCK_RECORD
  5
19F
330
1
100
AcDbSymbolTableRecord
100
AcDbBlockTableRecord
  2
*D8
  0
BLOCK_RECORD
  5
1A8
330
1
100
AcDbSymbolTableRecord
100
AcDbBlockTableRecord
  2
SW_NOTE_0
  0
BLOCK_RECORD
  5
1C9
330
1
100
AcDbSymbolTableRecord
100
AcDbBlockTableRecord
  2
SW_TABLEANNOTATION_0
  0
BLOCK_RECORD
  5
1DB
330
1
100
AcDbSymbolTableRecord
100
AcDbBlockTableRecord
  2
SW_TABLEANNOTATION_1
  0
BLOCK_RECORD
  5
1EA
330
1
100
AcDbSymbolTableRecord
100
AcDbBlockTableRecord
  2
SW_TABLEANNOTATION_2
  0
BLOCK_RECORD
  5
203
330
1
100
AcDbSymbolTableRecord
100
AcDbBlockTableRecord
  2
SW_TABLEANNOTATION_3
  0
ENDTAB
  0
ENDSEC
  0
SECTION
  2
BLOCKS
  0
BLOCK
  5
20
330
1F
100
AcDbEntity
  8
0
100
AcDbBlockBegin
  2
*MODEL_SPACE
 70
     0
 10
0.0
 20
0.0
 30
0.0
  3
*MODEL_SPACE
  1

  0
ENDBLK
  5
21
330
1F
100
AcDbEntity
  8
0
100
AcDbBlockEnd
  0
BLOCK
  5
1C
330
1B
100
AcDbEntity
 67
     1
  8
0
100
AcDbBlockBegin
  2
*PAPER_SPACE
 70
     0
 10
0.0
 20
0.0
 30
0.0
  3
*PAPER_SPACE
  1

  0
ENDBLK
  5
1D
330
1B
100
AcDbEntity
 67
     1
  8
0
100
AcDbBlockEnd
  0
BLOCK
  5
24
330
23
100
AcDbEntity
  8
0
100
AcDbBlockBegin
  2
*PAPER_SPACE0
 70
     0
 10
0.0
 20
0.0
 30
0.0
  3
*PAPER_SPACE0
  1

  0
ENDBLK
  5
25
330
23
100
AcDbEntity
  8
0
100
AcDbBlockEnd
  0
BLOCK
  5
4A
330
49
100
AcDbEntity
  8
0
100
AcDbBlockBegin
  2
_SUGATSUNE_
 70
     0
 10
0.0
 20
0.0
 30
0.0
  3
_SUGATSUNE_
  1

  0
LINE
  5
4C
330
49
100
AcDbEntity
  8
0
  6
CONTINUOUS
 62
     7
100
AcDbLine
 10
869.7421043049
 20
-266.3829469613
 30
0.0
 11
795.4723886101
 21
-256.9930704574
 31
0.0
  0
LINE
  5
4D
330
49
100
AcDbEntity
  8
0
  6
CONTINUOUS
 62
     7
100
AcDbLine
 10
795.4723886101
 20
-256.9930704574
 30
0.0
 11
814.2054940726
 21
-108.8226002503
 31
0.0
  0
LINE
  5
4E
330
49
100
AcDbEntity
  8
0
  6
CONTINUOUS
 62
     7
100
AcDbLine
 10
814.2054940726
 20
-108.8226002503
 30
0.0
 11
873.2392832865
 21
-116.286207524
 31
0.0
  0
LINE
  5
4F
330
49
100
AcDbEntity
  8
0
  6
CONTINUOUS
 62
     7
100
AcDbLine
 10
873.2392832865
 20
-116.286207524
 30
0.0
 11
879.7424999184
 21
-64.8486779516
 31
0.0
  0
LINE
  5
50
330
49
100
AcDbEntity
  8
0
  6
CONTINUOUS
 62
     7
100
AcDbLine
 10
879.7424999184
 20
-64.8486779516
 30
0.0
 11
820.7087107045
 21
-57.3850706779
 31
0.0
  0
LINE
  5
51
330
49
100
AcDbEntity
  8
0
  6
CONTINUOUS
 62
     7
100
AcDbLine
 10
820.7087107045
 20
-57.3850706779
 30
0.0
 11
834.527360054
 21
51.9142537637
 31
0.0
  0
LINE
  5
52
330
49
100
AcDbEntity
  8
0
  6
CONTINUOUS
 62
     7
100
AcDbLine
 10
834.527360054
 20
51.9142537637
 30
0.0
 11
898.136267932
 21
43.8722169263
 31
0.0
  0
LINE
  5
53
330
49
100
AcDbEntity
  8
0
  6
CONTINUOUS
 62
     7
100
AcDbLine
 10
898.136267932
 20
43.8722169263
 30
0.0
 11
904.6405821532
 21
95.3184279383
 31
0.0
  0
LINE
  5
54
330
49
100
AcDbEntity
  8
0
  6
CONTINUOUS
 62
     7
100
AcDbLine
 10
904.6405821532
 20
95.3184279383
 30
0.0
 11
789.5854632632
 21
109.8647789969
 31
0.0
  0
LINE
  5
55
330
49
100
AcDbEntity
  8
0
  6
CONTINUOUS
 62
     7
100
AcDbLine
 10
789.5854632632
 20
109.8647789969
 30
0.0
 11
737.3841159191
 21
-303.0244879167
 31
0.0
  0
LINE
  5
56
330
49
100
AcDbEntity
  8
0
  6
CONTINUOUS
 62
     7
100
AcDbLine
 10
737.3841159191
 20
-303.0244879167
 30
0.0
 11
863.0934570901
 21
-318.9707672795
 31
0.0
  0
LINE
  5
57
330
49
100
AcDbEntity
  8
0
  6
CONTINUOUS
 62
     7
100
AcDbLine
 10
863.0934570901
 20
-318.9707672795
 30
0.0
 11
869.7421043049
 21
-266.3829469613
 31
0.0
  0
LINE
  5
58
330
49
100
AcDbEntity
  8
0
  6
CONTINUOUS
 62
     7
100
AcDbLine
 10
199.7424131809
 20
184.4382891441
 30
0.0
 11
58.0439561883
 21
202.3531417797
 31
0.0
  0
LINE
  5
59
330
49
100
AcDbEntity
  8
0
  6
CONTINUOUS
 62
     7
100
AcDbLine
 10
58.0439561883
 20
202.3531417797
 30
0.0
 11
51.5396419671
 21
150.9069307677
 31
0.0
  0
LINE
  5
5A
330
49
100
AcDbEntity
  8
0
  6
CONTINUOUS
 62
     7
100
AcDbLine
 10
51.5396419671
 20
150.9069307677
 30
0.0
 11
97.8811665
 21
145.0479990578
 31
0.0
  0
LINE
  5
5B
330
49
100
AcDbEntity
  8
0
  6
CONTINUOUS
 62
     7
100
AcDbLine
 10
97.8811665
 20
145.0479990578
 30
0.0
 11
52.1841333772
 21
-216.3950568439
 31
0.0
  0
LINE
  5
5C
330
49
100
AcDbEntity
  8
0
  6
CONTINUOUS
 62
     7
100
AcDbLine
 10
52.1841333772
 20
-216.3950568439
 30
0.0
 11
103.6303443892
 21
-222.8993710651
 31
0.0
  0
LINE
  5
5D
330
49
100
AcDbEntity
  8
0
  6
CONTINUOUS
 62
     7
100
AcDbLine
 10
103.6303443892
 20
-222.8993710651
 30
0.0
 11
149.327377512
 21
138.5436848366
 31
0.0
  0
LINE
  5
5E
330
49
100
AcDbEntity
  8
0
  6
CONTINUOUS
 62
     7
100
AcDbLine
 10
149.327377512
 20
138.5436848366
 30
0.0
 11
193.2380989597
 21
132.9920781321
 31
0.0
  0
LINE
  5
5F
330
49
100
AcDbEntity
  8
0
  6
CONTINUOUS
 62
     7
100
AcDbLine
 10
193.2380989597
 20
132.9920781321
 30
0.0
 11
199.7424131809
 21
184.4382891441
 31
0.0
  0
LINE
  5
60
330
49
100
AcDbEntity
  8
0
  6
CONTINUOUS
 62
     7
100
AcDbLine
 10
697.4696971482
 20
122.0930548393
 30
0.0
 11
659.2960899162
 21
-179.8430733908
 31
0.0
  0
LINE
  5
61
330
49
100
AcDbEntity
  8
0
  6
CONTINUOUS
 62
     7
100
AcDbLine
 10
659.2960899162
 20
-179.8430733908
 30
0.0
 11
644.946987627
 21
128.7334701343
 31
0.0
  0
LINE
  5
62
330
49
100
AcDbEntity
  8
0
  6
CONTINUOUS
 62
     7
100
AcDbLine
 10
644.946987627
 20
128.7334701343
 30
0.0
 11
558.8184254518
 21
139.6226536289
 31
0.0
  0
LINE
  5
63
330
49
100
AcDbEntity
  8
0
  6
CONTINUOUS
 62
     7
100
AcDbLine
 10
558.8184254518
 20
139.6226536289
 30
0.0
 11
506.5446372136
 21
-273.8395882978
 31
0.0
  0
LINE
  5
64
330
49
100
AcDbEntity
  8
0
  6
CONTINUOUS
 62
     7
100
AcDbLine
 10
506.5446372136
 20
-273.8395882978
 30
0.0
 11
557.9995296652
 21
-280.3450001083
 31
0.0
  0
LINE
  5
65
330
49
100
AcDbEntity
  8
0
  6
CONTINUOUS
 62
     7
100
AcDbLine
 10
557.9995296652
 20
-280.3450001083
 30
0.0
 11
597.8304967477
 21
34.7001019032
 31
0.0
  0
LINE
  5
66
330
49
100
AcDbEntity
  8
0
  6
CONTINUOUS
 62
     7
100
AcDbLine
 10
597.8304967477
 20
34.7001019032
 30
0.0
 11
612.302833342
 21
-287.3428379833
 31
0.0
  0
LINE
  5
67
330
49
100
AcDbEntity
  8
0
  6
CONTINUOUS
 62
     7
100
AcDbLine
 10
612.302833342
 20
-287.3428379833
 30
0.0
 11
696.6508013615
 21
-297.8745988978
 31
0.0
  0
LINE
  5
68
330
49
100
AcDbEntity
  8
0
  6
CONTINUOUS
 62
     7
100
AcDbLine
 10
696.6508013615
 20
-297.8745988978
 30
0.0
 11
748.9245895997
 21
115.5876430288
 31
0.0
  0
LINE
  5
69
330
49
100
AcDbEntity
  8
0
  6
CONTINUOUS
 62
     7
100
AcDbLine
 10
748.9245895997
 20
115.5876430288
 30
0.0
 11
697.4696971482
 21
122.0930548393
 31
0.0
  0
LINE
  5
6A
330
49
100
AcDbEntity
  8
0
  6
CONTINUOUS
 62
     7
100
AcDbLine
 10
-927.528139416
 20
-38.8375989188
 30
0.0
 11
-933.206749585
 21
-38.0226332939
 31
0.0
  0
LINE
  5
6B
330
49
100
AcDbEntity
  8
0
  6
CONTINUOUS
 62
     7
100
AcDbLine
 10
-933.206749585
 20
-38.0226332939
 30
0.0
 11
-939.8575919785
 21
-90.6278164912
 31
0.0
  0
LINE
  5
6C
330
49
100
AcDbEntity
  8
0
  6
CONTINUOUS
 62
     7
100
AcDbLine
 10
-939.8575919785
 20
-90.6278164912
 30
0.0
 11
-929.8001442131
 21
-91.899373701
 31
0.0
  0
LINE
  5
6D
330
49
100
AcDbEntity
  8
0
  6
CONTINUOUS
 62
     7
100
AcDbLine
 10
-832.9347538208
 20
-60.5256735618
 30
0.0
 11
-832.9325586422
 21
-60.5083106826
 31
0.0
  0
LINE
  5
6E
330
49
100
AcDbEntity
  8
0
  6
CONTINUOUS
 62
     7
100
AcDbLine
 10
-792.5264547639
 20
259.0858656742
 30
0.0
 11
-786.2350728679
 21
308.8478774056
 31
0.0
  0
LINE
  5
6F
330
49
100
AcDbEntity
  8
0
  6
CONTINUOUS
 62
     7
100
AcDbLine
 10
-786.2350728679
 20
308.8478774056
 30
0.0
 11
-807.3960818692
 21
311.5232513365
 31
0.0
  0
LINE
  5
70
330
49
100
AcDbEntity
  8
0
  6
CONTINUOUS
 62
     7
100
AcDbLine
 10
165.3088390875
 20
-177.0043358062
 30
0.0
 11
159.6345696383
 21
-176.189918976
 31
0.0
  0
LINE
  5
71
330
49
100
AcDbEntity
  8
0
  6
CONTINUOUS
 62
     7
100
AcDbLine
 10
159.6345696383
 20
-176.189918976
 30
0.0
 11
152.9837272448
 21
-228.7951021733
 31
0.0
  0
LINE
  5
72
330
49
100
AcDbEntity
  8
0
  6
CONTINUOUS
 62
     7
100
AcDbLine
 10
152.9837272448
 20
-228.7951021733
 30
0.0
 11
163.0281528508
 21
-230.0650129991
 31
0.0
  0
LINE
  5
73
330
49
100
AcDbEntity
  8
0
  6
CONTINUOUS
 62
     7
100
AcDbLine
 10
259.8978839629
 20
-198.6918616546
 30
0.0
 11
259.9000791415
 21
-198.6744987754
 31
0.0
  0
LINE
  5
74
330
49
100
AcDbEntity
  8
0
  6
CONTINUOUS
 62
     7
100
AcDbLine
 10
300.3061830198
 20
120.9196775814
 30
0.0
 11
306.5975649158
 21
170.6816893128
 31
0.0
  0
LINE
  5
75
330
49
100
AcDbEntity
  8
0
  6
CONTINUOUS
 62
     7
100
AcDbLine
 10
306.5975649158
 20
170.6816893128
 30
0.0
 11
285.4322151947
 21
173.3576120383
 31
0.0
  0
LINE
  5
76
330
49
100
AcDbEntity
  8
0
  6
CONTINUOUS
 62
     7
100
AcDbLine
 10
-323.8771426432
 20
412.1195545381
 30
0.0
 11
-471.1490838527
 21
430.7390595075
 31
0.0
  0
LINE
  5
77
330
49
100
AcDbEntity
  8
0
  6
CONTINUOUS
 62
     7
100
AcDbLine
 10
-471.1490838527
 20
430.7390595075
 30
0.0
 11
-452.5273837047
 21
578.0283635962
 31
0.0
  0
LINE
  5
78
330
49
100
AcDbEntity
  8
0
  6
CONTINUOUS
 62
     7
100
AcDbLine
 10
-452.5273837047
 20
578.0283635962
 30
0.0
 11
-305.2554424952
 21
559.4088586268
 31
0.0
  0
LINE
  5
79
330
49
100
AcDbEntity
  8
0
  6
CONTINUOUS
 62
     7
100
AcDbLine
 10
-305.2554424952
 20
559.4088586268
 30
0.0
 11
-323.8771426432
 21
412.1195545381
 31
0.0
  0
LINE
  5
7A
330
49
100
AcDbEntity
  8
0
  6
CONTINUOUS
 62
     7
100
AcDbLine
 10
-434.2704797579
 20
-461.042276573
 30
0.0
 11
-581.5424209674
 21
-442.4227716035
 31
0.0
  0
LINE
  5
7B
330
49
100
AcDbEntity
  8
0
  6
CONTINUOUS
 62
     7
100
AcDbLine
 10
-581.5424209674
 20
-442.4227716035
 30
0.0
 11
-562.9218184087
 21
-295.1421489545
 31
0.0
  0
LINE
  5
7C
330
49
100
AcDbEntity
  8
0
  6
CONTINUOUS
 62
     7
100
AcDbLine
 10
-562.9218184087
 20
-295.1421489545
 30
0.0
 11
-415.6498771992
 21
-313.7616539239
 31
0.0
  0
LINE
  5
7D
330
49
100
AcDbEntity
  8
0
  6
CONTINUOUS
 62
     7
100
AcDbLine
 10
-415.6498771992
 20
-313.7616539239
 30
0.0
 11
-434.2704797579
 21
-461.042276573
 31
0.0
  0
LINE
  5
7E
330
49
100
AcDbEntity
  8
0
  6
CONTINUOUS
 62
     7
100
AcDbLine
 10
512.4189552477
 20
306.387130407
 30
0.0
 11
365.1470140382
 21
325.0066353764
 31
0.0
  0
LINE
  5
7F
330
49
100
AcDbEntity
  8
0
  6
CONTINUOUS
 62
     7
100
AcDbLine
 10
365.1470140382
 20
325.0066353764
 30
0.0
 11
383.7687141862
 21
472.2959394651
 31
0.0
  0
LINE
  5
80
330
49
100
AcDbEntity
  8
0
  6
CONTINUOUS
 62
     7
100
AcDbLine
 10
383.7687141862
 20
472.2959394651
 30
0.0
 11
531.0406553957
 21
453.6764344957
 31
0.0
  0
LINE
  5
81
330
49
100
AcDbEntity
  8
0
  6
CONTINUOUS
 62
     7
100
AcDbLine
 10
531.0406553957
 20
453.6764344957
 30
0.0
 11
512.4189552477
 21
306.387130407
 31
0.0
  0
LINE
  5
82
330
49
100
AcDbEntity
  8
0
  6
CONTINUOUS
 62
     7
100
AcDbLine
 10
402.0256181331
 20
-566.7747007041
 30
0.0
 11
254.7536769236
 21
-548.1551957347
 31
0.0
  0
LINE
  5
83
330
49
100
AcDbEntity
  8
0
  6
CONTINUOUS
 62
     7
100
AcDbLine
 10
254.7536769236
 20
-548.1551957347
 30
0.0
 11
273.3742794823
 21
-400.8745730856
 31
0.0
  0
LINE
  5
84
330
49
100
AcDbEntity
  8
0
  6
CONTINUOUS
 62
     7
100
AcDbLine
 10
273.3742794823
 20
-400.8745730856
 30
0.0
 11
420.6462206918
 21
-419.494078055
 31
0.0
  0
LINE
  5
85
330
49
100
AcDbEntity
  8
0
  6
CONTINUOUS
 62
     7
100
AcDbLine
 10
420.6462206918
 20
-419.494078055
 30
0.0
 11
402.0256181331
 21
-566.7747007041
 31
0.0
  0
LINE
  5
86
330
49
100
AcDbEntity
  8
0
  6
CONTINUOUS
 62
     7
100
AcDbLine
 10
-584.2406810815
 20
284.1389446455
 30
0.0
 11
-635.6912328133
 21
290.6438076614
 31
0.0
  0
LINE
  5
87
330
49
100
AcDbEntity
  8
0
  6
CONTINUOUS
 62
     7
100
AcDbLine
 10
-635.6912328133
 20
290.6438076614
 30
0.0
 11
-679.0010231127
 21
-49.9987203146
 31
0.0
  0
LINE
  5
88
330
49
100
AcDbEntity
  8
0
  6
CONTINUOUS
 62
     7
100
AcDbLine
 10
-730.6744518087
 20
-42.9893879085
 30
0.0
 11
-687.8406404321
 21
297.2370266163
 31
0.0
  0
LINE
  5
89
330
49
100
AcDbEntity
  8
0
  6
CONTINUOUS
 62
     7
100
AcDbLine
 10
-687.8406404321
 20
297.2370266163
 30
0.0
 11
-739.2911921639
 21
303.7418896322
 31
0.0
  0
LINE
  5
8A
330
49
100
AcDbEntity
  8
0
  6
CONTINUOUS
 62
     7
100
AcDbLine
 10
513.831205495
 20
145.3103614072
 30
0.0
 11
462.384994483
 21
151.8146756284
 31
0.0
  0
LINE
  5
8B
330
49
100
AcDbEntity
  8
0
  6
CONTINUOUS
 62
     7
100
AcDbLine
 10
462.384994483
 20
151.8146756284
 30
0.0
 11
419.0621820241
 21
-188.8262059637
 31
0.0
  0
LINE
  5
8C
330
49
100
AcDbEntity
  8
0
  6
CONTINUOUS
 62
     7
100
AcDbLine
 10
367.3887533281
 20
-181.8168735575
 30
0.0
 11
410.2269054246
 21
158.4089921726
 31
0.0
  0
LINE
  5
8D
330
49
100
AcDbEntity
  8
0
  6
CONTINUOUS
 62
     7
100
AcDbLine
 10
410.2269054246
 20
158.4089921726
 30
0.0
 11
358.7806944126
 21
164.9133063939
 31
0.0
  0
LINE
  5
8E
330
49
100
AcDbEntity
  8
0
  6
CONTINUOUS
 62
     7
100
AcDbLine
 10
-316.6972120655
 20
83.6734072111
 30
0.0
 11
-387.1316474296
 21
40.3098438409
 31
0.0
  0
LINE
  5
8F
330
49
100
AcDbEntity
  8
0
  6
CONTINUOUS
 62
     7
100
AcDbLine
 10
-387.1316474296
 20
40.3098438409
 30
0.0
 11
-231.5385463728
 21
20.6382995227
 31
0.0
  0
LINE
  5
90
330
49
100
AcDbEntity
  8
0
  6
CONTINUOUS
 62
     7
100
AcDbLine
 10
-231.5385463728
 20
20.6382995227
 30
0.0
 11
-242.4414497337
 21
-65.5987806474
 31
0.0
  0
LINE
  5
91
330
49
100
AcDbEntity
  8
0
  6
CONTINUOUS
 62
     7
100
AcDbLine
 10
-214.5987399655
 20
125.4283912713
 30
0.0
 11
-166.9206179129
 21
153.0936656776
 31
0.0
  0
LINE
  5
92
330
49
100
AcDbEntity
  8
0
  6
CONTINUOUS
 62
     7
100
AcDbLine
 10
-193.9440585187
 20
-95.9152853503
 30
0.0
 11
-173.5967025792
 21
65.5812939027
 31
0.0
  0
LINE
  5
93
330
49
100
AcDbEntity
  8
0
  6
CONTINUOUS
 62
     7
100
AcDbLine
 10
-173.5967025792
 20
65.5812939027
 30
0.0
 11
-316.6972120655
 21
83.6734072111
 31
0.0
  0
LINE
  5
94
330
49
100
AcDbEntity
  8
0
  6
CONTINUOUS
 62
     7
100
AcDbLine
 10
0.0
 20
209.7974475317
 30
0.0
 11
-87.1616534864
 21
220.8172441536
 31
0.0
  0
LINE
  5
95
330
49
100
AcDbEntity
  8
0
  6
CONTINUOUS
 62
     7
100
AcDbLine
 10
-87.1616534864
 20
220.8172441536
 30
0.0
 11
-191.5863495981
 21
-185.5752979551
 31
0.0
  0
LINE
  5
96
330
49
100
AcDbEntity
  8
0
  6
CONTINUOUS
 62
     7
100
AcDbLine
 10
-191.5863495981
 20
-185.5752979551
 30
0.0
 11
-140.1357978663
 21
-192.080160971
 31
0.0
  0
LINE
  5
97
330
49
100
AcDbEntity
  8
0
  6
CONTINUOUS
 62
     7
100
AcDbLine
 10
-140.1357978663
 20
-192.080160971
 30
0.0
 11
-110.2759087914
 21
-75.8608208749
 31
0.0
  0
LINE
  5
98
330
49
100
AcDbEntity
  8
0
  6
CONTINUOUS
 62
     7
100
AcDbLine
 10
-110.2759087914
 20
-75.8608208749
 30
0.0
 11
-51.4548148475
 21
-83.2975372107
 31
0.0
  0
LINE
  5
99
330
49
100
AcDbEntity
  8
0
  6
CONTINUOUS
 62
     7
100
AcDbLine
 10
-51.4548148475
 20
-83.2975372107
 30
0.0
 11
-51.4505517318
 21
-203.2925845159
 31
0.0
  0
LINE
  5
9A
330
49
100
AcDbEntity
  8
0
  6
CONTINUOUS
 62
     7
100
AcDbLine
 10
-51.4505517318
 20
-203.2925845159
 30
0.0
 11
0.0
 21
-209.7974475317
 31
0.0
  0
LINE
  5
9B
330
49
100
AcDbEntity
  8
0
  6
CONTINUOUS
 62
     7
100
AcDbLine
 10
0.0
 20
-209.7974475317
 30
0.0
 11
0.0
 21
209.7974475317
 31
0.0
  0
LINE
  5
9C
330
49
100
AcDbEntity
  8
0
  6
CONTINUOUS
 62
     7
100
AcDbLine
 10
-94.3885889716
 20
-14.0331960543
 30
0.0
 11
-51.6240660108
 21
152.3865661458
 31
0.0
  0
LINE
  5
9D
330
49
100
AcDbEntity
  8
0
  6
CONTINUOUS
 62
     7
100
AcDbLine
 10
-51.6240660108
 20
152.3865661458
 30
0.0
 11
-51.4501887581
 21
-19.4618727567
 31
0.0
  0
LINE
  5
9E
330
49
100
AcDbEntity
  8
0
  6
CONTINUOUS
 62
     7
100
AcDbLine
 10
-51.4501887581
 20
-19.4618727567
 30
0.0
 11
-94.3885889716
 21
-14.0331960543
 31
0.0
  0
SPLINE
  5
9F
330
49
100
AcDbEntity
  8
0
  6
CONTINUOUS
 62
     8
100
AcDbSpline
210
0.0
220
0.0
230
1.0
 70
     8
 71
     3
 72
     8
 73
     4
 74
     0
 42
0.00000001
 43
0.00000001
 40
0.0
 40
0.0
 40
0.0
 40
0.0
 40
1.0
 40
1.0
 40
1.0
 40
1.0
 10
-890.9863947766972
 20
139.6852312747265
 30
0.0
 10
-866.3363781724167
 20
79.21534709881578
 30
0.0
 10
-857.074223415753
 20
49.60799042958515
 30
0.0
 10
-856.2725402273633
 20
29.26425866074654
 30
0.0
  0
SPLINE
  5
A0
330
49
100
AcDbEntity
  8
0
  6
CONTINUOUS
 62
     8
100
AcDbSpline
210
0.0
220
0.0
230
1.0
 70
     8
 71
     3
 72
     8
 73
     4
 74
     0
 42
0.00000001
 43
0.00000001
 40
1.0
 40
1.0
 40
1.0
 40
1.0
 40
2.0
 40
2.0
 40
2.0
 40
2.0
 10
-856.2725402273633
 20
29.26425866074654
 30
0.0
 10
-855.4714058336252
 20
8.916186172112539
 30
0.0
 10
-857.8338809963866
 20
-14.72316971655814
 30
0.0
 10
-880.4288760534982
 20
-32.24999652057599
 30
0.0
  0
SPLINE
  5
A1
330
49
100
AcDbEntity
  8
0
  6
CONTINUOUS
 62
     8
100
AcDbSpline
210
0.0
220
0.0
230
1.0
 70
     8
 71
     2
 72
     6
 73
     3
 74
     0
 42
0.00000001
 43
0.00000001
 40
2.0
 40
2.0
 40
2.0
 40
3.0
 40
3.0
 40
3.0
 10
-880.4288760534982
 20
-32.24999652057599
 30
0.0
 10
-894.8638202921812
 20
-43.45244098129032
 30
0.0
 10
-927.5281394159653
 20
-38.83759891876347
 30
0.0
  0
SPLINE
  5
A2
330
49
100
AcDbEntity
  8
0
  6
CONTINUOUS
 62
     8
100
AcDbSpline
210
0.0
220
0.0
230
1.0
 70
     8
 71
     3
 72
     8
 73
     4
 74
     0
 42
0.00000001
 43
0.00000001
 40
6.0
 40
6.0
 40
6.0
 40
6.0
 40
7.0
 40
7.0
 40
7.0
 40
7.0
 10
-929.8001442131276
 20
-91.89937370096256
 30
0.0
 10
-895.7717085448235
 20
-94.34050511163805
 30
0.0
 10
-863.2763304873037
 20
-91.74551921823007
 30
0.0
 10
-832.934753820815
 20
-60.52567356176863
 30
0.0
  0
SPLINE
  5
A3
330
49
100
AcDbEntity
  8
0
  6
CONTINUOUS
 62
     8
100
AcDbSpline
210
0.0
220
0.0
230
1.0
 70
     8
 71
     3
 72
     8
 73
     4
 74
     0
 42
0.00000001
 43
0.00000001
 40
8.0
 40
8.0
 40
8.0
 40
8.0
 40
9.0
 40
9.0
 40
9.0
 40
9.0
 10
-832.932558642205
 20
-60.5083106825875
 30
0.0
 10
-820.7248670931349
 20
-47.03972936214412
 30
0.0
 10
-811.6322350913058
 20
-30.51361033136682
 30
0.0
 10
-807.3507090200826
 20
-14.50821252207474
 30
0.0
  0
SPLINE
  5
A4
330
49
100
AcDbEntity
  8
0
  6
CONTINUOUS
 62
     8
100
AcDbSpline
210
0.0
220
0.0
230
1.0
 70
     8
 71
     3
 72
     8
 73
     4
 74
     0
 42
0.00000001
 43
0.00000001
 40
9.0
 40
9.0
 40
9.0
 40
9.0
 40
10.0
 40
10.0
 40
10.0
 40
10.0
 10
-807.3507090200826
 20
-14.50821252207474
 30
0.0
 10
-801.8645921453386
 20
6.00195896092924
 30
0.0
 10
-803.4428475967961
 20
24.04036585319126
 30
0.0
 10
-805.4311797583139
 20
42.60249958599915
 30
0.0
  0
SPLINE
  5
A5
330
49
100
AcDbEntity
  8
0
  6
CONTINUOUS
 62
     8
100
AcDbSpline
210
0.0
220
0.0
230
1.0
 70
     8
 71
     3
 72
     8
 73
     4
 74
     0
 42
0.00000001
 43
0.00000001
 40
10.0
 40
10.0
 40
10.0
 40
10.0
 40
11.0
 40
11.0
 40
11.0
 40
11.0
 10
-805.4311797583139
 20
42.60249958599915
 30
0.0
 10
-806.7050411391947
 20
54.43268720569591
 30
0.0
 10
-818.1327910568815
 20
94.64230138386543
 30
0.0
 10
-819.8772477986236
 20
99.85508927756479
 30
0.0
  0
SPLINE
  5
A6
330
49
100
AcDbEntity
  8
0
  6
CONTINUOUS
 62
     8
100
AcDbSpline
210
0.0
220
0.0
230
1.0
 70
     8
 71
     3
 72
     8
 73
     4
 74
     0
 42
0.00000001
 43
0.00000001
 40
11.0
 40
11.0
 40
11.0
 40
11.0
 40
12.0
 40
12.0
 40
12.0
 40
12.0
 10
-819.8772477986236
 20
99.85508927756479
 30
0.0
 10
-828.2721738775223
 20
124.8456768754948
 30
0.0
 10
-845.4637901191555
 20
164.2889881715498
 30
0.0
 10
-849.9390763796038
 20
186.0629841017931
 30
0.0
  0
SPLINE
  5
A7
330
49
100
AcDbEntity
  8
0
  6
CONTINUOUS
 62
     8
100
AcDbSpline
210
0.0
220
0.0
230
1.0
 70
     8
 71
     3
 72
     8
 73
     4
 74
     0
 42
0.00000001
 43
0.00000001
 40
12.0
 40
12.0
 40
12.0
 40
12.0
 40
13.0
 40
13.0
 40
13.0
 40
13.0
 10
-849.9390763796038
 20
186.0629841017931
 30
0.0
 10
-854.4154602293569
 20
207.8282985924476
 30
0.0
 10
-848.8668085940365
 20
232.6701057656404
 30
0.0
 10
-843.7510228126799
 20
242.6119786728493
 30
0.0
  0
SPLINE
  5
A8
330
49
100
AcDbEntity
  8
0
  6
CONTINUOUS
 62
     8
100
AcDbSpline
210
0.0
220
0.0
230
1.0
 70
     8
 71
     3
 72
     8
 73
     4
 74
     0
 42
0.00000001
 43
0.00000001
 40
13.0
 40
13.0
 40
13.0
 40
13.0
 40
14.0
 40
14.0
 40
14.0
 40
14.0
 10
-843.7510228126799
 20
242.6119786728493
 30
0.0
 10
-838.6379313671622
 20
252.5674225340958
 30
0.0
 10
-826.5925503646092
 20
260.2175475409544
 30
0.0
 10
-815.3814365086786
 20
261.1992293531684
 30
0.0
  0
SPLINE
  5
A9
330
49
100
AcDbEntity
  8
0
  6
CONTINUOUS
 62
     8
100
AcDbSpline
210
0.0
220
0.0
230
1.0
 70
     8
 71
     3
 72
     8
 73
     4
 74
     0
 42
0.00000001
 43
0.00000001
 40
14.0
 40
14.0
 40
14.0
 40
14.0
 40
15.0
 40
15.0
 40
15.0
 40
15.0
 10
-815.3814365086786
 20
261.1992293531684
 30
0.0
 10
-809.0610590113487
 20
261.7628697472995
 30
0.0
 10
-800.6848155831576
 20
260.5186418633522
 30
0.0
 10
-792.5264547639244
 20
259.0858656741514
 30
0.0
  0
SPLINE
  5
AA
330
49
100
AcDbEntity
  8
0
  6
CONTINUOUS
 62
     8
100
AcDbSpline
210
0.0
220
0.0
230
1.0
 70
     8
 71
     3
 72
     8
 73
     4
 74
     0
 42
0.00000001
 43
0.00000001
 40
17.0
 40
17.0
 40
17.0
 40
17.0
 40
18.0
 40
18.0
 40
18.0
 40
18.0
 10
-807.3960818691783
 20
311.5232513364796
 30
0.0
 10
-826.4127752916847
 20
313.9275207090026
 30
0.0
 10
-850.3334169767085
 20
307.6817556518859
 30
0.0
 10
-869.2983404813871
 20
292.1127177971525
 30
0.0
  0
SPLINE
  5
AB
330
49
100
AcDbEntity
  8
0
  6
CONTINUOUS
 62
     8
100
AcDbSpline
210
0.0
220
0.0
230
1.0
 70
     8
 71
     3
 72
     8
 73
     4
 74
     0
 42
0.00000001
 43
0.00000001
 40
18.0
 40
18.0
 40
18.0
 40
18.0
 40
19.0
 40
19.0
 40
19.0
 40
19.0
 10
-869.2983404813871
 20
292.1127177971525
 30
0.0
 10
-889.6932470208066
 20
275.3838003685692
 30
0.0
 10
-903.3302345733861
 20
255.4587182131359
 30
0.0
 10
-905.1073374570078
 20
214.7179441269362
 30
0.0
  0
SPLINE
  5
AC
330
49
100
AcDbEntity
  8
0
  6
CONTINUOUS
 62
     8
100
AcDbSpline
210
0.0
220
0.0
230
1.0
 70
     8
 71
     3
 72
     8
 73
     4
 74
     0
 42
0.00000001
 43
0.00000001
 40
19.0
 40
19.0
 40
19.0
 40
19.0
 40
20.0
 40
20.0
 40
20.0
 40
20.0
 10
-905.1073374570078
 20
214.7179441269362
 30
0.0
 10
-906.3341324310342
 20
189.8060183428811
 30
0.0
 10
-903.0120381507764
 20
169.2009638275925
 30
0.0
 10
-890.9863947766972
 20
139.6852312747265
 30
0.0
  0
SPLINE
  5
AD
330
49
100
AcDbEntity
  8
0
  6
CONTINUOUS
 62
     8
100
AcDbSpline
210
0.0
220
0.0
230
1.0
 70
     8
 71
     3
 72
     8
 73
     4
 74
     0
 42
0.00000001
 43
0.00000001
 40
0.0
 40
0.0
 40
0.0
 40
0.0
 40
1.0
 40
1.0
 40
1.0
 40
1.0
 10
201.8332208476328
 20
1.520689565898493
 30
0.0
 10
226.4875781717096
 20
-58.9497434046649
 30
0.0
 10
235.7627550877583
 20
-88.55874645785292
 30
0.0
 10
236.5600975563536
 20
-108.9019294320391
 30
0.0
  0
SPLINE
  5
AE
330
49
100
AcDbEntity
  8
0
  6
CONTINUOUS
 62
     8
100
AcDbSpline
210
0.0
220
0.0
230
1.0
 70
     8
 71
     3
 72
     8
 73
     4
 74
     0
 42
0.00000001
 43
0.00000001
 40
1.0
 40
1.0
 40
1.0
 40
1.0
 40
2.0
 40
2.0
 40
2.0
 40
2.0
 10
236.5600975563536
 20
-108.9019294320391
 30
0.0
 10
237.3482097907057
 20
-129.2483555367156
 30
0.0
 10
234.994416067534
 20
-152.8888090146912
 30
0.0
 10
212.3950802906279
 20
-170.4150870240567
 30
0.0
  0
SPLINE
  5
AF
330
49
100
AcDbEntity
  8
0
  6
CONTINUOUS
 62
     8
100
AcDbSpline
210
0.0
220
0.0
230
1.0
 70
     8
 71
     2
 72
     6
 73
     3
 74
     0
 42
0.00000001
 43
0.00000001
 40
2.0
 40
2.0
 40
2.0
 40
3.0
 40
3.0
 40
3.0
 10
212.3950802906279
 20
-170.4150870240567
 30
0.0
 10
197.9601360519449
 20
-181.617531484771
 30
0.0
 10
165.3088390875459
 20
-177.0043358062015
 30
0.0
  0
SPLINE
  5
B0
330
49
100
AcDbEntity
  8
0
  6
CONTINUOUS
 62
     8
100
AcDbSpline
210
0.0
220
0.0
230
1.0
 70
     8
 71
     3
 72
     8
 73
     4
 74
     0
 42
0.00000001
 43
0.00000001
 40
6.0
 40
6.0
 40
6.0
 40
6.0
 40
7.0
 40
7.0
 40
7.0
 40
7.0
 10
163.0281528507939
 20
-230.0650129990957
 30
0.0
 10
197.0479070795065
 20
-232.5050468204661
 30
0.0
 10
229.551966576617
 20
-229.9111585163631
 30
0.0
 10
259.8978839629009
 20
-198.6918616545542
 30
0.0
  0
SPLINE
  5
B1
330
49
100
AcDbEntity
  8
0
  6
CONTINUOUS
 62
     8
100
AcDbSpline
210
0.0
220
0.0
230
1.0
 70
     8
 71
     3
 72
     8
 73
     4
 74
     0
 42
0.00000001
 43
0.00000001
 40
8.0
 40
8.0
 40
8.0
 40
8.0
 40
9.0
 40
9.0
 40
9.0
 40
9.0
 10
259.9000791415109
 20
-198.6744987753731
 30
0.0
 10
272.107770690581
 20
-185.2059174549297
 30
0.0
 10
281.20040269241
 20
-168.6797984241524
 30
0.0
 10
285.4819287636332
 20
-152.6744006148603
 30
0.0
  0
SPLINE
  5
B2
330
49
100
AcDbEntity
  8
0
  6
CONTINUOUS
 62
     8
100
AcDbSpline
210
0.0
220
0.0
230
1.0
 70
     8
 71
     3
 72
     8
 73
     4
 74
     0
 42
0.00000001
 43
0.00000001
 40
9.0
 40
9.0
 40
9.0
 40
9.0
 40
10.0
 40
10.0
 40
10.0
 40
10.0
 10
285.4819287636332
 20
-152.6744006148603
 30
0.0
 10
290.9680456383771
 20
-132.1642291318563
 30
0.0
 10
289.3854494671245
 20
-114.1252734449418
 30
0.0
 10
287.3927765858123
 20
-95.56259091748151
 30
0.0
  0
SPLINE
  5
B3
330
49
100
AcDbEntity
  8
0
  6
CONTINUOUS
 62
     8
100
AcDbSpline
210
0.0
220
0.0
230
1.0
 70
     8
 71
     3
 72
     8
 73
     4
 74
     0
 42
0.00000001
 43
0.00000001
 40
10.0
 40
10.0
 40
10.0
 40
10.0
 40
11.0
 40
11.0
 40
11.0
 40
11.0
 10
287.3927765858123
 20
-95.56259091748151
 30
0.0
 10
286.1189152049305
 20
-83.73240329778464
 30
0.0
 10
274.6911652872437
 20
-43.52278911961513
 30
0.0
 10
272.951049265297
 20
-38.31055002056828
 30
0.0
  0
SPLINE
  5
B4
330
49
100
AcDbEntity
  8
0
  6
CONTINUOUS
 62
     8
100
AcDbSpline
210
0.0
220
0.0
230
1.0
 70
     8
 71
     3
 72
     8
 73
     4
 74
     0
 42
0.00000001
 43
0.00000001
 40
11.0
 40
11.0
 40
11.0
 40
11.0
 40
12.0
 40
12.0
 40
12.0
 40
12.0
 10
272.951049265297
 20
-38.31055002056828
 30
0.0
 10
264.5561231863983
 20
-13.31996242263826
 30
0.0
 10
247.3688476645604
 20
26.1228000787643
 30
0.0
 10
242.8979021239074
 20
47.89624721435505
 30
0.0
  0
SPLINE
  5
B5
330
49
100
AcDbEntity
  8
0
  6
CONTINUOUS
 62
     8
100
AcDbSpline
210
0.0
220
0.0
230
1.0
 70
     8
 71
     3
 72
     8
 73
     4
 74
     0
 42
0.00000001
 43
0.00000001
 40
12.0
 40
12.0
 40
12.0
 40
12.0
 40
13.0
 40
13.0
 40
13.0
 40
13.0
 10
242.8979021239074
 20
47.89624721435505
 30
0.0
 10
238.4171775543589
 20
69.66211049966199
 30
0.0
 10
243.9571477500889
 20
94.50501526215979
 30
0.0
 10
249.0685928116501
 20
104.4474369640212
 30
0.0
  0
SPLINE
  5
B6
330
49
100
AcDbEntity
  8
0
  6
CONTINUOUS
 62
     8
100
AcDbSpline
210
0.0
220
0.0
230
1.0
 70
     8
 71
     3
 72
     8
 73
     4
 74
     0
 42
0.00000001
 43
0.00000001
 40
13.0
 40
13.0
 40
13.0
 40
13.0
 40
14.0
 40
14.0
 40
14.0
 40
14.0
 10
249.0685928116501
 20
104.4474369640212
 30
0.0
 10
254.1903656967592
 20
114.4017832359626
 30
0.0
 10
266.2357466993121
 20
122.0519082428212
 30
0.0
 10
277.4381791156524
 20
123.0346876443402
 30
0.0
  0
SPLINE
  5
B7
330
49
100
AcDbEntity
  8
0
  6
CONTINUOUS
 62
     8
100
AcDbSpline
210
0.0
220
0.0
230
1.0
 70
     8
 71
     3
 72
     8
 73
     4
 74
     0
 42
0.00000001
 43
0.00000001
 40
14.0
 40
14.0
 40
14.0
 40
14.0
 40
15.0
 40
15.0
 40
15.0
 40
15.0
 10
277.4381791156524
 20
123.0346876443402
 30
0.0
 10
283.7715787723671
 20
123.5966816545139
 30
0.0
 10
292.143481480763
 20
122.3530025652191
 30
0.0
 10
300.3061830197913
 20
120.9196775813658
 30
0.0
  0
SPLINE
  5
B8
330
49
100
AcDbEntity
  8
0
  6
CONTINUOUS
 62
     8
100
AcDbSpline
210
0.0
220
0.0
230
1.0
 70
     8
 71
     3
 72
     8
 73
     4
 74
     0
 42
0.00000001
 43
0.00000001
 40
17.0
 40
17.0
 40
17.0
 40
17.0
 40
18.0
 40
18.0
 40
18.0
 40
18.0
 10
285.4322151947423
 20
173.3576120383465
 30
0.0
 10
266.4111810524415
 20
175.7624302055219
 30
0.0
 10
242.4948800872121
 20
169.5161163537529
 30
0.0
 10
223.5299565825334
 20
153.9470784990195
 30
0.0
  0
SPLINE
  5
B9
330
49
100
AcDbEntity
  8
0
  6
CONTINUOUS
 62
     8
100
AcDbSpline
210
0.0
220
0.0
230
1.0
 70
     8
 71
     3
 72
     8
 73
     4
 74
     0
 42
0.00000001
 43
0.00000001
 40
18.0
 40
18.0
 40
18.0
 40
18.0
 40
19.0
 40
19.0
 40
19.0
 40
19.0
 10
223.5299565825334
 20
153.9470784990195
 30
0.0
 10
203.1307093233197
 20
137.2187098650885
 30
0.0
 10
189.4980624905346
 20
117.2930789150029
 30
0.0
 10
187.7166188871176
 20
76.55285362345562
 30
0.0
  0
SPLINE
  5
BA
330
49
100
AcDbEntity
  8
0
  6
CONTINUOUS
 62
     8
100
AcDbSpline
210
0.0
220
0.0
230
1.0
 70
     8
 71
     3
 72
     8
 73
     4
 74
     0
 42
0.00000001
 43
0.00000001
 40
19.0
 40
19.0
 40
19.0
 40
19.0
 40
20.0
 40
20.0
 40
20.0
 40
20.0
 10
187.7166188871176
 20
76.55285362345562
 30
0.0
 10
186.4898239130912
 20
51.64092783940057
 30
0.0
 10
189.8119181933498
 20
31.0358733241118
 30
0.0
 10
201.8332208476328
 20
1.520689565898493
 30
0.0
  0
SPLINE
  5
BB
330
49
100
AcDbEntity
  8
0
  6
CONTINUOUS
 62
     8
100
AcDbSpline
210
0.0
220
0.0
230
1.0
 70
     8
 71
     3
 72
     8
 73
     4
 74
     0
 42
0.00000001
 43
0.00000001
 40
2.0
 40
2.0
 40
2.0
 40
2.0
 40
3.0
 40
3.0
 40
3.0
 40
3.0
 10
-679.001023112725
 20
-49.99872031464815
 30
0.0
 10
-681.4145120437943
 20
-63.61187122767016
 30
0.0
 10
-694.0941730161876
 20
-73.10460975183135
 30
0.0
 10
-707.9714542012488
 20
-71.35011324784689
 30
0.0
  0
SPLINE
  5
BC
330
49
100
AcDbEntity
  8
0
  6
CONTINUOUS
 62
     8
100
AcDbSpline
210
0.0
220
0.0
230
1.0
 70
     8
 71
     3
 72
     8
 73
     4
 74
     0
 42
0.00000001
 43
0.00000001
 40
3.0
 40
3.0
 40
3.0
 40
3.0
 40
4.0
 40
4.0
 40
4.0
 40
4.0
 10
-707.9714542012488
 20
-71.35011324784689
 30
0.0
 10
-722.005001298935
 20
-69.5758601363731
 30
0.0
 10
-731.9965723545829
 20
-56.96984527120386
 30
0.0
 10
-730.6744518087298
 20
-42.98938790849477
 30
0.0
  0
SPLINE
  5
BD
330
49
100
AcDbEntity
  8
0
  6
CONTINUOUS
 62
     8
100
AcDbSpline
210
0.0
220
0.0
230
1.0
 70
     8
 71
     2
 72
     6
 73
     3
 74
     0
 42
0.00000001
 43
0.00000001
 40
6.0
 40
6.0
 40
6.0
 40
7.0
 40
7.0
 40
7.0
 10
-739.2911921638554
 20
303.7418896321843
 30
0.0
 10
-783.0377622373487
 20
-41.8552942012013
 30
0.0
 10
-783.0586164341431
 20
-42.0202415534168
 30
0.0
  0
SPLINE
  5
BE
330
49
100
AcDbEntity
  8
0
  6
CONTINUOUS
 62
     8
100
AcDbSpline
210
0.0
220
0.0
230
1.0
 70
     8
 71
     3
 72
     8
 73
     4
 74
     0
 42
0.00000001
 43
0.00000001
 40
7.0
 40
7.0
 40
7.0
 40
7.0
 40
8.0
 40
8.0
 40
8.0
 40
8.0
 10
-783.0586164341431
 20
-42.0202415534168
 30
0.0
 10
-788.4647925557414
 20
-84.78067225533466
 30
0.0
 10
-758.1813807771728
 20
-123.8196531944486
 30
0.0
 10
-715.4252907950483
 20
-129.2252805213947
 30
0.0
  0
SPLINE
  5
BF
330
49
100
AcDbEntity
  8
0
  6
CONTINUOUS
 62
     8
100
AcDbSpline
210
0.0
220
0.0
230
1.0
 70
     8
 71
     3
 72
     8
 73
     4
 74
     0
 42
0.00000001
 43
0.00000001
 40
8.0
 40
8.0
 40
8.0
 40
8.0
 40
9.0
 40
9.0
 40
9.0
 40
9.0
 10
-715.4252907950483
 20
-129.2252805213947
 30
0.0
 10
-672.6692008129231
 20
-134.630907848341
 30
0.0
 10
-633.6248312021344
 20
-104.374637977848
 30
0.0
 10
-628.216459901926
 20
-61.59684439674893
 30
0.0
  0
SPLINE
  5
C0
330
49
100
AcDbEntity
  8
0
  6
CONTINUOUS
 62
     8
100
AcDbSpline
210
0.0
220
0.0
230
1.0
 70
     8
 71
     2
 72
     6
 73
     3
 74
     0
 42
0.00000001
 43
0.00000001
 40
9.0
 40
9.0
 40
9.0
 40
10.0
 40
10.0
 40
10.0
 10
-628.216459901926
 20
-61.59684439674893
 30
0.0
 10
-628.1758490976421
 20
-61.27563113190672
 30
0.0
 10
-584.2406810814717
 20
284.138944645533
 30
0.0
  0
SPLINE
  5
C1
330
49
100
AcDbEntity
  8
0
  6
CONTINUOUS
 62
     8
100
AcDbSpline
210
0.0
220
0.0
230
1.0
 70
     8
 71
     3
 72
     8
 73
     4
 74
     0
 42
0.00000001
 43
0.00000001
 40
2.0
 40
2.0
 40
2.0
 40
2.0
 40
3.0
 40
3.0
 40
3.0
 40
3.0
 10
419.0621820241338
 20
-188.8262059636743
 30
0.0
 10
416.644352373269
 20
-202.4388080820438
 30
0.0
 10
403.9777135602616
 20
-211.9331929901625
 30
0.0
 10
390.1047730949965
 20
-210.1792452808307
 30
0.0
  0
SPLINE
  5
C2
330
49
100
AcDbEntity
  8
0
  6
CONTINUOUS
 62
     8
100
AcDbSpline
210
0.0
220
0.0
230
1.0
 70
     8
 71
     3
 72
     8
 73
     4
 74
     0
 42
0.00000001
 43
0.00000001
 40
3.0
 40
3.0
 40
3.0
 40
3.0
 40
4.0
 40
4.0
 40
4.0
 40
4.0
 10
390.1047730949965
 20
-210.1792452808307
 30
0.0
 10
376.0582038379245
 20
-208.4033457853994
 30
0.0
 10
366.070973502071
 20
-195.7978797148825
 30
0.0
 10
367.3887533281289
 20
-181.8168735575209
 30
0.0
  0
SPLINE
  5
C3
330
49
100
AcDbEntity
  8
0
  6
CONTINUOUS
 62
     8
100
AcDbSpline
210
0.0
220
0.0
230
1.0
 70
     8
 71
     2
 72
     6
 73
     3
 74
     0
 42
0.00000001
 43
0.00000001
 40
6.0
 40
6.0
 40
6.0
 40
7.0
 40
7.0
 40
7.0
 10
358.7806944125938
 20
164.9133063938531
 30
0.0
 10
315.0341243391005
 20
-180.6838774395324
 30
0.0
 10
315.0132701423061
 20
-180.8488247917479
 30
0.0
  0
SPLINE
  5
C4
330
49
100
AcDbEntity
  8
0
  6
CONTINUOUS
 62
     8
100
AcDbSpline
210
0.0
220
0.0
230
1.0
 70
     8
 71
     3
 72
     8
 73
     4
 74
     0
 42
0.00000001
 43
0.00000001
 40
7.0
 40
7.0
 40
7.0
 40
7.0
 40
8.0
 40
8.0
 40
8.0
 40
8.0
 10
315.0132701423061
 20
-180.8488247917479
 30
0.0
 10
309.6070940207077
 20
-223.6092554936658
 30
0.0
 10
339.8818243596867
 20
-262.6471388434749
 30
0.0
 10
382.6379143418111
 20
-268.052766170421
 30
0.0
  0
SPLINE
  5
C5
330
49
100
AcDbEntity
  8
0
  6
CONTINUOUS
 62
     8
100
AcDbSpline
210
0.0
220
0.0
230
1.0
 70
     8
 71
     3
 72
     8
 73
     4
 74
     0
 42
0.00000001
 43
0.00000001
 40
8.0
 40
8.0
 40
8.0
 40
8.0
 40
9.0
 40
9.0
 40
9.0
 40
9.0
 10
382.6379143418111
 20
-268.052766170421
 30
0.0
 10
425.3940043239355
 20
-273.4583934973671
 30
0.0
 10
464.4470553743148
 20
-243.2032212161791
 30
0.0
 10
469.8554266745232
 20
-200.4254276350801
 30
0.0
  0
SPLINE
  5
C6
330
49
100
AcDbEntity
  8
0
  6
CONTINUOUS
 62
     8
100
AcDbSpline
210
0.0
220
0.0
230
1.0
 70
     8
 71
     2
 72
     6
 73
     3
 74
     0
 42
0.00000001
 43
0.00000001
 40
9.0
 40
9.0
 40
9.0
 40
10.0
 40
10.0
 40
10.0
 10
469.8554266745232
 20
-200.4254276350801
 30
0.0
 10
469.8960374788071
 20
-200.1042143702379
 30
0.0
 10
513.8312054949783
 20
145.3103614072018
 30
0.0
  0
SPLINE
  5
C7
330
49
100
AcDbEntity
  8
0
  6
CONTINUOUS
 62
     8
100
AcDbSpline
210
0.0
220
0.0
230
1.0
 70
     8
 71
     2
 72
     6
 73
     3
 74
     0
 42
0.00000001
 43
0.00000001
 40
3.0
 40
3.0
 40
3.0
 40
4.0
 40
4.0
 40
4.0
 10
-242.4414497336577
 20
-65.59878064737462
 30
0.0
 10
-249.13123191119
 20
-73.758426929916
 30
0.0
 10
-261.3656464613201
 20
-83.07813231136784
 30
0.0
  0
SPLINE
  5
C8
330
49
100
AcDbEntity
  8
0
  6
CONTINUOUS
 62
     8
100
AcDbSpline
210
0.0
220
0.0
230
1.0
 70
     8
 71
     3
 72
     8
 73
     4
 74
     0
 42
0.00000001
 43
0.00000001
 40
4.0
 40
4.0
 40
4.0
 40
4.0
 40
5.0
 40
5.0
 40
5.0
 40
5.0
 10
-261.3656464613201
 20
-83.07813231136784
 30
0.0
 10
-294.8994312318093
 20
-109.3740328034128
 30
0.0
 10
-338.7478480394259
 20
-122.7937486340921
 30
0.0
 10
-384.6553005928207
 20
-116.9896963894443
 30
0.0
  0
SPLINE
  5
C9
330
49
100
AcDbEntity
  8
0
  6
CONTINUOUS
 62
     8
100
AcDbSpline
210
0.0
220
0.0
230
1.0
 70
     8
 71
     3
 72
     8
 73
     4
 74
     0
 42
0.00000001
 43
0.00000001
 40
5.0
 40
5.0
 40
5.0
 40
5.0
 40
6.0
 40
6.0
 40
6.0
 40
6.0
 10
-384.6553005928207
 20
-116.9896963894443
 30
0.0
 10
-475.0985382443491
 20
-105.5550110103325
 30
0.0
 10
-539.2658870418385
 20
-23.86420267850013
 30
0.0
 10
-527.967851531195
 20
65.49819574403597
 30
0.0
  0
SPLINE
  5
CA
330
49
100
AcDbEntity
  8
0
  6
CONTINUOUS
 62
     8
100
AcDbSpline
210
0.0
220
0.0
230
1.0
 70
     8
 71
     3
 72
     8
 73
     4
 74
     0
 42
0.00000001
 43
0.00000001
 40
6.0
 40
6.0
 40
6.0
 40
6.0
 40
7.0
 40
7.0
 40
7.0
 40
7.0
 10
-527.967851531195
 20
65.49819574403597
 30
0.0
 10
-516.6731087884662
 20
154.8345498478039
 30
0.0
 10
-434.1924824376579
 20
217.993561079777
 30
0.0
 10
-343.7492447861295
 20
206.5588757006653
 30
0.0
  0
SPLINE
  5
CB
330
49
100
AcDbEntity
  8
0
  6
CONTINUOUS
 62
     8
100
AcDbSpline
210
0.0
220
0.0
230
1.0
 70
     8
 71
     3
 72
     8
 73
     4
 74
     0
 42
0.00000001
 43
0.00000001
 40
7.0
 40
7.0
 40
7.0
 40
7.0
 40
8.0
 40
8.0
 40
8.0
 40
8.0
 10
-343.7492447861295
 20
206.5588757006653
 30
0.0
 10
-289.0257903288054
 20
199.6402215168267
 30
0.0
 10
-243.9641834444407
 20
166.984145855357
 30
0.0
 10
-214.5987399655417
 20
125.4283912712841
 30
0.0
  0
SPLINE
  5
CC
330
49
100
AcDbEntity
  8
0
  6
CONTINUOUS
 62
     8
100
AcDbSpline
210
0.0
220
0.0
230
1.0
 70
     8
 71
     3
 72
     8
 73
     4
 74
     0
 42
0.00000001
 43
0.00000001
 40
9.0
 40
9.0
 40
9.0
 40
9.0
 40
10.0
 40
10.0
 40
10.0
 40
10.0
 10
-166.9206179128732
 20
153.0936656775858
 30
0.0
 10
-204.7223697536785
 20
208.7434637463052
 30
0.0
 10
-264.4850574952986
 20
251.6373852230912
 30
0.0
 10
-336.8926043980211
 20
260.7918288211408
 30
0.0
  0
SPLINE
  5
CD
330
49
100
AcDbEntity
  8
0
  6
CONTINUOUS
 62
     8
100
AcDbSpline
210
0.0
220
0.0
230
1.0
 70
     8
 71
     3
 72
     8
 73
     4
 74
     0
 42
0.00000001
 43
0.00000001
 40
10.0
 40
10.0
 40
10.0
 40
10.0
 40
11.0
 40
11.0
 40
11.0
 40
11.0
 10
-336.8926043980211
 20
260.7918288211408
 30
0.0
 10
-457.6557698185993
 20
276.0598448478382
 30
0.0
 10
-567.7916415804087
 20
191.731560713305
 30
0.0
 10
-582.8736162199149
 20
72.43989930327874
 30
0.0
  0
SPLINE
  5
CE
330
49
100
AcDbEntity
  8
0
  6
CONTINUOUS
 62
     8
100
AcDbSpline
210
0.0
220
0.0
230
1.0
 70
     8
 71
     3
 72
     8
 73
     4
 74
     0
 42
0.00000001
 43
0.00000001
 40
11.0
 40
11.0
 40
11.0
 40
11.0
 40
12.0
 40
12.0
 40
12.0
 40
12.0
 10
-582.8736162199149
 20
72.43989930327874
 30
0.0
 10
-597.958334832683
 20
-46.8734657057204
 30
0.0
 10
-512.2756551961596
 20
-155.9589742030168
 30
0.0
 10
-391.5124897755815
 20
-171.2269902297142
 30
0.0
  0
SPLINE
  5
CF
330
49
100
AcDbEntity
  8
0
  6
CONTINUOUS
 62
     8
100
AcDbSpline
210
0.0
220
0.0
230
1.0
 70
     8
 71
     3
 72
     8
 73
     4
 74
     0
 42
0.00000001
 43
0.00000001
 40
12.0
 40
12.0
 40
12.0
 40
12.0
 40
13.0
 40
13.0
 40
13.0
 40
13.0
 10
-391.5124897755815
 20
-171.2269902297142
 30
0.0
 10
-325.9676208689748
 20
-179.5137894821899
 30
0.0
 10
-261.5615778316497
 20
-158.6822271254335
 30
0.0
 10
-215.7822346810673
 20
-118.6182356470805
 30
0.0
  0
SPLINE
  5
D0
330
49
100
AcDbEntity
  8
0
  6
CONTINUOUS
 62
     8
100
AcDbSpline
210
0.0
220
0.0
230
1.0
 70
     8
 71
     2
 72
     6
 73
     3
 74
     0
 42
0.00000001
 43
0.00000001
 40
13.0
 40
13.0
 40
13.0
 40
14.0
 40
14.0
 40
14.0
 10
-215.7822346810673
 20
-118.6182356470805
 30
0.0
 10
-204.2351044758089
 20
-108.7000652945139
 30
0.0
 10
-193.9440585187421
 20
-95.91528535027038
 30
0.0
  0
HATCH
  5
D1
330
49
100
AcDbEntity
  8
0
  6
CONTINUOUS
 62
     7
100
AcDbHatch
 10
0.0
 20
0.0
 30
0.0
210
0.0
220
0.0
230
1.0
  2
SOLID
 70
     1
 71
     0
 91
        1
 92
        0
 93
        4
 72
     1
 10
-415.6498771991706
 20
-313.7616539238667
 11
-434.2704797578795
 21
-461.0422765729511
 72
     1
 10
-434.2704797578795
 20
-461.0422765729511
 11
-581.542420967374
 21
-442.4227716035472
 72
     1
 10
-581.542420967374
 20
-442.4227716035472
 11
-562.9218184086653
 21
-295.1421489544628
 72
     1
 10
-562.9218184086653
 20
-295.1421489544628
 11
-415.6498771991706
 21
-313.7616539238667
 97
        0
 75
     0
 76
     1
 98
        1
 10
0.0
 20
0.0
  0
HATCH
  5
D2
330
49
100
AcDbEntity
  8
0
  6
CONTINUOUS
 62
     7
100
AcDbHatch
 10
0.0
 20
0.0
 30
0.0
210
0.0
220
0.0
230
1.0
  2
SOLID
 70
     1
 71
     0
 91
        1
 92
        0
 93
        4
 72
     1
 10
420.6462206917981
 20
-419.4940780549755
 11
402.0256181330893
 21
-566.7747007040599
 72
     1
 10
402.0256181330893
 20
-566.7747007040599
 11
254.7536769235955
 21
-548.1551957346561
 72
     1
 10
254.7536769235955
 20
-548.1551957346561
 11
273.3742794823044
 21
-400.8745730855717
 72
     1
 10
273.3742794823044
 20
-400.8745730855717
 11
420.6462206917981
 21
-419.4940780549755
 97
        0
 75
     0
 76
     1
 98
        1
 10
0.0
 20
0.0
  0
HATCH
  5
D3
330
49
100
AcDbEntity
  8
0
  6
CONTINUOUS
 62
     7
100
AcDbHatch
 10
0.0
 20
0.0
 30
0.0
210
0.0
220
0.0
230
1.0
  2
SOLID
 70
     1
 71
     0
 91
        1
 92
        0
 93
       12
 72
     1
 10
863.0934570901258
 20
-318.9707672794566
 11
869.7421043049434
 21
-266.38294696134
 72
     1
 10
869.7421043049434
 20
-266.38294696134
 11
795.4723886101066
 21
-256.9930704573758
 72
     1
 10
795.4723886101066
 20
-256.9930704573758
 11
814.2054940725742
 21
-108.8226002502882
 72
     1
 10
814.2054940725742
 20
-108.8226002502882
 11
873.2392832864716
 21
-116.2862075240412
 72
     1
 10
873.2392832864716
 20
-116.2862075240412
 11
879.7424999183813
 21
-64.84867795163787
 72
     1
 10
879.7424999183813
 20
-64.84867795163787
 11
820.7087107044839
 21
-57.38507067788488
 72
     1
 10
820.7087107044839
 20
-57.38507067788488
 11
834.5273600539767
 21
51.91425376372978
 72
     1
 10
834.5273600539767
 20
51.91425376372978
 11
898.1362679319511
 21
43.87221692626096
 72
     1
 10
898.1362679319511
 20
43.87221692626096
 11
904.6405821531658
 21
95.318427938254
 72
     1
 10
904.6405821531658
 20
95.318427938254
 11
789.5854632631975
 21
109.8647789969376
 72
     1
 10
789.5854632631975
 20
109.8647789969376
 11
737.384115919125
 21
-303.0244879167352
 72
     1
 10
737.384115919125
 20
-303.0244879167352
 11
863.0934570901258
 21
-318.9707672794566
 97
        0
 75
     0
 76
     1
 98
        1
 10
0.0
 20
0.0
  0
HATCH
  5
D4
330
49
100
AcDbEntity
  8
0
  6
CONTINUOUS
 62
     7
100
AcDbHatch
 10
0.0
 20
0.0
 30
0.0
210
0.0
220
0.0
230
1.0
  2
SOLID
 70
     1
 71
     0
 91
        1
 92
        0
 93
       10
 72
     1
 10
748.9245895997353
 20
115.5876430287854
 11
697.4696971481517
 21
122.093054839305
 72
     1
 10
697.4696971481517
 20
122.093054839305
 11
659.2960899161674
 21
-179.8430733908054
 72
     1
 10
659.2960899161674
 20
-179.8430733908054
 11
644.9469876269626
 21
128.7334701343354
 72
     1
 10
644.9469876269626
 20
128.7334701343354
 11
558.8184254518038
 21
139.6226536288801
 72
     1
 10
558.8184254518038
 20
139.6226536288801
 11
506.5446372136037
 21
-273.8395882977508
 72
     1
 10
506.5446372136037
 20
-273.8395882977508
 11
557.9995296651881
 21
-280.3450001082706
 72
     1
 10
557.9995296651881
 20
-280.3450001082706
 11
597.8304967476677
 21
34.70010190316308
 72
     1
 10
597.8304967476677
 20
34.70010190316308
 11
612.3028333419898
 21
-287.3428379832806
 72
     1
 10
612.3028333419898
 20
-287.3428379832806
 11
696.6508013615352
 21
-297.8745988978455
 72
     1
 10
696.6508013615352
 20
-297.8745988978455
 11
748.9245895997353
 21
115.5876430287854
 97
        0
 75
     0
 76
     1
 98
        1
 10
0.0
 20
0.0
  0
HATCH
  5
D5
330
49
100
AcDbEntity
  8
0
  6
CONTINUOUS
 62
     7
100
AcDbHatch
 10
0.0
 20
0.0
 30
0.0
210
0.0
220
0.0
230
1.0
  2
SOLID
 70
     1
 71
     0
 91
        1
 92
        0
 93
       10
 72
     4
 94
        2
 73
     1
 74
     0
 95
        6
 96
        3
 40
9.0
 40
9.0
 40
9.0
 40
10.0
 40
10.0
 40
10.0
 10
469.8554266745232
 20
-200.4254276350801
 42
1.0
 10
469.8960374788071
 20
-200.1042143702379
 42
1.0
 10
513.8312054949783
 20
145.3103614072018
 42
1.0
 72
     1
 10
513.8312054949783
 20
145.3103614072018
 11
462.3849944829844
 21
151.8146756284166
 72
     1
 10
462.3849944829844
 20
151.8146756284166
 11
419.0621820241338
 21
-188.8262059636743
 72
     4
 94
        3
 73
     1
 74
     0
 95
        8
 96
        4
 40
2.0
 40
2.0
 40
2.0
 40
2.0
 40
3.0
 40
3.0
 40
3.0
 40
3.0
 10
419.0621820241338
 20
-188.8262059636743
 42
1.0
 10
416.644352373269
 20
-202.4388080820438
 42
1.0
 10
403.9777135602616
 20
-211.9331929901625
 42
1.0
 10
390.1047730949965
 20
-210.1792452808307
 42
1.0
 72
     4
 94
        3
 73
     1
 74
     0
 95
        8
 96
        4
 40
3.0
 40
3.0
 40
3.0
 40
3.0
 40
4.0
 40
4.0
 40
4.0
 40
4.0
 10
390.1047730949965
 20
-210.1792452808307
 42
1.0
 10
376.0582038379245
 20
-208.4033457853994
 42
1.0
 10
366.070973502071
 20
-195.7978797148825
 42
1.0
 10
367.3887533281289
 20
-181.8168735575209
 42
1.0
 72
     1
 10
367.3887533281289
 20
-181.8168735575209
 11
410.2269054245878
 21
158.4089921726383
 72
     1
 10
410.2269054245878
 20
158.4089921726383
 11
358.7806944125938
 21
164.9133063938531
 72
     4
 94
        2
 73
     1
 74
     0
 95
        6
 96
        3
 40
6.0
 40
6.0
 40
6.0
 40
7.0
 40
7.0
 40
7.0
 10
358.7806944125938
 20
164.9133063938531
 42
1.0
 10
315.0341243391005
 20
-180.6838774395324
 42
1.0
 10
315.0132701423061
 20
-180.8488247917479
 42
1.0
 72
     4
 94
        3
 73
     1
 74
     0
 95
        8
 96
        4
 40
7.0
 40
7.0
 40
7.0
 40
7.0
 40
8.0
 40
8.0
 40
8.0
 40
8.0
 10
315.0132701423061
 20
-180.8488247917479
 42
1.0
 10
309.6070940207077
 20
-223.6092554936658
 42
1.0
 10
339.8818243596867
 20
-262.6471388434749
 42
1.0
 10
382.6379143418111
 20
-268.052766170421
 42
1.0
 72
     4
 94
        3
 73
     1
 74
     0
 95
        8
 96
        4
 40
8.0
 40
8.0
 40
8.0
 40
8.0
 40
9.0
 40
9.0
 40
9.0
 40
9.0
 10
382.6379143418111
 20
-268.052766170421
 42
1.0
 10
425.3940043239355
 20
-273.4583934973671
 42
1.0
 10
464.4470553743148
 20
-243.2032212161791
 42
1.0
 10
469.8554266745232
 20
-200.4254276350801
 42
1.0
 97
        0
 75
     0
 76
     1
 98
        1
 10
0.0
 20
0.0
  0
HATCH
  5
D6
330
49
100
AcDbEntity
  8
0
  6
CONTINUOUS
 62
     7
100
AcDbHatch
 10
0.0
 20
0.0
 30
0.0
210
0.0
220
0.0
230
1.0
  2
SOLID
 70
     1
 71
     0
 91
        1
 92
        0
 93
        4
 72
     1
 10
531.0406553957403
 20
453.6764344957052
 11
512.4189552477262
 21
306.3871304070277
 72
     1
 10
512.4189552477262
 20
306.3871304070277
 11
365.1470140382324
 21
325.0066353764315
 72
     1
 10
365.1470140382324
 20
325.0066353764315
 11
383.7687141862465
 21
472.295939465109
 72
     1
 10
383.7687141862465
 20
472.295939465109
 11
531.0406553957403
 21
453.6764344957052
 97
        0
 75
     0
 76
     1
 98
        1
 10
0.0
 20
0.0
  0
HATCH
  5
D7
330
49
100
AcDbEntity
  8
0
  6
CONTINUOUS
 62
     7
100
AcDbHatch
 10
0.0
 20
0.0
 30
0.0
210
0.0
220
0.0
230
1.0
  2
SOLID
 70
     1
 71
     0
 91
        1
 92
        0
 93
        8
 72
     1
 10
193.2380989596513
 20
132.992078132092
 11
199.742413180866
 21
184.438289144085
 72
     1
 10
199.742413180866
 20
184.438289144085
 11
58.04395618833087
 21
202.3531417797022
 72
     1
 10
58.04395618833087
 20
202.3531417797022
 11
51.5396419671162
 21
150.9069307677091
 72
     1
 10
51.5396419671162
 20
150.9069307677091
 11
97.88116650002621
 21
145.047999057813
 72
     1
 10
97.88116650002621
 20
145.047999057813
 11
52.18413337716826
 21
-216.3950568438668
 72
     1
 10
52.18413337716826
 20
-216.3950568438668
 11
103.6303443891622
 21
-222.8993710650815
 72
     1
 10
103.6303443891622
 20
-222.8993710650815
 11
149.3273775120201
 21
138.5436848365982
 72
     1
 10
149.3273775120201
 20
138.5436848365982
 11
193.2380989596513
 21
132.992078132092
 97
        0
 75
     0
 76
     1
 98
        1
 10
0.0
 20
0.0
  0
HATCH
  5
D8
330
49
100
AcDbEntity
  8
0
  6
CONTINUOUS
 62
     7
100
AcDbHatch
 10
0.0
 20
0.0
 30
0.0
210
0.0
220
0.0
230
1.0
  2
SOLID
 70
     1
 71
     0
 91
        1
 92
        0
 93
       20
 72
     4
 94
        3
 73
     1
 74
     0
 95
        8
 96
        4
 40
10.0
 40
10.0
 40
10.0
 40
10.0
 40
11.0
 40
11.0
 40
11.0
 40
11.0
 10
287.3927765858123
 20
-95.56259091748151
 42
1.0
 10
286.1189152049305
 20
-83.73240329778464
 42
1.0
 10
274.6911652872437
 20
-43.52278911961513
 42
1.0
 10
272.951049265297
 20
-38.31055002056828
 42
1.0
 72
     4
 94
        3
 73
     1
 74
     0
 95
        8
 96
        4
 40
11.0
 40
11.0
 40
11.0
 40
11.0
 40
12.0
 40
12.0
 40
12.0
 40
12.0
 10
272.951049265297
 20
-38.31055002056828
 42
1.0
 10
264.5561231863983
 20
-13.31996242263826
 42
1.0
 10
247.3688476645604
 20
26.1228000787643
 42
1.0
 10
242.8979021239074
 20
47.89624721435505
 42
1.0
 72
     4
 94
        3
 73
     1
 74
     0
 95
        8
 96
        4
 40
12.0
 40
12.0
 40
12.0
 40
12.0
 40
13.0
 40
13.0
 40
13.0
 40
13.0
 10
242.8979021239074
 20
47.89624721435505
 42
1.0
 10
238.4171775543589
 20
69.66211049966199
 42
1.0
 10
243.9571477500889
 20
94.50501526215979
 42
1.0
 10
249.0685928116501
 20
104.4474369640212
 42
1.0
 72
     4
 94
        3
 73
     1
 74
     0
 95
        8
 96
        4
 40
13.0
 40
13.0
 40
13.0
 40
13.0
 40
14.0
 40
14.0
 40
14.0
 40
14.0
 10
249.0685928116501
 20
104.4474369640212
 42
1.0
 10
254.1903656967592
 20
114.4017832359626
 42
1.0
 10
266.2357466993121
 20
122.0519082428212
 42
1.0
 10
277.4381791156524
 20
123.0346876443402
 42
1.0
 72
     4
 94
        3
 73
     1
 74
     0
 95
        8
 96
        4
 40
14.0
 40
14.0
 40
14.0
 40
14.0
 40
15.0
 40
15.0
 40
15.0
 40
15.0
 10
277.4381791156524
 20
123.0346876443402
 42
1.0
 10
283.7715787723671
 20
123.5966816545139
 42
1.0
 10
292.143481480763
 20
122.3530025652191
 42
1.0
 10
300.3061830197913
 20
120.9196775813658
 42
1.0
 72
     1
 10
300.3061830197913
 20
120.9196775813658
 11
306.5975649158431
 21
170.6816893128451
 72
     1
 10
306.5975649158431
 20
170.6816893128451
 11
285.4322151947423
 21
173.3576120383465
 72
     4
 94
        3
 73
     1
 74
     0
 95
        8
 96
        4
 40
17.0
 40
17.0
 40
17.0
 40
17.0
 40
18.0
 40
18.0
 40
18.0
 40
18.0
 10
285.4322151947423
 20
173.3576120383465
 42
1.0
 10
266.4111810524415
 20
175.7624302055219
 42
1.0
 10
242.4948800872121
 20
169.5161163537529
 42
1.0
 10
223.5299565825334
 20
153.9470784990195
 42
1.0
 72
     4
 94
        3
 73
     1
 74
     0
 95
        8
 96
        4
 40
18.0
 40
18.0
 40
18.0
 40
18.0
 40
19.0
 40
19.0
 40
19.0
 40
19.0
 10
223.5299565825334
 20
153.9470784990195
 42
1.0
 10
203.1307093233197
 20
137.2187098650885
 42
1.0
 10
189.4980624905346
 20
117.2930789150029
 42
1.0
 10
187.7166188871176
 20
76.55285362345562
 42
1.0
 72
     4
 94
        3
 73
     1
 74
     0
 95
        8
 96
        4
 40
19.0
 40
19.0
 40
19.0
 40
19.0
 40
20.0
 40
20.0
 40
20.0
 40
20.0
 10
187.7166188871176
 20
76.55285362345562
 42
1.0
 10
186.4898239130912
 20
51.64092783940057
 42
1.0
 10
189.8119181933498
 20
31.0358733241118
 42
1.0
 10
201.8332208476328
 20
1.520689565898493
 42
1.0
 72
     4
 94
        3
 73
     1
 74
     0
 95
        8
 96
        4
 40
0.0
 40
0.0
 40
0.0
 40
0.0
 40
1.0
 40
1.0
 40
1.0
 40
1.0
 10
201.8332208476328
 20
1.520689565898493
 42
1.0
 10
226.4875781717096
 20
-58.9497434046649
 42
1.0
 10
235.7627550877583
 20
-88.55874645785292
 42
1.0
 10
236.5600975563536
 20
-108.9019294320391
 42
1.0
 72
     4
 94
        3
 73
     1
 74
     0
 95
        8
 96
        4
 40
1.0
 40
1.0
 40
1.0
 40
1.0
 40
2.0
 40
2.0
 40
2.0
 40
2.0
 10
236.5600975563536
 20
-108.9019294320391
 42
1.0
 10
237.3482097907057
 20
-129.2483555367156
 42
1.0
 10
234.994416067534
 20
-152.8888090146912
 42
1.0
 10
212.3950802906279
 20
-170.4150870240567
 42
1.0
 72
     4
 94
        2
 73
     1
 74
     0
 95
        6
 96
        3
 40
2.0
 40
2.0
 40
2.0
 40
3.0
 40
3.0
 40
3.0
 10
212.3950802906279
 20
-170.4150870240567
 42
1.0
 10
197.9601360519449
 20
-181.617531484771
 42
1.0
 10
165.3088390875459
 20
-177.0043358062015
 42
1.0
 72
     1
 10
165.3088390875459
 20
-177.0043358062015
 11
159.6345696382677
 21
-176.1899189759594
 72
     1
 10
159.6345696382677
 20
-176.1899189759594
 11
152.9837272448406
 21
-228.7951021732527
 72
     1
 10
152.9837272448406
 20
-228.7951021732527
 11
163.0281528507939
 21
-230.0650129990957
 72
     4
 94
        3
 73
     1
 74
     0
 95
        8
 96
        4
 40
6.0
 40
6.0
 40
6.0
 40
6.0
 40
7.0
 40
7.0
 40
7.0
 40
7.0
 10
163.0281528507939
 20
-230.0650129990957
 42
1.0
 10
197.0479070795065
 20
-232.5050468204661
 42
1.0
 10
229.551966576617
 20
-229.9111585163631
 42
1.0
 10
259.8978839629009
 20
-198.6918616545542
 42
1.0
 72
     1
 10
259.8978839629009
 20
-198.6918616545542
 11
259.9000791415109
 21
-198.6744987753731
 72
     4
 94
        3
 73
     1
 74
     0
 95
        8
 96
        4
 40
8.0
 40
8.0
 40
8.0
 40
8.0
 40
9.0
 40
9.0
 40
9.0
 40
9.0
 10
259.9000791415109
 20
-198.6744987753731
 42
1.0
 10
272.107770690581
 20
-185.2059174549297
 42
1.0
 10
281.20040269241
 20
-168.6797984241524
 42
1.0
 10
285.4819287636332
 20
-152.6744006148603
 42
1.0
 72
     4
 94
        3
 73
     1
 74
     0
 95
        8
 96
        4
 40
9.0
 40
9.0
 40
9.0
 40
9.0
 40
10.0
 40
10.0
 40
10.0
 40
10.0
 10
285.4819287636332
 20
-152.6744006148603
 42
1.0
 10
290.9680456383771
 20
-132.1642291318563
 42
1.0
 10
289.3854494671245
 20
-114.1252734449418
 42
1.0
 10
287.3927765858123
 20
-95.56259091748151
 42
1.0
 97
        0
 75
     0
 76
     1
 98
        1
 10
0.0
 20
0.0
  0
HATCH
  5
D9
330
49
100
AcDbEntity
  8
0
  6
CONTINUOUS
 62
     7
100
AcDbHatch
 10
0.0
 20
0.0
 30
0.0
210
0.0
220
0.0
230
1.0
  2
SOLID
 70
     1
 71
     0
 91
        2
 92
        0
 93
        8
 72
     1
 10
0.0000000000007321
 20
-209.7974475317301
 11
-0.0000000000007321
 21
209.7974475317301
 72
     1
 10
-0.0000000000007321
 20
209.7974475317301
 11
-87.16165348640276
 21
220.8172441535654
 72
     1
 10
-87.16165348640276
 20
220.8172441535654
 11
-191.5863495980733
 21
-185.5752979551391
 72
     1
 10
-191.5863495980733
 20
-185.5752979551391
 11
-140.1357978662849
 21
-192.0801609710062
 72
     1
 10
-140.1357978662849
 20
-192.0801609710062
 11
-110.2759087914209
 21
-75.86082087493888
 72
     1
 10
-110.2759087914209
 20
-75.86082087493888
 11
-51.45481484748527
 21
-83.29753721072026
 72
     1
 10
-51.45481484748527
 20
-83.29753721072026
 11
-51.45055173178847
 21
-203.2925845158628
 72
     1
 10
-51.45055173178847
 20
-203.2925845158628
 11
0.0000000000007321
 21
-209.7974475317301
 97
        0
 92
        0
 93
        3
 72
     1
 10
-51.62406601078636
 20
152.3865661457653
 11
-51.4501887581206
 21
-19.46187275668514
 72
     1
 10
-51.4501887581206
 20
-19.46187275668514
 11
-94.38858897164071
 21
-14.03319605433481
 72
     1
 10
-94.38858897164071
 20
-14.03319605433481
 11
-51.62406601078636
 21
152.3865661457653
 97
        0
 75
     0
 76
     1
 98
        1
 10
0.0
 20
0.0
  0
HATCH
  5
DA
330
49
100
AcDbEntity
  8
0
  6
CONTINUOUS
 62
     7
100
AcDbHatch
 10
0.0
 20
0.0
 30
0.0
210
0.0
220
0.0
230
1.0
  2
SOLID
 70
     1
 71
     0
 91
        1
 92
        0
 93
        4
 72
     1
 10
-305.2554424952285
 20
559.4088586268139
 11
-323.8771426432426
 21
412.1195545381364
 72
     1
 10
-323.8771426432426
 20
412.1195545381364
 11
-471.1490838527372
 21
430.7390595075403
 72
     1
 10
-471.1490838527372
 20
430.7390595075403
 11
-452.5273837047231
 21
578.0283635962179
 72
     1
 10
-452.5273837047231
 20
578.0283635962179
 11
-305.2554424952285
 21
559.4088586268139
 97
        0
 75
     0
 76
     1
 98
        1
 10
0.0
 20
0.0
  0
HATCH
  5
DB
330
49
100
AcDbEntity
  8
0
  6
CONTINUOUS
 62
     7
100
AcDbHatch
 10
0.0
 20
0.0
 30
0.0
210
0.0
220
0.0
230
1.0
  2
SOLID
 70
     1
 71
     0
 91
        1
 92
        0
 93
       20
 72
     4
 94
        3
 73
     1
 74
     0
 95
        8
 96
        4
 40
19.0
 40
19.0
 40
19.0
 40
19.0
 40
20.0
 40
20.0
 40
20.0
 40
20.0
 10
-905.1073374570078
 20
214.7179441269362
 42
1.0
 10
-906.3341324310342
 20
189.8060183428811
 42
1.0
 10
-903.0120381507764
 20
169.2009638275925
 42
1.0
 10
-890.9863947766972
 20
139.6852312747265
 42
1.0
 72
     4
 94
        3
 73
     1
 74
     0
 95
        8
 96
        4
 40
0.0
 40
0.0
 40
0.0
 40
0.0
 40
1.0
 40
1.0
 40
1.0
 40
1.0
 10
-890.9863947766972
 20
139.6852312747265
 42
1.0
 10
-866.3363781724167
 20
79.21534709881578
 42
1.0
 10
-857.074223415753
 20
49.60799042958515
 42
1.0
 10
-856.2725402273633
 20
29.26425866074654
 42
1.0
 72
     4
 94
        3
 73
     1
 74
     0
 95
        8
 96
        4
 40
1.0
 40
1.0
 40
1.0
 40
1.0
 40
2.0
 40
2.0
 40
2.0
 40
2.0
 10
-856.2725402273633
 20
29.26425866074654
 42
1.0
 10
-855.4714058336252
 20
8.916186172112539
 42
1.0
 10
-857.8338809963866
 20
-14.72316971655814
 42
1.0
 10
-880.4288760534982
 20
-32.24999652057599
 42
1.0
 72
     4
 94
        2
 73
     1
 74
     0
 95
        6
 96
        3
 40
2.0
 40
2.0
 40
2.0
 40
3.0
 40
3.0
 40
3.0
 10
-880.4288760534982
 20
-32.24999652057599
 42
1.0
 10
-894.8638202921812
 20
-43.45244098129032
 42
1.0
 10
-927.5281394159653
 20
-38.83759891876347
 42
1.0
 72
     1
 10
-927.5281394159653
 20
-38.83759891876347
 11
-933.2067495850387
 21
-38.02263329386882
 72
     1
 10
-933.2067495850387
 20
-38.02263329386882
 11
-939.8575919784657
 21
-90.62781649116214
 72
     1
 10
-939.8575919784657
 20
-90.62781649116214
 11
-929.8001442131276
 21
-91.89937370096256
 72
     4
 94
        3
 73
     1
 74
     0
 95
        8
 96
        4
 40
6.0
 40
6.0
 40
6.0
 40
6.0
 40
7.0
 40
7.0
 40
7.0
 40
7.0
 10
-929.8001442131276
 20
-91.89937370096256
 42
1.0
 10
-895.7717085448235
 20
-94.34050511163805
 42
1.0
 10
-863.2763304873037
 20
-91.74551921823007
 42
1.0
 10
-832.934753820815
 20
-60.52567356176863
 42
1.0
 72
     1
 10
-832.934753820815
 20
-60.52567356176863
 11
-832.932558642205
 21
-60.5083106825875
 72
     4
 94
        3
 73
     1
 74
     0
 95
        8
 96
        4
 40
8.0
 40
8.0
 40
8.0
 40
8.0
 40
9.0
 40
9.0
 40
9.0
 40
9.0
 10
-832.932558642205
 20
-60.5083106825875
 42
1.0
 10
-820.7248670931349
 20
-47.03972936214412
 42
1.0
 10
-811.6322350913058
 20
-30.51361033136682
 42
1.0
 10
-807.3507090200826
 20
-14.50821252207474
 42
1.0
 72
     4
 94
        3
 73
     1
 74
     0
 95
        8
 96
        4
 40
9.0
 40
9.0
 40
9.0
 40
9.0
 40
10.0
 40
10.0
 40
10.0
 40
10.0
 10
-807.3507090200826
 20
-14.50821252207474
 42
1.0
 10
-801.8645921453386
 20
6.00195896092924
 42
1.0
 10
-803.4428475967961
 20
24.04036585319126
 42
1.0
 10
-805.4311797583139
 20
42.60249958599915
 42
1.0
 72
     4
 94
        3
 73
     1
 74
     0
 95
        8
 96
        4
 40
10.0
 40
10.0
 40
10.0
 40
10.0
 40
11.0
 40
11.0
 40
11.0
 40
11.0
 10
-805.4311797583139
 20
42.60249958599915
 42
1.0
 10
-806.7050411391947
 20
54.43268720569591
 42
1.0
 10
-818.1327910568815
 20
94.64230138386543
 42
1.0
 10
-819.8772477986236
 20
99.85508927756479
 42
1.0
 72
     4
 94
        3
 73
     1
 74
     0
 95
        8
 96
        4
 40
11.0
 40
11.0
 40
11.0
 40
11.0
 40
12.0
 40
12.0
 40
12.0
 40
12.0
 10
-819.8772477986236
 20
99.85508927756479
 42
1.0
 10
-828.2721738775223
 20
124.8456768754948
 42
1.0
 10
-845.4637901191555
 20
164.2889881715498
 42
1.0
 10
-849.9390763796038
 20
186.0629841017931
 42
1.0
 72
     4
 94
        3
 73
     1
 74
     0
 95
        8
 96
        4
 40
12.0
 40
12.0
 40
12.0
 40
12.0
 40
13.0
 40
13.0
 40
13.0
 40
13.0
 10
-849.9390763796038
 20
186.0629841017931
 42
1.0
 10
-854.4154602293569
 20
207.8282985924476
 42
1.0
 10
-848.8668085940365
 20
232.6701057656404
 42
1.0
 10
-843.7510228126799
 20
242.6119786728493
 42
1.0
 72
     4
 94
        3
 73
     1
 74
     0
 95
        8
 96
        4
 40
13.0
 40
13.0
 40
13.0
 40
13.0
 40
14.0
 40
14.0
 40
14.0
 40
14.0
 10
-843.7510228126799
 20
242.6119786728493
 42
1.0
 10
-838.6379313671622
 20
252.5674225340958
 42
1.0
 10
-826.5925503646092
 20
260.2175475409544
 42
1.0
 10
-815.3814365086786
 20
261.1992293531684
 42
1.0
 72
     4
 94
        3
 73
     1
 74
     0
 95
        8
 96
        4
 40
14.0
 40
14.0
 40
14.0
 40
14.0
 40
15.0
 40
15.0
 40
15.0
 40
15.0
 10
-815.3814365086786
 20
261.1992293531684
 42
1.0
 10
-809.0610590113487
 20
261.7628697472995
 42
1.0
 10
-800.6848155831576
 20
260.5186418633522
 42
1.0
 10
-792.5264547639244
 20
259.0858656741514
 42
1.0
 72
     1
 10
-792.5264547639244
 20
259.0858656741514
 11
-786.2350728678728
 21
308.8478774056306
 72
     1
 10
-786.2350728678728
 20
308.8478774056306
 11
-807.3960818691783
 21
311.5232513364796
 72
     4
 94
        3
 73
     1
 74
     0
 95
        8
 96
        4
 40
17.0
 40
17.0
 40
17.0
 40
17.0
 40
18.0
 40
18.0
 40
18.0
 40
18.0
 10
-807.3960818691783
 20
311.5232513364796
 42
1.0
 10
-826.4127752916847
 20
313.9275207090026
 42
1.0
 10
-850.3334169767085
 20
307.6817556518859
 42
1.0
 10
-869.2983404813871
 20
292.1127177971525
 42
1.0
 72
     4
 94
        3
 73
     1
 74
     0
 95
        8
 96
        4
 40
18.0
 40
18.0
 40
18.0
 40
18.0
 40
19.0
 40
19.0
 40
19.0
 40
19.0
 10
-869.2983404813871
 20
292.1127177971525
 42
1.0
 10
-889.6932470208066
 20
275.3838003685692
 42
1.0
 10
-903.3302345733861
 20
255.4587182131359
 42
1.0
 10
-905.1073374570078
 20
214.7179441269362
 42
1.0
 97
        0
 75
     0
 76
     1
 98
        1
 10
0.0
 20
0.0
  0
HATCH
  5
DC
330
49
100
AcDbEntity
  8
0
  6
CONTINUOUS
 62
     7
100
AcDbHatch
 10
0.0
 20
0.0
 30
0.0
210
0.0
220
0.0
230
1.0
  2
SOLID
 70
     1
 71
     0
 91
        1
 92
        0
 93
       10
 72
     4
 94
        2
 73
     1
 74
     0
 95
        6
 96
        3
 40
9.0
 40
9.0
 40
9.0
 40
10.0
 40
10.0
 40
10.0
 10
-628.216459901926
 20
-61.59684439674893
 42
1.0
 10
-628.1758490976421
 20
-61.27563113190672
 42
1.0
 10
-584.2406810814717
 20
284.138944645533
 42
1.0
 72
     1
 10
-584.2406810814717
 20
284.138944645533
 11
-635.6912328132601
 21
290.6438076614002
 72
     1
 10
-635.6912328132601
 20
290.6438076614002
 11
-679.001023112725
 21
-49.99872031464815
 72
     4
 94
        3
 73
     1
 74
     0
 95
        8
 96
        4
 40
2.0
 40
2.0
 40
2.0
 40
2.0
 40
3.0
 40
3.0
 40
3.0
 40
3.0
 10
-679.001023112725
 20
-49.99872031464815
 42
1.0
 10
-681.4145120437943
 20
-63.61187122767016
 42
1.0
 10
-694.0941730161876
 20
-73.10460975183135
 42
1.0
 10
-707.9714542012488
 20
-71.35011324784689
 42
1.0
 72
     4
 94
        3
 73
     1
 74
     0
 95
        8
 96
        4
 40
3.0
 40
3.0
 40
3.0
 40
3.0
 40
4.0
 40
4.0
 40
4.0
 40
4.0
 10
-707.9714542012488
 20
-71.35011324784689
 42
1.0
 10
-722.005001298935
 20
-69.5758601363731
 42
1.0
 10
-731.9965723545829
 20
-56.96984527120386
 42
1.0
 10
-730.6744518087298
 20
-42.98938790849477
 42
1.0
 72
     1
 10
-730.6744518087298
 20
-42.98938790849477
 11
-687.8406404320662
 21
297.2370266163169
 72
     1
 10
-687.8406404320662
 20
297.2370266163169
 11
-739.2911921638554
 21
303.7418896321843
 72
     4
 94
        2
 73
     1
 74
     0
 95
        6
 96
        3
 40
6.0
 40
6.0
 40
6.0
 40
7.0
 40
7.0
 40
7.0
 10
-739.2911921638554
 20
303.7418896321843
 42
1.0
 10
-783.0377622373487
 20
-41.8552942012013
 42
1.0
 10
-783.0586164341431
 20
-42.0202415534168
 42
1.0
 72
     4
 94
        3
 73
     1
 74
     0
 95
        8
 96
        4
 40
7.0
 40
7.0
 40
7.0
 40
7.0
 40
8.0
 40
8.0
 40
8.0
 40
8.0
 10
-783.0586164341431
 20
-42.0202415534168
 42
1.0
 10
-788.4647925557414
 20
-84.78067225533466
 42
1.0
 10
-758.1813807771728
 20
-123.8196531944486
 42
1.0
 10
-715.4252907950483
 20
-129.2252805213947
 42
1.0
 72
     4
 94
        3
 73
     1
 74
     0
 95
        8
 96
        4
 40
8.0
 40
8.0
 40
8.0
 40
8.0
 40
9.0
 40
9.0
 40
9.0
 40
9.0
 10
-715.4252907950483
 20
-129.2252805213947
 42
1.0
 10
-672.6692008129231
 20
-134.630907848341
 42
1.0
 10
-633.6248312021344
 20
-104.374637977848
 42
1.0
 10
-628.216459901926
 20
-61.59684439674893
 42
1.0
 97
        0
 75
     0
 76
     1
 98
        1
 10
0.0
 20
0.0
  0
HATCH
  5
DD
330
49
100
AcDbEntity
  8
0
  6
CONTINUOUS
 62
     7
100
AcDbHatch
 10
0.0
 20
0.0
 30
0.0
210
0.0
220
0.0
230
1.0
  2
SOLID
 70
     1
 71
     0
 91
        1
 92
        0
 93
       16
 72
     4
 94
        2
 73
     1
 74
     0
 95
        6
 96
        3
 40
13.0
 40
13.0
 40
13.0
 40
14.0
 40
14.0
 40
14.0
 10
-215.7822346810673
 20
-118.6182356470805
 42
1.0
 10
-204.2351044758089
 20
-108.7000652945139
 42
1.0
 10
-193.9440585187421
 20
-95.91528535027038
 42
1.0
 72
     1
 10
-193.9440585187421
 20
-95.91528535027038
 11
-173.596702579183
 21
65.58129390274512
 72
     1
 10
-173.596702579183
 20
65.58129390274512
 11
-316.6972120655481
 21
83.67340721111394
 72
     1
 10
-316.6972120655481
 20
83.67340721111394
 11
-387.1316474295777
 21
40.30984384087252
 72
     1
 10
-387.1316474295777
 20
40.30984384087252
 11
-231.5385463728011
 21
20.63829952266098
 72
     1
 10
-231.5385463728011
 20
20.63829952266098
 11
-242.4414497336577
 21
-65.59878064737462
 72
     4
 94
        2
 73
     1
 74
     0
 95
        6
 96
        3
 40
3.0
 40
3.0
 40
3.0
 40
4.0
 40
4.0
 40
4.0
 10
-242.4414497336577
 20
-65.59878064737462
 42
1.0
 10
-249.13123191119
 20
-73.758426929916
 42
1.0
 10
-261.3656464613201
 20
-83.07813231136784
 42
1.0
 72
     4
 94
        3
 73
     1
 74
     0
 95
        8
 96
        4
 40
4.0
 40
4.0
 40
4.0
 40
4.0
 40
5.0
 40
5.0
 40
5.0
 40
5.0
 10
-261.3656464613201
 20
-83.07813231136784
 42
1.0
 10
-294.8994312318093
 20
-109.3740328034128
 42
1.0
 10
-338.7478480394259
 20
-122.7937486340921
 42
1.0
 10
-384.6553005928207
 20
-116.9896963894443
 42
1.0
 72
     4
 94
        3
 73
     1
 74
     0
 95
        8
 96
        4
 40
5.0
 40
5.0
 40
5.0
 40
5.0
 40
6.0
 40
6.0
 40
6.0
 40
6.0
 10
-384.6553005928207
 20
-116.9896963894443
 42
1.0
 10
-475.0985382443491
 20
-105.5550110103325
 42
1.0
 10
-539.2658870418385
 20
-23.86420267850013
 42
1.0
 10
-527.967851531195
 20
65.49819574403597
 42
1.0
 72
     4
 94
        3
 73
     1
 74
     0
 95
        8
 96
        4
 40
6.0
 40
6.0
 40
6.0
 40
6.0
 40
7.0
 40
7.0
 40
7.0
 40
7.0
 10
-527.967851531195
 20
65.49819574403597
 42
1.0
 10
-516.6731087884662
 20
154.8345498478039
 42
1.0
 10
-434.1924824376579
 20
217.993561079777
 42
1.0
 10
-343.7492447861295
 20
206.5588757006653
 42
1.0
 72
     4
 94
        3
 73
     1
 74
     0
 95
        8
 96
        4
 40
7.0
 40
7.0
 40
7.0
 40
7.0
 40
8.0
 40
8.0
 40
8.0
 40
8.0
 10
-343.7492447861295
 20
206.5588757006653
 42
1.0
 10
-289.0257903288054
 20
199.6402215168267
 42
1.0
 10
-243.9641834444407
 20
166.984145855357
 42
1.0
 10
-214.5987399655417
 20
125.4283912712841
 42
1.0
 72
     1
 10
-214.5987399655417
 20
125.4283912712841
 11
-166.9206179128732
 21
153.0936656775858
 72
     4
 94
        3
 73
     1
 74
     0
 95
        8
 96
        4
 40
9.0
 40
9.0
 40
9.0
 40
9.0
 40
10.0
 40
10.0
 40
10.0
 40
10.0
 10
-166.9206179128732
 20
153.0936656775858
 42
1.0
 10
-204.7223697536785
 20
208.7434637463052
 42
1.0
 10
-264.4850574952986
 20
251.6373852230912
 42
1.0
 10
-336.8926043980211
 20
260.7918288211408
 42
1.0
 72
     4
 94
        3
 73
     1
 74
     0
 95
        8
 96
        4
 40
10.0
 40
10.0
 40
10.0
 40
10.0
 40
11.0
 40
11.0
 40
11.0
 40
11.0
 10
-336.8926043980211
 20
260.7918288211408
 42
1.0
 10
-457.6557698185993
 20
276.0598448478382
 42
1.0
 10
-567.7916415804087
 20
191.731560713305
 42
1.0
 10
-582.8736162199149
 20
72.43989930327874
 42
1.0
 72
     4
 94
        3
 73
     1
 74
     0
 95
        8
 96
        4
 40
11.0
 40
11.0
 40
11.0
 40
11.0
 40
12.0
 40
12.0
 40
12.0
 40
12.0
 10
-582.8736162199149
 20
72.43989930327874
 42
1.0
 10
-597.958334832683
 20
-46.8734657057204
 42
1.0
 10
-512.2756551961596
 20
-155.9589742030168
 42
1.0
 10
-391.5124897755815
 20
-171.2269902297142
 42
1.0
 72
     4
 94
        3
 73
     1
 74
     0
 95
        8
 96
        4
 40
12.0
 40
12.0
 40
12.0
 40
12.0
 40
13.0
 40
13.0
 40
13.0
 40
13.0
 10
-391.5124897755815
 20
-171.2269902297142
 42
1.0
 10
-325.9676208689748
 20
-179.5137894821899
 42
1.0
 10
-261.5615778316497
 20
-158.6822271254335
 42
1.0
 10
-215.7822346810673
 20
-118.6182356470805
 42
1.0
 97
        0
 75
     0
 76
     1
 98
        1
 10
0.0
 20
0.0
  0
ENDBLK
  5
4B
330
49
100
AcDbEntity
  8
0
100
AcDbBlockEnd
  0
BLOCK
  5
165
330
164
100
AcDbEntity
  8
0
100
AcDbBlockBegin
  2
_OPEN30
 70
     0
 10
0.0
 20
0.0
 30
0.0
  3
_OPEN30
  1

  0
LINE
  5
167
330
164
100
AcDbEntity
  8
0
  6
BYBLOCK
 62
     0
100
AcDbLine
 10
-1.0
 20
0.267949
 30
0.0
 11
0.0
 21
0.0
 31
0.0
  0
LINE
  5
168
330
164
100
AcDbEntity
  8
0
  6
BYBLOCK
 62
     0
100
AcDbLine
 10
0.0
 20
0.0
 30
0.0
 11
-1.0
 21
-0.267949
 31
0.0
  0
LINE
  5
169
330
164
100
AcDbEntity
  8
0
  6
BYBLOCK
 62
     0
100
AcDbLine
 10
0.0
 20
0.0
 30
0.0
 11
-1.0
 21
0.0
 31
0.0
  0
ENDBLK
  5
166
330
164
100
AcDbEntity
  8
0
100
AcDbBlockEnd
  0
BLOCK
  5
16B
330
16A
100
AcDbEntity
  8
0
100
AcDbBlockBegin
  2
*D3
 70
     1
 10
0.0
 20
0.0
 30
0.0
  3
*D3
  1

  0
INSERT
  5
16D
330
16A
100
AcDbEntity
  8
9
 62
     7
100
AcDbBlockReference
  2
_OPEN30
 10
32.4292500419
 20
238.3472324773
 30
0.1
 41
3.0
 42
3.0
 50
90.0
  0
INSERT
  5
16E
330
16A
100
AcDbEntity
  8
9
 62
     7
100
AcDbBlockReference
  2
_OPEN30
 10
32.4292500419
 20
218.3472324773
 30
0.1
 41
3.0
 42
3.0
 50
270.0
  0
LINE
  5
16F
330
16A
100
AcDbEntity
  8
9
 62
     7
100
AcDbLine
 10
43.4906328809
 20
238.3472324773
 30
0.0
 11
31.4292500419
 21
238.3472324773
 31
0.0
  0
LINE
  5
170
330
16A
100
AcDbEntity
  8
9
 62
     7
100
AcDbLine
 10
43.4906328809
 20
218.3472324773
 30
0.0
 11
31.4292500419
 21
218.3472324773
 31
0.0
  0
LINE
  5
171
330
16A
100
AcDbEntity
  8
9
 62
     7
100
AcDbLine
 10
32.4292500419
 20
238.3472324773
 30
0.0
 11
32.4292500419
 21
218.3472324773
 31
0.0
  0
MTEXT
  5
172
330
16A
100
AcDbEntity
  8
9
 62
     7
100
AcDbMText
 10
29.3504622795
 20
225.4441069553
 30
0.1
 40
2.6458333333
 41
0.0
 71
     1
 72
     1
  1
20
  7
SLDTEXTSTYLE0
 11
-7.044195017643634E-15
 21
1.0
 31
0.0
  0
ENDBLK
  5
16C
330
16A
100
AcDbEntity
  8
0
100
AcDbBlockEnd
  0
BLOCK
  5
175
330
174
100
AcDbEntity
  8
0
100
AcDbBlockBegin
  2
*D4
 70
     1
 10
0.0
 20
0.0
 30
0.0
  3
*D4
  1

  0
INSERT
  5
177
330
174
100
AcDbEntity
  8
9
 62
     7
100
AcDbBlockReference
  2
_OPEN30
 10
32.4292500419
 20
189.1583164161
 30
0.1
 41
3.0
 42
3.0
 50
90.0
  0
INSERT
  5
178
330
174
100
AcDbEntity
  8
9
 62
     7
100
AcDbBlockReference
  2
_OPEN30
 10
32.4292500419
 20
99.1583164161
 30
0.1
 41
3.0
 42
3.0
 50
270.0
  0
LINE
  5
179
330
174
100
AcDbEntity
  8
9
 62
     7
100
AcDbLine
 10
90.5883705273
 20
189.1583164161
 30
0.0
 11
31.4292500419
 21
189.1583164161
 31
0.0
  0
LINE
  5
17A
330
174
100
AcDbEntity
  8
9
 62
     7
100
AcDbLine
 10
90.5883705273
 20
99.1583164161
 30
0.0
 11
31.4292500419
 21
99.1583164161
 31
0.0
  0
LINE
  5
17B
330
174
100
AcDbEntity
  8
9
 62
     7
100
AcDbLine
 10
32.4292500419
 20
189.1583164161
 30
0.0
 11
32.4292500419
 21
99.1583164161
 31
0.0
  0
MTEXT
  5
17C
330
174
100
AcDbEntity
  8
9
 62
     7
100
AcDbMText
 10
29.3504622795
 20
142.4429738744
 30
0.1
 40
2.6458333333
 41
0.0
 71
     1
 72
     1
  1
90
  7
SLDTEXTSTYLE0
 11
-7.044195017643634E-15
 21
1.0
 31
0.0
  0
ENDBLK
  5
176
330
174
100
AcDbEntity
  8
0
100
AcDbBlockEnd
  0
BLOCK
  5
17F
330
17E
100
AcDbEntity
  8
0
100
AcDbBlockBegin
  2
*D5
 70
     1
 10
0.0
 20
0.0
 30
0.0
  3
*D5
  1

  0
INSERT
  5
181
330
17E
100
AcDbEntity
  8
9
 62
     7
100
AcDbBlockReference
  2
_OPEN30
 10
185.5883705273
 20
202.4268768506
 30
0.1
 41
3.0
 42
3.0
 50
0.0
  0
INSERT
  5
182
330
17E
100
AcDbEntity
  8
9
 62
     7
100
AcDbBlockReference
  2
_OPEN30
 10
45.5883705273
 20
202.4268768506
 30
0.1
 41
3.0
 42
3.0
 50
180.0
  0
LINE
  5
183
330
17E
100
AcDbEntity
  8
9
 62
     7
100
AcDbLine
 10
185.5883705273
 20
189.1583164161
 30
0.0
 11
185.5883705273
 21
203.4268768506
 31
0.0
  0
LINE
  5
184
330
17E
100
AcDbEntity
  8
9
 62
     7
100
AcDbLine
 10
45.5883705273
 20
144.1583164161
 30
0.0
 11
45.5883705273
 21
203.4268768506
 31
0.0
  0
LINE
  5
185
330
17E
100
AcDbEntity
  8
9
 62
     7
100
AcDbLine
 10
185.5883705273
 20
202.4268768506
 30
0.0
 11
45.5883705273
 21
202.4268768506
 31
0.0
  0
MTEXT
  5
186
330
17E
100
AcDbEntity
  8
9
 62
     7
100
AcDbMText
 10
111.6133788147
 20
205.505664613
 30
0.1
 40
2.6458333333
 41
0.0
 71
     1
 72
     1
  1
140
  7
SLDTEXTSTYLE0
  0
ENDBLK
  5
180
330
17E
100
AcDbEntity
  8
0
100
AcDbBlockEnd
  0
BLOCK
  5
189
330
188
100
AcDbEntity
  8
0
100
AcDbBlockBegin
  2
*D6
 70
     1
 10
0.0
 20
0.0
 30
0.0
  3
*D6
  1

  0
INSERT
  5
18B
330
188
100
AcDbEntity
  8
9
 62
     7
100
AcDbBlockReference
  2
_OPEN30
 10
115.9752172174
 20
257.9424055619
 30
0.1
 41
3.0
 42
3.0
 50
180.0
  0
INSERT
  5
18C
330
188
100
AcDbEntity
  8
9
 62
     7
100
AcDbBlockReference
  2
_OPEN30
 10
175.9752172174
 20
257.9424055619
 30
0.1
 41
3.0
 42
3.0
 50
0.0
  0
LINE
  5
18D
330
188
100
AcDbEntity
  8
9
 62
     7
100
AcDbLine
 10
115.9752172174
 20
245.3472324773
 30
0.0
 11
115.9752172174
 21
258.9424055619
 31
0.0
  0
LINE
  5
18E
330
188
100
AcDbEntity
  8
9
 62
     7
100
AcDbLine
 10
175.9752172174
 20
245.3472324773
 30
0.0
 11
175.9752172174
 21
258.9424055619
 31
0.0
  0
LINE
  5
18F
330
188
100
AcDbEntity
  8
9
 62
     7
100
AcDbLine
 10
115.9752172174
 20
257.9424055619
 30
0.0
 11
175.9752172174
 21
257.9424055619
 31
0.0
  0
MTEXT
  5
190
330
188
100
AcDbEntity
  8
9
 62
     7
100
AcDbMText
 10
144.2517722864
 20
261.0211933243
 30
0.1
 40
2.6458333333
 41
0.0
 71
     1
 72
     1
  1
60
  7
SLDTEXTSTYLE0
  0
ENDBLK
  5
18A
330
188
100
AcDbEntity
  8
0
100
AcDbBlockEnd
  0
BLOCK
  5
194
330
193
100
AcDbEntity
  8
0
100
AcDbBlockBegin
  2
*D7
 70
     1
 10
0.0
 20
0.0
 30
0.0
  3
*D7
  1

  0
INSERT
  5
196
330
193
100
AcDbEntity
  8
9
 62
     7
100
AcDbBlockReference
  2
_OPEN30
 10
193.4110671414
 20
245.3472324773
 30
0.1
 41
3.0
 42
3.0
 50
270.0
  0
INSERT
  5
197
330
193
100
AcDbEntity
  8
9
 62
     7
100
AcDbBlockReference
  2
_OPEN30
 10
193.4110671414
 20
238.3472324773
 30
0.1
 41
3.0
 42
3.0
 50
90.0
  0
LINE
  5
198
330
193
100
AcDbEntity
  8
9
 62
     7
100
AcDbLine
 10
175.9752172174
 20
245.3472324773
 30
0.0
 11
194.4110671414
 21
245.3472324773
 31
0.0
  0
LINE
  5
199
330
193
100
AcDbEntity
  8
9
 62
     7
100
AcDbLine
 10
183.4906328809
 20
238.3472324773
 30
0.0
 11
194.4110671414
 21
238.3472324773
 31
0.0
  0
LINE
  5
19A
330
193
100
AcDbEntity
  8
9
 62
     7
100
AcDbLine
 10
193.4110671414
 20
245.3472324773
 30
0.0
 11
193.4110671414
 21
249.3472324773
 31
0.0
  0
LINE
  5
19B
330
193
100
AcDbEntity
  8
9
 62
     7
100
AcDbLine
 10
193.4110671414
 20
245.3472324773
 30
0.0
 11
193.4110671414
 21
238.3472324773
 31
0.0
  0
LINE
  5
19C
330
193
100
AcDbEntity
  8
9
 62
     7
100
AcDbLine
 10
193.4110671414
 20
238.3472324773
 30
0.0
 11
193.4110671414
 21
234.3472324773
 31
0.0
  0
MTEXT
  5
19D
330
193
100
AcDbEntity
  8
9
 62
     7
100
AcDbMText
 10
190.332279379
 20
240.3118563989
 30
0.1
 40
2.6458333333
 41
0.0
 71
     1
 72
     1
  1
7
  7
SLDTEXTSTYLE0
 11
-7.044195017643634E-15
 21
1.0
 31
0.0
  0
ENDBLK
  5
195
330
193
100
AcDbEntity
  8
0
100
AcDbBlockEnd
  0
BLOCK
  5
1A0
330
19F
100
AcDbEntity
  8
0
100
AcDbBlockBegin
  2
*D8
 70
     1
 10
0.0
 20
0.0
 30
0.0
  3
*D8
  1

  0
INSERT
  5
1A2
330
19F
100
AcDbEntity
  8
9
 62
     7
100
AcDbBlockReference
  2
_OPEN30
 10
121.9752172174
 20
251.0589365605
 30
0.1
 41
3.0
 42
3.0
 50
180.0
  0
INSERT
  5
1A3
330
19F
100
AcDbEntity
  8
9
 62
     7
100
AcDbBlockReference
  2
_OPEN30
 10
169.9752172174
 20
251.0589365605
 30
0.1
 41
3.0
 42
3.0
 50
0.0
  0
LINE
  5
1A4
330
19F
100
AcDbEntity
  8
9
 62
     7
100
AcDbLine
 10
121.9752172174
 20
248.4875368099
 30
0.0
 11
121.9752172174
 21
252.0589365605
 31
0.0
  0
LINE
  5
1A5
330
19F
100
AcDbEntity
  8
9
 62
     7
100
AcDbLine
 10
169.9752172174
 20
248.4875368099
 30
0.0
 11
169.9752172174
 21
252.0589365605
 31
0.0
  0
LINE
  5
1A6
330
19F
100
AcDbEntity
  8
9
 62
     7
100
AcDbLine
 10
121.9752172174
 20
251.0589365605
 30
0.0
 11
169.9752172174
 21
251.0589365605
 31
0.0
  0
MTEXT
  5
1A7
330
19F
100
AcDbEntity
  8
9
 62
     7
100
AcDbMText
 10
144.2517722864
 20
254.1377243228
 30
0.1
 40
2.6458333333
 41
0.0
 71
     1
 72
     1
  1
48
  7
SLDTEXTSTYLE0
  0
ENDBLK
  5
1A1
330
19F
100
AcDbEntity
  8
0
100
AcDbBlockEnd
  0
BLOCK
  5
1A9
330
1A8
100
AcDbEntity
  8
0
100
AcDbBlockBegin
  2
SW_NOTE_0
 70
     0
 10
0.0
 20
0.0
 30
0.0
  3
SW_NOTE_0
  1

  0
MTEXT
  5
1AC
330
1A8
100
AcDbEntity
  8
9
 62
     0
100
AcDbMText
 10
0.0
 20
3.3866666667
 30
0.0
 40
2.9104166667
 41
0.0
 71
     1
 72
     1
  1
付属ねじ：コーススレッド呼4.2x45・・・2本
  7
SLDTEXTSTYLE1
  0
MTEXT
  5
1AD
330
1A8
100
AcDbEntity
  8
9
 62
     0
100
AcDbMText
 10
0.0
 20
-0.493888842
 30
0.0
 40
2.9104166667
 41
0.0
 71
     1
 72
     1
  1
　　　　　　 アンカープラグ・・・2本
  7
SLDTEXTSTYLE1
  0
ENDBLK
  5
1AA
330
1A8
100
AcDbEntity
  8
0
100
AcDbBlockEnd
  0
BLOCK
  5
1CA
330
1C9
100
AcDbEntity
  8
0
100
AcDbBlockBegin
  2
SW_TABLEANNOTATION_0
 70
     0
 10
0.0
 20
0.0
 30
0.0
  3
SW_TABLEANNOTATION_0
  1

  0
LINE
  5
1CC
330
1C9
100
AcDbEntity
  8
9
 62
     0
100
AcDbLine
 10
0.0
 20
0.0
 30
0.0
 11
0.0
 21
-53.9999996647
 31
0.0
  0
LINE
  5
1CD
330
1C9
100
AcDbEntity
  8
9
 62
     0
100
AcDbLine
 10
0.0
 20
-53.9999996647
 30
0.0
 11
5.9610776204
 21
-53.9999996647
 31
0.0
  0
LINE
  5
1CE
330
1C9
100
AcDbEntity
  8
9
 62
     0
100
AcDbLine
 10
5.9610776204
 20
-53.9999996647
 30
0.0
 11
5.9610776204
 21
0.0
 31
0.0
  0
LINE
  5
1CF
330
1C9
100
AcDbEntity
  8
9
 62
     0
100
AcDbLine
 10
5.9610776204
 20
0.0
 30
0.0
 11
0.0
 21
0.0
 31
0.0
  0
LINE
  5
1D0
330
1C9
100
AcDbEntity
  8
9
 62
     0
100
AcDbLine
 10
0.0
 20
-5.9999998882
 30
0.0
 11
5.9610776204
 21
-5.9999998882
 31
0.0
  0
LINE
  5
1D1
330
1C9
100
AcDbEntity
  8
9
 62
     0
100
AcDbLine
 10
0.0
 20
-11.9999997765
 30
0.0
 11
5.9610776204
 21
-11.9999997765
 31
0.0
  0
LINE
  5
1D2
330
1C9
100
AcDbEntity
  8
9
 62
     0
100
AcDbLine
 10
0.0
 20
-17.9999996647
 30
0.0
 11
5.9610776204
 21
-17.9999996647
 31
0.0
  0
LINE
  5
1D3
330
1C9
100
AcDbEntity
  8
9
 62
     0
100
AcDbLine
 10
0.0
 20
-23.9999996647
 30
0.0
 11
5.9610776204
 21
-23.9999996647
 31
0.0
  0
LINE
  5
1D4
330
1C9
100
AcDbEntity
  8
9
 62
     0
100
AcDbLine
 10
0.0
 20
-29.9999996647
 30
0.0
 11
5.9610776204
 21
-29.9999996647
 31
0.0
  0
LINE
  5
1D5
330
1C9
100
AcDbEntity
  8
9
 62
     0
100
AcDbLine
 10
0.0
 20
-35.9999996647
 30
0.0
 11
5.9610776204
 21
-35.9999996647
 31
0.0
  0
LINE
  5
1D6
330
1C9
100
AcDbEntity
  8
9
 62
     0
100
AcDbLine
 10
0.0
 20
-41.9999996647
 30
0.0
 11
5.9610776204
 21
-41.9999996647
 31
0.0
  0
LINE
  5
1D7
330
1C9
100
AcDbEntity
  8
9
 62
     0
100
AcDbLine
 10
0.0
 20
-47.9999996647
 30
0.0
 11
5.9610776204
 21
-47.9999996647
 31
0.0
  0
MTEXT
  5
1D8
330
1C9
100
AcDbEntity
  8
9
 62
     0
100
AcDbMText
 10
2.007950089
 20
-43.9088451896
 30
0.0
 40
2.6458333333
 41
0.0
 71
     1
 72
     1
  1
F
  7
SLDTEXTSTYLE0
  0
MTEXT
  5
1D9
330
1C9
100
AcDbEntity
  8
9
 62
     0
100
AcDbMText
 10
2.0985943764
 20
-49.9088451896
 30
0.0
 40
2.6458333333
 41
0.0
 71
     1
 72
     1
  1
3
  7
SLDTEXTSTYLE0
  0
ENDBLK
  5
1CB
330
1C9
100
AcDbEntity
  8
0
100
AcDbBlockEnd
  0
BLOCK
  5
1DC
330
1DB
100
AcDbEntity
  8
0
100
AcDbBlockBegin
  2
SW_TABLEANNOTATION_1
 70
     0
 10
0.0
 20
0.0
 30
0.0
  3
SW_TABLEANNOTATION_1
  1

  0
LINE
  5
1DE
330
1DB
100
AcDbEntity
  8
9
 62
     0
100
AcDbLine
 10
0.0
 20
0.0
 30
0.0
 11
0.0
 21
-6.0
 31
0.0
  0
LINE
  5
1DF
330
1DB
100
AcDbEntity
  8
9
 62
     0
100
AcDbLine
 10
0.0
 20
-6.0
 30
0.0
 11
85.0
 21
-6.0
 31
0.0
  0
LINE
  5
1E0
330
1DB
100
AcDbEntity
  8
9
 62
     0
100
AcDbLine
 10
85.0
 20
-6.0
 30
0.0
 11
85.0
 21
0.0
 31
0.0
  0
LINE
  5
1E1
330
1DB
100
AcDbEntity
  8
9
 62
     0
100
AcDbLine
 10
85.0
 20
0.0
 30
0.0
 11
0.0
 21
0.0
 31
0.0
  0
LINE
  5
1E2
330
1DB
100
AcDbEntity
  8
9
 62
     0
100
AcDbLine
 10
10.0
 20
0.0
 30
0.0
 11
10.0
 21
-6.0
 31
0.0
  0
LINE
  5
1E3
330
1DB
100
AcDbEntity
  8
9
 62
     0
100
AcDbLine
 10
30.0
 20
0.0
 30
0.0
 11
30.0
 21
-6.0
 31
0.0
  0
LINE
  5
1E4
330
1DB
100
AcDbEntity
  8
9
 62
     0
100
AcDbLine
 10
45.0
 20
0.0
 30
0.0
 11
45.0
 21
-6.0
 31
0.0
  0
MTEXT
  5
1E5
330
1DB
100
AcDbEntity
  8
9
 62
     0
100
AcDbMText
 10
1.8250000384
 20
-2.0105026912
 30
0.0
 40
2.38125
 41
0.0
 71
     1
 72
     1
  1
記号
  7
SLDTEXTSTYLE1
  0
MTEXT
  5
1E6
330
1DB
100
AcDbEntity
  8
9
 62
     0
100
AcDbMText
 10
16.8250000384
 20
-2.0105026912
 30
0.0
 40
2.38125
 41
0.0
 71
     1
 72
     1
  1
日付
  7
SLDTEXTSTYLE1
  0
MTEXT
  5
1E7
330
1DB
100
AcDbEntity
  8
9
 62
     0
100
AcDbMText
 10
34.3250000384
 20
-2.0105026912
 30
0.0
 40
2.38125
 41
0.0
 71
     1
 72
     1
  1
担当
  7
SLDTEXTSTYLE1
  0
MTEXT
  5
1E8
330
1DB
100
AcDbEntity
  8
9
 62
     0
100
AcDbMText
 10
58.6500000767
 20
-2.0105026912
 30
0.0
 40
2.38125
 41
0.0
 71
     1
 72
     1
  1
改訂理由
  7
SLDTEXTSTYLE1
  0
ENDBLK
  5
1DD
330
1DB
100
AcDbEntity
  8
0
100
AcDbBlockEnd
  0
BLOCK
  5
1EB
330
1EA
100
AcDbEntity
  8
0
100
AcDbBlockBegin
  2
SW_TABLEANNOTATION_2
 70
     0
 10
0.0
 20
0.0
 30
0.0
  3
SW_TABLEANNOTATION_2
  1

  0
LINE
  5
1ED
330
1EA
100
AcDbEntity
  8
9
 62
     0
100
AcDbLine
 10
0.0
 20
0.0
 30
0.0
 11
0.0
 21
-18.0
 31
0.0
  0
LINE
  5
1EE
330
1EA
100
AcDbEntity
  8
9
 62
     0
100
AcDbLine
 10
0.0
 20
-18.0
 30
0.0
 11
90.0
 21
-18.0
 31
0.0
  0
LINE
  5
1EF
330
1EA
100
AcDbEntity
  8
9
 62
     0
100
AcDbLine
 10
90.0
 20
-18.0
 30
0.0
 11
90.0
 21
0.0
 31
0.0
  0
LINE
  5
1F0
330
1EA
100
AcDbEntity
  8
9
 62
     0
100
AcDbLine
 10
90.0
 20
0.0
 30
0.0
 11
0.0
 21
0.0
 31
0.0
  0
LINE
  5
1F1
330
1EA
100
AcDbEntity
  8
9
 62
     0
100
AcDbLine
 10
22.0
 20
0.0
 30
0.0
 11
22.0
 21
-18.0
 31
0.0
  0
LINE
  5
1F2
330
1EA
100
AcDbEntity
  8
9
 62
     0
100
AcDbLine
 10
46.0
 20
0.0
 30
0.0
 11
46.0
 21
-18.0
 31
0.0
  0
LINE
  5
1F3
330
1EA
100
AcDbEntity
  8
9
 62
     0
100
AcDbLine
 10
69.0
 20
0.0
 30
0.0
 11
69.0
 21
-18.0
 31
0.0
  0
LINE
  5
1F4
330
1EA
100
AcDbEntity
  8
9
 62
     0
100
AcDbLine
 10
0.0
 20
-6.0
 30
0.0
 11
90.0
 21
-6.0
 31
0.0
  0
LINE
  5
1F5
330
1EA
100
AcDbEntity
  8
9
 62
     0
100
AcDbLine
 10
0.0
 20
-12.0
 30
0.0
 11
90.0
 21
-12.0
 31
0.0
  0
MTEXT
  5
1F6
330
1EA
100
AcDbEntity
  8
9
 62
     0
100
AcDbMText
 10
3.1237463132
 20
-1.9088455248
 30
0.0
 40
2.6458333333
 41
0.0
 71
     1
 72
     1
  1
注文コード
  7
SLDTEXTSTYLE1
  0
MTEXT
  5
1F7
330
1EA
100
AcDbEntity
  8
9
 62
     0
100
AcDbMText
 10
30.4722222649
 20
-1.9088455248
 30
0.0
 40
2.6458333333
 41
0.0
 71
     1
 72
     1
  1
品番
  7
SLDTEXTSTYLE1
  0
MTEXT
  5
1F8
330
1EA
100
AcDbEntity
  8
9
 62
     0
100
AcDbMText
 10
53.9722222649
 20
-1.9088455248
 30
0.0
 40
2.6458333333
 41
0.0
 71
     1
 72
     1
  1
材料
  7
SLDTEXTSTYLE1
  0
MTEXT
  5
1F9
330
1EA
100
AcDbEntity
  8
9
 62
     0
100
AcDbMText
 10
73.3263893127
 20
-1.9088455248
 30
0.0
 40
2.6458333333
 41
0.0
 71
     1
 72
     1
  1
仕上/色
  7
SLDTEXTSTYLE1
  0
MTEXT
  5
1FA
330
1EA
100
AcDbEntity
  8
9
 62
     0
100
AcDbMText
 10
1.2986111119
 20
-7.9088454084
 30
0.0
 40
2.6458333333
 41
0.0
 71
     1
 72
     1
  1
280-022-754
  7
SLDTEXTSTYLE0
  0
MTEXT
  5
1FB
330
1EA
100
AcDbEntity
  8
9
 62
     0
100
AcDbMText
 10
23.4166663289
 20
-7.9088454084
 30
0.0
 40
2.6458333333
 41
0.0
 71
     1
 72
     1
  1
800-21-11040
  7
SLDTEXTSTYLE0
  0
MTEXT
  5
1FC
330
1EA
100
AcDbEntity
  8
9
 62
     0
100
AcDbMText
 10
53.9722222649
 20
-7.9088455248
 30
0.0
 40
2.6458333333
 41
0.0
 71
     1
 72
     1
  1
黄銅
  7
SLDTEXTSTYLE1
  0
MTEXT
  5
1FD
330
1EA
100
AcDbEntity
  8
9
 62
     0
100
AcDbMText
 10
70.1979361549
 20
-7.9088455248
 30
0.0
 40
2.6458333333
 41
0.0
 71
     1
 72
     1
  1
クロムめっき
  7
SLDTEXTSTYLE1
  0
MTEXT
  5
1FE
330
1EA
100
AcDbEntity
  8
9
 62
     0
100
AcDbMText
 10
1.2986111119
 20
-13.9088454084
 30
0.0
 40
2.6458333333
 41
0.0
 71
     1
 72
     1
  1
280-022-755
  7
SLDTEXTSTYLE0
  0
MTEXT
  5
1FF
330
1EA
100
AcDbEntity
  8
9
 62
     0
100
AcDbMText
 10
23.4166663289
 20
-13.9088454084
 30
0.0
 40
2.6458333333
 41
0.0
 71
     1
 72
     1
  1
800-21-11090
  7
SLDTEXTSTYLE0
  0
MTEXT
  5
200
330
1EA
100
AcDbEntity
  8
9
 62
     0
100
AcDbMText
 10
47.2155473009
 20
-13.9088455248
 30
0.0
 40
2.6458333333
 41
0.0
 71
     1
 72
     1
  1
ポリアミド(PA)
  7
SLDTEXTSTYLE1
  0
MTEXT
  5
201
330
1EA
100
AcDbEntity
  8
9
 62
     0
100
AcDbMText
 10
73.6154704429
 20
-13.9088455248
 30
0.0
 40
2.6458333333
 41
0.0
 71
     1
 72
     1
  1
ホワイト
  7
SLDTEXTSTYLE1
  0
ENDBLK
  5
1EC
330
1EA
100
AcDbEntity
  8
0
100
AcDbBlockEnd
  0
BLOCK
  5
204
330
203
100
AcDbEntity
  8
0
100
AcDbBlockBegin
  2
SW_TABLEANNOTATION_3
 70
     0
 10
0.0
 20
0.0
 30
0.0
  3
SW_TABLEANNOTATION_3
  1

  0
LINE
  5
206
330
203
100
AcDbEntity
  8
9
 62
     0
100
AcDbLine
 10
0.0
 20
0.0
 30
0.0
 11
0.0
 21
-12.0
 31
0.0
  0
LINE
  5
207
330
203
100
AcDbEntity
  8
9
 62
     0
100
AcDbLine
 10
0.0
 20
-12.0
 30
0.0
 11
175.0
 21
-12.0
 31
0.0
  0
LINE
  5
208
330
203
100
AcDbEntity
  8
9
 62
     0
100
AcDbLine
 10
175.0
 20
-12.0
 30
0.0
 11
175.0
 21
0.0
 31
0.0
  0
LINE
  5
209
330
203
100
AcDbEntity
  8
9
 62
     0
100
AcDbLine
 10
175.0
 20
0.0
 30
0.0
 11
0.0
 21
0.0
 31
0.0
  0
LINE
  5
20A
330
203
100
AcDbEntity
  8
9
 62
     0
100
AcDbLine
 10
50.0
 20
0.0
 30
0.0
 11
50.0
 21
-6.0
 31
0.0
  0
LINE
  5
20B
330
203
100
AcDbEntity
  8
9
 62
     0
100
AcDbLine
 10
100.0
 20
0.0
 30
0.0
 11
100.0
 21
-6.0
 31
0.0
  0
LINE
  5
20C
330
203
100
AcDbEntity
  8
9
 62
     0
100
AcDbLine
 10
125.0
 20
0.0
 30
0.0
 11
125.0
 21
-6.0
 31
0.0
  0
LINE
  5
20D
330
203
100
AcDbEntity
  8
9
 62
     0
100
AcDbLine
 10
50.0
 20
-6.0
 30
0.0
 11
50.0
 21
-12.0
 31
0.0
  0
LINE
  5
20E
330
203
100
AcDbEntity
  8
9
 62
     0
100
AcDbLine
 10
100.0
 20
-6.0
 30
0.0
 11
100.0
 21
-12.0
 31
0.0
  0
LINE
  5
20F
330
203
100
AcDbEntity
  8
9
 62
     0
100
AcDbLine
 10
125.0
 20
-6.0
 30
0.0
 11
125.0
 21
-12.0
 31
0.0
  0
LINE
  5
210
330
203
100
AcDbEntity
  8
9
 62
     0
100
AcDbLine
 10
0.0
 20
-6.0
 30
0.0
 11
175.0
 21
-6.0
 31
0.0
  0
MTEXT
  5
211
330
203
100
AcDbEntity
  8
9
 62
     0
100
AcDbMText
 10
21.1194444913
 20
-1.7922718019
 30
0.0
 40
2.9104166667
 41
0.0
 71
     1
 72
     1
  1
材料
  7
SLDTEXTSTYLE1
  0
MTEXT
  5
212
330
203
100
AcDbEntity
  8
9
 62
     0
100
AcDbMText
 10
67.2388889827
 20
-1.7922718019
 30
0.0
 40
2.9104166667
 41
0.0
 71
     1
 72
     1
  1
表面処理
  7
SLDTEXTSTYLE1
  0
MTEXT
  5
213
330
203
100
AcDbEntity
  8
9
 62
     0
100
AcDbMText
 10
108.6194444913
 20
-1.7922718019
 30
0.0
 40
2.9104166667
 41
0.0
 71
     1
 72
     1
  1
重量
  7
SLDTEXTSTYLE1
  0
MTEXT
  5
214
330
203
100
AcDbEntity
  8
9
 62
     0
100
AcDbMText
 10
146.1194444913
 20
-1.7922718019
 30
0.0
 40
2.9104166667
 41
0.0
 71
     1
 72
     1
  1
備考
  7
SLDTEXTSTYLE1
  0
MTEXT
  5
215
330
203
100
AcDbEntity
  8
9
 62
     0
100
AcDbMText
 10
21.1194444913
 20
-7.7922718019
 30
0.0
 40
2.9104166667
 41
0.0
 71
     1
 72
     1
  1
図中
  7
SLDTEXTSTYLE1
  0
MTEXT
  5
216
330
203
100
AcDbEntity
  8
9
 62
     0
100
AcDbMText
 10
71.1194444913
 20
-7.7922718019
 30
0.0
 40
2.9104166667
 41
0.0
 71
     1
 72
     1
  1
図中
  7
SLDTEXTSTYLE1
  0
ENDBLK
  5
205
330
203
100
AcDbEntity
  8
0
100
AcDbBlockEnd
  0
ENDSEC
  0
SECTION
  2
ENTITIES
  0
HATCH
  5
DE
330
1F
100
AcDbEntity
  8
9
 62
     7
100
AcDbHatch
 10
0.0
 20
0.0
 30
0.0
210
0.0
220
0.0
230
1.0
  2
SOLID
 70
     1
 71
     0
 91
        1
 92
        0
 93
        3
 72
     1
 10
21.36202884645707
 20
146.7008457637104
 11
23.09407965402596
 21
147.7008457637104
 72
     1
 10
23.09407965402596
 20
147.7008457637104
 11
21.36202884645707
 21
148.7008457637105
 72
     1
 10
21.36202884645707
 20
148.7008457637105
 11
21.36202884645707
 21
146.7008457637104
 97
        0
 75
     0
 76
     1
 98
        1
 10
0.0
 20
0.0
  0
LINE
  5
DF
330
1F
100
AcDbEntity
  8
9
  6
CONTINUOUS
 62
     7
100
AcDbLine
 10
176.2282218404
 20
117.0015730915
 30
0.0
 11
176.2282218404
 21
116.9995161134
 31
0.0
  0
LINE
  5
E0
330
1F
100
AcDbEntity
  8
9
  6
CONTINUOUS
 62
     7
100
AcDbLine
 10
176.3728959679
 20
118.6073873415
 30
0.0
 11
176.3728959679
 21
118.5497919542
 31
0.0
  0
LINE
  5
E1
330
1F
100
AcDbEntity
  8
9
  6
CONTINUOUS
 62
     7
100
AcDbLine
 10
43.4906328809
 20
218.3472324773
 30
0.0
 11
183.4906328809
 21
218.3472324773
 31
0.0
  0
LINE
  5
E2
330
1F
100
AcDbEntity
  8
9
  6
CONTINUOUS
 62
     7
100
AcDbLine
 10
183.4906328809
 20
218.3472324773
 30
0.0
 11
183.4906328809
 21
238.3472324773
 31
0.0
  0
LINE
  5
E3
330
1F
100
AcDbEntity
  8
9
  6
CONTINUOUS
 62
     7
100
AcDbLine
 10
183.4906328809
 20
238.3472324773
 30
0.0
 11
43.4906328809
 21
238.3472324773
 31
0.0
  0
LINE
  5
E4
330
1F
100
AcDbEntity
  8
9
  6
CONTINUOUS
 62
     7
100
AcDbLine
 10
43.4906328809
 20
238.3472324773
 30
0.0
 11
43.4906328809
 21
218.3472324773
 31
0.0
  0
LINE
  5
E5
330
1F
100
AcDbEntity
  8
9
  6
CONTINUOUS
 62
     7
100
AcDbLine
 10
115.9752172174
 20
238.3472324773
 30
0.0
 11
175.9752172174
 21
238.3472324773
 31
0.0
  0
LINE
  5
E6
330
1F
100
AcDbEntity
  8
9
  6
CONTINUOUS
 62
     7
100
AcDbLine
 10
175.9752172174
 20
238.3472324773
 30
0.0
 11
175.9752172174
 21
245.3472324773
 31
0.0
  0
LINE
  5
E7
330
1F
100
AcDbEntity
  8
9
  6
CONTINUOUS
 62
     7
100
AcDbLine
 10
175.9752172174
 20
245.3472324773
 30
0.0
 11
115.9752172174
 21
245.3472324773
 31
0.0
  0
LINE
  5
E8
330
1F
100
AcDbEntity
  8
9
  6
CONTINUOUS
 62
     7
100
AcDbLine
 10
115.9752172174
 20
245.3472324773
 30
0.0
 11
115.9752172174
 21
238.3472324773
 31
0.0
  0
LINE
  5
E9
330
1F
100
AcDbEntity
  8
9
  6
CONTINUOUS
 62
     7
100
AcDbLine
 10
90.5883705273
 20
99.1583164161
 30
0.0
 11
165.5441846154
 21
99.1583164161
 31
0.0
  0
LINE
  5
EA
330
1F
100
AcDbEntity
  8
9
  6
CONTINUOUS
 62
     7
100
AcDbLine
 10
185.5883705273
 20
189.1583164161
 30
0.0
 11
90.5883705273
 21
189.1583164161
 31
0.0
  0
LINE
  5
EB
330
1F
100
AcDbEntity
  8
9
  6
CONTINUOUS
 62
     7
100
AcDbLine
 10
164.5883705273
 20
168.1583164161
 30
0.0
 11
74.5715487619
 21
168.1583164161
 31
0.0
  0
LINE
  5
EC
330
1F
100
AcDbEntity
  8
9
  6
CONTINUOUS
 62
     7
100
AcDbLine
 10
184.9446716916
 20
119.1572861581
 30
0.0
 11
176.7210891262
 21
119.1572861581
 31
0.0
  0
LINE
  5
ED
330
1F
100
AcDbEntity
  8
9
  6
CONTINUOUS
 62
     7
100
AcDbLine
 10
135.1036677472
 20
242.8713447478
 30
0.0
 11
135.1036677472
 21
242.3427609134
 31
0.0
  0
LINE
  5
EE
330
1F
100
AcDbEntity
  8
9
  6
CONTINUOUS
 62
     7
100
AcDbLine
 10
135.1036677472
 20
242.3427609134
 30
0.0
 11
116.0897240137
 21
242.3427609134
 31
0.0
  0
LINE
  5
EF
330
1F
100
AcDbEntity
  8
9
  6
CONTINUOUS
 62
     7
100
AcDbLine
 10
135.1036677472
 20
242.8713447478
 30
0.0
 11
135.1036677472
 21
245.369747199
 31
0.0
  0
LINE
  5
F0
330
1F
100
AcDbEntity
  8
9
  6
CONTINUOUS
 62
     7
100
AcDbLine
 10
156.8467666875
 20
242.8713447478
 30
0.0
 11
156.8467666875
 21
242.3427609134
 31
0.0
  0
LINE
  5
F1
330
1F
100
AcDbEntity
  8
9
  6
CONTINUOUS
 62
     7
100
AcDbLine
 10
156.8467666875
 20
242.3427609134
 30
0.0
 11
175.860710421
 21
242.3427609134
 31
0.0
  0
LINE
  5
F2
330
1F
100
AcDbEntity
  8
9
  6
CONTINUOUS
 62
     7
100
AcDbLine
 10
156.8467666875
 20
242.8713447478
 30
0.0
 11
156.8467666875
 21
245.369747199
 31
0.0
  0
LINE
  5
F3
330
1F
100
AcDbEntity
  8
9
 62
     7
100
AcDbLine
 10
121.9752172174
 20
240.3795155075
 30
0.0
 11
121.9752172174
 21
248.4875368099
 31
0.0
  0
LINE
  5
F4
330
1F
100
AcDbEntity
  8
9
  6
CONTINUOUS
 62
     7
100
AcDbLine
 10
169.9752172174
 20
240.3795155075
 30
0.0
 11
169.9752172174
 21
248.4875368099
 31
0.0
  0
LINE
  5
F5
330
1F
100
AcDbEntity
  8
9
100
AcDbLine
 10
86.594079654
 20
41.7299212316
 30
0.0
 11
61.594079654
 21
41.7299212316
 31
0.0
  0
LINE
  5
F6
330
1F
100
AcDbEntity
  8
9
100
AcDbLine
 10
198.094079654
 20
11.7008457637
 30
0.0
 11
198.094079654
 21
285.7008457637
 31
0.0
  0
LINE
  5
F7
330
1F
100
AcDbEntity
  8
8
100
AcDbLine
 10
23.094079654
 20
11.7008457637
 30
0.0
 11
198.094079654
 21
11.7008457637
 31
0.0
  0
LINE
  5
F8
330
1F
100
AcDbEntity
  8
9
100
AcDbLine
 10
198.094079654
 20
285.7008457637
 30
0.0
 11
23.094079654
 21
285.7008457637
 31
0.0
  0
LINE
  5
F9
330
1F
100
AcDbEntity
  8
8
100
AcDbLine
 10
23.094079654
 20
147.7008457637
 30
0.0
 11
25.094079654
 21
147.7008457637
 31
0.0
  0
LINE
  5
FA
330
1F
100
AcDbEntity
  8
9
100
AcDbLine
 10
23.094079654
 20
41.7008457637
 30
0.0
 11
59.094079654
 21
41.7008457637
 31
0.0
  0
LINE
  5
FB
330
1F
100
AcDbEntity
  8
9
100
AcDbLine
 10
59.094079654
 20
47.7008457637
 30
0.0
 11
59.094079654
 21
11.7008457637
 31
0.0
  0
LINE
  5
FC
330
1F
100
AcDbEntity
  8
9
100
AcDbLine
 10
153.094079654
 20
53.7008457637
 30
0.0
 11
153.094079654
 21
11.7008457637
 31
0.0
  0
LINE
  5
FD
330
1F
100
AcDbEntity
  8
9
100
AcDbLine
 10
88.094079654
 20
53.7008457637
 30
0.0
 11
88.094079654
 21
11.7008457637
 31
0.0
  0
LINE
  5
FE
330
1F
100
AcDbEntity
  8
9
  6
CONTINUOUS
 62
     7
100
AcDbLine
 10
89.594079654
 20
35.7008457637
 30
0.0
 11
151.594079654
 21
35.7008457637
 31
0.0
  0
LINE
  5
FF
330
1F
100
AcDbEntity
  8
9
  6
CONTINUOUS
 62
     7
100
AcDbLine
 10
59.094079654
 20
23.7008457637
 30
0.0
 11
153.094079654
 21
23.7008457637
 31
0.0
  0
LINE
  5
100
330
1F
100
AcDbEntity
  8
9
  6
DOT2
 62
     7
100
AcDbLine
 10
60.594079654
 20
29.7008457637
 30
0.0
 11
86.594079654
 21
29.7008457637
 31
0.0
  0
LINE
  5
101
330
1F
100
AcDbEntity
  8
9
  6
CENTERX2
 62
   179
100
AcDbLine
 10
67.094079654
 20
46.7299212316
 30
0.0
 11
67.094079654
 21
36.7299212316
 31
0.0
  0
LINE
  5
102
330
1F
100
AcDbEntity
  8
8
100
AcDbLine
 10
23.094079654
 20
53.7008457637
 30
0.0
 11
198.094079654
 21
53.7008457637
 31
0.0
  0
LINE
  5
103
330
1F
100
AcDbEntity
  8
9
100
AcDbLine
 10
23.094079654
 20
285.7008457637
 30
0.0
 11
23.094079654
 21
12.7008457637
 31
0.0
  0
LINE
  5
104
330
1F
100
AcDbEntity
  8
9
100
AcDbLine
 10
23.094079654
 20
47.7008457637
 30
0.0
 11
198.094079654
 21
47.7008457637
 31
0.0
  0
LINE
  5
105
330
1F
100
AcDbEntity
  8
9
  6
CONTINUOUS
 62
   179
100
AcDbLine
 10
75.094079654
 20
39.6049212316
 30
0.0
 11
84.094079654
 21
37.4799212316
 31
0.0
  0
LINE
  5
106
330
1F
100
AcDbEntity
  8
9
100
AcDbLine
 10
84.094079654
 20
45.9799212316
 30
0.0
 11
84.094079654
 21
37.4799212316
 31
0.0
  0
LINE
  5
107
330
1F
100
AcDbEntity
  8
9
  6
CONTINUOUS
 62
   179
100
AcDbLine
 10
75.094079654
 20
43.8549212316
 30
0.0
 11
75.094079654
 21
39.6049212316
 31
0.0
  0
LINE
  5
108
330
1F
100
AcDbEntity
  8
9
  6
CONTINUOUS
 62
   179
100
AcDbLine
 10
84.094079654
 20
45.9799212316
 30
0.0
 11
75.094079654
 21
43.8549212316
 31
0.0
  0
LINE
  5
109
330
1F
100
AcDbEntity
  8
9
100
AcDbLine
 10
23.094079654
 20
35.7008457637
 30
0.0
 11
88.094079654
 21
35.7008457637
 31
0.0
  0
LINE
  5
10A
330
1F
100
AcDbEntity
  8
9
100
AcDbLine
 10
71.094079654
 20
35.7008457637
 30
0.0
 11
71.094079654
 21
11.7008457637
 31
0.0
  0
LINE
  5
10B
330
1F
100
AcDbEntity
  8
9
100
AcDbLine
 10
88.094079654
 20
41.7008457637
 30
0.0
 11
153.094079654
 21
41.7008457637
 31
0.0
  0
LINE
  5
10C
330
1F
100
AcDbEntity
  8
9
  6
DOT2
 62
     7
100
AcDbLine
 10
86.594079654
 20
17.7008457637
 30
0.0
 11
60.594079654
 21
17.7008457637
 31
0.0
  0
LINE
  5
10D
330
1F
100
AcDbEntity
  8
9
  6
CONTINUOUS
 62
     7
100
AcDbLine
 10
89.594079654
 20
29.7008457637
 30
0.0
 11
151.594079654
 21
29.7008457637
 31
0.0
  0
LINE
  5
10E
330
1F
100
AcDbEntity
  8
9
100
AcDbLine
 10
23.094079654
 20
53.7008457637
 30
0.0
 11
23.094079654
 21
11.7008457637
 31
0.0
  0
LINE
  5
10F
330
1F
100
AcDbEntity
  8
9
 62
     7
100
AcDbLine
 10
23.094079654
 20
147.7008457637
 30
0.0
 11
21.3620288465
 21
148.7008457637
 31
0.0
  0
LINE
  5
110
330
1F
100
AcDbEntity
  8
9
 62
     7
100
AcDbLine
 10
198.094079654
 20
147.7008457637
 30
0.0
 11
196.094079654
 21
147.7008457637
 31
0.0
  0
LINE
  5
111
330
1F
100
AcDbEntity
  8
9
 62
     7
100
AcDbLine
 10
21.3620288465
 20
148.7008457637
 30
0.0
 11
21.3620288465
 21
146.7008457637
 31
0.0
  0
LINE
  5
112
330
1F
100
AcDbEntity
  8
9
 62
     7
100
AcDbLine
 10
21.3620288465
 20
146.7008457637
 30
0.0
 11
23.094079654
 21
147.7008457637
 31
0.0
  0
ARC
  5
113
330
1F
100
AcDbEntity
  8
9
  6
CONTINUOUS
 62
     7
100
AcDbCircle
 10
90.5883705273
 20
144.1583164161
 30
0.0
 40
45.00000000000006
100
AcDbArc
 50
90.0
 51
270.0
  0
ARC
  5
114
330
1F
100
AcDbEntity
  8
9
  6
CONTINUOUS
 62
     7
100
AcDbCircle
 10
90.5883705273
 20
144.1583164161
 30
0.0
 40
36.00000000000004
100
AcDbArc
 50
180.0
 51
270.0
  0
ARC
  5
115
330
1F
100
AcDbEntity
  8
9
  6
CONTINUOUS
 62
     7
100
AcDbCircle
 10
90.5883705273
 20
144.1583164161
 30
0.0
 40
35.99999999999994
100
AcDbArc
 50
269.1378977352
 51
270.0
  0
ARC
  5
116
330
1F
100
AcDbEntity
  8
9
  6
CONTINUOUS
 62
     7
100
AcDbCircle
 10
75.806506824
 20
146.8107291976
 30
0.0
 40
21.38327854813107
100
AcDbArc
 50
93.3108711021
 51
187.1254038505
  0
ARC
  5
117
330
1F
100
AcDbEntity
  8
9
  6
CONTINUOUS
 62
     7
100
AcDbCircle
 10
164.5883705273
 20
189.1583164161
 30
0.0
 40
21.00000000000003
100
AcDbArc
 50
270.0
 51
0.0
  0
ARC
  5
118
330
1F
100
AcDbEntity
  8
9
  6
CONTINUOUS
 62
     7
100
AcDbCircle
 10
176.7386736423
 20
118.7800827561
 30
0.0
 40
0.3776130580917615
100
AcDbArc
 50
87.330910479
 51
196.7119096443
  0
ARC
  5
119
330
1F
100
AcDbEntity
  8
9
  6
CONTINUOUS
 62
     7
100
AcDbCircle
 10
184.797162374
 20
118.2356278264
 30
0.0
 40
0.9333879574787852
100
AcDbArc
 50
44.3847537104
 51
80.9070570106
  0
CIRCLE
  5
11A
330
1F
100
AcDbEntity
  8
9
  6
CONTINUOUS
 62
   179
100
AcDbCircle
 10
67.094079654
 20
41.7299212316
 30
0.0
 40
2.124999999999997
  0
CIRCLE
  5
11B
330
1F
100
AcDbEntity
  8
9
  6
CONTINUOUS
 62
   179
100
AcDbCircle
 10
67.094079654
 20
41.7299212316
 30
0.0
 40
4.250000000000112
  0
SPLINE
  5
11C
330
1F
100
AcDbEntity
  8
9
  6
CONTINUOUS
 62
     7
100
AcDbSpline
210
0.0
220
0.0
230
1.0
 70
     8
 71
     3
 72
     8
 73
     4
 74
     0
 42
0.00000001
 43
0.00000001
 40
5.0
 40
5.0
 40
5.0
 40
5.0
 40
6.0
 40
6.0
 40
6.0
 40
6.0
 10
115.9157140843076
 20
241.9518120512991
 30
0.0
 10
115.9032613963295
 20
241.8859438859405
 30
0.0
 10
115.8976904569706
 20
241.8223696367884
 30
0.0
 10
115.8976904569706
 20
241.7565014714299
 30
0.0
  0
SPLINE
  5
11D
330
1F
100
AcDbEntity
  8
9
  6
CONTINUOUS
 62
     7
100
AcDbSpline
210
0.0
220
0.0
230
1.0
 70
     8
 71
     3
 72
     8
 73
     4
 74
     0
 42
0.00000001
 43
0.00000001
 40
4.0
 40
4.0
 40
4.0
 40
4.0
 40
5.0
 40
5.0
 40
5.0
 40
5.0
 10
115.9625755153836
 20
242.1497442496901
 30
0.0
 10
115.9429133764708
 20
242.0828929773858
 30
0.0
 10
115.926855963025
 20
242.0170248120273
 30
0.0
 10
115.9157140843076
 20
241.9518120512991
 30
0.0
  0
SPLINE
  5
11E
330
1F
100
AcDbEntity
  8
9
  6
CONTINUOUS
 62
     7
100
AcDbSpline
210
0.0
220
0.0
230
1.0
 70
     8
 71
     3
 72
     8
 73
     4
 74
     0
 42
0.00000001
 43
0.00000001
 40
3.0
 40
3.0
 40
3.0
 40
3.0
 40
4.0
 40
4.0
 40
4.0
 40
4.0
 10
115.9946903422748
 20
242.2323252331248
 30
0.0
 10
115.9822376542966
 20
242.2064367502227
 30
0.0
 10
115.9727342871553
 20
242.1775989464836
 30
0.0
 10
115.9625755153836
 20
242.1497442496901
 30
0.0
  0
SPLINE
  5
11F
330
1F
100
AcDbEntity
  8
9
  6
CONTINUOUS
 62
     7
100
AcDbSpline
210
0.0
220
0.0
230
1.0
 70
     8
 71
     3
 72
     8
 73
     4
 74
     0
 42
0.00000001
 43
0.00000001
 40
2.0
 40
2.0
 40
2.0
 40
2.0
 40
3.0
 40
3.0
 40
3.0
 40
3.0
 10
116.0287713830574
 20
242.2985211007986
 30
0.0
 10
116.0163186950791
 20
242.2765650456791
 30
0.0
 10
116.0038660071009
 20
242.2539535859291
 30
0.0
 10
115.9946903422748
 20
242.2323252331248
 30
0.0
  0
SPLINE
  5
120
330
1F
100
AcDbEntity
  8
9
  6
CONTINUOUS
 62
     7
100
AcDbSpline
210
0.0
220
0.0
230
1.0
 70
     8
 71
     3
 72
     8
 73
     4
 74
     0
 42
0.00000001
 43
0.00000001
 40
1.0
 40
1.0
 40
1.0
 40
1.0
 40
2.0
 40
2.0
 40
2.0
 40
2.0
 10
116.0579368891118
 20
242.3299805230592
 30
0.0
 10
116.0464673080793
 20
242.3204771559182
 30
0.0
 10
116.0363085363076
 20
242.3103183841463
 30
0.0
 10
116.0287713830574
 20
242.2985211007986
 30
0.0
  0
SPLINE
  5
121
330
1F
100
AcDbEntity
  8
9
  6
CONTINUOUS
 62
     7
100
AcDbSpline
210
0.0
220
0.0
230
1.0
 70
     8
 71
     3
 72
     8
 73
     4
 74
     0
 42
0.00000001
 43
0.00000001
 40
0.0
 40
0.0
 40
0.0
 40
0.0
 40
1.0
 40
1.0
 40
1.0
 40
1.0
 10
116.0897240136877
 20
242.3427609133528
 30
0.0
 10
116.0775990280247
 20
242.3427609133531
 30
0.0
 10
116.0661294469922
 20
242.3368622716789
 30
0.0
 10
116.0579368891118
 20
242.3299805230592
 30
0.0
  0
SPLINE
  5
122
330
1F
100
AcDbEntity
  8
9
  6
CONTINUOUS
 62
     7
100
AcDbSpline
210
0.0
220
0.0
230
1.0
 70
     8
 71
     3
 72
     8
 73
     4
 74
     0
 42
0.00000001
 43
0.00000001
 40
5.0
 40
5.0
 40
5.0
 40
5.0
 40
6.0
 40
6.0
 40
6.0
 40
6.0
 10
176.0347203504081
 20
241.9518120512991
 30
0.0
 10
176.0471730383862
 20
241.8859438859405
 30
0.0
 10
176.0527439777451
 20
241.8223696367884
 30
0.0
 10
176.0527439777451
 20
241.7565014714299
 30
0.0
  0
SPLINE
  5
123
330
1F
100
AcDbEntity
  8
9
  6
CONTINUOUS
 62
     7
100
AcDbSpline
210
0.0
220
0.0
230
1.0
 70
     8
 71
     3
 72
     8
 73
     4
 74
     0
 42
0.00000001
 43
0.00000001
 40
4.0
 40
4.0
 40
4.0
 40
4.0
 40
5.0
 40
5.0
 40
5.0
 40
5.0
 10
175.987858919332
 20
242.1497442496901
 30
0.0
 10
176.007521058245
 20
242.0828929773858
 30
0.0
 10
176.0235784716906
 20
242.0170248120273
 30
0.0
 10
176.0347203504081
 20
241.9518120512991
 30
0.0
  0
SPLINE
  5
124
330
1F
100
AcDbEntity
  8
9
  6
CONTINUOUS
 62
     7
100
AcDbSpline
210
0.0
220
0.0
230
1.0
 70
     8
 71
     3
 72
     8
 73
     4
 74
     0
 42
0.00000001
 43
0.00000001
 40
3.0
 40
3.0
 40
3.0
 40
3.0
 40
4.0
 40
4.0
 40
4.0
 40
4.0
 10
175.9557440924409
 20
242.2323252331248
 30
0.0
 10
175.968196780419
 20
242.2064367502227
 30
0.0
 10
175.9777001475604
 20
242.1775989464836
 30
0.0
 10
175.987858919332
 20
242.1497442496901
 30
0.0
  0
SPLINE
  5
125
330
1F
100
AcDbEntity
  8
9
  6
CONTINUOUS
 62
     7
100
AcDbSpline
210
0.0
220
0.0
230
1.0
 70
     8
 71
     3
 72
     8
 73
     4
 74
     0
 42
0.00000001
 43
0.00000001
 40
2.0
 40
2.0
 40
2.0
 40
2.0
 40
3.0
 40
3.0
 40
3.0
 40
3.0
 10
175.9216630516583
 20
242.2985211007986
 30
0.0
 10
175.9341157396365
 20
242.2765650456791
 30
0.0
 10
175.9465684276147
 20
242.2539535859291
 30
0.0
 10
175.9557440924409
 20
242.2323252331248
 30
0.0
  0
SPLINE
  5
126
330
1F
100
AcDbEntity
  8
9
  6
CONTINUOUS
 62
     7
100
AcDbSpline
210
0.0
220
0.0
230
1.0
 70
     8
 71
     3
 72
     8
 73
     4
 74
     0
 42
0.00000001
 43
0.00000001
 40
1.0
 40
1.0
 40
1.0
 40
1.0
 40
2.0
 40
2.0
 40
2.0
 40
2.0
 10
175.8924975456038
 20
242.3299805230593
 30
0.0
 10
175.9039671266363
 20
242.3204771559182
 30
0.0
 10
175.9141258984081
 20
242.3103183841464
 30
0.0
 10
175.9216630516583
 20
242.2985211007986
 30
0.0
  0
SPLINE
  5
127
330
1F
100
AcDbEntity
  8
9
  6
CONTINUOUS
 62
     7
100
AcDbSpline
210
0.0
220
0.0
230
1.0
 70
     8
 71
     3
 72
     8
 73
     4
 74
     0
 42
0.00000001
 43
0.00000001
 40
0.0
 40
0.0
 40
0.0
 40
0.0
 40
1.0
 40
1.0
 40
1.0
 40
1.0
 10
175.8607104210279
 20
242.3427609133528
 30
0.0
 10
175.8728354066909
 20
242.3427609133528
 30
0.0
 10
175.8843049877236
 20
242.3368622716789
 30
0.0
 10
175.8924975456038
 20
242.3299805230592
 30
0.0
  0
SPLINE
  5
128
330
1F
100
AcDbEntity
  8
9
  6
CONTINUOUS
 62
     7
100
AcDbSpline
210
0.0
220
0.0
230
1.0
 70
    24
 71
     3
 72
     8
 73
     4
 74
     0
 42
0.00000001
 43
0.00000001
 40
0.0
 40
0.0
 40
0.0
 40
0.0
 40
1.0
 40
1.0
 40
1.0
 40
1.0
 10
176.3728959679267
 20
118.5497919541828
 30
0.0
 10
176.372895967955
 20
118.5412212120286
 30
0.0
 10
176.3728959679814
 20
118.5329932995612
 30
0.0
 10
176.3728959679862
 20
118.5247653870031
 30
0.0
  0
SPLINE
  5
129
330
1F
100
AcDbEntity
  8
9
  6
CONTINUOUS
 62
     7
100
AcDbSpline
210
0.0
220
0.0
230
1.0
 70
     8
 71
     3
 72
     8
 73
     4
 74
     0
 42
0.00000001
 43
0.00000001
 40
1.0
 40
1.0
 40
1.0
 40
1.0
 40
2.0
 40
2.0
 40
2.0
 40
2.0
 10
176.3728959679862
 20
118.5247653870031
 30
0.0
 10
176.3728959679991
 20
118.520651430769
 30
0.0
 10
176.3687820117914
 20
118.5124235182889
 30
0.0
 10
176.3687820118028
 20
118.5079667322808
 30
0.0
  0
SPLINE
  5
12A
330
1F
100
AcDbEntity
  8
9
  6
CONTINUOUS
 62
     7
100
AcDbSpline
210
0.0
220
0.0
230
1.0
 70
    24
 71
     2
 72
     6
 73
     3
 74
     0
 42
0.00000001
 43
0.00000001
 40
2.0
 40
2.0
 40
2.0
 40
3.0
 40
3.0
 40
3.0
 10
176.3687820118028
 20
118.5079667322808
 30
0.0
 10
176.3687820118568
 20
118.5059097541634
 30
0.0
 10
176.3687820118876
 20
118.5038527759204
 30
0.0
  0
SPLINE
  5
12B
330
1F
100
AcDbEntity
  8
9
  6
CONTINUOUS
 62
     7
100
AcDbSpline
210
0.0
220
0.0
230
1.0
 70
     8
 71
     3
 72
     8
 73
     4
 74
     0
 42
0.00000001
 43
0.00000001
 40
3.0
 40
3.0
 40
3.0
 40
3.0
 40
4.0
 40
4.0
 40
4.0
 40
4.0
 10
176.3687820118876
 20
118.5038527759204
 30
0.0
 10
176.3646680556812
 20
118.3615784561637
 30
0.0
 10
176.3564401432413
 20
118.218961306721
 30
0.0
 10
176.3440982745425
 20
118.0780583056114
 30
0.0
  0
SPLINE
  5
12C
330
1F
100
AcDbEntity
  8
9
  6
CONTINUOUS
 62
     7
100
AcDbSpline
210
0.0
220
0.0
230
1.0
 70
    24
 71
     3
 72
     8
 73
     4
 74
     0
 42
0.00000001
 43
0.00000001
 40
4.0
 40
4.0
 40
4.0
 40
4.0
 40
5.0
 40
5.0
 40
5.0
 40
5.0
 10
176.3440982745425
 20
118.0780583056114
 30
0.0
 10
176.3440982745561
 20
118.0760013274942
 30
0.0
 10
176.3440982745695
 20
118.0739443493772
 30
0.0
 10
176.3440982745854
 20
118.0698303930815
 30
0.0
  0
SPLINE
  5
12D
330
1F
100
AcDbEntity
  8
9
  6
CONTINUOUS
 62
     7
100
AcDbSpline
210
0.0
220
0.0
230
1.0
 70
    24
 71
     2
 72
     6
 73
     3
 74
     0
 42
0.00000001
 43
0.00000001
 40
5.0
 40
5.0
 40
5.0
 40
6.0
 40
6.0
 40
6.0
 10
176.3440982745854
 20
118.0698303930815
 30
0.0
 10
176.34409827466
 20
118.0677734149646
 30
0.0
 10
176.3440982746852
 20
118.0657164366854
 30
0.0
  0
SPLINE
  5
12E
330
1F
100
AcDbEntity
  8
9
  6
CONTINUOUS
 62
     7
100
AcDbSpline
210
0.0
220
0.0
230
1.0
 70
     8
 71
     3
 72
     8
 73
     4
 74
     0
 42
0.00000001
 43
0.00000001
 40
6.0
 40
6.0
 40
6.0
 40
6.0
 40
7.0
 40
7.0
 40
7.0
 40
7.0
 10
176.3440982746852
 20
118.0657164366854
 30
0.0
 10
176.3399843184513
 20
118.0098351978418
 30
0.0
 10
176.3358703622175
 20
117.9539539589982
 30
0.0
 10
176.3320992356697
 20
117.898758379527
 30
0.0
  0
SPLINE
  5
12F
330
1F
100
AcDbEntity
  8
9
  6
CONTINUOUS
 62
     7
100
AcDbSpline
210
0.0
220
0.0
230
1.0
 70
     8
 71
     3
 72
     8
 73
     4
 74
     0
 42
0.00000001
 43
0.00000001
 40
8.0
 40
8.0
 40
8.0
 40
8.0
 40
9.0
 40
9.0
 40
9.0
 40
9.0
 10
176.3320992349703
 20
117.8939587651066
 30
0.0
 10
176.3320992349998
 20
117.8795599182882
 30
0.0
 10
176.3279852787904
 20
117.8672180495783
 30
0.0
 10
176.3279852788015
 20
117.8514478839038
 30
0.0
  0
SPLINE
  5
130
330
1F
100
AcDbEntity
  8
9
  6
CONTINUOUS
 62
     7
100
AcDbSpline
210
0.0
220
0.0
230
1.0
 70
    24
 71
     2
 72
     6
 73
     3
 74
     0
 42
0.00000001
 43
0.00000001
 40
9.0
 40
9.0
 40
9.0
 40
10.0
 40
10.0
 40
10.0
 10
176.3279852788015
 20
117.8514478839038
 30
0.0
 10
176.3279852788629
 20
117.8493909057871
 30
0.0
 10
176.3279852788932
 20
117.8473339275291
 30
0.0
  0
SPLINE
  5
131
330
1F
100
AcDbEntity
  8
9
  6
CONTINUOUS
 62
     7
100
AcDbSpline
210
0.0
220
0.0
230
1.0
 70
     8
 71
     3
 72
     8
 73
     4
 74
     0
 42
0.00000001
 43
0.00000001
 40
10.0
 40
10.0
 40
10.0
 40
10.0
 40
11.0
 40
11.0
 40
11.0
 40
11.0
 10
176.3279852788932
 20
117.8473339275291
 30
0.0
 10
176.3238713227045
 20
117.7996806011493
 30
0.0
 10
176.3190717071432
 20
117.7516844450835
 30
0.0
 10
176.3149577509124
 20
117.7023169701082
 30
0.0
  0
SPLINE
  5
132
330
1F
100
AcDbEntity
  8
9
  6
CONTINUOUS
 62
     7
100
AcDbSpline
210
0.0
220
0.0
230
1.0
 70
     8
 71
     3
 72
     8
 73
     4
 74
     0
 42
0.00000001
 43
0.00000001
 40
11.0
 40
11.0
 40
11.0
 40
11.0
 40
12.0
 40
12.0
 40
12.0
 40
12.0
 10
176.3149577509124
 20
117.7023169701082
 30
0.0
 10
176.2947307994547
 20
117.4993617959011
 30
0.0
 10
176.2700470620755
 20
117.3012062372993
 30
0.0
 10
176.244677665304
 20
117.0985938926809
 30
0.0
  0
SPLINE
  5
133
330
1F
100
AcDbEntity
  8
9
  6
CONTINUOUS
 62
     7
100
AcDbSpline
210
0.0
220
0.0
230
1.0
 70
     8
 71
     3
 72
     8
 73
     4
 74
     0
 42
0.00000001
 43
0.00000001
 40
12.0
 40
12.0
 40
12.0
 40
12.0
 40
13.0
 40
13.0
 40
13.0
 40
13.0
 10
176.244677665304
 20
117.0985938926809
 30
0.0
 10
176.2364497528363
 20
117.0653394131237
 30
0.0
 10
176.2323357966023
 20
117.0320849335665
 30
0.0
 10
176.2282218403685
 20
117.0015730914985
 30
0.0
  0
SPLINE
  5
134
330
1F
100
AcDbEntity
  8
9
  6
CONTINUOUS
 62
     7
100
AcDbSpline
210
0.0
220
0.0
230
1.0
 70
    24
 71
     3
 72
     8
 73
     4
 74
     0
 42
0.00000001
 43
0.00000001
 40
14.0
 40
14.0
 40
14.0
 40
14.0
 40
15.0
 40
15.0
 40
15.0
 40
15.0
 10
176.2282218403685
 20
116.9995161133816
 30
0.0
 10
176.2282218404305
 20
116.9954021571483
 30
0.0
 10
176.2282218404622
 20
116.9933451790314
 30
0.0
 10
176.2282218404581
 20
116.9912882007744
 30
0.0
  0
SPLINE
  5
135
330
1F
100
AcDbEntity
  8
9
  6
CONTINUOUS
 62
     7
100
AcDbSpline
210
0.0
220
0.0
230
1.0
 70
     8
 71
     3
 72
     8
 73
     4
 74
     0
 42
0.00000001
 43
0.00000001
 40
15.0
 40
15.0
 40
15.0
 40
15.0
 40
16.0
 40
16.0
 40
16.0
 40
16.0
 10
176.2282218404581
 20
116.9912882007744
 30
0.0
 10
176.2244507139343
 20
116.9744895461475
 30
0.0
 10
176.2244507139577
 20
116.958033721212
 30
0.0
 10
176.2203367577211
 20
116.9415778961793
 30
0.0
  0
SPLINE
  5
136
330
1F
100
AcDbEntity
  8
9
  6
CONTINUOUS
 62
     7
100
AcDbSpline
210
0.0
220
0.0
230
1.0
 70
    24
 71
     3
 72
     8
 73
     4
 74
     0
 42
0.00000001
 43
0.00000001
 40
16.0
 40
16.0
 40
16.0
 40
16.0
 40
17.0
 40
17.0
 40
17.0
 40
17.0
 10
176.2203367577211
 20
116.9415778961793
 30
0.0
 10
176.2203367577422
 20
116.9391780883765
 30
0.0
 10
176.2203367577592
 20
116.9371211102591
 30
0.0
 10
176.2203367577798
 20
116.9330071539361
 30
0.0
  0
SPLINE
  5
137
330
1F
100
AcDbEntity
  8
9
  6
CONTINUOUS
 62
     7
100
AcDbSpline
210
0.0
220
0.0
230
1.0
 70
     8
 71
     3
 72
     8
 73
     4
 74
     0
 42
0.00000001
 43
0.00000001
 40
17.0
 40
17.0
 40
17.0
 40
17.0
 40
18.0
 40
18.0
 40
18.0
 40
18.0
 10
176.2203367577798
 20
116.9330071539361
 30
0.0
 10
176.2162228015821
 20
116.9162084993053
 30
0.0
 10
176.2162228016126
 20
116.9021524821736
 30
0.0
 10
176.2121088453831
 20
116.88569665709
 30
0.0
  0
SPLINE
  5
138
330
1F
100
AcDbEntity
  8
9
  6
CONTINUOUS
 62
     7
100
AcDbSpline
210
0.0
220
0.0
230
1.0
 70
    24
 71
     3
 72
     8
 73
     4
 74
     0
 42
0.00000001
 43
0.00000001
 40
18.0
 40
18.0
 40
18.0
 40
18.0
 40
19.0
 40
19.0
 40
19.0
 40
19.0
 10
176.2121088453831
 20
116.88569665709
 30
0.0
 10
176.212108845404
 20
116.883639678973
 30
0.0
 10
176.212108845443
 20
116.8798685524248
 30
0.0
 10
176.2121088454585
 20
116.8757545960727
 30
0.0
  0
SPLINE
  5
139
330
1F
100
AcDbEntity
  8
9
  6
CONTINUOUS
 62
     7
100
AcDbSpline
210
0.0
220
0.0
230
1.0
 70
     8
 71
     3
 72
     8
 73
     4
 74
     0
 42
0.00000001
 43
0.00000001
 40
19.0
 40
19.0
 40
19.0
 40
19.0
 40
20.0
 40
20.0
 40
20.0
 40
20.0
 10
176.2121088454585
 20
116.8757545960727
 30
0.0
 10
176.2038809330134
 20
116.8421572868233
 30
0.0
 10
176.2001098064901
 20
116.807188658832
 30
0.0
 10
176.195310190892
 20
116.7722200307435
 30
0.0
  0
SPLINE
  5
13A
330
1F
100
AcDbEntity
  8
9
  6
CONTINUOUS
 62
     7
100
AcDbSpline
210
0.0
220
0.0
230
1.0
 70
     8
 71
     3
 72
     8
 73
     4
 74
     0
 42
0.00000001
 43
0.00000001
 40
20.0
 40
20.0
 40
20.0
 40
20.0
 40
21.0
 40
21.0
 40
21.0
 40
21.0
 10
176.195310190892
 20
116.7722200307435
 30
0.0
 10
176.1908534049999
 20
116.7557642057995
 30
0.0
 10
176.1867394488014
 20
116.7348515949372
 30
0.0
 10
176.1867394488027
 20
116.7183957698784
 30
0.0
  0
SPLINE
  5
13B
330
1F
100
AcDbEntity
  8
9
  6
CONTINUOUS
 62
     7
100
AcDbSpline
210
0.0
220
0.0
230
1.0
 70
     8
 71
     3
 72
     8
 73
     4
 74
     0
 42
0.00000001
 43
0.00000001
 40
21.0
 40
21.0
 40
21.0
 40
21.0
 40
22.0
 40
22.0
 40
22.0
 40
22.0
 10
176.1867394488027
 20
116.7183957698784
 30
0.0
 10
176.1582845848518
 20
116.5617226033047
 30
0.0
 10
176.1332580177623
 20
116.4081349039065
 30
0.0
 10
176.1006891975774
 20
116.2555756935666
 30
0.0
  0
SPLINE
  5
13C
330
1F
100
AcDbEntity
  8
9
  6
CONTINUOUS
 62
     7
100
AcDbSpline
210
0.0
220
0.0
230
1.0
 70
    24
 71
     3
 72
     8
 73
     4
 74
     0
 42
0.00000001
 43
0.00000001
 40
43.0
 40
43.0
 40
43.0
 40
43.0
 40
44.0
 40
44.0
 40
44.0
 40
44.0
 10
90.53501905580313
 20
99.15831641603877
 30
0.0
 10
115.5317599625745
 20
99.15831641607203
 30
0.0
 10
140.5309006771489
 20
99.15831641610593
 30
0.0
 10
165.5272987541222
 20
99.15831641608051
 30
0.0
  0
SPLINE
  5
13D
330
1F
100
AcDbEntity
  8
9
  6
CONTINUOUS
 62
     7
100
AcDbSpline
210
0.0
220
0.0
230
1.0
 70
     8
 71
     3
 72
    18
 73
    14
 74
     0
 42
0.00000001
 43
0.00000001
 40
43.00913367302745
 40
43.00913367302745
 40
43.00913367302745
 40
43.00913367302745
 40
43.01670023482783
 40
43.01670023482783
 40
43.05010070448349
 40
43.05010070448349
 40
43.11690164379481
 40
43.11690164379481
 40
43.25050352241745
 40
43.25050352241745
 40
43.51770727966271
 40
43.51770727966271
 40
44.0
 40
44.0
 40
44.0
 40
44.0
 10
90.52686805282595
 20
108.1583163995565
 30
0.0
 10
91.40909554022126
 20
108.1583164160931
 30
0.0
 10
91.59823538826473
 20
108.1583164160931
 30
0.0
 10
92.62228088423508
 20
108.1583164160931
 30
0.0
 10
93.45718898108069
 20
108.1583164160931
 30
0.0
 10
95.96192044096897
 20
108.1583164160931
 30
0.0
 10
97.63175097336307
 20
108.1583164160931
 30
0.0
 10
102.6412666492122
 20
108.1583164160931
 30
0.0
 10
105.9809758713351
 20
108.1583164160931
 30
0.0
 10
116.0001630624721
 20
108.1583164160931
 30
0.0
 10
122.6797005562543
 20
108.1583164160931
 30
0.0
 10
141.4154991448785
 20
108.1583164160931
 30
0.0
 10
153.4717179267725
 20
108.1583164160931
 30
0.0
 10
165.5272987539953
 20
108.1583164160931
 30
0.0
  0
SPLINE
  5
13E
330
1F
100
AcDbEntity
  8
9
  6
CONTINUOUS
 62
     7
100
AcDbSpline
210
0.0
220
0.0
230
1.0
 70
     8
 71
     3
 72
     8
 73
     4
 74
     0
 42
0.00000001
 43
0.00000001
 40
44.0
 40
44.0
 40
44.0
 40
44.0
 40
45.0
 40
45.0
 40
45.0
 40
45.0
 10
165.5272987541222
 20
99.15831641608051
 30
0.0
 10
175.3737101702415
 20
99.15420245985413
 30
0.0
 10
183.7819510529256
 20
106.3471121051228
 30
0.0
 10
185.2910873312516
 20
116.0817610435397
 30
0.0
  0
SPLINE
  5
13F
330
1F
100
AcDbEntity
  8
9
  6
CONTINUOUS
 62
     7
100
AcDbSpline
210
0.0
220
0.0
230
1.0
 70
     8
 71
     3
 72
     8
 73
     4
 74
     0
 42
0.00000001
 43
0.00000001
 40
45.0
 40
45.0
 40
45.0
 40
45.0
 40
46.0
 40
46.0
 40
46.0
 40
46.0
 10
185.2910873312516
 20
116.0817610435397
 30
0.0
 10
185.2910873312516
 20
116.1023308247091
 30
0.0
 10
185.2948584577991
 20
116.1229006058785
 30
0.0
 10
185.2993152437192
 20
116.1438132167341
 30
0.0
  0
SPLINE
  5
140
330
1F
100
AcDbEntity
  8
9
  6
CONTINUOUS
 62
     7
100
AcDbSpline
210
0.0
220
0.0
230
1.0
 70
    24
 71
     2
 72
     6
 73
     3
 74
     0
 42
0.00000001
 43
0.00000001
 40
46.0
 40
46.0
 40
46.0
 40
47.0
 40
47.0
 40
47.0
 10
185.2993152437192
 20
116.1438132167341
 30
0.0
 10
185.2993152437192
 20
116.147927172968
 30
0.0
 10
185.2993152437192
 20
116.1520411292019
 30
0.0
  0
SPLINE
  5
141
330
1F
100
AcDbEntity
  8
9
  6
CONTINUOUS
 62
     7
100
AcDbSpline
210
0.0
220
0.0
230
1.0
 70
     8
 71
     3
 72
     8
 73
     4
 74
     0
 42
0.00000001
 43
0.00000001
 40
47.0
 40
47.0
 40
47.0
 40
47.0
 40
48.0
 40
48.0
 40
48.0
 40
48.0
 10
185.2993152437192
 20
116.1520411292019
 30
0.0
 10
185.303429199953
 20
116.1767248666052
 30
0.0
 10
185.307543156187
 20
116.1976374774607
 30
0.0
 10
185.3116571124209
 20
116.222321214864
 30
0.0
  0
SPLINE
  5
142
330
1F
100
AcDbEntity
  8
9
  6
CONTINUOUS
 62
     7
100
AcDbSpline
210
0.0
220
0.0
230
1.0
 70
     8
 71
     3
 72
     8
 73
     4
 74
     0
 42
0.00000001
 43
0.00000001
 40
49.0
 40
49.0
 40
49.0
 40
49.0
 40
50.0
 40
50.0
 40
50.0
 40
50.0
 10
185.3116571124209
 20
116.222321214864
 30
0.0
 10
185.3157710686547
 20
116.2473477819534
 30
0.0
 10
185.3198850248887
 20
116.2679175631229
 30
0.0
 10
185.3198850248887
 20
116.2926013005262
 30
0.0
  0
SPLINE
  5
143
330
1F
100
AcDbEntity
  8
9
  6
CONTINUOUS
 62
     7
100
AcDbSpline
210
0.0
220
0.0
230
1.0
 70
     8
 71
     3
 72
     8
 73
     4
 74
     0
 42
0.00000001
 43
0.00000001
 40
50.0
 40
50.0
 40
50.0
 40
50.0
 40
51.0
 40
51.0
 40
51.0
 40
51.0
 10
185.3198850248887
 20
116.2926013005262
 30
0.0
 10
185.3239989811225
 20
116.3046003395416
 30
0.0
 10
185.3239989811225
 20
116.3176278676156
 30
0.0
 10
185.3281129373564
 20
116.3258557800834
 30
0.0
  0
SPLINE
  5
144
330
1F
100
AcDbEntity
  8
9
  6
CONTINUOUS
 62
     7
100
AcDbSpline
210
0.0
220
0.0
230
1.0
 70
     8
 71
     3
 72
     8
 73
     4
 74
     0
 42
0.00000001
 43
0.00000001
 40
51.0
 40
51.0
 40
51.0
 40
51.0
 40
52.0
 40
52.0
 40
52.0
 40
52.0
 10
185.3281129373564
 20
116.3258557800834
 30
0.0
 10
185.3281129373564
 20
116.338197648785
 30
0.0
 10
185.3281129373564
 20
116.3498538581143
 30
0.0
 10
185.3322268935902
 20
116.3625385565022
 30
0.0
  0
SPLINE
  5
145
330
1F
100
AcDbEntity
  8
9
  6
CONTINUOUS
 62
     7
100
AcDbSpline
210
0.0
220
0.0
230
1.0
 70
     8
 71
     3
 72
     8
 73
     4
 74
     0
 42
0.00000001
 43
0.00000001
 40
52.0
 40
52.0
 40
52.0
 40
52.0
 40
53.0
 40
53.0
 40
53.0
 40
53.0
 10
185.3322268935902
 20
116.3625385565022
 30
0.0
 10
185.3322268935902
 20
116.3714521283422
 30
0.0
 10
185.3322268935902
 20
116.37968004081
 30
0.0
 10
185.3363408498242
 20
116.3879079532778
 30
0.0
  0
SPLINE
  5
146
330
1F
100
AcDbEntity
  8
9
  6
CONTINUOUS
 62
     7
100
AcDbSpline
210
0.0
220
0.0
230
1.0
 70
     8
 71
     3
 72
    14
 73
    10
 74
     0
 42
0.00000001
 43
0.00000001
 40
53.0
 40
53.0
 40
53.0
 40
53.0
 40
54.0
 40
54.0
 40
54.0
 40
55.0
 40
55.0
 40
55.0
 40
56.0
 40
56.0
 40
56.0
 40
56.0
 10
185.3363408498242
 20
116.3879079532778
 30
0.0
 10
185.3363408498242
 20
116.4040209485271
 30
0.0
 10
185.340454806058
 20
116.4163628172288
 30
0.0
 10
185.340454806058
 20
116.4338471312228
 30
0.0
 10
185.340454806058
 20
116.4379610874566
 30
0.0
 10
185.3442259326057
 20
116.4455033405521
 30
0.0
 10
185.3442259326057
 20
116.449617296786
 30
0.0
 10
185.3442259326057
 20
116.4657302920354
 30
0.0
 10
185.3483398888395
 20
116.4863000732048
 30
0.0
 10
185.3483398888395
 20
116.5034415575126
 30
0.0
  0
SPLINE
  5
147
330
1F
100
AcDbEntity
  8
9
  6
CONTINUOUS
 62
     7
100
AcDbSpline
210
0.0
220
0.0
230
1.0
 70
     8
 71
     3
 72
     8
 73
     4
 74
     0
 42
0.00000001
 43
0.00000001
 40
56.0
 40
56.0
 40
56.0
 40
56.0
 40
57.0
 40
57.0
 40
57.0
 40
57.0
 10
185.3483398888395
 20
116.5034415575126
 30
0.0
 10
185.3524538450736
 20
116.5034415575126
 30
0.0
 10
185.3524538450736
 20
116.5075555137465
 30
0.0
 10
185.3524538450736
 20
116.5116694699804
 30
0.0
  0
SPLINE
  5
148
330
1F
100
AcDbEntity
  8
9
  6
CONTINUOUS
 62
     7
100
AcDbSpline
210
0.0
220
0.0
230
1.0
 70
     8
 71
     3
 72
     8
 73
     4
 74
     0
 42
0.00000001
 43
0.00000001
 40
57.0
 40
57.0
 40
57.0
 40
57.0
 40
58.0
 40
58.0
 40
58.0
 40
58.0
 10
185.3524538450736
 20
116.5116694699804
 30
0.0
 10
185.3575962903658
 20
116.5531518620053
 30
0.0
 10
185.3654813731474
 20
116.5980625508919
 30
0.0
 10
185.3695953293814
 20
116.6398877726031
 30
0.0
  0
SPLINE
  5
149
330
1F
100
AcDbEntity
  8
9
  6
CONTINUOUS
 62
     7
100
AcDbSpline
210
0.0
220
0.0
230
1.0
 70
    24
 71
     2
 72
     6
 73
     3
 74
     0
 42
0.00000001
 43
0.00000001
 40
58.0
 40
58.0
 40
58.0
 40
59.0
 40
59.0
 40
59.0
 10
185.3695953293814
 20
116.6398877726031
 30
0.0
 10
185.3695953293814
 20
116.644001728837
 30
0.0
 10
185.3695953293814
 20
116.6481156850708
 30
0.0
  0
SPLINE
  5
14A
330
1F
100
AcDbEntity
  8
9
  6
CONTINUOUS
 62
     7
100
AcDbSpline
210
0.0
220
0.0
230
1.0
 70
     8
 71
     3
 72
     8
 73
     4
 74
     0
 42
0.00000001
 43
0.00000001
 40
59.0
 40
59.0
 40
59.0
 40
59.0
 40
60.0
 40
60.0
 40
60.0
 40
60.0
 10
185.3695953293814
 20
116.6481156850708
 30
0.0
 10
185.3901651105508
 20
116.8239873140693
 30
0.0
 10
185.410392062034
 20
116.9995161133816
 30
0.0
 10
185.4316475025758
 20
117.1750449126939
 30
0.0
  0
SPLINE
  5
14B
330
1F
100
AcDbEntity
  8
9
  6
CONTINUOUS
 62
     7
100
AcDbSpline
210
0.0
220
0.0
230
1.0
 70
     8
 71
     3
 72
     8
 73
     4
 74
     0
 42
0.00000001
 43
0.00000001
 40
60.0
 40
60.0
 40
60.0
 40
60.0
 40
61.0
 40
61.0
 40
61.0
 40
61.0
 10
185.4316475025758
 20
117.1750449126939
 30
0.0
 10
185.4316475025758
 20
117.1894437595125
 30
0.0
 10
185.4316475025758
 20
117.2062424141342
 30
0.0
 10
185.4357614588097
 20
117.2185842828358
 30
0.0
  0
SPLINE
  5
14C
330
1F
100
AcDbEntity
  8
9
  6
CONTINUOUS
 62
     7
100
AcDbSpline
210
0.0
220
0.0
230
1.0
 70
     8
 71
     3
 72
    14
 73
    10
 74
     0
 42
0.00000001
 43
0.00000001
 40
61.0
 40
61.0
 40
61.0
 40
61.0
 40
62.0
 40
62.0
 40
62.0
 40
63.0
 40
63.0
 40
63.0
 40
64.0
 40
64.0
 40
64.0
 40
64.0
 10
185.4357614588097
 20
117.2185842828358
 30
0.0
 10
185.4357614588097
 20
117.2271550249897
 30
0.0
 10
185.4357614588097
 20
117.2353829374575
 30
0.0
 10
185.4357614588097
 20
117.2436108499252
 30
0.0
 10
185.4357614588097
 20
117.2535529108238
 30
0.0
 10
185.4398754150435
 20
117.2641806310946
 30
0.0
 10
185.4398754150435
 20
117.2761796701101
 30
0.0
 10
185.4398754150435
 20
117.2892071981841
 30
0.0
 10
185.4398754150435
 20
117.3012062371996
 30
0.0
 10
185.4436465415913
 20
117.3114911277843
 30
0.0
  0
SPLINE
  5
14D
330
1F
100
AcDbEntity
  8
9
  6
CONTINUOUS
 62
     7
100
AcDbSpline
210
0.0
220
0.0
230
1.0
 70
    24
 71
     3
 72
     8
 73
     4
 74
     0
 42
0.00000001
 43
0.00000001
 40
64.0
 40
64.0
 40
64.0
 40
64.0
 40
65.0
 40
65.0
 40
65.0
 40
65.0
 10
185.4436465415913
 20
117.3114911277843
 30
0.0
 10
185.4436465415913
 20
117.3176620621351
 30
0.0
 10
185.4436465415913
 20
117.3258899746029
 30
0.0
 10
185.4436465415913
 20
117.3320609089538
 30
0.0
  0
SPLINE
  5
14E
330
1F
100
AcDbEntity
  8
9
  6
CONTINUOUS
 62
     7
100
AcDbSpline
210
0.0
220
0.0
230
1.0
 70
     8
 71
     3
 72
     8
 73
     4
 74
     0
 42
0.00000001
 43
0.00000001
 40
65.0
 40
65.0
 40
65.0
 40
65.0
 40
66.0
 40
66.0
 40
66.0
 40
66.0
 10
185.4436465415913
 20
117.3320609089538
 30
0.0
 10
185.4477604978251
 20
117.3553733276124
 30
0.0
 10
185.4477604978251
 20
117.3752574494095
 30
0.0
 10
185.451874454059
 20
117.4002840164989
 30
0.0
  0
SPLINE
  5
14F
330
1F
100
AcDbEntity
  8
9
  6
CONTINUOUS
 62
     7
100
AcDbSpline
210
0.0
220
0.0
230
1.0
 70
    24
 71
     3
 72
     8
 73
     4
 74
     0
 42
0.00000001
 43
0.00000001
 40
66.0
 40
66.0
 40
66.0
 40
66.0
 40
67.0
 40
67.0
 40
67.0
 40
67.0
 10
185.451874454059
 20
117.4002840164989
 30
0.0
 10
185.451874454059
 20
117.4133115445729
 30
0.0
 10
185.451874454059
 20
117.4273675617053
 30
0.0
 10
185.451874454059
 20
117.4414235788378
 30
0.0
  0
SPLINE
  5
150
330
1F
100
AcDbEntity
  8
9
  6
CONTINUOUS
 62
     7
100
AcDbSpline
210
0.0
220
0.0
230
1.0
 70
     8
 71
     3
 72
    11
 73
     7
 74
     0
 42
0.00000001
 43
0.00000001
 40
67.0
 40
67.0
 40
67.0
 40
67.0
 40
68.0
 40
68.0
 40
68.0
 40
69.0
 40
69.0
 40
69.0
 40
69.0
 10
185.451874454059
 20
117.4414235788378
 30
0.0
 10
185.455988410293
 20
117.4517084694225
 30
0.0
 10
185.455988410293
 20
117.4623361896933
 30
0.0
 10
185.455988410293
 20
117.4729639099642
 30
0.0
 10
185.455988410293
 20
117.4770778661981
 30
0.0
 10
185.455988410293
 20
117.4808489927458
 30
0.0
 10
185.455988410293
 20
117.4870199270966
 30
0.0
  0
SPLINE
  5
151
330
1F
100
AcDbEntity
  8
9
  6
CONTINUOUS
 62
     7
100
AcDbSpline
210
0.0
220
0.0
230
1.0
 70
     8
 71
     3
 72
     8
 73
     4
 74
     0
 42
0.00000001
 43
0.00000001
 40
69.0
 40
69.0
 40
69.0
 40
69.0
 40
70.0
 40
70.0
 40
70.0
 40
70.0
 10
185.455988410293
 20
117.4870199270966
 30
0.0
 10
185.4769010211486
 20
117.7078022449816
 30
0.0
 10
185.4936996757701
 20
117.9296130519251
 30
0.0
 10
185.5015847585518
 20
118.1527951776132
 30
0.0
  0
SPLINE
  5
152
330
1F
100
AcDbEntity
  8
9
  6
CONTINUOUS
 62
     7
100
AcDbSpline
210
0.0
220
0.0
230
1.0
 70
     8
 71
     3
 72
     8
 73
     4
 74
     0
 42
0.00000001
 43
0.00000001
 40
70.0
 40
70.0
 40
70.0
 40
70.0
 40
71.0
 40
71.0
 40
71.0
 40
71.0
 10
185.5015847585518
 20
118.1527951776132
 30
0.0
 10
185.5015847585518
 20
118.1606802603948
 30
0.0
 10
185.5015847585518
 20
118.1713079806657
 30
0.0
 10
185.5056987147857
 20
118.1795358931335
 30
0.0
  0
SPLINE
  5
153
330
1F
100
AcDbEntity
  8
9
  6
CONTINUOUS
 62
     7
100
AcDbSpline
210
0.0
220
0.0
230
1.0
 70
     8
 71
     3
 72
    20
 73
    16
 74
     0
 42
0.00000001
 43
0.00000001
 40
71.0
 40
71.0
 40
71.0
 40
71.0
 40
72.0
 40
72.0
 40
72.0
 40
73.0
 40
73.0
 40
73.0
 40
74.0
 40
74.0
 40
74.0
 40
75.0
 40
75.0
 40
75.0
 40
76.0
 40
76.0
 40
76.0
 40
76.0
 10
185.5056987147857
 20
118.1795358931335
 30
0.0
 10
185.5056987147857
 20
118.1815928712504
 30
0.0
 10
185.5056987147857
 20
118.1857068274843
 30
0.0
 10
185.5056987147857
 20
118.1877638056012
 30
0.0
 10
185.5056987147857
 20
118.1977058664998
 30
0.0
 10
185.5056987147857
 20
118.2066194383399
 30
0.0
 10
185.5056987147857
 20
118.2169043289246
 30
0.0
 10
185.5056987147857
 20
118.2230752632754
 30
0.0
 10
185.5056987147857
 20
118.2275320491954
 30
0.0
 10
185.5056987147857
 20
118.2337029835462
 30
0.0
 10
185.5056987147857
 20
118.2398739178971
 30
0.0
 10
185.5056987147857
 20
118.2457020225617
 30
0.0
 10
185.5056987147857
 20
118.2518729569125
 30
0.0
 10
185.5056987147857
 20
118.2559869131464
 30
0.0
 10
185.5056987147857
 20
118.2649004849865
 30
0.0
 10
185.5098126710195
 20
118.2690144412204
 30
0.0
  0
SPLINE
  5
154
330
1F
100
AcDbEntity
  8
9
  6
CONTINUOUS
 62
     7
100
AcDbSpline
210
0.0
220
0.0
230
1.0
 70
     8
 71
     3
 72
    17
 73
    13
 74
     0
 42
0.00000001
 43
0.00000001
 40
76.0
 40
76.0
 40
76.0
 40
76.0
 40
77.0
 40
77.0
 40
77.0
 40
78.0
 40
78.0
 40
78.0
 40
79.0
 40
79.0
 40
79.0
 40
80.0
 40
80.0
 40
80.0
 40
80.0
 10
185.5098126710195
 20
118.2690144412204
 30
0.0
 10
185.5098126710195
 20
118.2748425458851
 30
0.0
 10
185.5098126710195
 20
118.2810134802359
 30
0.0
 10
185.5098126710195
 20
118.2851274364697
 30
0.0
 10
185.5098126710195
 20
118.2950694973683
 30
0.0
 10
185.5098126710195
 20
118.305354387953
 30
0.0
 10
185.5098126710195
 20
118.3156392785377
 30
0.0
 10
185.5098126710195
 20
118.3266098284947
 30
0.0
 10
185.5098126710195
 20
118.3386088675102
 30
0.0
 10
185.5098126710195
 20
118.3488937580949
 30
0.0
 10
185.5098126710195
 20
118.3554075221319
 30
0.0
 10
185.5098126710195
 20
118.3595214783658
 30
0.0
 10
185.5139266272535
 20
118.3677493908335
 30
0.0
  0
SPLINE
  5
155
330
1F
100
AcDbEntity
  8
9
  6
CONTINUOUS
 62
     7
100
AcDbSpline
210
0.0
220
0.0
230
1.0
 70
    24
 71
     3
 72
    14
 73
    10
 74
     0
 42
0.00000001
 43
0.00000001
 40
80.0
 40
80.0
 40
80.0
 40
80.0
 40
81.0
 40
81.0
 40
81.0
 40
82.0
 40
82.0
 40
82.0
 40
83.0
 40
83.0
 40
83.0
 40
83.0
 10
185.5139266272535
 20
118.3677493908335
 30
0.0
 10
185.5139266272535
 20
118.3698063689505
 30
0.0
 10
185.5139266272535
 20
118.3739203251844
 30
0.0
 10
185.5139266272535
 20
118.3780342814183
 30
0.0
 10
185.5139266272535
 20
118.3842052157691
 30
0.0
 10
185.5139266272535
 20
118.3924331282368
 30
0.0
 10
185.5139266272535
 20
118.4006610407046
 30
0.0
 10
185.5139266272535
 20
118.4047749969385
 30
0.0
 10
185.5139266272535
 20
118.4088889531724
 30
0.0
 10
185.5139266272535
 20
118.4130029094063
 30
0.0
  0
SPLINE
  5
156
330
1F
100
AcDbEntity
  8
9
  6
CONTINUOUS
 62
     7
100
AcDbSpline
210
0.0
220
0.0
230
1.0
 70
     8
 71
     3
 72
     8
 73
     4
 74
     0
 42
0.00000001
 43
0.00000001
 40
83.0
 40
83.0
 40
83.0
 40
83.0
 40
84.0
 40
84.0
 40
84.0
 40
84.0
 10
185.5139266272535
 20
118.4130029094063
 30
0.0
 10
185.5180405834874
 20
118.4791690388345
 30
0.0
 10
185.5180405834874
 20
118.5453351682628
 30
0.0
 10
185.5221545397212
 20
118.613558275808
 30
0.0
  0
SPLINE
  5
157
330
1F
100
AcDbEntity
  8
9
  6
CONTINUOUS
 62
     7
100
AcDbSpline
210
0.0
220
0.0
230
1.0
 70
    24
 71
     3
 72
     8
 73
     4
 74
     0
 42
0.00000001
 43
0.00000001
 40
84.0
 40
84.0
 40
84.0
 40
84.0
 40
85.0
 40
85.0
 40
85.0
 40
85.0
 10
185.5221545397212
 20
118.613558275808
 30
0.0
 10
185.5221545397212
 20
118.6217861882758
 30
0.0
 10
185.5221545397212
 20
118.6300141007436
 30
0.0
 10
185.5221545397212
 20
118.6406418210144
 30
0.0
  0
SPLINE
  5
158
330
1F
100
AcDbEntity
  8
9
  6
CONTINUOUS
 62
     7
100
AcDbSpline
210
0.0
220
0.0
230
1.0
 70
    24
 71
     2
 72
     6
 73
     3
 74
     0
 42
0.00000001
 43
0.00000001
 40
85.0
 40
85.0
 40
85.0
 40
86.0
 40
86.0
 40
86.0
 10
185.5221545397212
 20
118.6406418210144
 30
0.0
 10
185.5221545397212
 20
118.6426987991313
 30
0.0
 10
185.5221545397212
 20
118.6447557772483
 30
0.0
  0
SPLINE
  5
159
330
1F
100
AcDbEntity
  8
9
  6
CONTINUOUS
 62
     7
100
AcDbSpline
210
0.0
220
0.0
230
1.0
 70
     8
 71
     3
 72
     8
 73
     4
 74
     0
 42
0.00000001
 43
0.00000001
 40
86.0
 40
86.0
 40
86.0
 40
86.0
 40
87.0
 40
87.0
 40
87.0
 40
87.0
 10
185.5221545397212
 20
118.6447557772483
 30
0.0
 10
185.5221545397212
 20
118.7328630065906
 30
0.0
 10
185.5056987147857
 20
118.8099996859759
 30
0.0
 10
185.4642163227606
 20
118.8885076841058
 30
0.0
  0
SPLINE
  5
15A
330
1F
100
AcDbEntity
  8
9
  6
CONTINUOUS
 62
     7
100
AcDbSpline
210
0.0
220
0.0
230
1.0
 70
    24
 71
     3
 72
     8
 73
     4
 74
     0
 42
0.00000001
 43
0.00000001
 40
90.0
 40
90.0
 40
90.0
 40
90.0
 40
91.0
 40
91.0
 40
91.0
 40
91.0
 10
176.3770099241606
 20
118.6714964927685
 30
0.0
 10
176.3770099241606
 20
118.655040667833
 30
0.0
 10
176.3770099241606
 20
118.6365278647806
 30
0.0
 10
176.3770099241606
 20
118.6197292101588
 30
0.0
  0
SPLINE
  5
15B
330
1F
100
AcDbEntity
  8
9
  6
CONTINUOUS
 62
     7
100
AcDbSpline
210
0.0
220
0.0
230
1.0
 70
     8
 71
     3
 72
     8
 73
     4
 74
     0
 42
0.00000001
 43
0.00000001
 40
91.0
 40
91.0
 40
91.0
 40
91.0
 40
92.0
 40
92.0
 40
92.0
 40
92.0
 10
176.3770099241606
 20
118.6197292101588
 30
0.0
 10
176.3728959679267
 20
118.615615253925
 30
0.0
 10
176.3728959679267
 20
118.6118441273773
 30
0.0
 10
176.3728959679267
 20
118.6073873414572
 30
0.0
  0
SPLINE
  5
15C
330
1F
100
AcDbEntity
  8
9
  6
CONTINUOUS
 62
     7
100
AcDbSpline
210
0.0
220
0.0
230
1.0
 70
    24
 71
     3
 72
     8
 73
     4
 74
     0
 42
0.00000001
 43
0.00000001
 40
0.0
 40
0.0
 40
0.0
 40
0.0
 40
1.0
 40
1.0
 40
1.0
 40
1.0
 10
185.5098126710196
 20
118.4589420873513
 30
0.0
 10
185.5098126710196
 20
118.4503713451974
 30
0.0
 10
185.5098126710196
 20
118.4421434327296
 30
0.0
 10
185.5098126710196
 20
118.4339155202619
 30
0.0
  0
SPLINE
  5
15D
330
1F
100
AcDbEntity
  8
9
  6
CONTINUOUS
 62
     7
100
AcDbSpline
210
0.0
220
0.0
230
1.0
 70
     8
 71
     3
 72
     8
 73
     4
 74
     0
 42
0.00000001
 43
0.00000001
 40
1.0
 40
1.0
 40
1.0
 40
1.0
 40
2.0
 40
2.0
 40
2.0
 40
2.0
 10
185.5098126710196
 20
118.4339155202619
 30
0.0
 10
185.5098126710196
 20
118.429801564028
 30
0.0
 10
185.5139266272535
 20
118.4215736515602
 30
0.0
 10
185.5139266272535
 20
118.4171168656402
 30
0.0
  0
SPLINE
  5
15E
330
1F
100
AcDbEntity
  8
9
  6
CONTINUOUS
 62
     7
100
AcDbSpline
210
0.0
220
0.0
230
1.0
 70
    24
 71
     2
 72
     6
 73
     3
 74
     0
 42
0.00000001
 43
0.00000001
 40
2.0
 40
2.0
 40
2.0
 40
3.0
 40
3.0
 40
3.0
 10
185.5139266272535
 20
118.4171168656402
 30
0.0
 10
185.5139266272535
 20
118.4150598875232
 30
0.0
 10
185.5139266272535
 20
118.4130029094063
 30
0.0
  0
INSERT
  5
15F
330
1F
100
AcDbEntity
  8
9
100
AcDbBlockReference
  2
_SUGATSUNE_
 10
41.506195477
 20
23.6622733468
 30
0.0
 41
0.016
 42
0.016
 43
0.016
 50
7.2056414121
  0
POINT
  5
160
330
1F
100
AcDbEntity
  8
9
 62
     7
100
AcDbPoint
 10
45.5883705273
 20
144.1583164161
 30
0.0
  0
DIMENSION
  5
161
330
1F
100
AcDbEntity
  8
9
 62
     7
100
AcDbDimension
  2
*D3
 10
32.4292500419
 20
218.3472324773
 30
0.0
 11
32.4292500419
 21
228.2687789874
 31
0.0
 70
   160
  3
SLDDIMSTYLE0
100
AcDbAlignedDimension
 13
43.4906328809
 23
238.3472324773
 33
0.0
 14
43.4906328809
 24
218.3472324773
 34
0.0
 50
90.0
100
AcDbRotatedDimension
  0
DIMENSION
  5
173
330
1F
100
AcDbEntity
  8
9
 62
     7
100
AcDbDimension
  2
*D4
 10
32.4292500419
 20
99.1583164161
 30
0.0
 11
32.4292500419
 21
145.2676459066
 31
0.0
 70
   160
  3
SLDDIMSTYLE0
100
AcDbAlignedDimension
 13
90.5883705273
 23
189.1583164161
 33
0.0
 14
90.5883705273
 24
99.1583164161
 34
0.0
 50
90.0
100
AcDbRotatedDimension
  0
DIMENSION
  5
17D
330
1F
100
AcDbEntity
  8
9
 62
     7
100
AcDbDimension
  2
*D5
 10
45.5883705273
 20
202.4268768506
 30
0.0
 11
115.319995397
 21
202.4268768506
 31
0.0
 70
   160
  3
SLDDIMSTYLE0
100
AcDbAlignedDimension
 13
185.5883705273
 23
189.1583164161
 33
0.0
 14
45.5883705273
 24
144.1583164161
 34
0.0
100
AcDbRotatedDimension
  0
DIMENSION
  5
187
330
1F
100
AcDbEntity
  8
9
 62
     7
100
AcDbDimension
  2
*D6
 10
175.9752172174
 20
257.9424055619
 30
0.0
 11
147.0764443186
 21
257.9424055619
 31
0.0
 70
   160
  3
SLDDIMSTYLE0
100
AcDbAlignedDimension
 13
115.9752172174
 23
245.3472324773
 33
0.0
 14
175.9752172174
 24
245.3472324773
 34
0.0
100
AcDbRotatedDimension
  0
DIMENSION
  5
191
330
1F
100
AcDbEntity
  8
9
 62
     7
100
AcDbDimension
  2
*D7
 10
193.4110671414
 20
238.3472324773
 30
0.0
 11
193.4110671414
 21
242.2545839973
 31
0.0
 70
   160
  3
SLDDIMSTYLE1
100
AcDbAlignedDimension
 13
175.9752172174
 23
245.3472324773
 33
0.0
 14
183.4906328809
 24
238.3472324773
 34
0.0
 50
90.0
100
AcDbRotatedDimension
  0
DIMENSION
  5
19E
330
1F
100
AcDbEntity
  8
9
 62
     7
100
AcDbDimension
  2
*D8
 10
169.9752172174
 20
251.0589365605
 30
0.0
 11
147.0764443186
 21
251.0589365605
 31
0.0
 70
   160
  3
SLDDIMSTYLE0
100
AcDbAlignedDimension
 13
121.9752172174
 23
248.4875368099
 33
0.0
 14
169.9752172174
 24
248.4875368099
 34
0.0
100
AcDbRotatedDimension
  0
INSERT
  5
1AE
330
1F
100
AcDbEntity
  8
9
 62
     7
100
AcDbBlockReference
  2
SW_NOTE_0
 10
128.4782266951
 20
267.3410910941
 30
0.0
  0
MTEXT
  5
1AF
330
1F
100
AcDbEntity
  8
9
 62
     7
100
AcDbMText
 10
103.0216522266
 20
39.5578828366
 30
0.0
 40
2.6458333333
 41
0.0
 71
     1
 72
     1
  1
800-21型
  7
SLDTEXTSTYLE1
  0
MTEXT
  5
1B0
330
1F
100
AcDbEntity
  8
9
100
AcDbMText
 10
169.2054001655
 20
52.4446310764
 30
0.0
 40
2.6458333333
 41
0.0
 71
     1
 72
     1
  1
出図印
  7
SLDTEXTSTYLE1
  0
MTEXT
  5
1B1
330
1F
100
AcDbEntity
  8
9
100
AcDbMText
 10
90.584798587
 20
45.4797252661
 30
0.0
 40
2.6458333333
 41
0.0
 71
     1
 72
     1
  1
環境対応レベル
  7
SLDTEXTSTYLE1
  0
MTEXT
  5
1B2
330
1F
100
AcDbEntity
  8
9
 62
     7
100
AcDbMText
 10
25.9295982193
 20
45.6542831447
 30
0.0
 40
2.6458333333
 41
0.0
 71
     1
 72
     1
  1
作図
  7
SLDTEXTSTYLE1
  0
MTEXT
  5
1B3
330
1F
100
AcDbEntity
  8
9
 62
     7
100
AcDbMText
 10
37.0678047536
 20
45.5355675942
 30
0.0
 40
2.6458333333
 41
0.0
 71
     1
 72
     1
  1
2012/12/10
  7
SLDTEXTSTYLE0
  0
MTEXT
  5
1B4
330
1F
100
AcDbEntity
  8
9
 62
     7
100
AcDbMText
 10
79.4685250654
 20
22.0449237115
 30
0.0
 40
2.6458333333
 41
0.0
 71
     2
 72
     1
  1
-
  7
SLDTEXTSTYLE0
  0
MTEXT
  5
1B5
330
1F
100
AcDbEntity
  8
9
 62
     7
100
AcDbMText
 10
61.6211286501
 20
15.9579342669
 30
0.0
 40
2.6458333333
 41
0.0
 71
     1
 72
     1
  1
作図
  7
SLDTEXTSTYLE1
  0
MTEXT
  5
1B6
330
1F
100
AcDbEntity
  8
9
 62
     7
100
AcDbMText
 10
61.5963889972
 20
22.0193811693
 30
0.0
 40
2.6458333333
 41
0.0
 71
     1
 72
     1
  1
設計
  7
SLDTEXTSTYLE1
  0
MTEXT
  5
1B7
330
1F
100
AcDbEntity
  8
9
 62
     7
100
AcDbMText
 10
50.9296435551
 20
39.9365981766
 30
0.0
 40
2.6458333333
 41
0.0
 71
     2
 72
     1
  1
（ ： ）
  7
SLDTEXTSTYLE1
  0
MTEXT
  5
1B8
330
1F
100
AcDbEntity
  8
9
 62
     7
100
AcDbMText
 10
37.2629437891
 20
40.1644646381
 30
0.0
 40
2.6458333333
 41
0.0
 71
     1
 72
     1
  1
1:1
  7
SLDTEXTSTYLE0
  0
MTEXT
  5
1B9
330
1F
100
AcDbEntity
  8
9
 62
     7
100
AcDbMText
 10
103.0216522266
 20
33.655651242
 30
0.0
 40
2.6458333333
 41
0.0
 71
     1
 72
     1
  1
ロールペーパーホルダー
  7
SLDTEXTSTYLE1
  0
MTEXT
  5
1BA
330
1F
100
AcDbEntity
  8
9
 62
     7
100
AcDbMText
 10
104.9272854323
 20
18.7115320672
 30
0.0
 40
4.7625
 41
0.0
 71
     1
 72
     1
  1
SD280-01865-0
  7
SLDTEXTSTYLE0
  0
MTEXT
  5
1BB
330
1F
100
AcDbEntity
  8
9
 62
     7
100
AcDbMText
 10
61.592743335
 20
34.0343665821
 30
0.0
 40
2.6458333333
 41
0.0
 71
     1
 72
     1
  1
承認
  7
SLDTEXTSTYLE1
  0
MTEXT
  5
1BC
330
1F
100
AcDbEntity
  8
9
 62
     7
100
AcDbMText
 10
90.5004727239
 20
22.8604092523
 30
0.0
 40
2.6458333333
 41
0.0
 71
     1
 72
     1
  1
図面番号
  7
SLDTEXTSTYLE1
  0
MTEXT
  5
1BD
330
1F
100
AcDbEntity
  8
9
 62
     7
100
AcDbMText
 10
90.584798587
 20
39.5578828366
 30
0.0
 40
2.6458333333
 41
0.0
 71
     1
 72
     1
  1
品番
  7
SLDTEXTSTYLE1
  0
MTEXT
  5
1BE
330
1F
100
AcDbEntity
  8
9
 62
     7
100
AcDbMText
 10
25.908100966
 20
40.1143338573
 30
0.0
 40
2.6458333333
 41
0.0
 71
     1
 72
     1
  1
尺度
  7
SLDTEXTSTYLE1
  0
MTEXT
  5
1BF
330
1F
100
AcDbEntity
  8
9
 62
     7
100
AcDbMText
 10
103.0216522266
 20
28.3945162078
 30
0.0
 40
2.6458333333
 41
0.0
 71
     1
 72
     1
  1
-
  7
SLDTEXTSTYLE0
  0
MTEXT
  5
1C0
330
1F
100
AcDbEntity
  8
9
 62
     7
100
AcDbMText
 10
78.6343526225
 20
15.9696447589
 30
0.0
 40
2.6458333333
 41
0.0
 71
     2
 72
     1
  1
佐久間(優)
  7
SLDTEXTSTYLE1
  0
MTEXT
  5
1C1
330
1F
100
AcDbEntity
  8
9
 62
     7
100
AcDbMText
 10
79.1766870301
 20
34.0440894774
 30
0.0
 40
2.6458333333
 41
0.0
 71
     2
 72
     1
  1
安齋
  7
SLDTEXTSTYLE1
  0
MTEXT
  5
1C2
330
1F
100
AcDbEntity
  8
9
 62
     7
100
AcDbMText
 10
61.612534871
 20
28.1130505384
 30
0.0
 40
2.6458333333
 41
0.0
 71
     1
 72
     1
  1
検図
  7
SLDTEXTSTYLE1
  0
MTEXT
  5
1C3
330
1F
100
AcDbEntity
  8
9
 62
     7
100
AcDbMText
 10
79.0024417372
 20
27.5940245509
 30
0.0
 40
2.6458333333
 41
0.0
 71
     2
 72
     1
  1
久保田
  7
SLDTEXTSTYLE1
  0
MTEXT
  5
1C4
330
1F
100
AcDbEntity
  8
9
100
AcDbMText
 10
90.5262629034
 20
51.8380492748
 30
0.0
 40
2.6458333333
 41
0.0
 71
     1
 72
     1
  1
注文コード
  7
SLDTEXTSTYLE1
  0
MTEXT
  5
1C5
330
1F
100
AcDbEntity
  8
9
100
AcDbMText
 10
125.3707571236
 20
51.8380492748
 30
0.0
 40
2.6458333333
 41
0.0
 71
     2
 72
     1
  1
図中
  7
SLDTEXTSTYLE1
  0
MTEXT
  5
1C6
330
1F
100
AcDbEntity
  8
9
100
AcDbMText
 10
132.5424387449
 20
46.0863070677
 30
0.0
 40
2.6458333333
 41
0.0
 71
     2
 72
     1
  1
-
  7
SLDTEXTSTYLE0
  0
MTEXT
  5
1C7
330
1F
100
AcDbEntity
  8
9
100
AcDbMText
 10
53.6831967543
 20
52.4271007749
 30
0.0
 40
2.6458333333
 41
0.0
 71
     2
 72
     1
  1
承認用図
  7
SLDTEXTSTYLE1
  0
MTEXT
  5
1C8
330
1F
100
AcDbEntity
  8
9
 62
     7
100
AcDbMText
 10
90.584798587
 20
33.655651242
 30
0.0
 40
2.6458333333
 41
0.0
 71
     1
 72
     1
  1
品名
  7
SLDTEXTSTYLE1
  0
INSERT
  5
1DA
330
1F
100
AcDbEntity
  8
9
100
AcDbBlockReference
  2
SW_TABLEANNOTATION_0
 10
198.094079654
 20
65.7008454284
 30
0.0
  0
INSERT
  5
1E9
330
1F
100
AcDbEntity
  8
9
100
AcDbBlockReference
  2
SW_TABLEANNOTATION_1
 10
23.094079654
 20
59.7008457637
 30
0.0
  0
INSERT
  5
202
330
1F
100
AcDbEntity
  8
9
100
AcDbBlockReference
  2
SW_TABLEANNOTATION_2
 10
108.1930288506
 20
71.7077024898
 30
0.0
  0
INSERT
  5
217
330
1F
100
AcDbEntity
  8
9
100
AcDbBlockReference
  2
SW_TABLEANNOTATION_3
 10
23.094079654
 20
285.7008457637
 30
0.0
  0
ENDSEC
  0
SECTION
  2
OBJECTS
  0
DICTIONARY
  5
C
330
0
100
AcDbDictionary
  3
ACAD_GROUP
350
D
  3
ACAD_MLINESTYLE
350
17
  0
DICTIONARY
  5
D
102
{ACAD_REACTORS
330
C
102
}
330
C
100
AcDbDictionary
  0
DICTIONARY
  5
17
102
{ACAD_REACTORS
330
C
102
}
330
C
100
AcDbDictionary
  3
STANDARD
350
18
  0
MLINESTYLE
  5
18
102
{ACAD_REACTORS
330
17
102
}
330
17
100
AcDbMlineStyle
  2
Standard
 70
     0
  3

 62
   256
 51
90.0
 52
90.0
 71
     2
 49
0.5
 62
   256
  6
BYLAYER
 49
-0.5
 62
   256
  6
BYLAYER
  0
ENDSEC
  0
EOF
