  0
SECTION
  2
HEADER
  9
$ACADVER
  1
AC1014
  9
$ACADMAINTVER
 70
     9
  9
$DWGCODEPAGE
  3
DOS932
  9
$INSBASE
 10
0.0
 20
0.0
 30
0.0
  9
$EXTMIN
 10
740.966051806274
 20
5483.05242764249
 30
0.0
  9
$EXTMAX
 10
938.966051806274
 20
5768.05242764249
 30
0.0
  9
$LIMMIN
 10
0.0
 20
0.0
  9
$LIMMAX
 10
12.0
 20
9.0
  9
$ORTHOMODE
 70
     0
  9
$REGENMODE
 70
     1
  9
$FILLMODE
 70
     1
  9
$QTEXTMODE
 70
     0
  9
$MIRRTEXT
 70
     1
  9
$DRAGMODE
 70
     2
  9
$LTSCALE
 40
1.0
  9
$OSMODE
 70
    37
  9
$ATTMODE
 70
     1
  9
$TEXTSIZE
 40
0.2
  9
$TRACEWID
 40
0.05
  9
$TEXTSTYLE
  7
STANDARD
  9
$CLAYER
  8
0
  9
$CELTYPE
  6
BYLAYER
  9
$CECOLOR
 62
   256
  9
$CELTSCALE
 40
1.0
  9
$DELOBJ
 70
     1
  9
$DISPSILH
 70
     0
  9
$DIMSCALE
 40
1.0
  9
$DIMASZ
 40
0.18
  9
$DIMEXO
 40
0.0625
  9
$DIMDLI
 40
0.38
  9
$DIMRND
 40
0.0
  9
$DIMDLE
 40
0.0
  9
$DIMEXE
 40
0.18
  9
$DIMTP
 40
0.0
  9
$DIMTM
 40
0.0
  9
$DIMTXT
 40
0.18
  9
$DIMCEN
 40
0.09
  9
$DIMTSZ
 40
0.0
  9
$DIMTOL
 70
     0
  9
$DIMLIM
 70
     0
  9
$DIMTIH
 70
     1
  9
$DIMTOH
 70
     1
  9
$DIMSE1
 70
     0
  9
$DIMSE2
 70
     0
  9
$DIMTAD
 70
     0
  9
$DIMZIN
 70
     0
  9
$DIMBLK
  1

  9
$DIMASO
 70
     1
  9
$DIMSHO
 70
     1
  9
$DIMPOST
  1

  9
$DIMAPOST
  1

  9
$DIMALT
 70
     0
  9
$DIMALTD
 70
     2
  9
$DIMALTF
 40
25.4
  9
$DIMLFAC
 40
1.0
  9
$DIMTOFL
 70
     0
  9
$DIMTVP
 40
0.0
  9
$DIMTIX
 70
     0
  9
$DIMSOXD
 70
     0
  9
$DIMSAH
 70
     0
  9
$DIMBLK1
  1

  9
$DIMBLK2
  1

  9
$DIMSTYLE
  2
STANDARD
  9
$DIMCLRD
 70
     0
  9
$DIMCLRE
 70
     0
  9
$DIMCLRT
 70
     0
  9
$DIMTFAC
 40
1.0
  9
$DIMGAP
 40
0.09
  9
$DIMJUST
 70
     0
  9
$DIMSD1
 70
     0
  9
$DIMSD2
 70
     0
  9
$DIMTOLJ
 70
     1
  9
$DIMTZIN
 70
     0
  9
$DIMALTZ
 70
     0
  9
$DIMALTTZ
 70
     0
  9
$DIMFIT
 70
     3
  9
$DIMUPT
 70
     0
  9
$DIMUNIT
 70
     2
  9
$DIMDEC
 70
     4
  9
$DIMTDEC
 70
     4
  9
$DIMALTU
 70
     2
  9
$DIMALTTD
 70
     2
  9
$DIMTXSTY
  7
STANDARD
  9
$DIMAUNIT
 70
     0
  9
$LUNITS
 70
     2
  9
$LUPREC
 70
     4
  9
$SKETCHINC
 40
0.1
  9
$FILLETRAD
 40
0.5
  9
$AUNITS
 70
     0
  9
$AUPREC
 70
     0
  9
$MENU
  1
.
  9
$ELEVATION
 40
0.0
  9
$PELEVATION
 40
0.0
  9
$THICKNESS
 40
0.0
  9
$LIMCHECK
 70
     0
  9
$CHAMFERA
 40
0.5
  9
$CHAMFERB
 40
0.5
  9
$CHAMFERC
 40
1.0
  9
$CHAMFERD
 40
0.0
  9
$SKPOLY
 70
     0
  9
$TDCREATE
 40
2454805.665356979
  9
$TDUPDATE
 40
2454805.665356991
  9
$TDINDWG
 40
0.0000000116
  9
$TDUSRTIMER
 40
0.0000000116
  9
$USRTIMER
 70
     1
  9
$ANGBASE
 50
0.0
  9
$ANGDIR
 70
     0
  9
$PDMODE
 70
     0
  9
$PDSIZE
 40
0.0
  9
$PLINEWID
 40
0.0
  9
$COORDS
 70
     1
  9
$SPLFRAME
 70
     0
  9
$SPLINETYPE
 70
     6
  9
$SPLINESEGS
 70
     8
  9
$ATTDIA
 70
     0
  9
$ATTREQ
 70
     1
  9
$HANDLING
 70
     1
  9
$HANDSEED
  5
18C
  9
$SURFTAB1
 70
     6
  9
$SURFTAB2
 70
     6
  9
$SURFTYPE
 70
     6
  9
$SURFU
 70
     6
  9
$SURFV
 70
     6
  9
$UCSNAME
  2

  9
$UCSORG
 10
0.0
 20
0.0
 30
0.0
  9
$UCSXDIR
 10
1.0
 20
0.0
 30
0.0
  9
$UCSYDIR
 10
0.0
 20
1.0
 30
0.0
  9
$PUCSNAME
  2

  9
$PUCSORG
 10
0.0
 20
0.0
 30
0.0
  9
$PUCSXDIR
 10
1.0
 20
0.0
 30
0.0
  9
$PUCSYDIR
 10
0.0
 20
1.0
 30
0.0
  9
$USERI1
 70
     0
  9
$USERI2
 70
     0
  9
$USERI3
 70
     0
  9
$USERI4
 70
     0
  9
$USERI5
 70
     0
  9
$USERR1
 40
13.0
  9
$USERR2
 40
0.0
  9
$USERR3
 40
0.0
  9
$USERR4
 40
0.0
  9
$USERR5
 40
0.0
  9
$WORLDVIEW
 70
     1
  9
$SHADEDGE
 70
     3
  9
$SHADEDIF
 70
    70
  9
$TILEMODE
 70
     1
  9
$MAXACTVP
 70
    64
  9
$PINSBASE
 10
0.0
 20
0.0
 30
0.0
  9
$PLIMCHECK
 70
     0
  9
$PEXTMIN
 10
1.00000000000000E+20
 20
1.00000000000000E+20
 30
1.00000000000000E+20
  9
$PEXTMAX
 10
-1.00000000000000E+20
 20
-1.00000000000000E+20
 30
-1.00000000000000E+20
  9
$PLIMMIN
 10
0.0
 20
0.0
  9
$PLIMMAX
 10
12.0
 20
9.0
  9
$UNITMODE
 70
     0
  9
$VISRETAIN
 70
     1
  9
$PLINEGEN
 70
     0
  9
$PSLTSCALE
 70
     1
  9
$TREEDEPTH
 70
  3020
  9
$PICKSTYLE
 70
     1
  9
$CMLSTYLE
  2
STANDARD
  9
$CMLJUST
 70
     0
  9
$CMLSCALE
 40
1.0
  9
$PROXYGRAPHICS
 70
     1
  9
$MEASUREMENT
 70
     1
  0
ENDSEC
  0
SECTION
  2
CLASSES
  0
CLASS
  1
ACDBDICTIONARYWDFLT
  2
AcDbDictionaryWithDefault
  3
ObjectDBX Classes
 90
        0
280
     0
281
     0
  0
CLASS
  1
TABLESTYLE
  2
AcDbTableStyle
  3
ObjectDBX Classes
 90
     2047
280
     0
281
     0
  0
CLASS
  1
DICTIONARYVAR
  2
AcDbDictionaryVar
  3
ObjectDBX Classes
 90
        0
280
     0
281
     0
  0
CLASS
  1

  2
exOdDbCircle
  3

 90
        0
280
     0
281
     1
  0
CLASS
  1
XRECORD
  2
AcDbXrecord
  3
AutoCAD 2000
 90
        0
280
     0
281
     0
  0
CLASS
  1
LWPOLYLINE
  2
AcDbPolyline
  3
AutoCAD 2000
 90
        0
280
     0
281
     1
  0
CLASS
  1
HATCH
  2
AcDbHatch
  3
AutoCAD 2000
 90
        0
280
     0
281
     1
  0
CLASS
  1
ACDBPLACEHOLDER
  2
AcDbPlaceHolder
  3
ObjectDBX Classes
 90
        0
280
     0
281
     0
  0
CLASS
  1
LAYOUT
  2
AcDbLayout
  3
ObjectDBX Classes
 90
        0
280
     0
281
     0
  0
ENDSEC
  0
SECTION
  2
TABLES
  0
TABLE
  2
VPORT
  5
8
330
0
100
AcDbSymbolTable
 70
     2
  0
VPORT
  5
29
102
{ACAD_XDICTIONARY
360
18A
102
}
330
8
100
AcDbSymbolTableRecord
100
AcDbViewportTableRecord
  2
*ACTIVE
 70
     0
 10
0.0
 20
0.0
 11
1.0
 21
1.0
 12
839.966051806274
 22
5625.55242764249
 13
0.0
 23
0.0
 14
0.5
 24
0.5
 15
0.5
 25
0.5
 16
0.0
 26
0.0
 36
1.0
 17
0.0
 27
0.0
 37
0.0
 40
313.5
 41
1.60267857142857
 42
50.0
 43
0.0
 44
0.0
 50
0.0
 51
0.0
 71
     0
 72
   100
 73
     1
 74
     3
 75
     0
 76
     0
 77
     0
 78
     0
  0
ENDTAB
  0
TABLE
  2
LTYPE
  5
5
330
0
100
AcDbSymbolTable
 70
     8
  0
LTYPE
  5
14
330
5
100
AcDbSymbolTableRecord
100
AcDbLinetypeTableRecord
  2
BYBLOCK
 70
     0
  3

 72
    65
 73
     0
 40
0.0
  0
LTYPE
  5
15
330
5
100
AcDbSymbolTableRecord
100
AcDbLinetypeTableRecord
  2
BYLAYER
 70
     0
  3

 72
    65
 73
     0
 40
0.0
  0
LTYPE
  5
16
330
5
100
AcDbSymbolTableRecord
100
AcDbLinetypeTableRecord
  2
CONTINUOUS
 70
     0
  3
Solid line
 72
    65
 73
     0
 40
0.0
  0
LTYPE
  5
2E
330
5
100
AcDbSymbolTableRecord
100
AcDbLinetypeTableRecord
  2
DASHED
 70
     0
  3
Dashed
 72
    65
 73
     2
 40
15.0
 49
7.0
 74
     0
 49
-8.0
 74
     0
  0
LTYPE
  5
2F
330
5
100
AcDbSymbolTableRecord
100
AcDbLinetypeTableRecord
  2
DOTTED
 70
     0
  3
Dotted
 72
    65
 73
     2
 40
1.0
 49
0.0
 74
     0
 49
-1.0
 74
     0
  0
LTYPE
  5
30
330
5
100
AcDbSymbolTableRecord
100
AcDbLinetypeTableRecord
  2
DOT_CENTER
 70
     0
  3
Dot_Center
 72
    65
 73
     4
 40
14.0
 49
12.0
 74
     0
 49
-1.0
 74
     0
 49
0.0
 74
     0
 49
-1.0
 74
     0
  0
LTYPE
  5
31
330
5
100
AcDbSymbolTableRecord
100
AcDbLinetypeTableRecord
  2
LONG_DASHED
 70
     0
  3
Long_Dashed
 72
    65
 73
     2
 40
15.0
 49
10.0
 74
     0
 49
-5.0
 74
     0
  0
LTYPE
  5
32
330
5
100
AcDbSymbolTableRecord
100
AcDbLinetypeTableRecord
  2
DASH_CENTER
 70
     0
  3
Dash_Center
 72
    65
 73
     4
 40
14.0
 49
11.0
 74
     0
 49
-1.0
 74
     0
 49
1.0
 74
     0
 49
-1.0
 74
     0
  0
LTYPE
  5
33
330
5
100
AcDbSymbolTableRecord
100
AcDbLinetypeTableRecord
  2
PHANTOM
 70
     0
  3
Phantom
 72
    65
 73
     6
 40
13.0
 49
10.0
 74
     0
 49
-1.0
 74
     0
 49
0.0
 74
     0
 49
-1.0
 74
     0
 49
0.0
 74
     0
 49
-1.0
 74
     0
  0
LTYPE
  5
34
330
5
100
AcDbSymbolTableRecord
100
AcDbLinetypeTableRecord
  2
CENTER_DASH_DASH
 70
     0
  3
Center_Dash_Dash
 72
    65
 73
     6
 40
14.0
 49
9.0
 74
     0
 49
-1.0
 74
     0
 49
1.0
 74
     0
 49
-1.0
 74
     0
 49
1.0
 74
     0
 49
-1.0
 74
     0
  0
ENDTAB
  0
TABLE
  2
LAYER
  5
2
330
0
100
AcDbSymbolTable
 70
     3
  0
LAYER
  5
10
330
2
100
AcDbSymbolTableRecord
100
AcDbLayerTableRecord
  2
0
 70
     0
 62
     7
  6
CONTINUOUS
  0
LAYER
  5
35
330
2
100
AcDbSymbolTableRecord
100
AcDbLayerTableRecord
  2
1
 70
     0
 62
     7
  6
CONTINUOUS
  0
LAYER
  5
36
330
2
100
AcDbSymbolTableRecord
100
AcDbLayerTableRecord
  2
2
 70
     0
 62
     7
  6
CONTINUOUS
  0
ENDTAB
  0
TABLE
  2
STYLE
  5
3
330
0
100
AcDbSymbolTable
 70
     7
  0
STYLE
  5
11
330
3
100
AcDbSymbolTableRecord
100
AcDbTextStyleTableRecord
  2
STANDARD
 70
     0
 40
0.0
 41
1.0
 50
0.0
 71
     0
 42
0.2
  3
txt
  4

  0
STYLE
  5
6A
330
3
100
AcDbSymbolTableRecord
100
AcDbTextStyleTableRecord
  2
CONVERTER_1
 70
     0
 40
0.0
 41
0.63
 50
0.0
 71
     0
 42
0.2
  3
txt.shx
  4

  0
STYLE
  5
A2
330
3
100
AcDbSymbolTableRecord
100
AcDbTextStyleTableRecord
  2
CONVERTER_2
 70
     0
 40
0.0
 41
0.55
 50
0.0
 71
     0
 42
0.2
  3
iso.shx
  4
extfont.shx
  0
STYLE
  5
A5
330
3
100
AcDbSymbolTableRecord
100
AcDbTextStyleTableRecord
  2
CONVERTER_3
 70
     0
 40
0.0
 41
0.7
 50
0.0
 71
     0
 42
0.2
  3
iso.shx
  4
extfont.shx
  0
STYLE
  5
A9
330
3
100
AcDbSymbolTableRecord
100
AcDbTextStyleTableRecord
  2
CONVERTER_4
 70
     0
 40
0.0
 41
0.5625
 50
0.0
 71
     0
 42
0.2
  3
txt.shx
  4

  0
STYLE
  5
127
330
3
100
AcDbSymbolTableRecord
100
AcDbTextStyleTableRecord
  2
CONVERTER_5
 70
     0
 40
0.0
 41
0.868
 50
0.0
 71
     0
 42
0.2
  3
simplex.shx
  4

  0
STYLE
  5
141
330
3
100
AcDbSymbolTableRecord
100
AcDbTextStyleTableRecord
  2
CONVERTER_6
 70
     0
 40
0.0
 41
0.79920634920635
 50
0.0
 71
     0
 42
0.2
  3
complex.shx
  4

  0
ENDTAB
  0
TABLE
  2
VIEW
  5
6
330
0
100
AcDbSymbolTable
 70
     0
  0
ENDTAB
  0
TABLE
  2
UCS
  5
7
330
0
100
AcDbSymbolTable
 70
     0
  0
ENDTAB
  0
TABLE
  2
APPID
  5
9
330
0
100
AcDbSymbolTable
 70
     1
  0
APPID
  5
12
330
9
100
AcDbSymbolTableRecord
100
AcDbRegAppTableRecord
  2
ACAD
 70
     0
  0
ENDTAB
  0
TABLE
  2
DIMSTYLE
  5
A
330
0
100
AcDbSymbolTable
 70
     5
  0
DIMSTYLE
105
27
330
A
100
AcDbSymbolTableRecord
100
AcDbDimStyleTableRecord
  2
STANDARD
 70
     0
  3

  4

  5

  6

  7

 40
1.0
 41
0.18
 42
0.0625
 43
0.38
 44
0.18
 45
0.0
 46
0.0
 47
0.0
 48
0.0
140
0.18
141
0.09
142
0.0
143
25.4
144
1.0
145
0.0
146
1.0
147
0.09
 71
     0
 72
     0
 73
     1
 74
     1
 75
     0
 76
     0
 77
     0
 78
     0
170
     0
171
     2
172
     0
173
     0
174
     0
175
     0
176
     0
177
     0
178
     0
270
     2
271
     4
272
     4
273
     2
274
     2
340
11
275
     0
280
     0
281
     0
282
     0
283
     1
284
     0
285
     0
286
     0
287
     3
288
     0
  0
DIMSTYLE
105
74
102
{ACAD_REACTORS
330
75
102
}
330
A
100
AcDbSymbolTableRecord
100
AcDbDimStyleTableRecord
  2
ME10_DIM_0
 70
     0
  3

  4

  5

  6
OPEN30
  7
OPEN30
 40
1.0
 41
8.96
 42
4.0
 43
0.38
 44
4.0
 45
0.0
 46
0.0
 47
0.0
 48
0.0
140
12.8
141
0.09
142
0.0
143
25.4
144
1.0
145
0.0
146
1.0
147
0.625
 71
     0
 72
     0
 73
     0
 74
     0
 75
     0
 76
     0
 77
     1
 78
     8
170
     0
171
     2
172
     1
173
     1
174
     0
175
     0
176
     2
177
     2
178
     3
270
     2
271
     2
272
     4
273
     2
274
     2
340
6A
275
     0
280
     0
281
     0
282
     0
283
     1
284
     0
285
     0
286
     0
287
     3
288
     0
  0
DIMSTYLE
105
82
102
{ACAD_REACTORS
330
83
102
}
330
A
100
AcDbSymbolTableRecord
100
AcDbDimStyleTableRecord
  2
ME10_DIM_1
 70
     0
  3

  4

  5

  6
OPEN30
  7
OPEN30
 40
1.0
 41
8.96
 42
4.0
 43
0.38
 44
4.0
 45
0.0
 46
0.0
 47
0.0
 48
0.0
140
12.8
141
0.09
142
0.0
143
25.4
144
1.0
145
0.0
146
1.0
147
0.625
 71
     0
 72
     0
 73
     0
 74
     0
 75
     0
 76
     0
 77
     1
 78
     8
170
     0
171
     2
172
     1
173
     1
174
     0
175
     0
176
     2
177
     2
178
     3
270
     2
271
     2
272
     4
273
     2
274
     2
340
6A
275
     0
280
     0
281
     0
282
     0
283
     1
284
     0
285
     0
286
     0
287
     3
288
     0
  0
DIMSTYLE
105
90
102
{ACAD_REACTORS
330
91
102
}
330
A
100
AcDbSymbolTableRecord
100
AcDbDimStyleTableRecord
  2
ME10_DIM_2
 70
     0
  3
{\Fgdt;n}<>
  4

  5

  6
OPEN30
  7
OPEN30
 40
1.0
 41
8.96
 42
4.0
 43
0.38
 44
4.0
 45
0.0
 46
0.0
 47
0.0
 48
0.0
140
12.8
141
0.09
142
0.0
143
25.4
144
1.0
145
0.0
146
1.0
147
0.625
 71
     0
 72
     0
 73
     0
 74
     0
 75
     0
 76
     0
 77
     1
 78
     8
170
     0
171
     2
172
     1
173
     1
174
     0
175
     0
176
     2
177
     2
178
     3
270
     2
271
     2
272
     4
273
     2
274
     2
340
6A
275
     0
280
     0
281
     0
282
     0
283
     1
284
     0
285
     0
286
     0
287
     3
288
     0
  0
DIMSTYLE
105
9D
102
{ACAD_REACTORS
330
9E
102
}
330
A
100
AcDbSymbolTableRecord
100
AcDbDimStyleTableRecord
  2
ME10_DIM_3
 70
     0
  3
{\Fgdt;n}<>
  4

  5

  6
OPEN30
  7
OPEN30
 40
1.0
 41
8.96
 42
4.0
 43
0.38
 44
4.0
 45
0.0
 46
0.0
 47
0.0
 48
0.0
140
12.8
141
0.09
142
0.0
143
25.4
144
1.0
145
0.0
146
1.0
147
0.625
 71
     0
 72
     0
 73
     0
 74
     0
 75
     0
 76
     0
 77
     1
 78
     8
170
     0
171
     2
172
     1
173
     1
174
     0
175
     0
176
     2
177
     2
178
     3
270
     2
271
     2
272
     4
273
     2
274
     2
340
6A
275
     0
280
     0
281
     0
282
     0
283
     1
284
     0
285
     0
286
     0
287
     3
288
     0
  0
ENDTAB
  0
TABLE
  2
BLOCK_RECORD
  5
1
330
0
100
AcDbSymbolTable
 70
     9
  0
BLOCK_RECORD
  5
1F
330
1
100
AcDbSymbolTableRecord
100
AcDbBlockTableRecord
  2
*MODEL_SPACE
  0
BLOCK_RECORD
  5
1B
330
1
100
AcDbSymbolTableRecord
100
AcDbBlockTableRecord
  2
*PAPER_SPACE
  0
BLOCK_RECORD
  5
37
330
1
100
AcDbSymbolTableRecord
100
AcDbBlockTableRecord
  2
_1__S
  0
BLOCK_RECORD
  5
3A
330
1
100
AcDbSymbolTableRecord
100
AcDbBlockTableRecord
  2
P_TEXT
  0
BLOCK_RECORD
  5
3D
330
1
100
AcDbSymbolTableRecord
100
AcDbBlockTableRecord
  2
FRAME
  0
BLOCK_RECORD
  5
62
330
1
100
AcDbSymbolTableRecord
100
AcDbBlockTableRecord
  2
*D04
  0
BLOCK_RECORD
  5
6E
330
1
100
AcDbSymbolTableRecord
100
AcDbBlockTableRecord
  2
_OPEN30
  0
BLOCK_RECORD
  5
76
330
1
100
AcDbSymbolTableRecord
100
AcDbBlockTableRecord
  2
*D16
  0
BLOCK_RECORD
  5
84
330
1
100
AcDbSymbolTableRecord
100
AcDbBlockTableRecord
  2
*D27
  0
BLOCK_RECORD
  5
92
330
1
100
AcDbSymbolTableRecord
100
AcDbBlockTableRecord
  2
*D38
  0
ENDTAB
  0
ENDSEC
  0
SECTION
  2
BLOCKS
  0
BLOCK
  5
20
330
1F
100
AcDbEntity
  8
0
100
AcDbBlockBegin
  2
*MODEL_SPACE
 70
     0
 71
     0
 10
0.0
 20
0.0
 30
0.0
  3
*MODEL_SPACE
  1

  0
ENDBLK
  5
21
330
1F
100
AcDbEntity
  8
0
100
AcDbBlockEnd
  0
BLOCK
  5
1C
330
1B
100
AcDbEntity
 67
     1
  8
0
100
AcDbBlockBegin
  2
*PAPER_SPACE
 70
     0
 71
     0
 10
0.0
 20
0.0
 30
0.0
  3
*PAPER_SPACE
  1

  0
ENDBLK
  5
1D
330
1B
100
AcDbEntity
 67
     1
  8
0
100
AcDbBlockEnd
  0
BLOCK
  5
38
330
37
100
AcDbEntity
  8
0
100
AcDbBlockBegin
  2
_1__S
 70
     0
 71
     0
 10
608.942563995634
 20
5522.3704761129
 30
0.0
  3
_1__S
  1

  0
LINE
  5
43
330
37
100
AcDbEntity
  8
1
  6
CONTINUOUS
 62
     7
100
AcDbLine
 10
713.5976692270788
 20
5449.17692281341
 30
0.0
 11
713.5976692270788
 21
5379.17692281341
 31
0.0
  0
LINE
  5
44
330
37
100
AcDbEntity
  8
1
  6
CONTINUOUS
 62
     7
100
AcDbLine
 10
713.5976692270788
 20
5379.17692281341
 30
0.0
 11
701.5976692270788
 21
5379.17692281341
 31
0.0
  0
LINE
  5
45
330
37
100
AcDbEntity
  8
1
  6
CONTINUOUS
 62
     7
100
AcDbLine
 10
701.5976692270788
 20
5379.17692281341
 30
0.0
 11
701.5976692270788
 21
5397.67692281341
 31
0.0
  0
LINE
  5
46
330
37
100
AcDbEntity
  8
1
  6
CONTINUOUS
 62
     7
100
AcDbLine
 10
701.5976692270788
 20
5449.17692281341
 30
0.0
 11
713.5976692270788
 21
5449.17692281341
 31
0.0
  0
LINE
  5
47
330
37
100
AcDbEntity
  8
1
  6
CONTINUOUS
 62
     7
100
AcDbLine
 10
713.5976692270788
 20
6049.17692281341
 30
0.0
 11
713.5976692270788
 21
5979.17692281341
 31
0.0
  0
LINE
  5
48
330
37
100
AcDbEntity
  8
1
  6
CONTINUOUS
 62
     7
100
AcDbLine
 10
713.5976692270788
 20
5979.17692281341
 30
0.0
 11
701.5976692270788
 21
5979.17692281341
 31
0.0
  0
LINE
  5
49
330
37
100
AcDbEntity
  8
1
  6
CONTINUOUS
 62
     7
100
AcDbLine
 10
701.5976692270788
 20
5979.17692281341
 30
0.0
 11
701.5976692270788
 21
5997.67692281341
 31
0.0
  0
LINE
  5
4A
330
37
100
AcDbEntity
  8
1
  6
CONTINUOUS
 62
     7
100
AcDbLine
 10
701.5976692270788
 20
6049.17692281341
 30
0.0
 11
713.5976692270788
 21
6049.17692281341
 31
0.0
  0
LINE
  5
4B
330
37
100
AcDbEntity
  8
1
  6
CONTINUOUS
 62
     7
100
AcDbLine
 10
701.5976692270788
 20
6030.67692281341
 30
0.0
 11
673.5976692270788
 21
6030.67692281341
 31
0.0
  0
LINE
  5
4C
330
37
100
AcDbEntity
  8
1
  6
CONTINUOUS
 62
     7
100
AcDbLine
 10
701.5976692270788
 20
6030.67692281341
 30
0.0
 11
701.5976692270788
 21
6049.17692281341
 31
0.0
  0
LINE
  5
4D
330
37
100
AcDbEntity
  8
1
  6
CONTINUOUS
 62
     7
100
AcDbLine
 10
623.5976692270788
 20
5980.67692281341
 30
0.0
 11
623.5976692270788
 21
5955.67692281341
 31
0.0
  0
LINE
  5
4E
330
37
100
AcDbEntity
  8
1
  6
CONTINUOUS
 62
     7
100
AcDbLine
 10
673.5976692270788
 20
5397.67692281341
 30
0.0
 11
701.5976692270788
 21
5397.67692281341
 31
0.0
  0
LINE
  5
4F
330
37
100
AcDbEntity
  8
1
  6
CONTINUOUS
 62
     7
100
AcDbLine
 10
701.5976692270788
 20
5397.67692281341
 30
0.0
 11
701.5976692270788
 21
5430.67692281341
 31
0.0
  0
LINE
  5
50
330
37
100
AcDbEntity
  8
1
  6
CONTINUOUS
 62
     7
100
AcDbLine
 10
701.5976692270788
 20
5997.67692281341
 30
0.0
 11
673.5976692270788
 21
5997.67692281341
 31
0.0
  0
LINE
  5
51
330
37
100
AcDbEntity
  8
1
  6
CONTINUOUS
 62
     7
100
AcDbLine
 10
701.5976692270788
 20
5997.67692281341
 30
0.0
 11
701.5976692270788
 21
6030.67692281341
 31
0.0
  0
LINE
  5
52
330
37
100
AcDbEntity
  8
1
  6
CONTINUOUS
 62
     7
100
AcDbLine
 10
656.5976692270788
 20
5980.67692281341
 30
0.0
 11
656.5976692270788
 21
5955.67692281341
 31
0.0
  0
LINE
  5
53
330
37
100
AcDbEntity
  8
1
  6
CONTINUOUS
 62
     7
100
AcDbLine
 10
673.5976692270788
 20
5430.67692281341
 30
0.0
 11
701.5976692270788
 21
5430.67692281341
 31
0.0
  0
LINE
  5
54
330
37
100
AcDbEntity
  8
1
  6
CONTINUOUS
 62
     7
100
AcDbLine
 10
701.5976692270788
 20
5430.67692281341
 30
0.0
 11
701.5976692270788
 21
5449.17692281341
 31
0.0
  0
LINE
  5
55
330
37
100
AcDbEntity
  8
1
  6
CONTINUOUS
 62
     7
100
AcDbLine
 10
656.5976692270788
 20
5955.67692281341
 30
0.0
 11
623.5976692270788
 21
5955.67692281341
 31
0.0
  0
LINE
  5
56
330
37
100
AcDbEntity
  8
1
  6
CONTINUOUS
 62
     7
100
AcDbLine
 10
623.5976692270788
 20
5955.67692281341
 30
0.0
 11
623.5976692270788
 21
5447.67692281341
 31
0.0
  0
LINE
  5
57
330
37
100
AcDbEntity
  8
1
  6
CONTINUOUS
 62
     7
100
AcDbLine
 10
656.5976692270788
 20
5955.67692281341
 30
0.0
 11
656.5976692270788
 21
5447.67692281341
 31
0.0
  0
LINE
  5
58
330
37
100
AcDbEntity
  8
1
  6
CONTINUOUS
 62
     7
100
AcDbLine
 10
623.5976692270788
 20
5472.67692281341
 30
0.0
 11
656.5976692270788
 21
5472.67692281341
 31
0.0
  0
LINE
  5
59
330
37
100
AcDbEntity
  8
1
  6
DOT_CENTER
 62
     2
100
AcDbLine
 10
748.4087310818286
 20
6014.17692281341
 30
0.0
 11
673.5976692270788
 21
6014.17692281341
 31
0.0
  0
LINE
  5
5A
330
37
100
AcDbEntity
  8
1
  6
DOT_CENTER
 62
     2
100
AcDbLine
 10
640.0976692270788
 20
5980.67692281341
 30
0.0
 11
640.0976692270788
 21
5447.67692281341
 31
0.0
  0
LINE
  5
5B
330
37
100
AcDbEntity
  8
1
  6
DOT_CENTER
 62
     2
100
AcDbLine
 10
748.4087310818286
 20
5414.17692281341
 30
0.0
 11
673.5976692270788
 21
5414.17692281341
 31
0.0
  0
ARC
  5
5C
330
37
100
AcDbEntity
  8
1
  6
CONTINUOUS
 62
     7
100
AcDbCircle
 10
673.5976692270788
 20
5980.67692281341
 30
0.0
 40
50.0
100
AcDbArc
 50
90.0
 51
180.0
  0
ARC
  5
5D
330
37
100
AcDbEntity
  8
1
  6
CONTINUOUS
 62
     7
100
AcDbCircle
 10
673.5976692270788
 20
5447.67692281341
 30
0.0
 40
50.0
100
AcDbArc
 50
180.0
 51
-90.0
  0
ARC
  5
5E
330
37
100
AcDbEntity
  8
1
  6
CONTINUOUS
 62
     7
100
AcDbCircle
 10
673.5976692270788
 20
5980.67692281341
 30
0.0
 40
17.0
100
AcDbArc
 50
90.0
 51
180.0
  0
ARC
  5
5F
330
37
100
AcDbEntity
  8
1
  6
CONTINUOUS
 62
     7
100
AcDbCircle
 10
673.5976692270788
 20
5447.67692281341
 30
0.0
 40
17.0
100
AcDbArc
 50
180.0
 51
-90.0
  0
ARC
  5
60
330
37
100
AcDbEntity
  8
1
  6
DOT_CENTER
 62
     2
100
AcDbCircle
 10
673.5976692270788
 20
5980.67692281341
 30
0.0
 40
33.5
100
AcDbArc
 50
90.0
 51
180.0
  0
ARC
  5
61
330
37
100
AcDbEntity
  8
1
  6
DOT_CENTER
 62
     2
100
AcDbCircle
 10
673.5976692270788
 20
5447.67692281341
 30
0.0
 40
33.5
100
AcDbArc
 50
180.0
 51
-90.0
  0
DIMENSION
  5
75
330
37
100
AcDbEntity
  8
1
100
AcDbDimension
  2
*D04
 10
623.5976692270788
 20
5331.600186195588
 30
0.0
 11
669.2966216923223
 21
5342.000186195588
 31
0.0
  1
<>
 53
0.00013888888889
  3
ME10_DIM_0
100
AcDbAlignedDimension
 13
713.5976692270788
 23
5379.17692281341
 33
0.0
 14
623.5976692270788
 24
5447.67692281341
 34
0.0
100
AcDbRotatedDimension
  0
DIMENSION
  5
83
330
37
100
AcDbEntity
  8
1
100
AcDbDimension
  2
*D16
 10
814.8772622491401
 20
6014.17692281341
 30
0.0
 11
804.4772622491402
 21
5713.482644344549
 31
0.0
  1
W
 53
90.0
  3
ME10_DIM_1
100
AcDbAlignedDimension
 13
748.4087310818286
 23
5414.17692281341
 33
0.0
 14
748.4087310818286
 24
6014.17692281341
 34
0.0
 50
90.0
100
AcDbRotatedDimension
  0
DIMENSION
  5
91
330
37
100
AcDbEntity
  8
1
100
AcDbDimension
  2
*D27
 10
656.5976692270788
 20
5704.668590104378
 30
0.0
 11
591.6875011711504
 21
5715.068590104378
 31
0.0
  1
<>
 53
0.00013888888889
  3
ME10_DIM_2
100
AcDbAlignedDimension
 13
623.5976692270788
 23
5955.67692281341
 33
0.0
 14
656.5976692270788
 24
5955.67692281341
 34
0.0
100
AcDbRotatedDimension
  0
DIMENSION
  5
9E
330
37
100
AcDbEntity
  8
1
100
AcDbDimension
  2
*D38
 10
784.6480129647534
 20
5449.17692281341
 30
0.0
 11
775.3430101621593
 21
5416.43896677404
 31
0.0
  1
<>
 53
90.0
  3
ME10_DIM_3
100
AcDbAlignedDimension
 13
713.5976692270788
 23
5379.17692281341
 33
0.0
 14
713.5976692270788
 24
5449.17692281341
 34
0.0
 50
90.0
100
AcDbRotatedDimension
  0
ENDBLK
  5
39
330
37
100
AcDbEntity
  8
0
100
AcDbBlockEnd
  0
BLOCK
  5
3B
330
3A
100
AcDbEntity
  8
0
100
AcDbBlockBegin
  2
P_TEXT
 70
     0
 71
     0
 10
943.966051806274
 20
5477.05242764249
 30
0.0
  3
P_TEXT
  1

  0
MTEXT
  5
9F
330
3A
100
AcDbEntity
  8
1
 62
     3
100
AcDbMText
 10
778.066051806274
 20
5521.05242764249
 30
0.0
 40
3.2
 41
0.0
 71
     5
 72
     1
  1
1
  7
CONVERTER_1
1001
ACAD
1000
MTEXTBEGIN
1070
    44
1040
0.90036014405762
1000
MTEXTEND
  0
MTEXT
  5
A0
330
3A
100
AcDbEntity
  8
1
 62
     3
100
AcDbMText
 10
783.966051806274
 20
5521.05242764249
 30
0.0
 40
3.2
 41
0.0
 71
     5
 72
     1
  1
4
  7
CONVERTER_1
1001
ACAD
1000
MTEXTBEGIN
1070
    44
1040
0.90036014405762
1000
MTEXTEND
  0
MTEXT
  5
A1
330
3A
100
AcDbEntity
  8
1
 62
     3
100
AcDbMText
 10
898.866051806274
 20
5500.05242764249
 30
0.0
 40
5.5
 41
0.0
 71
     5
 72
     1
  1
LE120283
  7
CONVERTER_1
1001
ACAD
1000
MTEXTBEGIN
1070
    44
1040
0.90036014405762
1000
MTEXTEND
  0
MTEXT
  5
A3
330
3A
100
AcDbEntity
  8
1
 62
     3
100
AcDbMText
 10
904.7660518062741
 20
5512.05242764249
 30
0.0
 40
5.5
 41
0.0
 71
     5
 72
     1
  1
HEWI 801-36 補助手すり
  7
CONVERTER_2
1001
ACAD
1000
MTEXTBEGIN
1070
    44
1040
1.12528132033008
1000
MTEXTEND
  0
MTEXT
  5
A4
330
3A
100
AcDbEntity
  8
1
 62
     3
100
AcDbMText
 10
861.966051806274
 20
5503.05242764249
 30
0.0
 40
4.0
 41
0.0
 71
     5
 72
     1
  1
 
  7
CONVERTER_1
1001
ACAD
1000
MTEXTBEGIN
1070
    44
1040
0.90036014405762
1000
MTEXTEND
  0
MTEXT
  5
A6
330
3A
100
AcDbEntity
  8
1
 62
     3
100
AcDbMText
 10
861.966051806274
 20
5497.05242764249
 30
0.0
 40
4.0
 41
0.0
 71
     5
 72
     1
  1
小室
  7
CONVERTER_3
1001
ACAD
1000
MTEXTBEGIN
1070
    44
1040
1.12528132033008
1000
MTEXTEND
  0
MTEXT
  5
A7
330
3A
100
AcDbEntity
  8
1
 62
     3
100
AcDbMText
 10
861.966051806274
 20
5515.05242764249
 30
0.0
 40
4.0
 41
0.0
 71
     5
 72
     1
  1
桜井
  7
CONVERTER_3
1001
ACAD
1000
MTEXTBEGIN
1070
    44
1040
1.12528132033008
1000
MTEXTEND
  0
MTEXT
  5
A8
330
3A
100
AcDbEntity
  8
1
 62
     3
100
AcDbMText
 10
861.966051806274
 20
5509.05242764249
 30
0.0
 40
4.0
 41
0.0
 71
     5
 72
     1
  1
 
  7
CONVERTER_1
1001
ACAD
1000
MTEXTBEGIN
1070
    44
1040
0.90036014405762
1000
MTEXTEND
  0
MTEXT
  5
AA
330
3A
100
AcDbEntity
  8
1
 62
     3
100
AcDbMText
 10
779.166051806274
 20
5515.05242764249
 30
0.0
 40
3.2
 41
0.0
 71
     5
 72
     1
  1
14
  7
CONVERTER_4
1001
ACAD
1000
MTEXTBEGIN
1070
    44
1040
0.90036014405762
1000
MTEXTEND
  0
MTEXT
  5
AB
330
3A
100
AcDbEntity
  8
1
 62
     3
100
AcDbMText
 10
787.7660518062741
 20
5515.05242764249
 30
0.0
 40
3.2
 41
0.0
 71
     5
 72
     1
  1
06
  7
CONVERTER_1
1001
ACAD
1000
MTEXTBEGIN
1070
    44
1040
0.90036014405762
1000
MTEXTEND
  0
MTEXT
  5
AC
330
3A
100
AcDbEntity
  8
1
 62
     3
100
AcDbMText
 10
797.2660518062741
 20
5515.05242764249
 30
0.0
 40
3.2
 41
0.0
 71
     5
 72
     1
  1
04
  7
CONVERTER_1
1001
ACAD
1000
MTEXTBEGIN
1070
    44
1040
0.90036014405762
1000
MTEXTEND
  0
MTEXT
  5
AD
330
3A
100
AcDbEntity
  8
1
 62
     3
100
AcDbMText
 10
924.966051806274
 20
5498.628601569514
 30
0.0
 40
3.0
 41
0.0
 71
     5
 72
     1
  1
 
  7
CONVERTER_1
1001
ACAD
1000
MTEXTBEGIN
1070
    44
1040
0.90036014405762
1000
MTEXTEND
  0
ENDBLK
  5
3C
330
3A
100
AcDbEntity
  8
0
100
AcDbBlockEnd
  0
BLOCK
  5
3F
330
3D
100
AcDbEntity
  8
0
100
AcDbBlockBegin
  2
FRAME
 70
     0
 71
     0
 10
733.966051806274
 20
5477.05242764249
 30
0.0
  3
FRAME
  1

  0
INSERT
  5
3E
330
3D
100
AcDbEntity
  8
1
100
AcDbBlockReference
  2
P_TEXT
 10
943.966051806274
 20
5477.05242764249
 30
0.0
  0
LINE
  5
AE
102
{ACAD_REACTORS
330
14C
330
14C
102
}
330
3D
100
AcDbEntity
  8
1
  6
CONTINUOUS
 62
     2
100
AcDbLine
 10
764.966051806274
 20
5624.05242764249
 30
0.0
 11
762.966051806274
 21
5625.20712818087
 31
0.0
  0
LINE
  5
AF
330
3D
100
AcDbEntity
  8
2
  6
CONTINUOUS
 62
     6
100
AcDbLine
 10
764.966051806274
 20
5624.05242764249
 30
0.0
 11
764.966051806274
 21
5745.05242764249
 31
0.0
  0
LINE
  5
B0
330
3D
100
AcDbEntity
  8
1
  6
CONTINUOUS
 62
     2
100
AcDbLine
 10
764.966051806274
 20
5624.05242764249
 30
0.0
 11
766.966051806274
 21
5624.05242764249
 31
0.0
  0
LINE
  5
B1
330
3D
100
AcDbEntity
  8
2
  6
CONTINUOUS
 62
     2
100
AcDbLine
 10
854.966051806274
 20
5500.05242764249
 30
0.0
 11
868.966051806274
 21
5500.05242764249
 31
0.0
  0
LINE
  5
B2
330
3D
100
AcDbEntity
  8
2
  6
CONTINUOUS
 62
     2
100
AcDbLine
 10
854.966051806274
 20
5512.05242764249
 30
0.0
 11
868.966051806274
 21
5512.05242764249
 31
0.0
  0
LINE
  5
B3
330
3D
100
AcDbEntity
  8
1
  6
CONTINUOUS
 62
     2
100
AcDbLine
 10
771.7754528830326
 20
5531.05242764249
 30
0.0
 11
769.466051806274
 21
5535.05242764249
 31
0.0
  0
LINE
  5
B4
330
3D
100
AcDbEntity
  8
1
  6
CONTINUOUS
 62
     2
100
AcDbLine
 10
767.1566507295155
 20
5531.05242764249
 30
0.0
 11
771.7754528830326
 21
5531.05242764249
 31
0.0
  0
LINE
  5
B5
330
3D
100
AcDbEntity
  8
1
  6
CONTINUOUS
 62
     2
100
AcDbLine
 10
769.466051806274
 20
5535.05242764249
 30
0.0
 11
767.1566507295155
 21
5531.05242764249
 31
0.0
  0
LINE
  5
B6
330
3D
100
AcDbEntity
  8
2
  6
PHANTOM
 62
     4
100
AcDbLine
 10
938.966051806274
 20
5768.05242764249
 30
0.0
 11
938.966051806274
 21
5483.05242764249
 31
0.0
  0
LINE
  5
B7
330
3D
100
AcDbEntity
  8
2
  6
PHANTOM
 62
     4
100
AcDbLine
 10
740.966051806274
 20
5483.05242764249
 30
0.0
 11
740.966051806274
 21
5768.05242764249
 31
0.0
  0
LINE
  5
B8
330
3D
100
AcDbEntity
  8
2
  6
PHANTOM
 62
     4
100
AcDbLine
 10
740.966051806274
 20
5483.05242764249
 30
0.0
 11
938.966051806274
 21
5483.05242764249
 31
0.0
  0
LINE
  5
B9
330
3D
100
AcDbEntity
  8
2
  6
PHANTOM
 62
     4
100
AcDbLine
 10
938.966051806274
 20
5768.05242764249
 30
0.0
 11
740.966051806274
 21
5768.05242764249
 31
0.0
  0
LINE
  5
BA
330
3D
100
AcDbEntity
  8
2
  6
CONTINUOUS
 62
     2
100
AcDbLine
 10
838.9660518062741
 20
5536.05242764249
 30
0.0
 11
812.966051806274
 21
5536.05242764249
 31
0.0
  0
LINE
  5
BB
330
3D
100
AcDbEntity
  8
2
  6
CONTINUOUS
 62
     6
100
AcDbLine
 10
932.966051806274
 20
5530.05242764249
 30
0.0
 11
932.966051806274
 21
5745.05242764249
 31
0.0
  0
LINE
  5
BC
330
3D
100
AcDbEntity
  8
2
  6
CONTINUOUS
 62
     6
100
AcDbLine
 10
764.966051806274
 20
5536.05242764249
 30
0.0
 11
764.966051806274
 21
5624.05242764249
 31
0.0
  0
LINE
  5
BD
330
3D
100
AcDbEntity
  8
2
  6
CONTINUOUS
 62
     2
100
AcDbLine
 10
838.9660518062741
 20
5536.05242764249
 30
0.0
 11
838.9660518062741
 21
5530.05242764249
 31
0.0
  0
LINE
  5
BE
330
3D
100
AcDbEntity
  8
2
  6
CONTINUOUS
 62
     2
100
AcDbLine
 10
764.966051806274
 20
5745.05242764249
 30
0.0
 11
932.966051806274
 21
5745.05242764249
 31
0.0
  0
LINE
  5
BF
330
3D
100
AcDbEntity
  8
2
  6
CONTINUOUS
 62
     6
100
AcDbLine
 10
874.966051806274
 20
5757.05242764249
 30
0.0
 11
859.966051806274
 21
5757.05242764249
 31
0.0
  0
LINE
  5
C0
330
3D
100
AcDbEntity
  8
2
  6
CONTINUOUS
 62
     2
100
AcDbLine
 10
871.466051806274
 20
5757.05242764249
 30
0.0
 11
871.466051806274
 21
5751.05242764249
 31
0.0
  0
LINE
  5
C1
330
3D
100
AcDbEntity
  8
2
  6
CONTINUOUS
 62
     6
100
AcDbLine
 10
859.966051806274
 20
5757.05242764249
 30
0.0
 11
834.966051806274
 21
5757.05242764249
 31
0.0
  0
LINE
  5
C2
330
3D
100
AcDbEntity
  8
2
  6
CONTINUOUS
 62
     2
100
AcDbLine
 10
863.4660518062741
 20
5757.05242764249
 30
0.0
 11
863.4660518062741
 21
5751.05242764249
 31
0.0
  0
LINE
  5
C3
330
3D
100
AcDbEntity
  8
2
  6
CONTINUOUS
 62
     6
100
AcDbLine
 10
838.4660518062741
 20
5757.05242764249
 30
0.0
 11
819.966051806274
 21
5757.05242764249
 31
0.0
  0
LINE
  5
C4
330
3D
100
AcDbEntity
  8
2
  6
CONTINUOUS
 62
     2
100
AcDbLine
 10
838.9660518062741
 20
5757.05242764249
 30
0.0
 11
838.9660518062741
 21
5751.05242764249
 31
0.0
  0
LINE
  5
C5
330
3D
100
AcDbEntity
  8
2
  6
CONTINUOUS
 62
     6
100
AcDbLine
 10
819.966051806274
 20
5757.05242764249
 30
0.0
 11
804.966051806274
 21
5757.05242764249
 31
0.0
  0
LINE
  5
C6
330
3D
100
AcDbEntity
  8
2
  6
CONTINUOUS
 62
     2
100
AcDbLine
 10
829.966051806274
 20
5757.05242764249
 30
0.0
 11
829.966051806274
 21
5751.05242764249
 31
0.0
  0
LINE
  5
C7
330
3D
100
AcDbEntity
  8
2
  6
CONTINUOUS
 62
     6
100
AcDbLine
 10
804.966051806274
 20
5757.05242764249
 30
0.0
 11
774.966051806274
 21
5757.05242764249
 31
0.0
  0
LINE
  5
C8
330
3D
100
AcDbEntity
  8
2
  6
CONTINUOUS
 62
     2
100
AcDbLine
 10
809.966051806274
 20
5757.05242764249
 30
0.0
 11
809.966051806274
 21
5751.05242764249
 31
0.0
  0
LINE
  5
C9
330
3D
100
AcDbEntity
  8
2
  6
CONTINUOUS
 62
     6
100
AcDbLine
 10
774.966051806274
 20
5757.05242764249
 30
0.0
 11
764.966051806274
 21
5757.05242764249
 31
0.0
  0
LINE
  5
CA
330
3D
100
AcDbEntity
  8
2
  6
CONTINUOUS
 62
     2
100
AcDbLine
 10
774.966051806274
 20
5757.05242764249
 30
0.0
 11
774.966051806274
 21
5751.05242764249
 31
0.0
  0
LINE
  5
CB
330
3D
100
AcDbEntity
  8
2
  6
CONTINUOUS
 62
     6
100
AcDbLine
 10
932.966051806274
 20
5757.05242764249
 30
0.0
 11
874.966051806274
 21
5757.05242764249
 31
0.0
  0
LINE
  5
CC
330
3D
100
AcDbEntity
  8
2
  6
CONTINUOUS
 62
     6
100
AcDbLine
 10
913.966051806274
 20
5518.05242764249
 30
0.0
 11
932.966051806274
 21
5518.05242764249
 31
0.0
  0
LINE
  5
CD
330
3D
100
AcDbEntity
  8
2
  6
CONTINUOUS
 62
     2
100
AcDbLine
 10
913.966051806274
 20
5530.05242764249
 30
0.0
 11
932.966051806274
 21
5530.05242764249
 31
0.0
  0
LINE
  5
CE
330
3D
100
AcDbEntity
  8
2
  6
CONTINUOUS
 62
     2
100
AcDbLine
 10
913.966051806274
 20
5530.05242764249
 30
0.0
 11
913.966051806274
 21
5518.05242764249
 31
0.0
  0
LINE
  5
CF
330
3D
100
AcDbEntity
  8
2
  6
CONTINUOUS
 62
     6
100
AcDbLine
 10
895.966051806274
 20
5518.05242764249
 30
0.0
 11
913.966051806274
 21
5518.05242764249
 31
0.0
  0
LINE
  5
D0
330
3D
100
AcDbEntity
  8
2
  6
CONTINUOUS
 62
     2
100
AcDbLine
 10
895.966051806274
 20
5530.05242764249
 30
0.0
 11
913.966051806274
 21
5530.05242764249
 31
0.0
  0
LINE
  5
D1
330
3D
100
AcDbEntity
  8
2
  6
CONTINUOUS
 62
     2
100
AcDbLine
 10
895.966051806274
 20
5530.05242764249
 30
0.0
 11
895.966051806274
 21
5518.05242764249
 31
0.0
  0
LINE
  5
D2
330
3D
100
AcDbEntity
  8
2
  6
CONTINUOUS
 62
     2
100
AcDbLine
 10
868.966051806274
 20
5530.05242764249
 30
0.0
 11
895.966051806274
 21
5530.05242764249
 31
0.0
  0
LINE
  5
D3
330
3D
100
AcDbEntity
  8
2
  6
CONTINUOUS
 62
     2
100
AcDbLine
 10
868.966051806274
 20
5530.05242764249
 30
0.0
 11
868.966051806274
 21
5518.05242764249
 31
0.0
  0
LINE
  5
D4
330
3D
100
AcDbEntity
  8
2
  6
CONTINUOUS
 62
     6
100
AcDbLine
 10
932.966051806274
 20
5524.05242764249
 30
0.0
 11
932.966051806274
 21
5518.05242764249
 31
0.0
  0
LINE
  5
D5
330
3D
100
AcDbEntity
  8
2
  6
CONTINUOUS
 62
     6
100
AcDbLine
 10
932.966051806274
 20
5530.05242764249
 30
0.0
 11
932.966051806274
 21
5524.05242764249
 31
0.0
  0
LINE
  5
D6
330
3D
100
AcDbEntity
  8
2
  6
CONTINUOUS
 62
     6
100
AcDbLine
 10
764.966051806274
 20
5530.05242764249
 30
0.0
 11
764.966051806274
 21
5536.05242764249
 31
0.0
  0
LINE
  5
D7
330
3D
100
AcDbEntity
  8
2
  6
CONTINUOUS
 62
     2
100
AcDbLine
 10
764.966051806274
 20
5530.05242764249
 30
0.0
 11
838.9660518062741
 21
5530.05242764249
 31
0.0
  0
LINE
  5
D8
330
3D
100
AcDbEntity
  8
2
  6
CONTINUOUS
 62
     6
100
AcDbLine
 10
812.966051806274
 20
5524.05242764249
 30
0.0
 11
838.9660518062741
 21
5524.05242764249
 31
0.0
  0
LINE
  5
D9
330
3D
100
AcDbEntity
  8
2
  6
CONTINUOUS
 62
     2
100
AcDbLine
 10
812.966051806274
 20
5536.05242764249
 30
0.0
 11
812.966051806274
 21
5530.05242764249
 31
0.0
  0
LINE
  5
DA
330
3D
100
AcDbEntity
  8
2
  6
CONTINUOUS
 62
     6
100
AcDbLine
 10
798.966051806274
 20
5524.05242764249
 30
0.0
 11
804.966051806274
 21
5524.05242764249
 31
0.0
  0
LINE
  5
DB
330
3D
100
AcDbEntity
  8
2
  6
CONTINUOUS
 62
     2
100
AcDbLine
 10
798.966051806274
 20
5536.05242764249
 30
0.0
 11
812.966051806274
 21
5536.05242764249
 31
0.0
  0
LINE
  5
DC
330
3D
100
AcDbEntity
  8
2
  6
CONTINUOUS
 62
     2
100
AcDbLine
 10
798.966051806274
 20
5536.05242764249
 30
0.0
 11
798.966051806274
 21
5530.05242764249
 31
0.0
  0
LINE
  5
DD
330
3D
100
AcDbEntity
  8
2
  6
CONTINUOUS
 62
     6
100
AcDbLine
 10
773.966051806274
 20
5524.05242764249
 30
0.0
 11
798.966051806274
 21
5524.05242764249
 31
0.0
  0
LINE
  5
DE
330
3D
100
AcDbEntity
  8
2
  6
CONTINUOUS
 62
     2
100
AcDbLine
 10
773.966051806274
 20
5536.05242764249
 30
0.0
 11
798.966051806274
 21
5536.05242764249
 31
0.0
  0
LINE
  5
DF
330
3D
100
AcDbEntity
  8
2
  6
CONTINUOUS
 62
     2
100
AcDbLine
 10
773.966051806274
 20
5536.05242764249
 30
0.0
 11
773.966051806274
 21
5524.05242764249
 31
0.0
  0
LINE
  5
E0
330
3D
100
AcDbEntity
  8
2
  6
CONTINUOUS
 62
     2
100
AcDbLine
 10
764.966051806274
 20
5536.05242764249
 30
0.0
 11
773.966051806274
 21
5536.05242764249
 31
0.0
  0
LINE
  5
E1
330
3D
100
AcDbEntity
  8
2
  6
DOT_CENTER
 62
     6
100
AcDbLine
 10
824.0042703506549
 20
5515.05242764249
 30
0.0
 11
836.5731656256315
 21
5515.05242764249
 31
0.0
  0
LINE
  5
E2
330
3D
100
AcDbEntity
  8
2
  6
DOT_CENTER
 62
     6
100
AcDbLine
 10
813.466051806274
 20
5521.884290666751
 30
0.0
 11
813.466051806274
 21
5508.422342306447
 31
0.0
  0
LINE
  5
E3
330
3D
100
AcDbEntity
  8
2
  6
DOT_CENTER
 62
     6
100
AcDbLine
 10
806.3085888450958
 20
5515.05242764249
 30
0.0
 11
820.564362170135
 21
5515.05242764249
 31
0.0
  0
LINE
  5
E4
330
3D
100
AcDbEntity
  8
2
  6
CONTINUOUS
 62
     6
100
AcDbLine
 10
824.8973234359822
 20
5512.121698343491
 30
0.0
 11
824.8973234359822
 21
5517.983156941491
 31
0.0
  0
LINE
  5
E5
330
3D
100
AcDbEntity
  8
2
  6
CONTINUOUS
 62
     6
100
AcDbLine
 10
835.6801125403042
 20
5509.244082846325
 30
0.0
 11
824.8973234359822
 21
5512.121698343491
 31
0.0
  0
LINE
  5
E6
330
3D
100
AcDbEntity
  8
2
  6
CONTINUOUS
 62
     6
100
AcDbLine
 10
835.6801125403042
 20
5520.860772438657
 30
0.0
 11
835.6801125403042
 21
5509.244082846325
 31
0.0
  0
LINE
  5
E7
330
3D
100
AcDbEntity
  8
2
  6
CONTINUOUS
 62
     6
100
AcDbLine
 10
824.8973234359822
 20
5517.983156941491
 30
0.0
 11
835.6801125403042
 21
5520.860772438657
 31
0.0
  0
LINE
  5
E8
330
3D
100
AcDbEntity
  8
2
  6
CONTINUOUS
 62
     6
100
AcDbLine
 10
804.966051806274
 20
5512.05242764249
 30
0.0
 11
804.966051806274
 21
5506.05242764249
 31
0.0
  0
LINE
  5
E9
330
3D
100
AcDbEntity
  8
2
  6
CONTINUOUS
 62
     6
100
AcDbLine
 10
764.966051806274
 20
5512.05242764249
 30
0.0
 11
764.966051806274
 21
5518.05242764249
 31
0.0
  0
LINE
  5
EA
330
3D
100
AcDbEntity
  8
2
  6
CONTINUOUS
 62
     6
100
AcDbLine
 10
764.966051806274
 20
5512.05242764249
 30
0.0
 11
804.966051806274
 21
5512.05242764249
 31
0.0
  0
LINE
  5
EB
330
3D
100
AcDbEntity
  8
2
  6
CONTINUOUS
 62
     6
100
AcDbLine
 10
804.966051806274
 20
5518.05242764249
 30
0.0
 11
804.966051806274
 21
5512.05242764249
 31
0.0
  0
LINE
  5
EC
330
3D
100
AcDbEntity
  8
2
  6
CONTINUOUS
 62
     6
100
AcDbLine
 10
764.966051806274
 20
5518.05242764249
 30
0.0
 11
764.966051806274
 21
5524.05242764249
 31
0.0
  0
LINE
  5
ED
330
3D
100
AcDbEntity
  8
2
  6
CONTINUOUS
 62
     6
100
AcDbLine
 10
764.966051806274
 20
5518.05242764249
 30
0.0
 11
804.966051806274
 21
5518.05242764249
 31
0.0
  0
LINE
  5
EE
330
3D
100
AcDbEntity
  8
2
  6
CONTINUOUS
 62
     6
100
AcDbLine
 10
868.966051806274
 20
5500.05242764249
 30
0.0
 11
868.966051806274
 21
5494.05242764249
 31
0.0
  0
LINE
  5
EF
330
3D
100
AcDbEntity
  8
2
  6
CONTINUOUS
 62
     2
100
AcDbLine
 10
854.966051806274
 20
5500.05242764249
 30
0.0
 11
854.966051806274
 21
5494.05242764249
 31
0.0
  0
LINE
  5
F0
330
3D
100
AcDbEntity
  8
2
  6
CONTINUOUS
 62
     6
100
AcDbLine
 10
868.966051806274
 20
5512.05242764249
 30
0.0
 11
868.966051806274
 21
5506.05242764249
 31
0.0
  0
LINE
  5
F1
330
3D
100
AcDbEntity
  8
2
  6
CONTINUOUS
 62
     2
100
AcDbLine
 10
854.966051806274
 20
5512.05242764249
 30
0.0
 11
854.966051806274
 21
5500.05242764249
 31
0.0
  0
LINE
  5
F2
330
3D
100
AcDbEntity
  8
2
  6
CONTINUOUS
 62
     6
100
AcDbLine
 10
854.966051806274
 20
5494.05242764249
 30
0.0
 11
838.9660518062741
 21
5494.05242764249
 31
0.0
  0
LINE
  5
F3
330
3D
100
AcDbEntity
  8
2
  6
CONTINUOUS
 62
     2
100
AcDbLine
 10
854.966051806274
 20
5518.05242764249
 30
0.0
 11
854.966051806274
 21
5512.05242764249
 31
0.0
  0
LINE
  5
F4
330
3D
100
AcDbEntity
  8
2
  6
CONTINUOUS
 62
     6
100
AcDbLine
 10
868.966051806274
 20
5506.05242764249
 30
0.0
 11
868.966051806274
 21
5500.05242764249
 31
0.0
  0
LINE
  5
F5
330
3D
100
AcDbEntity
  8
2
  6
CONTINUOUS
 62
     6
100
AcDbLine
 10
804.966051806274
 20
5506.05242764249
 30
0.0
 11
838.9660518062741
 21
5506.05242764249
 31
0.0
  0
LINE
  5
F6
330
3D
100
AcDbEntity
  8
2
  6
CONTINUOUS
 62
     6
100
AcDbLine
 10
804.966051806274
 20
5524.05242764249
 30
0.0
 11
812.966051806274
 21
5524.05242764249
 31
0.0
  0
LINE
  5
F7
330
3D
100
AcDbEntity
  8
2
  6
CONTINUOUS
 62
     6
100
AcDbLine
 10
804.966051806274
 20
5524.05242764249
 30
0.0
 11
804.966051806274
 21
5518.05242764249
 31
0.0
  0
LINE
  5
F8
330
3D
100
AcDbEntity
  8
2
  6
CONTINUOUS
 62
     6
100
AcDbLine
 10
838.9660518062741
 20
5524.05242764249
 30
0.0
 11
838.9660518062741
 21
5518.05242764249
 31
0.0
  0
LINE
  5
F9
330
3D
100
AcDbEntity
  8
2
  6
CONTINUOUS
 62
     6
100
AcDbLine
 10
764.966051806274
 20
5524.05242764249
 30
0.0
 11
764.966051806274
 21
5530.05242764249
 31
0.0
  0
LINE
  5
FA
330
3D
100
AcDbEntity
  8
2
  6
CONTINUOUS
 62
     6
100
AcDbLine
 10
764.966051806274
 20
5524.05242764249
 30
0.0
 11
773.966051806274
 21
5524.05242764249
 31
0.0
  0
LINE
  5
FB
330
3D
100
AcDbEntity
  8
2
  6
CONTINUOUS
 62
     6
100
AcDbLine
 10
838.9660518062741
 20
5530.05242764249
 30
0.0
 11
838.9660518062741
 21
5524.05242764249
 31
0.0
  0
LINE
  5
FC
330
3D
100
AcDbEntity
  8
2
  6
CONTINUOUS
 62
     6
100
AcDbLine
 10
838.9660518062741
 20
5506.05242764249
 30
0.0
 11
838.9660518062741
 21
5494.05242764249
 31
0.0
  0
LINE
  5
FD
330
3D
100
AcDbEntity
  8
2
  6
CONTINUOUS
 62
     6
100
AcDbLine
 10
764.966051806274
 20
5506.05242764249
 30
0.0
 11
764.966051806274
 21
5512.05242764249
 31
0.0
  0
LINE
  5
FE
330
3D
100
AcDbEntity
  8
2
  6
CONTINUOUS
 62
     6
100
AcDbLine
 10
764.966051806274
 20
5506.05242764249
 30
0.0
 11
804.966051806274
 21
5506.05242764249
 31
0.0
  0
LINE
  5
FF
330
3D
100
AcDbEntity
  8
2
  6
CONTINUOUS
 62
     6
100
AcDbLine
 10
838.9660518062741
 20
5494.05242764249
 30
0.0
 11
764.966051806274
 21
5494.05242764249
 31
0.0
  0
LINE
  5
100
330
3D
100
AcDbEntity
  8
2
  6
CONTINUOUS
 62
     6
100
AcDbLine
 10
838.9660518062741
 20
5518.05242764249
 30
0.0
 11
838.9660518062741
 21
5506.05242764249
 31
0.0
  0
LINE
  5
101
330
3D
100
AcDbEntity
  8
2
  6
CONTINUOUS
 62
     6
100
AcDbLine
 10
868.966051806274
 20
5494.05242764249
 30
0.0
 11
854.966051806274
 21
5494.05242764249
 31
0.0
  0
LINE
  5
102
330
3D
100
AcDbEntity
  8
2
  6
CONTINUOUS
 62
     6
100
AcDbLine
 10
868.966051806274
 20
5518.05242764249
 30
0.0
 11
868.966051806274
 21
5512.05242764249
 31
0.0
  0
LINE
  5
103
330
3D
100
AcDbEntity
  8
2
  6
CONTINUOUS
 62
     6
100
AcDbLine
 10
838.9660518062741
 20
5518.05242764249
 30
0.0
 11
854.966051806274
 21
5518.05242764249
 31
0.0
  0
LINE
  5
104
330
3D
100
AcDbEntity
  8
2
  6
CONTINUOUS
 62
     6
100
AcDbLine
 10
932.966051806274
 20
5518.05242764249
 30
0.0
 11
932.966051806274
 21
5506.05242764249
 31
0.0
  0
LINE
  5
105
330
3D
100
AcDbEntity
  8
2
  6
CONTINUOUS
 62
     6
100
AcDbLine
 10
868.966051806274
 20
5518.05242764249
 30
0.0
 11
895.966051806274
 21
5518.05242764249
 31
0.0
  0
LINE
  5
106
330
3D
100
AcDbEntity
  8
2
  6
CONTINUOUS
 62
     6
100
AcDbLine
 10
932.966051806274
 20
5506.05242764249
 30
0.0
 11
932.966051806274
 21
5494.05242764249
 31
0.0
  0
LINE
  5
107
330
3D
100
AcDbEntity
  8
2
  6
CONTINUOUS
 62
     6
100
AcDbLine
 10
868.966051806274
 20
5506.05242764249
 30
0.0
 11
932.966051806274
 21
5506.05242764249
 31
0.0
  0
LINE
  5
108
330
3D
100
AcDbEntity
  8
2
  6
CONTINUOUS
 62
     6
100
AcDbLine
 10
764.966051806274
 20
5494.05242764249
 30
0.0
 11
764.966051806274
 21
5506.05242764249
 31
0.0
  0
LINE
  5
109
330
3D
100
AcDbEntity
  8
2
  6
CONTINUOUS
 62
     6
100
AcDbLine
 10
932.966051806274
 20
5494.05242764249
 30
0.0
 11
868.966051806274
 21
5494.05242764249
 31
0.0
  0
LINE
  5
10A
330
3D
100
AcDbEntity
  8
2
  6
CONTINUOUS
 62
     6
100
AcDbLine
 10
932.966051806274
 20
5757.05242764249
 30
0.0
 11
932.966051806274
 21
5751.05242764249
 31
0.0
  0
LINE
  5
10B
330
3D
100
AcDbEntity
  8
2
  6
CONTINUOUS
 62
     6
100
AcDbLine
 10
764.966051806274
 20
5757.05242764249
 30
0.0
 11
774.966051806274
 21
5757.05242764249
 31
0.0
  0
LINE
  5
10C
330
3D
100
AcDbEntity
  8
2
  6
CONTINUOUS
 62
     6
100
AcDbLine
 10
764.966051806274
 20
5757.05242764249
 30
0.0
 11
764.966051806274
 21
5751.05242764249
 31
0.0
  0
LINE
  5
10D
330
3D
100
AcDbEntity
  8
2
  6
CONTINUOUS
 62
     2
100
AcDbLine
 10
764.966051806274
 20
5751.05242764249
 30
0.0
 11
932.966051806274
 21
5751.05242764249
 31
0.0
  0
LINE
  5
10E
330
3D
100
AcDbEntity
  8
2
  6
CONTINUOUS
 62
     6
100
AcDbLine
 10
932.966051806274
 20
5751.05242764249
 30
0.0
 11
932.966051806274
 21
5745.05242764249
 31
0.0
  0
LINE
  5
10F
330
3D
100
AcDbEntity
  8
2
  6
CONTINUOUS
 62
     2
100
AcDbLine
 10
924.966051806274
 20
5503.05242764249
 30
0.0
 11
921.2132750565414
 21
5496.55242764249
 31
0.0
  0
LINE
  5
110
330
3D
100
AcDbEntity
  8
2
  6
CONTINUOUS
 62
     2
100
AcDbLine
 10
921.2132750565414
 20
5496.55242764249
 30
0.0
 11
928.7188285560067
 21
5496.55242764249
 31
0.0
  0
LINE
  5
111
330
3D
100
AcDbEntity
  8
2
  6
CONTINUOUS
 62
     2
100
AcDbLine
 10
928.7188285560067
 20
5496.55242764249
 30
0.0
 11
924.966051806274
 21
5503.05242764249
 31
0.0
  0
LINE
  5
112
330
3D
100
AcDbEntity
  8
2
  6
CONTINUOUS
 62
     2
100
AcDbLine
 10
838.9660518062741
 20
5530.05242764249
 30
0.0
 11
868.966051806274
 21
5530.05242764249
 31
0.0
  0
LINE
  5
113
330
3D
100
AcDbEntity
  8
2
  6
CONTINUOUS
 62
     2
100
AcDbLine
 10
838.9660518062741
 20
5524.05242764249
 30
0.0
 11
932.966051806274
 21
5524.05242764249
 31
0.0
  0
LINE
  5
114
330
3D
100
AcDbEntity
  8
2
  6
CONTINUOUS
 62
     2
100
AcDbLine
 10
838.9660518062741
 20
5506.05242764249
 30
0.0
 11
868.966051806274
 21
5506.05242764249
 31
0.0
  0
LINE
  5
115
330
3D
100
AcDbEntity
  8
2
  6
CONTINUOUS
 62
     2
100
AcDbLine
 10
798.966051806274
 20
5530.05242764249
 30
0.0
 11
798.966051806274
 21
5524.05242764249
 31
0.0
  0
LINE
  5
116
330
3D
100
AcDbEntity
  8
2
  6
CONTINUOUS
 62
     2
100
AcDbLine
 10
812.966051806274
 20
5530.05242764249
 30
0.0
 11
812.966051806274
 21
5524.05242764249
 31
0.0
  0
LINE
  5
117
330
3D
100
AcDbEntity
  8
2
  6
CONTINUOUS
 62
     6
100
AcDbLine
 10
854.966051806274
 20
5518.05242764249
 30
0.0
 11
868.966051806274
 21
5518.05242764249
 31
0.0
  0
LINE
  5
118
330
3D
100
AcDbEntity
  8
2
  6
CONTINUOUS
 62
     6
100
AcDbLine
 10
764.966051806274
 20
5745.05242764249
 30
0.0
 11
764.966051806274
 21
5751.05242764249
 31
0.0
  0
LINE
  5
119
330
3D
100
AcDbEntity
  8
2
  6
CONTINUOUS
 62
     2
100
AcDbLine
 10
774.966051806274
 20
5751.05242764249
 30
0.0
 11
774.966051806274
 21
5745.05242764249
 31
0.0
  0
LINE
  5
11A
330
3D
100
AcDbEntity
  8
2
  6
CONTINUOUS
 62
     2
100
AcDbLine
 10
809.966051806274
 20
5751.05242764249
 30
0.0
 11
809.966051806274
 21
5745.05242764249
 31
0.0
  0
LINE
  5
11B
330
3D
100
AcDbEntity
  8
2
  6
CONTINUOUS
 62
     2
100
AcDbLine
 10
829.966051806274
 20
5751.05242764249
 30
0.0
 11
829.966051806274
 21
5745.05242764249
 31
0.0
  0
LINE
  5
11C
330
3D
100
AcDbEntity
  8
2
  6
CONTINUOUS
 62
     2
100
AcDbLine
 10
838.9660518062741
 20
5751.05242764249
 30
0.0
 11
838.9660518062741
 21
5745.05242764249
 31
0.0
  0
LINE
  5
11D
330
3D
100
AcDbEntity
  8
2
  6
CONTINUOUS
 62
     2
100
AcDbLine
 10
863.4660518062741
 20
5751.05242764249
 30
0.0
 11
863.4660518062741
 21
5745.05242764249
 31
0.0
  0
LINE
  5
11E
330
3D
100
AcDbEntity
  8
2
  6
CONTINUOUS
 62
     2
100
AcDbLine
 10
871.466051806274
 20
5751.05242764249
 30
0.0
 11
871.466051806274
 21
5745.05242764249
 31
0.0
  0
LINE
  5
11F
102
{ACAD_REACTORS
330
14C
330
14C
102
}
330
3D
100
AcDbEntity
  8
1
  6
CONTINUOUS
 62
     2
100
AcDbLine
 10
762.966051806274
 20
5625.20712818087
 30
0.0
 11
762.966051806274
 21
5622.897727104111
 31
0.0
  0
LINE
  5
120
102
{ACAD_REACTORS
330
14C
330
14C
102
}
330
3D
100
AcDbEntity
  8
1
  6
CONTINUOUS
 62
     2
100
AcDbLine
 10
762.966051806274
 20
5622.897727104111
 30
0.0
 11
764.966051806274
 21
5624.05242764249
 31
0.0
  0
LINE
  5
121
330
3D
100
AcDbEntity
  8
1
  6
CONTINUOUS
 62
     2
100
AcDbLine
 10
862.2660518062741
 20
5746.05242764249
 30
0.0
 11
859.9566507295156
 21
5750.05242764249
 31
0.0
  0
LINE
  5
122
330
3D
100
AcDbEntity
  8
1
  6
CONTINUOUS
 62
     2
100
AcDbLine
 10
857.647249652757
 20
5746.05242764249
 30
0.0
 11
862.2660518062741
 21
5746.05242764249
 31
0.0
  0
LINE
  5
123
330
3D
100
AcDbEntity
  8
1
  6
CONTINUOUS
 62
     2
100
AcDbLine
 10
859.9566507295156
 20
5750.05242764249
 30
0.0
 11
857.647249652757
 21
5746.05242764249
 31
0.0
  0
CIRCLE
  5
124
330
3D
100
AcDbEntity
  8
2
  6
CONTINUOUS
 62
     6
100
AcDbCircle
 10
813.466051806274
 20
5515.05242764249
 30
0.0
 40
5.808344796166011
  0
CIRCLE
  5
125
330
3D
100
AcDbEntity
  8
2
  6
CONTINUOUS
 62
     6
100
AcDbCircle
 10
813.466051806274
 20
5515.05242764249
 30
0.0
 40
2.930729299000404
  0
MTEXT
  5
126
330
3D
100
AcDbEntity
  8
1
 62
     3
100
AcDbMText
 10
769.4205310840499
 20
5521.05242764249
 30
0.0
 40
3.2
 41
0.0
 71
     5
 72
     1
  1
尺度
  7
CONVERTER_3
1001
ACAD
1000
MTEXTBEGIN
1070
    44
1040
1.50037509377344
1000
MTEXTEND
  0
MTEXT
  5
128
330
3D
100
AcDbEntity
  8
1
 62
     3
100
AcDbMText
 10
779.895100297629
 20
5521.05242764249
 30
0.0
 40
3.2
 41
0.0
 71
     5
 72
     1
  1
/
  7
CONVERTER_5
1001
ACAD
1000
MTEXTBEGIN
1070
    44
1040
1.20048019207683
1000
MTEXTEND
  0
MTEXT
  5
129
330
3D
100
AcDbEntity
  8
1
 62
     3
100
AcDbMText
 10
787.233971415332
 20
5521.05242764249
 30
0.0
 40
3.2
 41
0.0
 71
     5
 72
     1
  1
(
  7
CONVERTER_5
1001
ACAD
1000
MTEXTBEGIN
1070
    44
1040
1.20048019207683
1000
MTEXTEND
  0
MTEXT
  5
12A
330
3D
100
AcDbEntity
  8
1
 62
     3
100
AcDbMText
 10
794.750754560131
 20
5521.05242764249
 30
0.0
 40
3.2
 41
0.0
 71
     5
 72
     1
  1
/
  7
CONVERTER_5
1001
ACAD
1000
MTEXTBEGIN
1070
    44
1040
1.20048019207683
1000
MTEXTEND
  0
MTEXT
  5
12B
330
3D
100
AcDbEntity
  8
1
 62
     3
100
AcDbMText
 10
801.911713650738
 20
5521.05242764249
 30
0.0
 40
3.2
 41
0.0
 71
     5
 72
     1
  1
)
  7
CONVERTER_5
1001
ACAD
1000
MTEXTBEGIN
1070
    44
1040
1.20048019207683
1000
MTEXTEND
  0
MTEXT
  5
12C
330
3D
100
AcDbEntity
  8
1
 62
     3
100
AcDbMText
 10
774.966051806274
 20
5509.05242764249
 30
0.0
 40
3.2
 41
0.0
 71
     5
 72
     1
  1
部品表番号
  7
CONVERTER_3
1001
ACAD
1000
MTEXTBEGIN
1070
    44
1040
1.50037509377344
1000
MTEXTEND
  0
MTEXT
  5
12D
330
3D
100
AcDbEntity
  8
1
 62
     3
100
AcDbMText
 10
882.466051806274
 20
5521.05242764249
 30
0.0
 40
3.2
 41
0.0
 71
     5
 72
     1
  1
組 立 図 - 照 号
  7
CONVERTER_3
1001
ACAD
1000
MTEXTBEGIN
1070
    44
1040
1.50037509377344
1000
MTEXTEND
  0
MTEXT
  5
12E
330
3D
100
AcDbEntity
  8
2
 62
     3
100
AcDbMText
 10
901.466051806274
 20
5754.05242764249
 30
0.0
 40
3.2
 41
0.0
 71
     5
 72
     1
  1
記      事
  7
CONVERTER_3
1001
ACAD
1000
MTEXTBEGIN
1070
    44
1040
1.50037509377344
1000
MTEXTEND
  0
MTEXT
  5
12F
330
3D
100
AcDbEntity
  8
2
 62
     3
100
AcDbMText
 10
867.4660518062741
 20
5754.05242764249
 30
0.0
 40
3.2
 41
0.0
 71
     5
 72
     1
  1
重 量
  7
CONVERTER_3
1001
ACAD
1000
MTEXTBEGIN
1070
    44
1040
1.50037509377344
1000
MTEXTEND
  0
MTEXT
  5
130
330
3D
100
AcDbEntity
  8
2
 62
     3
100
AcDbMText
 10
851.466051806274
 20
5754.05242764249
 30
0.0
 40
3.2
 41
0.0
 71
     5
 72
     1
  1
図 面 番 号
  7
CONVERTER_3
1001
ACAD
1000
MTEXTBEGIN
1070
    44
1040
1.50037509377344
1000
MTEXTEND
  0
MTEXT
  5
131
330
3D
100
AcDbEntity
  8
2
 62
     3
100
AcDbMText
 10
834.166051806274
 20
5754.05242764249
 30
0.0
 40
3.2
 41
0.0
 71
     5
 72
     1
  1
１組分数
  7
CONVERTER_3
1001
ACAD
1000
MTEXTBEGIN
1070
    44
1040
1.50037509377344
1000
MTEXTEND
  0
MTEXT
  5
132
330
3D
100
AcDbEntity
  8
2
 62
     3
100
AcDbMText
 10
819.9430800491153
 20
5753.961244371237
 30
0.0
 40
3.2
 41
0.0
 71
     5
 72
     1
  1
材  料
  7
CONVERTER_3
1001
ACAD
1000
MTEXTBEGIN
1070
    44
1040
1.50037509377344
1000
MTEXTEND
  0
MTEXT
  5
133
330
3D
100
AcDbEntity
  8
2
 62
     3
100
AcDbMText
 10
792.154450316374
 20
5754.05242764249
 30
0.0
 40
3.2
 41
0.0
 71
     5
 72
     1
  1
品   名
  7
CONVERTER_3
1001
ACAD
1000
MTEXTBEGIN
1070
    44
1040
1.50037509377344
1000
MTEXTEND
  0
MTEXT
  5
134
330
3D
100
AcDbEntity
  8
2
 62
     3
100
AcDbMText
 10
769.966051806274
 20
5754.05242764249
 30
0.0
 40
3.2
 41
0.0
 71
     5
 72
     1
  1
照 号
  7
CONVERTER_3
1001
ACAD
1000
MTEXTBEGIN
1070
    44
1040
1.50037509377344
1000
MTEXTEND
  0
MTEXT
  5
135
330
3D
100
AcDbEntity
  8
2
 62
     3
100
AcDbMText
 10
923.466051806274
 20
5521.05242764249
 30
0.0
 40
3.2
 41
0.0
 71
     5
 72
     1
  1
１台分重量
  7
CONVERTER_3
1001
ACAD
1000
MTEXTBEGIN
1070
    44
1040
1.50037509377344
1000
MTEXTEND
  0
MTEXT
  5
136
330
3D
100
AcDbEntity
  8
2
 62
     3
100
AcDbMText
 10
903.966051806274
 20
5521.05242764249
 30
0.0
 40
3.2
 41
0.0
 71
     5
 72
     1
  1
１台分数
  7
CONVERTER_3
1001
ACAD
1000
MTEXTBEGIN
1070
    44
1040
1.50037509377344
1000
MTEXTEND
  0
MTEXT
  5
137
330
3D
100
AcDbEntity
  8
2
 62
     3
100
AcDbMText
 10
854.966051806274
 20
5521.05242764249
 30
0.0
 40
3.2
 41
0.0
 71
     5
 72
     1
  1
総 組 立 図
  7
CONVERTER_3
1001
ACAD
1000
MTEXTBEGIN
1070
    44
1040
1.50037509377344
1000
MTEXTEND
  0
MTEXT
  5
138
330
3D
100
AcDbEntity
  8
2
 62
     3
100
AcDbMText
 10
825.9916729895889
 20
5527.05242764249
 30
0.0
 40
3.2
 41
0.0
 71
     5
 72
     1
  1
改 訂 理 由
  7
CONVERTER_3
1001
ACAD
1000
MTEXTBEGIN
1070
    44
1040
1.50037509377344
1000
MTEXTEND
  0
MTEXT
  5
139
330
3D
100
AcDbEntity
  8
2
 62
     3
100
AcDbMText
 10
805.966051806274
 20
5527.05242764249
 30
0.0
 40
3.2
 41
0.0
 71
     5
 72
     1
  1
担  当
  7
CONVERTER_3
1001
ACAD
1000
MTEXTBEGIN
1070
    44
1040
1.50037509377344
1000
MTEXTEND
  0
MTEXT
  5
13A
330
3D
100
AcDbEntity
  8
2
 62
     3
100
AcDbMText
 10
786.466051806274
 20
5527.05242764249
 30
0.0
 40
3.2
 41
0.0
 71
     5
 72
     1
  1
日  付
  7
CONVERTER_3
1001
ACAD
1000
MTEXTBEGIN
1070
    44
1040
1.50037509377344
1000
MTEXTEND
  0
MTEXT
  5
13B
330
3D
100
AcDbEntity
  8
2
 62
     3
100
AcDbMText
 10
769.466051806274
 20
5527.05242764249
 30
0.0
 40
3.2
 41
0.0
 71
     5
 72
     1
  1
記 号
  7
CONVERTER_3
1001
ACAD
1000
MTEXTBEGIN
1070
    44
1040
1.50037509377344
1000
MTEXTEND
  0
MTEXT
  5
13C
330
3D
100
AcDbEntity
  8
2
 62
     3
100
AcDbMText
 10
873.4759937526966
 20
5503.947718789191
 30
0.0
 40
2.464
 41
0.0
 71
     5
 72
     1
  1
図面番号
  7
CONVERTER_3
1001
ACAD
1000
MTEXTBEGIN
1070
    44
1040
1.50037509377344
1000
MTEXTEND
  0
MTEXT
  5
13D
330
3D
100
AcDbEntity
  8
2
 62
     3
100
AcDbMText
 10
873.6318396910139
 20
5515.924737171962
 30
0.0
 40
2.464
 41
0.0
 71
     5
 72
     1
  1
名  称
  7
CONVERTER_3
1001
ACAD
1000
MTEXTBEGIN
1070
    44
1040
1.50037509377344
1000
MTEXTEND
  0
MTEXT
  5
13E
330
3D
100
AcDbEntity
  8
2
 62
     3
100
AcDbMText
 10
846.966051806274
 20
5503.05242764249
 30
0.0
 40
3.2
 41
0.0
 71
     5
 72
     1
  1
設  計
  7
CONVERTER_3
1001
ACAD
1000
MTEXTBEGIN
1070
    44
1040
1.50037509377344
1000
MTEXTEND
  0
MTEXT
  5
13F
330
3D
100
AcDbEntity
  8
2
 62
     3
100
AcDbMText
 10
846.966051806274
 20
5497.05242764249
 30
0.0
 40
3.2
 41
0.0
 71
     5
 72
     1
  1
製  図
  7
CONVERTER_3
1001
ACAD
1000
MTEXTBEGIN
1070
    44
1040
1.50037509377344
1000
MTEXTEND
  0
MTEXT
  5
140
330
3D
100
AcDbEntity
  8
2
 62
     3
100
AcDbMText
 10
846.966051806274
 20
5512.05242764249
 30
0.0
 40
3.2
 41
0.0
 71
     5
 72
     1
  1
承  認
  7
CONVERTER_3
1001
ACAD
1000
MTEXTBEGIN
1070
    44
1040
1.50037509377344
1000
MTEXTEND
  0
MTEXT
  5
142
330
3D
100
AcDbEntity
  8
2
 62
     3
100
AcDbMText
 10
814.3164747628963
 20
5500.05242764249
 30
0.0
 40
6.3
 41
0.0
 71
     5
 72
     1
  1
SUNE
  7
CONVERTER_6
1001
ACAD
1000
MTEXTBEGIN
1070
    44
1040
1.20048019207683
1000
MTEXTEND
  0
MTEXT
  5
143
330
3D
100
AcDbEntity
  8
2
 62
     3
100
AcDbMText
 10
790.5755108335834
 20
5500.05242764249
 30
0.0
 40
6.3
 41
0.0
 71
     5
 72
     1
  1
SUGA
  7
CONVERTER_6
1001
ACAD
1000
MTEXTBEGIN
1070
    44
1040
1.20048019207683
1000
MTEXTEND
  0
MTEXT
  5
144
330
3D
100
AcDbEntity
  8
2
 62
     3
100
AcDbMText
 10
802.541051806274
 20
5500.05242764249
 30
0.0
 40
6.3
 41
0.0
 71
     5
 72
     1
  1
T
  7
CONVERTER_6
1001
ACAD
1000
MTEXTBEGIN
1070
    44
1040
1.20048019207683
1000
MTEXTEND
  0
MTEXT
  5
145
330
3D
100
AcDbEntity
  8
1
 62
     3
100
AcDbMText
 10
769.4087773834991
 20
5515.05242764249
 30
0.0
 40
3.2
 41
0.0
 71
     5
 72
     1
  1
作図
  7
CONVERTER_3
1001
ACAD
1000
MTEXTBEGIN
1070
    44
1040
1.50037509377344
1000
MTEXTEND
  0
MTEXT
  5
146
330
3D
100
AcDbEntity
  8
1
 62
     3
100
AcDbMText
 10
775.1326649223827
 20
5515.05242764249
 30
0.0
 40
3.2
 41
0.0
 71
     5
 72
     1
  1
H
  7
CONVERTER_5
1001
ACAD
1000
MTEXTBEGIN
1070
    44
1040
1.20048019207683
1000
MTEXTEND
  0
MTEXT
  5
147
330
3D
100
AcDbEntity
  8
1
 62
     3
100
AcDbMText
 10
782.7160184345696
 20
5515.05242764249
 30
0.0
 40
3.2
 41
0.0
 71
     5
 72
     1
  1
年
  7
CONVERTER_3
1001
ACAD
1000
MTEXTBEGIN
1070
    44
1040
1.50037509377344
1000
MTEXTEND
  0
MTEXT
  5
148
330
3D
100
AcDbEntity
  8
1
 62
     3
100
AcDbMText
 10
792.0770257899886
 20
5515.05242764249
 30
0.0
 40
3.2
 41
0.0
 71
     5
 72
     1
  1
月
  7
CONVERTER_3
1001
ACAD
1000
MTEXTBEGIN
1070
    44
1040
1.50037509377344
1000
MTEXTEND
  0
MTEXT
  5
149
330
3D
100
AcDbEntity
  8
1
 62
     3
100
AcDbMText
 10
801.7210951273335
 20
5515.05242764249
 30
0.0
 40
3.2
 41
0.0
 71
     5
 72
     1
  1
日
  7
CONVERTER_3
1001
ACAD
1000
MTEXTBEGIN
1070
    44
1040
1.50037509377344
1000
MTEXTEND
  0
MTEXT
  5
14A
330
3D
100
AcDbEntity
  8
1
 62
     3
100
AcDbMText
 10
819.881444247036
 20
5748.06824179396
 30
0.0
 40
3.2
 41
0.0
 71
     5
 72
     1
  1
ポリアミド
  7
CONVERTER_3
1001
ACAD
1000
MTEXTBEGIN
1070
    44
1040
1.65041260315079
1000
MTEXTEND
  0
MTEXT
  5
14B
330
3D
100
AcDbEntity
  8
1
 62
     3
100
AcDbMText
 10
853.865918522025
 20
5526.84319438026
 30
0.0
 40
3.2
 41
0.0
 71
     5
 72
     1
  1
Top
  7
CONVERTER_1
1001
ACAD
1000
MTEXTBEGIN
1070
    44
1040
1.32052821128451
1000
MTEXTEND
  0
HATCH
  5
14C
330
3D
100
AcDbEntity
  8
1
  6
CONTINUOUS
 62
     4
100
AcDbHatch
 10
0.0
 20
0.0
 30
0.0
210
0.0
220
0.0
230
1.0
  2
_USER
 70
     0
 71
     1
 91
        1
 92
        1
 93
        3
 72
     1
 10
764.966051806274
 20
5624.05242764249
 11
762.966051806274
 21
5625.20712818087
 72
     1
 10
762.966051806274
 20
5625.20712818087
 11
762.966051806274
 21
5622.897727104111
 72
     1
 10
762.966051806274
 20
5622.897727104111
 11
764.966051806274
 21
5624.05242764249
 97
        3
330
AE
330
11F
330
120
 75
     1
 76
     0
 52
45.0
 41
0.1
 77
     0
 78
     1
 53
45.0
 43
0.0
 44
0.0
 45
-0.0707106781186548
 46
0.0707106781186548
 79
     0
 98
        1
 10
0.0
 20
0.0
  0
ENDBLK
  5
40
330
3D
100
AcDbEntity
  8
0
100
AcDbBlockEnd
  0
BLOCK
  5
6C
330
62
100
AcDbEntity
  8
0
100
AcDbBlockBegin
  2
*D04
 70
     1
 71
     0
 10
0.0
 20
0.0
 30
0.0
  3
*D04
  1

  0
LINE
  5
63
330
62
100
AcDbEntity
  8
1
  6
CONTINUOUS
 62
     2
100
AcDbLine
 10
623.5976692270788
 20
5331.600186195588
 30
0.0
 11
713.5976692270788
 21
5331.600186195588
 31
0.0
  0
LINE
  5
64
330
62
100
AcDbEntity
  8
1
  6
CONTINUOUS
 62
     2
100
AcDbLine
 10
713.5976692270788
 20
5375.17692281341
 30
0.0
 11
713.5976692270788
 21
5327.600186195588
 31
0.0
  0
LINE
  5
65
330
62
100
AcDbEntity
  8
1
  6
CONTINUOUS
 62
     2
100
AcDbLine
 10
623.5976692270788
 20
5443.67692281341
 30
0.0
 11
623.5976692270788
 21
5327.600186195588
 31
0.0
  0
LINE
  5
66
330
62
100
AcDbEntity
  8
1
 62
     2
100
AcDbLine
 10
623.5976692270788
 20
5331.600186195588
 30
0.0
 11
632.5576692270788
 21
5334.001010959772
 31
0.0
  0
LINE
  5
67
330
62
100
AcDbEntity
  8
1
 62
     2
100
AcDbLine
 10
623.5976692270788
 20
5331.600186195588
 30
0.0
 11
632.5576692270788
 21
5329.199361431405
 31
0.0
  0
LINE
  5
68
330
62
100
AcDbEntity
  8
1
 62
     2
100
AcDbLine
 10
713.5976692270788
 20
5331.600186195588
 30
0.0
 11
704.6376692270787
 21
5329.199361431405
 31
0.0
  0
LINE
  5
69
330
62
100
AcDbEntity
  8
1
 62
     2
100
AcDbLine
 10
713.5976692270788
 20
5331.600186195588
 30
0.0
 11
704.6376692270787
 21
5334.001010959772
 31
0.0
  0
MTEXT
  5
6B
330
62
100
AcDbEntity
  8
1
 62
     3
100
AcDbMText
 10
662.5766216923223
 20
5335.600186195588
 30
0.0
 40
12.8
 41
0.0
 71
     7
 72
     1
  1
90
  7
CONVERTER_1
 11
0.9999999999970621
 21
2.424068405545307E-6
 31
0.0
1001
ACAD
1000
MTEXTBEGIN
1070
    44
1040
0.60024009603842
1000
MTEXTEND
  0
ENDBLK
  5
6D
330
62
100
AcDbEntity
  8
0
100
AcDbBlockEnd
  0
BLOCK
  5
6F
330
6E
100
AcDbEntity
  8
0
100
AcDbBlockBegin
  2
_OPEN30
 70
     0
 71
     0
 10
0.0
 20
0.0
 30
0.0
  3
_OPEN30
  1

  0
LINE
  5
71
330
6E
100
AcDbEntity
  8
0
  6
BYBLOCK
 62
     0
100
AcDbLine
 10
-1.0
 20
0.267949
 30
0.0
 11
0.0
 21
0.0
 31
0.0
  0
LINE
  5
72
330
6E
100
AcDbEntity
  8
0
  6
BYBLOCK
 62
     0
100
AcDbLine
 10
0.0
 20
0.0
 30
0.0
 11
-1.0
 21
-0.267949
 31
0.0
  0
LINE
  5
73
330
6E
100
AcDbEntity
  8
0
  6
BYBLOCK
 62
     0
100
AcDbLine
 10
0.0
 20
0.0
 30
0.0
 11
-1.0
 21
0.0
 31
0.0
  0
ENDBLK
  5
70
330
6E
100
AcDbEntity
  8
0
100
AcDbBlockEnd
  0
BLOCK
  5
80
330
76
100
AcDbEntity
  8
0
100
AcDbBlockBegin
  2
*D16
 70
     1
 71
     0
 10
0.0
 20
0.0
 30
0.0
  3
*D16
  1

  0
LINE
  5
77
330
76
100
AcDbEntity
  8
1
  6
CONTINUOUS
 62
     2
100
AcDbLine
 10
814.8772622491401
 20
5414.17692281341
 30
0.0
 11
814.8772622491401
 21
6014.17692281341
 31
0.0
  0
LINE
  5
78
330
76
100
AcDbEntity
  8
1
  6
CONTINUOUS
 62
     2
100
AcDbLine
 10
783.4330153591022
 20
5414.17692281341
 30
0.0
 11
818.8772622491401
 21
5414.17692281341
 31
0.0
  0
LINE
  5
79
330
76
100
AcDbEntity
  8
1
  6
CONTINUOUS
 62
     2
100
AcDbLine
 10
752.4087310818286
 20
5414.17692281341
 30
0.0
 11
766.7370316358861
 21
5414.17692281341
 31
0.0
  0
LINE
  5
7A
330
76
100
AcDbEntity
  8
1
  6
CONTINUOUS
 62
     2
100
AcDbLine
 10
752.4087310818286
 20
6014.17692281341
 30
0.0
 11
818.8772622491401
 21
6014.17692281341
 31
0.0
  0
LINE
  5
7B
330
76
100
AcDbEntity
  8
1
 62
     2
100
AcDbLine
 10
814.8772622491401
 20
6014.17692281341
 30
0.0
 11
817.278087013323
 21
6005.21692281341
 31
0.0
  0
LINE
  5
7C
330
76
100
AcDbEntity
  8
1
 62
     2
100
AcDbLine
 10
814.8772622491401
 20
6014.17692281341
 30
0.0
 11
812.4764374849573
 21
6005.21692281341
 31
0.0
  0
LINE
  5
7D
330
76
100
AcDbEntity
  8
1
 62
     2
100
AcDbLine
 10
814.8772622491401
 20
5414.17692281341
 30
0.0
 11
812.4764374849573
 21
5423.13692281341
 31
0.0
  0
LINE
  5
7E
330
76
100
AcDbEntity
  8
1
 62
     2
100
AcDbLine
 10
814.8772622491401
 20
5414.17692281341
 30
0.0
 11
817.278087013323
 21
5423.13692281341
 31
0.0
  0
MTEXT
  5
7F
330
76
100
AcDbEntity
  8
1
 62
     3
100
AcDbMText
 10
810.8772622491401
 20
5709.529703168078
 30
0.0
 40
12.8
 41
0.0
 71
     7
 72
     1
  1
W
  7
CONVERTER_1
 11
0.0
 21
1.0
 31
0.0
1001
ACAD
1000
MTEXTBEGIN
1070
    44
1040
0.60024009603842
1000
MTEXTEND
  0
ENDBLK
  5
81
330
76
100
AcDbEntity
  8
0
100
AcDbBlockEnd
  0
BLOCK
  5
8E
330
84
100
AcDbEntity
  8
0
100
AcDbBlockBegin
  2
*D27
 70
     1
 71
     0
 10
0.0
 20
0.0
 30
0.0
  3
*D27
  1

  0
LINE
  5
85
330
84
100
AcDbEntity
  8
1
  6
CONTINUOUS
 62
     2
100
AcDbLine
 10
623.5976692270788
 20
5704.668590104378
 30
0.0
 11
656.5976692270788
 21
5704.668590104378
 31
0.0
  0
LINE
  5
86
330
84
100
AcDbEntity
  8
1
  6
CONTINUOUS
 62
     2
100
AcDbLine
 10
623.5976692270788
 20
5704.668590104378
 30
0.0
 11
578.2362070535033
 21
5704.668590104378
 31
0.0
  0
LINE
  5
87
330
84
100
AcDbEntity
  8
1
  6
CONTINUOUS
 62
     2
100
AcDbLine
 10
623.5976692270788
 20
5951.67692281341
 30
0.0
 11
623.5976692270788
 21
5700.668590104378
 31
0.0
  0
LINE
  5
88
330
84
100
AcDbEntity
  8
1
  6
CONTINUOUS
 62
     2
100
AcDbLine
 10
656.5976692270788
 20
5951.67692281341
 30
0.0
 11
656.5976692270788
 21
5700.668590104378
 31
0.0
  0
LINE
  5
89
330
84
100
AcDbEntity
  8
1
 62
     2
100
AcDbLine
 10
656.5976692270788
 20
5704.668590104378
 30
0.0
 11
647.6376692270787
 21
5702.267765340195
 31
0.0
  0
LINE
  5
8A
330
84
100
AcDbEntity
  8
1
 62
     2
100
AcDbLine
 10
656.5976692270788
 20
5704.668590104378
 30
0.0
 11
647.6376692270787
 21
5707.069414868562
 31
0.0
  0
LINE
  5
8B
330
84
100
AcDbEntity
  8
1
 62
     2
100
AcDbLine
 10
623.5976692270788
 20
5704.668590104378
 30
0.0
 11
632.5576692270788
 21
5707.069414868562
 31
0.0
  0
LINE
  5
8C
330
84
100
AcDbEntity
  8
1
 62
     2
100
AcDbLine
 10
623.5976692270788
 20
5704.668590104378
 30
0.0
 11
632.5576692270788
 21
5702.267765340195
 31
0.0
  0
MTEXT
  5
8D
330
84
100
AcDbEntity
  8
1
 62
     3
100
AcDbMText
 10
569.916207053565
 20
5708.668539218334
 30
0.0
 40
12.8
 41
0.0
 71
     7
 72
     1
  1
\C3;{\Fgdt;n}\C3;33
  7
CONVERTER_1
 11
0.9999999999970621
 21
2.424068405545307E-6
 31
0.0
1001
ACAD
1000
MTEXTBEGIN
1070
    44
1040
0.60024009603842
1000
MTEXTEND
  0
ENDBLK
  5
8F
330
84
100
AcDbEntity
  8
0
100
AcDbBlockEnd
  0
BLOCK
  5
9B
330
92
100
AcDbEntity
  8
0
100
AcDbBlockBegin
  2
*D38
 70
     1
 71
     0
 10
0.0
 20
0.0
 30
0.0
  3
*D38
  1

  0
LINE
  5
93
330
92
100
AcDbEntity
  8
1
  6
CONTINUOUS
 62
     2
100
AcDbLine
 10
784.6480129647534
 20
5379.17692281341
 30
0.0
 11
784.6480129647534
 21
5449.17692281341
 31
0.0
  0
LINE
  5
94
330
92
100
AcDbEntity
  8
1
  6
CONTINUOUS
 62
     2
100
AcDbLine
 10
717.5976692270788
 20
5379.17692281341
 30
0.0
 11
788.6480129647534
 21
5379.17692281341
 31
0.0
  0
LINE
  5
95
330
92
100
AcDbEntity
  8
1
  6
CONTINUOUS
 62
     2
100
AcDbLine
 10
717.5976692270788
 20
5449.17692281341
 30
0.0
 11
788.6480129647534
 21
5449.17692281341
 31
0.0
  0
LINE
  5
96
330
92
100
AcDbEntity
  8
1
 62
     2
100
AcDbLine
 10
784.6480129647534
 20
5449.17692281341
 30
0.0
 11
787.0488377289363
 21
5440.21692281341
 31
0.0
  0
LINE
  5
97
330
92
100
AcDbEntity
  8
1
 62
     2
100
AcDbLine
 10
784.6480129647534
 20
5449.17692281341
 30
0.0
 11
782.2471882005706
 21
5440.21692281341
 31
0.0
  0
LINE
  5
98
330
92
100
AcDbEntity
  8
1
 62
     2
100
AcDbLine
 10
784.6480129647534
 20
5379.17692281341
 30
0.0
 11
782.2471882005706
 21
5388.13692281341
 31
0.0
  0
LINE
  5
99
330
92
100
AcDbEntity
  8
1
 62
     2
100
AcDbLine
 10
784.6480129647534
 20
5379.17692281341
 30
0.0
 11
787.0488377289363
 21
5388.13692281341
 31
0.0
  0
MTEXT
  5
9A
330
92
100
AcDbEntity
  8
1
 62
     3
100
AcDbMText
 10
781.7430101621593
 20
5394.931202068157
 30
0.0
 40
12.8
 41
0.0
 71
     7
 72
     1
  1
\C3;{\Fgdt;n}\C3;70
  7
CONVERTER_1
 11
0.0
 21
1.0
 31
0.0
1001
ACAD
1000
MTEXTBEGIN
1070
    44
1040
0.60024009603842
1000
MTEXTEND
  0
ENDBLK
  5
9C
330
92
100
AcDbEntity
  8
0
100
AcDbBlockEnd
  0
ENDSEC
  0
SECTION
  2
ENTITIES
  0
INSERT
  5
41
330
1F
100
AcDbEntity
  8
1
100
AcDbBlockReference
  2
_1__S
 10
799.5450808259591
 20
5600.563356683974
 30
0.0
 41
0.25
 42
0.25
 43
0.25
  0
INSERT
  5
42
330
1F
100
AcDbEntity
  8
0
100
AcDbBlockReference
  2
FRAME
 10
733.966051806274
 20
5477.05242764249
 30
0.0
  0
LINE
  5
14D
330
1F
100
AcDbEntity
  8
1
  6
CONTINUOUS
 62
     2
100
AcDbLine
 10
902.4362762124263
 20
5698.61187389656
 30
0.0
 11
902.4362762124262
 21
5668.61187389656
 31
0.0
  0
LINE
  5
14E
330
1F
100
AcDbEntity
  8
1
  6
CONTINUOUS
 62
     2
100
AcDbLine
 10
902.4362762124262
 20
5668.61187389656
 30
0.0
 11
869.910556643466
 21
5668.61187389656
 31
0.0
  0
LINE
  5
14F
330
1F
100
AcDbEntity
  8
1
  6
CONTINUOUS
 62
     2
100
AcDbLine
 10
869.910556643466
 20
5698.61187389656
 30
0.0
 11
869.910556643466
 21
5668.61187389656
 31
0.0
  0
LINE
  5
150
330
1F
100
AcDbEntity
  8
1
  6
CONTINUOUS
 62
     2
100
AcDbLine
 10
869.9105566434661
 20
5692.61187389656
 30
0.0
 11
902.4362762124262
 21
5692.61187389656
 31
0.0
  0
LINE
  5
151
330
1F
100
AcDbEntity
  8
1
  6
CONTINUOUS
 62
     2
100
AcDbLine
 10
869.9105566434661
 20
5686.61187389656
 30
0.0
 11
902.4362762124262
 21
5686.61187389656
 31
0.0
  0
LINE
  5
152
330
1F
100
AcDbEntity
  8
1
  6
CONTINUOUS
 62
     2
100
AcDbLine
 10
869.9105566434661
 20
5680.61187389656
 30
0.0
 11
902.4362762124262
 21
5680.61187389656
 31
0.0
  0
LINE
  5
153
330
1F
100
AcDbEntity
  8
1
  6
CONTINUOUS
 62
     2
100
AcDbLine
 10
869.9105566434661
 20
5674.61187389656
 30
0.0
 11
902.4362762124262
 21
5674.61187389656
 31
0.0
  0
LINE
  5
154
330
1F
100
AcDbEntity
  8
1
  6
CONTINUOUS
 62
     2
100
AcDbLine
 10
869.9105566434661
 20
5656.01741135585
 30
0.0
 11
920.0367421617663
 21
5656.01741135585
 31
0.0
  0
LINE
  5
155
330
1F
100
AcDbEntity
  8
1
  6
CONTINUOUS
 62
     2
100
AcDbLine
 10
869.9105566434661
 20
5650.01741135585
 30
0.0
 11
920.0367421617663
 21
5650.01741135585
 31
0.0
  0
LINE
  5
156
330
1F
100
AcDbEntity
  8
1
  6
CONTINUOUS
 62
     2
100
AcDbLine
 10
869.9105566434661
 20
5644.01741135585
 30
0.0
 11
920.0367421617663
 21
5644.01741135585
 31
0.0
  0
LINE
  5
157
330
1F
100
AcDbEntity
  8
1
  6
CONTINUOUS
 62
     2
100
AcDbLine
 10
869.9105566434661
 20
5638.01741135585
 30
0.0
 11
920.0367421617663
 21
5638.01741135585
 31
0.0
  0
LINE
  5
158
330
1F
100
AcDbEntity
  8
1
  6
CONTINUOUS
 62
     2
100
AcDbLine
 10
869.9105566434661
 20
5632.01741135585
 30
0.0
 11
920.0367421617663
 21
5632.01741135585
 31
0.0
  0
LINE
  5
159
330
1F
100
AcDbEntity
  8
1
  6
CONTINUOUS
 62
     2
100
AcDbLine
 10
869.910556643466
 20
5698.61187389656
 30
0.0
 11
902.4362762124263
 21
5698.61187389656
 31
0.0
  0
LINE
  5
15A
330
1F
100
AcDbEntity
  8
1
  6
CONTINUOUS
 62
     2
100
AcDbLine
 10
902.4362762124262
 20
5656.01741135585
 30
0.0
 11
902.4362762124262
 21
5632.01741135585
 31
0.0
  0
LINE
  5
15B
330
1F
100
AcDbEntity
  8
1
  6
CONTINUOUS
 62
     2
100
AcDbLine
 10
920.0367421617663
 20
5656.01741135585
 30
0.0
 11
920.0367421617663
 21
5632.01741135585
 31
0.0
  0
LINE
  5
15C
330
1F
100
AcDbEntity
  8
1
  6
CONTINUOUS
 62
     2
100
AcDbLine
 10
869.9105566434661
 20
5632.01741135585
 30
0.0
 11
869.9105566434661
 21
5656.01741135585
 31
0.0
  0
MTEXT
  5
15D
330
1F
100
AcDbEntity
  8
1
 62
     3
100
AcDbMText
 10
885.6982037990321
 20
5689.66129161261
 30
0.0
 40
3.2
 41
0.0
 71
     5
 72
     1
  1
ホワイト(99)
  7
CONVERTER_3
1001
ACAD
1000
MTEXTBEGIN
1070
    44
1040
1.65041260315079
1000
MTEXTEND
  0
MTEXT
  5
15E
330
1F
100
AcDbEntity
  8
1
 62
     3
100
AcDbMText
 10
885.6982037990321
 20
5683.66129161261
 30
0.0
 40
3.2
 41
0.0
 71
     5
 72
     1
  1
ブラック(90)
  7
CONVERTER_3
1001
ACAD
1000
MTEXTBEGIN
1070
    44
1040
1.65041260315079
1000
MTEXTEND
  0
MTEXT
  5
15F
330
1F
100
AcDbEntity
  8
1
 62
     3
100
AcDbMText
 10
885.6982037990321
 20
5677.66129161261
 30
0.0
 40
3.2
 41
0.0
 71
     5
 72
     1
  1
イエロー(13)
  7
CONVERTER_3
1001
ACAD
1000
MTEXTBEGIN
1070
    44
1040
1.65041260315079
1000
MTEXTEND
  0
MTEXT
  5
160
330
1F
100
AcDbEntity
  8
1
 62
     3
100
AcDbMText
 10
885.6982037990321
 20
5671.66129161261
 30
0.0
 40
3.2
 41
0.0
 71
     5
 72
     1
  1
レッド(33)
  7
CONVERTER_3
1001
ACAD
1000
MTEXTBEGIN
1070
    44
1040
1.65041260315079
1000
MTEXTEND
  0
MTEXT
  5
161
330
1F
100
AcDbEntity
  8
1
 62
     3
100
AcDbMText
 10
885.6982037990321
 20
5695.66129161261
 30
0.0
 40
3.2
 41
0.0
 71
     5
 72
     1
  1
色
  7
CONVERTER_3
1001
ACAD
1000
MTEXTBEGIN
1070
    44
1040
1.65041260315079
1000
MTEXTEND
  0
MTEXT
  5
162
330
1F
100
AcDbEntity
  8
1
 62
     3
100
AcDbMText
 10
886.0331208718761
 20
5647.0668290719
 30
0.0
 40
3.2
 41
0.0
 71
     5
 72
     1
  1
801-36-130
  7
CONVERTER_1
1001
ACAD
1000
MTEXTBEGIN
1070
    44
1040
1.32052821128451
1000
MTEXTEND
  0
MTEXT
  5
163
330
1F
100
AcDbEntity
  8
1
 62
     3
100
AcDbMText
 10
911.4161057784162
 20
5647.0668290719
 30
0.0
 40
3.2
 41
0.0
 71
     5
 72
     1
  1
600
  7
CONVERTER_1
1001
ACAD
1000
MTEXTBEGIN
1070
    44
1040
1.32052821128451
1000
MTEXTEND
  0
MTEXT
  5
164
330
1F
100
AcDbEntity
  8
1
 62
     3
100
AcDbMText
 10
886.0331208718761
 20
5641.0668290719
 30
0.0
 40
3.2
 41
0.0
 71
     5
 72
     1
  1
801-36-140
  7
CONVERTER_1
1001
ACAD
1000
MTEXTBEGIN
1070
    44
1040
1.32052821128451
1000
MTEXTEND
  0
MTEXT
  5
165
330
1F
100
AcDbEntity
  8
1
 62
     3
100
AcDbMText
 10
911.4161057784162
 20
5641.0668290719
 30
0.0
 40
3.2
 41
0.0
 71
     5
 72
     1
  1
900
  7
CONVERTER_1
1001
ACAD
1000
MTEXTBEGIN
1070
    44
1040
1.32052821128451
1000
MTEXTEND
  0
MTEXT
  5
166
330
1F
100
AcDbEntity
  8
1
 62
     3
100
AcDbMText
 10
886.0331208718761
 20
5635.0668290719
 30
0.0
 40
3.2
 41
0.0
 71
     5
 72
     1
  1
801-36-150
  7
CONVERTER_1
1001
ACAD
1000
MTEXTBEGIN
1070
    44
1040
1.32052821128451
1000
MTEXTEND
  0
MTEXT
  5
167
330
1F
100
AcDbEntity
  8
1
 62
     3
100
AcDbMText
 10
911.4161057784162
 20
5635.0668290719
 30
0.0
 40
3.2
 41
0.0
 71
     5
 72
     1
  1
1100
  7
CONVERTER_1
1001
ACAD
1000
MTEXTBEGIN
1070
    44
1040
1.32052821128451
1000
MTEXTEND
  0
MTEXT
  5
168
330
1F
100
AcDbEntity
  8
1
 62
     3
100
AcDbMText
 10
886.0331208718761
 20
5653.0668290719
 30
0.0
 40
3.2
 41
0.0
 71
     5
 72
     1
  1
コードNo.
  7
CONVERTER_3
1001
ACAD
1000
MTEXTBEGIN
1070
    44
1040
1.65041260315079
1000
MTEXTEND
  0
MTEXT
  5
169
330
1F
100
AcDbEntity
  8
1
 62
     3
100
AcDbMText
 10
911.4161057784162
 20
5653.0668290719
 30
0.0
 40
3.2
 41
0.0
 71
     5
 72
     1
  1
W
  7
CONVERTER_1
1001
ACAD
1000
MTEXTBEGIN
1070
    44
1040
1.32052821128451
1000
MTEXTEND
  0
ENDSEC
  0
SECTION
  2
OBJECTS
  0
DICTIONARY
  5
C
330
0
100
AcDbDictionary
  3
ACAD_GROUP
350
D
  3
ACAD_LAYOUT
350
1A
  3
ACAD_MLINESTYLE
350
17
  3
ACAD_PLOTSETTINGS
350
19
  3
ACAD_TABLESTYLE
350
2A
  3
ACDBHEADERROUNDTRIPXREC
350
16A
  3
ACDBVARIABLEDICTIONARY
350
2C
  0
DICTIONARY
  5
18A
330
29
100
AcDbDictionary
280
     1
  3
ACAD_XREC_ROUNDTRIP
360
18B
  0
DICTIONARY
  5
D
102
{ACAD_REACTORS
330
C
102
}
330
C
100
AcDbDictionary
  0
DICTIONARY
  5
1A
102
{ACAD_REACTORS
330
C
102
}
330
C
100
AcDbDictionary
  0
DICTIONARY
  5
17
102
{ACAD_REACTORS
330
C
102
}
330
C
100
AcDbDictionary
  3
STANDARD
350
18
  0
DICTIONARY
  5
19
102
{ACAD_REACTORS
330
C
102
}
330
C
100
AcDbDictionary
  0
DICTIONARY
  5
2A
102
{ACAD_REACTORS
330
C
102
}
330
C
100
AcDbDictionary
  3
STANDARD
350
2B
  0
DICTIONARY
  5
16A
102
{ACAD_REACTORS
330
C
102
}
330
C
100
AcDbDictionary
  3
CEPSNTYPE
350
173
  3
DIMSTYLEDATA
350
189
  3
FINGERPRINTGUID
350
174
  3
HYPERLINKBASE
350
16D
  3
INSUNITS
350
172
  3
LAYOUTDICT
350
16F
  3
LWETCUNION
350
171
  3
PLOTSETDICT
350
170
  3
PSVPSCALE
350
176
  3
PUCSBASE
350
179
  3
PUCSORGBACK
350
17F
  3
PUCSORGBOTTOM
350
17B
  3
PUCSORGFRONT
350
17E
  3
PUCSORGLEFT
350
17C
  3
PUCSORGRIGHT
350
17D
  3
PUCSORGTOP
350
17A
  3
PUCSORTHOREF
350
177
  3
PUCSORTHOVIEW
350
178
  3
STYLESHEET
350
16E
  3
TSTACKALIGN
350
16B
  3
TSTACKSIZE
350
16C
  3
UCSBASE
350
182
  3
UCSORGBACK
350
188
  3
UCSORGBOTTOM
350
184
  3
UCSORGFRONT
350
187
  3
UCSORGLEFT
350
185
  3
UCSORGRIGHT
350
186
  3
UCSORGTOP
350
183
  3
UCSORTHOREF
350
180
  3
UCSORTHOVIEW
350
181
  3
VERSIONGUID
350
175
  0
DICTIONARY
  5
2C
102
{ACAD_REACTORS
330
C
102
}
330
C
100
AcDbDictionary
  3
CTABLESTYLE
350
2D
  0
XRECORD
  5
18B
102
{ACAD_REACTORS
330
18A
102
}
330
18A
100
AcDbXrecord
102
UCS
 74
     0
 71
     1
 10
0.0
 20
0.0
 30
0.0
 10
1.0
 20
0.0
 30
0.0
 10
0.0
 20
1.0
 30
0.0
146
0.0
 79
     0
102
VIEW
281
     0
  0
MLINESTYLE
  5
18
102
{ACAD_REACTORS
330
17
102
}
330
17
100
AcDbMlineStyle
  2
Standard
 70
     0
  3

 62
   256
 51
90.0
 52
90.0
 71
     2
 49
0.5
 62
   256
  6
BYLAYER
 49
-0.5
 62
   256
  6
BYLAYER
  0
TABLESTYLE
  5
2B
102
{ACAD_REACTORS
330
2A
102
}
330
2A
100
AcDbTableStyle
  3
Standard
 70
     0
 71
     0
 40
0.06
 41
0.06
280
     0
281
     0
  7
STANDARD
140
0.18
170
     2
 62
     0
 63
     7
283
     0
274
    -2
284
     1
 64
     0
275
    -2
285
     1
 65
     0
276
    -2
286
     1
 66
     0
277
    -2
287
     1
 67
     0
278
    -2
288
     1
 68
     0
279
    -2
289
     1
 69
     0
  7
STANDARD
140
0.25
170
     5
 62
     0
 63
     7
283
     0
274
    -2
284
     1
 64
     0
275
    -2
285
     1
 65
     0
276
    -2
286
     1
 66
     0
277
    -2
287
     1
 67
     0
278
    -2
288
     1
 68
     0
279
    -2
289
     1
 69
     0
  7
STANDARD
140
0.18
170
     5
 62
     0
 63
     7
283
     0
274
    -2
284
     1
 64
     0
275
    -2
285
     1
 65
     0
276
    -2
286
     1
 66
     0
277
    -2
287
     1
 67
     0
278
    -2
288
     1
 68
     0
279
    -2
289
     1
 69
     0
  0
XRECORD
  5
173
102
{ACAD_REACTORS
330
16A
102
}
330
16A
100
AcDbXrecord
 90
        0
  0
XRECORD
  5
189
102
{ACAD_REACTORS
330
16A
102
}
330
16A
100
AcDbXrecord
1000
DSTYLE
1002
{
1070
   171
 70
     2
1070
   143
 40
25.4
1070
   274
 70
     2
1070
    41
 40
0.18
1070
   141
 40
0.09
1070
   271
 70
     4
1070
    43
 40
0.38
1070
    44
 40
0.18
1070
   278
 70
    46
1070
    42
 40
0.0625
1070
   147
 40
0.09
1070
    77
 70
     0
1070
   272
 70
     4
1070
    73
 70
     1
1070
   172
 70
     0
1070
    74
 70
     1
1070
   283
 70
     1
1070
   340
340
11
1070
   140
 40
0.18
1070
   284
 70
     0
1070
    78
 70
     0
1002
}
  0
XRECORD
  5
174
102
{ACAD_REACTORS
330
16A
102
}
330
16A
100
AcDbXrecord
  1
{FAEB1C30-E019-11D5-929B-00C0DF256EC4}
  0
XRECORD
  5
16D
102
{ACAD_REACTORS
330
16A
102
}
330
16A
100
AcDbXrecord
  1

  0
XRECORD
  5
172
102
{ACAD_REACTORS
330
16A
102
}
330
16A
100
AcDbXrecord
 90
        1
  0
XRECORD
  5
16F
102
{ACAD_REACTORS
330
16A
102
}
330
16A
100
AcDbXrecord
340
1A
  0
XRECORD
  5
171
102
{ACAD_REACTORS
330
16A
102
}
330
16A
100
AcDbXrecord
 90
     2560
  0
XRECORD
  5
170
102
{ACAD_REACTORS
330
16A
102
}
330
16A
100
AcDbXrecord
340
19
  0
XRECORD
  5
176
102
{ACAD_REACTORS
330
16A
102
}
330
16A
100
AcDbXrecord
 40
0.0
  0
XRECORD
  5
179
102
{ACAD_REACTORS
330
16A
102
}
330
16A
100
AcDbXrecord
340
0
  0
XRECORD
  5
17F
102
{ACAD_REACTORS
330
16A
102
}
330
16A
100
AcDbXrecord
 10
0.0
 20
0.0
 30
0.0
  0
XRECORD
  5
17B
102
{ACAD_REACTORS
330
16A
102
}
330
16A
100
AcDbXrecord
 10
0.0
 20
0.0
 30
0.0
  0
XRECORD
  5
17E
102
{ACAD_REACTORS
330
16A
102
}
330
16A
100
AcDbXrecord
 10
0.0
 20
0.0
 30
0.0
  0
XRECORD
  5
17C
102
{ACAD_REACTORS
330
16A
102
}
330
16A
100
AcDbXrecord
 10
0.0
 20
0.0
 30
0.0
  0
XRECORD
  5
17D
102
{ACAD_REACTORS
330
16A
102
}
330
16A
100
AcDbXrecord
 10
0.0
 20
0.0
 30
0.0
  0
XRECORD
  5
17A
102
{ACAD_REACTORS
330
16A
102
}
330
16A
100
AcDbXrecord
 10
0.0
 20
0.0
 30
0.0
  0
XRECORD
  5
177
102
{ACAD_REACTORS
330
16A
102
}
330
16A
100
AcDbXrecord
340
0
  0
XRECORD
  5
178
102
{ACAD_REACTORS
330
16A
102
}
330
16A
100
AcDbXrecord
 70
     0
  0
XRECORD
  5
16E
102
{ACAD_REACTORS
330
16A
102
}
330
16A
100
AcDbXrecord
  1

  0
XRECORD
  5
16B
102
{ACAD_REACTORS
330
16A
102
}
330
16A
100
AcDbXrecord
 90
        1
  0
XRECORD
  5
16C
102
{ACAD_REACTORS
330
16A
102
}
330
16A
100
AcDbXrecord
 90
       70
  0
XRECORD
  5
182
102
{ACAD_REACTORS
330
16A
102
}
330
16A
100
AcDbXrecord
340
0
  0
XRECORD
  5
188
102
{ACAD_REACTORS
330
16A
102
}
330
16A
100
AcDbXrecord
 10
0.0
 20
0.0
 30
0.0
  0
XRECORD
  5
184
102
{ACAD_REACTORS
330
16A
102
}
330
16A
100
AcDbXrecord
 10
0.0
 20
0.0
 30
0.0
  0
XRECORD
  5
187
102
{ACAD_REACTORS
330
16A
102
}
330
16A
100
AcDbXrecord
 10
0.0
 20
0.0
 30
0.0
  0
XRECORD
  5
185
102
{ACAD_REACTORS
330
16A
102
}
330
16A
100
AcDbXrecord
 10
0.0
 20
0.0
 30
0.0
  0
XRECORD
  5
186
102
{ACAD_REACTORS
330
16A
102
}
330
16A
100
AcDbXrecord
 10
0.0
 20
0.0
 30
0.0
  0
XRECORD
  5
183
102
{ACAD_REACTORS
330
16A
102
}
330
16A
100
AcDbXrecord
 10
0.0
 20
0.0
 30
0.0
  0
XRECORD
  5
180
102
{ACAD_REACTORS
330
16A
102
}
330
16A
100
AcDbXrecord
340
0
  0
XRECORD
  5
181
102
{ACAD_REACTORS
330
16A
102
}
330
16A
100
AcDbXrecord
 70
     0
  0
XRECORD
  5
175
102
{ACAD_REACTORS
330
16A
102
}
330
16A
100
AcDbXrecord
  1
{FAEB1C32-E019-11D5-929B-00C0DF256EC4}
  0
DICTIONARYVAR
  5
2D
102
{ACAD_REACTORS
330
2C
102
}
330
2C
100
DictionaryVariables
280
     0
  1
Standard
  0
ENDSEC
  0
EOF
