  0
SECTION
  2
HEADER
  9
$ACADVER
  1
AC1015
  9
$ACADMAINTVER
 70
     6
  9
$DWGCODEPAGE
  3
DOS932
  9
$INSBASE
 10
0.0
 20
0.0
 30
0.0
  9
$EXTMIN
 10
0.0
 20
0.0
 30
0.0
  9
$EXTMAX
 10
1470.000441000133
 20
2079.000623700187
 30
0.0
  9
$LIMMIN
 10
0.0
 20
0.0
  9
$LIMMAX
 10
12.0
 20
9.0
  9
$ORTHOMODE
 70
     0
  9
$REGENMODE
 70
     1
  9
$FILLMODE
 70
     1
  9
$QTEXTMODE
 70
     0
  9
$MIRRTEXT
 70
     1
  9
$LTSCALE
 40
1.0
  9
$ATTMODE
 70
     1
  9
$TEXTSIZE
 40
0.2
  9
$TRACEWID
 40
0.05
  9
$TEXTSTYLE
  7
Standard
  9
$CLAYER
  8
0
  9
$CELTYPE
  6
ByLayer
  9
$CECOLOR
 62
   256
  9
$CELTSCALE
 40
1.0
  9
$DISPSILH
 70
     0
  9
$DIMSCALE
 40
1.0
  9
$DIMASZ
 40
0.18
  9
$DIMEXO
 40
0.0625
  9
$DIMDLI
 40
0.38
  9
$DIMRND
 40
0.0
  9
$DIMDLE
 40
0.0
  9
$DIMEXE
 40
0.18
  9
$DIMTP
 40
0.0
  9
$DIMTM
 40
0.0
  9
$DIMTXT
 40
0.18
  9
$DIMCEN
 40
0.09
  9
$DIMTSZ
 40
0.0
  9
$DIMTOL
 70
     0
  9
$DIMLIM
 70
     0
  9
$DIMTIH
 70
     1
  9
$DIMTOH
 70
     1
  9
$DIMSE1
 70
     0
  9
$DIMSE2
 70
     0
  9
$DIMTAD
 70
     0
  9
$DIMZIN
 70
     0
  9
$DIMBLK
  1

  9
$DIMASO
 70
     1
  9
$DIMSHO
 70
     1
  9
$DIMPOST
  1

  9
$DIMAPOST
  1

  9
$DIMALT
 70
     0
  9
$DIMALTD
 70
     2
  9
$DIMALTF
 40
25.4
  9
$DIMLFAC
 40
1.0
  9
$DIMTOFL
 70
     0
  9
$DIMTVP
 40
0.0
  9
$DIMTIX
 70
     0
  9
$DIMSOXD
 70
     0
  9
$DIMSAH
 70
     0
  9
$DIMBLK1
  1

  9
$DIMBLK2
  1

  9
$DIMSTYLE
  2
Standard
  9
$DIMCLRD
 70
     0
  9
$DIMCLRE
 70
     0
  9
$DIMCLRT
 70
     0
  9
$DIMTFAC
 40
1.0
  9
$DIMGAP
 40
0.09
  9
$DIMJUST
 70
     0
  9
$DIMSD1
 70
     0
  9
$DIMSD2
 70
     0
  9
$DIMTOLJ
 70
     1
  9
$DIMTZIN
 70
     0
  9
$DIMALTZ
 70
     0
  9
$DIMALTTZ
 70
     0
  9
$DIMUPT
 70
     0
  9
$DIMDEC
 70
     4
  9
$DIMTDEC
 70
     4
  9
$DIMALTU
 70
     2
  9
$DIMALTTD
 70
     2
  9
$DIMTXSTY
  7
Standard
  9
$DIMAUNIT
 70
     0
  9
$DIMADEC
 70
     0
  9
$DIMALTRND
 40
0.0
  9
$DIMAZIN
 70
     0
  9
$DIMDSEP
 70
    46
  9
$DIMATFIT
 70
     3
  9
$DIMFRAC
 70
     0
  9
$DIMLDRBLK
  1

  9
$DIMLUNIT
 70
     2
  9
$DIMLWD
 70
    -2
  9
$DIMLWE
 70
    -2
  9
$DIMTMOVE
 70
     0
  9
$LUNITS
 70
     2
  9
$LUPREC
 70
     4
  9
$SKETCHINC
 40
0.1
  9
$FILLETRAD
 40
0.5
  9
$AUNITS
 70
     0
  9
$AUPREC
 70
     0
  9
$MENU
  1
.
  9
$ELEVATION
 40
0.0
  9
$PELEVATION
 40
0.0
  9
$THICKNESS
 40
0.0
  9
$LIMCHECK
 70
     0
  9
$CHAMFERA
 40
0.5
  9
$CHAMFERB
 40
0.5
  9
$CHAMFERC
 40
1.0
  9
$CHAMFERD
 40
0.0
  9
$SKPOLY
 70
     0
  9
$TDCREATE
 40
2456142.383682361
  9
$TDUCREATE
 40
2456142.008682361
  9
$TDUPDATE
 40
2456142.383682373
  9
$TDUUPDATE
 40
2456142.008682373
  9
$TDINDWG
 40
0.0000000116
  9
$TDUSRTIMER
 40
0.0000000116
  9
$USRTIMER
 70
     1
  9
$ANGBASE
 50
0.0
  9
$ANGDIR
 70
     0
  9
$PDMODE
 70
     0
  9
$PDSIZE
 40
0.0
  9
$PLINEWID
 40
0.0
  9
$SPLFRAME
 70
     0
  9
$SPLINETYPE
 70
     6
  9
$SPLINESEGS
 70
     8
  9
$HANDSEED
  5
1C2
  9
$SURFTAB1
 70
     6
  9
$SURFTAB2
 70
     6
  9
$SURFTYPE
 70
     6
  9
$SURFU
 70
     6
  9
$SURFV
 70
     6
  9
$UCSBASE
  2

  9
$UCSNAME
  2

  9
$UCSORG
 10
0.0
 20
0.0
 30
0.0
  9
$UCSXDIR
 10
1.0
 20
0.0
 30
0.0
  9
$UCSYDIR
 10
0.0
 20
1.0
 30
0.0
  9
$UCSORTHOREF
  2

  9
$UCSORTHOVIEW
 70
     0
  9
$UCSORGTOP
 10
0.0
 20
0.0
 30
0.0
  9
$UCSORGBOTTOM
 10
0.0
 20
0.0
 30
0.0
  9
$UCSORGLEFT
 10
0.0
 20
0.0
 30
0.0
  9
$UCSORGRIGHT
 10
0.0
 20
0.0
 30
0.0
  9
$UCSORGFRONT
 10
0.0
 20
0.0
 30
0.0
  9
$UCSORGBACK
 10
0.0
 20
0.0
 30
0.0
  9
$PUCSBASE
  2

  9
$PUCSNAME
  2

  9
$PUCSORG
 10
0.0
 20
0.0
 30
0.0
  9
$PUCSXDIR
 10
1.0
 20
0.0
 30
0.0
  9
$PUCSYDIR
 10
0.0
 20
1.0
 30
0.0
  9
$PUCSORTHOREF
  2

  9
$PUCSORTHOVIEW
 70
     0
  9
$PUCSORGTOP
 10
0.0
 20
0.0
 30
0.0
  9
$PUCSORGBOTTOM
 10
0.0
 20
0.0
 30
0.0
  9
$PUCSORGLEFT
 10
0.0
 20
0.0
 30
0.0
  9
$PUCSORGRIGHT
 10
0.0
 20
0.0
 30
0.0
  9
$PUCSORGFRONT
 10
0.0
 20
0.0
 30
0.0
  9
$PUCSORGBACK
 10
0.0
 20
0.0
 30
0.0
  9
$USERI1
 70
     0
  9
$USERI2
 70
     0
  9
$USERI3
 70
     0
  9
$USERI4
 70
     0
  9
$USERI5
 70
     0
  9
$USERR1
 40
13.2
  9
$USERR2
 40
0.0
  9
$USERR3
 40
0.0
  9
$USERR4
 40
0.0
  9
$USERR5
 40
0.0
  9
$WORLDVIEW
 70
     1
  9
$SHADEDGE
 70
     3
  9
$SHADEDIF
 70
    70
  9
$TILEMODE
 70
     1
  9
$MAXACTVP
 70
    64
  9
$PINSBASE
 10
0.0
 20
0.0
 30
0.0
  9
$PLIMCHECK
 70
     0
  9
$PEXTMIN
 10
1.00000000000000E+20
 20
1.00000000000000E+20
 30
1.00000000000000E+20
  9
$PEXTMAX
 10
-1.00000000000000E+20
 20
-1.00000000000000E+20
 30
-1.00000000000000E+20
  9
$PLIMMIN
 10
0.0
 20
0.0
  9
$PLIMMAX
 10
12.0
 20
9.0
  9
$UNITMODE
 70
     0
  9
$VISRETAIN
 70
     1
  9
$PLINEGEN
 70
     0
  9
$PSLTSCALE
 70
     1
  9
$TREEDEPTH
 70
  3020
  9
$CMLSTYLE
  2
Standard
  9
$CMLJUST
 70
     0
  9
$CMLSCALE
 40
1.0
  9
$PROXYGRAPHICS
 70
     1
  9
$MEASUREMENT
 70
     1
  9
$CELWEIGHT
370
    -1
  9
$ENDCAPS
280
     0
  9
$JOINSTYLE
280
     0
  9
$LWDISPLAY
290
     0
  9
$INSUNITS
 70
     1
  9
$HYPERLINKBASE
  1

  9
$STYLESHEET
  1

  9
$XEDIT
290
     1
  9
$CEPSNTYPE
380
     0
  9
$PSTYLEMODE
290
     0
  9
$FINGERPRINTGUID
  2
{FAEB1C30-E019-11D5-929B-00C0DF256EC4}
  9
$VERSIONGUID
  2
{FAEB1C32-E019-11D5-929B-00C0DF256EC4}
  9
$EXTNAMES
290
     1
  9
$PSVPSCALE
 40
0.0
  9
$OLESTARTUP
290
     0
  0
ENDSEC
  0
SECTION
  2
CLASSES
  0
CLASS
  1
ACDBDICTIONARYWDFLT
  2
AcDbDictionaryWithDefault
  3
ObjectDBX Classes
 90
        0
280
     0
281
     0
  0
CLASS
  1
TABLESTYLE
  2
AcDbTableStyle
  3
ObjectDBX Classes
 90
     2047
280
     0
281
     0
  0
CLASS
  1
DICTIONARYVAR
  2
AcDbDictionaryVar
  3
ObjectDBX Classes
 90
        0
280
     0
281
     0
  0
CLASS
  1

  2
exOdDbCircle
  3

 90
        0
280
     0
281
     1
  0
CLASS
  1

  2
exOdDbSpline
  3

 90
        0
280
     0
281
     1
  0
CLASS
  1
ACDBPLACEHOLDER
  2
AcDbPlaceHolder
  3
ObjectDBX Classes
 90
        0
280
     0
281
     0
  0
CLASS
  1
LAYOUT
  2
AcDbLayout
  3
ObjectDBX Classes
 90
        0
280
     0
281
     0
  0
ENDSEC
  0
SECTION
  2
TABLES
  0
TABLE
  2
VPORT
  5
8
330
0
100
AcDbSymbolTable
 70
     2
  0
VPORT
  5
29
330
8
100
AcDbSymbolTableRecord
100
AcDbViewportTableRecord
  2
*Active
 70
     0
 10
0.0
 20
0.0
 11
1.0
 21
1.0
 12
735.0002205000665
 22
1039.500311850094
 13
0.0
 23
0.0
 14
0.5
 24
0.5
 15
0.5
 25
0.5
 16
0.0
 26
0.0
 36
1.0
 17
0.0
 27
0.0
 37
0.0
 40
2286.900686070206
 41
1.60267857142857
 42
50.0
 43
0.0
 44
0.0
 50
0.0
 51
0.0
 71
     0
 72
   100
 73
     1
 74
     3
 75
     0
 76
     0
 77
     0
 78
     0
281
     0
 65
     1
110
0.0
120
0.0
130
0.0
111
1.0
121
0.0
131
0.0
112
0.0
122
1.0
132
0.0
 79
     0
146
0.0
  0
ENDTAB
  0
TABLE
  2
LTYPE
  5
5
330
0
100
AcDbSymbolTable
 70
     8
  0
LTYPE
  5
14
330
5
100
AcDbSymbolTableRecord
100
AcDbLinetypeTableRecord
  2
ByBlock
 70
     0
  3

 72
    65
 73
     0
 40
0.0
  0
LTYPE
  5
15
330
5
100
AcDbSymbolTableRecord
100
AcDbLinetypeTableRecord
  2
ByLayer
 70
     0
  3

 72
    65
 73
     0
 40
0.0
  0
LTYPE
  5
16
330
5
100
AcDbSymbolTableRecord
100
AcDbLinetypeTableRecord
  2
Continuous
 70
     0
  3
Solid line
 72
    65
 73
     0
 40
0.0
  0
LTYPE
  5
2E
330
5
100
AcDbSymbolTableRecord
100
AcDbLinetypeTableRecord
  2
DASHED
 70
     0
  3
Dashed
 72
    65
 73
     2
 40
15.0
 49
7.0
 74
     0
 49
-8.0
 74
     0
  0
LTYPE
  5
2F
330
5
100
AcDbSymbolTableRecord
100
AcDbLinetypeTableRecord
  2
DOTTED
 70
     0
  3
Dotted
 72
    65
 73
     2
 40
1.0
 49
0.0
 74
     0
 49
-1.0
 74
     0
  0
LTYPE
  5
30
330
5
100
AcDbSymbolTableRecord
100
AcDbLinetypeTableRecord
  2
DOT_CENTER
 70
     0
  3
Dot_Center
 72
    65
 73
     4
 40
14.0
 49
12.0
 74
     0
 49
-1.0
 74
     0
 49
0.0
 74
     0
 49
-1.0
 74
     0
  0
LTYPE
  5
31
330
5
100
AcDbSymbolTableRecord
100
AcDbLinetypeTableRecord
  2
LONG_DASHED
 70
     0
  3
Long_Dashed
 72
    65
 73
     2
 40
15.0
 49
10.0
 74
     0
 49
-5.0
 74
     0
  0
LTYPE
  5
32
330
5
100
AcDbSymbolTableRecord
100
AcDbLinetypeTableRecord
  2
DASH_CENTER
 70
     0
  3
Dash_Center
 72
    65
 73
     4
 40
14.0
 49
11.0
 74
     0
 49
-1.0
 74
     0
 49
1.0
 74
     0
 49
-1.0
 74
     0
  0
LTYPE
  5
33
330
5
100
AcDbSymbolTableRecord
100
AcDbLinetypeTableRecord
  2
PHANTOM
 70
     0
  3
Phantom
 72
    65
 73
     6
 40
13.0
 49
10.0
 74
     0
 49
-1.0
 74
     0
 49
0.0
 74
     0
 49
-1.0
 74
     0
 49
0.0
 74
     0
 49
-1.0
 74
     0
  0
LTYPE
  5
34
330
5
100
AcDbSymbolTableRecord
100
AcDbLinetypeTableRecord
  2
CENTER_DASH_DASH
 70
     0
  3
Center_Dash_Dash
 72
    65
 73
     6
 40
14.0
 49
9.0
 74
     0
 49
-1.0
 74
     0
 49
1.0
 74
     0
 49
-1.0
 74
     0
 49
1.0
 74
     0
 49
-1.0
 74
     0
  0
ENDTAB
  0
TABLE
  2
LAYER
  5
2
330
0
100
AcDbSymbolTable
 70
     2
  0
LAYER
  5
10
330
2
100
AcDbSymbolTableRecord
100
AcDbLayerTableRecord
  2
0
 70
     0
 62
     7
  6
Continuous
370
    -3
390
F
  0
LAYER
  5
35
330
2
100
AcDbSymbolTableRecord
100
AcDbLayerTableRecord
  2
1
 70
     0
 62
     7
  6
Continuous
370
    -3
390
F
  0
ENDTAB
  0
TABLE
  2
STYLE
  5
3
330
0
100
AcDbSymbolTable
 70
     3
  0
STYLE
  5
11
330
3
100
AcDbSymbolTableRecord
100
AcDbTextStyleTableRecord
  2
Standard
 70
     0
 40
0.0
 41
1.0
 50
0.0
 71
     0
 42
0.2
  3
txt
  4

  0
STYLE
  5
89
330
3
100
AcDbSymbolTableRecord
100
AcDbTextStyleTableRecord
  2
CONVERTER_1
 70
     0
 40
0.0
 41
0.89
 50
0.0
 71
     0
 42
0.2
  3
msmincho.ttc
  4

1001
ACAD
1000
MS Mincho
1071
    32785
  0
STYLE
  5
14F
330
3
100
AcDbSymbolTableRecord
100
AcDbTextStyleTableRecord
  2
CONVERTER_2
 70
     0
 40
0.0
 41
0.9
 50
0.0
 71
     0
 42
0.2
  3
txt.shx
  4

  0
ENDTAB
  0
TABLE
  2
VIEW
  5
6
330
0
100
AcDbSymbolTable
 70
     0
  0
ENDTAB
  0
TABLE
  2
UCS
  5
7
330
0
100
AcDbSymbolTable
 70
     0
  0
ENDTAB
  0
TABLE
  2
APPID
  5
9
330
0
100
AcDbSymbolTable
 70
     1
  0
APPID
  5
12
330
9
100
AcDbSymbolTableRecord
100
AcDbRegAppTableRecord
  2
ACAD
 70
     0
  0
ENDTAB
  0
TABLE
  2
DIMSTYLE
  5
A
330
0
100
AcDbSymbolTable
 70
     9
100
AcDbDimStyleTable
  0
DIMSTYLE
105
27
330
A
100
AcDbSymbolTableRecord
100
AcDbDimStyleTableRecord
  2
Standard
 70
     0
340
11
  0
DIMSTYLE
105
163
102
{ACAD_REACTORS
330
164
102
}
330
A
100
AcDbSymbolTableRecord
100
AcDbDimStyleTableRecord
  2
ME10_DIM_0
 70
     0
  3
{\Fgdt;n}<>
 41
24.50000735000221
 42
0.0
 44
7.00000210000063
 73
     0
 74
     0
 77
     1
 78
     8
140
24.50000735000221
147
0.625
172
     1
173
     1
176
     2
177
     2
178
     7
271
     2
340
14F
  0
DIMSTYLE
105
170
102
{ACAD_REACTORS
330
171
102
}
330
A
100
AcDbSymbolTableRecord
100
AcDbDimStyleTableRecord
  2
ME10_DIM_1
 70
     0
  3
{\Fgdt;n}<>
 41
24.50000735000221
 42
0.0
 44
7.00000210000063
 73
     0
 74
     0
 77
     1
 78
     8
140
24.50000735000221
147
0.625
172
     1
173
     1
176
     2
177
     2
178
     7
271
     2
340
14F
  0
DIMSTYLE
105
17B
102
{ACAD_REACTORS
330
17C
102
}
330
A
100
AcDbSymbolTableRecord
100
AcDbDimStyleTableRecord
  2
ME10_DIM_2
 70
     0
  3
{\Fgdt;n}<>
 41
24.50000735000221
 42
0.0
 44
7.00000210000063
 73
     0
 74
     0
 77
     1
 78
     8
140
24.50000735000221
147
0.625
172
     1
173
     1
176
     2
177
     2
178
     7
271
     2
340
14F
  0
DIMSTYLE
105
186
102
{ACAD_REACTORS
330
187
102
}
330
A
100
AcDbSymbolTableRecord
100
AcDbDimStyleTableRecord
  2
ME10_DIM_3
 70
     0
  3
{\Fgdt;n}<>
 41
24.50000735000221
 42
0.0
 44
7.00000210000063
 73
     0
 74
     0
 77
     1
 78
     8
140
24.50000735000221
147
0.625
172
     1
173
     1
176
     2
177
     2
178
     7
271
     2
340
14F
  0
DIMSTYLE
105
193
102
{ACAD_REACTORS
330
194
102
}
330
A
100
AcDbSymbolTableRecord
100
AcDbDimStyleTableRecord
  2
ME10_DIM_4
 70
     0
 41
24.50000735000221
 42
0.0
 44
7.00000210000063
 73
     0
 74
     0
 77
     1
 78
     8
140
24.50000735000221
147
0.625
172
     1
173
     1
176
     2
177
     2
178
     7
271
     2
340
14F
  0
DIMSTYLE
105
19E
102
{ACAD_REACTORS
330
19F
102
}
330
A
100
AcDbSymbolTableRecord
100
AcDbDimStyleTableRecord
  2
ME10_DIM_5
 70
     0
 41
24.50000735000221
 42
0.0
 44
7.00000210000063
 73
     0
 74
     0
 77
     1
 78
     8
140
24.50000735000221
147
0.625
172
     1
173
     1
176
     2
177
     2
178
     7
271
     2
340
14F
  0
DIMSTYLE
105
1A9
102
{ACAD_REACTORS
330
1AA
102
}
330
A
100
AcDbSymbolTableRecord
100
AcDbDimStyleTableRecord
  2
ME10_DIM_6
 70
     0
 41
24.50000735000221
 42
0.0
 44
7.00000210000063
 73
     0
 74
     0
 77
     1
 78
     8
140
24.50000735000221
147
0.625
172
     1
173
     1
176
     2
177
     2
178
     7
271
     2
340
14F
  0
DIMSTYLE
105
1B4
102
{ACAD_REACTORS
330
1B5
102
}
330
A
100
AcDbSymbolTableRecord
100
AcDbDimStyleTableRecord
  2
ME10_DIM_7
 70
     0
  3
{\Fgdt;n}<>
 41
24.5000073500022
 42
0.0
 44
7.00000210000063
 73
     0
 74
     0
 77
     1
 78
     8
140
24.5000073500022
147
0.625
172
     1
173
     1
176
     2
177
     2
178
     7
271
     2
340
14F
  0
ENDTAB
  0
TABLE
  2
BLOCK_RECORD
  5
1
330
0
100
AcDbSymbolTable
 70
    12
  0
BLOCK_RECORD
  5
1F
330
1
100
AcDbSymbolTableRecord
100
AcDbBlockTableRecord
  2
*Model_Space
340
22
  0
BLOCK_RECORD
  5
1B
330
1
100
AcDbSymbolTableRecord
100
AcDbBlockTableRecord
  2
*Paper_Space
340
1E
  0
BLOCK_RECORD
  5
23
330
1
100
AcDbSymbolTableRecord
100
AcDbBlockTableRecord
  2
*Paper_Space0
340
26
  0
BLOCK_RECORD
  5
36
330
1
100
AcDbSymbolTableRecord
100
AcDbBlockTableRecord
  2
_J__A4
340
0
102
{BLKREFS
331
3C
102
}
  0
BLOCK_RECORD
  5
39
330
1
100
AcDbSymbolTableRecord
100
AcDbBlockTableRecord
  2
HW1020-1-__F_
340
0
102
{BLKREFS
331
3D
102
}
  0
BLOCK_RECORD
  5
158
330
1
100
AcDbSymbolTableRecord
100
AcDbBlockTableRecord
  2
*D03
340
0
  0
BLOCK_RECORD
  5
165
330
1
100
AcDbSymbolTableRecord
100
AcDbBlockTableRecord
  2
*D14
340
0
  0
BLOCK_RECORD
  5
172
330
1
100
AcDbSymbolTableRecord
100
AcDbBlockTableRecord
  2
*D25
340
0
  0
BLOCK_RECORD
  5
17D
330
1
100
AcDbSymbolTableRecord
100
AcDbBlockTableRecord
  2
*D36
340
0
  0
BLOCK_RECORD
  5
188
330
1
100
AcDbSymbolTableRecord
100
AcDbBlockTableRecord
  2
*D47
340
0
  0
BLOCK_RECORD
  5
195
330
1
100
AcDbSymbolTableRecord
100
AcDbBlockTableRecord
  2
*D58
340
0
  0
BLOCK_RECORD
  5
1A0
330
1
100
AcDbSymbolTableRecord
100
AcDbBlockTableRecord
  2
*D69
340
0
  0
BLOCK_RECORD
  5
1AB
330
1
100
AcDbSymbolTableRecord
100
AcDbBlockTableRecord
  2
*D710
340
0
  0
BLOCK_RECORD
  5
1B6
330
1
100
AcDbSymbolTableRecord
100
AcDbBlockTableRecord
  2
*D811
340
0
102
{BLKREFS
331
1BD
102
}
  0
ENDTAB
  0
ENDSEC
  0
SECTION
  2
BLOCKS
  0
BLOCK
  5
20
330
1F
100
AcDbEntity
  8
0
100
AcDbBlockBegin
  2
*Model_Space
 70
     0
 71
     0
 10
0.0
 20
0.0
 30
0.0
  3
*Model_Space
  1

  0
ENDBLK
  5
21
330
1F
100
AcDbEntity
  8
0
100
AcDbBlockEnd
  0
BLOCK
  5
1C
330
1B
100
AcDbEntity
 67
     1
  8
0
100
AcDbBlockBegin
  2
*Paper_Space
 70
     0
 71
     0
 10
0.0
 20
0.0
 30
0.0
  3
*Paper_Space
  1

  0
ENDBLK
  5
1D
330
1B
100
AcDbEntity
 67
     1
  8
0
100
AcDbBlockEnd
  0
BLOCK
  5
24
330
23
100
AcDbEntity
  8
0
100
AcDbBlockBegin
  2
*Paper_Space0
 70
     0
 71
     0
 10
0.0
 20
0.0
 30
0.0
  3
*Paper_Space0
  1

  0
ENDBLK
  5
25
330
23
100
AcDbEntity
  8
0
100
AcDbBlockEnd
  0
BLOCK
  5
37
330
36
100
AcDbEntity
  8
0
100
AcDbBlockBegin
  2
_J__A4
 70
     0
 71
     0
 10
0.0
 20
0.0
 30
0.0
  3
_J__A4
  1

  0
POINT
  5
3E
330
36
100
AcDbEntity
  8
1
 62
     4
100
AcDbPoint
 10
34.0
 20
34.00000000000001
 30
0.0
  0
POINT
  5
3F
330
36
100
AcDbEntity
  8
1
 62
     4
100
AcDbPoint
 10
57.0
 20
12.25
 30
0.0
  0
POINT
  5
40
330
36
100
AcDbEntity
  8
1
 62
     4
100
AcDbPoint
 10
57.0
 20
20.75000000000001
 30
0.0
  0
POINT
  5
41
330
36
100
AcDbEntity
  8
1
 62
     4
100
AcDbPoint
 10
57.0
 20
24.75000000000001
 30
0.0
  0
POINT
  5
42
330
36
100
AcDbEntity
  8
1
 62
     4
100
AcDbPoint
 10
57.0
 20
16.25
 30
0.0
  0
POINT
  5
43
330
36
100
AcDbEntity
  8
1
 62
     4
100
AcDbPoint
 10
157.5
 20
19.00000000000001
 30
0.0
  0
POINT
  5
44
330
36
100
AcDbEntity
  8
1
 62
     4
100
AcDbPoint
 10
47.5
 20
282.0000000000003
 30
0.0
  0
POINT
  5
45
330
36
100
AcDbEntity
  8
1
 62
     4
100
AcDbPoint
 10
57.0
 20
22.75000000000001
 30
0.0
  0
POINT
  5
46
330
36
100
AcDbEntity
  8
1
 62
     4
100
AcDbPoint
 10
57.0
 20
14.25
 30
0.0
  0
POINT
  5
47
330
36
100
AcDbEntity
  8
1
 62
     4
100
AcDbPoint
 10
157.5
 20
12.5
 30
0.0
  0
POINT
  5
48
330
36
100
AcDbEntity
  8
1
 62
     4
100
AcDbPoint
 10
163.25
 20
12.5
 30
0.0
  0
POINT
  5
49
330
36
100
AcDbEntity
  8
1
 62
     4
100
AcDbPoint
 10
151.75
 20
12.5
 30
0.0
  0
POINT
  5
4A
330
36
100
AcDbEntity
  8
1
 62
     4
100
AcDbPoint
 10
134.75
 20
12.5
 30
0.0
  0
POINT
  5
4B
330
36
100
AcDbEntity
  8
1
 62
     4
100
AcDbPoint
 10
146.25
 20
12.5
 30
0.0
  0
POINT
  5
4C
330
36
100
AcDbEntity
  8
1
 62
     4
100
AcDbPoint
 10
140.5
 20
12.5
 30
0.0
  0
POINT
  5
4D
330
36
100
AcDbEntity
  8
1
 62
     4
100
AcDbPoint
 10
140.5
 20
19.00000000000001
 30
0.0
  0
POINT
  5
4E
330
36
100
AcDbEntity
  8
1
 62
     4
100
AcDbPoint
 10
117.75
 20
12.5
 30
0.0
  0
POINT
  5
4F
330
36
100
AcDbEntity
  8
1
 62
     4
100
AcDbPoint
 10
129.25
 20
12.5
 30
0.0
  0
POINT
  5
50
330
36
100
AcDbEntity
  8
1
 62
     4
100
AcDbPoint
 10
123.5
 20
12.5
 30
0.0
  0
POINT
  5
51
330
36
100
AcDbEntity
  8
1
 62
     4
100
AcDbPoint
 10
123.5
 20
19.00000000000001
 30
0.0
  0
POINT
  5
52
330
36
100
AcDbEntity
  8
1
 62
     4
100
AcDbPoint
 10
100.75
 20
12.5
 30
0.0
  0
POINT
  5
53
330
36
100
AcDbEntity
  8
1
 62
     4
100
AcDbPoint
 10
112.25
 20
12.5
 30
0.0
  0
POINT
  5
54
330
36
100
AcDbEntity
  8
1
 62
     4
100
AcDbPoint
 10
106.5
 20
12.5
 30
0.0
  0
POINT
  5
55
330
36
100
AcDbEntity
  8
1
 62
     4
100
AcDbPoint
 10
106.5
 20
19.00000000000001
 30
0.0
  0
POINT
  5
56
330
36
100
AcDbEntity
  8
1
 62
     4
100
AcDbPoint
 10
85.25
 20
17.0
 30
0.0
  0
POINT
  5
57
330
36
100
AcDbEntity
  8
1
 62
     4
100
AcDbPoint
 10
93.75
 20
17.0
 30
0.0
  0
LINE
  5
58
330
36
100
AcDbEntity
  8
1
  6
Continuous
 62
     2
100
AcDbLine
 10
81.0
 20
27.00000000000001
 30
0.0
 11
81.0
 21
10.0
 31
0.0
  0
LINE
  5
59
330
36
100
AcDbEntity
  8
1
  6
DOT_CENTER
 62
     2
100
AcDbLine
 10
187.0
 20
26.50000000000001
 30
0.0
 11
187.0
 21
20.50000000000001
 31
0.0
  0
LINE
  5
5A
330
36
100
AcDbEntity
  8
1
  6
DOT_CENTER
 62
     2
100
AcDbLine
 10
184.0
 20
23.50000000000001
 30
0.0
 11
197.0
 21
23.50000000000001
 31
0.0
  0
LINE
  5
5B
330
36
100
AcDbEntity
  8
1
  6
Continuous
 62
     7
100
AcDbLine
 10
196.0
 20
21.50000000000001
 30
0.0
 11
191.0
 21
22.30000000000001
 31
0.0
  0
LINE
  5
5C
330
36
100
AcDbEntity
  8
1
  6
Continuous
 62
     7
100
AcDbLine
 10
196.0
 20
25.50000000000001
 30
0.0
 11
196.0
 21
21.50000000000001
 31
0.0
  0
LINE
  5
5D
330
36
100
AcDbEntity
  8
1
  6
Continuous
 62
     7
100
AcDbLine
 10
191.0
 20
24.70000000000001
 30
0.0
 11
196.0
 21
25.50000000000001
 31
0.0
  0
LINE
  5
5E
330
36
100
AcDbEntity
  8
1
  6
Continuous
 62
     7
100
AcDbLine
 10
191.0
 20
24.70000000000001
 30
0.0
 11
191.0
 21
22.30000000000001
 31
0.0
  0
LINE
  5
5F
330
36
100
AcDbEntity
  8
1
  6
Continuous
 62
     2
100
AcDbLine
 10
33.0
 20
27.0
 30
0.0
 11
33.0
 21
10.0
 31
0.0
  0
LINE
  5
60
330
36
100
AcDbEntity
  8
1
  6
Continuous
 62
     2
100
AcDbLine
 10
25.0
 20
18.50000000000001
 30
0.0
 11
81.0
 21
18.50000000000001
 31
0.0
  0
LINE
  5
61
330
36
100
AcDbEntity
  8
1
  6
Continuous
 62
     7
100
AcDbLine
 10
200.0
 20
287.0000000000003
 30
0.0
 11
105.0
 21
287.0000000000003
 31
0.0
  0
LINE
  5
62
330
36
100
AcDbEntity
  8
1
  6
Continuous
 62
     7
100
AcDbLine
 10
200.0
 20
10.0
 30
0.0
 11
200.0
 21
148.5
 31
0.0
  0
LINE
  5
63
330
36
100
AcDbEntity
  8
1
  6
Continuous
 62
     7
100
AcDbLine
 10
25.0
 20
10.0
 30
0.0
 11
105.0
 21
10.0
 31
0.0
  0
LINE
  5
64
330
36
100
AcDbEntity
  8
1
  6
PHANTOM
 62
     4
100
AcDbLine
 10
0.0
 20
297.0
 30
0.0
 11
0.0
 21
0.0
 31
0.0
  0
LINE
  5
65
330
36
100
AcDbEntity
  8
1
  6
PHANTOM
 62
     4
100
AcDbLine
 10
210.0
 20
297.0
 30
0.0
 11
0.0
 21
297.0
 31
0.0
  0
LINE
  5
66
330
36
100
AcDbEntity
  8
1
  6
PHANTOM
 62
     4
100
AcDbLine
 10
210.0
 20
0.0
 30
0.0
 11
210.0
 21
297.0
 31
0.0
  0
LINE
  5
67
330
36
100
AcDbEntity
  8
1
  6
PHANTOM
 62
     4
100
AcDbLine
 10
0.0
 20
0.0
 30
0.0
 11
210.0
 21
0.0
 31
0.0
  0
LINE
  5
68
330
36
100
AcDbEntity
  8
1
  6
Continuous
 62
     7
100
AcDbLine
 10
25.0
 20
41.0
 30
0.0
 11
200.0
 21
41.0
 31
0.0
  0
LINE
  5
69
330
36
100
AcDbEntity
  8
1
  6
Continuous
 62
     7
100
AcDbLine
 10
200.0
 20
27.00000000000001
 30
0.0
 11
25.0
 21
27.00000000000001
 31
0.0
  0
LINE
  5
6A
330
36
100
AcDbEntity
  8
1
  6
Continuous
 62
     2
100
AcDbLine
 10
33.0
 20
41.00000000000001
 30
0.0
 11
33.0
 21
27.0
 31
0.0
  0
LINE
  5
6B
330
36
100
AcDbEntity
  8
1
  6
Continuous
 62
     2
100
AcDbLine
 10
55.0
 20
287.0000000000003
 30
0.0
 11
55.0
 21
277.0000000000003
 31
0.0
  0
LINE
  5
6C
330
36
100
AcDbEntity
  8
1
  6
Continuous
 62
     2
100
AcDbLine
 10
40.0
 20
287.0000000000003
 30
0.0
 11
40.0
 21
277.0000000000003
 31
0.0
  0
LINE
  5
6D
330
36
100
AcDbEntity
  8
1
  6
Continuous
 62
     7
100
AcDbLine
 10
25.0
 20
10.0
 30
0.0
 11
25.0
 21
148.5
 31
0.0
  0
LINE
  5
6E
330
36
100
AcDbEntity
  8
1
  6
Continuous
 62
     2
100
AcDbLine
 10
55.0
 20
277.0000000000003
 30
0.0
 11
25.0
 21
277.0000000000003
 31
0.0
  0
LINE
  5
6F
330
36
100
AcDbEntity
  8
1
  6
Continuous
 62
     2
100
AcDbLine
 10
166.0
 20
27.00000000000001
 30
0.0
 11
166.0
 21
10.0
 31
0.0
  0
LINE
  5
70
330
36
100
AcDbEntity
  8
1
  6
Continuous
 62
     2
100
AcDbLine
 10
132.0
 20
27.00000000000001
 30
0.0
 11
132.0
 21
9.99999999999999
 31
0.0
  0
LINE
  5
71
330
36
100
AcDbEntity
  8
1
  6
Continuous
 62
     2
100
AcDbLine
 10
149.0
 20
27.00000000000001
 30
0.0
 11
149.0
 21
10.0
 31
0.0
  0
LINE
  5
72
330
36
100
AcDbEntity
  8
1
  6
Continuous
 62
     2
100
AcDbLine
 10
115.0
 20
27.00000000000001
 30
0.0
 11
115.0
 21
9.99999999999999
 31
0.0
  0
LINE
  5
73
330
36
100
AcDbEntity
  8
1
  6
Continuous
 62
     2
100
AcDbLine
 10
98.0
 20
27.00000000000001
 30
0.0
 11
98.0
 21
9.99999999999999
 31
0.0
  0
LINE
  5
74
330
36
100
AcDbEntity
  8
1
  6
Continuous
 62
     2
100
AcDbLine
 10
166.0
 20
20.00000000000001
 30
0.0
 11
200.0
 21
20.00000000000001
 31
0.0
  0
LINE
  5
75
330
36
100
AcDbEntity
  8
1
  6
Continuous
 62
     2
100
AcDbLine
 10
105.0
 20
287.0000000000003
 30
0.0
 11
105.0
 21
292.0000000000003
 31
0.0
  0
LINE
  5
76
330
36
100
AcDbEntity
  8
1
  6
Continuous
 62
     7
100
AcDbLine
 10
105.0
 20
287.0000000000003
 30
0.0
 11
25.0
 21
287.0000000000003
 31
0.0
  0
LINE
  5
77
330
36
100
AcDbEntity
  8
1
  6
Continuous
 62
     2
100
AcDbLine
 10
25.0
 20
148.5
 30
0.0
 11
20.0
 21
148.5
 31
0.0
  0
LINE
  5
78
330
36
100
AcDbEntity
  8
1
  6
Continuous
 62
     7
100
AcDbLine
 10
25.0
 20
148.5
 30
0.0
 11
25.0
 21
287.0000000000003
 31
0.0
  0
LINE
  5
79
330
36
100
AcDbEntity
  8
1
  6
Continuous
 62
     2
100
AcDbLine
 10
200.0
 20
148.5
 30
0.0
 11
205.0
 21
148.5
 31
0.0
  0
LINE
  5
7A
330
36
100
AcDbEntity
  8
1
  6
Continuous
 62
     7
100
AcDbLine
 10
200.0
 20
148.5
 30
0.0
 11
200.0
 21
287.0000000000003
 31
0.0
  0
LINE
  5
7B
330
36
100
AcDbEntity
  8
1
  6
Continuous
 62
     2
100
AcDbLine
 10
105.0
 20
10.0
 30
0.0
 11
105.0
 21
5.0
 31
0.0
  0
LINE
  5
7C
330
36
100
AcDbEntity
  8
1
  6
Continuous
 62
     7
100
AcDbLine
 10
105.0
 20
10.0
 30
0.0
 11
200.0
 21
10.0
 31
0.0
  0
CIRCLE
  5
7D
330
36
100
AcDbEntity
  8
1
  6
DOT_CENTER
 62
     7
100
AcDbCircle
 10
89.5
 20
18.0
 30
0.0
 40
0.1000000000000227
  0
CIRCLE
  5
7E
330
36
100
AcDbEntity
  8
1
  6
DOT_CENTER
 62
     7
100
AcDbCircle
 10
89.5
 20
16.0
 30
0.0
 40
0.1000000000000227
  0
CIRCLE
  5
7F
330
36
100
AcDbEntity
  8
1
  6
Continuous
 62
     7
100
AcDbCircle
 10
187.0
 20
23.50000000000001
 30
0.0
 40
2.0
  0
CIRCLE
  5
80
330
36
100
AcDbEntity
  8
1
  6
Continuous
 62
     7
100
AcDbCircle
 10
187.0
 20
23.50000000000001
 30
0.0
 40
1.200000000000102
  0
CIRCLE
  5
81
330
36
100
AcDbEntity
  8
1
  6
Continuous
 62
     7
100
AcDbCircle
 10
154.5
 20
12.5
 30
0.0
 40
0.3000000000000114
  0
CIRCLE
  5
82
330
36
100
AcDbEntity
  8
1
  6
Continuous
 62
     7
100
AcDbCircle
 10
160.5
 20
12.5
 30
0.0
 40
0.3000000000000114
  0
CIRCLE
  5
83
330
36
100
AcDbEntity
  8
1
  6
Continuous
 62
     7
100
AcDbCircle
 10
143.5
 20
12.5
 30
0.0
 40
0.3000000000000114
  0
CIRCLE
  5
84
330
36
100
AcDbEntity
  8
1
  6
Continuous
 62
     7
100
AcDbCircle
 10
137.5
 20
12.5
 30
0.0
 40
0.3000000000000114
  0
CIRCLE
  5
85
330
36
100
AcDbEntity
  8
1
  6
Continuous
 62
     7
100
AcDbCircle
 10
126.5
 20
12.5
 30
0.0
 40
0.2999999999999972
  0
CIRCLE
  5
86
330
36
100
AcDbEntity
  8
1
  6
Continuous
 62
     7
100
AcDbCircle
 10
120.5
 20
12.5
 30
0.0
 40
0.2999999999999972
  0
CIRCLE
  5
87
330
36
100
AcDbEntity
  8
1
  6
Continuous
 62
     7
100
AcDbCircle
 10
109.5
 20
12.5
 30
0.0
 40
0.2999999999999972
  0
CIRCLE
  5
88
330
36
100
AcDbEntity
  8
1
  6
Continuous
 62
     7
100
AcDbCircle
 10
103.5
 20
12.5
 30
0.0
 40
0.2999999999999972
  0
MTEXT
  5
8A
330
36
100
AcDbEntity
  8
1
 62
   250
100
AcDbMText
 10
25.0
 20
5.0
 30
0.0
 40
3.5
 41
0.0
 71
     4
 72
     1
  1
備考欄の文字列 原点位置=4
  7
CONVERTER_1
 73
     1
 44
0.7202881152461
  0
MTEXT
  5
8B
330
36
100
AcDbEntity
  8
1
 62
     2
100
AcDbMText
 10
89.5
 20
24.00000000000001
 30
0.0
 40
3.5
 41
0.0
 71
     5
 72
     1
  1
尺度
  7
CONVERTER_1
 73
     1
 44
0.7202881152461
  0
MTEXT
  5
8C
330
36
100
AcDbEntity
  8
1
 62
     2
100
AcDbMText
 10
135.5
 20
25.00000000000001
 30
0.0
 40
3.0
 41
0.0
 71
     5
 72
     1
  1
製図
  7
CONVERTER_1
 73
     1
 44
0.78031212484994
  0
MTEXT
  5
8D
330
36
100
AcDbEntity
  8
1
 62
     2
100
AcDbMText
 10
152.5
 20
25.00000000000001
 30
0.0
 40
3.0
 41
0.0
 71
     5
 72
     1
  1
設計
  7
CONVERTER_1
 73
     1
 44
0.78031212484994
  0
MTEXT
  5
8E
330
36
100
AcDbEntity
  8
1
 62
     2
100
AcDbMText
 10
118.5
 20
25.00000000000001
 30
0.0
 40
3.0
 41
0.0
 71
     5
 72
     1
  1
検図
  7
CONVERTER_1
 73
     1
 44
0.78031212484994
  0
MTEXT
  5
8F
330
36
100
AcDbEntity
  8
1
 62
     2
100
AcDbMText
 10
175.0
 20
23.50000000000001
 30
0.0
 40
3.5
 41
0.0
 71
     5
 72
     1
  1
第三角法
  7
CONVERTER_1
 73
     1
 44
0.7202881152461
  0
MTEXT
  5
90
330
36
100
AcDbEntity
  8
1
 62
     2
100
AcDbMText
 10
101.5
 20
25.00000000000001
 30
0.0
 40
3.0
 41
0.0
 71
     5
 72
     1
  1
承認
  7
CONVERTER_1
 73
     1
 44
0.78031212484994
  0
MTEXT
  5
91
330
36
100
AcDbEntity
  8
1
 62
     2
100
AcDbMText
 10
29.0
 20
14.25
 30
0.0
 40
3.5
 41
0.0
 71
     5
 72
     1
  1
品番
  7
CONVERTER_1
 73
     1
 44
0.96038415366146
  0
MTEXT
  5
92
330
36
100
AcDbEntity
  8
1
 62
     2
100
AcDbMText
 10
29.0
 20
22.75
 30
0.0
 40
3.5
 41
0.0
 71
     5
 72
     1
  1
品名
  7
CONVERTER_1
 73
     1
 44
0.96038415366146
  0
MTEXT
  5
93
330
36
100
AcDbEntity
  8
1
 62
     2
100
AcDbMText
 10
29.0
 20
34.00000000000001
 30
0.0
 40
3.5
 41
0.0
 71
     5
 72
     1
  1
備考
  7
CONVERTER_1
 73
     1
 44
0.60024009603842
  0
MTEXT
  5
94
330
36
100
AcDbEntity
  8
1
 62
     2
100
AcDbMText
 10
32.5
 20
282.0000000000003
 30
0.0
 40
5.0
 41
0.0
 71
     5
 72
     1
  1
図番
  7
CONVERTER_1
 73
     1
 44
0.60024009603842
  0
MTEXT
  5
95
330
36
100
AcDbEntity
  8
1
 62
     7
100
AcDbMText
 10
171.5
 20
15.0
 30
0.0
 40
2.5
 41
0.0
 71
     5
 72
     1
  1
株式会社
  7
CONVERTER_1
 73
     1
 44
1.32052821128451
  0
MTEXT
  5
96
330
36
100
AcDbEntity
  8
1
 62
     7
100
AcDbMText
 10
188.5
 20
15.0
 30
0.0
 40
3.0
 41
0.0
 71
     5
 72
     1
  1
三栄水栓製作所
  7
CONVERTER_1
 73
     1
 44
1.32052821128451
  0
ENDBLK
  5
38
330
36
100
AcDbEntity
  8
0
100
AcDbBlockEnd
  0
BLOCK
  5
3A
330
39
100
AcDbEntity
  8
0
100
AcDbBlockBegin
  2
HW1020-1-__F_
 70
     0
 71
     0
 10
103.5000000000002
 20
595.9999999999998
 30
0.0
  3
HW1020-1-__F_
  1

  0
LINE
  5
97
330
39
100
AcDbEntity
  8
1
  6
Continuous
 62
     7
100
AcDbLine
 10
1133.70209885499
 20
935.4999999999998
 30
0.0
 11
908.6885630582314
 21
935.4999999999998
 31
0.0
  0
LINE
  5
98
330
39
100
AcDbEntity
  8
1
  6
PHANTOM
 62
     4
100
AcDbLine
 10
908.6885630582314
 20
935.4999999999998
 30
0.0
 11
903.7020988549901
 21
935.4999999999998
 31
0.0
  0
LINE
  5
99
102
{ACAD_REACTORS
330
126
330
126
102
}
330
39
100
AcDbEntity
  8
1
  6
Continuous
 62
     7
100
AcDbLine
 10
920.9190293128087
 20
876.0238129398156
 30
0.0
 11
904.7838148174957
 21
930.6322781687252
 31
0.0
  0
LINE
  5
9A
102
{ACAD_REACTORS
330
126
330
126
102
}
330
39
100
AcDbEntity
  8
1
  6
PHANTOM
 62
     4
100
AcDbLine
 10
932.17233558889
 20
872.4999999999998
 30
0.0
 11
936.7020988549901
 21
872.4999999999998
 31
0.0
  0
LINE
  5
9B
330
39
100
AcDbEntity
  8
1
  6
PHANTOM
 62
     4
100
AcDbLine
 10
904.7838148174957
 20
930.6322781687252
 30
0.0
 11
903.7020988549901
 21
935.4999999999998
 31
0.0
  0
LINE
  5
9C
330
39
100
AcDbEntity
  8
1
  6
PHANTOM
 62
     4
100
AcDbLine
 10
921.7020988549901
 20
872.4999999999998
 30
0.0
 11
920.9190293128087
 21
876.0238129398156
 31
0.0
  0
LINE
  5
9D
330
39
100
AcDbEntity
  8
1
  6
PHANTOM
 62
     4
100
AcDbLine
 10
921.7020988549901
 20
872.4999999999998
 30
0.0
 11
925.3118710836367
 21
872.4999999999998
 31
0.0
  0
LINE
  5
9E
102
{ACAD_REACTORS
330
126
330
126
102
}
330
39
100
AcDbEntity
  8
1
  6
Continuous
 62
     7
100
AcDbLine
 10
925.3118710836367
 20
872.4999999999998
 30
0.0
 11
932.17233558889
 21
872.4999999999998
 31
0.0
  0
LINE
  5
9F
330
39
100
AcDbEntity
  8
1
  6
DASH_CENTER
 62
     2
100
AcDbLine
 10
1133.70209885499
 20
785.4999999999998
 30
0.0
 11
1133.70209885499
 21
770.4999999999998
 31
0.0
  0
LINE
  5
A0
330
39
100
AcDbEntity
  8
1
  6
Continuous
 62
     7
100
AcDbLine
 10
1221.70209885499
 20
785.4999999999998
 30
0.0
 11
1133.70209885499
 21
785.4999999999998
 31
0.0
  0
LINE
  5
A1
102
{ACAD_REACTORS
330
125
330
125
102
}
330
39
100
AcDbEntity
  8
1
  6
Continuous
 62
     7
100
AcDbLine
 10
1220.20209885499
 20
788.4999999999998
 30
0.0
 11
1154.20209885499
 21
788.4999999999998
 31
0.0
  0
LINE
  5
A2
330
39
100
AcDbEntity
  8
1
  6
PHANTOM
 62
     4
100
AcDbLine
 10
1221.70209885499
 20
786.9999999999998
 30
0.0
 11
1221.70209885499
 21
785.4999999999998
 31
0.0
  0
LINE
  5
A3
102
{ACAD_REACTORS
330
124
330
124
330
125
330
125
102
}
330
39
100
AcDbEntity
  8
1
  6
PHANTOM
 62
     4
100
AcDbLine
 10
1233.70209885499
 20
791.2217006150197
 30
0.0
 11
1233.70209885499
 21
800.4999999999998
 31
0.0
  0
LINE
  5
A4
102
{ACAD_REACTORS
330
125
330
125
102
}
330
39
100
AcDbEntity
  8
1
  6
Continuous
 62
     7
100
AcDbLine
 10
1233.70209885499
 20
786.4999999999998
 30
0.0
 11
1233.70209885499
 21
791.2217006150197
 31
0.0
  0
LINE
  5
A5
330
39
100
AcDbEntity
  8
1
  6
Continuous
 62
     7
100
AcDbLine
 10
1133.70209885499
 20
805.4999999999998
 30
0.0
 11
1162.993316664273
 21
805.4999999999998
 31
0.0
  0
LINE
  5
A6
102
{ACAD_REACTORS
330
125
330
125
102
}
330
39
100
AcDbEntity
  8
1
  6
Continuous
 62
     7
100
AcDbLine
 10
1335.23186212109
 20
872.4999999999998
 30
0.0
 11
1342.092326626344
 21
872.4999999999998
 31
0.0
  0
LINE
  5
A7
330
39
100
AcDbEntity
  8
1
  6
PHANTOM
 62
     4
100
AcDbLine
 10
1342.092326626344
 20
872.4999999999998
 30
0.0
 11
1345.70209885499
 21
872.4999999999998
 31
0.0
  0
LINE
  5
A8
330
39
100
AcDbEntity
  8
1
  6
PHANTOM
 62
     4
100
AcDbLine
 10
1346.485168397172
 20
876.0238129398156
 30
0.0
 11
1345.70209885499
 21
872.4999999999998
 31
0.0
  0
LINE
  5
A9
330
39
100
AcDbEntity
  8
1
  6
PHANTOM
 62
     4
100
AcDbLine
 10
1363.70209885499
 20
935.4999999999998
 30
0.0
 11
1362.620382892485
 21
930.6322781687252
 31
0.0
  0
LINE
  5
AA
330
39
100
AcDbEntity
  8
1
  6
PHANTOM
 62
     4
100
AcDbLine
 10
1232.70209885499
 20
785.4999999999998
 30
0.0
 11
1233.70209885499
 21
785.4999999999998
 31
0.0
  0
LINE
  5
AB
330
39
100
AcDbEntity
  8
1
  6
PHANTOM
 62
     4
100
AcDbLine
 10
1233.70209885499
 20
785.4999999999998
 30
0.0
 11
1233.70209885499
 21
786.4999999999998
 31
0.0
  0
LINE
  5
AC
102
{ACAD_REACTORS
330
125
330
125
102
}
330
39
100
AcDbEntity
  8
1
  6
PHANTOM
 62
     4
100
AcDbLine
 10
1330.70209885499
 20
872.4999999999998
 30
0.0
 11
1335.23186212109
 21
872.4999999999998
 31
0.0
  0
LINE
  5
AD
102
{ACAD_REACTORS
330
125
330
125
102
}
330
39
100
AcDbEntity
  8
1
  6
Continuous
 62
     7
100
AcDbLine
 10
1362.620382892485
 20
930.6322781687252
 30
0.0
 11
1346.485168397172
 21
876.0238129398156
 31
0.0
  0
LINE
  5
AE
330
39
100
AcDbEntity
  8
1
  6
PHANTOM
 62
     4
100
AcDbLine
 10
1363.70209885499
 20
935.4999999999998
 30
0.0
 11
1358.715634651749
 21
935.4999999999998
 31
0.0
  0
LINE
  5
AF
330
39
100
AcDbEntity
  8
1
  6
Continuous
 62
     7
100
AcDbLine
 10
1358.715634651749
 20
935.4999999999998
 30
0.0
 11
1133.70209885499
 21
935.4999999999998
 31
0.0
  0
LINE
  5
B0
102
{ACAD_REACTORS
330
125
330
125
102
}
330
39
100
AcDbEntity
  8
1
  6
Continuous
 62
     7
100
AcDbLine
 10
1154.20209885499
 20
788.4999999999998
 30
0.0
 11
1154.547951133945
 21
794.0336364632651
 31
0.0
  0
LINE
  5
B1
102
{ACAD_REACTORS
330
125
330
125
102
}
330
39
100
AcDbEntity
  8
1
  6
Continuous
 62
     7
100
AcDbLine
 10
1156.755049456148
 20
797.8755378745943
 30
0.0
 11
1166.974018186188
 21
804.7225504230403
 31
0.0
  0
LINE
  5
B2
330
39
100
AcDbEntity
  8
1
  6
Continuous
 62
     7
100
AcDbLine
 10
1154.20209885499
 20
788.4999999999998
 30
0.0
 11
1133.70209885499
 21
788.4999999999998
 31
0.0
  0
LINE
  5
B3
330
39
100
AcDbEntity
  8
1
  6
PHANTOM
 62
     4
100
AcDbLine
 10
1154.70209885499
 20
796.4999999999998
 30
0.0
 11
1156.755049456148
 21
797.8755378745943
 31
0.0
  0
LINE
  5
B4
330
39
100
AcDbEntity
  8
1
  6
PHANTOM
 62
     4
100
AcDbLine
 10
1154.547951133945
 20
794.0336364632651
 30
0.0
 11
1154.70209885499
 21
796.4999999999998
 31
0.0
  0
LINE
  5
B5
330
39
100
AcDbEntity
  8
1
  6
PHANTOM
 62
     4
100
AcDbLine
 10
1166.974018186188
 20
804.7225504230403
 30
0.0
 11
1168.20209885499
 21
805.5454009446466
 31
0.0
  0
LINE
  5
B6
102
{ACAD_REACTORS
330
125
330
125
102
}
330
39
100
AcDbEntity
  8
1
  6
Continuous
 62
     7
100
AcDbLine
 10
1223.20209885499
 20
785.4999999999998
 30
0.0
 11
1232.70209885499
 21
785.4999999999998
 31
0.0
  0
LINE
  5
B7
102
{ACAD_REACTORS
330
125
330
125
102
}
330
39
100
AcDbEntity
  8
1
  6
PHANTOM
 62
     4
100
AcDbLine
 10
1221.70209885499
 20
788.4999999999998
 30
0.0
 11
1220.20209885499
 21
788.4999999999998
 31
0.0
  0
LINE
  5
B8
102
{ACAD_REACTORS
330
125
330
125
102
}
330
39
100
AcDbEntity
  8
1
  6
PHANTOM
 62
     4
100
AcDbLine
 10
1221.70209885499
 20
788.4999999999998
 30
0.0
 11
1221.70209885499
 21
786.9999999999998
 31
0.0
  0
LINE
  5
B9
330
39
100
AcDbEntity
  8
1
  6
Continuous
 62
     7
100
AcDbLine
 10
1221.70209885499
 20
785.4999999999998
 30
0.0
 11
1223.20209885499
 21
785.4999999999998
 31
0.0
  0
LINE
  5
BA
330
39
100
AcDbEntity
  8
1
  6
Continuous
 62
     7
100
AcDbLine
 10
1044.202098854991
 20
785.4999999999998
 30
0.0
 11
1045.702098854991
 21
785.4999999999998
 31
0.0
  0
LINE
  5
BB
102
{ACAD_REACTORS
330
126
330
126
102
}
330
39
100
AcDbEntity
  8
1
  6
PHANTOM
 62
     4
100
AcDbLine
 10
1045.702098854991
 20
786.9999999999998
 30
0.0
 11
1045.702098854991
 21
788.4999999999998
 31
0.0
  0
LINE
  5
BC
102
{ACAD_REACTORS
330
126
330
126
102
}
330
39
100
AcDbEntity
  8
1
  6
PHANTOM
 62
     4
100
AcDbLine
 10
1047.202098854991
 20
788.4999999999998
 30
0.0
 11
1045.702098854991
 21
788.4999999999998
 31
0.0
  0
LINE
  5
BD
102
{ACAD_REACTORS
330
126
330
126
102
}
330
39
100
AcDbEntity
  8
1
  6
Continuous
 62
     7
100
AcDbLine
 10
1034.702098854991
 20
785.4999999999998
 30
0.0
 11
1044.202098854991
 21
785.4999999999998
 31
0.0
  0
LINE
  5
BE
330
39
100
AcDbEntity
  8
1
  6
PHANTOM
 62
     4
100
AcDbLine
 10
1099.202098854991
 20
805.5454009446466
 30
0.0
 11
1100.430179523793
 21
804.7225504230403
 31
0.0
  0
LINE
  5
BF
330
39
100
AcDbEntity
  8
1
  6
PHANTOM
 62
     4
100
AcDbLine
 10
1112.702098854991
 20
796.4999999999998
 30
0.0
 11
1112.856246576037
 21
794.0336364632651
 31
0.0
  0
LINE
  5
C0
330
39
100
AcDbEntity
  8
1
  6
PHANTOM
 62
     4
100
AcDbLine
 10
1110.649148253833
 20
797.8755378745943
 30
0.0
 11
1112.702098854991
 21
796.4999999999998
 31
0.0
  0
LINE
  5
C1
330
39
100
AcDbEntity
  8
1
  6
Continuous
 62
     7
100
AcDbLine
 10
1133.70209885499
 20
788.4999999999998
 30
0.0
 11
1113.202098854991
 21
788.4999999999998
 31
0.0
  0
LINE
  5
C2
102
{ACAD_REACTORS
330
126
330
126
102
}
330
39
100
AcDbEntity
  8
1
  6
Continuous
 62
     7
100
AcDbLine
 10
1100.430179523793
 20
804.7225504230403
 30
0.0
 11
1110.649148253833
 21
797.8755378745943
 31
0.0
  0
LINE
  5
C3
102
{ACAD_REACTORS
330
126
330
126
102
}
330
39
100
AcDbEntity
  8
1
  6
Continuous
 62
     7
100
AcDbLine
 10
1112.856246576037
 20
794.0336364632651
 30
0.0
 11
1113.202098854991
 21
788.4999999999998
 31
0.0
  0
LINE
  5
C4
330
39
100
AcDbEntity
  8
1
  6
PHANTOM
 62
     4
100
AcDbLine
 10
1033.702098854991
 20
786.4999999999998
 30
0.0
 11
1033.702098854991
 21
785.4999999999998
 31
0.0
  0
LINE
  5
C5
330
39
100
AcDbEntity
  8
1
  6
PHANTOM
 62
     4
100
AcDbLine
 10
1033.702098854991
 20
785.4999999999998
 30
0.0
 11
1034.702098854991
 21
785.4999999999998
 31
0.0
  0
LINE
  5
C6
330
39
100
AcDbEntity
  8
1
  6
Continuous
 62
     7
100
AcDbLine
 10
1104.410881045707
 20
805.4999999999998
 30
0.0
 11
1133.70209885499
 21
805.4999999999998
 31
0.0
  0
LINE
  5
C7
102
{ACAD_REACTORS
330
126
330
126
102
}
330
39
100
AcDbEntity
  8
1
  6
Continuous
 62
     7
100
AcDbLine
 10
1033.702098854991
 20
791.2217006150197
 30
0.0
 11
1033.702098854991
 21
786.4999999999998
 31
0.0
  0
LINE
  5
C8
102
{ACAD_REACTORS
330
126
330
126
330
127
330
127
102
}
330
39
100
AcDbEntity
  8
1
  6
PHANTOM
 62
     4
100
AcDbLine
 10
1033.702098854991
 20
800.4999999999998
 30
0.0
 11
1033.702098854991
 21
791.2217006150197
 31
0.0
  0
LINE
  5
C9
330
39
100
AcDbEntity
  8
1
  6
PHANTOM
 62
     4
100
AcDbLine
 10
1045.702098854991
 20
785.4999999999998
 30
0.0
 11
1045.702098854991
 21
786.9999999999998
 31
0.0
  0
LINE
  5
CA
102
{ACAD_REACTORS
330
126
330
126
102
}
330
39
100
AcDbEntity
  8
1
  6
Continuous
 62
     7
100
AcDbLine
 10
1113.202098854991
 20
788.4999999999998
 30
0.0
 11
1047.202098854991
 21
788.4999999999998
 31
0.0
  0
LINE
  5
CB
330
39
100
AcDbEntity
  8
1
  6
Continuous
 62
     7
100
AcDbLine
 10
1133.70209885499
 20
785.4999999999998
 30
0.0
 11
1045.702098854991
 21
785.4999999999998
 31
0.0
  0
LINE
  5
CC
330
39
100
AcDbEntity
  8
1
  6
DASH_CENTER
 62
     2
100
AcDbLine
 10
1133.70209885499
 20
785.4999999999998
 30
0.0
 11
1133.70209885499
 21
788.4999999999998
 31
0.0
  0
LINE
  5
CD
330
39
100
AcDbEntity
  8
1
  6
Continuous
 62
     7
100
AcDbLine
 10
1112.702098854991
 20
796.4999999999998
 30
0.0
 11
1154.70209885499
 21
796.4999999999998
 31
0.0
  0
LINE
  5
CE
330
39
100
AcDbEntity
  8
1
  6
Continuous
 62
     7
100
AcDbLine
 10
527.6655738981717
 20
796.7491573871856
 30
0.0
 11
394.3344261018284
 21
796.7491573871856
 31
0.0
  0
LINE
  5
CF
330
39
100
AcDbEntity
  8
1
  6
Continuous
 62
     7
100
AcDbLine
 10
371.2917960675007
 20
785.4999999999999
 30
0.0
 11
560.0000000000001
 21
785.4999999999999
 31
0.0
  0
LINE
  5
D0
330
39
100
AcDbEntity
  8
1
  6
Continuous
 62
     7
100
AcDbLine
 10
686.0135357967589
 20
935.4999999999999
 30
0.0
 11
461.0000000000001
 21
935.4999999999999
 31
0.0
  0
LINE
  5
D1
330
39
100
AcDbEntity
  8
1
  6
PHANTOM
 62
     4
100
AcDbLine
 10
691.0000000000001
 20
935.4999999999999
 30
0.0
 11
686.0135357967589
 21
935.4999999999999
 31
0.0
  0
LINE
  5
D2
330
39
100
AcDbEntity
  8
1
  6
Continuous
 62
     7
100
AcDbLine
 10
689.9182840374946
 20
930.6322781687253
 30
0.0
 11
673.7830695421815
 21
876.0238129398157
 31
0.0
  0
LINE
  5
D3
330
39
100
AcDbEntity
  8
1
  6
PHANTOM
 62
     4
100
AcDbLine
 10
658.0
 20
872.4999999999999
 30
0.0
 11
662.5297632661001
 21
872.4999999999999
 31
0.0
  0
LINE
  5
D4
330
39
100
AcDbEntity
  8
1
  6
PHANTOM
 62
     4
100
AcDbLine
 10
561.0000000000001
 20
785.4999999999999
 30
0.0
 11
561.0000000000001
 21
786.4999999999999
 31
0.0
  0
LINE
  5
D5
330
39
100
AcDbEntity
  8
1
  6
PHANTOM
 62
     4
100
AcDbLine
 10
560.0000000000001
 20
785.4999999999999
 30
0.0
 11
561.0000000000001
 21
785.4999999999999
 31
0.0
  0
LINE
  5
D6
330
39
100
AcDbEntity
  8
1
  6
PHANTOM
 62
     4
100
AcDbLine
 10
691.0000000000001
 20
935.4999999999999
 30
0.0
 11
689.9182840374946
 21
930.6322781687253
 31
0.0
  0
LINE
  5
D7
330
39
100
AcDbEntity
  8
1
  6
PHANTOM
 62
     4
100
AcDbLine
 10
673.7830695421815
 20
876.0238129398157
 30
0.0
 11
673.0000000000001
 21
872.4999999999999
 31
0.0
  0
LINE
  5
D8
330
39
100
AcDbEntity
  8
1
  6
PHANTOM
 62
     4
100
AcDbLine
 10
669.3902277713536
 20
872.4999999999999
 30
0.0
 11
673.0000000000001
 21
872.4999999999999
 31
0.0
  0
LINE
  5
D9
330
39
100
AcDbEntity
  8
1
  6
Continuous
 62
     7
100
AcDbLine
 10
662.5297632661001
 20
872.4999999999999
 30
0.0
 11
669.3902277713536
 21
872.4999999999999
 31
0.0
  0
LINE
  5
DA
330
39
100
AcDbEntity
  8
1
  6
Continuous
 62
     7
100
AcDbLine
 10
561.0000000000001
 20
786.4999999999999
 30
0.0
 11
561.0000000000001
 21
791.2217006150198
 31
0.0
  0
LINE
  5
DB
330
39
100
AcDbEntity
  8
1
  6
PHANTOM
 62
     4
100
AcDbLine
 10
561.0000000000001
 20
791.2217006150198
 30
0.0
 11
561.0000000000001
 21
800.5
 31
0.0
  0
LINE
  5
DC
330
39
100
AcDbEntity
  8
1
  6
PHANTOM
 62
     4
100
AcDbLine
 10
361.0
 20
800.5
 30
0.0
 11
361.0
 21
791.2217006150198
 31
0.0
  0
LINE
  5
DD
330
39
100
AcDbEntity
  8
1
  6
Continuous
 62
     7
100
AcDbLine
 10
361.0
 20
791.2217006150198
 30
0.0
 11
361.0
 21
786.4999999999999
 31
0.0
  0
LINE
  5
DE
330
39
100
AcDbEntity
  8
1
  6
Continuous
 62
     7
100
AcDbLine
 10
252.6097722286466
 20
872.4999999999999
 30
0.0
 11
662.5297632661001
 21
872.4999999999999
 31
0.0
  0
LINE
  5
DF
330
39
100
AcDbEntity
  8
1
  6
PHANTOM
 62
     4
100
AcDbLine
 10
249.0
 20
872.4999999999999
 30
0.0
 11
252.6097722286466
 21
872.4999999999999
 31
0.0
  0
LINE
  5
E0
330
39
100
AcDbEntity
  8
1
  6
PHANTOM
 62
     4
100
AcDbLine
 10
249.0
 20
872.4999999999999
 30
0.0
 11
248.2169304578187
 21
876.0238129398157
 31
0.0
  0
LINE
  5
E1
330
39
100
AcDbEntity
  8
1
  6
PHANTOM
 62
     4
100
AcDbLine
 10
232.0817159625056
 20
930.6322781687253
 30
0.0
 11
231.0
 21
935.4999999999999
 31
0.0
  0
LINE
  5
E2
330
39
100
AcDbEntity
  8
1
  6
PHANTOM
 62
     4
100
AcDbLine
 10
361.0
 20
785.4999999999999
 30
0.0
 11
362.0
 21
785.4999999999999
 31
0.0
  0
LINE
  5
E3
330
39
100
AcDbEntity
  8
1
  6
PHANTOM
 62
     4
100
AcDbLine
 10
361.0
 20
786.4999999999999
 30
0.0
 11
361.0
 21
785.4999999999999
 31
0.0
  0
LINE
  5
E4
330
39
100
AcDbEntity
  8
1
  6
PHANTOM
 62
     4
100
AcDbLine
 10
259.4702367339
 20
872.4999999999999
 30
0.0
 11
264.0
 21
872.4999999999999
 31
0.0
  0
LINE
  5
E5
330
39
100
AcDbEntity
  8
1
  6
Continuous
 62
     7
100
AcDbLine
 10
248.2169304578187
 20
876.0238129398157
 30
0.0
 11
232.0817159625056
 21
930.6322781687253
 31
0.0
  0
LINE
  5
E6
330
39
100
AcDbEntity
  8
1
  6
PHANTOM
 62
     4
100
AcDbLine
 10
235.9864642032413
 20
935.4999999999999
 30
0.0
 11
231.0
 21
935.4999999999999
 31
0.0
  0
LINE
  5
E7
330
39
100
AcDbEntity
  8
1
  6
Continuous
 62
     7
100
AcDbLine
 10
461.0000000000001
 20
935.4999999999999
 30
0.0
 11
235.9864642032413
 21
935.4999999999999
 31
0.0
  0
LINE
  5
E8
330
39
100
AcDbEntity
  8
1
  6
Continuous
 62
     7
100
AcDbLine
 10
362.0
 20
785.4999999999999
 30
0.0
 11
371.2917960675007
 21
785.4999999999999
 31
0.0
  0
ARC
  5
E9
102
{ACAD_REACTORS
330
126
330
126
102
}
330
39
100
AcDbEntity
  8
1
  6
Continuous
 62
     7
100
AcDbCircle
 10
904.5509691834594
 20
915.4999999999998
 30
0.0
 40
19.99999999999995
100
AcDbArc
 50
17.00244328144291
 51
51.90010077446035
  0
ARC
  5
EA
102
{ACAD_REACTORS
330
126
330
126
102
}
330
39
100
AcDbEntity
  8
1
  6
Continuous
 62
     7
100
AcDbCircle
 10
898.3806242730494
 20
907.630638927702
 30
0.0
 40
30.00000000006378
100
AcDbArc
 50
51.90010077446026
 51
66.64298924621708
  0
ARC
  5
EB
330
39
100
AcDbEntity
  8
1
  6
PHANTOM
 62
     4
100
AcDbCircle
 10
1026.223262086687
 20
917.0641260841344
 30
0.0
 40
99.9999999999939
100
AcDbArc
 50
-153.5356262507535
 51
-151.0322366064984
  0
ARC
  5
EC
102
{ACAD_REACTORS
330
126
330
126
102
}
330
39
100
AcDbEntity
  8
1
  6
Continuous
 62
     7
100
AcDbCircle
 10
1067.036524956819
 20
946.7491573871855
 30
0.0
 40
150.0000000000005
100
AcDbArc
 50
-150.3306200808234
 51
-106.2507831464524
  0
ARC
  5
ED
102
{ACAD_REACTORS
330
126
330
126
102
}
330
39
100
AcDbEntity
  8
1
  6
Continuous
 62
     7
100
AcDbCircle
 10
1076.731052093184
 20
967.9940907659122
 30
0.0
 40
160.0044811964323
100
AcDbArc
 50
-163.0505222127261
 51
-143.3574186600323
  0
ARC
  5
EE
102
{ACAD_REACTORS
330
126
330
126
102
}
330
39
100
AcDbEntity
  8
1
  6
Continuous
 62
     7
100
AcDbCircle
 10
1067.036524956819
 20
946.7491573871855
 30
0.0
 40
140.0000000000003
100
AcDbArc
 50
-147.9708180557497
 51
-103.774607462173
  0
ARC
  5
EF
102
{ACAD_REACTORS
330
124
330
124
330
125
330
125
102
}
330
39
100
AcDbEntity
  8
1
  6
PHANTOM
 62
     4
100
AcDbCircle
 10
1200.367672753162
 20
946.7491573871855
 30
0.0
 40
150.0000000000002
100
AcDbArc
 50
-77.15998348143673
 51
-73.74921685354764
  0
ARC
  5
F0
102
{ACAD_REACTORS
330
125
330
125
102
}
330
39
100
AcDbEntity
  8
1
  6
Continuous
 62
     7
100
AcDbCircle
 10
1200.367672753162
 20
946.7491573871855
 30
0.0
 40
139.9999999999998
100
AcDbArc
 50
-76.22539253782733
 51
-32.02918194425028
  0
ARC
  5
F1
102
{ACAD_REACTORS
330
125
330
125
102
}
330
39
100
AcDbEntity
  8
1
  6
Continuous
 62
     7
100
AcDbCircle
 10
1190.673145616796
 20
967.9940907659122
 30
0.0
 40
160.0044811964329
100
AcDbArc
 50
-36.64258133996759
 51
-16.94947778727386
  0
ARC
  5
F2
102
{ACAD_REACTORS
330
125
330
125
102
}
330
39
100
AcDbEntity
  8
1
  6
Continuous
 62
     7
100
AcDbCircle
 10
1200.367672753162
 20
946.7491573871855
 30
0.0
 40
150.0000000000002
100
AcDbArc
 50
-73.74921685354764
 51
-29.66937991917677
  0
ARC
  5
F3
330
39
100
AcDbEntity
  8
1
  6
PHANTOM
 62
     4
100
AcDbCircle
 10
1241.180935623293
 20
917.0641260841344
 30
0.0
 40
99.9999999999942
100
AcDbArc
 50
-28.96776339350151
 51
-26.46437374924646
  0
ARC
  5
F4
102
{ACAD_REACTORS
330
125
330
125
102
}
330
39
100
AcDbEntity
  8
1
  6
Continuous
 62
     7
100
AcDbCircle
 10
1369.023573436931
 20
907.630638927702
 30
0.0
 40
30.00000000001299
100
AcDbArc
 50
113.3570107537817
 51
128.0998992255404
  0
ARC
  5
F5
102
{ACAD_REACTORS
330
125
330
125
102
}
330
39
100
AcDbEntity
  8
1
  6
Continuous
 62
     7
100
AcDbCircle
 10
1362.853228526521
 20
915.4999999999998
 30
0.0
 40
20.00000000008313
100
AcDbArc
 50
128.0998992255407
 51
162.9975567185571
  0
ARC
  5
F6
102
{ACAD_REACTORS
330
125
330
125
102
}
330
39
100
AcDbEntity
  8
1
  6
Continuous
 62
     7
100
AcDbCircle
 10
1161.239817321516
 20
1305.496925230601
 30
0.0
 40
500.0000000000003
100
AcDbArc
 50
-89.0335995409619
 51
-81.6670891711716
  0
ARC
  5
F7
330
39
100
AcDbEntity
  8
1
  6
Continuous
 62
     7
100
AcDbCircle
 10
1161.239817321516
 20
1305.496925230601
 30
0.0
 40
500.0000000000004
100
AcDbArc
 50
-89.79906336467275
 51
-89.20215552047959
  0
ARC
  5
F8
330
39
100
AcDbEntity
  8
1
  6
Continuous
 62
     7
100
AcDbCircle
 10
1161.239817321516
 20
1305.496925230601
 30
0.0
 40
500.0000000000005
100
AcDbArc
 50
-89.20215552047959
 51
-89.0335995409619
  0
ARC
  5
F9
330
39
100
AcDbEntity
  8
1
  6
Continuous
 62
     7
100
AcDbCircle
 10
1106.164380388465
 20
1305.496925230601
 30
0.0
 40
500.0000000000003
100
AcDbArc
 50
-90.96640045903811
 51
-90.79784447952041
  0
ARC
  5
FA
330
39
100
AcDbEntity
  8
1
  6
Continuous
 62
     7
100
AcDbCircle
 10
1106.164380388465
 20
1305.496925230601
 30
0.0
 40
500.0000000000005
100
AcDbArc
 50
-90.79784447952041
 51
-90.20093663532738
  0
ARC
  5
FB
102
{ACAD_REACTORS
330
126
330
126
102
}
330
39
100
AcDbEntity
  8
1
  6
Continuous
 62
     7
100
AcDbCircle
 10
1106.164380388465
 20
1305.496925230601
 30
0.0
 40
500.0000000000004
100
AcDbArc
 50
-98.33291082882852
 51
-90.96640045903811
  0
ARC
  5
FC
102
{ACAD_REACTORS
330
126
330
126
330
127
330
127
102
}
330
39
100
AcDbEntity
  8
1
  6
PHANTOM
 62
     4
100
AcDbCircle
 10
1067.036524956819
 20
946.7491573871855
 30
0.0
 40
150.0000000000002
100
AcDbArc
 50
-106.2507831464524
 51
-102.8400165185633
  0
ARC
  5
FD
330
39
100
AcDbEntity
  8
1
  6
Continuous
 62
     7
100
AcDbCircle
 10
394.3344261018285
 20
946.7491573871856
 30
0.0
 40
150.0000000000003
100
AcDbArc
 50
-150.3306200808233
 51
-90.00000000000006
  0
ARC
  5
FE
330
39
100
AcDbEntity
  8
1
  6
PHANTOM
 62
     4
100
AcDbCircle
 10
568.478836768303
 20
917.0641260841345
 30
0.0
 40
99.999999999994
100
AcDbArc
 50
-28.96776339350157
 51
-26.46437374924649
  0
ARC
  5
FF
330
39
100
AcDbEntity
  8
1
  6
Continuous
 62
     7
100
AcDbCircle
 10
527.6655738981717
 20
946.7491573871856
 30
0.0
 40
150.0
100
AcDbArc
 50
-90.0
 51
-29.66937991917672
  0
ARC
  5
100
330
39
100
AcDbEntity
  8
1
  6
PHANTOM
 62
     4
100
AcDbCircle
 10
527.6655738981717
 20
946.7491573871856
 30
0.0
 40
150.0000000000002
100
AcDbArc
 50
-77.15998348143658
 51
-73.74921685354767
  0
ARC
  5
101
330
39
100
AcDbEntity
  8
1
  6
PHANTOM
 62
     4
100
AcDbCircle
 10
394.3344261018285
 20
946.7491573871856
 30
0.0
 40
150.0000000000001
100
AcDbArc
 50
-106.2507831464525
 51
-102.8400165185635
  0
ARC
  5
102
330
39
100
AcDbEntity
  8
1
  6
PHANTOM
 62
     4
100
AcDbCircle
 10
353.5211632316972
 20
917.0641260841345
 30
0.0
 40
99.9999999999941
100
AcDbArc
 50
-153.5356262507536
 51
-151.0322366064984
  0
CIRCLE
  5
103
330
39
100
AcDbEntity
  8
1
  6
Continuous
 62
     7
100
AcDbCircle
 10
461.0000000000001
 20
1437.5
 30
0.0
 40
20.0
  0
CIRCLE
  5
104
330
39
100
AcDbEntity
  8
1
  6
Continuous
 62
     7
100
AcDbCircle
 10
461.0000000000001
 20
1437.5
 30
0.0
 40
30.0
  0
CIRCLE
  5
105
330
39
100
AcDbEntity
  8
1
  6
Continuous
 62
     7
100
AcDbCircle
 10
461.0000000000001
 20
1437.5
 30
0.0
 40
230.0
  0
ARC
  5
106
102
{ACAD_REACTORS
330
126
330
126
102
}
330
39
100
AcDbEntity
  8
1
  6
Continuous
 62
     7
100
AcDbCircle
 10
908.6885630582314
 20
931.4999999999998
 30
0.0
 40
4.0
100
AcDbArc
 50
90.0
 51
-167.4711922908485
  0
ARC
  5
107
102
{ACAD_REACTORS
330
126
330
126
102
}
330
39
100
AcDbEntity
  8
1
  6
Continuous
 62
     7
100
AcDbCircle
 10
908.6885630582314
 20
931.4999999999998
 30
0.0
 40
4.00000000003665
100
AcDbArc
 50
66.64298924621787
 51
90.0
  0
ARC
  5
108
330
39
100
AcDbEntity
  8
1
  6
Continuous
 62
     7
100
AcDbCircle
 10
932.17233558889
 20
864.9999999999998
 30
0.0
 40
7.500000000000089
100
AcDbArc
 50
28.96776339350014
 51
90.0
  0
ARC
  5
109
102
{ACAD_REACTORS
330
126
330
126
102
}
330
39
100
AcDbEntity
  8
1
  6
Continuous
 62
     7
100
AcDbCircle
 10
925.3118710836367
 20
876.9999999999998
 30
0.0
 40
4.500000000000261
100
AcDbArc
 50
-167.471192290846
 51
-90.0
  0
ARC
  5
10A
102
{ACAD_REACTORS
330
124
330
124
102
}
330
39
100
AcDbEntity
  8
1
  6
Continuous
 62
     7
100
AcDbCircle
 10
1245.70209885499
 20
791.2217006150197
 30
0.0
 40
11.99999999999983
100
AcDbArc
 50
106.2507831464502
 51
180.0
  0
ARC
  5
10B
102
{ACAD_REACTORS
330
125
330
125
102
}
330
39
100
AcDbEntity
  8
1
  6
Continuous
 62
     7
100
AcDbCircle
 10
1342.092326626344
 20
876.9999999999998
 30
0.0
 40
4.5
100
AcDbArc
 50
-90.0
 51
-12.52880770915402
  0
ARC
  5
10C
102
{ACAD_REACTORS
330
125
330
125
102
}
330
39
100
AcDbEntity
  8
1
  6
Continuous
 62
     7
100
AcDbCircle
 10
1232.70209885499
 20
786.4999999999998
 30
0.0
 40
1.0
100
AcDbArc
 50
-90.0
 51
0.0
  0
ARC
  5
10D
330
39
100
AcDbEntity
  8
1
  6
Continuous
 62
     7
100
AcDbCircle
 10
1335.23186212109
 20
864.9999999999998
 30
0.0
 40
7.5
100
AcDbArc
 50
90.0
 51
151.0322366064982
  0
ARC
  5
10E
102
{ACAD_REACTORS
330
125
330
125
102
}
330
39
100
AcDbEntity
  8
1
  6
Continuous
 62
     7
100
AcDbCircle
 10
1358.715634651749
 20
931.4999999999998
 30
0.0
 40
4.0
100
AcDbArc
 50
90.0
 51
113.3570107537732
  0
ARC
  5
10F
102
{ACAD_REACTORS
330
125
330
125
102
}
330
39
100
AcDbEntity
  8
1
  6
Continuous
 62
     7
100
AcDbCircle
 10
1358.715634651749
 20
931.4999999999998
 30
0.0
 40
4.000000000000078
100
AcDbArc
 50
-12.5288077091508
 51
90.0
  0
ARC
  5
110
102
{ACAD_REACTORS
330
125
330
125
102
}
330
39
100
AcDbEntity
  8
1
  6
Continuous
 62
     7
100
AcDbCircle
 10
1159.538214026359
 20
793.7217450324893
 30
0.0
 40
5.00000000000002
100
AcDbArc
 50
123.8232596522815
 51
176.4236656250028
  0
ARC
  5
111
102
{ACAD_REACTORS
330
125
330
125
102
}
330
39
100
AcDbEntity
  8
1
  6
Continuous
 62
     7
100
AcDbCircle
 10
1169.757182756399
 20
800.5687575809352
 30
0.0
 40
5.00000000000002
100
AcDbArc
 50
90.96640045904624
 51
123.8232596522837
  0
ARC
  5
112
330
39
100
AcDbEntity
  8
1
  6
Continuous
 62
     7
100
AcDbCircle
 10
1220.20209885499
 20
786.9999999999998
 30
0.0
 40
1.5
100
AcDbArc
 50
0.0
 51
90.0
  0
ARC
  5
113
102
{ACAD_REACTORS
330
125
330
125
102
}
330
39
100
AcDbEntity
  8
1
  6
Continuous
 62
     7
100
AcDbCircle
 10
1223.20209885499
 20
786.9999999999998
 30
0.0
 40
1.5
100
AcDbArc
 50
180.0
 51
-90.0
  0
ARC
  5
114
102
{ACAD_REACTORS
330
126
330
126
102
}
330
39
100
AcDbEntity
  8
1
  6
Continuous
 62
     7
100
AcDbCircle
 10
1044.202098854991
 20
786.9999999999998
 30
0.0
 40
1.5
100
AcDbArc
 50
-90.0
 51
0.0
  0
ARC
  5
115
330
39
100
AcDbEntity
  8
1
  6
Continuous
 62
     7
100
AcDbCircle
 10
1047.202098854991
 20
786.9999999999998
 30
0.0
 40
1.5
100
AcDbArc
 50
90.0
 51
180.0
  0
ARC
  5
116
102
{ACAD_REACTORS
330
126
330
126
102
}
330
39
100
AcDbEntity
  8
1
  6
Continuous
 62
     7
100
AcDbCircle
 10
1097.647014953583
 20
800.5687575809352
 30
0.0
 40
4.999999999999513
100
AcDbArc
 50
56.17674034772714
 51
89.03359954096679
  0
ARC
  5
117
102
{ACAD_REACTORS
330
126
330
126
102
}
330
39
100
AcDbEntity
  8
1
  6
Continuous
 62
     7
100
AcDbCircle
 10
1107.865983683622
 20
793.7217450324893
 30
0.0
 40
5.000000000000429
100
AcDbArc
 50
3.57633437499654
 51
56.17674034771848
  0
ARC
  5
118
102
{ACAD_REACTORS
330
126
330
126
102
}
330
39
100
AcDbEntity
  8
1
  6
Continuous
 62
     7
100
AcDbCircle
 10
1034.702098854991
 20
786.4999999999998
 30
0.0
 40
1.0
100
AcDbArc
 50
180.0
 51
-90.0
  0
ARC
  5
119
102
{ACAD_REACTORS
330
127
330
127
102
}
330
39
100
AcDbEntity
  8
1
  6
Continuous
 62
     7
100
AcDbCircle
 10
1021.702098854991
 20
791.2217006150197
 30
0.0
 40
11.99999999999989
100
AcDbArc
 50
0.0
 51
73.74921685355029
  0
ARC
  5
11A
330
39
100
AcDbEntity
  8
1
  6
Continuous
 62
     7
100
AcDbCircle
 10
686.0135357967589
 20
931.4999999999999
 30
0.0
 40
3.999999999999857
100
AcDbArc
 50
-12.52880770915151
 51
90.0
  0
ARC
  5
11B
330
39
100
AcDbEntity
  8
1
  6
Continuous
 62
     7
100
AcDbCircle
 10
662.5297632661001
 20
864.9999999999999
 30
0.0
 40
7.5
100
AcDbArc
 50
90.0
 51
151.032236606499
  0
ARC
  5
11C
330
39
100
AcDbEntity
  8
1
  6
Continuous
 62
     7
100
AcDbCircle
 10
560.0000000000001
 20
786.4999999999999
 30
0.0
 40
1.0
100
AcDbArc
 50
-90.0
 51
0.0
  0
ARC
  5
11D
330
39
100
AcDbEntity
  8
1
  6
Continuous
 62
     7
100
AcDbCircle
 10
669.3902277713536
 20
876.9999999999999
 30
0.0
 40
4.5
100
AcDbArc
 50
-90.0
 51
-12.52880770915434
  0
ARC
  5
11E
330
39
100
AcDbEntity
  8
1
  6
Continuous
 62
     7
100
AcDbCircle
 10
573.0000000000001
 20
791.2217006150198
 30
0.0
 40
12.00000000000007
100
AcDbArc
 50
106.2507831464522
 51
180.0
  0
ARC
  5
11F
330
39
100
AcDbEntity
  8
1
  6
Continuous
 62
     7
100
AcDbCircle
 10
349.0
 20
791.2217006150198
 30
0.0
 40
12.0
100
AcDbArc
 50
0.0
 51
73.74921685354863
  0
ARC
  5
120
330
39
100
AcDbEntity
  8
1
  6
Continuous
 62
     7
100
AcDbCircle
 10
252.6097722286466
 20
876.9999999999999
 30
0.0
 40
4.50000000000015
100
AcDbArc
 50
-167.4711922908457
 51
-90.0
  0
ARC
  5
121
330
39
100
AcDbEntity
  8
1
  6
Continuous
 62
     7
100
AcDbCircle
 10
362.0
 20
786.4999999999999
 30
0.0
 40
1.0
100
AcDbArc
 50
180.0
 51
-90.0
  0
ARC
  5
122
330
39
100
AcDbEntity
  8
1
  6
Continuous
 62
     7
100
AcDbCircle
 10
259.4702367339
 20
864.9999999999999
 30
0.0
 40
7.500000000000039
100
AcDbArc
 50
28.96776339350035
 51
90.0
  0
ARC
  5
123
330
39
100
AcDbEntity
  8
1
  6
Continuous
 62
     7
100
AcDbCircle
 10
235.9864642032413
 20
931.4999999999999
 30
0.0
 40
4.0
100
AcDbArc
 50
90.0
 51
-167.4711922908486
  0
HATCH
  5
124
330
39
100
AcDbEntity
  8
1
  6
Continuous
 62
     2
100
AcDbHatch
 10
0.0
 20
0.0
 30
0.0
210
0.0
220
0.0
230
1.0
  2
_USER
 70
     0
 71
     1
 91
        1
 92
        1
 93
        3
 72
     2
 10
1245.70209885499
 20
791.2217006150197
 40
11.99999999999983
 50
106.2507831464502
 51
180.0
 73
     1
 72
     1
 10
1233.70209885499
 20
791.2217006150197
 11
1233.70209885499
 21
800.4999999999998
 72
     2
 10
1200.367672753162
 20
946.7491573871855
 40
150.0000000000002
 50
282.8400165185632
 51
286.2507831464524
 73
     1
 97
        3
330
10A
330
A3
330
EF
 75
     1
 76
     0
 52
45.0
 41
10.0
 77
     0
 78
     1
 53
45.0
 43
0.0
 44
0.0
 45
-7.071067811865475
 46
7.071067811865476
 79
     0
 98
        1
 10
0.0
 20
0.0
  0
HATCH
  5
125
330
39
100
AcDbEntity
  8
1
  6
Continuous
 62
     2
100
AcDbHatch
 10
0.0
 20
0.0
 30
0.0
210
0.0
220
0.0
230
1.0
  2
_USER
 70
     0
 71
     1
 91
        1
 92
        1
 93
       25
 72
     2
 10
1362.853228526521
 20
915.4999999999998
 40
20.00000000008313
 50
197.0024432814429
 51
231.9001007744593
 73
     0
 72
     2
 10
1369.023573436931
 20
907.630638927702
 40
30.00000000001299
 50
231.9001007744596
 51
246.6429892462183
 73
     0
 72
     2
 10
1358.715634651749
 20
931.4999999999998
 40
4.0
 50
246.6429892462269
 51
270.0
 73
     0
 72
     2
 10
1358.715634651749
 20
931.4999999999998
 40
4.000000000000078
 50
270.0
 51
372.5288077091508
 73
     0
 72
     1
 10
1362.620382892485
 20
930.6322781687252
 11
1346.485168397172
 21
876.0238129398156
 72
     2
 10
1342.092326626344
 20
876.9999999999998
 40
4.5
 50
12.52880770915402
 51
90.0
 73
     0
 72
     1
 10
1342.092326626344
 20
872.4999999999998
 11
1335.23186212109
 21
872.4999999999998
 72
     1
 10
1335.23186212109
 20
872.4999999999998
 11
1330.70209885499
 21
872.4999999999998
 72
     2
 10
1200.367672753162
 20
946.7491573871855
 40
150.0000000000002
 50
29.66937991917677
 51
73.74921685354764
 73
     0
 72
     2
 10
1200.367672753162
 20
946.7491573871855
 40
150.0000000000002
 50
73.74921685354764
 51
77.15998348143673
 73
     0
 72
     1
 10
1233.70209885499
 20
800.4999999999998
 11
1233.70209885499
 21
791.2217006150197
 72
     1
 10
1233.70209885499
 20
791.2217006150197
 11
1233.70209885499
 21
786.4999999999998
 72
     2
 10
1232.70209885499
 20
786.4999999999998
 40
1.0
 50
0.0
 51
90.0
 73
     0
 72
     1
 10
1232.70209885499
 20
785.4999999999998
 11
1223.20209885499
 21
785.4999999999998
 72
     2
 10
1223.20209885499
 20
786.9999999999998
 40
1.5
 50
90.0
 51
180.0
 73
     0
 72
     1
 10
1221.70209885499
 20
786.9999999999998
 11
1221.70209885499
 21
788.4999999999998
 72
     1
 10
1221.70209885499
 20
788.4999999999998
 11
1220.20209885499
 21
788.4999999999998
 72
     1
 10
1220.20209885499
 20
788.4999999999998
 11
1154.20209885499
 21
788.4999999999998
 72
     1
 10
1154.20209885499
 20
788.4999999999998
 11
1154.547951133945
 21
794.0336364632651
 72
     2
 10
1159.538214026359
 20
793.7217450324893
 40
5.00000000000002
 50
183.5763343749972
 51
236.1767403477185
 73
     0
 72
     1
 10
1156.755049456148
 20
797.8755378745943
 11
1166.974018186188
 21
804.7225504230403
 72
     2
 10
1169.757182756399
 20
800.5687575809352
 40
5.00000000000002
 50
236.1767403477163
 51
269.0335995409537
 73
     0
 72
     2
 10
1161.239817321516
 20
1305.496925230601
 40
500.0000000000003
 50
270.9664004590381
 51
278.3329108288284
 73
     1
 72
     2
 10
1200.367672753162
 20
946.7491573871855
 40
139.9999999999998
 50
283.7746074621727
 51
327.9708180557497
 73
     1
 72
     2
 10
1190.673145616796
 20
967.9940907659122
 40
160.0044811964329
 50
323.3574186600324
 51
343.0505222127262
 73
     1
 97
       25
330
F0
330
F6
330
111
330
B1
330
110
330
B0
330
A1
330
B7
330
B8
330
113
330
B6
330
10C
330
A4
330
A3
330
EF
330
F2
330
AC
330
A6
330
10B
330
AD
330
10F
330
10E
330
F4
330
F5
330
F1
 75
     1
 76
     0
 52
45.0
 41
10.0
 77
     0
 78
     1
 53
45.0
 43
0.0
 44
0.0
 45
-7.071067811865475
 46
7.071067811865476
 79
     0
 98
        1
 10
0.0
 20
0.0
  0
HATCH
  5
126
330
39
100
AcDbEntity
  8
1
  6
Continuous
 62
     2
100
AcDbHatch
 10
0.0
 20
0.0
 30
0.0
210
0.0
220
0.0
230
1.0
  2
_USER
 70
     0
 71
     1
 91
        1
 92
        1
 93
       25
 72
     1
 10
1100.430179523793
 20
804.7225504230403
 11
1110.649148253833
 21
797.8755378745943
 72
     2
 10
1107.865983683622
 20
793.7217450324893
 40
5.000000000000429
 50
303.8232596522815
 51
356.4236656250035
 73
     0
 72
     1
 10
1112.856246576037
 20
794.0336364632651
 11
1113.202098854991
 21
788.4999999999998
 72
     1
 10
1113.202098854991
 20
788.4999999999998
 11
1047.202098854991
 21
788.4999999999998
 72
     1
 10
1047.202098854991
 20
788.4999999999998
 11
1045.702098854991
 21
788.4999999999998
 72
     1
 10
1045.702098854991
 20
788.4999999999998
 11
1045.702098854991
 21
786.9999999999998
 72
     2
 10
1044.202098854991
 20
786.9999999999998
 40
1.5
 50
0.0
 51
90.0
 73
     0
 72
     1
 10
1044.202098854991
 20
785.4999999999998
 11
1034.702098854991
 21
785.4999999999998
 72
     2
 10
1034.702098854991
 20
786.4999999999998
 40
1.0
 50
90.0
 51
180.0
 73
     0
 72
     1
 10
1033.702098854991
 20
786.4999999999998
 11
1033.702098854991
 21
791.2217006150197
 72
     1
 10
1033.702098854991
 20
791.2217006150197
 11
1033.702098854991
 21
800.4999999999998
 72
     2
 10
1067.036524956819
 20
946.7491573871855
 40
150.0000000000002
 50
102.8400165185633
 51
106.2507831464524
 73
     0
 72
     2
 10
1067.036524956819
 20
946.7491573871855
 40
150.0000000000005
 50
106.2507831464524
 51
150.3306200808234
 73
     0
 72
     1
 10
936.7020988549901
 20
872.4999999999998
 11
932.17233558889
 21
872.4999999999998
 72
     1
 10
932.17233558889
 20
872.4999999999998
 11
925.3118710836367
 21
872.4999999999998
 72
     2
 10
925.3118710836367
 20
876.9999999999998
 40
4.500000000000261
 50
90.0
 51
167.471192290846
 73
     0
 72
     1
 10
920.9190293128087
 20
876.0238129398156
 11
904.7838148174957
 21
930.6322781687252
 72
     2
 10
908.6885630582314
 20
931.4999999999998
 40
4.0
 50
167.4711922908485
 51
270.0
 73
     0
 72
     2
 10
908.6885630582314
 20
931.4999999999998
 40
4.00000000003665
 50
270.0
 51
293.3570107537821
 73
     0
 72
     2
 10
898.3806242730494
 20
907.630638927702
 40
30.00000000006378
 50
293.3570107537829
 51
308.0998992255397
 73
     0
 72
     2
 10
904.5509691834594
 20
915.4999999999998
 40
19.99999999999995
 50
308.0998992255397
 51
342.9975567185571
 73
     0
 72
     2
 10
1076.731052093184
 20
967.9940907659122
 40
160.0044811964323
 50
196.9494777872739
 51
216.6425813399677
 73
     1
 72
     2
 10
1067.036524956819
 20
946.7491573871855
 40
140.0000000000003
 50
212.0291819442503
 51
256.225392537827
 73
     1
 72
     2
 10
1106.164380388465
 20
1305.496925230601
 40
500.0000000000004
 50
261.6670891711715
 51
269.0335995409619
 73
     1
 72
     2
 10
1097.647014953583
 20
800.5687575809352
 40
4.999999999999513
 50
270.9664004590333
 51
303.8232596522729
 73
     0
 97
       25
330
FB
330
EE
330
ED
330
E9
330
EA
330
107
330
106
330
99
330
109
330
9E
330
9A
330
EC
330
FC
330
C8
330
C7
330
118
330
BD
330
114
330
BB
330
BC
330
CA
330
C3
330
117
330
C2
330
116
 75
     1
 76
     0
 52
45.0
 41
10.0
 77
     0
 78
     1
 53
45.0
 43
0.0
 44
0.0
 45
-7.071067811865475
 46
7.071067811865476
 79
     0
 98
        1
 10
0.0
 20
0.0
  0
HATCH
  5
127
330
39
100
AcDbEntity
  8
1
  6
Continuous
 62
     2
100
AcDbHatch
 10
0.0
 20
0.0
 30
0.0
210
0.0
220
0.0
230
1.0
  2
_USER
 70
     0
 71
     1
 91
        1
 92
        1
 93
        3
 72
     1
 10
1033.702098854991
 20
800.4999999999998
 11
1033.702098854991
 21
791.2217006150197
 72
     2
 10
1021.702098854991
 20
791.2217006150197
 40
11.99999999999989
 50
0.0
 51
73.74921685355029
 73
     1
 72
     2
 10
1067.036524956819
 20
946.7491573871855
 40
150.0000000000002
 50
253.7492168535476
 51
257.1599834814367
 73
     1
 97
        3
330
119
330
C8
330
FC
 75
     1
 76
     0
 52
45.0
 41
10.0
 77
     0
 78
     1
 53
45.0
 43
0.0
 44
0.0
 45
-7.071067811865475
 46
7.071067811865476
 79
     0
 98
        1
 10
0.0
 20
0.0
  0
ENDBLK
  5
3B
330
39
100
AcDbEntity
  8
0
100
AcDbBlockEnd
  0
BLOCK
  5
161
330
158
100
AcDbEntity
  8
0
100
AcDbBlockBegin
  2
*D03
 70
     1
 71
     0
 10
0.0
 20
0.0
 30
0.0
  3
*D03
  1

  0
LINE
  5
159
330
158
100
AcDbEntity
  8
1
  6
Continuous
 62
     2
100
AcDbLine
 10
1154.202098854991
 20
715.4999999999999
 30
0.0
 11
1239.937880421913
 21
715.4999999999999
 31
0.0
  0
LINE
  5
15A
330
158
100
AcDbEntity
  8
1
  6
Continuous
 62
     2
100
AcDbLine
 10
1113.202098854991
 20
715.4999999999999
 30
0.0
 11
1154.202098854991
 21
715.4999999999999
 31
0.0
  0
LINE
  5
15B
330
158
100
AcDbEntity
  8
1
  6
Continuous
 62
     2
100
AcDbLine
 10
1064.202084154987
 20
715.4999999999999
 30
0.0
 11
1113.202098854991
 21
715.4999999999999
 31
0.0
  0
LINE
  5
15C
330
158
100
AcDbEntity
  8
1
  6
Continuous
 62
     2
100
AcDbLine
 10
1113.202098854991
 20
788.4999999999998
 30
0.0
 11
1113.202098854991
 21
708.4999978999992
 31
0.0
  0
LINE
  5
15D
330
158
100
AcDbEntity
  8
1
  6
Continuous
 62
     2
100
AcDbLine
 10
1154.202098854991
 20
788.4999999999998
 30
0.0
 11
1154.202098854991
 21
708.4999978999992
 31
0.0
  0
SOLID
  5
15E
330
158
100
AcDbEntity
  8
1
 62
     2
100
AcDbTrace
 10
1088.702091504989
 20
712.2745128414625
 30
0.0
 11
1088.702091504989
 21
718.7254871585373
 31
0.0
 12
1113.202098854991
 22
715.4999999999999
 32
0.0
 13
1113.202098854991
 23
715.4999999999999
 33
0.0
  0
SOLID
  5
15F
330
158
100
AcDbEntity
  8
1
 62
     2
100
AcDbTrace
 10
1178.702106204993
 20
718.7254871585373
 30
0.0
 11
1178.702106204993
 21
712.2745128414625
 31
0.0
 12
1154.202098854991
 22
715.4999999999999
 32
0.0
 13
1154.202098854991
 23
715.4999999999999
 33
0.0
  0
MTEXT
  5
160
330
158
100
AcDbEntity
  8
1
 62
     7
100
AcDbMText
 10
1170.357859548024
 20
722.4999047009027
 30
0.0
 40
24.50000735000221
 41
0.0
 71
     7
 72
     1
  1
\C7;{\Fgdt;n}\C7;41
  7
CONVERTER_2
 11
0.9999999999970621
 21
2.424068405545307E-6
 31
0.0
 73
     1
 44
0.60024009603842
  0
ENDBLK
  5
162
330
158
100
AcDbEntity
  8
0
100
AcDbBlockEnd
  0
BLOCK
  5
16E
330
165
100
AcDbEntity
  8
0
100
AcDbBlockBegin
  2
*D14
 70
     1
 71
     0
 10
0.0
 20
0.0
 30
0.0
  3
*D14
  1

  0
LINE
  5
166
330
165
100
AcDbEntity
  8
1
  6
Continuous
 62
     2
100
AcDbLine
 10
1063.702084154987
 20
841.600312882765
 30
0.0
 11
1112.702098854991
 21
841.600312882765
 31
0.0
  0
LINE
  5
167
330
165
100
AcDbEntity
  8
1
  6
Continuous
 62
     2
100
AcDbLine
 10
1112.702098854991
 20
841.600312882765
 30
0.0
 11
1154.702098854991
 21
841.600312882765
 31
0.0
  0
LINE
  5
168
330
165
100
AcDbEntity
  8
1
  6
Continuous
 62
     2
100
AcDbLine
 10
1154.702098854991
 20
841.600312882765
 30
0.0
 11
1203.702113554995
 21
841.600312882765
 31
0.0
  0
LINE
  5
169
330
165
100
AcDbEntity
  8
1
  6
Continuous
 62
     2
100
AcDbLine
 10
1154.702098854991
 20
796.4999999999998
 30
0.0
 11
1154.702098854991
 21
848.6003149827657
 31
0.0
  0
LINE
  5
16A
330
165
100
AcDbEntity
  8
1
  6
Continuous
 62
     2
100
AcDbLine
 10
1112.702098854991
 20
796.4999999999998
 30
0.0
 11
1112.702098854991
 21
848.6003149827657
 31
0.0
  0
SOLID
  5
16B
330
165
100
AcDbEntity
  8
1
 62
     2
100
AcDbTrace
 10
1088.202091504989
 20
838.3748257242277
 30
0.0
 11
1088.202091504989
 21
844.8258000413024
 31
0.0
 12
1112.702098854991
 22
841.600312882765
 32
0.0
 13
1112.702098854991
 23
841.600312882765
 33
0.0
  0
SOLID
  5
16C
330
165
100
AcDbEntity
  8
1
 62
     2
100
AcDbTrace
 10
1179.202106204993
 20
844.8258000413024
 30
0.0
 11
1179.202106204993
 21
838.3748257242277
 31
0.0
 12
1154.702098854991
 22
841.600312882765
 32
0.0
 13
1154.702098854991
 23
841.600312882765
 33
0.0
  0
MTEXT
  5
16D
330
165
100
AcDbEntity
  8
1
 62
     7
100
AcDbMText
 10
1089.847085698605
 20
848.6002175836678
 30
0.0
 40
24.50000735000221
 41
0.0
 71
     7
 72
     1
  1
\C7;{\Fgdt;n}\C7;42
  7
CONVERTER_2
 11
0.9999999999970621
 21
2.424068405545307E-6
 31
0.0
 73
     1
 44
0.60024009603842
  0
ENDBLK
  5
16F
330
165
100
AcDbEntity
  8
0
100
AcDbBlockEnd
  0
BLOCK
  5
179
330
172
100
AcDbEntity
  8
0
100
AcDbBlockBegin
  2
*D25
 70
     1
 71
     0
 10
0.0
 20
0.0
 30
0.0
  3
*D25
  1

  0
LINE
  5
173
330
172
100
AcDbEntity
  8
1
  6
Continuous
 62
     2
100
AcDbLine
 10
1099.202098854991
 20
895.6961902882989
 30
0.0
 11
1168.202098854991
 21
895.6961902882989
 31
0.0
  0
LINE
  5
174
330
172
100
AcDbEntity
  8
1
  6
Continuous
 62
     2
100
AcDbLine
 10
1168.202098854991
 20
805.5454009446466
 30
0.0
 11
1168.202098854991
 21
902.6961923882996
 31
0.0
  0
LINE
  5
175
330
172
100
AcDbEntity
  8
1
  6
Continuous
 62
     2
100
AcDbLine
 10
1099.202098854991
 20
805.5454009446466
 30
0.0
 11
1099.202098854991
 21
902.6961923882996
 31
0.0
  0
SOLID
  5
176
330
172
100
AcDbEntity
  8
1
 62
     2
100
AcDbTrace
 10
1123.702106204994
 20
898.9216774468363
 30
0.0
 11
1123.702106204994
 21
892.4707031297616
 31
0.0
 12
1099.202098854991
 22
895.6961902882989
 32
0.0
 13
1099.202098854991
 23
895.6961902882989
 33
0.0
  0
SOLID
  5
177
330
172
100
AcDbEntity
  8
1
 62
     2
100
AcDbTrace
 10
1143.702091504988
 20
892.4707031297616
 30
0.0
 11
1143.702091504988
 21
898.9216774468363
 31
0.0
 12
1168.202098854991
 22
895.6961902882989
 32
0.0
 13
1168.202098854991
 23
895.6961902882989
 33
0.0
  0
MTEXT
  5
178
330
172
100
AcDbEntity
  8
1
 62
     7
100
AcDbMText
 10
1089.847085698605
 20
902.6960949892017
 30
0.0
 40
24.50000735000221
 41
0.0
 71
     7
 72
     1
  1
\C7;{\Fgdt;n}\C7;69
  7
CONVERTER_2
 11
0.9999999999970621
 21
2.424068405545307E-6
 31
0.0
 73
     1
 44
0.60024009603842
  0
ENDBLK
  5
17A
330
172
100
AcDbEntity
  8
0
100
AcDbBlockEnd
  0
BLOCK
  5
184
330
17D
100
AcDbEntity
  8
0
100
AcDbBlockBegin
  2
*D36
 70
     1
 71
     0
 10
0.0
 20
0.0
 30
0.0
  3
*D36
  1

  0
LINE
  5
17E
330
17D
100
AcDbEntity
  8
1
  6
Continuous
 62
     2
100
AcDbLine
 10
361.0
 20
715.4999999999999
 30
0.0
 11
561.0000000000001
 21
715.4999999999999
 31
0.0
  0
LINE
  5
17F
330
17D
100
AcDbEntity
  8
1
  6
Continuous
 62
     2
100
AcDbLine
 10
361.0
 20
785.4999999999999
 30
0.0
 11
361.0
 21
708.4999978999992
 31
0.0
  0
LINE
  5
180
330
17D
100
AcDbEntity
  8
1
  6
Continuous
 62
     2
100
AcDbLine
 10
561.0000000000001
 20
785.4999999999999
 30
0.0
 11
561.0000000000001
 21
708.4999978999992
 31
0.0
  0
SOLID
  5
181
330
17D
100
AcDbEntity
  8
1
 62
     2
100
AcDbTrace
 10
385.5000073500022
 20
718.7254871585373
 30
0.0
 11
385.5000073500022
 21
712.2745128414625
 31
0.0
 12
361.0
 22
715.4999999999999
 32
0.0
 13
361.0
 23
715.4999999999999
 33
0.0
  0
SOLID
  5
182
330
17D
100
AcDbEntity
  8
1
 62
     2
100
AcDbTrace
 10
536.4999926499979
 20
712.2745128414625
 30
0.0
 11
536.4999926499979
 21
718.7254871585373
 31
0.0
 12
561.0000000000001
 22
715.4999999999999
 32
0.0
 13
561.0000000000001
 23
715.4999999999999
 33
0.0
  0
MTEXT
  5
183
330
17D
100
AcDbEntity
  8
1
 62
     7
100
AcDbMText
 10
406.1199835361132
 20
722.4999047009027
 30
0.0
 40
24.50000735000221
 41
0.0
 71
     7
 72
     1
  1
\C7;{\Fgdt;n}\C7;200
  7
CONVERTER_2
 11
0.9999999999970621
 21
2.424068405545307E-6
 31
0.0
 73
     1
 44
0.60024009603842
  0
ENDBLK
  5
185
330
17D
100
AcDbEntity
  8
0
100
AcDbBlockEnd
  0
BLOCK
  5
191
330
188
100
AcDbEntity
  8
0
100
AcDbBlockBegin
  2
*D47
 70
     1
 71
     0
 10
0.0
 20
0.0
 30
0.0
  3
*D47
  1

  0
LINE
  5
189
330
188
100
AcDbEntity
  8
1
  6
Continuous
 62
     2
100
AcDbLine
 10
743.0000021000008
 20
800.5
 30
0.0
 11
743.0000021000008
 21
849.5000147000044
 31
0.0
  0
LINE
  5
18A
330
188
100
AcDbEntity
  8
1
  6
Continuous
 62
     2
100
AcDbLine
 10
743.0000021000008
 20
785.4999999999999
 30
0.0
 11
743.0000021000008
 21
800.5
 31
0.0
  0
LINE
  5
18B
330
188
100
AcDbEntity
  8
1
  6
Continuous
 62
     2
100
AcDbLine
 10
743.0000021000008
 20
736.4999852999955
 30
0.0
 11
743.0000021000008
 21
785.4999999999999
 31
0.0
  0
LINE
  5
18C
330
188
100
AcDbEntity
  8
1
  6
Continuous
 62
     2
100
AcDbLine
 10
561.0000000000001
 20
785.4999999999999
 30
0.0
 11
750.0000042000014
 21
785.4999999999999
 31
0.0
  0
LINE
  5
18D
330
188
100
AcDbEntity
  8
1
  6
Continuous
 62
     2
100
AcDbLine
 10
561.0000000000001
 20
800.5
 30
0.0
 11
750.0000042000014
 21
800.5
 31
0.0
  0
SOLID
  5
18E
330
188
100
AcDbEntity
  8
1
 62
     2
100
AcDbTrace
 10
746.2254892585381
 20
760.9999926499977
 30
0.0
 11
739.7745149414634
 21
760.9999926499977
 31
0.0
 12
743.0000021000008
 22
785.4999999999999
 32
0.0
 13
743.0000021000008
 23
785.4999999999999
 33
0.0
  0
SOLID
  5
18F
330
188
100
AcDbEntity
  8
1
 62
     2
100
AcDbTrace
 10
739.7745149414634
 20
825.0000073500022
 30
0.0
 11
746.2254892585381
 21
825.0000073500022
 31
0.0
 12
743.0000021000008
 22
800.5
 32
0.0
 13
743.0000021000008
 23
800.5
 33
0.0
  0
MTEXT
  5
190
330
188
100
AcDbEntity
  8
1
 62
     7
100
AcDbMText
 10
736.0000000000002
 20
736.9611384111485
 30
0.0
 40
24.50000735000221
 41
0.0
 71
     7
 72
     1
  1
15
  7
CONVERTER_2
 11
0.0
 21
1.0
 31
0.0
 73
     1
 44
0.60024009603842
  0
ENDBLK
  5
192
330
188
100
AcDbEntity
  8
0
100
AcDbBlockEnd
  0
BLOCK
  5
19C
330
195
100
AcDbEntity
  8
0
100
AcDbBlockBegin
  2
*D58
 70
     1
 71
     0
 10
0.0
 20
0.0
 30
0.0
  3
*D58
  1

  0
LINE
  5
196
330
195
100
AcDbEntity
  8
1
  6
Continuous
 62
     2
100
AcDbLine
 10
793.0000021000008
 20
785.4999999999999
 30
0.0
 11
793.0000021000008
 21
872.4999999999999
 31
0.0
  0
LINE
  5
197
330
195
100
AcDbEntity
  8
1
  6
Continuous
 62
     2
100
AcDbLine
 10
560.0000000000001
 20
785.4999999999999
 30
0.0
 11
800.0000042000014
 21
785.4999999999999
 31
0.0
  0
LINE
  5
198
330
195
100
AcDbEntity
  8
1
  6
Continuous
 62
     2
100
AcDbLine
 10
673.0
 20
872.4999999999999
 30
0.0
 11
800.0000042000014
 21
872.4999999999999
 31
0.0
  0
SOLID
  5
199
330
195
100
AcDbEntity
  8
1
 62
     2
100
AcDbTrace
 10
789.7745149414634
 20
810.0000073500021
 30
0.0
 11
796.2254892585381
 21
810.0000073500021
 31
0.0
 12
793.0000021000008
 22
785.4999999999999
 32
0.0
 13
793.0000021000008
 23
785.4999999999999
 33
0.0
  0
SOLID
  5
19A
330
195
100
AcDbEntity
  8
1
 62
     2
100
AcDbTrace
 10
796.2254892585381
 20
847.9999926499977
 30
0.0
 11
789.7745149414634
 21
847.9999926499977
 31
0.0
 12
793.0000021000008
 22
872.4999999999999
 32
0.0
 13
793.0000021000008
 23
872.4999999999999
 33
0.0
  0
MTEXT
  5
19B
330
195
100
AcDbEntity
  8
1
 62
     7
100
AcDbMText
 10
786.0000000000002
 20
815.6827189500732
 30
0.0
 40
24.50000735000221
 41
0.0
 71
     7
 72
     1
  1
87
  7
CONVERTER_2
 11
0.0
 21
1.0
 31
0.0
 73
     1
 44
0.60024009603842
  0
ENDBLK
  5
19D
330
195
100
AcDbEntity
  8
0
100
AcDbBlockEnd
  0
BLOCK
  5
1A7
330
1A0
100
AcDbEntity
  8
0
100
AcDbBlockBegin
  2
*D69
 70
     1
 71
     0
 10
0.0
 20
0.0
 30
0.0
  3
*D69
  1

  0
LINE
  5
1A1
330
1A0
100
AcDbEntity
  8
1
  6
Continuous
 62
     2
100
AcDbLine
 10
843.0000021000006
 20
785.4999999999999
 30
0.0
 11
843.0000021000006
 21
935.4999999999998
 31
0.0
  0
LINE
  5
1A2
330
1A0
100
AcDbEntity
  8
1
  6
Continuous
 62
     2
100
AcDbLine
 10
561.0
 20
785.4999999999999
 30
0.0
 11
850.0000042000013
 21
785.4999999999999
 31
0.0
  0
LINE
  5
1A3
330
1A0
100
AcDbEntity
  8
1
  6
Continuous
 62
     2
100
AcDbLine
 10
691.0
 20
935.4999999999998
 30
0.0
 11
850.0000042000013
 21
935.4999999999998
 31
0.0
  0
SOLID
  5
1A4
330
1A0
100
AcDbEntity
  8
1
 62
     2
100
AcDbTrace
 10
839.7745149414633
 20
810.0000073500021
 30
0.0
 11
846.225489258538
 21
810.0000073500021
 31
0.0
 12
843.0000021000006
 22
785.4999999999999
 32
0.0
 13
843.0000021000006
 23
785.4999999999999
 33
0.0
  0
SOLID
  5
1A5
330
1A0
100
AcDbEntity
  8
1
 62
     2
100
AcDbTrace
 10
846.225489258538
 20
910.9999926499976
 30
0.0
 11
839.7745149414633
 21
910.9999926499976
 31
0.0
 12
843.0000021000006
 22
935.4999999999998
 32
0.0
 13
843.0000021000006
 23
935.4999999999998
 33
0.0
  0
MTEXT
  5
1A6
330
1A0
100
AcDbEntity
  8
1
 62
     7
100
AcDbMText
 10
836.0000000000001
 20
834.7749922824976
 30
0.0
 40
24.50000735000221
 41
0.0
 71
     7
 72
     1
  1
150
  7
CONVERTER_2
 11
0.0
 21
1.0
 31
0.0
 73
     1
 44
0.60024009603842
  0
ENDBLK
  5
1A8
330
1A0
100
AcDbEntity
  8
0
100
AcDbBlockEnd
  0
BLOCK
  5
1B2
330
1AB
100
AcDbEntity
  8
0
100
AcDbBlockBegin
  2
*D710
 70
     1
 71
     0
 10
0.0
 20
0.0
 30
0.0
  3
*D710
  1

  0
LINE
  5
1AC
330
1AB
100
AcDbEntity
  8
1
  6
Continuous
 62
     2
100
AcDbLine
 10
661.0000000000005
 20
659.4999999999999
 30
0.0
 11
261.0000000000001
 21
659.4999999999999
 31
0.0
  0
LINE
  5
1AD
330
1AB
100
AcDbEntity
  8
1
  6
Continuous
 62
     2
100
AcDbLine
 10
661.0000000000005
 20
857.4999999999998
 30
0.0
 11
661.0000000000005
 21
652.4999978999992
 31
0.0
  0
LINE
  5
1AE
330
1AB
100
AcDbEntity
  8
1
  6
Continuous
 62
     2
100
AcDbLine
 10
261.0000000000001
 20
857.4999999999998
 30
0.0
 11
261.0000000000001
 21
652.4999978999992
 31
0.0
  0
SOLID
  5
1AF
330
1AB
100
AcDbEntity
  8
1
 62
     2
100
AcDbTrace
 10
636.4999926499983
 20
656.2745128414625
 30
0.0
 11
636.4999926499983
 21
662.7254871585373
 31
0.0
 12
661.0000000000005
 22
659.4999999999999
 32
0.0
 13
661.0000000000005
 23
659.4999999999999
 33
0.0
  0
SOLID
  5
1B0
330
1AB
100
AcDbEntity
  8
1
 62
     2
100
AcDbTrace
 10
285.5000073500023
 20
662.7254871585373
 30
0.0
 11
285.5000073500023
 21
656.2745128414625
 31
0.0
 12
261.0000000000001
 22
659.4999999999999
 32
0.0
 13
261.0000000000001
 23
659.4999999999999
 33
0.0
  0
MTEXT
  5
1B1
330
1AB
100
AcDbEntity
  8
1
 62
     7
100
AcDbMText
 10
500.119853116243
 20
666.4999047009027
 30
0.0
 40
24.5000073500022
 41
0.0
 71
     7
 72
     1
  1
\C7;{\Fgdt;n}\C7;400
  7
CONVERTER_2
 11
0.9999999999970621
 21
2.424068405545307E-6
 31
0.0
 73
     1
 44
0.60024009603842
  0
ENDBLK
  5
1B3
330
1AB
100
AcDbEntity
  8
0
100
AcDbBlockEnd
  0
BLOCK
  5
1BB
330
1B6
100
AcDbEntity
  8
0
100
AcDbBlockBegin
  2
*D811
 70
     1
 71
     0
 10
0.0
 20
0.0
 30
0.0
  3
*D811
  1

  0
LINE
  5
1B7
330
1B6
100
AcDbEntity
  8
1
  6
Continuous
 62
     2
100
AcDbLine
 10
249.8993314780025
 20
1346.19552174419
 30
0.0
 11
672.1006685219978
 21
1528.80447825581
 31
0.0
  0
SOLID
  5
1B8
330
1B6
100
AcDbEntity
  8
1
 62
     2
100
AcDbTrace
 10
650.8942923991798
 20
1516.118117891323
 30
0.0
 11
648.3334104676051
 21
1522.039009156335
 31
0.0
 12
672.1006685219978
 22
1528.80447825581
 32
0.0
 13
672.1006685219978
 23
1528.80447825581
 33
0.0
  0
SOLID
  5
1B9
330
1B6
100
AcDbEntity
  8
1
 62
     2
100
AcDbTrace
 10
271.1057076008202
 20
1358.881882108678
 30
0.0
 11
273.6665895323951
 21
1352.960990843666
 31
0.0
 12
249.8993314780025
 22
1346.19552174419
 32
0.0
 13
249.8993314780025
 23
1346.19552174419
 33
0.0
  0
MTEXT
  5
1BA
330
1B6
100
AcDbEntity
  8
1
 62
     7
100
AcDbMText
 10
542.6889881715449
 20
1480.45851354115
 30
0.0
 40
24.50000735000221
 41
0.0
 71
     7
 72
     1
  1
\C7;{\Fgdt;n}\C7;460
  7
CONVERTER_2
 11
0.9178289935739028
 21
0.3969759924165651
 31
0.0
 73
     1
 44
0.60024009603842
  0
ENDBLK
  5
1BC
330
1B6
100
AcDbEntity
  8
0
100
AcDbBlockEnd
  0
ENDSEC
  0
SECTION
  2
ENTITIES
  0
INSERT
  5
3C
330
1F
100
AcDbEntity
  8
1
100
AcDbBlockReference
  2
_J__A4
 10
0.0
 20
0.0
 30
0.0
 41
7.00000210000063
 42
7.00000210000063
 43
7.00000210000063
  0
INSERT
  5
3D
330
1F
100
AcDbEntity
  8
1
100
AcDbBlockReference
  2
HW1020-1-__F_
 10
103.5000000000002
 20
595.9999999999998
 30
0.0
  0
LINE
  5
128
102
{ACAD_REACTORS
330
1BE
330
1BE
102
}
330
1F
100
AcDbEntity
  8
1
  6
Continuous
 62
     2
100
AcDbLine
 10
1393.70209885499
 20
872.4999999999999
 30
0.0
 11
1333.70209885499
 21
872.4999999999999
 31
0.0
  0
LINE
  5
129
102
{ACAD_REACTORS
330
1BE
330
1BE
102
}
330
1F
100
AcDbEntity
  8
1
  6
Continuous
 62
     2
100
AcDbLine
 10
1333.70209885499
 20
872.4999999999999
 30
0.0
 11
1333.70209885499
 21
857.4999999999999
 31
0.0
  0
LINE
  5
12A
102
{ACAD_REACTORS
330
1BE
330
1BE
102
}
330
1F
100
AcDbEntity
  8
1
  6
Continuous
 62
     2
100
AcDbLine
 10
1333.70209885499
 20
857.4999999999999
 30
0.0
 11
1393.70209885499
 21
857.4999999999999
 31
0.0
  0
LINE
  5
12B
102
{ACAD_REACTORS
330
1BF
330
1BF
102
}
330
1F
100
AcDbEntity
  8
1
  6
Continuous
 62
     2
100
AcDbLine
 10
873.7020988549901
 20
857.4999999999999
 30
0.0
 11
933.7020988549899
 21
857.4999999999999
 31
0.0
  0
LINE
  5
12C
102
{ACAD_REACTORS
330
1BF
330
1BF
102
}
330
1F
100
AcDbEntity
  8
1
  6
Continuous
 62
     2
100
AcDbLine
 10
933.7020988549899
 20
857.4999999999999
 30
0.0
 11
933.7020988549899
 21
872.4999999999999
 31
0.0
  0
LINE
  5
12D
102
{ACAD_REACTORS
330
1BF
330
1BF
102
}
330
1F
100
AcDbEntity
  8
1
  6
Continuous
 62
     2
100
AcDbLine
 10
933.7020988549899
 20
872.4999999999999
 30
0.0
 11
873.7020988549901
 21
872.4999999999999
 31
0.0
  0
LINE
  5
12E
330
1F
100
AcDbEntity
  8
1
  6
Continuous
 62
     7
100
AcDbLine
 10
1084.5
 20
488.5000000000001
 30
0.0
 11
1296.0
 21
488.5000000000001
 31
0.0
  0
LINE
  5
12F
330
1F
100
AcDbEntity
  8
1
  6
Continuous
 62
     7
100
AcDbLine
 10
1296.0
 20
402.4999999999998
 30
0.0
 11
1296.0
 21
445.4999999999999
 31
0.0
  0
LINE
  5
130
330
1F
100
AcDbEntity
  8
1
  6
Continuous
 62
     7
100
AcDbLine
 10
1296.0
 20
445.4999999999999
 30
0.0
 11
1296.0
 21
488.5000000000001
 31
0.0
  0
LINE
  5
131
330
1F
100
AcDbEntity
  8
1
  6
Continuous
 62
     7
100
AcDbLine
 10
1044.5
 20
488.5000000000001
 30
0.0
 11
1084.5
 21
488.5000000000001
 31
0.0
  0
LINE
  5
132
330
1F
100
AcDbEntity
  8
1
  6
DASH_CENTER
 62
     2
100
AcDbLine
 10
461.0000000000001
 20
790.4999999999999
 30
0.0
 11
461.0000000000001
 21
785.4999999999999
 31
0.0
  0
LINE
  5
133
330
1F
100
AcDbEntity
  8
1
  6
DASH_CENTER
 62
     2
100
AcDbLine
 10
461.0000000000001
 20
785.4999999999999
 30
0.0
 11
461.0000000000001
 21
770.4999999999999
 31
0.0
  0
LINE
  5
134
330
1F
100
AcDbEntity
  8
1
  6
DASH_CENTER
 62
     2
100
AcDbLine
 10
481.0000000000001
 20
1437.5
 30
0.0
 11
491.0000000000001
 21
1437.5
 31
0.0
  0
LINE
  5
135
330
1F
100
AcDbEntity
  8
1
  6
DASH_CENTER
 62
     2
100
AcDbLine
 10
216.0
 20
1437.5
 30
0.0
 11
481.0000000000001
 21
1437.5
 31
0.0
  0
LINE
  5
136
330
1F
100
AcDbEntity
  8
1
  6
DASH_CENTER
 62
     2
100
AcDbLine
 10
491.0000000000001
 20
1437.5
 30
0.0
 11
706.0000000000001
 21
1437.5
 31
0.0
  0
LINE
  5
137
330
1F
100
AcDbEntity
  8
1
  6
DASH_CENTER
 62
     2
100
AcDbLine
 10
461.0000000000001
 20
1682.5
 30
0.0
 11
461.0000000000001
 21
1192.5
 31
0.0
  0
LINE
  5
138
330
1F
100
AcDbEntity
  8
1
  6
DASH_CENTER
 62
     2
100
AcDbLine
 10
461.0000000000001
 20
950.4999999999999
 30
0.0
 11
461.0000000000001
 21
790.4999999999999
 31
0.0
  0
LINE
  5
139
330
1F
100
AcDbEntity
  8
1
  6
Continuous
 62
     7
100
AcDbLine
 10
1044.5
 20
359.4999999999998
 30
0.0
 11
1296.0
 21
359.4999999999998
 31
0.0
  0
LINE
  5
13A
330
1F
100
AcDbEntity
  8
1
  6
Continuous
 62
     2
100
AcDbLine
 10
1084.5
 20
488.5000000000001
 30
0.0
 11
1084.5
 21
359.4999999999998
 31
0.0
  0
LINE
  5
13B
330
1F
100
AcDbEntity
  8
1
  6
Continuous
 62
     7
100
AcDbLine
 10
1044.5
 20
398.4999999999998
 30
0.0
 11
1044.5
 21
359.4999999999998
 31
0.0
  0
LINE
  5
13C
330
1F
100
AcDbEntity
  8
1
  6
Continuous
 62
     2
100
AcDbLine
 10
1044.5
 20
402.4999999999998
 30
0.0
 11
1296.0
 21
402.4999999999998
 31
0.0
  0
LINE
  5
13D
330
1F
100
AcDbEntity
  8
1
  6
Continuous
 62
     7
100
AcDbLine
 10
1296.0
 20
359.4999999999998
 30
0.0
 11
1296.0
 21
402.4999999999998
 31
0.0
  0
LINE
  5
13E
330
1F
100
AcDbEntity
  8
1
  6
Continuous
 62
     7
100
AcDbLine
 10
1044.5
 20
433.4999999999999
 30
0.0
 11
1044.5
 21
398.4999999999998
 31
0.0
  0
LINE
  5
13F
330
1F
100
AcDbEntity
  8
1
  6
Continuous
 62
     2
100
AcDbLine
 10
1044.5
 20
445.4999999999999
 30
0.0
 11
1296.0
 21
445.4999999999999
 31
0.0
  0
LINE
  5
140
330
1F
100
AcDbEntity
  8
1
  6
Continuous
 62
     7
100
AcDbLine
 10
1044.5
 20
488.5000000000001
 30
0.0
 11
1044.5
 21
433.4999999999999
 31
0.0
  0
LINE
  5
141
102
{ACAD_REACTORS
330
1C1
330
1C1
102
}
330
1F
100
AcDbEntity
  8
1
  6
Continuous
 62
     2
100
AcDbLine
 10
261.0
 20
872.4999999999998
 30
0.0
 11
201.0000000000005
 21
872.4999999999998
 31
0.0
  0
LINE
  5
142
102
{ACAD_REACTORS
330
1C1
330
1C1
102
}
330
1F
100
AcDbEntity
  8
1
  6
Continuous
 62
     2
100
AcDbLine
 10
261.0
 20
857.4999999999998
 30
0.0
 11
261.0
 21
872.4999999999998
 31
0.0
  0
LINE
  5
143
102
{ACAD_REACTORS
330
1C1
330
1C1
102
}
330
1F
100
AcDbEntity
  8
1
  6
Continuous
 62
     2
100
AcDbLine
 10
201.0000000000005
 20
857.4999999999998
 30
0.0
 11
261.0
 21
857.4999999999998
 31
0.0
  0
LINE
  5
144
102
{ACAD_REACTORS
330
1C0
330
1C0
102
}
330
1F
100
AcDbEntity
  8
1
  6
Continuous
 62
     2
100
AcDbLine
 10
661.0000000000005
 20
857.4999999999998
 30
0.0
 11
721.0000000000005
 21
857.4999999999998
 31
0.0
  0
LINE
  5
145
102
{ACAD_REACTORS
330
1C0
330
1C0
102
}
330
1F
100
AcDbEntity
  8
1
  6
Continuous
 62
     2
100
AcDbLine
 10
661.0000000000005
 20
872.4999999999998
 30
0.0
 11
661.0000000000005
 21
857.4999999999998
 31
0.0
  0
LINE
  5
146
102
{ACAD_REACTORS
330
1C0
330
1C0
102
}
330
1F
100
AcDbEntity
  8
1
  6
Continuous
 62
     2
100
AcDbLine
 10
721.0000000000005
 20
872.4999999999998
 30
0.0
 11
661.0000000000005
 21
872.4999999999998
 31
0.0
  0
LINE
  5
147
330
1F
100
AcDbEntity
  8
1
  6
DASH_CENTER
 62
     2
100
AcDbLine
 10
1133.70209885499
 20
950.4999999999998
 30
0.0
 11
1133.70209885499
 21
788.4999999999998
 31
0.0
  0
SPLINE
  5
148
102
{ACAD_REACTORS
330
1BE
330
1BE
102
}
330
1F
100
AcDbEntity
  8
1
  6
Continuous
 62
     2
100
AcDbSpline
210
0.0
220
0.0
230
1.0
 70
     8
 71
     3
 72
    13
 73
     9
 74
     7
 42
0.0000000001
 43
0.0000000001
 44
0.00000001
 40
0.0
 40
0.0
 40
0.0
 40
0.0
 40
3.66572077476919
 40
7.409969020916282
 40
9.270052812601371
 40
10.99426311290321
 40
13.57499047522905
 40
16.06839544177494
 40
16.06839544177494
 40
16.06839544177494
 40
16.06839544177494
 10
1393.70209885499
 20
872.4999999999999
 30
0.0
 10
1394.212197688712
 20
871.2905911121344
 30
0.0
 10
1395.243322749165
 20
868.8458652469275
 30
0.0
 10
1392.291840714985
 20
865.9411839539235
 30
0.0
 10
1393.877197736721
 20
863.8430980589508
 30
0.0
 10
1395.071960024609
 20
861.8385297303464
 30
0.0
 10
1392.54115626681
 20
860.0685611123574
 30
0.0
 10
1393.319583394248
 20
858.3463074292753
 30
0.0
 10
1393.70209885499
 20
857.4999999999999
 30
0.0
 11
1393.70209885499
 21
872.4999999999999
 31
0.0
 11
1394.402670739466
 21
868.9018466078755
 31
0.0
 11
1393.02954905017
 21
865.4184672493848
 31
0.0
 11
1393.884843135857
 21
863.7666852604173
 31
0.0
 11
1394.51505703604
 21
862.1617766649879
 31
0.0
 11
1393.198638952051
 21
859.9420475944025
 31
0.0
 11
1393.70209885499
 21
857.4999999999999
 31
0.0
  0
SPLINE
  5
149
102
{ACAD_REACTORS
330
1BF
330
1BF
102
}
330
1F
100
AcDbEntity
  8
1
  6
Continuous
 62
     2
100
AcDbSpline
210
0.0
220
0.0
230
1.0
 70
     8
 71
     3
 72
    13
 73
     9
 74
     7
 42
0.0000000001
 43
0.0000000001
 44
0.00000001
 40
0.0
 40
0.0
 40
0.0
 40
0.0
 40
3.66572077476919
 40
7.409969020916323
 40
9.270052812601463
 40
10.9942631129033
 40
13.57499047522932
 40
16.06839544177527
 40
16.06839544177527
 40
16.06839544177527
 40
16.06839544177527
 10
873.7020988549901
 20
872.4999999999999
 30
0.0
 10
874.2121976887124
 20
871.2905911121345
 30
0.0
 10
875.243322749165
 20
868.8458652469278
 30
0.0
 10
872.2918407149853
 20
865.9411839539234
 30
0.0
 10
873.8771977367205
 20
863.8430980589508
 30
0.0
 10
875.07196002461
 20
861.8385297303466
 30
0.0
 10
872.5411562668093
 20
860.0685611123575
 30
0.0
 10
873.3195833942475
 20
858.346307429275
 30
0.0
 10
873.7020988549901
 20
857.4999999999999
 30
0.0
 11
873.7020988549901
 21
872.4999999999999
 31
0.0
 11
874.4026707394663
 21
868.9018466078755
 31
0.0
 11
873.0295490501699
 21
865.4184672493848
 31
0.0
 11
873.8848431358575
 21
863.7666852604173
 31
0.0
 11
874.5150570360405
 21
862.1617766649879
 31
0.0
 11
873.1986389520503
 21
859.9420475944025
 31
0.0
 11
873.7020988549901
 21
857.4999999999999
 31
0.0
  0
SPLINE
  5
14A
102
{ACAD_REACTORS
330
1C1
330
1C1
102
}
330
1F
100
AcDbEntity
  8
1
  6
Continuous
 62
     2
100
AcDbSpline
210
0.0
220
0.0
230
1.0
 70
     8
 71
     3
 72
    13
 73
     9
 74
     7
 42
0.0000000001
 43
0.0000000001
 44
0.00000001
 40
0.0
 40
0.0
 40
0.0
 40
0.0
 40
3.665720774769291
 40
7.409969020916383
 40
9.270052812601458
 40
10.99426311290305
 40
13.57499047522911
 40
16.06839544177507
 40
16.06839544177507
 40
16.06839544177507
 40
16.06839544177507
 10
201.0000000000005
 20
872.4999999999998
 30
0.0
 10
201.5100988337227
 20
871.2905911121343
 30
0.0
 10
202.5412238941754
 20
868.8458652469274
 30
0.0
 10
199.5897418599956
 20
865.9411839539234
 30
0.0
 10
201.1750988817311
 20
863.8430980589506
 30
0.0
 10
202.3698611696198
 20
861.8385297303465
 30
0.0
 10
199.8390574118196
 20
860.0685611123573
 30
0.0
 10
200.6174845392577
 20
858.3463074292748
 30
0.0
 10
201.0000000000005
 20
857.4999999999998
 30
0.0
 11
201.0000000000005
 21
872.4999999999998
 31
0.0
 11
201.7005718844766
 21
868.9018466078753
 31
0.0
 11
200.3274501951803
 21
865.4184672493846
 31
0.0
 11
201.1827442808678
 21
863.766685260417
 31
0.0
 11
201.8129581810507
 21
862.1617766649879
 31
0.0
 11
200.4965400970606
 21
859.9420475944024
 31
0.0
 11
201.0000000000005
 21
857.4999999999998
 31
0.0
  0
SPLINE
  5
14B
102
{ACAD_REACTORS
330
1C0
330
1C0
102
}
330
1F
100
AcDbEntity
  8
1
  6
Continuous
 62
     2
100
AcDbSpline
210
0.0
220
0.0
230
1.0
 70
     8
 71
     3
 72
    13
 73
     9
 74
     7
 42
0.0000000001
 43
0.0000000001
 44
0.00000001
 40
0.0
 40
0.0
 40
0.0
 40
0.0
 40
3.665720774769302
 40
7.409969020916352
 40
9.270052812601387
 40
10.99426311290297
 40
13.57499047522909
 40
16.06839544177506
 40
16.06839544177506
 40
16.06839544177506
 40
16.06839544177506
 10
721.0000000000005
 20
872.4999999999998
 30
0.0
 10
721.5100988337226
 20
871.2905911121342
 30
0.0
 10
722.5412238941755
 20
868.8458652469275
 30
0.0
 10
719.589741859996
 20
865.9411839539234
 30
0.0
 10
721.1750988817311
 20
863.8430980589508
 30
0.0
 10
722.3698611696196
 20
861.8385297303462
 30
0.0
 10
719.8390574118197
 20
860.0685611123573
 30
0.0
 10
720.6174845392577
 20
858.346307429275
 30
0.0
 10
721.0000000000005
 20
857.4999999999998
 30
0.0
 11
721.0000000000005
 21
872.4999999999998
 31
0.0
 11
721.7005718844766
 21
868.9018466078753
 31
0.0
 11
720.3274501951804
 21
865.4184672493846
 31
0.0
 11
721.1827442808678
 21
863.766685260417
 31
0.0
 11
721.8129581810507
 21
862.1617766649879
 31
0.0
 11
720.4965400970605
 21
859.9420475944024
 31
0.0
 11
721.0000000000005
 21
857.4999999999998
 31
0.0
  0
MTEXT
  5
14C
330
1F
100
AcDbEntity
  8
1
 62
     7
100
AcDbMText
 10
1064.5
 20
380.9999999999998
 30
0.0
 40
24.50000735000221
 41
0.0
 71
     5
 72
     1
  1
黒
  7
CONVERTER_1
 73
     1
 44
0.7202881152461
  0
MTEXT
  5
14D
330
1F
100
AcDbEntity
  8
1
 62
     7
100
AcDbMText
 10
1063.5
 20
424.4999999999999
 30
0.0
 40
24.50000735000221
 41
0.0
 71
     5
 72
     1
  1
白
  7
CONVERTER_1
 73
     1
 44
0.7202881152461
  0
MTEXT
  5
14E
330
1F
100
AcDbEntity
  8
1
 62
     7
100
AcDbMText
 10
1064.5
 20
467.4999999999999
 30
0.0
 40
24.50000735000221
 41
0.0
 71
     5
 72
     1
  1
色
  7
CONVERTER_1
 73
     1
 44
0.7202881152461
  0
MTEXT
  5
150
330
1F
100
AcDbEntity
  8
1
 62
     7
100
AcDbMText
 10
1188.000000000001
 20
380.9999999999998
 30
0.0
 40
24.50000735000221
 41
0.0
 71
     5
 72
     1
  1
HW1020-D
  7
CONVERTER_2
 73
     1
 44
0.7202881152461
  0
MTEXT
  5
151
330
1F
100
AcDbEntity
  8
1
 62
     7
100
AcDbMText
 10
1188.000000000001
 20
423.9999999999999
 30
0.0
 40
24.50000735000221
 41
0.0
 71
     5
 72
     1
  1
HW1020-W
  7
CONVERTER_2
 73
     1
 44
0.7202881152461
  0
MTEXT
  5
152
330
1F
100
AcDbEntity
  8
1
 62
     7
100
AcDbMText
 10
1188.0
 20
466.4999999999998
 30
0.0
 40
24.50000735000221
 41
0.0
 71
     5
 72
     1
  1
品番
  7
CONVERTER_1
 73
     1
 44
0.7202881152461
  0
MTEXT
  5
153
330
1F
100
AcDbEntity
  8
1
 62
     7
100
AcDbMText
 10
399.000119700036
 20
159.2500477750144
 30
0.0
 40
24.50000735000221
 41
0.0
 71
     5
 72
     1
  1
洗面器
  7
CONVERTER_1
 73
     1
 44
0.7202881152461
  0
MTEXT
  5
154
330
1F
100
AcDbEntity
  8
1
 62
     7
100
AcDbMText
 10
596.7501790250537
 20
119.0000357000107
 30
0.0
 40
24.50000735000221
 41
0.0
 71
     5
 72
     1
  1
1
  7
CONVERTER_2
 73
     1
 44
0.7202881152461
  0
MTEXT
  5
155
330
1F
100
AcDbEntity
  8
1
 62
     7
100
AcDbMText
 10
656.250196875059
 20
119.0000357000107
 30
0.0
 40
24.50000735000221
 41
0.0
 71
     5
 72
     1
  1
7
  7
CONVERTER_2
 73
     1
 44
0.7202881152461
  0
MTEXT
  5
156
330
1F
100
AcDbEntity
  8
1
 62
     7
100
AcDbMText
 10
399.000119700036
 20
99.75002992500899
 30
0.0
 40
24.50000735000221
 41
0.0
 71
     5
 72
     1
  1
HW1020-色
  7
CONVERTER_1
 73
     1
 44
0.7202881152461
  0
MTEXT
  5
157
330
1F
100
AcDbEntity
  8
1
 62
     7
100
AcDbMText
 10
396.370583713584
 20
680.4412971737381
 30
0.0
 40
24.50000735000221
 41
0.0
 71
     5
 72
     1
  1
天板穴径最大寸法
  7
CONVERTER_1
 73
     1
 44
0.7202881152461
  0
DIMENSION
  5
164
330
1F
100
AcDbEntity
  8
1
100
AcDbDimension
  2
*D03
 10
1113.202098854991
 20
715.4999999999999
 30
0.0
 11
1210.53787160191
 21
734.7500057750016
 31
0.0
  1
<>
 71
     5
 42
0.0
 53
0.00013888888889
  3
ME10_DIM_0
100
AcDbAlignedDimension
 13
1154.20209885499
 23
788.4999999999999
 33
0.0
 14
1113.202098854991
 24
788.4999999999999
 34
0.0
100
AcDbRotatedDimension
  0
DIMENSION
  5
171
330
1F
100
AcDbEntity
  8
1
100
AcDbDimension
  2
*D14
 10
1112.702098854991
 20
841.600312882765
 30
0.0
 11
1133.702098854991
 21
860.8503186577667
 31
0.0
  1
<>
 71
     5
 42
0.0
 53
0.00013888888889
  3
ME10_DIM_1
100
AcDbAlignedDimension
 13
1154.70209885499
 23
796.4999999999999
 33
0.0
 14
1112.702098854991
 24
796.4999999999999
 34
0.0
100
AcDbRotatedDimension
  0
DIMENSION
  5
17C
330
1F
100
AcDbEntity
  8
1
100
AcDbDimension
  2
*D25
 10
1099.202098854991
 20
895.6961902882989
 30
0.0
 11
1133.702098854991
 21
914.9461960633006
 31
0.0
  1
<>
 71
     5
 42
0.0
 53
0.00013888888889
  3
ME10_DIM_2
100
AcDbAlignedDimension
 13
1168.20209885499
 23
805.5454009446466
 33
0.0
 14
1099.202098854991
 24
805.5454009446466
 34
0.0
100
AcDbRotatedDimension
  0
DIMENSION
  5
187
330
1F
100
AcDbEntity
  8
1
100
AcDbDimension
  2
*D36
 10
361.0
 20
715.4999999999999
 30
0.0
 11
461.0000000000001
 21
734.7500057750016
 31
0.0
 70
     1
  1
<>
 71
     5
 42
0.0
 53
0.00013888888889
  3
ME10_DIM_3
100
AcDbAlignedDimension
 13
561.0000000000001
 23
785.4999999999999
 33
0.0
 14
361.0
 24
785.4999999999999
 34
0.0
  0
DIMENSION
  5
194
330
1F
100
AcDbEntity
  8
1
100
AcDbDimension
  2
*D47
 10
743.0000021000008
 20
785.4999999999999
 30
0.0
 11
723.7499963249991
 21
751.6611428211497
 31
0.0
  1
<>
 71
     5
 42
0.0
 53
90.0
  3
ME10_DIM_4
100
AcDbAlignedDimension
 13
561.0000000000001
 23
800.5000000000001
 33
0.0
 14
561.0000000000001
 24
785.4999999999999
 34
0.0
 50
90.0
100
AcDbRotatedDimension
  0
DIMENSION
  5
19F
330
1F
100
AcDbEntity
  8
1
100
AcDbDimension
  2
*D58
 10
793.0000021000008
 20
785.4999999999999
 30
0.0
 11
773.7499963249991
 21
834.0577244625748
 31
0.0
  1
<>
 71
     5
 42
0.0
 53
90.0
  3
ME10_DIM_5
100
AcDbAlignedDimension
 13
673.0000000000001
 23
872.5
 33
0.0
 14
560.0000000000001
 24
785.4999999999999
 34
0.0
 50
90.0
100
AcDbRotatedDimension
  0
DIMENSION
  5
1AA
330
1F
100
AcDbEntity
  8
1
100
AcDbDimension
  2
*D69
 10
843.0000021000006
 20
785.4999999999999
 30
0.0
 11
823.749996324999
 21
860.4999999999999
 31
0.0
  1
<>
 71
     5
 42
0.0
 53
90.0
  3
ME10_DIM_6
100
AcDbAlignedDimension
 13
691.0000000000002
 23
935.4999999999999
 33
0.0
 14
561.0000000000001
 24
785.4999999999999
 34
0.0
 50
90.0
100
AcDbRotatedDimension
  0
DIMENSION
  5
1B5
330
1F
100
AcDbEntity
  8
1
100
AcDbDimension
  2
*D710
 10
661.0000000000005
 20
659.4999999999999
 30
0.0
 11
554.9998695801299
 21
678.7500057750016
 31
0.0
  1
<>
 71
     5
 42
0.0
 53
0.00013888888889
  3
ME10_DIM_7
100
AcDbAlignedDimension
 13
261.0
 23
857.4999999999998
 33
0.0
 14
661.0000000000005
 24
857.4999999999998
 34
0.0
100
AcDbRotatedDimension
  0
INSERT
  5
1BD
330
1F
100
AcDbEntity
  8
1
100
AcDbBlockReference
  2
*D811
 10
0.0
 20
0.0
 30
0.0
  0
HATCH
  5
1BE
330
1F
100
AcDbEntity
  8
1
  6
Continuous
 62
     4
100
AcDbHatch
 10
0.0
 20
0.0
 30
0.0
210
0.0
220
0.0
230
1.0
  2
CUSTOM0
 70
     0
 71
     1
 91
        1
 92
        1
 93
        4
 72
     4
 94
        3
 73
     0
 74
     0
 95
       13
 96
        9
 40
0.0
 40
0.0
 40
0.0
 40
0.0
 40
3.66572077476919
 40
7.409969020916282
 40
9.270052812601371
 40
10.99426311290321
 40
13.57499047522905
 40
16.06839544177494
 40
16.06839544177494
 40
16.06839544177494
 40
16.06839544177494
 10
1393.70209885499
 20
872.4999999999999
 10
1394.212197688712
 20
871.2905911121344
 10
1395.243322749165
 20
868.8458652469275
 10
1392.291840714985
 20
865.9411839539235
 10
1393.877197736721
 20
863.8430980589508
 10
1395.071960024609
 20
861.8385297303464
 10
1392.54115626681
 20
860.0685611123574
 10
1393.319583394248
 20
858.3463074292753
 10
1393.70209885499
 20
857.4999999999999
 72
     1
 10
1393.70209885499
 20
857.4999999999999
 11
1333.70209885499
 21
857.4999999999999
 72
     1
 10
1333.70209885499
 20
857.4999999999999
 11
1333.70209885499
 21
872.4999999999999
 72
     1
 10
1333.70209885499
 20
872.4999999999999
 11
1393.70209885499
 21
872.4999999999999
 97
        4
330
148
330
12A
330
129
330
128
 75
     1
 76
     2
 52
45.0
 41
15.0
 77
     0
 78
     2
 53
45.0
 43
0.0
 44
0.0
 45
-21.21320343559642
 46
0.0000000000000017
 79
     0
 53
45.0
 43
3.535533905932737
 44
-3.535533905932738
 45
-21.21320343559642
 46
0.0000000000000017
 79
     0
 98
        1
 10
0.0
 20
0.0
  0
HATCH
  5
1BF
330
1F
100
AcDbEntity
  8
1
  6
Continuous
 62
     4
100
AcDbHatch
 10
0.0
 20
0.0
 30
0.0
210
0.0
220
0.0
230
1.0
  2
CUSTOM1
 70
     0
 71
     1
 91
        1
 92
        1
 93
        4
 72
     4
 94
        3
 73
     0
 74
     0
 95
       13
 96
        9
 40
0.0
 40
0.0
 40
0.0
 40
0.0
 40
3.66572077476919
 40
7.409969020916323
 40
9.270052812601463
 40
10.9942631129033
 40
13.57499047522932
 40
16.06839544177527
 40
16.06839544177527
 40
16.06839544177527
 40
16.06839544177527
 10
873.7020988549901
 20
872.4999999999999
 10
874.2121976887124
 20
871.2905911121345
 10
875.243322749165
 20
868.8458652469278
 10
872.2918407149853
 20
865.9411839539234
 10
873.8771977367205
 20
863.8430980589508
 10
875.07196002461
 20
861.8385297303466
 10
872.5411562668093
 20
860.0685611123575
 10
873.3195833942475
 20
858.346307429275
 10
873.7020988549901
 20
857.4999999999999
 72
     1
 10
873.7020988549901
 20
857.4999999999999
 11
933.7020988549899
 21
857.4999999999999
 72
     1
 10
933.7020988549899
 20
857.4999999999999
 11
933.7020988549899
 21
872.4999999999999
 72
     1
 10
933.7020988549899
 20
872.4999999999999
 11
873.7020988549901
 21
872.4999999999999
 97
        4
330
12C
330
12B
330
149
330
12D
 75
     1
 76
     2
 52
45.0
 41
15.0
 77
     0
 78
     2
 53
45.0
 43
0.0
 44
0.0
 45
-21.21320343559642
 46
0.0000000000000017
 79
     0
 53
45.0
 43
3.535533905932737
 44
-3.535533905932738
 45
-21.21320343559642
 46
0.0000000000000017
 79
     0
 98
        1
 10
0.0
 20
0.0
  0
HATCH
  5
1C0
330
1F
100
AcDbEntity
  8
1
  6
Continuous
 62
     4
100
AcDbHatch
 10
0.0
 20
0.0
 30
0.0
210
0.0
220
0.0
230
1.0
  2
CUSTOM2
 70
     0
 71
     1
 91
        1
 92
        1
 93
        4
 72
     4
 94
        3
 73
     0
 74
     0
 95
       13
 96
        9
 40
0.0
 40
0.0
 40
0.0
 40
0.0
 40
3.665720774769302
 40
7.409969020916352
 40
9.270052812601387
 40
10.99426311290297
 40
13.57499047522909
 40
16.06839544177506
 40
16.06839544177506
 40
16.06839544177506
 40
16.06839544177506
 10
721.0000000000005
 20
872.4999999999998
 10
721.5100988337226
 20
871.2905911121342
 10
722.5412238941755
 20
868.8458652469275
 10
719.589741859996
 20
865.9411839539234
 10
721.1750988817311
 20
863.8430980589508
 10
722.3698611696196
 20
861.8385297303462
 10
719.8390574118197
 20
860.0685611123573
 10
720.6174845392577
 20
858.346307429275
 10
721.0000000000005
 20
857.4999999999998
 72
     1
 10
721.0000000000005
 20
857.4999999999998
 11
661.0000000000005
 21
857.4999999999998
 72
     1
 10
661.0000000000005
 20
857.4999999999998
 11
661.0000000000005
 21
872.4999999999998
 72
     1
 10
661.0000000000005
 20
872.4999999999998
 11
721.0000000000005
 21
872.4999999999998
 97
        4
330
14B
330
144
330
145
330
146
 75
     1
 76
     2
 52
45.0
 41
15.0
 77
     0
 78
     2
 53
45.0
 43
0.0
 44
0.0
 45
-21.21320343559642
 46
0.0000000000000017
 79
     0
 53
45.0
 43
3.535533905932737
 44
-3.535533905932738
 45
-21.21320343559642
 46
0.0000000000000017
 79
     0
 98
        1
 10
0.0
 20
0.0
  0
HATCH
  5
1C1
330
1F
100
AcDbEntity
  8
1
  6
Continuous
 62
     4
100
AcDbHatch
 10
0.0
 20
0.0
 30
0.0
210
0.0
220
0.0
230
1.0
  2
CUSTOM3
 70
     0
 71
     1
 91
        1
 92
        1
 93
        4
 72
     4
 94
        3
 73
     0
 74
     0
 95
       13
 96
        9
 40
0.0
 40
0.0
 40
0.0
 40
0.0
 40
3.665720774769291
 40
7.409969020916383
 40
9.270052812601458
 40
10.99426311290305
 40
13.57499047522911
 40
16.06839544177507
 40
16.06839544177507
 40
16.06839544177507
 40
16.06839544177507
 10
201.0000000000005
 20
872.4999999999998
 10
201.5100988337227
 20
871.2905911121343
 10
202.5412238941754
 20
868.8458652469274
 10
199.5897418599956
 20
865.9411839539234
 10
201.1750988817311
 20
863.8430980589506
 10
202.3698611696198
 20
861.8385297303465
 10
199.8390574118196
 20
860.0685611123573
 10
200.6174845392577
 20
858.3463074292748
 10
201.0000000000005
 20
857.4999999999998
 72
     1
 10
201.0000000000005
 20
857.4999999999998
 11
261.0
 21
857.4999999999998
 72
     1
 10
261.0
 20
857.4999999999998
 11
261.0
 21
872.4999999999998
 72
     1
 10
261.0
 20
872.4999999999998
 11
201.0000000000005
 21
872.4999999999998
 97
        4
330
142
330
143
330
14A
330
141
 75
     1
 76
     2
 52
45.0
 41
15.0
 77
     0
 78
     2
 53
45.0
 43
0.0
 44
0.0
 45
-21.21320343559642
 46
0.0000000000000017
 79
     0
 53
45.0
 43
3.535533905932737
 44
-3.535533905932738
 45
-21.21320343559642
 46
0.0000000000000017
 79
     0
 98
        1
 10
0.0
 20
0.0
  0
ENDSEC
  0
SECTION
  2
OBJECTS
  0
DICTIONARY
  5
C
330
0
100
AcDbDictionary
281
     1
  3
ACAD_GROUP
350
D
  3
ACAD_LAYOUT
350
1A
  3
ACAD_MLINESTYLE
350
17
  3
ACAD_PLOTSETTINGS
350
19
  3
ACAD_PLOTSTYLENAME
350
E
  3
ACAD_TABLESTYLE
350
2A
  3
AcDbVariableDictionary
350
2C
  0
DICTIONARY
  5
D
102
{ACAD_REACTORS
330
C
102
}
330
C
100
AcDbDictionary
281
     1
  0
DICTIONARY
  5
1A
102
{ACAD_REACTORS
330
C
102
}
330
C
100
AcDbDictionary
281
     1
  3
Layout1
350
1E
  3
Layout2
350
26
  3
Model
350
22
  0
DICTIONARY
  5
17
102
{ACAD_REACTORS
330
C
102
}
330
C
100
AcDbDictionary
281
     1
  3
Standard
350
18
  0
DICTIONARY
  5
19
102
{ACAD_REACTORS
330
C
102
}
330
C
100
AcDbDictionary
281
     1
  0
ACDBDICTIONARYWDFLT
  5
E
102
{ACAD_REACTORS
330
C
102
}
330
C
100
AcDbDictionary
281
     1
  3
Normal
350
F
100
AcDbDictionaryWithDefault
340
F
  0
DICTIONARY
  5
2A
102
{ACAD_REACTORS
330
C
102
}
330
C
100
AcDbDictionary
281
     1
  3
Standard
350
2B
  0
DICTIONARY
  5
2C
102
{ACAD_REACTORS
330
C
102
}
330
C
100
AcDbDictionary
281
     1
  3
CTABLESTYLE
350
2D
  0
LAYOUT
  5
1E
102
{ACAD_REACTORS
330
1A
102
}
330
1A
100
AcDbPlotSettings
  1

  2

  4

  6

 40
0.0
 41
0.0
 42
0.0
 43
0.0
 44
0.0
 45
0.0
 46
0.0
 47
0.0
 48
0.0
 49
0.0
140
0.0
141
0.0
142
1.0
143
1.0
 70
   688
 72
     0
 73
     0
 74
     5
  7

 75
    16
147
1.0
148
0.0
149
0.0
100
AcDbLayout
  1
Layout1
 70
     1
 71
     1
 10
0.0
 20
0.0
 11
12.0
 21
9.0
 12
0.0
 22
0.0
 32
0.0
 14
1.00000000000000E+20
 24
1.00000000000000E+20
 34
1.00000000000000E+20
 15
-1.00000000000000E+20
 25
-1.00000000000000E+20
 35
-1.00000000000000E+20
146
0.0
 13
0.0
 23
0.0
 33
0.0
 16
1.0
 26
0.0
 36
0.0
 17
0.0
 27
1.0
 37
0.0
 76
     0
330
1B
  0
LAYOUT
  5
26
102
{ACAD_REACTORS
330
1A
102
}
330
1A
100
AcDbPlotSettings
  1

  2

  4

  6

 40
0.0
 41
0.0
 42
0.0
 43
0.0
 44
0.0
 45
0.0
 46
0.0
 47
0.0
 48
0.0
 49
0.0
140
0.0
141
0.0
142
1.0
143
1.0
 70
   688
 72
     0
 73
     0
 74
     5
  7

 75
    16
147
1.0
148
0.0
149
0.0
100
AcDbLayout
  1
Layout2
 70
     1
 71
     2
 10
0.0
 20
0.0
 11
0.0
 21
0.0
 12
0.0
 22
0.0
 32
0.0
 14
0.0
 24
0.0
 34
0.0
 15
0.0
 25
0.0
 35
0.0
146
0.0
 13
0.0
 23
0.0
 33
0.0
 16
1.0
 26
0.0
 36
0.0
 17
0.0
 27
1.0
 37
0.0
 76
     0
330
23
  0
LAYOUT
  5
22
102
{ACAD_REACTORS
330
1A
102
}
330
1A
100
AcDbPlotSettings
  1

  2

  4

  6

 40
0.0
 41
0.0
 42
0.0
 43
0.0
 44
0.0
 45
0.0
 46
0.0
 47
0.0
 48
0.0
 49
0.0
140
0.0
141
0.0
142
1.0
143
1.0
 70
  1712
 72
     0
 73
     0
 74
     0
  7

 75
     0
147
1.0
148
0.0
149
0.0
100
AcDbLayout
  1
Model
 70
     1
 71
     0
 10
0.0
 20
0.0
 11
0.0
 21
0.0
 12
0.0
 22
0.0
 32
0.0
 14
0.0
 24
0.0
 34
0.0
 15
1470.000441000133
 25
2079.000623700187
 35
0.0
146
0.0
 13
0.0
 23
0.0
 33
0.0
 16
1.0
 26
0.0
 36
0.0
 17
0.0
 27
1.0
 37
0.0
 76
     0
330
1F
  0
MLINESTYLE
  5
18
102
{ACAD_REACTORS
330
17
102
}
330
17
100
AcDbMlineStyle
  2
Standard
 70
     0
  3

 62
   256
 51
90.0
 52
90.0
 71
     2
 49
0.5
 62
   256
  6
BYLAYER
 49
-0.5
 62
   256
  6
BYLAYER
  0
ACDBPLACEHOLDER
  5
F
102
{ACAD_REACTORS
330
E
102
}
330
E
  0
TABLESTYLE
  5
2B
102
{ACAD_REACTORS
330
2A
102
}
330
2A
100
AcDbTableStyle
  3
Standard
 70
     0
 71
     0
 40
0.06
 41
0.06
280
     0
281
     0
  7
Standard
140
0.18
170
     2
 62
     0
 63
     7
283
     0
274
    -2
284
     1
 64
     0
275
    -2
285
     1
 65
     0
276
    -2
286
     1
 66
     0
277
    -2
287
     1
 67
     0
278
    -2
288
     1
 68
     0
279
    -2
289
     1
 69
     0
  7
Standard
140
0.25
170
     5
 62
     0
 63
     7
283
     0
274
    -2
284
     1
 64
     0
275
    -2
285
     1
 65
     0
276
    -2
286
     1
 66
     0
277
    -2
287
     1
 67
     0
278
    -2
288
     1
 68
     0
279
    -2
289
     1
 69
     0
  7
Standard
140
0.18
170
     5
 62
     0
 63
     7
283
     0
274
    -2
284
     1
 64
     0
275
    -2
285
     1
 65
     0
276
    -2
286
     1
 66
     0
277
    -2
287
     1
 67
     0
278
    -2
288
     1
 68
     0
279
    -2
289
     1
 69
     0
  0
DICTIONARYVAR
  5
2D
102
{ACAD_REACTORS
330
2C
102
}
330
2C
100
DictionaryVariables
280
     0
  1
Standard
  0
ENDSEC
  0
EOF
