  0
SECTION
  2
HEADER
  9
$ACADVER
  1
AC1015
  9
$ACADMAINTVER
 70
     6
  9
$DWGCODEPAGE
  3
DOS932
  9
$INSBASE
 10
0.0
 20
0.0
 30
0.0
  9
$EXTMIN
 10
0.0
 20
0.0
 30
0.0
  9
$EXTMAX
 10
1050.0
 20
1485.0
 30
0.0
  9
$LIMMIN
 10
0.0
 20
0.0
  9
$LIMMAX
 10
12.0
 20
9.0
  9
$ORTHOMODE
 70
     0
  9
$REGENMODE
 70
     1
  9
$FILLMODE
 70
     1
  9
$QTEXTMODE
 70
     0
  9
$MIRRTEXT
 70
     1
  9
$LTSCALE
 40
1.0
  9
$ATTMODE
 70
     1
  9
$TEXTSIZE
 40
0.2
  9
$TRACEWID
 40
0.05
  9
$TEXTSTYLE
  7
Standard
  9
$CLAYER
  8
0
  9
$CELTYPE
  6
ByLayer
  9
$CECOLOR
 62
   256
  9
$CELTSCALE
 40
1.0
  9
$DISPSILH
 70
     0
  9
$DIMSCALE
 40
1.0
  9
$DIMASZ
 40
0.18
  9
$DIMEXO
 40
0.0625
  9
$DIMDLI
 40
0.38
  9
$DIMRND
 40
0.0
  9
$DIMDLE
 40
0.0
  9
$DIMEXE
 40
0.18
  9
$DIMTP
 40
0.0
  9
$DIMTM
 40
0.0
  9
$DIMTXT
 40
0.18
  9
$DIMCEN
 40
0.09
  9
$DIMTSZ
 40
0.0
  9
$DIMTOL
 70
     0
  9
$DIMLIM
 70
     0
  9
$DIMTIH
 70
     1
  9
$DIMTOH
 70
     1
  9
$DIMSE1
 70
     0
  9
$DIMSE2
 70
     0
  9
$DIMTAD
 70
     0
  9
$DIMZIN
 70
     0
  9
$DIMBLK
  1

  9
$DIMASO
 70
     1
  9
$DIMSHO
 70
     1
  9
$DIMPOST
  1

  9
$DIMAPOST
  1

  9
$DIMALT
 70
     0
  9
$DIMALTD
 70
     2
  9
$DIMALTF
 40
25.4
  9
$DIMLFAC
 40
1.0
  9
$DIMTOFL
 70
     0
  9
$DIMTVP
 40
0.0
  9
$DIMTIX
 70
     0
  9
$DIMSOXD
 70
     0
  9
$DIMSAH
 70
     0
  9
$DIMBLK1
  1

  9
$DIMBLK2
  1

  9
$DIMSTYLE
  2
Standard
  9
$DIMCLRD
 70
     0
  9
$DIMCLRE
 70
     0
  9
$DIMCLRT
 70
     0
  9
$DIMTFAC
 40
1.0
  9
$DIMGAP
 40
0.09
  9
$DIMJUST
 70
     0
  9
$DIMSD1
 70
     0
  9
$DIMSD2
 70
     0
  9
$DIMTOLJ
 70
     1
  9
$DIMTZIN
 70
     0
  9
$DIMALTZ
 70
     0
  9
$DIMALTTZ
 70
     0
  9
$DIMUPT
 70
     0
  9
$DIMDEC
 70
     4
  9
$DIMTDEC
 70
     4
  9
$DIMALTU
 70
     2
  9
$DIMALTTD
 70
     2
  9
$DIMTXSTY
  7
Standard
  9
$DIMAUNIT
 70
     0
  9
$DIMADEC
 70
     0
  9
$DIMALTRND
 40
0.0
  9
$DIMAZIN
 70
     0
  9
$DIMDSEP
 70
    46
  9
$DIMATFIT
 70
     3
  9
$DIMFRAC
 70
     0
  9
$DIMLDRBLK
  1

  9
$DIMLUNIT
 70
     2
  9
$DIMLWD
 70
    -2
  9
$DIMLWE
 70
    -2
  9
$DIMTMOVE
 70
     0
  9
$LUNITS
 70
     2
  9
$LUPREC
 70
     4
  9
$SKETCHINC
 40
0.1
  9
$FILLETRAD
 40
0.5
  9
$AUNITS
 70
     0
  9
$AUPREC
 70
     0
  9
$MENU
  1
.
  9
$ELEVATION
 40
0.0
  9
$PELEVATION
 40
0.0
  9
$THICKNESS
 40
0.0
  9
$LIMCHECK
 70
     0
  9
$CHAMFERA
 40
0.5
  9
$CHAMFERB
 40
0.5
  9
$CHAMFERC
 40
1.0
  9
$CHAMFERD
 40
0.0
  9
$SKPOLY
 70
     0
  9
$TDCREATE
 40
2456142.389922408
  9
$TDUCREATE
 40
2456142.014922408
  9
$TDUPDATE
 40
2456142.389922419
  9
$TDUUPDATE
 40
2456142.014922419
  9
$TDINDWG
 40
0.0000000116
  9
$TDUSRTIMER
 40
0.0000000116
  9
$USRTIMER
 70
     1
  9
$ANGBASE
 50
0.0
  9
$ANGDIR
 70
     0
  9
$PDMODE
 70
     0
  9
$PDSIZE
 40
0.0
  9
$PLINEWID
 40
0.0
  9
$SPLFRAME
 70
     0
  9
$SPLINETYPE
 70
     6
  9
$SPLINESEGS
 70
     8
  9
$HANDSEED
  5
1C7
  9
$SURFTAB1
 70
     6
  9
$SURFTAB2
 70
     6
  9
$SURFTYPE
 70
     6
  9
$SURFU
 70
     6
  9
$SURFV
 70
     6
  9
$UCSBASE
  2

  9
$UCSNAME
  2

  9
$UCSORG
 10
0.0
 20
0.0
 30
0.0
  9
$UCSXDIR
 10
1.0
 20
0.0
 30
0.0
  9
$UCSYDIR
 10
0.0
 20
1.0
 30
0.0
  9
$UCSORTHOREF
  2

  9
$UCSORTHOVIEW
 70
     0
  9
$UCSORGTOP
 10
0.0
 20
0.0
 30
0.0
  9
$UCSORGBOTTOM
 10
0.0
 20
0.0
 30
0.0
  9
$UCSORGLEFT
 10
0.0
 20
0.0
 30
0.0
  9
$UCSORGRIGHT
 10
0.0
 20
0.0
 30
0.0
  9
$UCSORGFRONT
 10
0.0
 20
0.0
 30
0.0
  9
$UCSORGBACK
 10
0.0
 20
0.0
 30
0.0
  9
$PUCSBASE
  2

  9
$PUCSNAME
  2

  9
$PUCSORG
 10
0.0
 20
0.0
 30
0.0
  9
$PUCSXDIR
 10
1.0
 20
0.0
 30
0.0
  9
$PUCSYDIR
 10
0.0
 20
1.0
 30
0.0
  9
$PUCSORTHOREF
  2

  9
$PUCSORTHOVIEW
 70
     0
  9
$PUCSORGTOP
 10
0.0
 20
0.0
 30
0.0
  9
$PUCSORGBOTTOM
 10
0.0
 20
0.0
 30
0.0
  9
$PUCSORGLEFT
 10
0.0
 20
0.0
 30
0.0
  9
$PUCSORGRIGHT
 10
0.0
 20
0.0
 30
0.0
  9
$PUCSORGFRONT
 10
0.0
 20
0.0
 30
0.0
  9
$PUCSORGBACK
 10
0.0
 20
0.0
 30
0.0
  9
$USERI1
 70
     0
  9
$USERI2
 70
     0
  9
$USERI3
 70
     0
  9
$USERI4
 70
     0
  9
$USERI5
 70
     0
  9
$USERR1
 40
13.2
  9
$USERR2
 40
0.0
  9
$USERR3
 40
0.0
  9
$USERR4
 40
0.0
  9
$USERR5
 40
0.0
  9
$WORLDVIEW
 70
     1
  9
$SHADEDGE
 70
     3
  9
$SHADEDIF
 70
    70
  9
$TILEMODE
 70
     1
  9
$MAXACTVP
 70
    64
  9
$PINSBASE
 10
0.0
 20
0.0
 30
0.0
  9
$PLIMCHECK
 70
     0
  9
$PEXTMIN
 10
1.00000000000000E+20
 20
1.00000000000000E+20
 30
1.00000000000000E+20
  9
$PEXTMAX
 10
-1.00000000000000E+20
 20
-1.00000000000000E+20
 30
-1.00000000000000E+20
  9
$PLIMMIN
 10
0.0
 20
0.0
  9
$PLIMMAX
 10
12.0
 20
9.0
  9
$UNITMODE
 70
     0
  9
$VISRETAIN
 70
     1
  9
$PLINEGEN
 70
     0
  9
$PSLTSCALE
 70
     1
  9
$TREEDEPTH
 70
  3020
  9
$CMLSTYLE
  2
Standard
  9
$CMLJUST
 70
     0
  9
$CMLSCALE
 40
1.0
  9
$PROXYGRAPHICS
 70
     1
  9
$MEASUREMENT
 70
     1
  9
$CELWEIGHT
370
    -1
  9
$ENDCAPS
280
     0
  9
$JOINSTYLE
280
     0
  9
$LWDISPLAY
290
     0
  9
$INSUNITS
 70
     1
  9
$HYPERLINKBASE
  1

  9
$STYLESHEET
  1

  9
$XEDIT
290
     1
  9
$CEPSNTYPE
380
     0
  9
$PSTYLEMODE
290
     0
  9
$FINGERPRINTGUID
  2
{FAEB1C30-E019-11D5-929B-00C0DF256EC4}
  9
$VERSIONGUID
  2
{FAEB1C32-E019-11D5-929B-00C0DF256EC4}
  9
$EXTNAMES
290
     1
  9
$PSVPSCALE
 40
0.0
  9
$OLESTARTUP
290
     0
  0
ENDSEC
  0
SECTION
  2
CLASSES
  0
CLASS
  1
ACDBDICTIONARYWDFLT
  2
AcDbDictionaryWithDefault
  3
ObjectDBX Classes
 90
        0
280
     0
281
     0
  0
CLASS
  1
TABLESTYLE
  2
AcDbTableStyle
  3
ObjectDBX Classes
 90
     2047
280
     0
281
     0
  0
CLASS
  1
DICTIONARYVAR
  2
AcDbDictionaryVar
  3
ObjectDBX Classes
 90
        0
280
     0
281
     0
  0
CLASS
  1

  2
exOdDbSpline
  3

 90
        0
280
     0
281
     1
  0
CLASS
  1

  2
exOdDbCircle
  3

 90
        0
280
     0
281
     1
  0
CLASS
  1
ACDBPLACEHOLDER
  2
AcDbPlaceHolder
  3
ObjectDBX Classes
 90
        0
280
     0
281
     0
  0
CLASS
  1
LAYOUT
  2
AcDbLayout
  3
ObjectDBX Classes
 90
        0
280
     0
281
     0
  0
ENDSEC
  0
SECTION
  2
TABLES
  0
TABLE
  2
VPORT
  5
8
330
0
100
AcDbSymbolTable
 70
     2
  0
VPORT
  5
29
330
8
100
AcDbSymbolTableRecord
100
AcDbViewportTableRecord
  2
*Active
 70
     0
 10
0.0
 20
0.0
 11
1.0
 21
1.0
 12
525.0
 22
742.5
 13
0.0
 23
0.0
 14
0.5
 24
0.5
 15
0.5
 25
0.5
 16
0.0
 26
0.0
 36
1.0
 17
0.0
 27
0.0
 37
0.0
 40
1633.5
 41
1.60267857142857
 42
50.0
 43
0.0
 44
0.0
 50
0.0
 51
0.0
 71
     0
 72
   100
 73
     1
 74
     3
 75
     0
 76
     0
 77
     0
 78
     0
281
     0
 65
     1
110
0.0
120
0.0
130
0.0
111
1.0
121
0.0
131
0.0
112
0.0
122
1.0
132
0.0
 79
     0
146
0.0
  0
ENDTAB
  0
TABLE
  2
LTYPE
  5
5
330
0
100
AcDbSymbolTable
 70
     8
  0
LTYPE
  5
14
330
5
100
AcDbSymbolTableRecord
100
AcDbLinetypeTableRecord
  2
ByBlock
 70
     0
  3

 72
    65
 73
     0
 40
0.0
  0
LTYPE
  5
15
330
5
100
AcDbSymbolTableRecord
100
AcDbLinetypeTableRecord
  2
ByLayer
 70
     0
  3

 72
    65
 73
     0
 40
0.0
  0
LTYPE
  5
16
330
5
100
AcDbSymbolTableRecord
100
AcDbLinetypeTableRecord
  2
Continuous
 70
     0
  3
Solid line
 72
    65
 73
     0
 40
0.0
  0
LTYPE
  5
2E
330
5
100
AcDbSymbolTableRecord
100
AcDbLinetypeTableRecord
  2
DASHED
 70
     0
  3
Dashed
 72
    65
 73
     2
 40
15.0
 49
7.0
 74
     0
 49
-8.0
 74
     0
  0
LTYPE
  5
2F
330
5
100
AcDbSymbolTableRecord
100
AcDbLinetypeTableRecord
  2
DOTTED
 70
     0
  3
Dotted
 72
    65
 73
     2
 40
1.0
 49
0.0
 74
     0
 49
-1.0
 74
     0
  0
LTYPE
  5
30
330
5
100
AcDbSymbolTableRecord
100
AcDbLinetypeTableRecord
  2
DOT_CENTER
 70
     0
  3
Dot_Center
 72
    65
 73
     4
 40
14.0
 49
12.0
 74
     0
 49
-1.0
 74
     0
 49
0.0
 74
     0
 49
-1.0
 74
     0
  0
LTYPE
  5
31
330
5
100
AcDbSymbolTableRecord
100
AcDbLinetypeTableRecord
  2
LONG_DASHED
 70
     0
  3
Long_Dashed
 72
    65
 73
     2
 40
15.0
 49
10.0
 74
     0
 49
-5.0
 74
     0
  0
LTYPE
  5
32
330
5
100
AcDbSymbolTableRecord
100
AcDbLinetypeTableRecord
  2
DASH_CENTER
 70
     0
  3
Dash_Center
 72
    65
 73
     4
 40
14.0
 49
11.0
 74
     0
 49
-1.0
 74
     0
 49
1.0
 74
     0
 49
-1.0
 74
     0
  0
LTYPE
  5
33
330
5
100
AcDbSymbolTableRecord
100
AcDbLinetypeTableRecord
  2
PHANTOM
 70
     0
  3
Phantom
 72
    65
 73
     6
 40
13.0
 49
10.0
 74
     0
 49
-1.0
 74
     0
 49
0.0
 74
     0
 49
-1.0
 74
     0
 49
0.0
 74
     0
 49
-1.0
 74
     0
  0
LTYPE
  5
34
330
5
100
AcDbSymbolTableRecord
100
AcDbLinetypeTableRecord
  2
CENTER_DASH_DASH
 70
     0
  3
Center_Dash_Dash
 72
    65
 73
     6
 40
14.0
 49
9.0
 74
     0
 49
-1.0
 74
     0
 49
1.0
 74
     0
 49
-1.0
 74
     0
 49
1.0
 74
     0
 49
-1.0
 74
     0
  0
ENDTAB
  0
TABLE
  2
LAYER
  5
2
330
0
100
AcDbSymbolTable
 70
     2
  0
LAYER
  5
10
330
2
100
AcDbSymbolTableRecord
100
AcDbLayerTableRecord
  2
0
 70
     0
 62
     7
  6
Continuous
370
    -3
390
F
  0
LAYER
  5
35
330
2
100
AcDbSymbolTableRecord
100
AcDbLayerTableRecord
  2
1
 70
     0
 62
     7
  6
Continuous
370
    -3
390
F
  0
ENDTAB
  0
TABLE
  2
STYLE
  5
3
330
0
100
AcDbSymbolTable
 70
     3
  0
STYLE
  5
11
330
3
100
AcDbSymbolTableRecord
100
AcDbTextStyleTableRecord
  2
Standard
 70
     0
 40
0.0
 41
1.0
 50
0.0
 71
     0
 42
0.2
  3
txt
  4

  0
STYLE
  5
136
330
3
100
AcDbSymbolTableRecord
100
AcDbTextStyleTableRecord
  2
CONVERTER_1
 70
     0
 40
0.0
 41
0.89
 50
0.0
 71
     0
 42
0.2
  3
msmincho.ttc
  4

1001
ACAD
1000
MS Mincho
1071
    32785
  0
STYLE
  5
156
330
3
100
AcDbSymbolTableRecord
100
AcDbTextStyleTableRecord
  2
CONVERTER_2
 70
     0
 40
0.0
 41
0.9
 50
0.0
 71
     0
 42
0.2
  3
txt.shx
  4

  0
ENDTAB
  0
TABLE
  2
VIEW
  5
6
330
0
100
AcDbSymbolTable
 70
     0
  0
ENDTAB
  0
TABLE
  2
UCS
  5
7
330
0
100
AcDbSymbolTable
 70
     0
  0
ENDTAB
  0
TABLE
  2
APPID
  5
9
330
0
100
AcDbSymbolTable
 70
     1
  0
APPID
  5
12
330
9
100
AcDbSymbolTableRecord
100
AcDbRegAppTableRecord
  2
ACAD
 70
     0
  0
ENDTAB
  0
TABLE
  2
DIMSTYLE
  5
A
330
0
100
AcDbSymbolTable
 70
     9
100
AcDbDimStyleTable
  0
DIMSTYLE
105
27
330
A
100
AcDbSymbolTableRecord
100
AcDbDimStyleTableRecord
  2
Standard
 70
     0
340
11
  0
DIMSTYLE
105
16A
102
{ACAD_REACTORS
330
16B
102
}
330
A
100
AcDbSymbolTableRecord
100
AcDbDimStyleTableRecord
  2
ME10_DIM_0
 70
     0
 41
17.5
 42
0.0
 44
5.0
 73
     0
 74
     0
 77
     1
 78
     8
140
17.5
147
0.625
172
     1
173
     1
176
     2
177
     2
178
     7
271
     2
340
136
  0
DIMSTYLE
105
175
102
{ACAD_REACTORS
330
176
102
}
330
A
100
AcDbSymbolTableRecord
100
AcDbDimStyleTableRecord
  2
ME10_DIM_1
 70
     0
  3
{\Fgdt;n}<>
 41
17.5
 42
0.0
 44
5.0
 73
     0
 74
     0
 77
     1
 78
     8
140
17.5
147
0.625
172
     1
173
     1
176
     2
177
     2
178
     7
271
     2
340
156
  0
DIMSTYLE
105
182
102
{ACAD_REACTORS
330
183
102
}
330
A
100
AcDbSymbolTableRecord
100
AcDbDimStyleTableRecord
  2
ME10_DIM_2
 70
     0
  3
{\Fgdt;n}<>
 41
17.5
 42
0.0
 44
5.0
 73
     0
 74
     0
 77
     1
 78
     8
140
17.5
147
0.625
172
     1
173
     1
176
     2
177
     2
178
     7
271
     2
340
156
  0
DIMSTYLE
105
18F
102
{ACAD_REACTORS
330
190
102
}
330
A
100
AcDbSymbolTableRecord
100
AcDbDimStyleTableRecord
  2
ME10_DIM_3
 70
     0
  3
{\Fgdt;n}<>
 41
17.5
 42
0.0
 44
5.0
 73
     0
 74
     0
 77
     1
 78
     8
140
17.5
147
0.625
172
     1
173
     1
176
     2
177
     2
178
     7
271
     2
340
156
  0
DIMSTYLE
105
19A
102
{ACAD_REACTORS
330
19B
102
}
330
A
100
AcDbSymbolTableRecord
100
AcDbDimStyleTableRecord
  2
ME10_DIM_4
 70
     0
 41
17.5
 42
0.0
 44
5.0
 73
     0
 74
     0
 77
     1
 78
     8
140
17.5
147
0.625
172
     1
173
     1
176
     2
177
     2
178
     7
271
     2
340
156
  0
DIMSTYLE
105
1A5
102
{ACAD_REACTORS
330
1A6
102
}
330
A
100
AcDbSymbolTableRecord
100
AcDbDimStyleTableRecord
  2
ME10_DIM_5
 70
     0
 41
17.5
 42
0.0
 44
5.0
 73
     0
 74
     0
 77
     1
 78
     8
140
17.5
147
0.625
172
     1
173
     1
176
     2
177
     2
178
     7
271
     2
340
156
  0
DIMSTYLE
105
1B2
102
{ACAD_REACTORS
330
1B3
102
}
330
A
100
AcDbSymbolTableRecord
100
AcDbDimStyleTableRecord
  2
ME10_DIM_6
 70
     0
 41
17.5
 42
0.0
 44
5.0
 73
     0
 74
     0
 77
     1
 78
     8
140
17.5
147
0.625
172
     1
173
     1
176
     2
177
     2
178
     7
271
     2
340
156
  0
DIMSTYLE
105
1BD
102
{ACAD_REACTORS
330
1BE
102
}
330
A
100
AcDbSymbolTableRecord
100
AcDbDimStyleTableRecord
  2
ME10_DIM_7
 70
     0
  3
{\Fgdt;n}<>
 41
17.5
 42
0.0
 44
5.0
 73
     0
 74
     0
 77
     1
 78
     8
140
17.5
147
0.625
172
     1
173
     1
176
     2
177
     2
178
     7
271
     2
340
156
  0
ENDTAB
  0
TABLE
  2
BLOCK_RECORD
  5
1
330
0
100
AcDbSymbolTable
 70
    13
  0
BLOCK_RECORD
  5
1F
330
1
100
AcDbSymbolTableRecord
100
AcDbBlockTableRecord
  2
*Model_Space
340
22
  0
BLOCK_RECORD
  5
1B
330
1
100
AcDbSymbolTableRecord
100
AcDbBlockTableRecord
  2
*Paper_Space
340
1E
  0
BLOCK_RECORD
  5
23
330
1
100
AcDbSymbolTableRecord
100
AcDbBlockTableRecord
  2
*Paper_Space0
340
26
  0
BLOCK_RECORD
  5
36
330
1
100
AcDbSymbolTableRecord
100
AcDbBlockTableRecord
  2
_J_E______
340
0
102
{BLKREFS
331
3F
102
}
  0
BLOCK_RECORD
  5
39
330
1
100
AcDbSymbolTableRecord
100
AcDbBlockTableRecord
  2
HW1021-1-__F_
340
0
102
{BLKREFS
331
40
102
}
  0
BLOCK_RECORD
  5
3C
330
1
100
AcDbSymbolTableRecord
100
AcDbBlockTableRecord
  2
_J__A4
340
0
102
{BLKREFS
331
41
102
}
  0
BLOCK_RECORD
  5
161
330
1
100
AcDbSymbolTableRecord
100
AcDbBlockTableRecord
  2
*D04
340
0
  0
BLOCK_RECORD
  5
16C
330
1
100
AcDbSymbolTableRecord
100
AcDbBlockTableRecord
  2
*D15
340
0
  0
BLOCK_RECORD
  5
177
330
1
100
AcDbSymbolTableRecord
100
AcDbBlockTableRecord
  2
*D26
340
0
  0
BLOCK_RECORD
  5
184
330
1
100
AcDbSymbolTableRecord
100
AcDbBlockTableRecord
  2
*D37
340
0
  0
BLOCK_RECORD
  5
191
330
1
100
AcDbSymbolTableRecord
100
AcDbBlockTableRecord
  2
*D48
340
0
  0
BLOCK_RECORD
  5
19C
330
1
100
AcDbSymbolTableRecord
100
AcDbBlockTableRecord
  2
*D59
340
0
  0
BLOCK_RECORD
  5
1A7
330
1
100
AcDbSymbolTableRecord
100
AcDbBlockTableRecord
  2
*D610
340
0
  0
BLOCK_RECORD
  5
1B4
330
1
100
AcDbSymbolTableRecord
100
AcDbBlockTableRecord
  2
*D711
340
0
  0
BLOCK_RECORD
  5
1BF
330
1
100
AcDbSymbolTableRecord
100
AcDbBlockTableRecord
  2
*D812
340
0
102
{BLKREFS
331
1C6
102
}
  0
ENDTAB
  0
ENDSEC
  0
SECTION
  2
BLOCKS
  0
BLOCK
  5
20
330
1F
100
AcDbEntity
  8
0
100
AcDbBlockBegin
  2
*Model_Space
 70
     0
 71
     0
 10
0.0
 20
0.0
 30
0.0
  3
*Model_Space
  1

  0
ENDBLK
  5
21
330
1F
100
AcDbEntity
  8
0
100
AcDbBlockEnd
  0
BLOCK
  5
1C
330
1B
100
AcDbEntity
 67
     1
  8
0
100
AcDbBlockBegin
  2
*Paper_Space
 70
     0
 71
     0
 10
0.0
 20
0.0
 30
0.0
  3
*Paper_Space
  1

  0
ENDBLK
  5
1D
330
1B
100
AcDbEntity
 67
     1
  8
0
100
AcDbBlockEnd
  0
BLOCK
  5
24
330
23
100
AcDbEntity
  8
0
100
AcDbBlockBegin
  2
*Paper_Space0
 70
     0
 71
     0
 10
0.0
 20
0.0
 30
0.0
  3
*Paper_Space0
  1

  0
ENDBLK
  5
25
330
23
100
AcDbEntity
  8
0
100
AcDbBlockEnd
  0
BLOCK
  5
37
330
36
100
AcDbEntity
  8
0
100
AcDbBlockBegin
  2
_J_E______
 70
     0
 71
     0
 10
-997.4375
 20
641.8410227543775
 30
0.0
  3
_J_E______
  1

  0
LINE
  5
42
102
{ACAD_REACTORS
330
4B
330
4B
102
}
330
36
100
AcDbEntity
  8
1
  6
Continuous
 62
     2
100
AcDbLine
 10
238.7559931506903
 20
683.2448630136991
 30
0.0
 11
182.7559931506903
 21
683.2448630136991
 31
0.0
  0
LINE
  5
43
102
{ACAD_REACTORS
330
4B
330
4B
102
}
330
36
100
AcDbEntity
  8
1
  6
Continuous
 62
     2
100
AcDbLine
 10
182.7559931506903
 20
698.2448630136991
 30
0.0
 11
238.7559931506903
 21
698.2448630136991
 31
0.0
  0
LINE
  5
44
102
{ACAD_REACTORS
330
4B
330
4B
102
}
330
36
100
AcDbEntity
  8
1
  6
Continuous
 62
     2
100
AcDbLine
 10
238.7559931506903
 20
683.2448630136991
 30
0.0
 11
238.7559931506903
 21
698.2448630136991
 31
0.0
  0
LINE
  5
45
102
{ACAD_REACTORS
330
4A
330
4A
102
}
330
36
100
AcDbEntity
  8
1
  6
Continuous
 62
     2
100
AcDbLine
 10
468.7559931506903
 20
698.2448630136991
 30
0.0
 11
468.7559931506903
 21
683.2448630136991
 31
0.0
  0
LINE
  5
46
102
{ACAD_REACTORS
330
4A
330
4A
102
}
330
36
100
AcDbEntity
  8
1
  6
Continuous
 62
     2
100
AcDbLine
 10
468.7559931506903
 20
698.2448630136991
 30
0.0
 11
524.7559931506903
 21
698.2448630136991
 31
0.0
  0
LINE
  5
47
102
{ACAD_REACTORS
330
4A
330
4A
102
}
330
36
100
AcDbEntity
  8
1
  6
Continuous
 62
     2
100
AcDbLine
 10
524.7559931506903
 20
683.2448630136991
 30
0.0
 11
468.7559931506903
 21
683.2448630136991
 31
0.0
  0
SPLINE
  5
48
102
{ACAD_REACTORS
330
4A
330
4A
102
}
330
36
100
AcDbEntity
  8
1
  6
Continuous
 62
     2
100
AcDbSpline
210
0.0
220
0.0
230
1.0
 70
     8
 71
     3
 72
    13
 73
     9
 74
     7
 42
0.0000000001
 43
0.0000000001
 44
0.00000001
 40
0.0
 40
0.0
 40
0.0
 40
0.0
 40
3.665720774769302
 40
7.409969020916246
 40
9.270052812601334
 40
10.99426311290298
 40
13.57499047522904
 40
16.06839544177499
 40
16.06839544177499
 40
16.06839544177499
 40
16.06839544177499
 10
524.7559931506903
 20
698.2448630136991
 30
0.0
 10
525.2660919844125
 20
697.0354541258336
 30
0.0
 10
526.2972170448654
 20
694.590728260627
 30
0.0
 10
523.3457350106855
 20
691.6860469676225
 30
0.0
 10
524.9310920324213
 20
689.5879610726503
 30
0.0
 10
526.1258543203094
 20
687.5833927440456
 30
0.0
 10
523.5950505625094
 20
685.8134241260566
 30
0.0
 10
524.3734776899476
 20
684.0911704429741
 30
0.0
 10
524.7559931506903
 20
683.2448630136991
 30
0.0
 11
524.7559931506903
 21
698.2448630136991
 31
0.0
 11
525.4565650351665
 21
694.6467096215746
 31
0.0
 11
524.0834433458703
 21
691.1633302630839
 31
0.0
 11
524.9387374315578
 21
689.5115482741164
 31
0.0
 11
525.5689513317406
 21
687.9066396786872
 31
0.0
 11
524.2525332477504
 21
685.6869106081017
 31
0.0
 11
524.7559931506903
 21
683.2448630136991
 31
0.0
  0
SPLINE
  5
49
102
{ACAD_REACTORS
330
4B
330
4B
102
}
330
36
100
AcDbEntity
  8
1
  6
Continuous
 62
     2
100
AcDbSpline
210
0.0
220
0.0
230
1.0
 70
     8
 71
     3
 72
    13
 73
     9
 74
     7
 42
0.0000000001
 43
0.0000000001
 44
0.00000001
 40
0.0
 40
0.0
 40
0.0
 40
0.0
 40
3.665720774769297
 40
7.40996902091625
 40
9.270052812601298
 40
10.99426311290299
 40
13.57499047522905
 40
16.068395441775
 40
16.068395441775
 40
16.068395441775
 40
16.068395441775
 10
182.7559931506903
 20
698.2448630136991
 30
0.0
 10
183.2660919844125
 20
697.0354541258337
 30
0.0
 10
184.2972170448652
 20
694.5907282606268
 30
0.0
 10
181.3457350106855
 20
691.6860469676228
 30
0.0
 10
182.931092032421
 20
689.5879610726501
 30
0.0
 10
184.1258543203095
 20
687.5833927440458
 30
0.0
 10
181.5950505625094
 20
685.8134241260564
 30
0.0
 10
182.3734776899475
 20
684.0911704429742
 30
0.0
 10
182.7559931506903
 20
683.2448630136991
 30
0.0
 11
182.7559931506903
 21
698.2448630136991
 31
0.0
 11
183.4565650351665
 21
694.6467096215746
 31
0.0
 11
182.0834433458702
 21
691.1633302630839
 31
0.0
 11
182.9387374315577
 21
689.5115482741164
 31
0.0
 11
183.5689513317405
 21
687.9066396786872
 31
0.0
 11
182.2525332477504
 21
685.6869106081017
 31
0.0
 11
182.7559931506903
 21
683.2448630136991
 31
0.0
  0
HATCH
  5
4A
330
36
100
AcDbEntity
  8
1
  6
Continuous
 62
     4
100
AcDbHatch
 10
0.0
 20
0.0
 30
0.0
210
0.0
220
0.0
230
1.0
  2
CUSTOM0
 70
     0
 71
     1
 91
        1
 92
        1
 93
        4
 72
     4
 94
        3
 73
     0
 74
     0
 95
       13
 96
        9
 40
0.0
 40
0.0
 40
0.0
 40
0.0
 40
3.665720774769302
 40
7.409969020916246
 40
9.270052812601334
 40
10.99426311290298
 40
13.57499047522904
 40
16.06839544177499
 40
16.06839544177499
 40
16.06839544177499
 40
16.06839544177499
 10
524.7559931506903
 20
698.2448630136991
 10
525.2660919844125
 20
697.0354541258336
 10
526.2972170448654
 20
694.590728260627
 10
523.3457350106855
 20
691.6860469676225
 10
524.9310920324213
 20
689.5879610726503
 10
526.1258543203094
 20
687.5833927440456
 10
523.5950505625094
 20
685.8134241260566
 10
524.3734776899476
 20
684.0911704429741
 10
524.7559931506903
 20
683.2448630136991
 72
     1
 10
524.7559931506903
 20
683.2448630136991
 11
468.7559931506903
 21
683.2448630136991
 72
     1
 10
468.7559931506903
 20
683.2448630136991
 11
468.7559931506903
 21
698.2448630136991
 72
     1
 10
468.7559931506903
 20
698.2448630136991
 11
524.7559931506903
 21
698.2448630136991
 97
        4
330
48
330
47
330
45
330
46
 75
     1
 76
     2
 52
45.0
 41
15.0
 77
     0
 78
     2
 53
45.0
 43
0.0
 44
0.0
 45
-21.21320343559642
 46
0.0000000000000017
 79
     0
 53
45.0
 43
3.535533905932737
 44
-3.535533905932738
 45
-21.21320343559642
 46
0.0000000000000017
 79
     0
 98
        1
 10
0.0
 20
0.0
  0
HATCH
  5
4B
330
36
100
AcDbEntity
  8
1
  6
Continuous
 62
     4
100
AcDbHatch
 10
0.0
 20
0.0
 30
0.0
210
0.0
220
0.0
230
1.0
  2
CUSTOM1
 70
     0
 71
     1
 91
        1
 92
        1
 93
        4
 72
     4
 94
        3
 73
     0
 74
     0
 95
       13
 96
        9
 40
0.0
 40
0.0
 40
0.0
 40
0.0
 40
3.665720774769297
 40
7.40996902091625
 40
9.270052812601298
 40
10.99426311290299
 40
13.57499047522905
 40
16.068395441775
 40
16.068395441775
 40
16.068395441775
 40
16.068395441775
 10
182.7559931506903
 20
698.2448630136991
 10
183.2660919844125
 20
697.0354541258337
 10
184.2972170448652
 20
694.5907282606268
 10
181.3457350106855
 20
691.6860469676228
 10
182.931092032421
 20
689.5879610726501
 10
184.1258543203095
 20
687.5833927440458
 10
181.5950505625094
 20
685.8134241260564
 10
182.3734776899475
 20
684.0911704429742
 10
182.7559931506903
 20
683.2448630136991
 72
     1
 10
182.7559931506903
 20
683.2448630136991
 11
238.7559931506903
 21
683.2448630136991
 72
     1
 10
238.7559931506903
 20
683.2448630136991
 11
238.7559931506903
 21
698.2448630136991
 72
     1
 10
238.7559931506903
 20
698.2448630136991
 11
182.7559931506903
 21
698.2448630136991
 97
        4
330
44
330
42
330
49
330
43
 75
     1
 76
     2
 52
45.0
 41
15.0
 77
     0
 78
     2
 53
45.0
 43
0.0
 44
0.0
 45
-21.21320343559642
 46
0.0000000000000017
 79
     0
 53
45.0
 43
3.535533905932737
 44
-3.535533905932738
 45
-21.21320343559642
 46
0.0000000000000017
 79
     0
 98
        1
 10
0.0
 20
0.0
  0
ENDBLK
  5
38
330
36
100
AcDbEntity
  8
0
100
AcDbBlockEnd
  0
BLOCK
  5
3A
330
39
100
AcDbEntity
  8
0
100
AcDbBlockBegin
  2
HW1021-1-__F_
 70
     0
 71
     0
 10
-965.9375000000001
 20
496.8921232876713
 30
0.0
  3
HW1021-1-__F_
  1

  0
LINE
  5
4C
330
39
100
AcDbEntity
  8
1
  6
PHANTOM
 62
     4
100
AcDbLine
 10
353.7559931506903
 20
644.2448630136988
 30
0.0
 11
353.7559931506903
 21
620.2448630136988
 31
0.0
  0
LINE
  5
4D
330
39
100
AcDbEntity
  8
1
  6
PHANTOM
 62
     4
100
AcDbLine
 10
353.7559931506903
 20
758.2448630136988
 30
0.0
 11
353.7559931506903
 21
644.2448630136988
 31
0.0
  0
LINE
  5
4E
330
39
100
AcDbEntity
  8
1
  6
PHANTOM
 62
     4
100
AcDbLine
 10
291.7559931506903
 20
646.2448630136988
 30
0.0
 11
291.7559931506903
 21
636.0867897077078
 31
0.0
  0
LINE
  5
4F
330
39
100
AcDbEntity
  8
1
  6
Continuous
 62
     7
100
AcDbLine
 10
226.3657653793368
 20
698.2448630136988
 30
0.0
 11
230.2262298845903
 21
698.2448630136988
 31
0.0
  0
LINE
  5
50
330
39
100
AcDbEntity
  8
1
  6
PHANTOM
 62
     4
100
AcDbLine
 10
222.7559931506903
 20
698.2448630136988
 30
0.0
 11
226.3657653793368
 21
698.2448630136988
 31
0.0
  0
LINE
  5
51
330
39
100
AcDbEntity
  8
1
  6
PHANTOM
 62
     4
100
AcDbLine
 10
222.7559931506903
 20
698.2448630136988
 30
0.0
 11
221.9729236085091
 21
701.7686759535148
 31
0.0
  0
LINE
  5
52
330
39
100
AcDbEntity
  8
1
  6
PHANTOM
 62
     4
100
AcDbLine
 10
213.8377091131958
 20
738.3771411824242
 30
0.0
 11
212.7559931506903
 21
743.2448630136988
 31
0.0
  0
LINE
  5
53
330
39
100
AcDbEntity
  8
1
  6
PHANTOM
 62
     4
100
AcDbLine
 10
291.7559931506903
 20
633.2448630136988
 30
0.0
 11
292.7559931506903
 21
633.2448630136988
 31
0.0
  0
LINE
  5
54
330
39
100
AcDbEntity
  8
1
  6
PHANTOM
 62
     4
100
AcDbLine
 10
291.7559931506903
 20
634.2448630136988
 30
0.0
 11
291.7559931506903
 21
633.2448630136988
 31
0.0
  0
LINE
  5
55
330
39
100
AcDbEntity
  8
1
  6
Continuous
 62
     7
100
AcDbLine
 10
291.7559931506903
 20
636.0867897077078
 30
0.0
 11
291.7559931506903
 21
634.2448630136988
 31
0.0
  0
LINE
  5
56
330
39
100
AcDbEntity
  8
1
  6
PHANTOM
 62
     4
100
AcDbLine
 10
230.2262298845903
 20
698.2448630136988
 30
0.0
 11
234.7559931506903
 21
698.2448630136988
 31
0.0
  0
LINE
  5
57
330
39
100
AcDbEntity
  8
1
  6
Continuous
 62
     7
100
AcDbLine
 10
221.9729236085091
 20
701.7686759535148
 30
0.0
 11
213.8377091131958
 21
738.3771411824242
 31
0.0
  0
LINE
  5
58
330
39
100
AcDbEntity
  8
1
  6
PHANTOM
 62
     4
100
AcDbLine
 10
217.7424573539315
 20
743.2448630136988
 30
0.0
 11
212.7559931506903
 21
743.2448630136988
 31
0.0
  0
LINE
  5
59
330
39
100
AcDbEntity
  8
1
  6
Continuous
 62
     7
100
AcDbLine
 10
353.7559931506903
 20
743.2448630136988
 30
0.0
 11
217.7424573539315
 21
743.2448630136988
 31
0.0
  0
LINE
  5
5A
330
39
100
AcDbEntity
  8
1
  6
Continuous
 62
     7
100
AcDbLine
 10
292.7559931506903
 20
633.2448630136988
 30
0.0
 11
414.7559931506903
 21
633.2448630136988
 31
0.0
  0
LINE
  5
5B
330
39
100
AcDbEntity
  8
1
  6
Continuous
 62
     7
100
AcDbLine
 10
489.7695289474491
 20
743.2448630136988
 30
0.0
 11
353.7559931506903
 21
743.2448630136988
 31
0.0
  0
LINE
  5
5C
330
39
100
AcDbEntity
  8
1
  6
PHANTOM
 62
     4
100
AcDbLine
 10
494.7559931506903
 20
743.2448630136988
 30
0.0
 11
489.7695289474491
 21
743.2448630136988
 31
0.0
  0
LINE
  5
5D
330
39
100
AcDbEntity
  8
1
  6
Continuous
 62
     7
100
AcDbLine
 10
493.6742771881848
 20
738.3771411824242
 30
0.0
 11
485.5390626928715
 21
701.7686759535148
 31
0.0
  0
LINE
  5
5E
330
39
100
AcDbEntity
  8
1
  6
PHANTOM
 62
     4
100
AcDbLine
 10
472.7559931506903
 20
698.2448630136988
 30
0.0
 11
477.2857564167903
 21
698.2448630136988
 31
0.0
  0
LINE
  5
5F
330
39
100
AcDbEntity
  8
1
  6
Continuous
 62
     7
100
AcDbLine
 10
415.7559931506903
 20
634.2448630136988
 30
0.0
 11
415.7559931506903
 21
636.0867897077078
 31
0.0
  0
LINE
  5
60
330
39
100
AcDbEntity
  8
1
  6
PHANTOM
 62
     4
100
AcDbLine
 10
415.7559931506903
 20
633.2448630136988
 30
0.0
 11
415.7559931506903
 21
634.2448630136988
 31
0.0
  0
LINE
  5
61
330
39
100
AcDbEntity
  8
1
  6
PHANTOM
 62
     4
100
AcDbLine
 10
414.7559931506903
 20
633.2448630136988
 30
0.0
 11
415.7559931506903
 21
633.2448630136988
 31
0.0
  0
LINE
  5
62
330
39
100
AcDbEntity
  8
1
  6
PHANTOM
 62
     4
100
AcDbLine
 10
494.7559931506903
 20
743.2448630136988
 30
0.0
 11
493.6742771881848
 21
738.3771411824242
 31
0.0
  0
LINE
  5
63
330
39
100
AcDbEntity
  8
1
  6
PHANTOM
 62
     4
100
AcDbLine
 10
485.5390626928715
 20
701.7686759535148
 30
0.0
 11
484.7559931506903
 21
698.2448630136988
 31
0.0
  0
LINE
  5
64
330
39
100
AcDbEntity
  8
1
  6
PHANTOM
 62
     4
100
AcDbLine
 10
481.1462209220438
 20
698.2448630136988
 30
0.0
 11
484.7559931506903
 21
698.2448630136988
 31
0.0
  0
LINE
  5
65
330
39
100
AcDbEntity
  8
1
  6
Continuous
 62
     7
100
AcDbLine
 10
230.2262298845903
 20
698.2448630136988
 30
0.0
 11
481.1462209220438
 21
698.2448630136988
 31
0.0
  0
LINE
  5
66
330
39
100
AcDbEntity
  8
1
  6
PHANTOM
 62
     4
100
AcDbLine
 10
415.7559931506903
 20
636.0867897077078
 30
0.0
 11
415.7559931506903
 21
646.2448630136988
 31
0.0
  0
LINE
  5
67
330
39
100
AcDbEntity
  8
1
  6
PHANTOM
 62
     4
100
AcDbLine
 10
388.2559931506903
 20
1005.244863013699
 30
0.0
 11
509.7559931506903
 21
1005.244863013699
 31
0.0
  0
LINE
  5
68
330
39
100
AcDbEntity
  8
1
  6
PHANTOM
 62
     4
100
AcDbLine
 10
387.2559931506903
 20
1005.244863013699
 30
0.0
 11
388.2559931506903
 21
1005.244863013699
 31
0.0
  0
LINE
  5
69
330
39
100
AcDbEntity
  8
1
  6
PHANTOM
 62
     4
100
AcDbLine
 10
372.7559931506903
 20
1005.244863013699
 30
0.0
 11
373.7559931506903
 21
1005.244863013699
 31
0.0
  0
LINE
  5
6A
330
39
100
AcDbEntity
  8
1
  6
PHANTOM
 62
     4
100
AcDbLine
 10
353.7559931506903
 20
1161.244863013699
 30
0.0
 11
353.7559931506903
 21
849.2448630136987
 31
0.0
  0
LINE
  5
6B
330
39
100
AcDbEntity
  8
1
  6
PHANTOM
 62
     4
100
AcDbLine
 10
197.7559931506903
 20
1005.244863013699
 30
0.0
 11
371.2559931506903
 21
1005.244863013699
 31
0.0
  0
LINE
  5
6C
330
39
100
AcDbEntity
  8
1
  6
DASH_CENTER
 62
     4
100
AcDbLine
 10
373.7559931506903
 20
1005.244863013699
 30
0.0
 11
383.7559931506903
 21
1005.244863013699
 31
0.0
  0
LINE
  5
6D
330
39
100
AcDbEntity
  8
1
  6
PHANTOM
 62
     4
100
AcDbLine
 10
383.7559931506903
 20
1005.244863013699
 30
0.0
 11
387.2559931506903
 21
1005.244863013699
 31
0.0
  0
LINE
  5
6E
330
39
100
AcDbEntity
  8
1
  6
PHANTOM
 62
     4
100
AcDbLine
 10
371.2559931506903
 20
1005.244863013699
 30
0.0
 11
372.7559931506903
 21
1005.244863013699
 31
0.0
  0
LINE
  5
6F
102
{ACAD_REACTORS
330
EA
330
EA
102
}
330
39
100
AcDbEntity
  8
1
  6
PHANTOM
 62
     4
100
AcDbLine
 10
852.7559931506903
 20
636.0867897077078
 30
0.0
 11
852.7559931506903
 21
646.2448630136988
 31
0.0
  0
LINE
  5
70
330
39
100
AcDbEntity
  8
1
  6
Continuous
 62
     7
100
AcDbLine
 10
810.7559931506903
 20
635.2448630136988
 30
0.0
 11
811.813090727208
 21
635.2448630136988
 31
0.0
  0
LINE
  5
71
330
39
100
AcDbEntity
  8
1
  6
PHANTOM
 62
     4
100
AcDbLine
 10
810.8146303740027
 20
636.3003330333213
 30
0.0
 11
810.7559931506903
 21
635.2448630136988
 31
0.0
  0
LINE
  5
72
330
39
100
AcDbEntity
  8
1
  6
Continuous
 62
     7
100
AcDbLine
 10
790.7559931506903
 20
653.2448630136988
 30
0.0
 11
823.2559931506903
 21
653.2448630136988
 31
0.0
  0
LINE
  5
73
330
39
100
AcDbEntity
  8
1
  6
Continuous
 62
     7
100
AcDbLine
 10
811.2559931506903
 20
644.2448630136988
 30
0.0
 11
790.7559931506903
 21
644.2448630136988
 31
0.0
  0
LINE
  5
74
330
39
100
AcDbEntity
  8
1
  6
PHANTOM
 62
     4
100
AcDbLine
 10
811.2559931506903
 20
644.2448630136988
 30
0.0
 11
811.1268091751908
 21
641.9195514547071
 31
0.0
  0
LINE
  5
75
330
39
100
AcDbEntity
  8
1
  6
PHANTOM
 62
     4
100
AcDbLine
 10
813.1191109412177
 20
645.6422013565945
 30
0.0
 11
811.2559931506903
 21
644.2448630136988
 31
0.0
  0
LINE
  5
76
330
39
100
AcDbEntity
  8
1
  6
PHANTOM
 62
     4
100
AcDbLine
 10
823.2559931506903
 20
653.2448630136988
 30
0.0
 11
821.9226598173568
 21
652.2448630136988
 31
0.0
  0
LINE
  5
77
330
39
100
AcDbEntity
  8
1
  6
Continuous
 62
     7
100
AcDbLine
 10
823.2559931506903
 20
653.2448630136988
 30
0.0
 11
824.9226598173568
 21
653.2448630136988
 31
0.0
  0
LINE
  5
78
102
{ACAD_REACTORS
330
EA
330
EA
102
}
330
39
100
AcDbEntity
  8
1
  6
Continuous
 62
     7
100
AcDbLine
 10
811.1268091751908
 20
641.9195514547071
 30
0.0
 11
810.8146303740027
 21
636.3003330333213
 31
0.0
  0
LINE
  5
79
102
{ACAD_REACTORS
330
EA
330
EA
102
}
330
39
100
AcDbEntity
  8
1
  6
Continuous
 62
     7
100
AcDbLine
 10
824.9226598173568
 20
653.2448630136988
 30
0.0
 11
829.0817117868683
 21
653.2448630136988
 31
0.0
  0
LINE
  5
7A
102
{ACAD_REACTORS
330
EA
330
EA
102
}
330
39
100
AcDbEntity
  8
1
  6
Continuous
 62
     7
100
AcDbLine
 10
821.9226598173568
 20
652.2448630136988
 30
0.0
 11
813.1191109412177
 21
645.6422013565945
 31
0.0
  0
LINE
  5
7B
330
39
100
AcDbEntity
  8
1
  6
Continuous
 62
     7
100
AcDbLine
 10
790.7559931506903
 20
635.2448630136988
 30
0.0
 11
810.7559931506903
 21
635.2448630136988
 31
0.0
  0
LINE
  5
7C
102
{ACAD_REACTORS
330
EA
330
EA
102
}
330
39
100
AcDbEntity
  8
1
  6
Continuous
 62
     7
100
AcDbLine
 10
811.813090727208
 20
635.2448630136988
 30
0.0
 11
817.6007054941581
 21
635.2448630136988
 31
0.0
  0
LINE
  5
7D
102
{ACAD_REACTORS
330
EA
330
EA
102
}
330
39
100
AcDbEntity
  8
1
  6
Continuous
 62
     7
100
AcDbLine
 10
914.2857564167903
 20
698.2448630136988
 30
0.0
 11
918.1462209220438
 21
698.2448630136988
 31
0.0
  0
LINE
  5
7E
330
39
100
AcDbEntity
  8
1
  6
PHANTOM
 62
     4
100
AcDbLine
 10
918.1462209220438
 20
698.2448630136988
 30
0.0
 11
921.7559931506903
 21
698.2448630136988
 31
0.0
  0
LINE
  5
7F
330
39
100
AcDbEntity
  8
1
  6
PHANTOM
 62
     4
100
AcDbLine
 10
922.5390626928715
 20
701.7686759535148
 30
0.0
 11
921.7559931506903
 21
698.2448630136988
 31
0.0
  0
LINE
  5
80
330
39
100
AcDbEntity
  8
1
  6
PHANTOM
 62
     4
100
AcDbLine
 10
931.7559931506903
 20
743.2448630136988
 30
0.0
 11
930.6742771881848
 21
738.3771411824242
 31
0.0
  0
LINE
  5
81
330
39
100
AcDbEntity
  8
1
  6
PHANTOM
 62
     4
100
AcDbLine
 10
851.7559931506903
 20
633.2448630136988
 30
0.0
 11
852.7559931506903
 21
633.2448630136988
 31
0.0
  0
LINE
  5
82
330
39
100
AcDbEntity
  8
1
  6
PHANTOM
 62
     4
100
AcDbLine
 10
852.7559931506903
 20
633.2448630136988
 30
0.0
 11
852.7559931506903
 21
634.2448630136988
 31
0.0
  0
LINE
  5
83
102
{ACAD_REACTORS
330
EA
330
EA
102
}
330
39
100
AcDbEntity
  8
1
  6
Continuous
 62
     7
100
AcDbLine
 10
852.7559931506903
 20
634.2448630136988
 30
0.0
 11
852.7559931506903
 21
636.0867897077078
 31
0.0
  0
LINE
  5
84
102
{ACAD_REACTORS
330
EA
330
EA
102
}
330
39
100
AcDbEntity
  8
1
  6
PHANTOM
 62
     4
100
AcDbLine
 10
909.7559931506903
 20
698.2448630136988
 30
0.0
 11
914.2857564167903
 21
698.2448630136988
 31
0.0
  0
LINE
  5
85
102
{ACAD_REACTORS
330
EA
330
EA
102
}
330
39
100
AcDbEntity
  8
1
  6
Continuous
 62
     7
100
AcDbLine
 10
930.6742771881848
 20
738.3771411824242
 30
0.0
 11
922.5390626928715
 21
701.7686759535148
 31
0.0
  0
LINE
  5
86
330
39
100
AcDbEntity
  8
1
  6
PHANTOM
 62
     4
100
AcDbLine
 10
931.7559931506903
 20
743.2448630136988
 30
0.0
 11
926.7695289474491
 21
743.2448630136988
 31
0.0
  0
LINE
  5
87
330
39
100
AcDbEntity
  8
1
  6
Continuous
 62
     7
100
AcDbLine
 10
926.7695289474491
 20
743.2448630136988
 30
0.0
 11
790.7559931506903
 21
743.2448630136988
 31
0.0
  0
LINE
  5
88
330
39
100
AcDbEntity
  8
1
  6
PHANTOM
 62
     4
100
AcDbLine
 10
842.7559931506903
 20
633.2448630136988
 30
0.0
 11
843.5972794065156
 21
633.2448630136988
 31
0.0
  0
LINE
  5
89
330
39
100
AcDbEntity
  8
1
  6
PHANTOM
 62
     4
100
AcDbLine
 10
817.6007054941581
 20
635.2448630136988
 30
0.0
 11
818.7559931506903
 21
635.2448630136988
 31
0.0
  0
LINE
  5
8A
102
{ACAD_REACTORS
330
EA
330
EA
102
}
330
39
100
AcDbEntity
  8
1
  6
Continuous
 62
     7
100
AcDbLine
 10
843.5972794065156
 20
633.2448630136988
 30
0.0
 11
851.7559931506903
 21
633.2448630136988
 31
0.0
  0
LINE
  5
8B
102
{ACAD_REACTORS
330
E9
330
E9
102
}
330
39
100
AcDbEntity
  8
1
  6
Continuous
 62
     7
100
AcDbLine
 10
729.7559931506903
 20
633.2448630136988
 30
0.0
 11
737.9147068948651
 21
633.2448630136988
 31
0.0
  0
LINE
  5
8C
330
39
100
AcDbEntity
  8
1
  6
PHANTOM
 62
     4
100
AcDbLine
 10
762.7559931506903
 20
635.2448630136988
 30
0.0
 11
763.9112808072225
 21
635.2448630136988
 31
0.0
  0
LINE
  5
8D
330
39
100
AcDbEntity
  8
1
  6
PHANTOM
 62
     4
100
AcDbLine
 10
737.9147068948651
 20
633.2448630136988
 30
0.0
 11
738.7559931506903
 21
633.2448630136988
 31
0.0
  0
LINE
  5
8E
330
39
100
AcDbEntity
  8
1
  6
Continuous
 62
     7
100
AcDbLine
 10
790.7559931506903
 20
743.2448630136988
 30
0.0
 11
654.7424573539315
 21
743.2448630136988
 31
0.0
  0
LINE
  5
8F
330
39
100
AcDbEntity
  8
1
  6
PHANTOM
 62
     4
100
AcDbLine
 10
654.7424573539315
 20
743.2448630136988
 30
0.0
 11
649.7559931506903
 21
743.2448630136988
 31
0.0
  0
LINE
  5
90
102
{ACAD_REACTORS
330
E9
330
E9
102
}
330
39
100
AcDbEntity
  8
1
  6
Continuous
 62
     7
100
AcDbLine
 10
658.9729236085091
 20
701.7686759535148
 30
0.0
 11
650.8377091131958
 21
738.3771411824242
 31
0.0
  0
LINE
  5
91
102
{ACAD_REACTORS
330
E9
330
E9
102
}
330
39
100
AcDbEntity
  8
1
  6
PHANTOM
 62
     4
100
AcDbLine
 10
667.2262298845903
 20
698.2448630136988
 30
0.0
 11
671.7559931506903
 21
698.2448630136988
 31
0.0
  0
LINE
  5
92
102
{ACAD_REACTORS
330
E9
330
E9
102
}
330
39
100
AcDbEntity
  8
1
  6
Continuous
 62
     7
100
AcDbLine
 10
728.7559931506903
 20
636.0867897077078
 30
0.0
 11
728.7559931506903
 21
634.2448630136988
 31
0.0
  0
LINE
  5
93
330
39
100
AcDbEntity
  8
1
  6
PHANTOM
 62
     4
100
AcDbLine
 10
728.7559931506903
 20
634.2448630136988
 30
0.0
 11
728.7559931506903
 21
633.2448630136988
 31
0.0
  0
LINE
  5
94
330
39
100
AcDbEntity
  8
1
  6
PHANTOM
 62
     4
100
AcDbLine
 10
728.7559931506903
 20
633.2448630136988
 30
0.0
 11
729.7559931506903
 21
633.2448630136988
 31
0.0
  0
LINE
  5
95
330
39
100
AcDbEntity
  8
1
  6
PHANTOM
 62
     4
100
AcDbLine
 10
650.8377091131958
 20
738.3771411824242
 30
0.0
 11
649.7559931506903
 21
743.2448630136988
 31
0.0
  0
LINE
  5
96
330
39
100
AcDbEntity
  8
1
  6
PHANTOM
 62
     4
100
AcDbLine
 10
659.7559931506903
 20
698.2448630136988
 30
0.0
 11
658.9729236085091
 21
701.7686759535148
 31
0.0
  0
LINE
  5
97
330
39
100
AcDbEntity
  8
1
  6
PHANTOM
 62
     4
100
AcDbLine
 10
659.7559931506903
 20
698.2448630136988
 30
0.0
 11
663.3657653793368
 21
698.2448630136988
 31
0.0
  0
LINE
  5
98
102
{ACAD_REACTORS
330
E9
330
E9
102
}
330
39
100
AcDbEntity
  8
1
  6
Continuous
 62
     7
100
AcDbLine
 10
663.3657653793368
 20
698.2448630136988
 30
0.0
 11
667.2262298845903
 21
698.2448630136988
 31
0.0
  0
LINE
  5
99
102
{ACAD_REACTORS
330
E9
330
E9
102
}
330
39
100
AcDbEntity
  8
1
  6
Continuous
 62
     7
100
AcDbLine
 10
763.9112808072225
 20
635.2448630136988
 30
0.0
 11
769.6988955741726
 21
635.2448630136988
 31
0.0
  0
LINE
  5
9A
330
39
100
AcDbEntity
  8
1
  6
Continuous
 62
     7
100
AcDbLine
 10
770.7559931506903
 20
635.2448630136988
 30
0.0
 11
790.7559931506903
 21
635.2448630136988
 31
0.0
  0
LINE
  5
9B
102
{ACAD_REACTORS
330
E9
330
E9
102
}
330
39
100
AcDbEntity
  8
1
  6
Continuous
 62
     7
100
AcDbLine
 10
768.3928753601629
 20
645.6422013565945
 30
0.0
 11
759.5893264840238
 21
652.2448630136988
 31
0.0
  0
LINE
  5
9C
102
{ACAD_REACTORS
330
E9
330
E9
102
}
330
39
100
AcDbEntity
  8
1
  6
Continuous
 62
     7
100
AcDbLine
 10
752.4302745145124
 20
653.2448630136988
 30
0.0
 11
756.5893264840238
 21
653.2448630136988
 31
0.0
  0
LINE
  5
9D
102
{ACAD_REACTORS
330
E9
330
E9
102
}
330
39
100
AcDbEntity
  8
1
  6
Continuous
 62
     7
100
AcDbLine
 10
770.6973559273779
 20
636.3003330333213
 30
0.0
 11
770.3851771261898
 21
641.9195514547071
 31
0.0
  0
LINE
  5
9E
330
39
100
AcDbEntity
  8
1
  6
Continuous
 62
     7
100
AcDbLine
 10
756.5893264840238
 20
653.2448630136988
 30
0.0
 11
758.2559931506903
 21
653.2448630136988
 31
0.0
  0
LINE
  5
9F
330
39
100
AcDbEntity
  8
1
  6
PHANTOM
 62
     4
100
AcDbLine
 10
759.5893264840238
 20
652.2448630136988
 30
0.0
 11
758.2559931506903
 21
653.2448630136988
 31
0.0
  0
LINE
  5
A0
330
39
100
AcDbEntity
  8
1
  6
PHANTOM
 62
     4
100
AcDbLine
 10
770.2559931506903
 20
644.2448630136988
 30
0.0
 11
768.3928753601629
 21
645.6422013565945
 31
0.0
  0
LINE
  5
A1
330
39
100
AcDbEntity
  8
1
  6
PHANTOM
 62
     4
100
AcDbLine
 10
770.3851771261898
 20
641.9195514547071
 30
0.0
 11
770.2559931506903
 21
644.2448630136988
 31
0.0
  0
LINE
  5
A2
330
39
100
AcDbEntity
  8
1
  6
Continuous
 62
     7
100
AcDbLine
 10
790.7559931506903
 20
644.2448630136988
 30
0.0
 11
770.2559931506903
 21
644.2448630136988
 31
0.0
  0
LINE
  5
A3
330
39
100
AcDbEntity
  8
1
  6
Continuous
 62
     7
100
AcDbLine
 10
758.2559931506903
 20
653.2448630136988
 30
0.0
 11
790.7559931506903
 21
653.2448630136988
 31
0.0
  0
LINE
  5
A4
330
39
100
AcDbEntity
  8
1
  6
PHANTOM
 62
     4
100
AcDbLine
 10
770.7559931506903
 20
635.2448630136988
 30
0.0
 11
770.6973559273779
 21
636.3003330333213
 31
0.0
  0
LINE
  5
A5
330
39
100
AcDbEntity
  8
1
  6
Continuous
 62
     7
100
AcDbLine
 10
769.6988955741726
 20
635.2448630136988
 30
0.0
 11
770.7559931506903
 21
635.2448630136988
 31
0.0
  0
LINE
  5
A6
102
{ACAD_REACTORS
330
E9
330
E9
102
}
330
39
100
AcDbEntity
  8
1
  6
PHANTOM
 62
     4
100
AcDbLine
 10
728.7559931506903
 20
646.2448630136988
 30
0.0
 11
728.7559931506903
 21
636.0867897077078
 31
0.0
  0
LINE
  5
A7
330
39
100
AcDbEntity
  8
1
  6
PHANTOM
 62
     4
100
AcDbLine
 10
790.7559931506903
 20
758.2448630136988
 30
0.0
 11
790.7559931506903
 21
644.2448630136988
 31
0.0
  0
LINE
  5
A8
330
39
100
AcDbEntity
  8
1
  6
PHANTOM
 62
     4
100
AcDbLine
 10
790.7559931506903
 20
644.2448630136988
 30
0.0
 11
790.7559931506903
 21
620.2448630136988
 31
0.0
  0
LINE
  5
A9
330
39
100
AcDbEntity
  8
1
  6
Continuous
 62
     7
100
AcDbLine
 10
301.013061365266
 20
646.2448630136989
 30
0.0
 11
408.0343003086471
 21
646.2448630136989
 31
0.0
  0
ARC
  5
AA
330
39
100
AcDbEntity
  8
1
  6
Continuous
 62
     7
100
AcDbCircle
 10
327.2987104895212
 20
741.8089890978333
 30
0.0
 40
102.1859736323139
100
AcDbArc
 50
-152.3434291170591
 51
-115.7189361241583
  0
ARC
  5
AB
330
39
100
AcDbEntity
  8
1
  6
PHANTOM
 62
     4
100
AcDbCircle
 10
324.2771563823874
 20
740.8089890978334
 30
0.0
 40
99.99999999999417
100
AcDbArc
 50
-114.4077436135978
 51
-108.9783971578722
  0
ARC
  5
AC
330
39
100
AcDbEntity
  8
1
  6
PHANTOM
 62
     4
100
AcDbCircle
 10
324.2771563823874
 20
742.8089890978334
 30
0.0
 40
99.999999999994
100
AcDbArc
 50
-153.5356262507536
 51
-151.0322366064985
  0
ARC
  5
AD
330
39
100
AcDbEntity
  8
1
  6
PHANTOM
 62
     4
100
AcDbCircle
 10
383.2348299189932
 20
742.8089890978334
 30
0.0
 40
99.99999999999395
100
AcDbArc
 50
-28.96776339350151
 51
-26.46437374924646
  0
ARC
  5
AE
330
39
100
AcDbEntity
  8
1
  6
PHANTOM
 62
     4
100
AcDbCircle
 10
383.2348299189932
 20
740.8089890978334
 30
0.0
 40
99.99999999999398
100
AcDbArc
 50
-71.02160284212778
 51
-65.59225638640224
  0
ARC
  5
AF
330
39
100
AcDbEntity
  8
1
  6
Continuous
 62
     7
100
AcDbCircle
 10
380.2132758118594
 20
741.8089890978333
 30
0.0
 40
102.1859736323141
100
AcDbArc
 50
-64.2810638758417
 51
-27.65657088294094
  0
ARC
  5
B0
102
{ACAD_REACTORS
330
EA
330
EA
102
}
330
39
100
AcDbEntity
  8
1
  6
Continuous
 62
     7
100
AcDbCircle
 10
817.2132758118594
 20
741.8089890978333
 30
0.0
 40
102.1859736323141
100
AcDbArc
 50
-64.2810638758417
 51
-27.65657088294094
  0
ARC
  5
B1
102
{ACAD_REACTORS
330
EA
330
EA
102
}
330
39
100
AcDbEntity
  8
1
  6
PHANTOM
 62
     4
100
AcDbCircle
 10
820.2348299189932
 20
740.8089890978334
 30
0.0
 40
99.99999999999398
100
AcDbArc
 50
-71.02160284212778
 51
-65.59225638640224
  0
ARC
  5
B2
102
{ACAD_REACTORS
330
EA
330
EA
102
}
330
39
100
AcDbEntity
  8
1
  6
PHANTOM
 62
     4
100
AcDbCircle
 10
820.2348299189932
 20
742.8089890978334
 30
0.0
 40
99.99999999999395
100
AcDbArc
 50
-28.96776339350151
 51
-26.46437374924646
  0
ARC
  5
B3
102
{ACAD_REACTORS
330
EA
330
EA
102
}
330
39
100
AcDbEntity
  8
1
  6
Continuous
 62
     7
100
AcDbCircle
 10
820.2348299189932
 20
742.8089890978334
 30
0.0
 40
89.99999999999388
100
AcDbArc
 50
-84.35879026064382
 51
-31.94637705026415
  0
ARC
  5
B4
102
{ACAD_REACTORS
330
EA
330
EA
102
}
330
39
100
AcDbEntity
  8
1
  6
Continuous
 62
     7
100
AcDbCircle
 10
768.3374339645266
 20
772.9549853707381
 30
0.0
 40
150.0000000001161
100
AcDbArc
 50
-31.22823847386742
 51
-17.00244328144285
  0
ARC
  5
B5
102
{ACAD_REACTORS
330
EA
330
EA
102
}
330
39
100
AcDbEntity
  8
1
  6
Continuous
 62
     7
100
AcDbCircle
 10
937.077467732631
 20
715.375501941401
 30
0.0
 40
30.00000000001346
100
AcDbArc
 50
113.3570107537832
 51
128.0998992255396
  0
ARC
  5
B6
102
{ACAD_REACTORS
330
EA
330
EA
102
}
330
39
100
AcDbEntity
  8
1
  6
Continuous
 62
     7
100
AcDbCircle
 10
930.907122822221
 20
723.2448630136988
 30
0.0
 40
20.00000000008294
100
AcDbArc
 50
128.0998992255395
 51
162.9975567185571
  0
ARC
  5
B7
102
{ACAD_REACTORS
330
EA
330
EA
102
}
330
39
100
AcDbEntity
  8
1
  6
Continuous
 62
     7
100
AcDbCircle
 10
841.1960351536695
 20
590.5632726782546
 30
0.0
 40
49.99999999999912
100
AcDbArc
 50
96.46958600794616
 51
115.4044945413502
  0
ARC
  5
B8
330
39
100
AcDbEntity
  8
1
  6
PHANTOM
 62
     4
100
AcDbCircle
 10
841.1960351536695
 20
590.5632726782546
 30
0.0
 40
49.99999999999913
100
AcDbArc
 50
115.4044945413502
 51
116.6667730895554
  0
ARC
  5
B9
102
{ACAD_REACTORS
330
EA
330
EA
102
}
330
39
100
AcDbEntity
  8
1
  6
Continuous
 62
     7
100
AcDbCircle
 10
834.8144042277131
 20
632.2798939061261
 30
0.0
 40
8.000000000007878
100
AcDbArc
 50
12.6109589541811
 51
84.63614732242012
  0
ARC
  5
BA
330
39
100
AcDbEntity
  8
1
  6
PHANTOM
 62
     4
100
AcDbCircle
 10
834.8144042277131
 20
632.2798939061261
 30
0.0
 40
8.000000000007734
100
AcDbArc
 50
6.92795158777042
 51
12.6109589541811
  0
ARC
  5
BB
330
39
100
AcDbEntity
  8
1
  6
PHANTOM
 62
     4
100
AcDbCircle
 10
746.6975820736675
 20
632.2798939061261
 30
0.0
 40
8.000000000007878
100
AcDbArc
 50
167.3890410458189
 51
173.0720484122296
  0
ARC
  5
BC
102
{ACAD_REACTORS
330
E9
330
E9
102
}
330
39
100
AcDbEntity
  8
1
  6
Continuous
 62
     7
100
AcDbCircle
 10
746.6975820736675
 20
632.2798939061261
 30
0.0
 40
8.000000000007855
100
AcDbArc
 50
95.3638526775799
 51
167.3890410458189
  0
ARC
  5
BD
330
39
100
AcDbEntity
  8
1
  6
PHANTOM
 62
     4
100
AcDbCircle
 10
740.3159511477111
 20
590.5632726782546
 30
0.0
 40
49.99999999999931
100
AcDbArc
 50
63.33322691044464
 51
64.59550545864977
  0
ARC
  5
BE
102
{ACAD_REACTORS
330
E9
330
E9
102
}
330
39
100
AcDbEntity
  8
1
  6
Continuous
 62
     7
100
AcDbCircle
 10
740.3159511477111
 20
590.5632726782546
 30
0.0
 40
49.99999999999913
100
AcDbArc
 50
64.59550545864977
 51
83.53041399205385
  0
ARC
  5
BF
102
{ACAD_REACTORS
330
E9
330
E9
102
}
330
39
100
AcDbEntity
  8
1
  6
Continuous
 62
     7
100
AcDbCircle
 10
650.6048634791596
 20
723.2448630136988
 30
0.0
 40
19.99999999999995
100
AcDbArc
 50
17.00244328144291
 51
51.90010077446055
  0
ARC
  5
C0
102
{ACAD_REACTORS
330
E9
330
E9
102
}
330
39
100
AcDbEntity
  8
1
  6
Continuous
 62
     7
100
AcDbCircle
 10
644.4345185687496
 20
715.375501941401
 30
0.0
 40
30.00000000006387
100
AcDbArc
 50
51.90010077446039
 51
66.64298924621677
  0
ARC
  5
C1
102
{ACAD_REACTORS
330
E9
330
E9
102
}
330
39
100
AcDbEntity
  8
1
  6
Continuous
 62
     7
100
AcDbCircle
 10
813.1745523368541
 20
772.9549853707381
 30
0.0
 40
150.000000000116
100
AcDbArc
 50
-162.9975567185572
 51
-148.7717615261326
  0
ARC
  5
C2
102
{ACAD_REACTORS
330
E9
330
E9
102
}
330
39
100
AcDbEntity
  8
1
  6
Continuous
 62
     7
100
AcDbCircle
 10
761.2771563823874
 20
742.8089890978334
 30
0.0
 40
89.99999999999395
100
AcDbArc
 50
-148.0536229497359
 51
-95.6412097393562
  0
ARC
  5
C3
102
{ACAD_REACTORS
330
E9
330
E9
102
}
330
39
100
AcDbEntity
  8
1
  6
PHANTOM
 62
     4
100
AcDbCircle
 10
761.2771563823874
 20
742.8089890978334
 30
0.0
 40
99.999999999994
100
AcDbArc
 50
-153.5356262507536
 51
-151.0322366064985
  0
ARC
  5
C4
102
{ACAD_REACTORS
330
E9
330
E9
102
}
330
39
100
AcDbEntity
  8
1
  6
PHANTOM
 62
     4
100
AcDbCircle
 10
761.2771563823874
 20
740.8089890978334
 30
0.0
 40
99.99999999999417
100
AcDbArc
 50
-114.4077436135978
 51
-108.9783971578722
  0
ARC
  5
C5
102
{ACAD_REACTORS
330
E9
330
E9
102
}
330
39
100
AcDbEntity
  8
1
  6
Continuous
 62
     7
100
AcDbCircle
 10
764.2987104895212
 20
741.8089890978333
 30
0.0
 40
102.1859736323139
100
AcDbArc
 50
-152.3434291170591
 51
-115.7189361241583
  0
CIRCLE
  5
C6
330
39
100
AcDbEntity
  8
1
  6
Continuous
 62
     7
100
AcDbCircle
 10
353.7559931506903
 20
1005.244863013699
 30
0.0
 40
20.0
  0
CIRCLE
  5
C7
330
39
100
AcDbEntity
  8
1
  6
Continuous
 62
     7
100
AcDbCircle
 10
353.7559931506903
 20
1005.244863013699
 30
0.0
 40
34.5
  0
CIRCLE
  5
C8
330
39
100
AcDbEntity
  8
1
  6
Continuous
 62
     7
100
AcDbCircle
 10
353.7559931506903
 20
1005.244863013699
 30
0.0
 40
141.0
  0
ARC
  5
C9
330
39
100
AcDbEntity
  8
1
  6
Continuous
 62
     7
100
AcDbCircle
 10
276.7559931506903
 20
636.0867897077086
 30
0.0
 40
15.0
100
AcDbArc
 50
-0.00000000000304
 51
65.5922563864021
  0
ARC
  5
CA
330
39
100
AcDbEntity
  8
1
  6
Continuous
 62
     7
100
AcDbCircle
 10
226.3657653793368
 20
702.7448630136988
 30
0.0
 40
4.499999999999934
100
AcDbArc
 50
-167.471192290848
 51
-90.0
  0
ARC
  5
CB
330
39
100
AcDbEntity
  8
1
  6
Continuous
 62
     7
100
AcDbCircle
 10
292.7559931506903
 20
634.2448630136988
 30
0.0
 40
1.0
100
AcDbArc
 50
180.0
 51
-90.0
  0
ARC
  5
CC
330
39
100
AcDbEntity
  8
1
  6
Continuous
 62
     7
100
AcDbCircle
 10
230.2262298845903
 20
690.7448630136988
 30
0.0
 40
7.499999999999996
100
AcDbArc
 50
28.96776339350153
 51
90.0
  0
ARC
  5
CD
330
39
100
AcDbEntity
  8
1
  6
Continuous
 62
     7
100
AcDbCircle
 10
217.7424573539315
 20
739.2448630136988
 30
0.0
 40
4.0
100
AcDbArc
 50
90.0
 51
-167.4711922908486
  0
ARC
  5
CE
330
39
100
AcDbEntity
  8
1
  6
Continuous
 62
     7
100
AcDbCircle
 10
489.7695289474491
 20
739.2448630136988
 30
0.0
 40
3.999999999999912
100
AcDbArc
 50
-12.52880770915133
 51
90.0
  0
ARC
  5
CF
330
39
100
AcDbEntity
  8
1
  6
Continuous
 62
     7
100
AcDbCircle
 10
477.2857564167903
 20
690.7448630136988
 30
0.0
 40
7.5
100
AcDbArc
 50
90.0
 51
151.0322366064985
  0
ARC
  5
D0
330
39
100
AcDbEntity
  8
1
  6
Continuous
 62
     7
100
AcDbCircle
 10
414.7559931506903
 20
634.2448630136988
 30
0.0
 40
1.0
100
AcDbArc
 50
-90.0
 51
0.0
  0
ARC
  5
D1
330
39
100
AcDbEntity
  8
1
  6
Continuous
 62
     7
100
AcDbCircle
 10
481.1462209220438
 20
702.7448630136988
 30
0.0
 40
4.5
100
AcDbArc
 50
-90.0
 51
-12.52880770915214
  0
ARC
  5
D2
330
39
100
AcDbEntity
  8
1
  6
Continuous
 62
     7
100
AcDbCircle
 10
430.7559931506903
 20
636.0867897077086
 30
0.0
 40
15.00000000000001
100
AcDbArc
 50
114.4077436135979
 51
-179.999999999997
  0
ARC
  5
D3
330
39
100
AcDbEntity
  8
1
  6
Continuous
 62
     7
100
AcDbCircle
 10
867.7559931506903
 20
636.0867897077086
 30
0.0
 40
15.00000000000001
100
AcDbArc
 50
114.4077436135979
 51
-179.999999999997
  0
ARC
  5
D4
102
{ACAD_REACTORS
330
EA
330
EA
102
}
330
39
100
AcDbEntity
  8
1
  6
Continuous
 62
     7
100
AcDbCircle
 10
811.813090727208
 20
636.2448630136988
 30
0.0
 40
0.9999999999998313
100
AcDbArc
 50
176.8201698801379
 51
-90.0
  0
ARC
  5
D5
102
{ACAD_REACTORS
330
EA
330
EA
102
}
330
39
100
AcDbEntity
  8
1
  6
Continuous
 62
     7
100
AcDbCircle
 10
816.1191109412177
 20
641.6422013565945
 30
0.0
 40
5.0
100
AcDbArc
 50
126.869897645844
 51
176.8201698801358
  0
ARC
  5
D6
102
{ACAD_REACTORS
330
EA
330
EA
102
}
330
39
100
AcDbEntity
  8
1
  6
Continuous
 62
     7
100
AcDbCircle
 10
824.9226598173568
 20
648.2448630136988
 30
0.0
 40
5.0
100
AcDbArc
 50
90.0
 51
126.869897645844
  0
ARC
  5
D7
102
{ACAD_REACTORS
330
EA
330
EA
102
}
330
39
100
AcDbEntity
  8
1
  6
Continuous
 62
     7
100
AcDbCircle
 10
918.1462209220438
 20
702.7448630136988
 30
0.0
 40
4.5
100
AcDbArc
 50
-90.0
 51
-12.52880770915183
  0
ARC
  5
D8
102
{ACAD_REACTORS
330
EA
330
EA
102
}
330
39
100
AcDbEntity
  8
1
  6
Continuous
 62
     7
100
AcDbCircle
 10
851.7559931506903
 20
634.2448630136988
 30
0.0
 40
1.0
100
AcDbArc
 50
-90.0
 51
0.0
  0
ARC
  5
D9
330
39
100
AcDbEntity
  8
1
  6
Continuous
 62
     7
100
AcDbCircle
 10
914.2857564167903
 20
690.7448630136988
 30
0.0
 40
7.5
100
AcDbArc
 50
90.0
 51
151.0322366064983
  0
ARC
  5
DA
102
{ACAD_REACTORS
330
EA
330
EA
102
}
330
39
100
AcDbEntity
  8
1
  6
Continuous
 62
     7
100
AcDbCircle
 10
926.7695289474491
 20
739.2448630136988
 30
0.0
 40
4.0
100
AcDbArc
 50
90.0
 51
113.3570107537845
  0
ARC
  5
DB
102
{ACAD_REACTORS
330
EA
330
EA
102
}
330
39
100
AcDbEntity
  8
1
  6
Continuous
 62
     7
100
AcDbCircle
 10
926.7695289474491
 20
739.2448630136988
 30
0.0
 40
3.999999999999857
100
AcDbArc
 50
-12.52880770915151
 51
90.0
  0
ARC
  5
DC
102
{ACAD_REACTORS
330
EA
330
EA
102
}
330
39
100
AcDbEntity
  8
1
  6
Continuous
 62
     7
100
AcDbCircle
 10
817.6007054941586
 20
640.2448630136987
 30
0.0
 40
4.999999999999886
100
AcDbArc
 50
-90.00000000000522
 51
-64.59550545865345
  0
ARC
  5
DD
102
{ACAD_REACTORS
330
EA
330
EA
102
}
330
39
100
AcDbEntity
  8
1
  6
Continuous
 62
     7
100
AcDbCircle
 10
843.5972794065156
 20
634.2448630136988
 30
0.0
 40
0.9999999999998597
100
AcDbArc
 50
-167.3890410458162
 51
-90.0
  0
ARC
  5
DE
102
{ACAD_REACTORS
330
E9
330
E9
102
}
330
39
100
AcDbEntity
  8
1
  6
Continuous
 62
     7
100
AcDbCircle
 10
737.9147068948651
 20
634.2448630136988
 30
0.0
 40
1.0
100
AcDbArc
 50
-90.0
 51
-12.61095895418384
  0
ARC
  5
DF
102
{ACAD_REACTORS
330
E9
330
E9
102
}
330
39
100
AcDbEntity
  8
1
  6
Continuous
 62
     7
100
AcDbCircle
 10
763.9112808072221
 20
640.2448630136987
 30
0.0
 40
4.999999999999849
100
AcDbArc
 50
-115.4044945413466
 51
-89.9999999999948
  0
ARC
  5
E0
102
{ACAD_REACTORS
330
E9
330
E9
102
}
330
39
100
AcDbEntity
  8
1
  6
Continuous
 62
     7
100
AcDbCircle
 10
654.7424573539315
 20
739.2448630136988
 30
0.0
 40
4.0
100
AcDbArc
 50
90.0
 51
-167.4711922908485
  0
ARC
  5
E1
102
{ACAD_REACTORS
330
E9
330
E9
102
}
330
39
100
AcDbEntity
  8
1
  6
Continuous
 62
     7
100
AcDbCircle
 10
654.7424573539315
 20
739.2448630136988
 30
0.0
 40
4.000000000036844
100
AcDbArc
 50
66.64298924621552
 51
90.0
  0
ARC
  5
E2
330
39
100
AcDbEntity
  8
1
  6
Continuous
 62
     7
100
AcDbCircle
 10
667.2262298845903
 20
690.7448630136988
 30
0.0
 40
7.499999999999945
100
AcDbArc
 50
28.96776339350174
 51
90.0
  0
ARC
  5
E3
102
{ACAD_REACTORS
330
E9
330
E9
102
}
330
39
100
AcDbEntity
  8
1
  6
Continuous
 62
     7
100
AcDbCircle
 10
729.7559931506903
 20
634.2448630136988
 30
0.0
 40
1.0
100
AcDbArc
 50
180.0
 51
-90.0
  0
ARC
  5
E4
102
{ACAD_REACTORS
330
E9
330
E9
102
}
330
39
100
AcDbEntity
  8
1
  6
Continuous
 62
     7
100
AcDbCircle
 10
663.3657653793368
 20
702.7448630136988
 30
0.0
 40
4.499999999999989
100
AcDbArc
 50
-167.4711922908482
 51
-90.0
  0
ARC
  5
E5
102
{ACAD_REACTORS
330
E9
330
E9
102
}
330
39
100
AcDbEntity
  8
1
  6
Continuous
 62
     7
100
AcDbCircle
 10
756.5893264840238
 20
648.2448630136988
 30
0.0
 40
5.0
100
AcDbArc
 50
53.13010235415598
 51
90.0
  0
ARC
  5
E6
102
{ACAD_REACTORS
330
E9
330
E9
102
}
330
39
100
AcDbEntity
  8
1
  6
Continuous
 62
     7
100
AcDbCircle
 10
765.3928753601629
 20
641.6422013565945
 30
0.0
 40
4.99999999999985
100
AcDbArc
 50
3.17983011986423
 51
53.13010235415598
  0
ARC
  5
E7
102
{ACAD_REACTORS
330
E9
330
E9
102
}
330
39
100
AcDbEntity
  8
1
  6
Continuous
 62
     7
100
AcDbCircle
 10
769.6988955741726
 20
636.2448630136988
 30
0.0
 40
1.0
100
AcDbArc
 50
-90.0
 51
3.17983011986207
  0
ARC
  5
E8
330
39
100
AcDbEntity
  8
1
  6
Continuous
 62
     7
100
AcDbCircle
 10
713.7559931506903
 20
636.0867897077086
 30
0.0
 40
15.0
100
AcDbArc
 50
-0.00000000000304
 51
65.5922563864021
  0
HATCH
  5
E9
330
39
100
AcDbEntity
  8
1
  6
Continuous
 62
     2
100
AcDbHatch
 10
0.0
 20
0.0
 30
0.0
210
0.0
220
0.0
230
1.0
  2
_USER
 70
     0
 71
     1
 91
        1
 92
        1
 93
       28
 72
     2
 10
761.2771563823874
 20
742.8089890978334
 40
89.99999999999395
 50
211.9463770502642
 51
264.3587902606438
 73
     1
 72
     1
 10
752.4302745145124
 20
653.2448630136988
 11
756.5893264840238
 21
653.2448630136988
 72
     2
 10
756.5893264840238
 20
648.2448630136988
 40
5.0
 50
270.0
 51
306.869897645844
 73
     0
 72
     1
 10
759.5893264840238
 20
652.2448630136988
 11
768.3928753601629
 21
645.6422013565945
 72
     2
 10
765.3928753601629
 20
641.6422013565945
 40
4.99999999999985
 50
306.869897645844
 51
356.8201698801357
 73
     0
 72
     1
 10
770.3851771261898
 20
641.9195514547071
 11
770.6973559273779
 21
636.3003330333213
 72
     2
 10
769.6988955741726
 20
636.2448630136988
 40
1.0
 50
356.8201698801379
 51
450.0
 73
     0
 72
     1
 10
769.6988955741726
 20
635.2448630136988
 11
763.9112808072225
 21
635.2448630136988
 72
     2
 10
763.9112808072221
 20
640.2448630136987
 40
4.999999999999849
 50
89.9999999999948
 51
115.4044945413466
 73
     0
 72
     2
 10
740.3159511477111
 20
590.5632726782546
 40
49.99999999999913
 50
64.59550545864977
 51
83.53041399205385
 73
     1
 72
     2
 10
746.6975820736675
 20
632.2798939061261
 40
8.000000000007855
 50
95.3638526775799
 51
167.3890410458189
 73
     1
 72
     2
 10
737.9147068948651
 20
634.2448630136988
 40
1.0
 50
12.61095895418384
 51
90.0
 73
     0
 72
     1
 10
737.9147068948651
 20
633.2448630136988
 11
729.7559931506903
 21
633.2448630136988
 72
     2
 10
729.7559931506903
 20
634.2448630136988
 40
1.0
 50
90.0
 51
180.0
 73
     0
 72
     1
 10
728.7559931506903
 20
634.2448630136988
 11
728.7559931506903
 21
636.0867897077078
 72
     1
 10
728.7559931506903
 20
636.0867897077078
 11
728.7559931506903
 21
646.2448630136988
 72
     2
 10
761.2771563823874
 20
740.8089890978334
 40
99.99999999999417
 50
108.9783971578722
 51
114.4077436135978
 73
     0
 72
     2
 10
764.2987104895212
 20
741.8089890978333
 40
102.1859736323139
 50
115.7189361241583
 51
152.3434291170591
 73
     0
 72
     2
 10
761.2771563823874
 20
742.8089890978334
 40
99.999999999994
 50
151.0322366064985
 51
153.5356262507536
 73
     0
 72
     1
 10
671.7559931506903
 20
698.2448630136988
 11
667.2262298845903
 21
698.2448630136988
 72
     1
 10
667.2262298845903
 20
698.2448630136988
 11
663.3657653793368
 21
698.2448630136988
 72
     2
 10
663.3657653793368
 20
702.7448630136988
 40
4.499999999999989
 50
90.0
 51
167.4711922908482
 73
     0
 72
     1
 10
658.9729236085091
 20
701.7686759535148
 11
650.8377091131958
 21
738.3771411824242
 72
     2
 10
654.7424573539315
 20
739.2448630136988
 40
4.0
 50
167.4711922908485
 51
270.0
 73
     0
 72
     2
 10
654.7424573539315
 20
739.2448630136988
 40
4.000000000036844
 50
270.0
 51
293.3570107537845
 73
     0
 72
     2
 10
644.4345185687496
 20
715.375501941401
 40
30.00000000006387
 50
293.3570107537832
 51
308.0998992255396
 73
     0
 72
     2
 10
650.6048634791596
 20
723.2448630136988
 40
19.99999999999995
 50
308.0998992255395
 51
342.9975567185571
 73
     0
 72
     2
 10
813.1745523368541
 20
772.9549853707381
 40
150.000000000116
 50
197.0024432814429
 51
211.2282384738674
 73
     1
 97
       28
330
C2
330
9C
330
E5
330
9B
330
E6
330
9D
330
E7
330
99
330
DF
330
BE
330
BC
330
DE
330
8B
330
E3
330
92
330
A6
330
C4
330
C5
330
C3
330
91
330
98
330
E4
330
90
330
E0
330
E1
330
C0
330
BF
330
C1
 75
     1
 76
     0
 52
45.0
 41
10.0
 77
     0
 78
     1
 53
45.0
 43
0.0
 44
0.0
 45
-7.071067811865475
 46
7.071067811865476
 79
     0
 98
        1
 10
0.0
 20
0.0
  0
HATCH
  5
EA
330
39
100
AcDbEntity
  8
1
  6
Continuous
 62
     2
100
AcDbHatch
 10
0.0
 20
0.0
 30
0.0
210
0.0
220
0.0
230
1.0
  2
_USER
 70
     0
 71
     1
 91
        1
 92
        1
 93
       28
 72
     2
 10
930.907122822221
 20
723.2448630136988
 40
20.00000000008294
 50
197.0024432814429
 51
231.9001007744606
 73
     0
 72
     2
 10
937.077467732631
 20
715.375501941401
 40
30.00000000001346
 50
231.9001007744604
 51
246.6429892462168
 73
     0
 72
     2
 10
926.7695289474491
 20
739.2448630136988
 40
4.0
 50
246.6429892462155
 51
270.0
 73
     0
 72
     2
 10
926.7695289474491
 20
739.2448630136988
 40
3.999999999999857
 50
270.0
 51
372.5288077091515
 73
     0
 72
     1
 10
930.6742771881848
 20
738.3771411824242
 11
922.5390626928715
 21
701.7686759535148
 72
     2
 10
918.1462209220438
 20
702.7448630136988
 40
4.5
 50
12.52880770915183
 51
90.0
 73
     0
 72
     1
 10
918.1462209220438
 20
698.2448630136988
 11
914.2857564167903
 21
698.2448630136988
 72
     1
 10
914.2857564167903
 20
698.2448630136988
 11
909.7559931506903
 21
698.2448630136988
 72
     2
 10
820.2348299189932
 20
742.8089890978334
 40
99.99999999999395
 50
26.46437374924646
 51
28.96776339350151
 73
     0
 72
     2
 10
817.2132758118594
 20
741.8089890978333
 40
102.1859736323141
 50
27.65657088294094
 51
64.2810638758417
 73
     0
 72
     2
 10
820.2348299189932
 20
740.8089890978334
 40
99.99999999999398
 50
65.59225638640224
 51
71.02160284212778
 73
     0
 72
     1
 10
852.7559931506903
 20
646.2448630136988
 11
852.7559931506903
 21
636.0867897077078
 72
     1
 10
852.7559931506903
 20
636.0867897077078
 11
852.7559931506903
 21
634.2448630136988
 72
     2
 10
851.7559931506903
 20
634.2448630136988
 40
1.0
 50
0.0
 51
90.0
 73
     0
 72
     1
 10
851.7559931506903
 20
633.2448630136988
 11
843.5972794065156
 21
633.2448630136988
 72
     2
 10
843.5972794065156
 20
634.2448630136988
 40
0.9999999999998597
 50
90.0
 51
167.3890410458162
 73
     0
 72
     2
 10
834.8144042277131
 20
632.2798939061261
 40
8.000000000007878
 50
12.6109589541811
 51
84.63614732242012
 73
     1
 72
     2
 10
841.1960351536695
 20
590.5632726782546
 40
49.99999999999912
 50
96.46958600794616
 51
115.4044945413502
 73
     1
 72
     2
 10
817.6007054941586
 20
640.2448630136987
 40
4.999999999999886
 50
64.59550545865345
 51
90.00000000000522
 73
     0
 72
     1
 10
817.6007054941581
 20
635.2448630136988
 11
811.813090727208
 21
635.2448630136988
 72
     2
 10
811.813090727208
 20
636.2448630136988
 40
0.9999999999998313
 50
90.0
 51
183.179830119862
 73
     0
 72
     1
 10
810.8146303740027
 20
636.3003330333213
 11
811.1268091751908
 21
641.9195514547071
 72
     2
 10
816.1191109412177
 20
641.6422013565945
 40
5.0
 50
183.1798301198643
 51
233.130102354156
 73
     0
 72
     1
 10
813.1191109412177
 20
645.6422013565945
 11
821.9226598173568
 21
652.2448630136988
 72
     2
 10
824.9226598173568
 20
648.2448630136988
 40
5.0
 50
233.130102354156
 51
270.0
 73
     0
 72
     1
 10
824.9226598173568
 20
653.2448630136988
 11
829.0817117868683
 21
653.2448630136988
 72
     2
 10
820.2348299189932
 20
742.8089890978334
 40
89.99999999999388
 50
275.6412097393562
 51
328.0536229497358
 73
     1
 72
     2
 10
768.3374339645266
 20
772.9549853707381
 40
150.0000000001161
 50
328.7717615261326
 51
342.9975567185571
 73
     1
 97
       28
330
B3
330
79
330
D6
330
7A
330
D5
330
78
330
D4
330
7C
330
DC
330
B7
330
B9
330
DD
330
8A
330
D8
330
83
330
6F
330
B1
330
B0
330
B2
330
84
330
7D
330
D7
330
85
330
DB
330
DA
330
B5
330
B6
330
B4
 75
     1
 76
     0
 52
45.0
 41
10.0
 77
     0
 78
     1
 53
45.0
 43
0.0
 44
0.0
 45
-7.071067811865475
 46
7.071067811865476
 79
     0
 98
        1
 10
0.0
 20
0.0
  0
ENDBLK
  5
3B
330
39
100
AcDbEntity
  8
0
100
AcDbBlockEnd
  0
BLOCK
  5
3D
330
3C
100
AcDbEntity
  8
0
100
AcDbBlockBegin
  2
_J__A4
 70
     0
 71
     0
 10
0.0
 20
0.0
 30
0.0
  3
_J__A4
  1

  0
POINT
  5
EB
330
3C
100
AcDbEntity
  8
1
 62
     4
100
AcDbPoint
 10
34.0
 20
34.00000000000001
 30
0.0
  0
POINT
  5
EC
330
3C
100
AcDbEntity
  8
1
 62
     4
100
AcDbPoint
 10
57.0
 20
12.25
 30
0.0
  0
POINT
  5
ED
330
3C
100
AcDbEntity
  8
1
 62
     4
100
AcDbPoint
 10
57.0
 20
20.75000000000001
 30
0.0
  0
POINT
  5
EE
330
3C
100
AcDbEntity
  8
1
 62
     4
100
AcDbPoint
 10
57.0
 20
24.75000000000001
 30
0.0
  0
POINT
  5
EF
330
3C
100
AcDbEntity
  8
1
 62
     4
100
AcDbPoint
 10
57.0
 20
16.25
 30
0.0
  0
POINT
  5
F0
330
3C
100
AcDbEntity
  8
1
 62
     4
100
AcDbPoint
 10
157.5
 20
19.00000000000001
 30
0.0
  0
POINT
  5
F1
330
3C
100
AcDbEntity
  8
1
 62
     4
100
AcDbPoint
 10
47.5
 20
282.0000000000003
 30
0.0
  0
POINT
  5
F2
330
3C
100
AcDbEntity
  8
1
 62
     4
100
AcDbPoint
 10
57.0
 20
22.75000000000001
 30
0.0
  0
POINT
  5
F3
330
3C
100
AcDbEntity
  8
1
 62
     4
100
AcDbPoint
 10
57.0
 20
14.25
 30
0.0
  0
POINT
  5
F4
330
3C
100
AcDbEntity
  8
1
 62
     4
100
AcDbPoint
 10
157.5
 20
12.5
 30
0.0
  0
POINT
  5
F5
330
3C
100
AcDbEntity
  8
1
 62
     4
100
AcDbPoint
 10
163.25
 20
12.5
 30
0.0
  0
POINT
  5
F6
330
3C
100
AcDbEntity
  8
1
 62
     4
100
AcDbPoint
 10
151.75
 20
12.5
 30
0.0
  0
POINT
  5
F7
330
3C
100
AcDbEntity
  8
1
 62
     4
100
AcDbPoint
 10
134.75
 20
12.5
 30
0.0
  0
POINT
  5
F8
330
3C
100
AcDbEntity
  8
1
 62
     4
100
AcDbPoint
 10
146.25
 20
12.5
 30
0.0
  0
POINT
  5
F9
330
3C
100
AcDbEntity
  8
1
 62
     4
100
AcDbPoint
 10
140.5
 20
12.5
 30
0.0
  0
POINT
  5
FA
330
3C
100
AcDbEntity
  8
1
 62
     4
100
AcDbPoint
 10
140.5
 20
19.00000000000001
 30
0.0
  0
POINT
  5
FB
330
3C
100
AcDbEntity
  8
1
 62
     4
100
AcDbPoint
 10
117.75
 20
12.5
 30
0.0
  0
POINT
  5
FC
330
3C
100
AcDbEntity
  8
1
 62
     4
100
AcDbPoint
 10
129.25
 20
12.5
 30
0.0
  0
POINT
  5
FD
330
3C
100
AcDbEntity
  8
1
 62
     4
100
AcDbPoint
 10
123.5
 20
12.5
 30
0.0
  0
POINT
  5
FE
330
3C
100
AcDbEntity
  8
1
 62
     4
100
AcDbPoint
 10
123.5
 20
19.00000000000001
 30
0.0
  0
POINT
  5
FF
330
3C
100
AcDbEntity
  8
1
 62
     4
100
AcDbPoint
 10
100.75
 20
12.5
 30
0.0
  0
POINT
  5
100
330
3C
100
AcDbEntity
  8
1
 62
     4
100
AcDbPoint
 10
112.25
 20
12.5
 30
0.0
  0
POINT
  5
101
330
3C
100
AcDbEntity
  8
1
 62
     4
100
AcDbPoint
 10
106.5
 20
12.5
 30
0.0
  0
POINT
  5
102
330
3C
100
AcDbEntity
  8
1
 62
     4
100
AcDbPoint
 10
106.5
 20
19.00000000000001
 30
0.0
  0
POINT
  5
103
330
3C
100
AcDbEntity
  8
1
 62
     4
100
AcDbPoint
 10
85.25
 20
17.0
 30
0.0
  0
POINT
  5
104
330
3C
100
AcDbEntity
  8
1
 62
     4
100
AcDbPoint
 10
93.75
 20
17.0
 30
0.0
  0
LINE
  5
105
330
3C
100
AcDbEntity
  8
1
  6
Continuous
 62
     2
100
AcDbLine
 10
81.0
 20
27.00000000000001
 30
0.0
 11
81.0
 21
10.0
 31
0.0
  0
LINE
  5
106
330
3C
100
AcDbEntity
  8
1
  6
DOT_CENTER
 62
     2
100
AcDbLine
 10
187.0
 20
26.50000000000001
 30
0.0
 11
187.0
 21
20.50000000000001
 31
0.0
  0
LINE
  5
107
330
3C
100
AcDbEntity
  8
1
  6
DOT_CENTER
 62
     2
100
AcDbLine
 10
184.0
 20
23.50000000000001
 30
0.0
 11
197.0
 21
23.50000000000001
 31
0.0
  0
LINE
  5
108
330
3C
100
AcDbEntity
  8
1
  6
Continuous
 62
     7
100
AcDbLine
 10
196.0
 20
21.50000000000001
 30
0.0
 11
191.0
 21
22.30000000000001
 31
0.0
  0
LINE
  5
109
330
3C
100
AcDbEntity
  8
1
  6
Continuous
 62
     7
100
AcDbLine
 10
196.0
 20
25.50000000000001
 30
0.0
 11
196.0
 21
21.50000000000001
 31
0.0
  0
LINE
  5
10A
330
3C
100
AcDbEntity
  8
1
  6
Continuous
 62
     7
100
AcDbLine
 10
191.0
 20
24.70000000000001
 30
0.0
 11
196.0
 21
25.50000000000001
 31
0.0
  0
LINE
  5
10B
330
3C
100
AcDbEntity
  8
1
  6
Continuous
 62
     7
100
AcDbLine
 10
191.0
 20
24.70000000000001
 30
0.0
 11
191.0
 21
22.30000000000001
 31
0.0
  0
LINE
  5
10C
330
3C
100
AcDbEntity
  8
1
  6
Continuous
 62
     2
100
AcDbLine
 10
33.0
 20
27.0
 30
0.0
 11
33.0
 21
10.0
 31
0.0
  0
LINE
  5
10D
330
3C
100
AcDbEntity
  8
1
  6
Continuous
 62
     2
100
AcDbLine
 10
25.0
 20
18.50000000000001
 30
0.0
 11
81.0
 21
18.50000000000001
 31
0.0
  0
LINE
  5
10E
330
3C
100
AcDbEntity
  8
1
  6
Continuous
 62
     7
100
AcDbLine
 10
200.0
 20
287.0000000000003
 30
0.0
 11
105.0
 21
287.0000000000003
 31
0.0
  0
LINE
  5
10F
330
3C
100
AcDbEntity
  8
1
  6
Continuous
 62
     7
100
AcDbLine
 10
200.0
 20
10.0
 30
0.0
 11
200.0
 21
148.5
 31
0.0
  0
LINE
  5
110
330
3C
100
AcDbEntity
  8
1
  6
Continuous
 62
     7
100
AcDbLine
 10
25.0
 20
10.0
 30
0.0
 11
105.0
 21
10.0
 31
0.0
  0
LINE
  5
111
330
3C
100
AcDbEntity
  8
1
  6
PHANTOM
 62
     4
100
AcDbLine
 10
0.0
 20
297.0
 30
0.0
 11
0.0
 21
0.0
 31
0.0
  0
LINE
  5
112
330
3C
100
AcDbEntity
  8
1
  6
PHANTOM
 62
     4
100
AcDbLine
 10
210.0
 20
297.0
 30
0.0
 11
0.0
 21
297.0
 31
0.0
  0
LINE
  5
113
330
3C
100
AcDbEntity
  8
1
  6
PHANTOM
 62
     4
100
AcDbLine
 10
210.0
 20
0.0
 30
0.0
 11
210.0
 21
297.0
 31
0.0
  0
LINE
  5
114
330
3C
100
AcDbEntity
  8
1
  6
PHANTOM
 62
     4
100
AcDbLine
 10
0.0
 20
0.0
 30
0.0
 11
210.0
 21
0.0
 31
0.0
  0
LINE
  5
115
330
3C
100
AcDbEntity
  8
1
  6
Continuous
 62
     7
100
AcDbLine
 10
25.0
 20
41.0
 30
0.0
 11
200.0
 21
41.0
 31
0.0
  0
LINE
  5
116
330
3C
100
AcDbEntity
  8
1
  6
Continuous
 62
     7
100
AcDbLine
 10
200.0
 20
27.00000000000001
 30
0.0
 11
25.0
 21
27.00000000000001
 31
0.0
  0
LINE
  5
117
330
3C
100
AcDbEntity
  8
1
  6
Continuous
 62
     2
100
AcDbLine
 10
33.0
 20
41.00000000000001
 30
0.0
 11
33.0
 21
27.0
 31
0.0
  0
LINE
  5
118
330
3C
100
AcDbEntity
  8
1
  6
Continuous
 62
     2
100
AcDbLine
 10
55.0
 20
287.0000000000003
 30
0.0
 11
55.0
 21
277.0000000000003
 31
0.0
  0
LINE
  5
119
330
3C
100
AcDbEntity
  8
1
  6
Continuous
 62
     2
100
AcDbLine
 10
40.0
 20
287.0000000000003
 30
0.0
 11
40.0
 21
277.0000000000003
 31
0.0
  0
LINE
  5
11A
330
3C
100
AcDbEntity
  8
1
  6
Continuous
 62
     7
100
AcDbLine
 10
25.0
 20
10.0
 30
0.0
 11
25.0
 21
148.5
 31
0.0
  0
LINE
  5
11B
330
3C
100
AcDbEntity
  8
1
  6
Continuous
 62
     2
100
AcDbLine
 10
55.0
 20
277.0000000000003
 30
0.0
 11
25.0
 21
277.0000000000003
 31
0.0
  0
LINE
  5
11C
330
3C
100
AcDbEntity
  8
1
  6
Continuous
 62
     2
100
AcDbLine
 10
166.0
 20
27.00000000000001
 30
0.0
 11
166.0
 21
10.0
 31
0.0
  0
LINE
  5
11D
330
3C
100
AcDbEntity
  8
1
  6
Continuous
 62
     2
100
AcDbLine
 10
132.0
 20
27.00000000000001
 30
0.0
 11
132.0
 21
9.99999999999999
 31
0.0
  0
LINE
  5
11E
330
3C
100
AcDbEntity
  8
1
  6
Continuous
 62
     2
100
AcDbLine
 10
149.0
 20
27.00000000000001
 30
0.0
 11
149.0
 21
10.0
 31
0.0
  0
LINE
  5
11F
330
3C
100
AcDbEntity
  8
1
  6
Continuous
 62
     2
100
AcDbLine
 10
115.0
 20
27.00000000000001
 30
0.0
 11
115.0
 21
9.99999999999999
 31
0.0
  0
LINE
  5
120
330
3C
100
AcDbEntity
  8
1
  6
Continuous
 62
     2
100
AcDbLine
 10
98.0
 20
27.00000000000001
 30
0.0
 11
98.0
 21
9.99999999999999
 31
0.0
  0
LINE
  5
121
330
3C
100
AcDbEntity
  8
1
  6
Continuous
 62
     2
100
AcDbLine
 10
166.0
 20
20.00000000000001
 30
0.0
 11
200.0
 21
20.00000000000001
 31
0.0
  0
LINE
  5
122
330
3C
100
AcDbEntity
  8
1
  6
Continuous
 62
     2
100
AcDbLine
 10
105.0
 20
287.0000000000003
 30
0.0
 11
105.0
 21
292.0000000000003
 31
0.0
  0
LINE
  5
123
330
3C
100
AcDbEntity
  8
1
  6
Continuous
 62
     7
100
AcDbLine
 10
105.0
 20
287.0000000000003
 30
0.0
 11
25.0
 21
287.0000000000003
 31
0.0
  0
LINE
  5
124
330
3C
100
AcDbEntity
  8
1
  6
Continuous
 62
     2
100
AcDbLine
 10
25.0
 20
148.5
 30
0.0
 11
20.0
 21
148.5
 31
0.0
  0
LINE
  5
125
330
3C
100
AcDbEntity
  8
1
  6
Continuous
 62
     7
100
AcDbLine
 10
25.0
 20
148.5
 30
0.0
 11
25.0
 21
287.0000000000003
 31
0.0
  0
LINE
  5
126
330
3C
100
AcDbEntity
  8
1
  6
Continuous
 62
     2
100
AcDbLine
 10
200.0
 20
148.5
 30
0.0
 11
205.0
 21
148.5
 31
0.0
  0
LINE
  5
127
330
3C
100
AcDbEntity
  8
1
  6
Continuous
 62
     7
100
AcDbLine
 10
200.0
 20
148.5
 30
0.0
 11
200.0
 21
287.0000000000003
 31
0.0
  0
LINE
  5
128
330
3C
100
AcDbEntity
  8
1
  6
Continuous
 62
     2
100
AcDbLine
 10
105.0
 20
10.0
 30
0.0
 11
105.0
 21
5.0
 31
0.0
  0
LINE
  5
129
330
3C
100
AcDbEntity
  8
1
  6
Continuous
 62
     7
100
AcDbLine
 10
105.0
 20
10.0
 30
0.0
 11
200.0
 21
10.0
 31
0.0
  0
CIRCLE
  5
12A
330
3C
100
AcDbEntity
  8
1
  6
DOT_CENTER
 62
     7
100
AcDbCircle
 10
89.5
 20
18.0
 30
0.0
 40
0.1000000000000227
  0
CIRCLE
  5
12B
330
3C
100
AcDbEntity
  8
1
  6
DOT_CENTER
 62
     7
100
AcDbCircle
 10
89.5
 20
16.0
 30
0.0
 40
0.1000000000000227
  0
CIRCLE
  5
12C
330
3C
100
AcDbEntity
  8
1
  6
Continuous
 62
     7
100
AcDbCircle
 10
187.0
 20
23.50000000000001
 30
0.0
 40
2.0
  0
CIRCLE
  5
12D
330
3C
100
AcDbEntity
  8
1
  6
Continuous
 62
     7
100
AcDbCircle
 10
187.0
 20
23.50000000000001
 30
0.0
 40
1.200000000000102
  0
CIRCLE
  5
12E
330
3C
100
AcDbEntity
  8
1
  6
Continuous
 62
     7
100
AcDbCircle
 10
154.5
 20
12.5
 30
0.0
 40
0.3000000000000114
  0
CIRCLE
  5
12F
330
3C
100
AcDbEntity
  8
1
  6
Continuous
 62
     7
100
AcDbCircle
 10
160.5
 20
12.5
 30
0.0
 40
0.3000000000000114
  0
CIRCLE
  5
130
330
3C
100
AcDbEntity
  8
1
  6
Continuous
 62
     7
100
AcDbCircle
 10
143.5
 20
12.5
 30
0.0
 40
0.3000000000000114
  0
CIRCLE
  5
131
330
3C
100
AcDbEntity
  8
1
  6
Continuous
 62
     7
100
AcDbCircle
 10
137.5
 20
12.5
 30
0.0
 40
0.3000000000000114
  0
CIRCLE
  5
132
330
3C
100
AcDbEntity
  8
1
  6
Continuous
 62
     7
100
AcDbCircle
 10
126.5
 20
12.5
 30
0.0
 40
0.2999999999999972
  0
CIRCLE
  5
133
330
3C
100
AcDbEntity
  8
1
  6
Continuous
 62
     7
100
AcDbCircle
 10
120.5
 20
12.5
 30
0.0
 40
0.2999999999999972
  0
CIRCLE
  5
134
330
3C
100
AcDbEntity
  8
1
  6
Continuous
 62
     7
100
AcDbCircle
 10
109.5
 20
12.5
 30
0.0
 40
0.2999999999999972
  0
CIRCLE
  5
135
330
3C
100
AcDbEntity
  8
1
  6
Continuous
 62
     7
100
AcDbCircle
 10
103.5
 20
12.5
 30
0.0
 40
0.2999999999999972
  0
MTEXT
  5
137
330
3C
100
AcDbEntity
  8
1
 62
   250
100
AcDbMText
 10
25.0
 20
5.0
 30
0.0
 40
3.5
 41
0.0
 71
     4
 72
     1
  1
備考欄の文字列 原点位置=4
  7
CONVERTER_1
 73
     1
 44
0.7202881152461
  0
MTEXT
  5
138
330
3C
100
AcDbEntity
  8
1
 62
     2
100
AcDbMText
 10
89.5
 20
24.00000000000001
 30
0.0
 40
3.5
 41
0.0
 71
     5
 72
     1
  1
尺度
  7
CONVERTER_1
 73
     1
 44
0.7202881152461
  0
MTEXT
  5
139
330
3C
100
AcDbEntity
  8
1
 62
     2
100
AcDbMText
 10
135.5
 20
25.00000000000001
 30
0.0
 40
3.0
 41
0.0
 71
     5
 72
     1
  1
製図
  7
CONVERTER_1
 73
     1
 44
0.78031212484994
  0
MTEXT
  5
13A
330
3C
100
AcDbEntity
  8
1
 62
     2
100
AcDbMText
 10
152.5
 20
25.00000000000001
 30
0.0
 40
3.0
 41
0.0
 71
     5
 72
     1
  1
設計
  7
CONVERTER_1
 73
     1
 44
0.78031212484994
  0
MTEXT
  5
13B
330
3C
100
AcDbEntity
  8
1
 62
     2
100
AcDbMText
 10
118.5
 20
25.00000000000001
 30
0.0
 40
3.0
 41
0.0
 71
     5
 72
     1
  1
検図
  7
CONVERTER_1
 73
     1
 44
0.78031212484994
  0
MTEXT
  5
13C
330
3C
100
AcDbEntity
  8
1
 62
     2
100
AcDbMText
 10
175.0
 20
23.50000000000001
 30
0.0
 40
3.5
 41
0.0
 71
     5
 72
     1
  1
第三角法
  7
CONVERTER_1
 73
     1
 44
0.7202881152461
  0
MTEXT
  5
13D
330
3C
100
AcDbEntity
  8
1
 62
     2
100
AcDbMText
 10
101.5
 20
25.00000000000001
 30
0.0
 40
3.0
 41
0.0
 71
     5
 72
     1
  1
承認
  7
CONVERTER_1
 73
     1
 44
0.78031212484994
  0
MTEXT
  5
13E
330
3C
100
AcDbEntity
  8
1
 62
     2
100
AcDbMText
 10
29.0
 20
14.25
 30
0.0
 40
3.5
 41
0.0
 71
     5
 72
     1
  1
品番
  7
CONVERTER_1
 73
     1
 44
0.96038415366146
  0
MTEXT
  5
13F
330
3C
100
AcDbEntity
  8
1
 62
     2
100
AcDbMText
 10
29.0
 20
22.75
 30
0.0
 40
3.5
 41
0.0
 71
     5
 72
     1
  1
品名
  7
CONVERTER_1
 73
     1
 44
0.96038415366146
  0
MTEXT
  5
140
330
3C
100
AcDbEntity
  8
1
 62
     2
100
AcDbMText
 10
29.0
 20
34.00000000000001
 30
0.0
 40
3.5
 41
0.0
 71
     5
 72
     1
  1
備考
  7
CONVERTER_1
 73
     1
 44
0.60024009603842
  0
MTEXT
  5
141
330
3C
100
AcDbEntity
  8
1
 62
     2
100
AcDbMText
 10
32.5
 20
282.0000000000003
 30
0.0
 40
5.0
 41
0.0
 71
     5
 72
     1
  1
図番
  7
CONVERTER_1
 73
     1
 44
0.60024009603842
  0
MTEXT
  5
142
330
3C
100
AcDbEntity
  8
1
 62
     7
100
AcDbMText
 10
171.5
 20
15.0
 30
0.0
 40
2.5
 41
0.0
 71
     5
 72
     1
  1
株式会社
  7
CONVERTER_1
 73
     1
 44
1.32052821128451
  0
MTEXT
  5
143
330
3C
100
AcDbEntity
  8
1
 62
     7
100
AcDbMText
 10
188.5
 20
15.0
 30
0.0
 40
3.0
 41
0.0
 71
     5
 72
     1
  1
三栄水栓製作所
  7
CONVERTER_1
 73
     1
 44
1.32052821128451
  0
ENDBLK
  5
3E
330
3C
100
AcDbEntity
  8
0
100
AcDbBlockEnd
  0
BLOCK
  5
168
330
161
100
AcDbEntity
  8
0
100
AcDbBlockBegin
  2
*D04
 70
     1
 71
     0
 10
0.0
 20
0.0
 30
0.0
  3
*D04
  1

  0
LINE
  5
162
330
161
100
AcDbEntity
  8
1
  6
Continuous
 62
     2
100
AcDbLine
 10
238.7559931506903
 20
543.2448630136989
 30
0.0
 11
468.7559931506903
 21
543.2448630136989
 31
0.0
  0
LINE
  5
163
330
161
100
AcDbEntity
  8
1
  6
Continuous
 62
     2
100
AcDbLine
 10
238.7559931506903
 20
683.2448630136989
 30
0.0
 11
238.7559931506903
 21
538.2448630136989
 31
0.0
  0
LINE
  5
164
330
161
100
AcDbEntity
  8
1
  6
Continuous
 62
     2
100
AcDbLine
 10
468.7559931506903
 20
683.2448630136989
 30
0.0
 11
468.7559931506903
 21
538.2448630136989
 31
0.0
  0
SOLID
  5
165
330
161
100
AcDbEntity
  8
1
 62
     2
100
AcDbTrace
 10
256.2559931506903
 20
545.5487817214784
 30
0.0
 11
256.2559931506903
 21
540.9409443059195
 31
0.0
 12
238.7559931506903
 22
543.2448630136989
 32
0.0
 13
238.7559931506903
 23
543.2448630136989
 33
0.0
  0
SOLID
  5
166
330
161
100
AcDbEntity
  8
1
 62
     2
100
AcDbTrace
 10
451.2559931506903
 20
540.9409443059195
 30
0.0
 11
451.2559931506903
 21
545.5487817214784
 31
0.0
 12
468.7559931506903
 22
543.2448630136989
 32
0.0
 13
468.7559931506903
 23
543.2448630136989
 33
0.0
  0
MTEXT
  5
167
330
161
100
AcDbEntity
  8
1
 62
     7
100
AcDbMText
 10
254.0059931506903
 20
548.2448630136989
 30
0.0
 40
17.5
 41
0.0
 71
     7
 72
     1
  1
天板穴径最大寸法{\Fgdt;n}230
  7
CONVERTER_1
 11
0.9999999999970621
 21
2.424068405545307E-6
 31
0.0
 73
     1
 44
0.60024009603842
  0
ENDBLK
  5
169
330
161
100
AcDbEntity
  8
0
100
AcDbBlockEnd
  0
BLOCK
  5
173
330
16C
100
AcDbEntity
  8
0
100
AcDbBlockBegin
  2
*D15
 70
     1
 71
     0
 10
0.0
 20
0.0
 30
0.0
  3
*D15
  1

  0
LINE
  5
16D
330
16C
100
AcDbEntity
  8
1
  6
Continuous
 62
     2
100
AcDbLine
 10
758.2559931506903
 20
716.8189209389342
 30
0.0
 11
823.2559931506903
 21
716.8189209389342
 31
0.0
  0
LINE
  5
16E
330
16C
100
AcDbEntity
  8
1
  6
Continuous
 62
     2
100
AcDbLine
 10
823.2559931506903
 20
653.2448630136988
 30
0.0
 11
823.2559931506903
 21
721.8189209389342
 31
0.0
  0
LINE
  5
16F
330
16C
100
AcDbEntity
  8
1
  6
Continuous
 62
     2
100
AcDbLine
 10
758.2559931506903
 20
653.2448630136988
 30
0.0
 11
758.2559931506903
 21
721.8189209389342
 31
0.0
  0
SOLID
  5
170
330
16C
100
AcDbEntity
  8
1
 62
     2
100
AcDbTrace
 10
775.7559931506903
 20
719.1228396467136
 30
0.0
 11
775.7559931506903
 21
714.5150022311548
 31
0.0
 12
758.2559931506903
 22
716.8189209389342
 32
0.0
 13
758.2559931506903
 23
716.8189209389342
 33
0.0
  0
SOLID
  5
171
330
16C
100
AcDbEntity
  8
1
 62
     2
100
AcDbTrace
 10
805.7559931506903
 20
714.5150022311548
 30
0.0
 11
805.7559931506903
 21
719.1228396467136
 31
0.0
 12
823.2559931506903
 22
716.8189209389342
 32
0.0
 13
823.2559931506903
 23
716.8189209389342
 33
0.0
  0
MTEXT
  5
172
330
16C
100
AcDbEntity
  8
1
 62
     7
100
AcDbMText
 10
759.4309931507746
 20
721.818851368171
 30
0.0
 40
17.5
 41
0.0
 71
     7
 72
     1
  1
\C7;{\Fgdt;n}\C7;65
  7
CONVERTER_2
 11
0.9999999999970621
 21
2.424068405545307E-6
 31
0.0
 73
     1
 44
0.60024009603842
  0
ENDBLK
  5
174
330
16C
100
AcDbEntity
  8
0
100
AcDbBlockEnd
  0
BLOCK
  5
180
330
177
100
AcDbEntity
  8
0
100
AcDbBlockBegin
  2
*D26
 70
     1
 71
     0
 10
0.0
 20
0.0
 30
0.0
  3
*D26
  1

  0
LINE
  5
178
330
177
100
AcDbEntity
  8
1
  6
Continuous
 62
     2
100
AcDbLine
 10
735.2559931506903
 20
685.085609784973
 30
0.0
 11
770.2559931506903
 21
685.085609784973
 31
0.0
  0
LINE
  5
179
330
177
100
AcDbEntity
  8
1
  6
Continuous
 62
     2
100
AcDbLine
 10
770.2559931506903
 20
685.085609784973
 30
0.0
 11
811.2559931506903
 21
685.085609784973
 31
0.0
  0
LINE
  5
17A
330
177
100
AcDbEntity
  8
1
  6
Continuous
 62
     2
100
AcDbLine
 10
811.2559931506903
 20
685.085609784973
 30
0.0
 11
846.2559931506903
 21
685.085609784973
 31
0.0
  0
LINE
  5
17B
330
177
100
AcDbEntity
  8
1
  6
Continuous
 62
     2
100
AcDbLine
 10
811.2559931506903
 20
644.2448630136988
 30
0.0
 11
811.2559931506903
 21
690.085609784973
 31
0.0
  0
LINE
  5
17C
330
177
100
AcDbEntity
  8
1
  6
Continuous
 62
     2
100
AcDbLine
 10
770.2559931506903
 20
644.2448630136988
 30
0.0
 11
770.2559931506903
 21
690.085609784973
 31
0.0
  0
SOLID
  5
17D
330
177
100
AcDbEntity
  8
1
 62
     2
100
AcDbTrace
 10
752.7559931506903
 20
682.7816910771936
 30
0.0
 11
752.7559931506903
 21
687.3895284927525
 31
0.0
 12
770.2559931506903
 22
685.085609784973
 32
0.0
 13
770.2559931506903
 23
685.085609784973
 33
0.0
  0
SOLID
  5
17E
330
177
100
AcDbEntity
  8
1
 62
     2
100
AcDbTrace
 10
828.7559931506903
 20
687.3895284927525
 30
0.0
 11
828.7559931506903
 21
682.7816910771936
 31
0.0
 12
811.2559931506903
 22
685.085609784973
 32
0.0
 13
811.2559931506903
 23
685.085609784973
 33
0.0
  0
MTEXT
  5
17F
330
177
100
AcDbEntity
  8
1
 62
     7
100
AcDbMText
 10
762.0559931507746
 20
690.0855402142098
 30
0.0
 40
17.5
 41
0.0
 71
     7
 72
     1
  1
\C7;{\Fgdt;n}\C7;41
  7
CONVERTER_2
 11
0.9999999999970621
 21
2.424068405545307E-6
 31
0.0
 73
     1
 44
0.60024009603842
  0
ENDBLK
  5
181
330
177
100
AcDbEntity
  8
0
100
AcDbBlockEnd
  0
BLOCK
  5
18D
330
184
100
AcDbEntity
  8
0
100
AcDbBlockBegin
  2
*D37
 70
     1
 71
     0
 10
0.0
 20
0.0
 30
0.0
  3
*D37
  1

  0
LINE
  5
185
330
184
100
AcDbEntity
  8
1
  6
Continuous
 62
     2
100
AcDbLine
 10
735.7559931506903
 20
602.306619783421
 30
0.0
 11
770.7559931506903
 21
602.306619783421
 31
0.0
  0
LINE
  5
186
330
184
100
AcDbEntity
  8
1
  6
Continuous
 62
     2
100
AcDbLine
 10
770.7559931506903
 20
602.306619783421
 30
0.0
 11
810.7559931506903
 21
602.306619783421
 31
0.0
  0
LINE
  5
187
330
184
100
AcDbEntity
  8
1
  6
Continuous
 62
     2
100
AcDbLine
 10
810.7559931506903
 20
602.306619783421
 30
0.0
 11
865.3086723992431
 21
602.306619783421
 31
0.0
  0
LINE
  5
188
330
184
100
AcDbEntity
  8
1
  6
Continuous
 62
     2
100
AcDbLine
 10
810.7559931506903
 20
635.2448630136988
 30
0.0
 11
810.7559931506903
 21
597.306619783421
 31
0.0
  0
LINE
  5
189
330
184
100
AcDbEntity
  8
1
  6
Continuous
 62
     2
100
AcDbLine
 10
770.7559931506903
 20
635.2448630136988
 30
0.0
 11
770.7559931506903
 21
597.306619783421
 31
0.0
  0
SOLID
  5
18A
330
184
100
AcDbEntity
  8
1
 62
     2
100
AcDbTrace
 10
753.2559931506903
 20
600.0027010756415
 30
0.0
 11
753.2559931506903
 21
604.6105384912004
 31
0.0
 12
770.7559931506903
 22
602.306619783421
 32
0.0
 13
770.7559931506903
 23
602.306619783421
 33
0.0
  0
SOLID
  5
18B
330
184
100
AcDbEntity
  8
1
 62
     2
100
AcDbTrace
 10
828.2559931506903
 20
604.6105384912004
 30
0.0
 11
828.2559931506903
 21
600.0027010756415
 31
0.0
 12
810.7559931506903
 22
602.306619783421
 32
0.0
 13
810.7559931506903
 23
602.306619783421
 33
0.0
  0
MTEXT
  5
18C
330
184
100
AcDbEntity
  8
1
 62
     7
100
AcDbMText
 10
810.3586723993274
 20
607.3065502126577
 30
0.0
 40
17.5
 41
0.0
 71
     7
 72
     1
  1
\C7;{\Fgdt;n}\C7;40
  7
CONVERTER_2
 11
0.9999999999970621
 21
2.424068405545307E-6
 31
0.0
 73
     1
 44
0.60024009603842
  0
ENDBLK
  5
18E
330
184
100
AcDbEntity
  8
0
100
AcDbBlockEnd
  0
BLOCK
  5
198
330
191
100
AcDbEntity
  8
0
100
AcDbBlockBegin
  2
*D48
 70
     1
 71
     0
 10
0.0
 20
0.0
 30
0.0
  3
*D48
  1

  0
LINE
  5
192
330
191
100
AcDbEntity
  8
1
  6
Continuous
 62
     2
100
AcDbLine
 10
576.548568932831
 20
698.2448630136991
 30
0.0
 11
576.548568932831
 21
633.2448630136988
 31
0.0
  0
LINE
  5
193
330
191
100
AcDbEntity
  8
1
  6
Continuous
 62
     2
100
AcDbLine
 10
524.7559931506903
 20
698.2448630136991
 30
0.0
 11
581.548568932831
 21
698.2448630136991
 31
0.0
  0
LINE
  5
194
330
191
100
AcDbEntity
  8
1
  6
Continuous
 62
     2
100
AcDbLine
 10
414.7559931506903
 20
633.2448630136988
 30
0.0
 11
581.548568932831
 21
633.2448630136988
 31
0.0
  0
SOLID
  5
195
330
191
100
AcDbEntity
  8
1
 62
     2
100
AcDbTrace
 10
578.8524876406104
 20
680.7448630136991
 30
0.0
 11
574.2446502250516
 21
680.7448630136991
 31
0.0
 12
576.548568932831
 22
698.2448630136991
 32
0.0
 13
576.548568932831
 23
698.2448630136991
 33
0.0
  0
SOLID
  5
196
330
191
100
AcDbEntity
  8
1
 62
     2
100
AcDbTrace
 10
574.2446502250516
 20
650.7448630136988
 30
0.0
 11
578.8524876406104
 21
650.7448630136988
 31
0.0
 12
576.548568932831
 22
633.2448630136988
 32
0.0
 13
576.548568932831
 23
633.2448630136988
 33
0.0
  0
MTEXT
  5
197
330
191
100
AcDbEntity
  8
1
 62
     7
100
AcDbMText
 10
571.548568932831
 20
652.6198630136989
 30
0.0
 40
17.5
 41
0.0
 71
     7
 72
     1
  1
65
  7
CONVERTER_2
 11
0.0
 21
1.0
 31
0.0
 73
     1
 44
0.60024009603842
  0
ENDBLK
  5
199
330
191
100
AcDbEntity
  8
0
100
AcDbBlockEnd
  0
BLOCK
  5
1A3
330
19C
100
AcDbEntity
  8
0
100
AcDbBlockBegin
  2
*D59
 70
     1
 71
     0
 10
0.0
 20
0.0
 30
0.0
  3
*D59
  1

  0
LINE
  5
19D
330
19C
100
AcDbEntity
  8
1
  6
Continuous
 62
     2
100
AcDbLine
 10
615.794235675916
 20
743.2448630136988
 30
0.0
 11
615.794235675916
 21
633.2448630136988
 31
0.0
  0
LINE
  5
19E
330
19C
100
AcDbEntity
  8
1
  6
Continuous
 62
     2
100
AcDbLine
 10
494.7559931506902
 20
743.2448630136988
 30
0.0
 11
620.794235675916
 21
743.2448630136988
 31
0.0
  0
LINE
  5
19F
330
19C
100
AcDbEntity
  8
1
  6
Continuous
 62
     2
100
AcDbLine
 10
415.7559931506902
 20
633.2448630136988
 30
0.0
 11
620.794235675916
 21
633.2448630136988
 31
0.0
  0
SOLID
  5
1A0
330
19C
100
AcDbEntity
  8
1
 62
     2
100
AcDbTrace
 10
618.0981543836954
 20
725.7448630136988
 30
0.0
 11
613.4903169681365
 21
725.7448630136988
 31
0.0
 12
615.794235675916
 22
743.2448630136988
 32
0.0
 13
615.794235675916
 23
743.2448630136988
 33
0.0
  0
SOLID
  5
1A1
330
19C
100
AcDbEntity
  8
1
 62
     2
100
AcDbTrace
 10
613.4903169681365
 20
650.7448630136988
 30
0.0
 11
618.0981543836954
 21
650.7448630136988
 31
0.0
 12
615.794235675916
 22
633.2448630136988
 32
0.0
 13
615.794235675916
 23
633.2448630136988
 33
0.0
  0
MTEXT
  5
1A2
330
19C
100
AcDbEntity
  8
1
 62
     7
100
AcDbMText
 10
610.794235675916
 20
672.4948630136988
 30
0.0
 40
17.5
 41
0.0
 71
     7
 72
     1
  1
110
  7
CONVERTER_2
 11
0.0
 21
1.0
 31
0.0
 73
     1
 44
0.60024009603842
  0
ENDBLK
  5
1A4
330
19C
100
AcDbEntity
  8
0
100
AcDbBlockEnd
  0
BLOCK
  5
1B0
330
1A7
100
AcDbEntity
  8
0
100
AcDbBlockBegin
  2
*D610
 70
     1
 71
     0
 10
0.0
 20
0.0
 30
0.0
  3
*D610
  1

  0
LINE
  5
1A8
330
1A7
100
AcDbEntity
  8
1
  6
Continuous
 62
     2
100
AcDbLine
 10
539.595463289191
 20
646.2448630136988
 30
0.0
 11
539.595463289191
 21
681.2448630136988
 31
0.0
  0
LINE
  5
1A9
330
1A7
100
AcDbEntity
  8
1
  6
Continuous
 62
     2
100
AcDbLine
 10
539.595463289191
 20
633.2448630136988
 30
0.0
 11
539.595463289191
 21
646.2448630136988
 31
0.0
  0
LINE
  5
1AA
330
1A7
100
AcDbEntity
  8
1
  6
Continuous
 62
     2
100
AcDbLine
 10
539.595463289191
 20
578.8064113340161
 30
0.0
 11
539.595463289191
 21
633.2448630136988
 31
0.0
  0
LINE
  5
1AB
330
1A7
100
AcDbEntity
  8
1
  6
Continuous
 62
     2
100
AcDbLine
 10
415.7559931506903
 20
633.2448630136988
 30
0.0
 11
544.595463289191
 21
633.2448630136988
 31
0.0
  0
LINE
  5
1AC
330
1A7
100
AcDbEntity
  8
1
  6
Continuous
 62
     2
100
AcDbLine
 10
415.7559931506903
 20
646.2448630136988
 30
0.0
 11
544.595463289191
 21
646.2448630136988
 31
0.0
  0
SOLID
  5
1AD
330
1A7
100
AcDbEntity
  8
1
 62
     2
100
AcDbTrace
 10
541.8993819969704
 20
615.7448630136988
 30
0.0
 11
537.2915445814116
 21
615.7448630136988
 31
0.0
 12
539.595463289191
 22
633.2448630136988
 32
0.0
 13
539.595463289191
 23
633.2448630136988
 33
0.0
  0
SOLID
  5
1AE
330
1A7
100
AcDbEntity
  8
1
 62
     2
100
AcDbTrace
 10
537.2915445814116
 20
663.7448630136988
 30
0.0
 11
541.8993819969704
 21
663.7448630136988
 31
0.0
 12
539.595463289191
 22
646.2448630136988
 32
0.0
 13
539.595463289191
 23
646.2448630136988
 33
0.0
  0
MTEXT
  5
1AF
330
1A7
100
AcDbEntity
  8
1
 62
     7
100
AcDbMText
 10
534.595463289191
 20
578.8064113340161
 30
0.0
 40
17.5
 41
0.0
 71
     7
 72
     1
  1
13
  7
CONVERTER_2
 11
0.0
 21
1.0
 31
0.0
 73
     1
 44
0.60024009603842
  0
ENDBLK
  5
1B1
330
1A7
100
AcDbEntity
  8
0
100
AcDbBlockEnd
  0
BLOCK
  5
1BB
330
1B4
100
AcDbEntity
  8
0
100
AcDbBlockBegin
  2
*D711
 70
     1
 71
     0
 10
0.0
 20
0.0
 30
0.0
  3
*D711
  1

  0
LINE
  5
1B5
330
1B4
100
AcDbEntity
  8
1
  6
Continuous
 62
     2
100
AcDbLine
 10
291.7559931506903
 20
583.2448630136989
 30
0.0
 11
415.7559931506903
 21
583.2448630136989
 31
0.0
  0
LINE
  5
1B6
330
1B4
100
AcDbEntity
  8
1
  6
Continuous
 62
     2
100
AcDbLine
 10
415.7559931506903
 20
633.2448630136988
 30
0.0
 11
415.7559931506903
 21
578.2448630136989
 31
0.0
  0
LINE
  5
1B7
330
1B4
100
AcDbEntity
  8
1
  6
Continuous
 62
     2
100
AcDbLine
 10
291.7559931506903
 20
633.2448630136988
 30
0.0
 11
291.7559931506903
 21
578.2448630136989
 31
0.0
  0
SOLID
  5
1B8
330
1B4
100
AcDbEntity
  8
1
 62
     2
100
AcDbTrace
 10
309.2559931506903
 20
585.5487817214784
 30
0.0
 11
309.2559931506903
 21
580.9409443059195
 31
0.0
 12
291.7559931506903
 22
583.2448630136989
 32
0.0
 13
291.7559931506903
 23
583.2448630136989
 33
0.0
  0
SOLID
  5
1B9
330
1B4
100
AcDbEntity
  8
1
 62
     2
100
AcDbTrace
 10
398.2559931506903
 20
580.9409443059195
 30
0.0
 11
398.2559931506903
 21
585.5487817214784
 31
0.0
 12
415.7559931506903
 22
583.2448630136989
 32
0.0
 13
415.7559931506903
 23
583.2448630136989
 33
0.0
  0
MTEXT
  5
1BA
330
1B4
100
AcDbEntity
  8
1
 62
     7
100
AcDbMText
 10
317.1809931507746
 20
588.2447934429357
 30
0.0
 40
17.5
 41
0.0
 71
     7
 72
     1
  1
\C7;{\Fgdt;n}\C7;124
  7
CONVERTER_2
 11
0.9999999999970621
 21
2.424068405545307E-6
 31
0.0
 73
     1
 44
0.60024009603842
  0
ENDBLK
  5
1BC
330
1B4
100
AcDbEntity
  8
0
100
AcDbBlockEnd
  0
BLOCK
  5
1C4
330
1BF
100
AcDbEntity
  8
0
100
AcDbBlockBegin
  2
*D812
 70
     1
 71
     0
 10
0.0
 20
0.0
 30
0.0
  3
*D812
  1

  0
LINE
  5
1C0
330
1BF
100
AcDbEntity
  8
1
  6
Continuous
 62
     2
100
AcDbLine
 10
235.5254150550546
 20
928.4169357790548
 30
0.0
 11
471.986571246326
 21
1082.072790248343
 31
0.0
  0
SOLID
  5
1C1
330
1BF
100
AcDbEntity
  8
1
 62
     2
100
AcDbTrace
 10
458.5679200559871
 20
1070.60553941634
 30
0.0
 11
456.057206597323
 21
1074.469279000824
 31
0.0
 12
471.986571246326
 22
1082.072790248343
 32
0.0
 13
471.986571246326
 23
1082.072790248343
 33
0.0
  0
SOLID
  5
1C2
330
1BF
100
AcDbEntity
  8
1
 62
     2
100
AcDbTrace
 10
248.9440662453937
 20
939.8841866110575
 30
0.0
 11
251.4547797040577
 21
936.0204470265737
 31
0.0
 12
235.5254150550546
 22
928.4169357790548
 32
0.0
 13
235.5254150550546
 23
928.4169357790548
 33
0.0
  0
MTEXT
  5
1C3
330
1BF
100
AcDbEntity
  8
1
 62
     7
100
AcDbMText
 10
395.2178353451498
 20
1038.150287801382
 30
0.0
 40
17.5
 41
0.0
 71
     7
 72
     1
  1
\C7;{\Fgdt;n}\C7;282
  7
CONVERTER_2
 11
0.83851473826692
 21
0.5448789165577606
 31
0.0
 73
     1
 44
0.60024009603842
  0
ENDBLK
  5
1C5
330
1BF
100
AcDbEntity
  8
0
100
AcDbBlockEnd
  0
ENDSEC
  0
SECTION
  2
ENTITIES
  0
INSERT
  5
3F
330
1F
100
AcDbEntity
  8
1
100
AcDbBlockReference
  2
_J_E______
 10
-997.4375
 20
641.8410227543775
 30
0.0
  0
INSERT
  5
40
330
1F
100
AcDbEntity
  8
1
100
AcDbBlockReference
  2
HW1021-1-__F_
 10
-965.9375000000001
 20
496.8921232876713
 30
0.0
  0
INSERT
  5
41
330
1F
100
AcDbEntity
  8
1
100
AcDbBlockReference
  2
_J__A4
 10
0.0
 20
0.0
 30
0.0
 41
5.0
 42
5.0
 43
5.0
  0
LINE
  5
144
330
1F
100
AcDbEntity
  8
1
  6
Continuous
 62
     7
100
AcDbLine
 10
719.0000000000003
 20
346.5000000000001
 30
0.0
 11
719.0000000000003
 21
311.5000000000001
 31
0.0
  0
LINE
  5
145
330
1F
100
AcDbEntity
  8
1
  6
Continuous
 62
     7
100
AcDbLine
 10
719.0000000000003
 20
241.5
 30
0.0
 11
759.0000000000003
 21
241.5
 31
0.0
  0
LINE
  5
146
330
1F
100
AcDbEntity
  8
1
  6
Continuous
 62
     7
100
AcDbLine
 10
936.0000000000002
 20
241.5
 30
0.0
 11
936.0000000000003
 21
276.5
 31
0.0
  0
LINE
  5
147
330
1F
100
AcDbEntity
  8
1
  6
Continuous
 62
     7
100
AcDbLine
 10
936.0000000000003
 20
346.5000000000001
 30
0.0
 11
759.0000000000003
 21
346.5000000000001
 31
0.0
  0
LINE
  5
148
330
1F
100
AcDbEntity
  8
1
  6
Continuous
 62
     2
100
AcDbLine
 10
719.0000000000003
 20
311.5000000000001
 30
0.0
 11
936.0000000000003
 21
311.5000000000001
 31
0.0
  0
LINE
  5
149
330
1F
100
AcDbEntity
  8
1
  6
Continuous
 62
     7
100
AcDbLine
 10
719.0000000000003
 20
311.5000000000001
 30
0.0
 11
719.0000000000003
 21
276.5
 31
0.0
  0
LINE
  5
14A
330
1F
100
AcDbEntity
  8
1
  6
Continuous
 62
     7
100
AcDbLine
 10
936.0000000000003
 20
311.5000000000001
 30
0.0
 11
936.0000000000003
 21
346.5000000000001
 31
0.0
  0
LINE
  5
14B
330
1F
100
AcDbEntity
  8
1
  6
Continuous
 62
     2
100
AcDbLine
 10
719.0000000000003
 20
276.5
 30
0.0
 11
936.0000000000003
 21
276.5
 31
0.0
  0
LINE
  5
14C
330
1F
100
AcDbEntity
  8
1
  6
Continuous
 62
     7
100
AcDbLine
 10
936.0000000000003
 20
276.5
 30
0.0
 11
936.0000000000003
 21
311.5000000000001
 31
0.0
  0
LINE
  5
14D
330
1F
100
AcDbEntity
  8
1
  6
Continuous
 62
     7
100
AcDbLine
 10
719.0000000000003
 20
276.5
 30
0.0
 11
719.0000000000003
 21
241.5
 31
0.0
  0
LINE
  5
14E
330
1F
100
AcDbEntity
  8
1
  6
Continuous
 62
     2
100
AcDbLine
 10
759.0000000000003
 20
346.5000000000001
 30
0.0
 11
759.0000000000003
 21
241.5
 31
0.0
  0
LINE
  5
14F
330
1F
100
AcDbEntity
  8
1
  6
Continuous
 62
     7
100
AcDbLine
 10
759.0000000000003
 20
241.5
 30
0.0
 11
936.0000000000002
 21
241.5
 31
0.0
  0
LINE
  5
150
330
1F
100
AcDbEntity
  8
1
  6
Continuous
 62
     7
100
AcDbLine
 10
759.0000000000003
 20
346.5000000000001
 30
0.0
 11
719.0000000000003
 21
346.5000000000001
 31
0.0
  0
LINE
  5
151
330
1F
100
AcDbEntity
  8
1
  6
DASH_CENTER
 62
     2
100
AcDbLine
 10
197.7559931506903
 20
1005.244863013699
 30
0.0
 11
371.2559931506903
 21
1005.244863013699
 31
0.0
  0
LINE
  5
152
330
1F
100
AcDbEntity
  8
1
  6
DASH_CENTER
 62
     2
100
AcDbLine
 10
353.7559931506903
 20
1161.244863013699
 30
0.0
 11
353.7559931506903
 21
849.2448630136987
 31
0.0
  0
LINE
  5
153
330
1F
100
AcDbEntity
  8
1
  6
DASH_CENTER
 62
     2
100
AcDbLine
 10
353.7559931506903
 20
758.2448630136988
 30
0.0
 11
353.7559931506903
 21
620.2448630136988
 31
0.0
  0
LINE
  5
154
330
1F
100
AcDbEntity
  8
1
  6
DASH_CENTER
 62
     2
100
AcDbLine
 10
790.7559931506903
 20
758.2448630136988
 30
0.0
 11
790.7559931506903
 21
620.2448630136988
 31
0.0
  0
LINE
  5
155
330
1F
100
AcDbEntity
  8
1
  6
DASH_CENTER
 62
     2
100
AcDbLine
 10
371.2559931506903
 20
1005.244863013699
 30
0.0
 11
509.7559931506903
 21
1005.244863013699
 31
0.0
  0
MTEXT
  5
157
330
1F
100
AcDbEntity
  8
1
 62
     7
100
AcDbMText
 10
426.25
 20
85.0
 30
0.0
 40
17.5
 41
0.0
 71
     5
 72
     1
  1
1
  7
CONVERTER_2
 73
     1
 44
0.7202881152461
  0
MTEXT
  5
158
330
1F
100
AcDbEntity
  8
1
 62
     7
100
AcDbMText
 10
468.75
 20
85.0
 30
0.0
 40
17.5
 41
0.0
 71
     5
 72
     1
  1
5
  7
CONVERTER_2
 73
     1
 44
0.7202881152461
  0
MTEXT
  5
159
330
1F
100
AcDbEntity
  8
1
 62
     7
100
AcDbMText
 10
285.0
 20
71.25
 30
0.0
 40
17.5
 41
0.0
 71
     5
 72
     1
  1
HW1021-色
  7
CONVERTER_1
 73
     1
 44
0.7202881152461
  0
MTEXT
  5
15A
330
1F
100
AcDbEntity
  8
1
 62
     7
100
AcDbMText
 10
285.0
 20
113.7500000000001
 30
0.0
 40
17.5
 41
0.0
 71
     5
 72
     1
  1
手洗器
  7
CONVERTER_1
 73
     1
 44
0.7202881152461
  0
MTEXT
  5
15B
330
1F
100
AcDbEntity
  8
1
 62
     7
100
AcDbMText
 10
847.5000000000003
 20
329.0000000000001
 30
0.0
 40
17.5
 41
0.0
 71
     5
 72
     1
  1
品番
  7
CONVERTER_1
 73
     1
 44
0.7202881152461
  0
MTEXT
  5
15C
330
1F
100
AcDbEntity
  8
1
 62
     7
100
AcDbMText
 10
847.5000000000005
 20
294.0000000000001
 30
0.0
 40
17.5
 41
0.0
 71
     5
 72
     1
  1
HW1021-W
  7
CONVERTER_2
 73
     1
 44
0.7202881152461
  0
MTEXT
  5
15D
330
1F
100
AcDbEntity
  8
1
 62
     7
100
AcDbMText
 10
847.5000000000005
 20
259.0
 30
0.0
 40
17.5
 41
0.0
 71
     5
 72
     1
  1
HW1021-D
  7
CONVERTER_2
 73
     1
 44
0.7202881152461
  0
MTEXT
  5
15E
330
1F
100
AcDbEntity
  8
1
 62
     7
100
AcDbMText
 10
739.0000000000003
 20
329.0000000000001
 30
0.0
 40
17.5
 41
0.0
 71
     5
 72
     1
  1
色
  7
CONVERTER_1
 73
     1
 44
0.7202881152461
  0
MTEXT
  5
15F
330
1F
100
AcDbEntity
  8
1
 62
     7
100
AcDbMText
 10
739.0000000000003
 20
294.0000000000001
 30
0.0
 40
17.5
 41
0.0
 71
     5
 72
     1
  1
白
  7
CONVERTER_1
 73
     1
 44
0.7202881152461
  0
MTEXT
  5
160
330
1F
100
AcDbEntity
  8
1
 62
     7
100
AcDbMText
 10
739.0000000000003
 20
259.0
 30
0.0
 40
17.5
 41
0.0
 71
     5
 72
     1
  1
黒
  7
CONVERTER_1
 73
     1
 44
0.7202881152461
  0
DIMENSION
  5
16B
330
1F
100
AcDbEntity
  8
1
100
AcDbDimension
  2
*D04
 10
238.7559931506903
 20
543.2448630136989
 30
0.0
 11
353.7559931506903
 21
556.9948630136989
 31
0.0
 70
     1
  1
天板穴径最大寸法^N1^O230
 71
     5
 42
0.0
 53
0.00013888888889
  3
ME10_DIM_0
100
AcDbAlignedDimension
 13
468.7559931506903
 23
683.2448630136991
 33
0.0
 14
238.7559931506903
 24
683.2448630136991
 34
0.0
  0
DIMENSION
  5
176
330
1F
100
AcDbEntity
  8
1
100
AcDbDimension
  2
*D15
 10
758.2559931506903
 20
716.8189209389342
 30
0.0
 11
790.7559931506903
 21
730.5689209389342
 31
0.0
  1
<>
 71
     5
 42
0.0
 53
0.00013888888889
  3
ME10_DIM_1
100
AcDbAlignedDimension
 13
823.2559931506904
 23
653.2448630136989
 33
0.0
 14
758.2559931506903
 24
653.2448630136989
 34
0.0
100
AcDbRotatedDimension
  0
DIMENSION
  5
183
330
1F
100
AcDbEntity
  8
1
100
AcDbDimension
  2
*D26
 10
770.2559931506903
 20
685.085609784973
 30
0.0
 11
790.7559931506903
 21
698.835609784973
 31
0.0
  1
<>
 71
     5
 42
0.0
 53
0.00013888888889
  3
ME10_DIM_2
100
AcDbAlignedDimension
 13
811.2559931506904
 23
644.2448630136988
 33
0.0
 14
770.2559931506903
 24
644.2448630136988
 34
0.0
100
AcDbRotatedDimension
  0
DIMENSION
  5
190
330
1F
100
AcDbEntity
  8
1
100
AcDbDimension
  2
*D37
 10
770.7559931506903
 20
602.306619783421
 30
0.0
 11
841.6836723992431
 21
616.056619783421
 31
0.0
  1
<>
 71
     5
 42
0.0
 53
0.00013888888889
  3
ME10_DIM_3
100
AcDbAlignedDimension
 13
810.7559931506904
 23
635.2448630136988
 33
0.0
 14
770.7559931506904
 24
635.2448630136988
 34
0.0
100
AcDbRotatedDimension
  0
DIMENSION
  5
19B
330
1F
100
AcDbEntity
  8
1
100
AcDbDimension
  2
*D48
 10
576.548568932831
 20
698.2448630136991
 30
0.0
 11
562.798568932831
 21
665.7448630136989
 31
0.0
  1
<>
 71
     5
 42
0.0
 53
90.0
  3
ME10_DIM_4
100
AcDbAlignedDimension
 13
414.7559931506903
 23
633.2448630136989
 33
0.0
 14
524.7559931506903
 24
698.2448630136991
 34
0.0
 50
90.0
100
AcDbRotatedDimension
  0
DIMENSION
  5
1A6
330
1F
100
AcDbEntity
  8
1
100
AcDbDimension
  2
*D59
 10
615.794235675916
 20
743.2448630136988
 30
0.0
 11
602.044235675916
 21
688.2448630136988
 31
0.0
  1
<>
 71
     5
 42
0.0
 53
90.0
  3
ME10_DIM_5
100
AcDbAlignedDimension
 13
415.7559931506904
 23
633.2448630136989
 33
0.0
 14
494.7559931506903
 24
743.2448630136989
 34
0.0
 50
90.0
100
AcDbRotatedDimension
  0
DIMENSION
  5
1B3
330
1F
100
AcDbEntity
  8
1
100
AcDbDimension
  2
*D610
 10
539.595463289191
 20
633.2448630136988
 30
0.0
 11
525.845463289191
 21
589.3064113340161
 31
0.0
  1
<>
 71
     5
 42
0.0
 53
90.0
  3
ME10_DIM_6
100
AcDbAlignedDimension
 13
415.7559931506904
 23
646.2448630136988
 33
0.0
 14
415.7559931506904
 24
633.2448630136989
 34
0.0
 50
90.0
100
AcDbRotatedDimension
  0
DIMENSION
  5
1BE
330
1F
100
AcDbEntity
  8
1
100
AcDbDimension
  2
*D711
 10
291.7559931506903
 20
583.2448630136989
 30
0.0
 11
353.7559931506903
 21
596.9948630136989
 31
0.0
 70
     1
  1
<>
 71
     5
 42
0.0
 53
0.00013888888889
  3
ME10_DIM_7
100
AcDbAlignedDimension
 13
415.7559931506904
 23
633.2448630136989
 33
0.0
 14
291.7559931506903
 24
633.2448630136989
 34
0.0
  0
INSERT
  5
1C6
330
1F
100
AcDbEntity
  8
1
100
AcDbBlockReference
  2
*D812
 10
0.0
 20
0.0
 30
0.0
  0
ENDSEC
  0
SECTION
  2
OBJECTS
  0
DICTIONARY
  5
C
330
0
100
AcDbDictionary
281
     1
  3
ACAD_GROUP
350
D
  3
ACAD_LAYOUT
350
1A
  3
ACAD_MLINESTYLE
350
17
  3
ACAD_PLOTSETTINGS
350
19
  3
ACAD_PLOTSTYLENAME
350
E
  3
ACAD_TABLESTYLE
350
2A
  3
AcDbVariableDictionary
350
2C
  0
DICTIONARY
  5
D
102
{ACAD_REACTORS
330
C
102
}
330
C
100
AcDbDictionary
281
     1
  0
DICTIONARY
  5
1A
102
{ACAD_REACTORS
330
C
102
}
330
C
100
AcDbDictionary
281
     1
  3
Layout1
350
1E
  3
Layout2
350
26
  3
Model
350
22
  0
DICTIONARY
  5
17
102
{ACAD_REACTORS
330
C
102
}
330
C
100
AcDbDictionary
281
     1
  3
Standard
350
18
  0
DICTIONARY
  5
19
102
{ACAD_REACTORS
330
C
102
}
330
C
100
AcDbDictionary
281
     1
  0
ACDBDICTIONARYWDFLT
  5
E
102
{ACAD_REACTORS
330
C
102
}
330
C
100
AcDbDictionary
281
     1
  3
Normal
350
F
100
AcDbDictionaryWithDefault
340
F
  0
DICTIONARY
  5
2A
102
{ACAD_REACTORS
330
C
102
}
330
C
100
AcDbDictionary
281
     1
  3
Standard
350
2B
  0
DICTIONARY
  5
2C
102
{ACAD_REACTORS
330
C
102
}
330
C
100
AcDbDictionary
281
     1
  3
CTABLESTYLE
350
2D
  0
LAYOUT
  5
1E
102
{ACAD_REACTORS
330
1A
102
}
330
1A
100
AcDbPlotSettings
  1

  2

  4

  6

 40
0.0
 41
0.0
 42
0.0
 43
0.0
 44
0.0
 45
0.0
 46
0.0
 47
0.0
 48
0.0
 49
0.0
140
0.0
141
0.0
142
1.0
143
1.0
 70
   688
 72
     0
 73
     0
 74
     5
  7

 75
    16
147
1.0
148
0.0
149
0.0
100
AcDbLayout
  1
Layout1
 70
     1
 71
     1
 10
0.0
 20
0.0
 11
12.0
 21
9.0
 12
0.0
 22
0.0
 32
0.0
 14
1.00000000000000E+20
 24
1.00000000000000E+20
 34
1.00000000000000E+20
 15
-1.00000000000000E+20
 25
-1.00000000000000E+20
 35
-1.00000000000000E+20
146
0.0
 13
0.0
 23
0.0
 33
0.0
 16
1.0
 26
0.0
 36
0.0
 17
0.0
 27
1.0
 37
0.0
 76
     0
330
1B
  0
LAYOUT
  5
26
102
{ACAD_REACTORS
330
1A
102
}
330
1A
100
AcDbPlotSettings
  1

  2

  4

  6

 40
0.0
 41
0.0
 42
0.0
 43
0.0
 44
0.0
 45
0.0
 46
0.0
 47
0.0
 48
0.0
 49
0.0
140
0.0
141
0.0
142
1.0
143
1.0
 70
   688
 72
     0
 73
     0
 74
     5
  7

 75
    16
147
1.0
148
0.0
149
0.0
100
AcDbLayout
  1
Layout2
 70
     1
 71
     2
 10
0.0
 20
0.0
 11
0.0
 21
0.0
 12
0.0
 22
0.0
 32
0.0
 14
0.0
 24
0.0
 34
0.0
 15
0.0
 25
0.0
 35
0.0
146
0.0
 13
0.0
 23
0.0
 33
0.0
 16
1.0
 26
0.0
 36
0.0
 17
0.0
 27
1.0
 37
0.0
 76
     0
330
23
  0
LAYOUT
  5
22
102
{ACAD_REACTORS
330
1A
102
}
330
1A
100
AcDbPlotSettings
  1

  2

  4

  6

 40
0.0
 41
0.0
 42
0.0
 43
0.0
 44
0.0
 45
0.0
 46
0.0
 47
0.0
 48
0.0
 49
0.0
140
0.0
141
0.0
142
1.0
143
1.0
 70
  1712
 72
     0
 73
     0
 74
     0
  7

 75
     0
147
1.0
148
0.0
149
0.0
100
AcDbLayout
  1
Model
 70
     1
 71
     0
 10
0.0
 20
0.0
 11
0.0
 21
0.0
 12
0.0
 22
0.0
 32
0.0
 14
0.0
 24
0.0
 34
0.0
 15
1050.0
 25
1485.0
 35
0.0
146
0.0
 13
0.0
 23
0.0
 33
0.0
 16
1.0
 26
0.0
 36
0.0
 17
0.0
 27
1.0
 37
0.0
 76
     0
330
1F
  0
MLINESTYLE
  5
18
102
{ACAD_REACTORS
330
17
102
}
330
17
100
AcDbMlineStyle
  2
Standard
 70
     0
  3

 62
   256
 51
90.0
 52
90.0
 71
     2
 49
0.5
 62
   256
  6
BYLAYER
 49
-0.5
 62
   256
  6
BYLAYER
  0
ACDBPLACEHOLDER
  5
F
102
{ACAD_REACTORS
330
E
102
}
330
E
  0
TABLESTYLE
  5
2B
102
{ACAD_REACTORS
330
2A
102
}
330
2A
100
AcDbTableStyle
  3
Standard
 70
     0
 71
     0
 40
0.06
 41
0.06
280
     0
281
     0
  7
Standard
140
0.18
170
     2
 62
     0
 63
     7
283
     0
274
    -2
284
     1
 64
     0
275
    -2
285
     1
 65
     0
276
    -2
286
     1
 66
     0
277
    -2
287
     1
 67
     0
278
    -2
288
     1
 68
     0
279
    -2
289
     1
 69
     0
  7
Standard
140
0.25
170
     5
 62
     0
 63
     7
283
     0
274
    -2
284
     1
 64
     0
275
    -2
285
     1
 65
     0
276
    -2
286
     1
 66
     0
277
    -2
287
     1
 67
     0
278
    -2
288
     1
 68
     0
279
    -2
289
     1
 69
     0
  7
Standard
140
0.18
170
     5
 62
     0
 63
     7
283
     0
274
    -2
284
     1
 64
     0
275
    -2
285
     1
 65
     0
276
    -2
286
     1
 66
     0
277
    -2
287
     1
 67
     0
278
    -2
288
     1
 68
     0
279
    -2
289
     1
 69
     0
  0
DICTIONARYVAR
  5
2D
102
{ACAD_REACTORS
330
2C
102
}
330
2C
100
DictionaryVariables
280
     0
  1
Standard
  0
ENDSEC
  0
EOF
