  0
SECTION
  2
HEADER
  9
$ACADVER
  1
AC1015
  9
$ACADMAINTVER
 70
     6
  9
$DWGCODEPAGE
  3
DOS932
  9
$INSBASE
 10
0.0
 20
0.0
 30
0.0
  9
$EXTMIN
 10
0.0
 20
0.0
 30
0.0
  9
$EXTMAX
 10
1050.0
 20
1485.0
 30
0.0
  9
$LIMMIN
 10
0.0
 20
0.0
  9
$LIMMAX
 10
12.0
 20
9.0
  9
$ORTHOMODE
 70
     0
  9
$REGENMODE
 70
     1
  9
$FILLMODE
 70
     1
  9
$QTEXTMODE
 70
     0
  9
$MIRRTEXT
 70
     1
  9
$LTSCALE
 40
1.0
  9
$ATTMODE
 70
     1
  9
$TEXTSIZE
 40
0.2
  9
$TRACEWID
 40
0.05
  9
$TEXTSTYLE
  7
Standard
  9
$CLAYER
  8
0
  9
$CELTYPE
  6
ByLayer
  9
$CECOLOR
 62
   256
  9
$CELTSCALE
 40
1.0
  9
$DISPSILH
 70
     0
  9
$DIMSCALE
 40
1.0
  9
$DIMASZ
 40
0.18
  9
$DIMEXO
 40
0.0625
  9
$DIMDLI
 40
0.38
  9
$DIMRND
 40
0.0
  9
$DIMDLE
 40
0.0
  9
$DIMEXE
 40
0.18
  9
$DIMTP
 40
0.0
  9
$DIMTM
 40
0.0
  9
$DIMTXT
 40
0.18
  9
$DIMCEN
 40
0.09
  9
$DIMTSZ
 40
0.0
  9
$DIMTOL
 70
     0
  9
$DIMLIM
 70
     0
  9
$DIMTIH
 70
     1
  9
$DIMTOH
 70
     1
  9
$DIMSE1
 70
     0
  9
$DIMSE2
 70
     0
  9
$DIMTAD
 70
     0
  9
$DIMZIN
 70
     0
  9
$DIMBLK
  1

  9
$DIMASO
 70
     1
  9
$DIMSHO
 70
     1
  9
$DIMPOST
  1

  9
$DIMAPOST
  1

  9
$DIMALT
 70
     0
  9
$DIMALTD
 70
     2
  9
$DIMALTF
 40
25.4
  9
$DIMLFAC
 40
1.0
  9
$DIMTOFL
 70
     0
  9
$DIMTVP
 40
0.0
  9
$DIMTIX
 70
     0
  9
$DIMSOXD
 70
     0
  9
$DIMSAH
 70
     0
  9
$DIMBLK1
  1

  9
$DIMBLK2
  1

  9
$DIMSTYLE
  2
Standard
  9
$DIMCLRD
 70
     0
  9
$DIMCLRE
 70
     0
  9
$DIMCLRT
 70
     0
  9
$DIMTFAC
 40
1.0
  9
$DIMGAP
 40
0.09
  9
$DIMJUST
 70
     0
  9
$DIMSD1
 70
     0
  9
$DIMSD2
 70
     0
  9
$DIMTOLJ
 70
     1
  9
$DIMTZIN
 70
     0
  9
$DIMALTZ
 70
     0
  9
$DIMALTTZ
 70
     0
  9
$DIMUPT
 70
     0
  9
$DIMDEC
 70
     4
  9
$DIMTDEC
 70
     4
  9
$DIMALTU
 70
     2
  9
$DIMALTTD
 70
     2
  9
$DIMTXSTY
  7
Standard
  9
$DIMAUNIT
 70
     0
  9
$DIMADEC
 70
     0
  9
$DIMALTRND
 40
0.0
  9
$DIMAZIN
 70
     0
  9
$DIMDSEP
 70
    46
  9
$DIMATFIT
 70
     3
  9
$DIMFRAC
 70
     0
  9
$DIMLDRBLK
  1

  9
$DIMLUNIT
 70
     2
  9
$DIMLWD
 70
    -2
  9
$DIMLWE
 70
    -2
  9
$DIMTMOVE
 70
     0
  9
$LUNITS
 70
     2
  9
$LUPREC
 70
     4
  9
$SKETCHINC
 40
0.1
  9
$FILLETRAD
 40
0.5
  9
$AUNITS
 70
     0
  9
$AUPREC
 70
     0
  9
$MENU
  1
.
  9
$ELEVATION
 40
0.0
  9
$PELEVATION
 40
0.0
  9
$THICKNESS
 40
0.0
  9
$LIMCHECK
 70
     0
  9
$CHAMFERA
 40
0.5
  9
$CHAMFERB
 40
0.5
  9
$CHAMFERC
 40
1.0
  9
$CHAMFERD
 40
0.0
  9
$SKPOLY
 70
     0
  9
$TDCREATE
 40
2456142.385809456
  9
$TDUCREATE
 40
2456142.010809456
  9
$TDUPDATE
 40
2456142.385809468
  9
$TDUUPDATE
 40
2456142.010809468
  9
$TDINDWG
 40
0.0000000116
  9
$TDUSRTIMER
 40
0.0000000116
  9
$USRTIMER
 70
     1
  9
$ANGBASE
 50
0.0
  9
$ANGDIR
 70
     0
  9
$PDMODE
 70
     0
  9
$PDSIZE
 40
0.0
  9
$PLINEWID
 40
0.0
  9
$SPLFRAME
 70
     0
  9
$SPLINETYPE
 70
     6
  9
$SPLINESEGS
 70
     8
  9
$HANDSEED
  5
166
  9
$SURFTAB1
 70
     6
  9
$SURFTAB2
 70
     6
  9
$SURFTYPE
 70
     6
  9
$SURFU
 70
     6
  9
$SURFV
 70
     6
  9
$UCSBASE
  2

  9
$UCSNAME
  2

  9
$UCSORG
 10
0.0
 20
0.0
 30
0.0
  9
$UCSXDIR
 10
1.0
 20
0.0
 30
0.0
  9
$UCSYDIR
 10
0.0
 20
1.0
 30
0.0
  9
$UCSORTHOREF
  2

  9
$UCSORTHOVIEW
 70
     0
  9
$UCSORGTOP
 10
0.0
 20
0.0
 30
0.0
  9
$UCSORGBOTTOM
 10
0.0
 20
0.0
 30
0.0
  9
$UCSORGLEFT
 10
0.0
 20
0.0
 30
0.0
  9
$UCSORGRIGHT
 10
0.0
 20
0.0
 30
0.0
  9
$UCSORGFRONT
 10
0.0
 20
0.0
 30
0.0
  9
$UCSORGBACK
 10
0.0
 20
0.0
 30
0.0
  9
$PUCSBASE
  2

  9
$PUCSNAME
  2

  9
$PUCSORG
 10
0.0
 20
0.0
 30
0.0
  9
$PUCSXDIR
 10
1.0
 20
0.0
 30
0.0
  9
$PUCSYDIR
 10
0.0
 20
1.0
 30
0.0
  9
$PUCSORTHOREF
  2

  9
$PUCSORTHOVIEW
 70
     0
  9
$PUCSORGTOP
 10
0.0
 20
0.0
 30
0.0
  9
$PUCSORGBOTTOM
 10
0.0
 20
0.0
 30
0.0
  9
$PUCSORGLEFT
 10
0.0
 20
0.0
 30
0.0
  9
$PUCSORGRIGHT
 10
0.0
 20
0.0
 30
0.0
  9
$PUCSORGFRONT
 10
0.0
 20
0.0
 30
0.0
  9
$PUCSORGBACK
 10
0.0
 20
0.0
 30
0.0
  9
$USERI1
 70
     0
  9
$USERI2
 70
     0
  9
$USERI3
 70
     0
  9
$USERI4
 70
     0
  9
$USERI5
 70
     0
  9
$USERR1
 40
13.2
  9
$USERR2
 40
0.0
  9
$USERR3
 40
0.0
  9
$USERR4
 40
0.0
  9
$USERR5
 40
0.0
  9
$WORLDVIEW
 70
     1
  9
$SHADEDGE
 70
     3
  9
$SHADEDIF
 70
    70
  9
$TILEMODE
 70
     1
  9
$MAXACTVP
 70
    64
  9
$PINSBASE
 10
0.0
 20
0.0
 30
0.0
  9
$PLIMCHECK
 70
     0
  9
$PEXTMIN
 10
1.00000000000000E+20
 20
1.00000000000000E+20
 30
1.00000000000000E+20
  9
$PEXTMAX
 10
-1.00000000000000E+20
 20
-1.00000000000000E+20
 30
-1.00000000000000E+20
  9
$PLIMMIN
 10
0.0
 20
0.0
  9
$PLIMMAX
 10
12.0
 20
9.0
  9
$UNITMODE
 70
     0
  9
$VISRETAIN
 70
     1
  9
$PLINEGEN
 70
     0
  9
$PSLTSCALE
 70
     1
  9
$TREEDEPTH
 70
  3020
  9
$CMLSTYLE
  2
Standard
  9
$CMLJUST
 70
     0
  9
$CMLSCALE
 40
1.0
  9
$PROXYGRAPHICS
 70
     1
  9
$MEASUREMENT
 70
     1
  9
$CELWEIGHT
370
    -1
  9
$ENDCAPS
280
     0
  9
$JOINSTYLE
280
     0
  9
$LWDISPLAY
290
     0
  9
$INSUNITS
 70
     1
  9
$HYPERLINKBASE
  1

  9
$STYLESHEET
  1

  9
$XEDIT
290
     1
  9
$CEPSNTYPE
380
     0
  9
$PSTYLEMODE
290
     0
  9
$FINGERPRINTGUID
  2
{FAEB1C30-E019-11D5-929B-00C0DF256EC4}
  9
$VERSIONGUID
  2
{FAEB1C32-E019-11D5-929B-00C0DF256EC4}
  9
$EXTNAMES
290
     1
  9
$PSVPSCALE
 40
0.0
  9
$OLESTARTUP
290
     0
  0
ENDSEC
  0
SECTION
  2
CLASSES
  0
CLASS
  1
ACDBDICTIONARYWDFLT
  2
AcDbDictionaryWithDefault
  3
ObjectDBX Classes
 90
        0
280
     0
281
     0
  0
CLASS
  1
TABLESTYLE
  2
AcDbTableStyle
  3
ObjectDBX Classes
 90
     2047
280
     0
281
     0
  0
CLASS
  1
DICTIONARYVAR
  2
AcDbDictionaryVar
  3
ObjectDBX Classes
 90
        0
280
     0
281
     0
  0
CLASS
  1

  2
exOdDbCircle
  3

 90
        0
280
     0
281
     1
  0
CLASS
  1

  2
exOdDbSpline
  3

 90
        0
280
     0
281
     1
  0
CLASS
  1
ACDBPLACEHOLDER
  2
AcDbPlaceHolder
  3
ObjectDBX Classes
 90
        0
280
     0
281
     0
  0
CLASS
  1
LAYOUT
  2
AcDbLayout
  3
ObjectDBX Classes
 90
        0
280
     0
281
     0
  0
ENDSEC
  0
SECTION
  2
TABLES
  0
TABLE
  2
VPORT
  5
8
330
0
100
AcDbSymbolTable
 70
     2
  0
VPORT
  5
29
330
8
100
AcDbSymbolTableRecord
100
AcDbViewportTableRecord
  2
*Active
 70
     0
 10
0.0
 20
0.0
 11
1.0
 21
1.0
 12
525.0
 22
742.5
 13
0.0
 23
0.0
 14
0.5
 24
0.5
 15
0.5
 25
0.5
 16
0.0
 26
0.0
 36
1.0
 17
0.0
 27
0.0
 37
0.0
 40
1633.5
 41
1.60267857142857
 42
50.0
 43
0.0
 44
0.0
 50
0.0
 51
0.0
 71
     0
 72
   100
 73
     1
 74
     3
 75
     0
 76
     0
 77
     0
 78
     0
281
     0
 65
     1
110
0.0
120
0.0
130
0.0
111
1.0
121
0.0
131
0.0
112
0.0
122
1.0
132
0.0
 79
     0
146
0.0
  0
ENDTAB
  0
TABLE
  2
LTYPE
  5
5
330
0
100
AcDbSymbolTable
 70
     8
  0
LTYPE
  5
14
330
5
100
AcDbSymbolTableRecord
100
AcDbLinetypeTableRecord
  2
ByBlock
 70
     0
  3

 72
    65
 73
     0
 40
0.0
  0
LTYPE
  5
15
330
5
100
AcDbSymbolTableRecord
100
AcDbLinetypeTableRecord
  2
ByLayer
 70
     0
  3

 72
    65
 73
     0
 40
0.0
  0
LTYPE
  5
16
330
5
100
AcDbSymbolTableRecord
100
AcDbLinetypeTableRecord
  2
Continuous
 70
     0
  3
Solid line
 72
    65
 73
     0
 40
0.0
  0
LTYPE
  5
2E
330
5
100
AcDbSymbolTableRecord
100
AcDbLinetypeTableRecord
  2
DASHED
 70
     0
  3
Dashed
 72
    65
 73
     2
 40
15.0
 49
7.0
 74
     0
 49
-8.0
 74
     0
  0
LTYPE
  5
2F
330
5
100
AcDbSymbolTableRecord
100
AcDbLinetypeTableRecord
  2
DOTTED
 70
     0
  3
Dotted
 72
    65
 73
     2
 40
1.0
 49
0.0
 74
     0
 49
-1.0
 74
     0
  0
LTYPE
  5
30
330
5
100
AcDbSymbolTableRecord
100
AcDbLinetypeTableRecord
  2
DOT_CENTER
 70
     0
  3
Dot_Center
 72
    65
 73
     4
 40
14.0
 49
12.0
 74
     0
 49
-1.0
 74
     0
 49
0.0
 74
     0
 49
-1.0
 74
     0
  0
LTYPE
  5
31
330
5
100
AcDbSymbolTableRecord
100
AcDbLinetypeTableRecord
  2
LONG_DASHED
 70
     0
  3
Long_Dashed
 72
    65
 73
     2
 40
15.0
 49
10.0
 74
     0
 49
-5.0
 74
     0
  0
LTYPE
  5
32
330
5
100
AcDbSymbolTableRecord
100
AcDbLinetypeTableRecord
  2
DASH_CENTER
 70
     0
  3
Dash_Center
 72
    65
 73
     4
 40
14.0
 49
11.0
 74
     0
 49
-1.0
 74
     0
 49
1.0
 74
     0
 49
-1.0
 74
     0
  0
LTYPE
  5
33
330
5
100
AcDbSymbolTableRecord
100
AcDbLinetypeTableRecord
  2
PHANTOM
 70
     0
  3
Phantom
 72
    65
 73
     6
 40
13.0
 49
10.0
 74
     0
 49
-1.0
 74
     0
 49
0.0
 74
     0
 49
-1.0
 74
     0
 49
0.0
 74
     0
 49
-1.0
 74
     0
  0
LTYPE
  5
34
330
5
100
AcDbSymbolTableRecord
100
AcDbLinetypeTableRecord
  2
CENTER_DASH_DASH
 70
     0
  3
Center_Dash_Dash
 72
    65
 73
     6
 40
14.0
 49
9.0
 74
     0
 49
-1.0
 74
     0
 49
1.0
 74
     0
 49
-1.0
 74
     0
 49
1.0
 74
     0
 49
-1.0
 74
     0
  0
ENDTAB
  0
TABLE
  2
LAYER
  5
2
330
0
100
AcDbSymbolTable
 70
     2
  0
LAYER
  5
10
330
2
100
AcDbSymbolTableRecord
100
AcDbLayerTableRecord
  2
0
 70
     0
 62
     7
  6
Continuous
370
    -3
390
F
  0
LAYER
  5
35
330
2
100
AcDbSymbolTableRecord
100
AcDbLayerTableRecord
  2
1
 70
     0
 62
     7
  6
Continuous
370
    -3
390
F
  0
ENDTAB
  0
TABLE
  2
STYLE
  5
3
330
0
100
AcDbSymbolTable
 70
     3
  0
STYLE
  5
11
330
3
100
AcDbSymbolTableRecord
100
AcDbTextStyleTableRecord
  2
Standard
 70
     0
 40
0.0
 41
1.0
 50
0.0
 71
     0
 42
0.2
  3
txt
  4

  0
STYLE
  5
E4
330
3
100
AcDbSymbolTableRecord
100
AcDbTextStyleTableRecord
  2
CONVERTER_1
 70
     0
 40
0.0
 41
0.89
 50
0.0
 71
     0
 42
0.2
  3
msmincho.ttc
  4

1001
ACAD
1000
MS Mincho
1071
    32785
  0
STYLE
  5
110
330
3
100
AcDbSymbolTableRecord
100
AcDbTextStyleTableRecord
  2
CONVERTER_2
 70
     0
 40
0.0
 41
0.9
 50
0.0
 71
     0
 42
0.2
  3
txt.shx
  4

  0
ENDTAB
  0
TABLE
  2
VIEW
  5
6
330
0
100
AcDbSymbolTable
 70
     0
  0
ENDTAB
  0
TABLE
  2
UCS
  5
7
330
0
100
AcDbSymbolTable
 70
     0
  0
ENDTAB
  0
TABLE
  2
APPID
  5
9
330
0
100
AcDbSymbolTable
 70
     1
  0
APPID
  5
12
330
9
100
AcDbSymbolTableRecord
100
AcDbRegAppTableRecord
  2
ACAD
 70
     0
  0
ENDTAB
  0
TABLE
  2
DIMSTYLE
  5
A
330
0
100
AcDbSymbolTable
 70
     7
100
AcDbDimStyleTable
  0
DIMSTYLE
105
27
330
A
100
AcDbSymbolTableRecord
100
AcDbDimStyleTableRecord
  2
Standard
 70
     0
340
11
  0
DIMSTYLE
105
121
102
{ACAD_REACTORS
330
122
102
}
330
A
100
AcDbSymbolTableRecord
100
AcDbDimStyleTableRecord
  2
ME10_DIM_0
 70
     0
 41
17.5
 42
0.0
 44
5.0
 73
     0
 74
     0
 77
     1
 78
     8
140
17.5
147
0.625
172
     1
173
     1
176
     2
177
     2
178
     7
271
     2
340
E4
  0
DIMSTYLE
105
12C
102
{ACAD_REACTORS
330
12D
102
}
330
A
100
AcDbSymbolTableRecord
100
AcDbDimStyleTableRecord
  2
ME10_DIM_1
 70
     0
  3
{\Fgdt;n}<>
 41
17.5
 42
0.0
 44
5.0
 73
     0
 74
     0
 77
     1
 78
     8
140
17.5
147
0.625
172
     1
173
     1
176
     2
177
     2
178
     7
271
     2
340
110
  0
DIMSTYLE
105
139
102
{ACAD_REACTORS
330
13A
102
}
330
A
100
AcDbSymbolTableRecord
100
AcDbDimStyleTableRecord
  2
ME10_DIM_2
 70
     0
  3
{\Fgdt;n}<>
 41
17.5
 42
0.0
 44
5.0
 73
     0
 74
     0
 77
     1
 78
     8
140
17.5
147
0.625
172
     1
173
     1
176
     2
177
     2
178
     7
271
     2
340
110
  0
DIMSTYLE
105
146
102
{ACAD_REACTORS
330
147
102
}
330
A
100
AcDbSymbolTableRecord
100
AcDbDimStyleTableRecord
  2
ME10_DIM_3
 70
     0
  3
{\Fgdt;n}<>
 41
17.5
 42
0.0
 44
5.0
 73
     0
 74
     0
 77
     1
 78
     8
140
17.5
147
0.625
172
     1
173
     1
176
     2
177
     2
178
     7
271
     2
340
110
  0
DIMSTYLE
105
151
102
{ACAD_REACTORS
330
152
102
}
330
A
100
AcDbSymbolTableRecord
100
AcDbDimStyleTableRecord
  2
ME10_DIM_4
 70
     0
  3
{\Fgdt;n}<>
 41
17.5
 42
0.0
 44
5.0
 73
     0
 74
     0
 77
     1
 78
     8
140
17.5
147
0.625
172
     1
173
     1
176
     2
177
     2
178
     7
271
     2
340
110
  0
DIMSTYLE
105
15C
102
{ACAD_REACTORS
330
15D
102
}
330
A
100
AcDbSymbolTableRecord
100
AcDbDimStyleTableRecord
  2
ME10_DIM_5
 70
     0
 41
17.5
 42
0.0
 44
5.0
 73
     0
 74
     0
 77
     1
 78
     8
140
17.5
147
0.625
172
     1
173
     1
176
     2
177
     2
178
     7
271
     2
340
110
  0
ENDTAB
  0
TABLE
  2
BLOCK_RECORD
  5
1
330
0
100
AcDbSymbolTable
 70
    11
  0
BLOCK_RECORD
  5
1F
330
1
100
AcDbSymbolTableRecord
100
AcDbBlockTableRecord
  2
*Model_Space
340
22
  0
BLOCK_RECORD
  5
1B
330
1
100
AcDbSymbolTableRecord
100
AcDbBlockTableRecord
  2
*Paper_Space
340
1E
  0
BLOCK_RECORD
  5
23
330
1
100
AcDbSymbolTableRecord
100
AcDbBlockTableRecord
  2
*Paper_Space0
340
26
  0
BLOCK_RECORD
  5
36
330
1
100
AcDbSymbolTableRecord
100
AcDbBlockTableRecord
  2
HW1022-1-__F_
340
0
102
{BLKREFS
331
3F
102
}
  0
BLOCK_RECORD
  5
39
330
1
100
AcDbSymbolTableRecord
100
AcDbBlockTableRecord
  2
_J__A4
340
0
102
{BLKREFS
331
40
102
}
  0
BLOCK_RECORD
  5
3C
330
1
100
AcDbSymbolTableRecord
100
AcDbBlockTableRecord
  2
_J_E______
340
0
102
{BLKREFS
331
41
102
}
  0
BLOCK_RECORD
  5
118
330
1
100
AcDbSymbolTableRecord
100
AcDbBlockTableRecord
  2
*D04
340
0
  0
BLOCK_RECORD
  5
123
330
1
100
AcDbSymbolTableRecord
100
AcDbBlockTableRecord
  2
*D15
340
0
  0
BLOCK_RECORD
  5
12E
330
1
100
AcDbSymbolTableRecord
100
AcDbBlockTableRecord
  2
*D26
340
0
  0
BLOCK_RECORD
  5
13B
330
1
100
AcDbSymbolTableRecord
100
AcDbBlockTableRecord
  2
*D37
340
0
  0
BLOCK_RECORD
  5
148
330
1
100
AcDbSymbolTableRecord
100
AcDbBlockTableRecord
  2
*D48
340
0
  0
BLOCK_RECORD
  5
153
330
1
100
AcDbSymbolTableRecord
100
AcDbBlockTableRecord
  2
*D59
340
0
  0
BLOCK_RECORD
  5
15E
330
1
100
AcDbSymbolTableRecord
100
AcDbBlockTableRecord
  2
*D610
340
0
102
{BLKREFS
331
165
102
}
  0
ENDTAB
  0
ENDSEC
  0
SECTION
  2
BLOCKS
  0
BLOCK
  5
20
330
1F
100
AcDbEntity
  8
0
100
AcDbBlockBegin
  2
*Model_Space
 70
     0
 71
     0
 10
0.0
 20
0.0
 30
0.0
  3
*Model_Space
  1

  0
ENDBLK
  5
21
330
1F
100
AcDbEntity
  8
0
100
AcDbBlockEnd
  0
BLOCK
  5
1C
330
1B
100
AcDbEntity
 67
     1
  8
0
100
AcDbBlockBegin
  2
*Paper_Space
 70
     0
 71
     0
 10
0.0
 20
0.0
 30
0.0
  3
*Paper_Space
  1

  0
ENDBLK
  5
1D
330
1B
100
AcDbEntity
 67
     1
  8
0
100
AcDbBlockEnd
  0
BLOCK
  5
24
330
23
100
AcDbEntity
  8
0
100
AcDbBlockBegin
  2
*Paper_Space0
 70
     0
 71
     0
 10
0.0
 20
0.0
 30
0.0
  3
*Paper_Space0
  1

  0
ENDBLK
  5
25
330
23
100
AcDbEntity
  8
0
100
AcDbBlockEnd
  0
BLOCK
  5
37
330
36
100
AcDbEntity
  8
0
100
AcDbBlockBegin
  2
HW1022-1-__F_
 70
     0
 71
     0
 10
-804.4999999999998
 20
549.4106181473783
 30
0.0
  3
HW1022-1-__F_
  1

  0
LINE
  5
42
330
36
100
AcDbEntity
  8
1
  6
PHANTOM
 62
     4
100
AcDbLine
 10
395.1061643835703
 20
977.1780821917815
 30
0.0
 11
397.1061643835703
 21
977.1780821917815
 31
0.0
  0
LINE
  5
43
330
36
100
AcDbEntity
  8
1
  6
PHANTOM
 62
     4
100
AcDbLine
 10
383.1061643835703
 20
977.1780821917815
 30
0.0
 11
392.6061643835703
 21
977.1780821917815
 31
0.0
  0
LINE
  5
44
330
36
100
AcDbEntity
  8
1
  6
PHANTOM
 62
     4
100
AcDbLine
 10
397.1061643835703
 20
977.1780821917815
 30
0.0
 11
517.6061643835703
 21
977.1780821917815
 31
0.0
  0
LINE
  5
45
330
36
100
AcDbEntity
  8
1
  6
PHANTOM
 62
     4
100
AcDbLine
 10
362.6061643835703
 20
735.1780821917811
 30
0.0
 11
362.6061643835703
 21
580.1780821917811
 31
0.0
  0
LINE
  5
46
330
36
100
AcDbEntity
  8
1
  6
Continuous
 62
     7
100
AcDbLine
 10
514.4002500466957
 20
720.1780821917811
 30
0.0
 11
362.6061643835703
 21
720.1780821917811
 31
0.0
  0
LINE
  5
47
330
36
100
AcDbEntity
  8
1
  6
DASH_CENTER
 62
     4
100
AcDbLine
 10
517.6061643835703
 20
977.1780821917815
 30
0.0
 11
532.6061643835703
 21
977.1780821917815
 31
0.0
  0
LINE
  5
48
330
36
100
AcDbEntity
  8
1
  6
PHANTOM
 62
     4
100
AcDbLine
 10
192.6061643835703
 20
977.1780821917815
 30
0.0
 11
382.6061643835703
 21
977.1780821917815
 31
0.0
  0
LINE
  5
49
330
36
100
AcDbEntity
  8
1
  6
PHANTOM
 62
     4
100
AcDbLine
 10
362.6061643835703
 20
1147.178082191781
 30
0.0
 11
362.6061643835703
 21
807.1780821917809
 31
0.0
  0
LINE
  5
4A
330
36
100
AcDbEntity
  8
1
  6
DASH_CENTER
 62
     2
100
AcDbLine
 10
382.6061643835703
 20
977.1780821917815
 30
0.0
 11
383.1061643835703
 21
977.1780821917815
 31
0.0
  0
LINE
  5
4B
330
36
100
AcDbEntity
  8
1
  6
PHANTOM
 62
     4
100
AcDbLine
 10
392.6061643835703
 20
977.1780821917815
 30
0.0
 11
395.1061643835703
 21
977.1780821917815
 31
0.0
  0
LINE
  5
4C
330
36
100
AcDbEntity
  8
1
  6
PHANTOM
 62
     4
100
AcDbLine
 10
406.0693285511013
 20
596.1780821917811
 30
0.0
 11
406.356164383569
 21
596.1780821917811
 31
0.0
  0
LINE
  5
4D
330
36
100
AcDbEntity
  8
1
  6
PHANTOM
 62
     4
100
AcDbLine
 10
517.6061643835699
 20
720.1780821917811
 30
0.0
 11
514.4002500466957
 21
720.1780821917811
 31
0.0
  0
LINE
  5
4E
330
36
100
AcDbEntity
  8
1
  6
PHANTOM
 62
     4
100
AcDbLine
 10
210.8120787204448
 20
720.1780821917811
 30
0.0
 11
207.6061643835703
 21
720.1780821917811
 31
0.0
  0
LINE
  5
4F
330
36
100
AcDbEntity
  8
1
  6
PHANTOM
 62
     4
100
AcDbLine
 10
318.8561643835712
 20
596.1780821917811
 30
0.0
 11
319.1430002160389
 21
596.1780821917811
 31
0.0
  0
LINE
  5
50
330
36
100
AcDbEntity
  8
1
  6
Continuous
 62
     7
100
AcDbLine
 10
362.6061643835703
 20
720.1780821917811
 30
0.0
 11
210.8120787204448
 21
720.1780821917811
 31
0.0
  0
LINE
  5
51
330
36
100
AcDbEntity
  8
1
  6
Continuous
 62
     7
100
AcDbLine
 10
319.1430002160389
 20
596.1780821917811
 30
0.0
 11
406.0693285511013
 21
596.1780821917811
 31
0.0
  0
LINE
  5
52
102
{ACAD_REACTORS
330
98
330
98
102
}
330
36
100
AcDbEntity
  8
1
  6
Continuous
 62
     7
100
AcDbLine
 10
761.6430002160391
 20
596.1780821917811
 30
0.0
 11
784.0490668070529
 21
596.1780821917811
 31
0.0
  0
LINE
  5
53
330
36
100
AcDbEntity
  8
1
  6
Continuous
 62
     7
100
AcDbLine
 10
805.1061643835706
 20
720.1780821917811
 30
0.0
 11
653.312078720445
 21
720.1780821917811
 31
0.0
  0
LINE
  5
54
102
{ACAD_REACTORS
330
98
330
98
102
}
330
36
100
AcDbEntity
  8
1
  6
Continuous
 62
     7
100
AcDbLine
 10
764.0361645882015
 20
615.1780821917811
 30
0.0
 11
770.7959147076635
 21
615.1780821917811
 31
0.0
  0
LINE
  5
55
330
36
100
AcDbEntity
  8
1
  6
PHANTOM
 62
     4
100
AcDbLine
 10
761.3561643835715
 20
596.1780821917811
 30
0.0
 11
761.6430002160391
 21
596.1780821917811
 31
0.0
  0
LINE
  5
56
330
36
100
AcDbEntity
  8
1
  6
PHANTOM
 62
     4
100
AcDbLine
 10
653.312078720445
 20
720.1780821917811
 30
0.0
 11
650.1061643835706
 21
720.1780821917811
 31
0.0
  0
LINE
  5
57
330
36
100
AcDbEntity
  8
1
  6
Continuous
 62
     7
100
AcDbLine
 10
772.6061643835706
 20
615.1780821917811
 30
0.0
 11
805.1061643835706
 21
615.1780821917811
 31
0.0
  0
LINE
  5
58
330
36
100
AcDbEntity
  8
1
  6
Continuous
 62
     7
100
AcDbLine
 10
785.1061643835706
 20
596.1780821917811
 30
0.0
 11
805.1061643835706
 21
596.1780821917811
 31
0.0
  0
LINE
  5
59
102
{ACAD_REACTORS
330
98
330
98
102
}
330
36
100
AcDbEntity
  8
1
  6
Continuous
 62
     7
100
AcDbLine
 10
785.0475271602581
 20
597.2335522114037
 30
0.0
 11
784.7268016550338
 21
603.0066113054412
 31
0.0
  0
LINE
  5
5A
102
{ACAD_REACTORS
330
98
330
98
102
}
330
36
100
AcDbEntity
  8
1
  6
Continuous
 62
     7
100
AcDbLine
 10
782.9354218873291
 20
606.5703676053155
 30
0.0
 11
773.996836705986
 21
614.0191885897681
 31
0.0
  0
LINE
  5
5B
330
36
100
AcDbEntity
  8
1
  6
Continuous
 62
     7
100
AcDbLine
 10
770.7959147076635
 20
615.1780821917811
 30
0.0
 11
772.6061643835706
 21
615.1780821917811
 31
0.0
  0
LINE
  5
5C
330
36
100
AcDbEntity
  8
1
  6
PHANTOM
 62
     4
100
AcDbLine
 10
773.996836705986
 20
614.0191885897681
 30
0.0
 11
772.6061643835706
 21
615.1780821917811
 31
0.0
  0
LINE
  5
5D
330
36
100
AcDbEntity
  8
1
  6
PHANTOM
 62
     4
100
AcDbLine
 10
784.6061643835706
 20
605.1780821917811
 30
0.0
 11
782.9354218873291
 21
606.5703676053155
 31
0.0
  0
LINE
  5
5E
330
36
100
AcDbEntity
  8
1
  6
PHANTOM
 62
     4
100
AcDbLine
 10
784.7268016550338
 20
603.0066113054412
 30
0.0
 11
784.6061643835706
 21
605.1780821917811
 31
0.0
  0
LINE
  5
5F
330
36
100
AcDbEntity
  8
1
  6
Continuous
 62
     7
100
AcDbLine
 10
784.0490668070529
 20
596.1780821917811
 30
0.0
 11
785.1061643835706
 21
596.1780821917811
 31
0.0
  0
LINE
  5
60
330
36
100
AcDbEntity
  8
1
  6
PHANTOM
 62
     4
100
AcDbLine
 10
785.1061643835706
 20
596.1780821917811
 30
0.0
 11
785.0475271602581
 21
597.2335522114037
 31
0.0
  0
LINE
  5
61
330
36
100
AcDbEntity
  8
1
  6
PHANTOM
 62
     4
100
AcDbLine
 10
825.1648016068825
 20
597.2335522114037
 30
0.0
 11
825.1061643835706
 21
596.1780821917811
 31
0.0
  0
LINE
  5
62
330
36
100
AcDbEntity
  8
1
  6
Continuous
 62
     7
100
AcDbLine
 10
825.1061643835706
 20
596.1780821917811
 30
0.0
 11
826.1632619600882
 21
596.1780821917811
 31
0.0
  0
LINE
  5
63
330
36
100
AcDbEntity
  8
1
  6
PHANTOM
 62
     4
100
AcDbLine
 10
825.6061643835706
 20
605.1780821917811
 30
0.0
 11
825.4855271121069
 21
603.0066113054412
 31
0.0
  0
LINE
  5
64
330
36
100
AcDbEntity
  8
1
  6
PHANTOM
 62
     4
100
AcDbLine
 10
827.2769068798116
 20
606.5703676053155
 30
0.0
 11
825.6061643835706
 21
605.1780821917811
 31
0.0
  0
LINE
  5
65
330
36
100
AcDbEntity
  8
1
  6
PHANTOM
 62
     4
100
AcDbLine
 10
837.6061643835706
 20
615.1780821917811
 30
0.0
 11
836.2154920611547
 21
614.0191885897681
 31
0.0
  0
LINE
  5
66
330
36
100
AcDbEntity
  8
1
  6
Continuous
 62
     7
100
AcDbLine
 10
837.6061643835706
 20
615.1780821917811
 30
0.0
 11
839.4164140594771
 21
615.1780821917811
 31
0.0
  0
LINE
  5
67
102
{ACAD_REACTORS
330
97
330
97
102
}
330
36
100
AcDbEntity
  8
1
  6
Continuous
 62
     7
100
AcDbLine
 10
836.2154920611547
 20
614.0191885897681
 30
0.0
 11
827.2769068798116
 21
606.5703676053155
 31
0.0
  0
LINE
  5
68
102
{ACAD_REACTORS
330
97
330
97
102
}
330
36
100
AcDbEntity
  8
1
  6
Continuous
 62
     7
100
AcDbLine
 10
825.4855271121069
 20
603.0066113054412
 30
0.0
 11
825.1648016068825
 21
597.2335522114037
 31
0.0
  0
LINE
  5
69
330
36
100
AcDbEntity
  8
1
  6
Continuous
 62
     7
100
AcDbLine
 10
805.1061643835706
 20
596.1780821917811
 30
0.0
 11
825.1061643835706
 21
596.1780821917811
 31
0.0
  0
LINE
  5
6A
330
36
100
AcDbEntity
  8
1
  6
Continuous
 62
     7
100
AcDbLine
 10
805.1061643835706
 20
615.1780821917811
 30
0.0
 11
837.6061643835706
 21
615.1780821917811
 31
0.0
  0
LINE
  5
6B
330
36
100
AcDbEntity
  8
1
  6
PHANTOM
 62
     4
100
AcDbLine
 10
960.1061643835701
 20
720.1780821917811
 30
0.0
 11
956.9002500466959
 21
720.1780821917811
 31
0.0
  0
LINE
  5
6C
330
36
100
AcDbEntity
  8
1
  6
PHANTOM
 62
     4
100
AcDbLine
 10
848.5693285511015
 20
596.1780821917811
 30
0.0
 11
848.8561643835692
 21
596.1780821917811
 31
0.0
  0
LINE
  5
6D
102
{ACAD_REACTORS
330
97
330
97
102
}
330
36
100
AcDbEntity
  8
1
  6
Continuous
 62
     7
100
AcDbLine
 10
839.4164140594771
 20
615.1780821917811
 30
0.0
 11
846.1761641789394
 21
615.1780821917811
 31
0.0
  0
LINE
  5
6E
330
36
100
AcDbEntity
  8
1
  6
Continuous
 62
     7
100
AcDbLine
 10
956.9002500466959
 20
720.1780821917811
 30
0.0
 11
805.1061643835706
 21
720.1780821917811
 31
0.0
  0
LINE
  5
6F
102
{ACAD_REACTORS
330
97
330
97
102
}
330
36
100
AcDbEntity
  8
1
  6
Continuous
 62
     7
100
AcDbLine
 10
826.1632619600882
 20
596.1780821917811
 30
0.0
 11
848.5693285511015
 21
596.1780821917811
 31
0.0
  0
LINE
  5
70
330
36
100
AcDbEntity
  8
1
  6
PHANTOM
 62
     4
100
AcDbLine
 10
805.1061643835706
 20
735.1780821917811
 30
0.0
 11
805.1061643835706
 21
580.1780821917811
 31
0.0
  0
LINE
  5
71
330
36
100
AcDbEntity
  8
1
  6
Continuous
 62
     7
100
AcDbLine
 10
784.6061643835706
 20
605.1780821917811
 30
0.0
 11
825.6061643835706
 21
605.1780821917811
 31
0.0
  0
ARC
  5
72
330
36
100
AcDbEntity
  8
1
  6
Continuous
 62
     7
100
AcDbCircle
 10
247.4595953155883
 20
850.6419899241436
 30
0.0
 40
300.0000000000003
100
AcDbArc
 50
-57.96296377424322
 51
-26.39197745935374
  0
ARC
  5
73
330
36
100
AcDbEntity
  8
1
  6
PHANTOM
 62
     4
100
AcDbCircle
 10
247.4595953155883
 20
850.6419899241436
 30
0.0
 40
299.9999999999998
100
AcDbArc
 50
-58.01783691662617
 51
-57.96296377424322
  0
ARC
  5
74
330
36
100
AcDbEntity
  8
1
  6
PHANTOM
 62
     4
100
AcDbCircle
 10
247.4595953155883
 20
850.6419899241436
 30
0.0
 40
300.0000000000003
100
AcDbArc
 50
-26.39197745935374
 51
-25.77763876968032
  0
ARC
  5
75
330
36
100
AcDbEntity
  8
1
  6
PHANTOM
 62
     4
100
AcDbCircle
 10
477.7527334515523
 20
850.6419899241436
 30
0.0
 40
300.0000000000006
100
AcDbArc
 50
-154.2223612303197
 51
-153.6080225406463
  0
ARC
  5
76
330
36
100
AcDbEntity
  8
1
  6
PHANTOM
 62
     4
100
AcDbCircle
 10
477.7527334515523
 20
850.6419899241436
 30
0.0
 40
300.0000000000005
100
AcDbArc
 50
-122.0370362257568
 51
-121.9821630833739
  0
ARC
  5
77
330
36
100
AcDbEntity
  8
1
  6
Continuous
 62
     7
100
AcDbCircle
 10
477.7527334515523
 20
850.6419899241436
 30
0.0
 40
300.0000000000006
100
AcDbArc
 50
-153.6080225406463
 51
-122.0370362257568
  0
ARC
  5
78
102
{ACAD_REACTORS
330
98
330
98
102
}
330
36
100
AcDbEntity
  8
1
  6
Continuous
 62
     7
100
AcDbCircle
 10
651.9855763536705
 20
700.1780821917768
 30
0.0
 40
20.00000000000509
100
AcDbArc
 50
29.03818966537402
 51
78.88681288537291
  0
ARC
  5
79
102
{ACAD_REACTORS
330
98
330
98
102
}
330
36
100
AcDbEntity
  8
1
  6
Continuous
 62
     7
100
AcDbCircle
 10
920.8317101610519
 20
849.4362690252946
 30
0.0
 40
287.5000000000043
100
AcDbArc
 50
-150.9618103346257
 51
-127.5110729088804
  0
ARC
  5
7A
102
{ACAD_REACTORS
330
98
330
98
102
}
330
36
100
AcDbEntity
  8
1
  6
Continuous
 62
     7
100
AcDbCircle
 10
920.2527334515526
 20
850.6419899241436
 30
0.0
 40
300.0000000000007
100
AcDbArc
 50
-153.6080225406463
 51
-122.0370362257569
  0
ARC
  5
7B
330
36
100
AcDbEntity
  8
1
  6
PHANTOM
 62
     4
100
AcDbCircle
 10
920.2527334515526
 20
850.6419899241436
 30
0.0
 40
300.0000000000005
100
AcDbArc
 50
-122.0370362257569
 51
-121.9821630833739
  0
ARC
  5
7C
330
36
100
AcDbEntity
  8
1
  6
PHANTOM
 62
     4
100
AcDbCircle
 10
920.2527334515526
 20
850.6419899241436
 30
0.0
 40
300.0000000000006
100
AcDbArc
 50
-154.2223612303197
 51
-153.6080225406463
  0
ARC
  5
7D
102
{ACAD_REACTORS
330
98
330
98
102
}
330
36
100
AcDbEntity
  8
1
  6
Continuous
 62
     7
100
AcDbCircle
 10
650.1787005716356
 20
690.3421652228539
 30
0.0
 40
30.00000000000249
100
AcDbArc
 50
79.12145438559935
 51
84.00475435696686
  0
ARC
  5
7E
102
{ACAD_REACTORS
330
97
330
97
102
}
330
36
100
AcDbEntity
  8
1
  6
Continuous
 62
     7
100
AcDbCircle
 10
960.0336281955056
 20
690.3421652228539
 30
0.0
 40
30.00000000000263
100
AcDbArc
 50
95.99524564303358
 51
100.8785456144007
  0
ARC
  5
7F
330
36
100
AcDbEntity
  8
1
  6
PHANTOM
 62
     4
100
AcDbCircle
 10
689.9595953155886
 20
850.6419899241436
 30
0.0
 40
300.0000000000003
100
AcDbArc
 50
-26.39197745935374
 51
-25.77763876968032
  0
ARC
  5
80
330
36
100
AcDbEntity
  8
1
  6
PHANTOM
 62
     4
100
AcDbCircle
 10
689.9595953155886
 20
850.6419899241436
 30
0.0
 40
299.9999999999997
100
AcDbArc
 50
-58.01783691662619
 51
-57.96296377424322
  0
ARC
  5
81
102
{ACAD_REACTORS
330
97
330
97
102
}
330
36
100
AcDbEntity
  8
1
  6
Continuous
 62
     7
100
AcDbCircle
 10
689.9595953155886
 20
850.6419899241436
 30
0.0
 40
300.0000000000002
100
AcDbArc
 50
-57.96296377424322
 51
-26.39197745935374
  0
ARC
  5
82
102
{ACAD_REACTORS
330
97
330
97
102
}
330
36
100
AcDbEntity
  8
1
  6
Continuous
 62
     7
100
AcDbCircle
 10
689.3806186060888
 20
849.4362690252946
 30
0.0
 40
287.5000000000044
100
AcDbArc
 50
-52.48892709111954
 51
-29.03818966537425
  0
ARC
  5
83
102
{ACAD_REACTORS
330
97
330
97
102
}
330
36
100
AcDbEntity
  8
1
  6
Continuous
 62
     7
100
AcDbCircle
 10
958.2267524134704
 20
700.1780821917768
 30
0.0
 40
20.00000000002712
100
AcDbArc
 50
101.1131871146265
 51
150.961810334626
  0
CIRCLE
  5
84
330
36
100
AcDbEntity
  8
1
  6
Continuous
 62
     7
100
AcDbCircle
 10
362.6061643835703
 20
977.1780821917815
 30
0.0
 40
32.5
  0
CIRCLE
  5
85
330
36
100
AcDbEntity
  8
1
  6
Continuous
 62
     7
100
AcDbCircle
 10
362.6061643835703
 20
977.1780821917815
 30
0.0
 40
20.5
  0
CIRCLE
  5
86
330
36
100
AcDbEntity
  8
1
  6
Continuous
 62
     7
100
AcDbCircle
 10
362.6061643835703
 20
977.1780821917815
 30
0.0
 40
155.0000000000001
  0
ARC
  5
87
330
36
100
AcDbEntity
  8
1
  6
Continuous
 62
     7
100
AcDbCircle
 10
406.0693285511013
 20
597.1780821917811
 30
0.0
 40
1.0
100
AcDbArc
 50
-90.0
 51
-57.96296377425186
  0
ARC
  5
88
330
36
100
AcDbEntity
  8
1
  6
Continuous
 62
     7
100
AcDbCircle
 10
514.4002500466957
 20
718.1780821917811
 30
0.0
 40
2.000000000000138
100
AcDbArc
 50
-26.39197745935709
 51
90.0
  0
ARC
  5
89
330
36
100
AcDbEntity
  8
1
  6
Continuous
 62
     7
100
AcDbCircle
 10
210.8120787204448
 20
718.1780821917811
 30
0.0
 40
2.0
100
AcDbArc
 50
90.0
 51
-153.6080225406458
  0
ARC
  5
8A
330
36
100
AcDbEntity
  8
1
  6
Continuous
 62
     7
100
AcDbCircle
 10
319.1430002160389
 20
597.1780821917811
 30
0.0
 40
0.9999999999999959
100
AcDbArc
 50
-122.0370362257481
 51
-90.0
  0
ARC
  5
8B
102
{ACAD_REACTORS
330
98
330
98
102
}
330
36
100
AcDbEntity
  8
1
  6
Continuous
 62
     7
100
AcDbCircle
 10
764.0361645882019
 20
645.1780821917811
 30
0.0
 40
30.00000000000004
100
AcDbArc
 50
-127.511072908881
 51
-90.00000000000088
  0
ARC
  5
8C
102
{ACAD_REACTORS
330
98
330
98
102
}
330
36
100
AcDbEntity
  8
1
  6
Continuous
 62
     7
100
AcDbCircle
 10
761.6430002160391
 20
597.1780821917811
 30
0.0
 40
0.9999999999999959
100
AcDbArc
 50
-122.0370362257481
 51
-90.0
  0
ARC
  5
8D
102
{ACAD_REACTORS
330
98
330
98
102
}
330
36
100
AcDbEntity
  8
1
  6
Continuous
 62
     7
100
AcDbCircle
 10
653.312078720445
 20
718.1780821917811
 30
0.0
 40
2.0
100
AcDbArc
 50
90.0
 51
-153.6080225406458
  0
ARC
  5
8E
102
{ACAD_REACTORS
330
98
330
98
102
}
330
36
100
AcDbEntity
  8
1
  6
Continuous
 62
     7
100
AcDbCircle
 10
770.7959147076635
 20
610.1780821917811
 30
0.0
 40
5.000000000000116
100
AcDbArc
 50
50.19442890773548
 51
90.0
  0
ARC
  5
8F
102
{ACAD_REACTORS
330
98
330
98
102
}
330
36
100
AcDbEntity
  8
1
  6
Continuous
 62
     7
100
AcDbCircle
 10
779.7344998890067
 20
602.7292612073287
 30
0.0
 40
5.000000000000071
100
AcDbArc
 50
3.17983011986279
 51
50.19442890773381
  0
ARC
  5
90
102
{ACAD_REACTORS
330
98
330
98
102
}
330
36
100
AcDbEntity
  8
1
  6
Continuous
 62
     7
100
AcDbCircle
 10
784.0490668070529
 20
597.1780821917811
 30
0.0
 40
1.0
100
AcDbArc
 50
-90.0
 51
3.17983011986857
  0
ARC
  5
91
102
{ACAD_REACTORS
330
97
330
97
102
}
330
36
100
AcDbEntity
  8
1
  6
Continuous
 62
     7
100
AcDbCircle
 10
826.1632619600882
 20
597.1780821917811
 30
0.0
 40
1.000000000000292
100
AcDbArc
 50
176.8201698801329
 51
-90.0
  0
ARC
  5
92
102
{ACAD_REACTORS
330
97
330
97
102
}
330
36
100
AcDbEntity
  8
1
  6
Continuous
 62
     7
100
AcDbCircle
 10
830.477828878134
 20
602.7292612073287
 30
0.0
 40
4.999999999999941
100
AcDbArc
 50
129.8055710922662
 51
176.8201698801372
  0
ARC
  5
93
102
{ACAD_REACTORS
330
97
330
97
102
}
330
36
100
AcDbEntity
  8
1
  6
Continuous
 62
     7
100
AcDbCircle
 10
839.4164140594771
 20
610.1780821917811
 30
0.0
 40
5.0
100
AcDbArc
 50
90.0
 51
129.8055710922645
  0
ARC
  5
94
102
{ACAD_REACTORS
330
97
330
97
102
}
330
36
100
AcDbEntity
  8
1
  6
Continuous
 62
     7
100
AcDbCircle
 10
956.9002500466959
 20
718.1780821917811
 30
0.0
 40
2.000000000000138
100
AcDbArc
 50
-26.39197745935709
 51
90.0
  0
ARC
  5
95
102
{ACAD_REACTORS
330
97
330
97
102
}
330
36
100
AcDbEntity
  8
1
  6
Continuous
 62
     7
100
AcDbCircle
 10
848.5693285511015
 20
597.1780821917811
 30
0.0
 40
1.0
100
AcDbArc
 50
-90.0
 51
-57.96296377425186
  0
ARC
  5
96
102
{ACAD_REACTORS
330
97
330
97
102
}
330
36
100
AcDbEntity
  8
1
  6
Continuous
 62
     7
100
AcDbCircle
 10
846.176164178939
 20
645.1780821917811
 30
0.0
 40
30.0
100
AcDbArc
 50
-89.99999999999913
 51
-52.48892709111906
  0
HATCH
  5
97
330
36
100
AcDbEntity
  8
1
  6
Continuous
 62
     2
100
AcDbHatch
 10
0.0
 20
0.0
 30
0.0
210
0.0
220
0.0
230
1.0
  2
_USER
 70
     0
 71
     1
 91
        1
 92
        1
 93
       14
 72
     2
 10
960.0336281955056
 20
690.3421652228539
 40
30.00000000000263
 50
259.1214543855993
 51
264.0047543569664
 73
     0
 72
     2
 10
956.9002500466959
 20
718.1780821917811
 40
2.000000000000138
 50
270.0
 51
386.3919774593571
 73
     0
 72
     2
 10
689.9595953155886
 20
850.6419899241436
 40
300.0000000000002
 50
26.39197745935374
 51
57.96296377424322
 73
     0
 72
     2
 10
848.5693285511015
 20
597.1780821917811
 40
1.0
 50
57.96296377425186
 51
90.0
 73
     0
 72
     1
 10
848.5693285511015
 20
596.1780821917811
 11
826.1632619600882
 21
596.1780821917811
 72
     2
 10
826.1632619600882
 20
597.1780821917811
 40
1.000000000000292
 50
90.0
 51
183.1798301198671
 73
     0
 72
     1
 10
825.1648016068825
 20
597.2335522114037
 11
825.4855271121069
 21
603.0066113054412
 72
     2
 10
830.477828878134
 20
602.7292612073287
 40
4.999999999999941
 50
183.1798301198628
 51
230.1944289077338
 73
     0
 72
     1
 10
827.2769068798116
 20
606.5703676053155
 11
836.2154920611547
 21
614.0191885897681
 72
     2
 10
839.4164140594771
 20
610.1780821917811
 40
5.0
 50
230.1944289077355
 51
270.0
 73
     0
 72
     1
 10
839.4164140594771
 20
615.1780821917811
 11
846.1761641789394
 21
615.1780821917811
 72
     2
 10
846.176164178939
 20
645.1780821917811
 40
30.0
 50
270.0000000000009
 51
307.5110729088809
 73
     1
 72
     2
 10
689.3806186060888
 20
849.4362690252946
 40
287.5000000000044
 50
307.5110729088805
 51
330.9618103346257
 73
     1
 72
     2
 10
958.2267524134704
 20
700.1780821917768
 40
20.00000000002712
 50
209.038189665374
 51
258.8868128853736
 73
     0
 97
       14
330
82
330
96
330
6D
330
93
330
67
330
92
330
68
330
91
330
6F
330
95
330
81
330
94
330
7E
330
83
 75
     1
 76
     0
 52
45.0
 41
10.0
 77
     0
 78
     1
 53
45.0
 43
0.0
 44
0.0
 45
-7.071067811865475
 46
7.071067811865476
 79
     0
 98
        1
 10
0.0
 20
0.0
  0
HATCH
  5
98
330
36
100
AcDbEntity
  8
1
  6
Continuous
 62
     2
100
AcDbHatch
 10
0.0
 20
0.0
 30
0.0
210
0.0
220
0.0
230
1.0
  2
_USER
 70
     0
 71
     1
 91
        1
 92
        1
 93
       14
 72
     2
 10
920.8317101610519
 20
849.4362690252946
 40
287.5000000000043
 50
209.0381896653743
 51
232.4889270911196
 73
     1
 72
     2
 10
764.0361645882019
 20
645.1780821917811
 40
30.00000000000004
 50
232.4889270911191
 51
269.9999999999992
 73
     1
 72
     1
 10
764.0361645882015
 20
615.1780821917811
 11
770.7959147076635
 21
615.1780821917811
 72
     2
 10
770.7959147076635
 20
610.1780821917811
 40
5.000000000000116
 50
270.0
 51
309.8055710922645
 73
     0
 72
     1
 10
773.996836705986
 20
614.0191885897681
 11
782.9354218873291
 21
606.5703676053155
 72
     2
 10
779.7344998890067
 20
602.7292612073287
 40
5.000000000000071
 50
309.8055710922662
 51
356.8201698801372
 73
     0
 72
     1
 10
784.7268016550338
 20
603.0066113054412
 11
785.0475271602581
 21
597.2335522114037
 72
     2
 10
784.0490668070529
 20
597.1780821917811
 40
1.0
 50
356.8201698801314
 51
450.0
 73
     0
 72
     1
 10
784.0490668070529
 20
596.1780821917811
 11
761.6430002160391
 21
596.1780821917811
 72
     2
 10
761.6430002160391
 20
597.1780821917811
 40
0.9999999999999959
 50
90.0
 51
122.0370362257481
 73
     0
 72
     2
 10
920.2527334515526
 20
850.6419899241436
 40
300.0000000000007
 50
122.0370362257569
 51
153.6080225406463
 73
     0
 72
     2
 10
653.312078720445
 20
718.1780821917811
 40
2.0
 50
153.6080225406458
 51
270.0
 73
     0
 72
     2
 10
650.1787005716356
 20
690.3421652228539
 40
30.00000000000249
 50
275.9952456430331
 51
280.8785456144007
 73
     0
 72
     2
 10
651.9855763536705
 20
700.1780821917768
 40
20.00000000000509
 50
281.1131871146271
 51
330.961810334626
 73
     0
 97
       14
330
79
330
8B
330
54
330
8E
330
5A
330
8F
330
59
330
90
330
52
330
8C
330
7A
330
8D
330
7D
330
78
 75
     1
 76
     0
 52
45.0
 41
10.0
 77
     0
 78
     1
 53
45.0
 43
0.0
 44
0.0
 45
-7.071067811865475
 46
7.071067811865476
 79
     0
 98
        1
 10
0.0
 20
0.0
  0
ENDBLK
  5
38
330
36
100
AcDbEntity
  8
0
100
AcDbBlockEnd
  0
BLOCK
  5
3A
330
39
100
AcDbEntity
  8
0
100
AcDbBlockBegin
  2
_J__A4
 70
     0
 71
     0
 10
0.0
 20
0.0
 30
0.0
  3
_J__A4
  1

  0
POINT
  5
99
330
39
100
AcDbEntity
  8
1
 62
     4
100
AcDbPoint
 10
93.75
 20
17.0
 30
0.0
  0
POINT
  5
9A
330
39
100
AcDbEntity
  8
1
 62
     4
100
AcDbPoint
 10
85.25
 20
17.0
 30
0.0
  0
POINT
  5
9B
330
39
100
AcDbEntity
  8
1
 62
     4
100
AcDbPoint
 10
106.5
 20
19.00000000000001
 30
0.0
  0
POINT
  5
9C
330
39
100
AcDbEntity
  8
1
 62
     4
100
AcDbPoint
 10
106.5
 20
12.5
 30
0.0
  0
POINT
  5
9D
330
39
100
AcDbEntity
  8
1
 62
     4
100
AcDbPoint
 10
112.25
 20
12.5
 30
0.0
  0
POINT
  5
9E
330
39
100
AcDbEntity
  8
1
 62
     4
100
AcDbPoint
 10
100.75
 20
12.5
 30
0.0
  0
POINT
  5
9F
330
39
100
AcDbEntity
  8
1
 62
     4
100
AcDbPoint
 10
123.5
 20
19.00000000000001
 30
0.0
  0
POINT
  5
A0
330
39
100
AcDbEntity
  8
1
 62
     4
100
AcDbPoint
 10
123.5
 20
12.5
 30
0.0
  0
POINT
  5
A1
330
39
100
AcDbEntity
  8
1
 62
     4
100
AcDbPoint
 10
129.25
 20
12.5
 30
0.0
  0
POINT
  5
A2
330
39
100
AcDbEntity
  8
1
 62
     4
100
AcDbPoint
 10
117.75
 20
12.5
 30
0.0
  0
POINT
  5
A3
330
39
100
AcDbEntity
  8
1
 62
     4
100
AcDbPoint
 10
140.5
 20
19.00000000000001
 30
0.0
  0
POINT
  5
A4
330
39
100
AcDbEntity
  8
1
 62
     4
100
AcDbPoint
 10
140.5
 20
12.5
 30
0.0
  0
POINT
  5
A5
330
39
100
AcDbEntity
  8
1
 62
     4
100
AcDbPoint
 10
146.25
 20
12.5
 30
0.0
  0
POINT
  5
A6
330
39
100
AcDbEntity
  8
1
 62
     4
100
AcDbPoint
 10
134.75
 20
12.5
 30
0.0
  0
POINT
  5
A7
330
39
100
AcDbEntity
  8
1
 62
     4
100
AcDbPoint
 10
151.75
 20
12.5
 30
0.0
  0
POINT
  5
A8
330
39
100
AcDbEntity
  8
1
 62
     4
100
AcDbPoint
 10
163.25
 20
12.5
 30
0.0
  0
POINT
  5
A9
330
39
100
AcDbEntity
  8
1
 62
     4
100
AcDbPoint
 10
157.5
 20
12.5
 30
0.0
  0
POINT
  5
AA
330
39
100
AcDbEntity
  8
1
 62
     4
100
AcDbPoint
 10
57.0
 20
14.25
 30
0.0
  0
POINT
  5
AB
330
39
100
AcDbEntity
  8
1
 62
     4
100
AcDbPoint
 10
57.0
 20
22.75000000000001
 30
0.0
  0
POINT
  5
AC
330
39
100
AcDbEntity
  8
1
 62
     4
100
AcDbPoint
 10
47.5
 20
282.0000000000003
 30
0.0
  0
POINT
  5
AD
330
39
100
AcDbEntity
  8
1
 62
     4
100
AcDbPoint
 10
157.5
 20
19.00000000000001
 30
0.0
  0
POINT
  5
AE
330
39
100
AcDbEntity
  8
1
 62
     4
100
AcDbPoint
 10
57.0
 20
16.25
 30
0.0
  0
POINT
  5
AF
330
39
100
AcDbEntity
  8
1
 62
     4
100
AcDbPoint
 10
57.0
 20
24.75000000000001
 30
0.0
  0
POINT
  5
B0
330
39
100
AcDbEntity
  8
1
 62
     4
100
AcDbPoint
 10
57.0
 20
20.75000000000001
 30
0.0
  0
POINT
  5
B1
330
39
100
AcDbEntity
  8
1
 62
     4
100
AcDbPoint
 10
57.0
 20
12.25
 30
0.0
  0
POINT
  5
B2
330
39
100
AcDbEntity
  8
1
 62
     4
100
AcDbPoint
 10
34.0
 20
34.00000000000001
 30
0.0
  0
LINE
  5
B3
330
39
100
AcDbEntity
  8
1
  6
Continuous
 62
     7
100
AcDbLine
 10
105.0
 20
10.0
 30
0.0
 11
200.0
 21
10.0
 31
0.0
  0
LINE
  5
B4
330
39
100
AcDbEntity
  8
1
  6
Continuous
 62
     2
100
AcDbLine
 10
105.0
 20
10.0
 30
0.0
 11
105.0
 21
5.0
 31
0.0
  0
LINE
  5
B5
330
39
100
AcDbEntity
  8
1
  6
Continuous
 62
     7
100
AcDbLine
 10
200.0
 20
148.5
 30
0.0
 11
200.0
 21
287.0000000000003
 31
0.0
  0
LINE
  5
B6
330
39
100
AcDbEntity
  8
1
  6
Continuous
 62
     2
100
AcDbLine
 10
200.0
 20
148.5
 30
0.0
 11
205.0
 21
148.5
 31
0.0
  0
LINE
  5
B7
330
39
100
AcDbEntity
  8
1
  6
Continuous
 62
     7
100
AcDbLine
 10
25.0
 20
148.5
 30
0.0
 11
25.0
 21
287.0000000000003
 31
0.0
  0
LINE
  5
B8
330
39
100
AcDbEntity
  8
1
  6
Continuous
 62
     2
100
AcDbLine
 10
25.0
 20
148.5
 30
0.0
 11
20.0
 21
148.5
 31
0.0
  0
LINE
  5
B9
330
39
100
AcDbEntity
  8
1
  6
Continuous
 62
     7
100
AcDbLine
 10
105.0
 20
287.0000000000003
 30
0.0
 11
25.0
 21
287.0000000000003
 31
0.0
  0
LINE
  5
BA
330
39
100
AcDbEntity
  8
1
  6
Continuous
 62
     2
100
AcDbLine
 10
105.0
 20
287.0000000000003
 30
0.0
 11
105.0
 21
292.0000000000003
 31
0.0
  0
LINE
  5
BB
330
39
100
AcDbEntity
  8
1
  6
Continuous
 62
     2
100
AcDbLine
 10
166.0
 20
20.00000000000001
 30
0.0
 11
200.0
 21
20.00000000000001
 31
0.0
  0
LINE
  5
BC
330
39
100
AcDbEntity
  8
1
  6
Continuous
 62
     2
100
AcDbLine
 10
98.0
 20
27.00000000000001
 30
0.0
 11
98.0
 21
9.99999999999999
 31
0.0
  0
LINE
  5
BD
330
39
100
AcDbEntity
  8
1
  6
Continuous
 62
     2
100
AcDbLine
 10
115.0
 20
27.00000000000001
 30
0.0
 11
115.0
 21
9.99999999999999
 31
0.0
  0
LINE
  5
BE
330
39
100
AcDbEntity
  8
1
  6
Continuous
 62
     2
100
AcDbLine
 10
149.0
 20
27.00000000000001
 30
0.0
 11
149.0
 21
10.0
 31
0.0
  0
LINE
  5
BF
330
39
100
AcDbEntity
  8
1
  6
Continuous
 62
     2
100
AcDbLine
 10
132.0
 20
27.00000000000001
 30
0.0
 11
132.0
 21
9.99999999999999
 31
0.0
  0
LINE
  5
C0
330
39
100
AcDbEntity
  8
1
  6
Continuous
 62
     2
100
AcDbLine
 10
166.0
 20
27.00000000000001
 30
0.0
 11
166.0
 21
10.0
 31
0.0
  0
LINE
  5
C1
330
39
100
AcDbEntity
  8
1
  6
Continuous
 62
     2
100
AcDbLine
 10
55.0
 20
277.0000000000003
 30
0.0
 11
25.0
 21
277.0000000000003
 31
0.0
  0
LINE
  5
C2
330
39
100
AcDbEntity
  8
1
  6
Continuous
 62
     7
100
AcDbLine
 10
25.0
 20
10.0
 30
0.0
 11
25.0
 21
148.5
 31
0.0
  0
LINE
  5
C3
330
39
100
AcDbEntity
  8
1
  6
Continuous
 62
     2
100
AcDbLine
 10
40.0
 20
287.0000000000003
 30
0.0
 11
40.0
 21
277.0000000000003
 31
0.0
  0
LINE
  5
C4
330
39
100
AcDbEntity
  8
1
  6
Continuous
 62
     2
100
AcDbLine
 10
55.0
 20
287.0000000000003
 30
0.0
 11
55.0
 21
277.0000000000003
 31
0.0
  0
LINE
  5
C5
330
39
100
AcDbEntity
  8
1
  6
Continuous
 62
     2
100
AcDbLine
 10
33.0
 20
41.00000000000001
 30
0.0
 11
33.0
 21
27.0
 31
0.0
  0
LINE
  5
C6
330
39
100
AcDbEntity
  8
1
  6
Continuous
 62
     7
100
AcDbLine
 10
200.0
 20
27.00000000000001
 30
0.0
 11
25.0
 21
27.00000000000001
 31
0.0
  0
LINE
  5
C7
330
39
100
AcDbEntity
  8
1
  6
Continuous
 62
     7
100
AcDbLine
 10
25.0
 20
41.0
 30
0.0
 11
200.0
 21
41.0
 31
0.0
  0
LINE
  5
C8
330
39
100
AcDbEntity
  8
1
  6
PHANTOM
 62
     4
100
AcDbLine
 10
0.0
 20
0.0
 30
0.0
 11
210.0
 21
0.0
 31
0.0
  0
LINE
  5
C9
330
39
100
AcDbEntity
  8
1
  6
PHANTOM
 62
     4
100
AcDbLine
 10
210.0
 20
0.0
 30
0.0
 11
210.0
 21
297.0
 31
0.0
  0
LINE
  5
CA
330
39
100
AcDbEntity
  8
1
  6
PHANTOM
 62
     4
100
AcDbLine
 10
210.0
 20
297.0
 30
0.0
 11
0.0
 21
297.0
 31
0.0
  0
LINE
  5
CB
330
39
100
AcDbEntity
  8
1
  6
PHANTOM
 62
     4
100
AcDbLine
 10
0.0
 20
297.0
 30
0.0
 11
0.0
 21
0.0
 31
0.0
  0
LINE
  5
CC
330
39
100
AcDbEntity
  8
1
  6
Continuous
 62
     7
100
AcDbLine
 10
25.0
 20
10.0
 30
0.0
 11
105.0
 21
10.0
 31
0.0
  0
LINE
  5
CD
330
39
100
AcDbEntity
  8
1
  6
Continuous
 62
     7
100
AcDbLine
 10
200.0
 20
10.0
 30
0.0
 11
200.0
 21
148.5
 31
0.0
  0
LINE
  5
CE
330
39
100
AcDbEntity
  8
1
  6
Continuous
 62
     7
100
AcDbLine
 10
200.0
 20
287.0000000000003
 30
0.0
 11
105.0
 21
287.0000000000003
 31
0.0
  0
LINE
  5
CF
330
39
100
AcDbEntity
  8
1
  6
Continuous
 62
     2
100
AcDbLine
 10
25.0
 20
18.50000000000001
 30
0.0
 11
81.0
 21
18.50000000000001
 31
0.0
  0
LINE
  5
D0
330
39
100
AcDbEntity
  8
1
  6
Continuous
 62
     2
100
AcDbLine
 10
33.0
 20
27.0
 30
0.0
 11
33.0
 21
10.0
 31
0.0
  0
LINE
  5
D1
330
39
100
AcDbEntity
  8
1
  6
Continuous
 62
     7
100
AcDbLine
 10
191.0
 20
24.70000000000001
 30
0.0
 11
191.0
 21
22.30000000000001
 31
0.0
  0
LINE
  5
D2
330
39
100
AcDbEntity
  8
1
  6
Continuous
 62
     7
100
AcDbLine
 10
191.0
 20
24.70000000000001
 30
0.0
 11
196.0
 21
25.50000000000001
 31
0.0
  0
LINE
  5
D3
330
39
100
AcDbEntity
  8
1
  6
Continuous
 62
     7
100
AcDbLine
 10
196.0
 20
25.50000000000001
 30
0.0
 11
196.0
 21
21.50000000000001
 31
0.0
  0
LINE
  5
D4
330
39
100
AcDbEntity
  8
1
  6
Continuous
 62
     7
100
AcDbLine
 10
196.0
 20
21.50000000000001
 30
0.0
 11
191.0
 21
22.30000000000001
 31
0.0
  0
LINE
  5
D5
330
39
100
AcDbEntity
  8
1
  6
DOT_CENTER
 62
     2
100
AcDbLine
 10
184.0
 20
23.50000000000001
 30
0.0
 11
197.0
 21
23.50000000000001
 31
0.0
  0
LINE
  5
D6
330
39
100
AcDbEntity
  8
1
  6
DOT_CENTER
 62
     2
100
AcDbLine
 10
187.0
 20
26.50000000000001
 30
0.0
 11
187.0
 21
20.50000000000001
 31
0.0
  0
LINE
  5
D7
330
39
100
AcDbEntity
  8
1
  6
Continuous
 62
     2
100
AcDbLine
 10
81.0
 20
27.00000000000001
 30
0.0
 11
81.0
 21
10.0
 31
0.0
  0
CIRCLE
  5
D8
330
39
100
AcDbEntity
  8
1
  6
Continuous
 62
     7
100
AcDbCircle
 10
103.5
 20
12.5
 30
0.0
 40
0.2999999999999972
  0
CIRCLE
  5
D9
330
39
100
AcDbEntity
  8
1
  6
Continuous
 62
     7
100
AcDbCircle
 10
109.5
 20
12.5
 30
0.0
 40
0.2999999999999972
  0
CIRCLE
  5
DA
330
39
100
AcDbEntity
  8
1
  6
Continuous
 62
     7
100
AcDbCircle
 10
120.5
 20
12.5
 30
0.0
 40
0.2999999999999972
  0
CIRCLE
  5
DB
330
39
100
AcDbEntity
  8
1
  6
Continuous
 62
     7
100
AcDbCircle
 10
126.5
 20
12.5
 30
0.0
 40
0.2999999999999972
  0
CIRCLE
  5
DC
330
39
100
AcDbEntity
  8
1
  6
Continuous
 62
     7
100
AcDbCircle
 10
137.5
 20
12.5
 30
0.0
 40
0.3000000000000114
  0
CIRCLE
  5
DD
330
39
100
AcDbEntity
  8
1
  6
Continuous
 62
     7
100
AcDbCircle
 10
143.5
 20
12.5
 30
0.0
 40
0.3000000000000114
  0
CIRCLE
  5
DE
330
39
100
AcDbEntity
  8
1
  6
Continuous
 62
     7
100
AcDbCircle
 10
160.5
 20
12.5
 30
0.0
 40
0.3000000000000114
  0
CIRCLE
  5
DF
330
39
100
AcDbEntity
  8
1
  6
Continuous
 62
     7
100
AcDbCircle
 10
154.5
 20
12.5
 30
0.0
 40
0.3000000000000114
  0
CIRCLE
  5
E0
330
39
100
AcDbEntity
  8
1
  6
Continuous
 62
     7
100
AcDbCircle
 10
187.0
 20
23.50000000000001
 30
0.0
 40
1.200000000000102
  0
CIRCLE
  5
E1
330
39
100
AcDbEntity
  8
1
  6
Continuous
 62
     7
100
AcDbCircle
 10
187.0
 20
23.50000000000001
 30
0.0
 40
2.0
  0
CIRCLE
  5
E2
330
39
100
AcDbEntity
  8
1
  6
DOT_CENTER
 62
     7
100
AcDbCircle
 10
89.5
 20
16.0
 30
0.0
 40
0.1000000000000227
  0
CIRCLE
  5
E3
330
39
100
AcDbEntity
  8
1
  6
DOT_CENTER
 62
     7
100
AcDbCircle
 10
89.5
 20
18.0
 30
0.0
 40
0.1000000000000227
  0
MTEXT
  5
E5
330
39
100
AcDbEntity
  8
1
 62
     7
100
AcDbMText
 10
188.5
 20
15.0
 30
0.0
 40
3.0
 41
0.0
 71
     5
 72
     1
  1
三栄水栓製作所
  7
CONVERTER_1
 73
     1
 44
1.32052821128451
  0
MTEXT
  5
E6
330
39
100
AcDbEntity
  8
1
 62
     7
100
AcDbMText
 10
171.5
 20
15.0
 30
0.0
 40
2.5
 41
0.0
 71
     5
 72
     1
  1
株式会社
  7
CONVERTER_1
 73
     1
 44
1.32052821128451
  0
MTEXT
  5
E7
330
39
100
AcDbEntity
  8
1
 62
     2
100
AcDbMText
 10
32.5
 20
282.0000000000003
 30
0.0
 40
5.0
 41
0.0
 71
     5
 72
     1
  1
図番
  7
CONVERTER_1
 73
     1
 44
0.60024009603842
  0
MTEXT
  5
E8
330
39
100
AcDbEntity
  8
1
 62
     2
100
AcDbMText
 10
29.0
 20
34.00000000000001
 30
0.0
 40
3.5
 41
0.0
 71
     5
 72
     1
  1
備考
  7
CONVERTER_1
 73
     1
 44
0.60024009603842
  0
MTEXT
  5
E9
330
39
100
AcDbEntity
  8
1
 62
     2
100
AcDbMText
 10
29.0
 20
22.75
 30
0.0
 40
3.5
 41
0.0
 71
     5
 72
     1
  1
品名
  7
CONVERTER_1
 73
     1
 44
0.96038415366146
  0
MTEXT
  5
EA
330
39
100
AcDbEntity
  8
1
 62
     2
100
AcDbMText
 10
29.0
 20
14.25
 30
0.0
 40
3.5
 41
0.0
 71
     5
 72
     1
  1
品番
  7
CONVERTER_1
 73
     1
 44
0.96038415366146
  0
MTEXT
  5
EB
330
39
100
AcDbEntity
  8
1
 62
     2
100
AcDbMText
 10
101.5
 20
25.00000000000001
 30
0.0
 40
3.0
 41
0.0
 71
     5
 72
     1
  1
承認
  7
CONVERTER_1
 73
     1
 44
0.78031212484994
  0
MTEXT
  5
EC
330
39
100
AcDbEntity
  8
1
 62
     2
100
AcDbMText
 10
175.0
 20
23.50000000000001
 30
0.0
 40
3.5
 41
0.0
 71
     5
 72
     1
  1
第三角法
  7
CONVERTER_1
 73
     1
 44
0.7202881152461
  0
MTEXT
  5
ED
330
39
100
AcDbEntity
  8
1
 62
     2
100
AcDbMText
 10
118.5
 20
25.00000000000001
 30
0.0
 40
3.0
 41
0.0
 71
     5
 72
     1
  1
検図
  7
CONVERTER_1
 73
     1
 44
0.78031212484994
  0
MTEXT
  5
EE
330
39
100
AcDbEntity
  8
1
 62
     2
100
AcDbMText
 10
152.5
 20
25.00000000000001
 30
0.0
 40
3.0
 41
0.0
 71
     5
 72
     1
  1
設計
  7
CONVERTER_1
 73
     1
 44
0.78031212484994
  0
MTEXT
  5
EF
330
39
100
AcDbEntity
  8
1
 62
     2
100
AcDbMText
 10
135.5
 20
25.00000000000001
 30
0.0
 40
3.0
 41
0.0
 71
     5
 72
     1
  1
製図
  7
CONVERTER_1
 73
     1
 44
0.78031212484994
  0
MTEXT
  5
F0
330
39
100
AcDbEntity
  8
1
 62
     2
100
AcDbMText
 10
89.5
 20
24.00000000000001
 30
0.0
 40
3.5
 41
0.0
 71
     5
 72
     1
  1
尺度
  7
CONVERTER_1
 73
     1
 44
0.7202881152461
  0
MTEXT
  5
F1
330
39
100
AcDbEntity
  8
1
 62
   250
100
AcDbMText
 10
25.0
 20
5.0
 30
0.0
 40
3.5
 41
0.0
 71
     4
 72
     1
  1
備考欄の文字列 原点位置=4
  7
CONVERTER_1
 73
     1
 44
0.7202881152461
  0
ENDBLK
  5
3B
330
39
100
AcDbEntity
  8
0
100
AcDbBlockEnd
  0
BLOCK
  5
3D
330
3C
100
AcDbEntity
  8
0
100
AcDbBlockBegin
  2
_J_E______
 70
     0
 71
     0
 10
-1162.19092465753
 20
691.1554811610771
 30
0.0
  3
_J_E______
  1

  0
LINE
  5
F2
102
{ACAD_REACTORS
330
FB
330
FB
102
}
330
3C
100
AcDbEntity
  8
1
  6
Continuous
 62
     2
100
AcDbLine
 10
547.6061643835703
 20
662.2634074799424
 30
0.0
 11
492.6061643835703
 21
662.2634074799424
 31
0.0
  0
LINE
  5
F3
102
{ACAD_REACTORS
330
FB
330
FB
102
}
330
3C
100
AcDbEntity
  8
1
  6
Continuous
 62
     2
100
AcDbLine
 10
492.6061643835703
 20
677.2634074799424
 30
0.0
 11
547.6061643835703
 21
677.2634074799424
 31
0.0
  0
LINE
  5
F4
102
{ACAD_REACTORS
330
FB
330
FB
102
}
330
3C
100
AcDbEntity
  8
1
  6
Continuous
 62
     2
100
AcDbLine
 10
492.6061643835703
 20
677.2634074799424
 30
0.0
 11
492.6061643835703
 21
662.2634074799424
 31
0.0
  0
LINE
  5
F5
102
{ACAD_REACTORS
330
FA
330
FA
102
}
330
3C
100
AcDbEntity
  8
1
  6
Continuous
 62
     2
100
AcDbLine
 10
232.6061643835703
 20
662.2634074799424
 30
0.0
 11
232.6061643835703
 21
677.2634074799424
 31
0.0
  0
LINE
  5
F6
102
{ACAD_REACTORS
330
FA
330
FA
102
}
330
3C
100
AcDbEntity
  8
1
  6
Continuous
 62
     2
100
AcDbLine
 10
177.6061643835705
 20
677.2634074799424
 30
0.0
 11
232.6061643835703
 21
677.2634074799424
 31
0.0
  0
LINE
  5
F7
102
{ACAD_REACTORS
330
FA
330
FA
102
}
330
3C
100
AcDbEntity
  8
1
  6
Continuous
 62
     2
100
AcDbLine
 10
232.6061643835703
 20
662.2634074799424
 30
0.0
 11
177.6061643835705
 21
662.2634074799424
 31
0.0
  0
SPLINE
  5
F8
102
{ACAD_REACTORS
330
FA
330
FA
102
}
330
3C
100
AcDbEntity
  8
1
  6
Continuous
 62
     2
100
AcDbSpline
210
0.0
220
0.0
230
1.0
 70
     8
 71
     3
 72
    13
 73
     9
 74
     7
 42
0.0000000001
 43
0.0000000001
 44
0.00000001
 40
0.0
 40
0.0
 40
0.0
 40
0.0
 40
3.66572077476919
 40
7.409969020916155
 40
9.270052812601318
 40
10.99426311290302
 40
13.57499047522895
 40
16.068395441775
 40
16.068395441775
 40
16.068395441775
 40
16.068395441775
 10
177.6061643835705
 20
677.2634074799424
 30
0.0
 10
178.1162632172927
 20
676.0539985920771
 30
0.0
 10
179.1473882777455
 20
673.6092727268701
 30
0.0
 10
176.1959062435657
 20
670.7045914338662
 30
0.0
 10
177.7812632653012
 20
668.6065055388934
 30
0.0
 10
178.9760255531898
 20
666.6019372102892
 30
0.0
 10
176.4452217953897
 20
664.8319685923
 30
0.0
 10
177.2236489228277
 20
663.1097149092175
 30
0.0
 10
177.6061643835705
 20
662.2634074799424
 30
0.0
 11
177.6061643835705
 21
677.2634074799424
 31
0.0
 11
178.3067362680467
 21
673.6652540878181
 31
0.0
 11
176.9336145787504
 21
670.1818747293274
 31
0.0
 11
177.7889086644379
 21
668.5300927403598
 31
0.0
 11
178.4191225646208
 21
666.9251841449305
 31
0.0
 11
177.1027044806307
 21
664.7054550743452
 31
0.0
 11
177.6061643835705
 21
662.2634074799424
 31
0.0
  0
SPLINE
  5
F9
102
{ACAD_REACTORS
330
FB
330
FB
102
}
330
3C
100
AcDbEntity
  8
1
  6
Continuous
 62
     2
100
AcDbSpline
210
0.0
220
0.0
230
1.0
 70
     8
 71
     3
 72
    13
 73
     9
 74
     7
 42
0.0000000001
 43
0.0000000001
 44
0.00000001
 40
0.0
 40
0.0
 40
0.0
 40
0.0
 40
3.665720774769169
 40
7.409969020916196
 40
9.270052812601437
 40
10.99426311290312
 40
13.57499047522903
 40
16.06839544177509
 40
16.06839544177509
 40
16.06839544177509
 40
16.06839544177509
 10
547.6061643835703
 20
677.2634074799424
 30
0.0
 10
548.1162632172925
 20
676.0539985920768
 30
0.0
 10
549.1473882777452
 20
673.6092727268701
 30
0.0
 10
546.1959062435651
 20
670.704591433866
 30
0.0
 10
547.7812632653011
 20
668.6065055388938
 30
0.0
 10
548.9760255531892
 20
666.6019372102888
 30
0.0
 10
546.4452217953894
 20
664.8319685923
 30
0.0
 10
547.2236489228275
 20
663.1097149092175
 30
0.0
 10
547.6061643835703
 20
662.2634074799424
 30
0.0
 11
547.6061643835703
 21
677.2634074799424
 31
0.0
 11
548.3067362680464
 21
673.6652540878181
 31
0.0
 11
546.9336145787499
 21
670.1818747293274
 31
0.0
 11
547.7889086644376
 21
668.5300927403598
 31
0.0
 11
548.4191225646205
 21
666.9251841449305
 31
0.0
 11
547.1027044806305
 21
664.7054550743452
 31
0.0
 11
547.6061643835703
 21
662.2634074799424
 31
0.0
  0
HATCH
  5
FA
330
3C
100
AcDbEntity
  8
1
  6
Continuous
 62
     4
100
AcDbHatch
 10
0.0
 20
0.0
 30
0.0
210
0.0
220
0.0
230
1.0
  2
CUSTOM0
 70
     0
 71
     1
 91
        1
 92
        1
 93
        4
 72
     4
 94
        3
 73
     0
 74
     0
 95
       13
 96
        9
 40
0.0
 40
0.0
 40
0.0
 40
0.0
 40
3.66572077476919
 40
7.409969020916155
 40
9.270052812601318
 40
10.99426311290302
 40
13.57499047522895
 40
16.068395441775
 40
16.068395441775
 40
16.068395441775
 40
16.068395441775
 10
177.6061643835705
 20
677.2634074799424
 10
178.1162632172927
 20
676.0539985920771
 10
179.1473882777455
 20
673.6092727268701
 10
176.1959062435657
 20
670.7045914338662
 10
177.7812632653012
 20
668.6065055388934
 10
178.9760255531898
 20
666.6019372102892
 10
176.4452217953897
 20
664.8319685923
 10
177.2236489228277
 20
663.1097149092175
 10
177.6061643835705
 20
662.2634074799424
 72
     1
 10
177.6061643835705
 20
662.2634074799424
 11
232.6061643835703
 21
662.2634074799424
 72
     1
 10
232.6061643835703
 20
662.2634074799424
 11
232.6061643835703
 21
677.2634074799424
 72
     1
 10
232.6061643835703
 20
677.2634074799424
 11
177.6061643835705
 21
677.2634074799424
 97
        4
330
F5
330
F7
330
F8
330
F6
 75
     1
 76
     2
 52
45.0
 41
15.0
 77
     0
 78
     2
 53
45.0
 43
0.0
 44
0.0
 45
-21.21320343559642
 46
0.0000000000000017
 79
     0
 53
45.0
 43
3.535533905932737
 44
-3.535533905932738
 45
-21.21320343559642
 46
0.0000000000000017
 79
     0
 98
        1
 10
0.0
 20
0.0
  0
HATCH
  5
FB
330
3C
100
AcDbEntity
  8
1
  6
Continuous
 62
     4
100
AcDbHatch
 10
0.0
 20
0.0
 30
0.0
210
0.0
220
0.0
230
1.0
  2
CUSTOM1
 70
     0
 71
     1
 91
        1
 92
        1
 93
        4
 72
     4
 94
        3
 73
     0
 74
     0
 95
       13
 96
        9
 40
0.0
 40
0.0
 40
0.0
 40
0.0
 40
3.665720774769169
 40
7.409969020916196
 40
9.270052812601437
 40
10.99426311290312
 40
13.57499047522903
 40
16.06839544177509
 40
16.06839544177509
 40
16.06839544177509
 40
16.06839544177509
 10
547.6061643835703
 20
677.2634074799424
 10
548.1162632172925
 20
676.0539985920768
 10
549.1473882777452
 20
673.6092727268701
 10
546.1959062435651
 20
670.704591433866
 10
547.7812632653011
 20
668.6065055388938
 10
548.9760255531892
 20
666.6019372102888
 10
546.4452217953894
 20
664.8319685923
 10
547.2236489228275
 20
663.1097149092175
 10
547.6061643835703
 20
662.2634074799424
 72
     1
 10
547.6061643835703
 20
662.2634074799424
 11
492.6061643835703
 21
662.2634074799424
 72
     1
 10
492.6061643835703
 20
662.2634074799424
 11
492.6061643835703
 21
677.2634074799424
 72
     1
 10
492.6061643835703
 20
677.2634074799424
 11
547.6061643835703
 21
677.2634074799424
 97
        4
330
F9
330
F2
330
F4
330
F3
 75
     1
 76
     2
 52
45.0
 41
15.0
 77
     0
 78
     2
 53
45.0
 43
0.0
 44
0.0
 45
-21.21320343559642
 46
0.0000000000000017
 79
     0
 53
45.0
 43
3.535533905932737
 44
-3.535533905932738
 45
-21.21320343559642
 46
0.0000000000000017
 79
     0
 98
        1
 10
0.0
 20
0.0
  0
ENDBLK
  5
3E
330
3C
100
AcDbEntity
  8
0
100
AcDbBlockEnd
  0
BLOCK
  5
11F
330
118
100
AcDbEntity
  8
0
100
AcDbBlockBegin
  2
*D04
 70
     1
 71
     0
 10
0.0
 20
0.0
 30
0.0
  3
*D04
  1

  0
LINE
  5
119
330
118
100
AcDbEntity
  8
1
  6
Continuous
 62
     2
100
AcDbLine
 10
232.6061643835703
 20
506.1780821917811
 30
0.0
 11
492.6061643835704
 21
506.1780821917811
 31
0.0
  0
LINE
  5
11A
330
118
100
AcDbEntity
  8
1
  6
Continuous
 62
     2
100
AcDbLine
 10
232.6061643835703
 20
662.2634074799425
 30
0.0
 11
232.6061643835703
 21
501.1780821917811
 31
0.0
  0
LINE
  5
11B
330
118
100
AcDbEntity
  8
1
  6
Continuous
 62
     2
100
AcDbLine
 10
492.6061643835703
 20
662.2634074799425
 30
0.0
 11
492.6061643835703
 21
501.1780821917811
 31
0.0
  0
SOLID
  5
11C
330
118
100
AcDbEntity
  8
1
 62
     2
100
AcDbTrace
 10
250.1061643835703
 20
508.4820008995605
 30
0.0
 11
250.1061643835703
 21
503.8741634840017
 31
0.0
 12
232.6061643835703
 22
506.1780821917811
 32
0.0
 13
232.6061643835703
 23
506.1780821917811
 33
0.0
  0
SOLID
  5
11D
330
118
100
AcDbEntity
  8
1
 62
     2
100
AcDbTrace
 10
475.1061643835704
 20
503.8741634840017
 30
0.0
 11
475.1061643835704
 21
508.4820008995605
 31
0.0
 12
492.6061643835704
 22
506.1780821917811
 32
0.0
 13
492.6061643835704
 23
506.1780821917811
 33
0.0
  0
MTEXT
  5
11E
330
118
100
AcDbEntity
  8
1
 62
     7
100
AcDbMText
 10
262.8561643835703
 20
511.1780821917811
 30
0.0
 40
17.5
 41
0.0
 71
     7
 72
     1
  1
天板穴径最大寸法{\Fgdt;n}260
  7
CONVERTER_1
 11
0.9999999999970621
 21
2.424068405545307E-6
 31
0.0
 73
     1
 44
0.60024009603842
  0
ENDBLK
  5
120
330
118
100
AcDbEntity
  8
0
100
AcDbBlockEnd
  0
BLOCK
  5
12A
330
123
100
AcDbEntity
  8
0
100
AcDbBlockBegin
  2
*D15
 70
     1
 71
     0
 10
0.0
 20
0.0
 30
0.0
  3
*D15
  1

  0
LINE
  5
124
330
123
100
AcDbEntity
  8
1
  6
Continuous
 62
     2
100
AcDbLine
 10
772.6061643835706
 20
678.8291194499532
 30
0.0
 11
837.6061643835706
 21
678.8291194499532
 31
0.0
  0
LINE
  5
125
330
123
100
AcDbEntity
  8
1
  6
Continuous
 62
     2
100
AcDbLine
 10
772.6061643835706
 20
615.1780821917811
 30
0.0
 11
772.6061643835706
 21
683.8291194499532
 31
0.0
  0
LINE
  5
126
330
123
100
AcDbEntity
  8
1
  6
Continuous
 62
     2
100
AcDbLine
 10
837.6061643835706
 20
615.1780821917811
 30
0.0
 11
837.6061643835706
 21
683.8291194499532
 31
0.0
  0
SOLID
  5
127
330
123
100
AcDbEntity
  8
1
 62
     2
100
AcDbTrace
 10
790.1061643835706
 20
681.1330381577326
 30
0.0
 11
790.1061643835706
 21
676.5252007421738
 31
0.0
 12
772.6061643835706
 22
678.8291194499532
 32
0.0
 13
772.6061643835706
 23
678.8291194499532
 33
0.0
  0
SOLID
  5
128
330
123
100
AcDbEntity
  8
1
 62
     2
100
AcDbTrace
 10
820.1061643835706
 20
676.5252007421738
 30
0.0
 11
820.1061643835706
 21
681.1330381577326
 31
0.0
 12
837.6061643835706
 22
678.8291194499532
 32
0.0
 13
837.6061643835706
 23
678.8291194499532
 33
0.0
  0
MTEXT
  5
129
330
123
100
AcDbEntity
  8
1
 62
     7
100
AcDbMText
 10
773.7811643836549
 20
683.8290498791899
 30
0.0
 40
17.5
 41
0.0
 71
     7
 72
     1
  1
\C7;{\Fgdt;n}\C7;65
  7
CONVERTER_2
 11
0.9999999999970621
 21
2.424068405545307E-6
 31
0.0
 73
     1
 44
0.60024009603842
  0
ENDBLK
  5
12B
330
123
100
AcDbEntity
  8
0
100
AcDbBlockEnd
  0
BLOCK
  5
137
330
12E
100
AcDbEntity
  8
0
100
AcDbBlockBegin
  2
*D26
 70
     1
 71
     0
 10
0.0
 20
0.0
 30
0.0
  3
*D26
  1

  0
LINE
  5
12F
330
12E
100
AcDbEntity
  8
1
  6
Continuous
 62
     2
100
AcDbLine
 10
825.6061643835706
 20
641.6207866368241
 30
0.0
 11
860.6061643835706
 21
641.6207866368241
 31
0.0
  0
LINE
  5
130
330
12E
100
AcDbEntity
  8
1
  6
Continuous
 62
     2
100
AcDbLine
 10
784.6061643835706
 20
641.6207866368241
 30
0.0
 11
825.6061643835706
 21
641.6207866368241
 31
0.0
  0
LINE
  5
131
330
12E
100
AcDbEntity
  8
1
  6
Continuous
 62
     2
100
AcDbLine
 10
749.6061643835706
 20
641.6207866368241
 30
0.0
 11
784.6061643835706
 21
641.6207866368241
 31
0.0
  0
LINE
  5
132
330
12E
100
AcDbEntity
  8
1
  6
Continuous
 62
     2
100
AcDbLine
 10
784.6061643835706
 20
605.1780821917811
 30
0.0
 11
784.6061643835706
 21
646.6207866368241
 31
0.0
  0
LINE
  5
133
330
12E
100
AcDbEntity
  8
1
  6
Continuous
 62
     2
100
AcDbLine
 10
825.6061643835706
 20
605.1780821917811
 30
0.0
 11
825.6061643835706
 21
646.6207866368241
 31
0.0
  0
SOLID
  5
134
330
12E
100
AcDbEntity
  8
1
 62
     2
100
AcDbTrace
 10
767.1061643835706
 20
639.3168679290446
 30
0.0
 11
767.1061643835706
 21
643.9247053446035
 31
0.0
 12
784.6061643835706
 22
641.6207866368241
 32
0.0
 13
784.6061643835706
 23
641.6207866368241
 33
0.0
  0
SOLID
  5
135
330
12E
100
AcDbEntity
  8
1
 62
     2
100
AcDbTrace
 10
843.1061643835706
 20
643.9247053446035
 30
0.0
 11
843.1061643835706
 21
639.3168679290446
 31
0.0
 12
825.6061643835706
 22
641.6207866368241
 32
0.0
 13
825.6061643835706
 23
641.6207866368241
 33
0.0
  0
MTEXT
  5
136
330
12E
100
AcDbEntity
  8
1
 62
     7
100
AcDbMText
 10
776.4061643836549
 20
646.6207170660608
 30
0.0
 40
17.5
 41
0.0
 71
     7
 72
     1
  1
\C7;{\Fgdt;n}\C7;41
  7
CONVERTER_2
 11
0.9999999999970621
 21
2.424068405545307E-6
 31
0.0
 73
     1
 44
0.60024009603842
  0
ENDBLK
  5
138
330
12E
100
AcDbEntity
  8
0
100
AcDbBlockEnd
  0
BLOCK
  5
144
330
13B
100
AcDbEntity
  8
0
100
AcDbBlockBegin
  2
*D37
 70
     1
 71
     0
 10
0.0
 20
0.0
 30
0.0
  3
*D37
  1

  0
LINE
  5
13C
330
13B
100
AcDbEntity
  8
1
  6
Continuous
 62
     2
100
AcDbLine
 10
750.1061643835706
 20
546.1780821917811
 30
0.0
 11
785.1061643835706
 21
546.1780821917811
 31
0.0
  0
LINE
  5
13D
330
13B
100
AcDbEntity
  8
1
  6
Continuous
 62
     2
100
AcDbLine
 10
785.1061643835706
 20
546.1780821917811
 30
0.0
 11
825.1061643835706
 21
546.1780821917811
 31
0.0
  0
LINE
  5
13E
330
13B
100
AcDbEntity
  8
1
  6
Continuous
 62
     2
100
AcDbLine
 10
825.1061643835706
 20
546.1780821917811
 30
0.0
 11
891.5022814173891
 21
546.1780821917811
 31
0.0
  0
LINE
  5
13F
330
13B
100
AcDbEntity
  8
1
  6
Continuous
 62
     2
100
AcDbLine
 10
825.1061643835706
 20
596.1780821917811
 30
0.0
 11
825.1061643835706
 21
541.1780821917811
 31
0.0
  0
LINE
  5
140
330
13B
100
AcDbEntity
  8
1
  6
Continuous
 62
     2
100
AcDbLine
 10
785.1061643835706
 20
596.1780821917811
 30
0.0
 11
785.1061643835706
 21
541.1780821917811
 31
0.0
  0
SOLID
  5
141
330
13B
100
AcDbEntity
  8
1
 62
     2
100
AcDbTrace
 10
767.6061643835706
 20
543.8741634840017
 30
0.0
 11
767.6061643835706
 21
548.4820008995605
 31
0.0
 12
785.1061643835706
 22
546.1780821917811
 32
0.0
 13
785.1061643835706
 23
546.1780821917811
 33
0.0
  0
SOLID
  5
142
330
13B
100
AcDbEntity
  8
1
 62
     2
100
AcDbTrace
 10
842.6061643835706
 20
548.4820008995605
 30
0.0
 11
842.6061643835706
 21
543.8741634840017
 31
0.0
 12
825.1061643835706
 22
546.1780821917811
 32
0.0
 13
825.1061643835706
 23
546.1780821917811
 33
0.0
  0
MTEXT
  5
143
330
13B
100
AcDbEntity
  8
1
 62
     7
100
AcDbMText
 10
836.5522814174734
 20
551.1780126210178
 30
0.0
 40
17.5
 41
0.0
 71
     7
 72
     1
  1
\C7;{\Fgdt;n}\C7;40
  7
CONVERTER_2
 11
0.9999999999970621
 21
2.424068405545307E-6
 31
0.0
 73
     1
 44
0.60024009603842
  0
ENDBLK
  5
145
330
13B
100
AcDbEntity
  8
0
100
AcDbBlockEnd
  0
BLOCK
  5
14F
330
148
100
AcDbEntity
  8
0
100
AcDbBlockBegin
  2
*D48
 70
     1
 71
     0
 10
0.0
 20
0.0
 30
0.0
  3
*D48
  1

  0
LINE
  5
149
330
148
100
AcDbEntity
  8
1
  6
Continuous
 62
     2
100
AcDbLine
 10
318.8561643835714
 20
546.1780821917811
 30
0.0
 11
406.3561643835691
 21
546.1780821917811
 31
0.0
  0
LINE
  5
14A
330
148
100
AcDbEntity
  8
1
  6
Continuous
 62
     2
100
AcDbLine
 10
406.3561643835691
 20
596.1780821917811
 30
0.0
 11
406.3561643835691
 21
541.1780821917811
 31
0.0
  0
LINE
  5
14B
330
148
100
AcDbEntity
  8
1
  6
Continuous
 62
     2
100
AcDbLine
 10
318.8561643835714
 20
596.1780821917811
 30
0.0
 11
318.8561643835714
 21
541.1780821917811
 31
0.0
  0
SOLID
  5
14C
330
148
100
AcDbEntity
  8
1
 62
     2
100
AcDbTrace
 10
336.3561643835714
 20
548.4820008995605
 30
0.0
 11
336.3561643835714
 21
543.8741634840017
 31
0.0
 12
318.8561643835714
 22
546.1780821917811
 32
0.0
 13
318.8561643835714
 23
546.1780821917811
 33
0.0
  0
SOLID
  5
14D
330
148
100
AcDbEntity
  8
1
 62
     2
100
AcDbTrace
 10
388.8561643835691
 20
543.8741634840017
 30
0.0
 11
388.8561643835691
 21
548.4820008995605
 31
0.0
 12
406.3561643835691
 22
546.1780821917811
 32
0.0
 13
406.3561643835691
 23
546.1780821917811
 33
0.0
  0
MTEXT
  5
14E
330
148
100
AcDbEntity
  8
1
 62
     7
100
AcDbMText
 10
331.2811643836546
 20
551.1780126210178
 30
0.0
 40
17.5
 41
0.0
 71
     7
 72
     1
  1
\C7;{\Fgdt;n}\C7;88
  7
CONVERTER_2
 11
0.9999999999970621
 21
2.424068405545307E-6
 31
0.0
 73
     1
 44
0.60024009603842
  0
ENDBLK
  5
150
330
148
100
AcDbEntity
  8
0
100
AcDbBlockEnd
  0
BLOCK
  5
15A
330
153
100
AcDbEntity
  8
0
100
AcDbBlockBegin
  2
*D59
 70
     1
 71
     0
 10
0.0
 20
0.0
 30
0.0
  3
*D59
  1

  0
LINE
  5
154
330
153
100
AcDbEntity
  8
1
  6
Continuous
 62
     2
100
AcDbLine
 10
586.1917980650253
 20
720.1780821917811
 30
0.0
 11
586.1917980650253
 21
596.1780821917811
 31
0.0
  0
LINE
  5
155
330
153
100
AcDbEntity
  8
1
  6
Continuous
 62
     2
100
AcDbLine
 10
406.3561643835692
 20
596.1780821917811
 30
0.0
 11
591.1917980650253
 21
596.1780821917811
 31
0.0
  0
LINE
  5
156
330
153
100
AcDbEntity
  8
1
  6
Continuous
 62
     2
100
AcDbLine
 10
517.6061643835701
 20
720.1780821917811
 30
0.0
 11
591.1917980650253
 21
720.1780821917811
 31
0.0
  0
SOLID
  5
157
330
153
100
AcDbEntity
  8
1
 62
     2
100
AcDbTrace
 10
588.4957167728047
 20
702.6780821917811
 30
0.0
 11
583.8878793572459
 21
702.6780821917811
 31
0.0
 12
586.1917980650253
 22
720.1780821917811
 32
0.0
 13
586.1917980650253
 23
720.1780821917811
 33
0.0
  0
SOLID
  5
158
330
153
100
AcDbEntity
  8
1
 62
     2
100
AcDbTrace
 10
583.8878793572459
 20
613.6780821917811
 30
0.0
 11
588.4957167728047
 21
613.6780821917811
 31
0.0
 12
586.1917980650253
 22
596.1780821917811
 32
0.0
 13
586.1917980650253
 23
596.1780821917811
 33
0.0
  0
MTEXT
  5
159
330
153
100
AcDbEntity
  8
1
 62
     7
100
AcDbMText
 10
581.1917980650253
 20
639.8030821917811
 30
0.0
 40
17.5
 41
0.0
 71
     7
 72
     1
  1
124
  7
CONVERTER_2
 11
0.0
 21
1.0
 31
0.0
 73
     1
 44
0.60024009603842
  0
ENDBLK
  5
15B
330
153
100
AcDbEntity
  8
0
100
AcDbBlockEnd
  0
BLOCK
  5
163
330
15E
100
AcDbEntity
  8
0
100
AcDbBlockBegin
  2
*D610
 70
     1
 71
     0
 10
0.0
 20
0.0
 30
0.0
  3
*D610
  1

  0
LINE
  5
15F
330
15E
100
AcDbEntity
  8
1
  6
Continuous
 62
     2
100
AcDbLine
 10
232.5282217202954
 20
892.8885286724409
 30
0.0
 11
492.6841070468452
 21
1061.467635711122
 31
0.0
  0
SOLID
  5
160
330
15E
100
AcDbEntity
  8
1
 62
     2
100
AcDbTrace
 10
479.2507669346912
 20
1050.017595761705
 30
0.0
 11
476.7450084930969
 21
1053.884550672304
 31
0.0
 12
492.6841070468452
 22
1061.467635711122
 32
0.0
 13
492.6841070468452
 23
1061.467635711122
 33
0.0
  0
SOLID
  5
161
330
15E
100
AcDbEntity
  8
1
 62
     2
100
AcDbTrace
 10
245.9615618324481
 20
904.3385686218596
 30
0.0
 11
248.4673202740428
 21
900.4716137112613
 31
0.0
 12
232.5282217202954
 22
892.8885286724409
 32
0.0
 13
232.5282217202954
 23
892.8885286724409
 33
0.0
  0
MTEXT
  5
162
330
15E
100
AcDbEntity
  8
1
 62
     7
100
AcDbMText
 10
416.5842988282157
 20
1018.113484021822
 30
0.0
 40
17.5
 41
0.0
 71
     7
 72
     1
  1
\C7;{\Fgdt;n}\C7;310
  7
CONVERTER_2
 11
0.8392125333114506
 21
0.54380357109252
 31
0.0
 73
     1
 44
0.60024009603842
  0
ENDBLK
  5
164
330
15E
100
AcDbEntity
  8
0
100
AcDbBlockEnd
  0
ENDSEC
  0
SECTION
  2
ENTITIES
  0
INSERT
  5
3F
330
1F
100
AcDbEntity
  8
1
100
AcDbBlockReference
  2
HW1022-1-__F_
 10
-804.4999999999998
 20
549.4106181473783
 30
0.0
  0
INSERT
  5
40
330
1F
100
AcDbEntity
  8
1
100
AcDbBlockReference
  2
_J__A4
 10
0.0
 20
0.0
 30
0.0
 41
5.0
 42
5.0
 43
5.0
  0
INSERT
  5
41
330
1F
100
AcDbEntity
  8
1
100
AcDbBlockReference
  2
_J_E______
 10
-1162.19092465753
 20
691.1554811610771
 30
0.0
  0
LINE
  5
FC
330
1F
100
AcDbEntity
  8
1
  6
Continuous
 62
     7
100
AcDbLine
 10
735.0000000000002
 20
362.5000000000001
 30
0.0
 11
695.0000000000002
 21
362.5000000000001
 31
0.0
  0
LINE
  5
FD
330
1F
100
AcDbEntity
  8
1
  6
Continuous
 62
     7
100
AcDbLine
 10
735.0000000000002
 20
257.5
 30
0.0
 11
912.0000000000001
 21
257.5
 31
0.0
  0
LINE
  5
FE
330
1F
100
AcDbEntity
  8
1
  6
Continuous
 62
     2
100
AcDbLine
 10
735.0000000000002
 20
362.5000000000001
 30
0.0
 11
735.0000000000002
 21
257.5
 31
0.0
  0
LINE
  5
FF
330
1F
100
AcDbEntity
  8
1
  6
Continuous
 62
     7
100
AcDbLine
 10
695.0000000000002
 20
292.5
 30
0.0
 11
695.0000000000002
 21
257.5
 31
0.0
  0
LINE
  5
100
330
1F
100
AcDbEntity
  8
1
  6
Continuous
 62
     7
100
AcDbLine
 10
912.0000000000002
 20
292.5
 30
0.0
 11
912.0000000000002
 21
327.5000000000001
 31
0.0
  0
LINE
  5
101
330
1F
100
AcDbEntity
  8
1
  6
Continuous
 62
     2
100
AcDbLine
 10
695.0000000000002
 20
292.5
 30
0.0
 11
912.0000000000002
 21
292.5
 31
0.0
  0
LINE
  5
102
330
1F
100
AcDbEntity
  8
1
  6
Continuous
 62
     7
100
AcDbLine
 10
912.0000000000002
 20
327.5000000000001
 30
0.0
 11
912.0000000000002
 21
362.5000000000001
 31
0.0
  0
LINE
  5
103
330
1F
100
AcDbEntity
  8
1
  6
Continuous
 62
     7
100
AcDbLine
 10
695.0000000000002
 20
327.5000000000001
 30
0.0
 11
695.0000000000002
 21
292.5
 31
0.0
  0
LINE
  5
104
330
1F
100
AcDbEntity
  8
1
  6
Continuous
 62
     2
100
AcDbLine
 10
695.0000000000002
 20
327.5000000000001
 30
0.0
 11
912.0000000000002
 21
327.5000000000001
 31
0.0
  0
LINE
  5
105
330
1F
100
AcDbEntity
  8
1
  6
Continuous
 62
     7
100
AcDbLine
 10
912.0000000000002
 20
362.5000000000001
 30
0.0
 11
735.0000000000002
 21
362.5000000000001
 31
0.0
  0
LINE
  5
106
330
1F
100
AcDbEntity
  8
1
  6
Continuous
 62
     7
100
AcDbLine
 10
912.0000000000001
 20
257.5
 30
0.0
 11
912.0000000000002
 21
292.5
 31
0.0
  0
LINE
  5
107
330
1F
100
AcDbEntity
  8
1
  6
Continuous
 62
     7
100
AcDbLine
 10
695.0000000000002
 20
257.5
 30
0.0
 11
735.0000000000002
 21
257.5
 31
0.0
  0
LINE
  5
108
330
1F
100
AcDbEntity
  8
1
  6
Continuous
 62
     7
100
AcDbLine
 10
695.0000000000002
 20
362.5000000000001
 30
0.0
 11
695.0000000000002
 21
327.5000000000001
 31
0.0
  0
LINE
  5
109
330
1F
100
AcDbEntity
  8
1
  6
DASH_CENTER
 62
     2
100
AcDbLine
 10
192.6061643835702
 20
977.1780821917815
 30
0.0
 11
532.6061643835703
 21
977.1780821917815
 31
0.0
  0
LINE
  5
10A
330
1F
100
AcDbEntity
  8
1
  6
DASH_CENTER
 62
     2
100
AcDbLine
 10
362.6061643835703
 20
807.1780821917815
 30
0.0
 11
362.6061643835703
 21
1147.178082191782
 31
0.0
  0
LINE
  5
10B
330
1F
100
AcDbEntity
  8
1
  6
DASH_CENTER
 62
     2
100
AcDbLine
 10
362.6061643835703
 20
735.1780821917811
 30
0.0
 11
362.6061643835703
 21
581.1780821917811
 31
0.0
  0
LINE
  5
10C
330
1F
100
AcDbEntity
  8
1
  6
DASH_CENTER
 62
     2
100
AcDbLine
 10
805.1061643835706
 20
735.1780821917811
 30
0.0
 11
805.1061643835706
 21
581.1780821917811
 31
0.0
  0
MTEXT
  5
10D
330
1F
100
AcDbEntity
  8
1
 62
     7
100
AcDbMText
 10
715.0000000000002
 20
275.0
 30
0.0
 40
17.5
 41
0.0
 71
     5
 72
     1
  1
黒
  7
CONVERTER_1
 73
     1
 44
0.7202881152461
  0
MTEXT
  5
10E
330
1F
100
AcDbEntity
  8
1
 62
     7
100
AcDbMText
 10
715.0000000000002
 20
310.0000000000001
 30
0.0
 40
17.5
 41
0.0
 71
     5
 72
     1
  1
白
  7
CONVERTER_1
 73
     1
 44
0.7202881152461
  0
MTEXT
  5
10F
330
1F
100
AcDbEntity
  8
1
 62
     7
100
AcDbMText
 10
715.0000000000002
 20
345.0000000000001
 30
0.0
 40
17.5
 41
0.0
 71
     5
 72
     1
  1
色
  7
CONVERTER_1
 73
     1
 44
0.7202881152461
  0
MTEXT
  5
111
330
1F
100
AcDbEntity
  8
1
 62
     7
100
AcDbMText
 10
823.5000000000003
 20
275.0
 30
0.0
 40
17.5
 41
0.0
 71
     5
 72
     1
  1
HW1022-D
  7
CONVERTER_2
 73
     1
 44
0.7202881152461
  0
MTEXT
  5
112
330
1F
100
AcDbEntity
  8
1
 62
     7
100
AcDbMText
 10
823.5000000000003
 20
310.0000000000001
 30
0.0
 40
17.5
 41
0.0
 71
     5
 72
     1
  1
HW1022-W
  7
CONVERTER_2
 73
     1
 44
0.7202881152461
  0
MTEXT
  5
113
330
1F
100
AcDbEntity
  8
1
 62
     7
100
AcDbMText
 10
823.5000000000002
 20
345.0000000000001
 30
0.0
 40
17.5
 41
0.0
 71
     5
 72
     1
  1
品番
  7
CONVERTER_1
 73
     1
 44
0.7202881152461
  0
MTEXT
  5
114
330
1F
100
AcDbEntity
  8
1
 62
     7
100
AcDbMText
 10
285.0
 20
113.7500000000001
 30
0.0
 40
17.5
 41
0.0
 71
     5
 72
     1
  1
手洗器
  7
CONVERTER_1
 73
     1
 44
0.7202881152461
  0
MTEXT
  5
115
330
1F
100
AcDbEntity
  8
1
 62
     7
100
AcDbMText
 10
285.0
 20
71.25
 30
0.0
 40
17.5
 41
0.0
 71
     5
 72
     1
  1
HW1022-色
  7
CONVERTER_1
 73
     1
 44
0.7202881152461
  0
MTEXT
  5
116
330
1F
100
AcDbEntity
  8
1
 62
     7
100
AcDbMText
 10
468.75
 20
85.0
 30
0.0
 40
17.5
 41
0.0
 71
     5
 72
     1
  1
5
  7
CONVERTER_2
 73
     1
 44
0.7202881152461
  0
MTEXT
  5
117
330
1F
100
AcDbEntity
  8
1
 62
     7
100
AcDbMText
 10
426.25
 20
85.0
 30
0.0
 40
17.5
 41
0.0
 71
     5
 72
     1
  1
1
  7
CONVERTER_2
 73
     1
 44
0.7202881152461
  0
DIMENSION
  5
122
330
1F
100
AcDbEntity
  8
1
100
AcDbDimension
  2
*D04
 10
232.6061643835703
 20
506.1780821917811
 30
0.0
 11
362.6061643835703
 21
519.9280821917811
 31
0.0
 70
     1
  1
天板穴径最大寸法^N1^O260
 71
     5
 42
0.0
 53
0.00013888888889
  3
ME10_DIM_0
100
AcDbAlignedDimension
 13
492.6061643835703
 23
662.2634074799424
 33
0.0
 14
232.6061643835703
 24
662.2634074799424
 34
0.0
  0
DIMENSION
  5
12D
330
1F
100
AcDbEntity
  8
1
100
AcDbDimension
  2
*D15
 10
772.6061643835706
 20
678.8291194499532
 30
0.0
 11
805.1061643835706
 21
692.5791194499532
 31
0.0
  1
<>
 71
     5
 42
0.0
 53
0.00013888888889
  3
ME10_DIM_1
100
AcDbAlignedDimension
 13
837.6061643835706
 23
615.1780821917811
 33
0.0
 14
772.6061643835706
 24
615.1780821917811
 34
0.0
100
AcDbRotatedDimension
  0
DIMENSION
  5
13A
330
1F
100
AcDbEntity
  8
1
100
AcDbDimension
  2
*D26
 10
784.6061643835706
 20
641.6207866368241
 30
0.0
 11
805.1061643835706
 21
655.3707866368241
 31
0.0
  1
<>
 71
     5
 42
0.0
 53
0.00013888888889
  3
ME10_DIM_2
100
AcDbAlignedDimension
 13
825.6061643835706
 23
605.1780821917811
 33
0.0
 14
784.6061643835707
 24
605.1780821917811
 34
0.0
100
AcDbRotatedDimension
  0
DIMENSION
  5
147
330
1F
100
AcDbEntity
  8
1
100
AcDbDimension
  2
*D37
 10
785.1061643835706
 20
546.1780821917811
 30
0.0
 11
867.8772814173891
 21
559.9280821917811
 31
0.0
  1
<>
 71
     5
 42
0.0
 53
0.00013888888889
  3
ME10_DIM_3
100
AcDbAlignedDimension
 13
825.1061643835706
 23
596.1780821917811
 33
0.0
 14
785.1061643835706
 24
596.1780821917811
 34
0.0
100
AcDbRotatedDimension
  0
DIMENSION
  5
152
330
1F
100
AcDbEntity
  8
1
100
AcDbDimension
  2
*D48
 10
318.8561643835714
 20
546.1780821917811
 30
0.0
 11
362.6061643835703
 21
559.9280821917811
 31
0.0
 70
     1
  1
{\Fgdt;n}88
 71
     5
 42
0.0
 53
0.00013888888889
  3
ME10_DIM_4
100
AcDbAlignedDimension
 13
406.3561643835691
 23
596.1780821917811
 33
0.0
 14
318.8561643835712
 24
596.1780821917811
 34
0.0
  0
DIMENSION
  5
15D
330
1F
100
AcDbEntity
  8
1
100
AcDbDimension
  2
*D59
 10
586.1917980650253
 20
720.1780821917811
 30
0.0
 11
572.4417980650253
 21
658.1780821917811
 31
0.0
  1
<>
 71
     5
 42
0.0
 53
90.0
  3
ME10_DIM_5
100
AcDbAlignedDimension
 13
406.3561643835691
 23
596.1780821917811
 33
0.0
 14
517.6061643835699
 24
720.1780821917811
 34
0.0
 50
90.0
100
AcDbRotatedDimension
  0
INSERT
  5
165
330
1F
100
AcDbEntity
  8
1
100
AcDbBlockReference
  2
*D610
 10
0.0
 20
0.0
 30
0.0
  0
ENDSEC
  0
SECTION
  2
OBJECTS
  0
DICTIONARY
  5
C
330
0
100
AcDbDictionary
281
     1
  3
ACAD_GROUP
350
D
  3
ACAD_LAYOUT
350
1A
  3
ACAD_MLINESTYLE
350
17
  3
ACAD_PLOTSETTINGS
350
19
  3
ACAD_PLOTSTYLENAME
350
E
  3
ACAD_TABLESTYLE
350
2A
  3
AcDbVariableDictionary
350
2C
  0
DICTIONARY
  5
D
102
{ACAD_REACTORS
330
C
102
}
330
C
100
AcDbDictionary
281
     1
  0
DICTIONARY
  5
1A
102
{ACAD_REACTORS
330
C
102
}
330
C
100
AcDbDictionary
281
     1
  3
Layout1
350
1E
  3
Layout2
350
26
  3
Model
350
22
  0
DICTIONARY
  5
17
102
{ACAD_REACTORS
330
C
102
}
330
C
100
AcDbDictionary
281
     1
  3
Standard
350
18
  0
DICTIONARY
  5
19
102
{ACAD_REACTORS
330
C
102
}
330
C
100
AcDbDictionary
281
     1
  0
ACDBDICTIONARYWDFLT
  5
E
102
{ACAD_REACTORS
330
C
102
}
330
C
100
AcDbDictionary
281
     1
  3
Normal
350
F
100
AcDbDictionaryWithDefault
340
F
  0
DICTIONARY
  5
2A
102
{ACAD_REACTORS
330
C
102
}
330
C
100
AcDbDictionary
281
     1
  3
Standard
350
2B
  0
DICTIONARY
  5
2C
102
{ACAD_REACTORS
330
C
102
}
330
C
100
AcDbDictionary
281
     1
  3
CTABLESTYLE
350
2D
  0
LAYOUT
  5
1E
102
{ACAD_REACTORS
330
1A
102
}
330
1A
100
AcDbPlotSettings
  1

  2

  4

  6

 40
0.0
 41
0.0
 42
0.0
 43
0.0
 44
0.0
 45
0.0
 46
0.0
 47
0.0
 48
0.0
 49
0.0
140
0.0
141
0.0
142
1.0
143
1.0
 70
   688
 72
     0
 73
     0
 74
     5
  7

 75
    16
147
1.0
148
0.0
149
0.0
100
AcDbLayout
  1
Layout1
 70
     1
 71
     1
 10
0.0
 20
0.0
 11
12.0
 21
9.0
 12
0.0
 22
0.0
 32
0.0
 14
1.00000000000000E+20
 24
1.00000000000000E+20
 34
1.00000000000000E+20
 15
-1.00000000000000E+20
 25
-1.00000000000000E+20
 35
-1.00000000000000E+20
146
0.0
 13
0.0
 23
0.0
 33
0.0
 16
1.0
 26
0.0
 36
0.0
 17
0.0
 27
1.0
 37
0.0
 76
     0
330
1B
  0
LAYOUT
  5
26
102
{ACAD_REACTORS
330
1A
102
}
330
1A
100
AcDbPlotSettings
  1

  2

  4

  6

 40
0.0
 41
0.0
 42
0.0
 43
0.0
 44
0.0
 45
0.0
 46
0.0
 47
0.0
 48
0.0
 49
0.0
140
0.0
141
0.0
142
1.0
143
1.0
 70
   688
 72
     0
 73
     0
 74
     5
  7

 75
    16
147
1.0
148
0.0
149
0.0
100
AcDbLayout
  1
Layout2
 70
     1
 71
     2
 10
0.0
 20
0.0
 11
0.0
 21
0.0
 12
0.0
 22
0.0
 32
0.0
 14
0.0
 24
0.0
 34
0.0
 15
0.0
 25
0.0
 35
0.0
146
0.0
 13
0.0
 23
0.0
 33
0.0
 16
1.0
 26
0.0
 36
0.0
 17
0.0
 27
1.0
 37
0.0
 76
     0
330
23
  0
LAYOUT
  5
22
102
{ACAD_REACTORS
330
1A
102
}
330
1A
100
AcDbPlotSettings
  1

  2

  4

  6

 40
0.0
 41
0.0
 42
0.0
 43
0.0
 44
0.0
 45
0.0
 46
0.0
 47
0.0
 48
0.0
 49
0.0
140
0.0
141
0.0
142
1.0
143
1.0
 70
  1712
 72
     0
 73
     0
 74
     0
  7

 75
     0
147
1.0
148
0.0
149
0.0
100
AcDbLayout
  1
Model
 70
     1
 71
     0
 10
0.0
 20
0.0
 11
0.0
 21
0.0
 12
0.0
 22
0.0
 32
0.0
 14
0.0
 24
0.0
 34
0.0
 15
1050.0
 25
1485.0
 35
0.0
146
0.0
 13
0.0
 23
0.0
 33
0.0
 16
1.0
 26
0.0
 36
0.0
 17
0.0
 27
1.0
 37
0.0
 76
     0
330
1F
  0
MLINESTYLE
  5
18
102
{ACAD_REACTORS
330
17
102
}
330
17
100
AcDbMlineStyle
  2
Standard
 70
     0
  3

 62
   256
 51
90.0
 52
90.0
 71
     2
 49
0.5
 62
   256
  6
BYLAYER
 49
-0.5
 62
   256
  6
BYLAYER
  0
ACDBPLACEHOLDER
  5
F
102
{ACAD_REACTORS
330
E
102
}
330
E
  0
TABLESTYLE
  5
2B
102
{ACAD_REACTORS
330
2A
102
}
330
2A
100
AcDbTableStyle
  3
Standard
 70
     0
 71
     0
 40
0.06
 41
0.06
280
     0
281
     0
  7
Standard
140
0.18
170
     2
 62
     0
 63
     7
283
     0
274
    -2
284
     1
 64
     0
275
    -2
285
     1
 65
     0
276
    -2
286
     1
 66
     0
277
    -2
287
     1
 67
     0
278
    -2
288
     1
 68
     0
279
    -2
289
     1
 69
     0
  7
Standard
140
0.25
170
     5
 62
     0
 63
     7
283
     0
274
    -2
284
     1
 64
     0
275
    -2
285
     1
 65
     0
276
    -2
286
     1
 66
     0
277
    -2
287
     1
 67
     0
278
    -2
288
     1
 68
     0
279
    -2
289
     1
 69
     0
  7
Standard
140
0.18
170
     5
 62
     0
 63
     7
283
     0
274
    -2
284
     1
 64
     0
275
    -2
285
     1
 65
     0
276
    -2
286
     1
 66
     0
277
    -2
287
     1
 67
     0
278
    -2
288
     1
 68
     0
279
    -2
289
     1
 69
     0
  0
DICTIONARYVAR
  5
2D
102
{ACAD_REACTORS
330
2C
102
}
330
2C
100
DictionaryVariables
280
     0
  1
Standard
  0
ENDSEC
  0
EOF
