  0
SECTION
  2
HEADER
  9
$ACADVER
  1
AC1015
  9
$ACADMAINTVER
 70
     6
  9
$DWGCODEPAGE
  3
DOS932
  9
$INSBASE
 10
0.0
 20
0.0
 30
0.0
  9
$EXTMIN
 10
0.0
 20
0.0
 30
0.0
  9
$EXTMAX
 10
420.0
 20
594.0
 30
0.0
  9
$LIMMIN
 10
0.0
 20
0.0
  9
$LIMMAX
 10
12.0
 20
9.0
  9
$ORTHOMODE
 70
     0
  9
$REGENMODE
 70
     1
  9
$FILLMODE
 70
     1
  9
$QTEXTMODE
 70
     0
  9
$MIRRTEXT
 70
     1
  9
$LTSCALE
 40
1.0
  9
$ATTMODE
 70
     1
  9
$TEXTSIZE
 40
0.2
  9
$TRACEWID
 40
0.05
  9
$TEXTSTYLE
  7
Standard
  9
$CLAYER
  8
0
  9
$CELTYPE
  6
ByLayer
  9
$CECOLOR
 62
   256
  9
$CELTSCALE
 40
1.0
  9
$DISPSILH
 70
     0
  9
$DIMSCALE
 40
1.0
  9
$DIMASZ
 40
0.18
  9
$DIMEXO
 40
0.0625
  9
$DIMDLI
 40
0.38
  9
$DIMRND
 40
0.0
  9
$DIMDLE
 40
0.0
  9
$DIMEXE
 40
0.18
  9
$DIMTP
 40
0.0
  9
$DIMTM
 40
0.0
  9
$DIMTXT
 40
0.18
  9
$DIMCEN
 40
0.09
  9
$DIMTSZ
 40
0.0
  9
$DIMTOL
 70
     0
  9
$DIMLIM
 70
     0
  9
$DIMTIH
 70
     1
  9
$DIMTOH
 70
     1
  9
$DIMSE1
 70
     0
  9
$DIMSE2
 70
     0
  9
$DIMTAD
 70
     0
  9
$DIMZIN
 70
     0
  9
$DIMBLK
  1

  9
$DIMASO
 70
     1
  9
$DIMSHO
 70
     1
  9
$DIMPOST
  1

  9
$DIMAPOST
  1

  9
$DIMALT
 70
     0
  9
$DIMALTD
 70
     2
  9
$DIMALTF
 40
25.4
  9
$DIMLFAC
 40
1.0
  9
$DIMTOFL
 70
     0
  9
$DIMTVP
 40
0.0
  9
$DIMTIX
 70
     0
  9
$DIMSOXD
 70
     0
  9
$DIMSAH
 70
     0
  9
$DIMBLK1
  1

  9
$DIMBLK2
  1

  9
$DIMSTYLE
  2
Standard
  9
$DIMCLRD
 70
     0
  9
$DIMCLRE
 70
     0
  9
$DIMCLRT
 70
     0
  9
$DIMTFAC
 40
1.0
  9
$DIMGAP
 40
0.09
  9
$DIMJUST
 70
     0
  9
$DIMSD1
 70
     0
  9
$DIMSD2
 70
     0
  9
$DIMTOLJ
 70
     1
  9
$DIMTZIN
 70
     0
  9
$DIMALTZ
 70
     0
  9
$DIMALTTZ
 70
     0
  9
$DIMUPT
 70
     0
  9
$DIMDEC
 70
     4
  9
$DIMTDEC
 70
     4
  9
$DIMALTU
 70
     2
  9
$DIMALTTD
 70
     2
  9
$DIMTXSTY
  7
Standard
  9
$DIMAUNIT
 70
     0
  9
$DIMADEC
 70
     0
  9
$DIMALTRND
 40
0.0
  9
$DIMAZIN
 70
     0
  9
$DIMDSEP
 70
    46
  9
$DIMATFIT
 70
     3
  9
$DIMFRAC
 70
     0
  9
$DIMLDRBLK
  1

  9
$DIMLUNIT
 70
     2
  9
$DIMLWD
 70
    -2
  9
$DIMLWE
 70
    -2
  9
$DIMTMOVE
 70
     0
  9
$LUNITS
 70
     2
  9
$LUPREC
 70
     4
  9
$SKETCHINC
 40
0.1
  9
$FILLETRAD
 40
0.5
  9
$AUNITS
 70
     0
  9
$AUPREC
 70
     0
  9
$MENU
  1
.
  9
$ELEVATION
 40
0.0
  9
$PELEVATION
 40
0.0
  9
$THICKNESS
 40
0.0
  9
$LIMCHECK
 70
     0
  9
$CHAMFERA
 40
0.5
  9
$CHAMFERB
 40
0.5
  9
$CHAMFERC
 40
1.0
  9
$CHAMFERD
 40
0.0
  9
$SKPOLY
 70
     0
  9
$TDCREATE
 40
2456143.678551065
  9
$TDUCREATE
 40
2456143.303551065
  9
$TDUPDATE
 40
2456143.678551076
  9
$TDUUPDATE
 40
2456143.303551076
  9
$TDINDWG
 40
0.0000000116
  9
$TDUSRTIMER
 40
0.0000000116
  9
$USRTIMER
 70
     1
  9
$ANGBASE
 50
0.0
  9
$ANGDIR
 70
     0
  9
$PDMODE
 70
     0
  9
$PDSIZE
 40
0.0
  9
$PLINEWID
 40
0.0
  9
$SPLFRAME
 70
     0
  9
$SPLINETYPE
 70
     6
  9
$SPLINESEGS
 70
     8
  9
$HANDSEED
  5
27E
  9
$SURFTAB1
 70
     6
  9
$SURFTAB2
 70
     6
  9
$SURFTYPE
 70
     6
  9
$SURFU
 70
     6
  9
$SURFV
 70
     6
  9
$UCSBASE
  2

  9
$UCSNAME
  2

  9
$UCSORG
 10
0.0
 20
0.0
 30
0.0
  9
$UCSXDIR
 10
1.0
 20
0.0
 30
0.0
  9
$UCSYDIR
 10
0.0
 20
1.0
 30
0.0
  9
$UCSORTHOREF
  2

  9
$UCSORTHOVIEW
 70
     0
  9
$UCSORGTOP
 10
0.0
 20
0.0
 30
0.0
  9
$UCSORGBOTTOM
 10
0.0
 20
0.0
 30
0.0
  9
$UCSORGLEFT
 10
0.0
 20
0.0
 30
0.0
  9
$UCSORGRIGHT
 10
0.0
 20
0.0
 30
0.0
  9
$UCSORGFRONT
 10
0.0
 20
0.0
 30
0.0
  9
$UCSORGBACK
 10
0.0
 20
0.0
 30
0.0
  9
$PUCSBASE
  2

  9
$PUCSNAME
  2

  9
$PUCSORG
 10
0.0
 20
0.0
 30
0.0
  9
$PUCSXDIR
 10
1.0
 20
0.0
 30
0.0
  9
$PUCSYDIR
 10
0.0
 20
1.0
 30
0.0
  9
$PUCSORTHOREF
  2

  9
$PUCSORTHOVIEW
 70
     0
  9
$PUCSORGTOP
 10
0.0
 20
0.0
 30
0.0
  9
$PUCSORGBOTTOM
 10
0.0
 20
0.0
 30
0.0
  9
$PUCSORGLEFT
 10
0.0
 20
0.0
 30
0.0
  9
$PUCSORGRIGHT
 10
0.0
 20
0.0
 30
0.0
  9
$PUCSORGFRONT
 10
0.0
 20
0.0
 30
0.0
  9
$PUCSORGBACK
 10
0.0
 20
0.0
 30
0.0
  9
$USERI1
 70
     0
  9
$USERI2
 70
     0
  9
$USERI3
 70
     0
  9
$USERI4
 70
     0
  9
$USERI5
 70
     0
  9
$USERR1
 40
13.2
  9
$USERR2
 40
0.0
  9
$USERR3
 40
0.0
  9
$USERR4
 40
0.0
  9
$USERR5
 40
0.0
  9
$WORLDVIEW
 70
     1
  9
$SHADEDGE
 70
     3
  9
$SHADEDIF
 70
    70
  9
$TILEMODE
 70
     1
  9
$MAXACTVP
 70
    64
  9
$PINSBASE
 10
0.0
 20
0.0
 30
0.0
  9
$PLIMCHECK
 70
     0
  9
$PEXTMIN
 10
1.00000000000000E+20
 20
1.00000000000000E+20
 30
1.00000000000000E+20
  9
$PEXTMAX
 10
-1.00000000000000E+20
 20
-1.00000000000000E+20
 30
-1.00000000000000E+20
  9
$PLIMMIN
 10
0.0
 20
0.0
  9
$PLIMMAX
 10
12.0
 20
9.0
  9
$UNITMODE
 70
     0
  9
$VISRETAIN
 70
     1
  9
$PLINEGEN
 70
     0
  9
$PSLTSCALE
 70
     1
  9
$TREEDEPTH
 70
  3020
  9
$CMLSTYLE
  2
Standard
  9
$CMLJUST
 70
     0
  9
$CMLSCALE
 40
1.0
  9
$PROXYGRAPHICS
 70
     1
  9
$MEASUREMENT
 70
     1
  9
$CELWEIGHT
370
    -1
  9
$ENDCAPS
280
     0
  9
$JOINSTYLE
280
     0
  9
$LWDISPLAY
290
     0
  9
$INSUNITS
 70
     1
  9
$HYPERLINKBASE
  1

  9
$STYLESHEET
  1

  9
$XEDIT
290
     1
  9
$CEPSNTYPE
380
     0
  9
$PSTYLEMODE
290
     0
  9
$FINGERPRINTGUID
  2
{FAEB1C30-E019-11D5-929B-00C0DF256EC4}
  9
$VERSIONGUID
  2
{FAEB1C32-E019-11D5-929B-00C0DF256EC4}
  9
$EXTNAMES
290
     1
  9
$PSVPSCALE
 40
0.0
  9
$OLESTARTUP
290
     0
  0
ENDSEC
  0
SECTION
  2
CLASSES
  0
CLASS
  1
ACDBDICTIONARYWDFLT
  2
AcDbDictionaryWithDefault
  3
ObjectDBX Classes
 90
        0
280
     0
281
     0
  0
CLASS
  1
TABLESTYLE
  2
AcDbTableStyle
  3
ObjectDBX Classes
 90
     2047
280
     0
281
     0
  0
CLASS
  1
DICTIONARYVAR
  2
AcDbDictionaryVar
  3
ObjectDBX Classes
 90
        0
280
     0
281
     0
  0
CLASS
  1

  2
exOdDbSpline
  3

 90
        0
280
     0
281
     1
  0
CLASS
  1

  2
exOdDbCircle
  3

 90
        0
280
     0
281
     1
  0
CLASS
  1

  2
exOdDbPolyline
  3

 90
        0
280
     0
281
     1
  0
CLASS
  1
ACDBPLACEHOLDER
  2
AcDbPlaceHolder
  3
ObjectDBX Classes
 90
        0
280
     0
281
     0
  0
CLASS
  1
LAYOUT
  2
AcDbLayout
  3
ObjectDBX Classes
 90
        0
280
     0
281
     0
  0
ENDSEC
  0
SECTION
  2
TABLES
  0
TABLE
  2
VPORT
  5
8
330
0
100
AcDbSymbolTable
 70
     2
  0
VPORT
  5
29
330
8
100
AcDbSymbolTableRecord
100
AcDbViewportTableRecord
  2
*Active
 70
     0
 10
0.0
 20
0.0
 11
1.0
 21
1.0
 12
210.0
 22
297.0
 13
0.0
 23
0.0
 14
0.5
 24
0.5
 15
0.5
 25
0.5
 16
0.0
 26
0.0
 36
1.0
 17
0.0
 27
0.0
 37
0.0
 40
653.4000000000001
 41
1.60267857142857
 42
50.0
 43
0.0
 44
0.0
 50
0.0
 51
0.0
 71
     0
 72
   100
 73
     1
 74
     3
 75
     0
 76
     0
 77
     0
 78
     0
281
     0
 65
     1
110
0.0
120
0.0
130
0.0
111
1.0
121
0.0
131
0.0
112
0.0
122
1.0
132
0.0
 79
     0
146
0.0
  0
ENDTAB
  0
TABLE
  2
LTYPE
  5
5
330
0
100
AcDbSymbolTable
 70
     8
  0
LTYPE
  5
14
330
5
100
AcDbSymbolTableRecord
100
AcDbLinetypeTableRecord
  2
ByBlock
 70
     0
  3

 72
    65
 73
     0
 40
0.0
  0
LTYPE
  5
15
330
5
100
AcDbSymbolTableRecord
100
AcDbLinetypeTableRecord
  2
ByLayer
 70
     0
  3

 72
    65
 73
     0
 40
0.0
  0
LTYPE
  5
16
330
5
100
AcDbSymbolTableRecord
100
AcDbLinetypeTableRecord
  2
Continuous
 70
     0
  3
Solid line
 72
    65
 73
     0
 40
0.0
  0
LTYPE
  5
2E
330
5
100
AcDbSymbolTableRecord
100
AcDbLinetypeTableRecord
  2
DASHED
 70
     0
  3
Dashed
 72
    65
 73
     2
 40
15.0
 49
7.0
 74
     0
 49
-8.0
 74
     0
  0
LTYPE
  5
2F
330
5
100
AcDbSymbolTableRecord
100
AcDbLinetypeTableRecord
  2
DOTTED
 70
     0
  3
Dotted
 72
    65
 73
     2
 40
1.0
 49
0.0
 74
     0
 49
-1.0
 74
     0
  0
LTYPE
  5
30
330
5
100
AcDbSymbolTableRecord
100
AcDbLinetypeTableRecord
  2
DOT_CENTER
 70
     0
  3
Dot_Center
 72
    65
 73
     4
 40
14.0
 49
12.0
 74
     0
 49
-1.0
 74
     0
 49
0.0
 74
     0
 49
-1.0
 74
     0
  0
LTYPE
  5
31
330
5
100
AcDbSymbolTableRecord
100
AcDbLinetypeTableRecord
  2
LONG_DASHED
 70
     0
  3
Long_Dashed
 72
    65
 73
     2
 40
15.0
 49
10.0
 74
     0
 49
-5.0
 74
     0
  0
LTYPE
  5
32
330
5
100
AcDbSymbolTableRecord
100
AcDbLinetypeTableRecord
  2
DASH_CENTER
 70
     0
  3
Dash_Center
 72
    65
 73
     4
 40
14.0
 49
11.0
 74
     0
 49
-1.0
 74
     0
 49
1.0
 74
     0
 49
-1.0
 74
     0
  0
LTYPE
  5
33
330
5
100
AcDbSymbolTableRecord
100
AcDbLinetypeTableRecord
  2
PHANTOM
 70
     0
  3
Phantom
 72
    65
 73
     6
 40
13.0
 49
10.0
 74
     0
 49
-1.0
 74
     0
 49
0.0
 74
     0
 49
-1.0
 74
     0
 49
0.0
 74
     0
 49
-1.0
 74
     0
  0
LTYPE
  5
34
330
5
100
AcDbSymbolTableRecord
100
AcDbLinetypeTableRecord
  2
CENTER_DASH_DASH
 70
     0
  3
Center_Dash_Dash
 72
    65
 73
     6
 40
14.0
 49
9.0
 74
     0
 49
-1.0
 74
     0
 49
1.0
 74
     0
 49
-1.0
 74
     0
 49
1.0
 74
     0
 49
-1.0
 74
     0
  0
ENDTAB
  0
TABLE
  2
LAYER
  5
2
330
0
100
AcDbSymbolTable
 70
     4
  0
LAYER
  5
10
330
2
100
AcDbSymbolTableRecord
100
AcDbLayerTableRecord
  2
0
 70
     0
 62
     7
  6
Continuous
370
    -3
390
F
  0
LAYER
  5
35
330
2
100
AcDbSymbolTableRecord
100
AcDbLayerTableRecord
  2
1
 70
     0
 62
     7
  6
Continuous
370
    -3
390
F
  0
LAYER
  5
36
330
2
100
AcDbSymbolTableRecord
100
AcDbLayerTableRecord
  2
______
 70
     0
 62
     7
  6
Continuous
370
    -3
390
F
  0
LAYER
  5
37
330
2
100
AcDbSymbolTableRecord
100
AcDbLayerTableRecord
  2
_______C____
 70
     0
 62
     7
  6
Continuous
370
    -3
390
F
  0
ENDTAB
  0
TABLE
  2
STYLE
  5
3
330
0
100
AcDbSymbolTable
 70
     3
  0
STYLE
  5
11
330
3
100
AcDbSymbolTableRecord
100
AcDbTextStyleTableRecord
  2
Standard
 70
     0
 40
0.0
 41
1.0
 50
0.0
 71
     0
 42
0.2
  3
txt
  4

  0
STYLE
  5
1B3
330
3
100
AcDbSymbolTableRecord
100
AcDbTextStyleTableRecord
  2
CONVERTER_1
 70
     0
 40
0.0
 41
0.89
 50
0.0
 71
     0
 42
0.2
  3
msmincho.ttc
  4

1001
ACAD
1000
MS Mincho
1071
    32785
  0
STYLE
  5
1F9
330
3
100
AcDbSymbolTableRecord
100
AcDbTextStyleTableRecord
  2
CONVERTER_2
 70
     0
 40
0.0
 41
0.9
 50
0.0
 71
     0
 42
0.2
  3
txt.shx
  4

  0
ENDTAB
  0
TABLE
  2
VIEW
  5
6
330
0
100
AcDbSymbolTable
 70
     0
  0
ENDTAB
  0
TABLE
  2
UCS
  5
7
330
0
100
AcDbSymbolTable
 70
     0
  0
ENDTAB
  0
TABLE
  2
APPID
  5
9
330
0
100
AcDbSymbolTable
 70
     1
  0
APPID
  5
12
330
9
100
AcDbSymbolTableRecord
100
AcDbRegAppTableRecord
  2
ACAD
 70
     0
  0
ENDTAB
  0
TABLE
  2
DIMSTYLE
  5
A
330
0
100
AcDbSymbolTable
 70
    11
100
AcDbDimStyleTable
  0
DIMSTYLE
105
27
330
A
100
AcDbSymbolTableRecord
100
AcDbDimStyleTableRecord
  2
Standard
 70
     0
340
11
  0
DIMSTYLE
105
210
102
{ACAD_REACTORS
330
211
102
}
330
A
100
AcDbSymbolTableRecord
100
AcDbDimStyleTableRecord
  2
ME10_DIM_0
 70
     0
 41
7.0
 42
0.0
 44
2.0
 73
     0
 74
     0
 77
     1
 78
     8
140
7.0
147
0.625
172
     1
173
     1
176
     2
177
     2
178
     7
271
     2
340
1B3
  0
DIMSTYLE
105
21B
102
{ACAD_REACTORS
330
21C
102
}
330
A
100
AcDbSymbolTableRecord
100
AcDbDimStyleTableRecord
  2
ME10_DIM_1
 70
     0
 41
7.0
 42
0.0
 44
2.0
 73
     0
 74
     0
 77
     1
 78
     8
140
7.0
147
0.625
172
     1
173
     1
176
     2
177
     2
178
     7
271
     2
340
1F9
  0
DIMSTYLE
105
226
102
{ACAD_REACTORS
330
227
102
}
330
A
100
AcDbSymbolTableRecord
100
AcDbDimStyleTableRecord
  2
ME10_DIM_2
 70
     0
 41
7.0
 42
0.0
 44
2.0
 73
     0
 74
     0
 77
     1
 78
     8
140
7.0
147
0.625
172
     1
173
     1
176
     2
177
     2
178
     7
271
     2
340
1F9
  0
DIMSTYLE
105
231
102
{ACAD_REACTORS
330
232
102
}
330
A
100
AcDbSymbolTableRecord
100
AcDbDimStyleTableRecord
  2
ME10_DIM_3
 70
     0
 41
7.0
 42
0.0
 44
2.0
 73
     0
 74
     0
 77
     1
 78
     8
140
7.0
147
0.625
172
     1
173
     1
176
     2
177
     2
178
     7
271
     2
340
1F9
  0
DIMSTYLE
105
23C
102
{ACAD_REACTORS
330
23D
102
}
330
A
100
AcDbSymbolTableRecord
100
AcDbDimStyleTableRecord
  2
ME10_DIM_4
 70
     0
 41
7.0
 42
0.0
 44
2.0
 73
     0
 74
     0
 77
     1
 78
     8
140
7.0
147
0.625
172
     1
173
     1
176
     2
177
     2
178
     7
271
     2
340
1F9
  0
DIMSTYLE
105
248
102
{ACAD_REACTORS
330
249
102
}
330
A
100
AcDbSymbolTableRecord
100
AcDbDimStyleTableRecord
  2
ME10_DIM_5
 70
     0
  3
{\Fgdt;n}<>
 41
7.0
 42
0.0
 44
2.0
 73
     0
 74
     0
 77
     1
 78
     8
140
7.0
147
0.625
172
     1
173
     1
176
     2
177
     2
178
     7
271
     2
340
1F9
  0
DIMSTYLE
105
253
102
{ACAD_REACTORS
330
254
102
}
330
A
100
AcDbSymbolTableRecord
100
AcDbDimStyleTableRecord
  2
ME10_DIM_6
 70
     0
 41
7.0
 42
0.0
 44
2.0
 73
     0
 74
     0
 77
     1
 78
     8
140
7.0
147
0.625
172
     1
173
     1
176
     2
177
     2
178
     7
271
     2
340
1F9
  0
DIMSTYLE
105
25E
102
{ACAD_REACTORS
330
25F
102
}
330
A
100
AcDbSymbolTableRecord
100
AcDbDimStyleTableRecord
  2
ME10_DIM_7
 70
     0
 41
7.0
 42
0.0
 44
2.0
 73
     0
 74
     0
 77
     1
 78
     8
140
7.0
147
0.625
172
     1
173
     1
176
     2
177
     2
178
     7
271
     2
340
1F9
  0
DIMSTYLE
105
26B
102
{ACAD_REACTORS
330
26C
102
}
330
A
100
AcDbSymbolTableRecord
100
AcDbDimStyleTableRecord
  2
ME10_DIM_8
 70
     0
  3
{\Fgdt;n}<>
 41
7.0
 42
0.0
 44
2.0
 73
     0
 74
     0
 77
     1
 78
     8
140
7.0
147
0.625
172
     1
173
     1
176
     2
177
     2
178
     7
271
     2
340
1F9
  0
DIMSTYLE
105
278
102
{ACAD_REACTORS
330
279
102
}
330
A
100
AcDbSymbolTableRecord
100
AcDbDimStyleTableRecord
  2
ME10_DIM_9
 70
     0
 41
7.0
 42
0.0
 44
2.0
 73
     0
 74
     0
 77
     1
 78
     8
140
7.0
147
0.625
172
     1
173
     1
176
     2
177
     2
178
     7
271
     2
340
1F9
  0
ENDTAB
  0
TABLE
  2
BLOCK_RECORD
  5
1
330
0
100
AcDbSymbolTable
 70
    28
  0
BLOCK_RECORD
  5
1F
330
1
100
AcDbSymbolTableRecord
100
AcDbBlockTableRecord
  2
*Model_Space
340
22
  0
BLOCK_RECORD
  5
1B
330
1
100
AcDbSymbolTableRecord
100
AcDbBlockTableRecord
  2
*Paper_Space
340
1E
  0
BLOCK_RECORD
  5
23
330
1
100
AcDbSymbolTableRecord
100
AcDbBlockTableRecord
  2
*Paper_Space0
340
26
  0
BLOCK_RECORD
  5
38
330
1
100
AcDbSymbolTableRecord
100
AcDbBlockTableRecord
  2
30-87
340
0
102
{BLKREFS
331
3C
102
}
  0
BLOCK_RECORD
  5
3B
330
1
100
AcDbSymbolTableRecord
100
AcDbBlockTableRecord
  2
Top
340
0
102
{BLKREFS
331
6E
102
}
  0
BLOCK_RECORD
  5
3F
330
1
100
AcDbSymbolTableRecord
100
AcDbBlockTableRecord
  2
1
340
0
102
{BLKREFS
331
43
102
}
  0
BLOCK_RECORD
  5
42
330
1
100
AcDbSymbolTableRecord
100
AcDbBlockTableRecord
  2
87-155
340
0
102
{BLKREFS
331
6F
102
}
  0
BLOCK_RECORD
  5
46
330
1
100
AcDbSymbolTableRecord
100
AcDbBlockTableRecord
  2
06-62-C2
340
0
102
{BLKREFS
331
70
102
}
  0
BLOCK_RECORD
  5
49
330
1
100
AcDbSymbolTableRecord
100
AcDbBlockTableRecord
  2
30-261-M1
340
0
102
{BLKREFS
331
71
102
}
  0
BLOCK_RECORD
  5
4C
330
1
100
AcDbSymbolTableRecord
100
AcDbBlockTableRecord
  2
31-87
340
0
102
{BLKREFS
331
72
102
}
  0
BLOCK_RECORD
  5
4F
330
1
100
AcDbSymbolTableRecord
100
AcDbBlockTableRecord
  2
37-338-M11
340
0
102
{BLKREFS
331
73
102
}
  0
BLOCK_RECORD
  5
52
330
1
100
AcDbSymbolTableRecord
100
AcDbBlockTableRecord
  2
98-190
340
0
102
{BLKREFS
331
74
102
}
  0
BLOCK_RECORD
  5
55
330
1
100
AcDbSymbolTableRecord
100
AcDbBlockTableRecord
  2
92-53
340
0
102
{BLKREFS
331
75
102
}
  0
BLOCK_RECORD
  5
58
330
1
100
AcDbSymbolTableRecord
100
AcDbBlockTableRecord
  2
73-1-21_5
340
0
102
{BLKREFS
331
76
102
}
  0
BLOCK_RECORD
  5
5B
330
1
100
AcDbSymbolTableRecord
100
AcDbBlockTableRecord
  2
32-35
340
0
102
{BLKREFS
331
77
102
}
  0
BLOCK_RECORD
  5
5E
330
1
100
AcDbSymbolTableRecord
100
AcDbBlockTableRecord
  2
32-16
340
0
102
{BLKREFS
331
78
102
}
  0
BLOCK_RECORD
  5
61
330
1
100
AcDbSymbolTableRecord
100
AcDbBlockTableRecord
  2
84-55
340
0
102
{BLKREFS
331
79
102
}
  0
BLOCK_RECORD
  5
64
330
1
100
AcDbSymbolTableRecord
100
AcDbBlockTableRecord
  2
_J__A4
340
0
102
{BLKREFS
331
7A
102
}
  0
BLOCK_RECORD
  5
67
330
1
100
AcDbSymbolTableRecord
100
AcDbBlockTableRecord
  2
A9358__1
340
0
102
{BLKREFS
331
6B
102
}
  0
BLOCK_RECORD
  5
6A
330
1
100
AcDbSymbolTableRecord
100
AcDbBlockTableRecord
  2
A9358__2
340
0
102
{BLKREFS
331
7B
102
}
  0
BLOCK_RECORD
  5
205
330
1
100
AcDbSymbolTableRecord
100
AcDbBlockTableRecord
  2
*D018
340
0
  0
BLOCK_RECORD
  5
212
330
1
100
AcDbSymbolTableRecord
100
AcDbBlockTableRecord
  2
*D119
340
0
  0
BLOCK_RECORD
  5
21D
330
1
100
AcDbSymbolTableRecord
100
AcDbBlockTableRecord
  2
*D220
340
0
  0
BLOCK_RECORD
  5
228
330
1
100
AcDbSymbolTableRecord
100
AcDbBlockTableRecord
  2
*D321
340
0
  0
BLOCK_RECORD
  5
233
330
1
100
AcDbSymbolTableRecord
100
AcDbBlockTableRecord
  2
*D422
340
0
  0
BLOCK_RECORD
  5
23E
330
1
100
AcDbSymbolTableRecord
100
AcDbBlockTableRecord
  2
*D523
340
0
  0
BLOCK_RECORD
  5
24A
330
1
100
AcDbSymbolTableRecord
100
AcDbBlockTableRecord
  2
*D624
340
0
  0
BLOCK_RECORD
  5
255
330
1
100
AcDbSymbolTableRecord
100
AcDbBlockTableRecord
  2
*D725
340
0
  0
BLOCK_RECORD
  5
260
330
1
100
AcDbSymbolTableRecord
100
AcDbBlockTableRecord
  2
*D826
340
0
  0
BLOCK_RECORD
  5
26D
330
1
100
AcDbSymbolTableRecord
100
AcDbBlockTableRecord
  2
*D927
340
0
  0
ENDTAB
  0
ENDSEC
  0
SECTION
  2
BLOCKS
  0
BLOCK
  5
20
330
1F
100
AcDbEntity
  8
0
100
AcDbBlockBegin
  2
*Model_Space
 70
     0
 71
     0
 10
0.0
 20
0.0
 30
0.0
  3
*Model_Space
  1

  0
ENDBLK
  5
21
330
1F
100
AcDbEntity
  8
0
100
AcDbBlockEnd
  0
BLOCK
  5
1C
330
1B
100
AcDbEntity
 67
     1
  8
0
100
AcDbBlockBegin
  2
*Paper_Space
 70
     0
 71
     0
 10
0.0
 20
0.0
 30
0.0
  3
*Paper_Space
  1

  0
ENDBLK
  5
1D
330
1B
100
AcDbEntity
 67
     1
  8
0
100
AcDbBlockEnd
  0
BLOCK
  5
24
330
23
100
AcDbEntity
  8
0
100
AcDbBlockBegin
  2
*Paper_Space0
 70
     0
 71
     0
 10
0.0
 20
0.0
 30
0.0
  3
*Paper_Space0
  1

  0
ENDBLK
  5
25
330
23
100
AcDbEntity
  8
0
100
AcDbBlockEnd
  0
BLOCK
  5
39
330
38
100
AcDbEntity
  8
0
100
AcDbBlockBegin
  2
30-87
 70
     0
 71
     0
 10
565.8677241985889
 20
480.9575411246539
 30
0.0
  3
30-87
  1

  0
LINE
  5
7C
330
38
100
AcDbEntity
  8
0
  6
Continuous
 62
     7
100
AcDbLine
 10
194.468079276902
 20
414.702157031593
 30
0.0
 11
201.5856045517727
 21
432.3186502682822
 31
0.0
  0
LINE
  5
7D
330
38
100
AcDbEntity
  8
0
  6
Continuous
 62
     7
100
AcDbLine
 10
192.6582042347018
 20
414.894126642788
 30
0.0
 11
192.6582042347027
 21
414.89412664279
 31
0.0
  0
LINE
  5
7E
330
38
100
AcDbEntity
  8
0
  6
Continuous
 62
     7
100
AcDbLine
 10
185.4725293618108
 20
417.7973277417611
 30
0.0
 11
193.8171840529103
 21
414.4258684010208
 31
0.0
  0
LINE
  5
7F
330
38
100
AcDbEntity
  8
0
  6
Continuous
 62
     7
100
AcDbLine
 10
177.1278746707113
 20
421.1687870825052
 30
0.0
 11
185.4725293618108
 21
417.7973277417611
 31
0.0
  0
LINE
  5
80
330
38
100
AcDbEntity
  8
0
  6
Continuous
 62
     7
100
AcDbLine
 10
183.9691113150371
 20
439.4361755432639
 30
0.0
 11
176.8515860401359
 21
421.8196823064965
 31
0.0
  0
LINE
  5
81
330
38
100
AcDbEntity
  8
0
  6
Continuous
 62
     7
100
AcDbLine
 10
184.620006539029
 20
439.7124641738401
 30
0.0
 11
201.3093159211995
 21
432.9695454922726
 31
0.0
  0
LINE
  5
82
330
38
100
AcDbEntity
  8
1
  6
Continuous
 62
     7
100
AcDbLine
 10
185.4725293618108
 20
560.3410299949077
 30
0.0
 11
192.9646612301179
 21
560.3410299949077
 31
0.0
  0
LINE
  5
83
330
38
100
AcDbEntity
  8
1
  6
Continuous
 62
     7
100
AcDbLine
 10
185.4725293618108
 20
541.3410299949074
 30
0.0
 11
192.9646612301179
 21
541.3410299949074
 31
0.0
  0
SPLINE
  5
84
330
38
100
AcDbEntity
  8
1
  6
Continuous
 62
     7
100
AcDbSpline
210
0.0
220
0.0
230
1.0
 70
     8
 71
     3
 72
    43
 73
    39
 74
    37
 42
0.0000000001
 43
0.0000000001
 44
0.00000001
 40
0.0
 40
0.0
 40
0.0
 40
0.0
 40
0.770868476881062
 40
1.541703786926289
 40
2.317888390449136
 40
3.094012842828054
 40
3.878262806414258
 40
4.662435964184679
 40
5.456464110061896
 40
6.250410360603152
 40
7.054712789028648
 40
7.85893861173103
 40
8.672777180260669
 40
9.486552380512077
 40
10.30808158798583
 40
11.12956600143352
 40
11.95607264471439
 40
12.78255618889362
 40
13.61077688213861
 40
14.43899757538359
 40
15.26548111956305
 40
16.09198776284369
 40
16.9134721762914
 40
17.73500138376516
 40
18.54877658401667
 40
19.3626151525461
 40
20.16684097524862
 40
20.97114340367404
 40
21.76508965421522
 40
22.55911780009251
 40
23.34329095786291
 40
24.12754092144906
 40
24.90366537382802
 40
25.67984997735091
 40
26.45068528739611
 40
27.22155376427726
 40
27.60659015240664
 40
27.9907696134618
 40
27.9907696134618
 40
27.9907696134618
 40
27.9907696134618
 10
192.1965168086549
 20
560.3047212662864
 30
0.0
 10
191.9412516714048
 20
560.2736522886942
 30
0.0
 10
191.4307323797599
 20
560.2115156702618
 30
0.0
 10
190.6787118474385
 20
560.0269466539893
 30
0.0
 10
189.9444182718471
 20
559.77831452895
 30
0.0
 10
189.2326228868733
 20
559.4592330502642
 30
0.0
 10
188.5503270612554
 20
559.0759741270371
 30
0.0
 10
187.9008602579216
 20
558.628757794025
 30
0.0
 10
187.2911116295873
 20
558.1236943279539
 30
0.0
 10
186.7237550553729
 20
557.561901146137
 30
0.0
 10
186.2048821216881
 20
556.9505898121616
 30
0.0
 10
185.7367902097379
 20
556.2914642605063
 30
0.0
 10
185.3243339535586
 20
555.5925066959671
 30
0.0
 10
184.9695691795572
 20
554.8561949855864
 30
0.0
 10
184.6758686195859
 20
554.0907419289223
 30
0.0
 10
184.4450197836739
 20
553.299646416418
 30
0.0
 10
184.2788789902674
 20
552.4907948400526
 30
0.0
 10
184.1787811542185
 20
551.6688941266845
 30
0.0
 10
184.1452196000383
 20
550.8410299949101
 30
0.0
 10
184.1787811542177
 20
550.013165863121
 30
0.0
 10
184.2788789902703
 20
549.1912651497959
 30
0.0
 10
184.4450197836625
 20
548.3824135732732
 30
0.0
 10
184.6758686196279
 20
547.5913180613513
 30
0.0
 10
184.9695691794011
 20
546.8258650025239
 30
0.0
 10
185.3243339541356
 20
546.0895533001436
 30
0.0
 10
185.7367902075941
 20
545.3905957059219
 30
0.0
 10
186.2048821295844
 20
544.7314702637932
 30
0.0
 10
186.7237550260494
 20
544.1201585237893
 30
0.0
 10
187.2911117374637
 20
543.5583668386834
 30
0.0
 10
187.9008598572133
 20
543.0532978244694
 30
0.0
 10
188.5503285361729
 20
542.6061019526312
 30
0.0
 10
189.2326174036181
 20
542.2227671228009
 30
0.0
 10
189.9444385009436
 20
541.903966139781
 30
0.0
 10
190.6786365385367
 20
541.6542917921308
 30
0.0
 10
191.4310112922469
 20
541.4735869717522
 30
0.0
 10
192.0679315391428
 20
541.3839334409264
 30
0.0
 10
192.5801546133976
 20
541.3462987692366
 30
0.0
 10
192.8365875822861
 20
541.3427849481871
 30
0.0
 10
192.9646612301299
 20
541.3410299949076
 30
0.0
 11
192.1965168086549
 21
560.3047212662864
 31
0.0
 11
191.4333029347572
 21
560.1963571055185
 31
0.0
 11
190.6836601074747
 21
560.0168502624276
 31
0.0
 11
189.9488405403803
 21
559.7668447773656
 31
0.0
 11
189.2403561453007
 21
559.4499551632897
 31
0.0
 11
188.5566188584631
 21
559.0658310583796
 31
0.0
 11
187.9105312865087
 21
558.6214231480835
 31
0.0
 11
187.2989849066779
 21
558.1149730303414
 31
0.0
 11
186.7345674654233
 21
557.5565971705873
 31
0.0
 11
186.2140097075612
 21
556.9434723732575
 31
0.0
 11
185.7480935227106
 21
556.287956330284
 31
0.0
 11
185.3343965057064
 21
555.5871082770312
 31
0.0
 11
184.9809402813251
 21
554.8541016099467
 31
0.0
 11
184.6865710803969
 21
554.0871224627222
 31
0.0
 11
184.4562741627856
 21
553.2985795207867
 31
0.0
 11
184.2899525819412
 21
552.4889806305127
 31
0.0
 11
184.1899249690431
 21
551.6685724848578
 31
0.0
 11
184.1564146117464
 21
550.8410299949076
 31
0.0
 11
184.189924969043
 21
550.0134875049573
 31
0.0
 11
184.2899525819411
 21
549.1930793593022
 31
0.0
 11
184.4562741627856
 21
548.3834804690284
 31
0.0
 11
184.6865710803969
 21
547.594937527093
 31
0.0
 11
184.9809402813251
 21
546.8279583798684
 31
0.0
 11
185.3343965057064
 21
546.0949517127838
 31
0.0
 11
185.7480935227106
 21
545.3941036595312
 31
0.0
 11
186.2140097075613
 21
544.7385876165577
 31
0.0
 11
186.7345674654232
 21
544.1254628192278
 31
0.0
 11
187.2989849066778
 21
543.5670869594738
 31
0.0
 11
187.9105312865087
 21
543.0606368417316
 31
0.0
 11
188.5566188584631
 21
542.6162289314357
 31
0.0
 11
189.2403561453006
 21
542.2321048265255
 31
0.0
 11
189.9488405403802
 21
541.9152152124494
 31
0.0
 11
190.6836601074747
 21
541.6652097273875
 31
0.0
 11
191.4333029347571
 21
541.4857028842968
 31
0.0
 11
192.196516808655
 21
541.3773387235289
 31
0.0
 11
192.5805890193925
 21
541.3501071770627
 31
0.0
 11
192.9646612301299
 21
541.3410299949076
 31
0.0
  0
SPLINE
  5
85
330
38
100
AcDbEntity
  8
1
  6
Continuous
 62
     7
100
AcDbSpline
210
0.0
220
0.0
230
1.0
 70
     8
 71
     3
 72
     9
 73
     5
 74
     3
 42
0.0000000001
 43
0.0000000001
 44
0.00000001
 40
0.0
 40
0.0
 40
0.0
 40
0.0
 40
0.0283596151050263
 40
0.0567188847558681
 40
0.0567188847558681
 40
0.0567188847558681
 40
0.0567188847558681
 10
193.02137968303
 20
560.3408320364632
 30
0.0
 10
193.0119266363284
 20
560.3408897743429
 30
0.0
 10
192.9930206580745
 20
560.3410052493987
 30
0.0
 10
192.9741143343693
 20
560.3410217464383
 30
0.0
 10
192.9646612300924
 20
560.3410299949078
 30
0.0
 11
193.02137968303
 21
560.3408320364632
 31
0.0
 11
192.9930204565612
 21
560.3409805052966
 31
0.0
 11
192.9646612300924
 21
560.3410299949078
 31
0.0
  0
SPLINE
  5
86
330
38
100
AcDbEntity
  8
1
  6
Continuous
 62
     7
100
AcDbSpline
210
0.0
220
0.0
230
1.0
 70
     8
 71
     3
 72
    43
 73
    39
 74
    37
 42
0.0000000001
 43
0.0000000001
 44
0.00000001
 40
0.0
 40
0.0
 40
0.0
 40
0.0
 40
0.7708684768821594
 40
1.541703786928491
 40
2.317888390452306
 40
3.094012842832257
 40
3.878262806419278
 40
4.662435964190432
 40
5.456464110068327
 40
6.250410360610189
 40
7.054712789036127
 40
7.858938611739155
 40
8.67277718026876
 40
9.486552380520582
 40
10.30808158799436
 40
11.12956600144227
 40
11.95607264472309
 40
12.78255618890233
 40
13.61077688214732
 40
14.43899757539231
 40
15.26548111957178
 40
16.09198776285269
 40
16.91347217630047
 40
17.73500138377417
 40
18.54877658402581
 40
19.36261515255561
 40
20.16684097525859
 40
20.97114340368442
 40
21.76508965422626
 40
22.55911780010418
 40
23.34329095787551
 40
24.12754092146242
 40
24.9036653738423
 40
25.67984997736623
 40
26.45068528741257
 40
27.2215537642947
 40
27.60659015241924
 40
27.99076961346955
 40
27.99076961346955
 40
27.99076961346955
 40
27.99076961346955
 10
184.7043849403467
 20
560.3047212662865
 30
0.0
 10
184.4491198030962
 20
560.2736522886944
 30
0.0
 10
183.9386005114507
 20
560.2115156702621
 30
0.0
 10
183.186579979128
 20
560.0269466539891
 30
0.0
 10
182.4522864035357
 20
559.7783145289501
 30
0.0
 10
181.7404910185609
 20
559.4592330502643
 30
0.0
 10
181.058195192942
 20
559.0759741270368
 30
0.0
 10
180.4087283896072
 20
558.6287577940252
 30
0.0
 10
179.798979761272
 20
558.1236943279539
 30
0.0
 10
179.2316231870568
 20
557.561901146137
 30
0.0
 10
178.7127502533712
 20
556.9505898121615
 30
0.0
 10
178.2446583414205
 20
556.2914642605063
 30
0.0
 10
177.8322020852403
 20
555.5925066959671
 30
0.0
 10
177.4774373112387
 20
554.8561949855865
 30
0.0
 10
177.1837367512668
 20
554.0907419289223
 30
0.0
 10
176.9528879153546
 20
553.299646416418
 30
0.0
 10
176.7867471219475
 20
552.4907948400524
 30
0.0
 10
176.6866492858988
 20
551.6688941266846
 30
0.0
 10
176.6530877317184
 20
550.8410299949098
 30
0.0
 10
176.6866492858981
 20
550.013165863121
 30
0.0
 10
176.7867471219507
 20
549.1912651497958
 30
0.0
 10
176.9528879153431
 20
548.3824135732731
 30
0.0
 10
177.1837367513087
 20
547.591318061351
 30
0.0
 10
177.4774373110824
 20
546.8258650025238
 30
0.0
 10
177.8322020858175
 20
546.0895533001435
 30
0.0
 10
178.2446583392766
 20
545.3905957059221
 30
0.0
 10
178.7127502612674
 20
544.7314702637929
 30
0.0
 10
179.2316231577333
 20
544.1201585237895
 30
0.0
 10
179.7989798691483
 20
543.5583668386831
 30
0.0
 10
180.408727988899
 20
543.0532978244695
 30
0.0
 10
181.0581966678593
 20
542.6061019526308
 30
0.0
 10
181.7404855353057
 20
542.2227671228009
 30
0.0
 10
182.4523066326323
 20
541.9039661397814
 30
0.0
 10
183.1865046702264
 20
541.6542917921307
 30
0.0
 10
183.9388794239376
 20
541.4735869717522
 30
0.0
 10
184.5757996708325
 20
541.3839334409263
 30
0.0
 10
185.0880227450846
 20
541.346298769237
 30
0.0
 10
185.3444557139698
 20
541.3427849481868
 30
0.0
 10
185.472529361812
 20
541.3410299949073
 30
0.0
 11
184.7043849403467
 21
560.3047212662865
 31
0.0
 11
183.9411710664479
 21
560.1963571055186
 31
0.0
 11
183.1915282391643
 21
560.0168502624276
 31
0.0
 11
182.4567086720688
 21
559.7668447773656
 31
0.0
 11
181.7482242769881
 21
559.4499551632896
 31
0.0
 11
181.0644869901497
 21
559.0658310583794
 31
0.0
 11
180.4183994181943
 21
558.6214231480835
 31
0.0
 11
179.8068530383626
 21
558.1149730303414
 31
0.0
 11
179.2424355971071
 21
557.5565971705873
 31
0.0
 11
178.7218778392444
 21
556.9434723732575
 31
0.0
 11
178.2559616543929
 21
556.2879563302838
 31
0.0
 11
177.8422646373883
 21
555.5871082770314
 31
0.0
 11
177.4888084130065
 21
554.8541016099466
 31
0.0
 11
177.1944392120779
 21
554.0871224627222
 31
0.0
 11
176.9641422944662
 21
553.2985795207866
 31
0.0
 11
176.7978207136215
 21
552.4889806305127
 31
0.0
 11
176.6977931007233
 21
551.6685724848578
 31
0.0
 11
176.6642827434266
 21
550.8410299949076
 31
0.0
 11
176.6977931007234
 21
550.0134875049573
 31
0.0
 11
176.7978207136216
 21
549.1930793593022
 31
0.0
 11
176.9641422944662
 21
548.3834804690282
 31
0.0
 11
177.1944392120778
 21
547.5949375270927
 31
0.0
 11
177.4888084130065
 21
546.8279583798684
 31
0.0
 11
177.8422646373883
 21
546.0949517127839
 31
0.0
 11
178.255961654393
 21
545.3941036595312
 31
0.0
 11
178.7218778392443
 21
544.7385876165575
 31
0.0
 11
179.242435597107
 21
544.1254628192278
 31
0.0
 11
179.8068530383625
 21
543.5670869594737
 31
0.0
 11
180.4183994181942
 21
543.0606368417316
 31
0.0
 11
181.0644869901497
 21
542.6162289314354
 31
0.0
 11
181.7482242769881
 21
542.2321048265255
 31
0.0
 11
182.4567086720688
 21
541.9152152124497
 31
0.0
 11
183.1915282391643
 21
541.6652097273875
 31
0.0
 11
183.9411710664479
 21
541.4857028842966
 31
0.0
 11
184.7043849403468
 21
541.3773387235287
 31
0.0
 11
185.0884571510794
 21
541.3501071770628
 31
0.0
 11
185.472529361812
 21
541.3410299949073
 31
0.0
  0
SPLINE
  5
87
330
38
100
AcDbEntity
  8
1
  6
Continuous
 62
     7
100
AcDbSpline
210
0.0
220
0.0
230
1.0
 70
     8
 71
     3
 72
     9
 73
     5
 74
     3
 42
0.0000000001
 43
0.0000000001
 44
0.00000001
 40
0.0
 40
0.0
 40
0.0
 40
0.0
 40
0.3841794610364879
 40
0.7692158491471006
 40
0.7692158491471006
 40
0.7692158491471006
 40
0.7692158491471006
 10
192.9646612300924
 20
560.3410299949078
 30
0.0
 10
192.8365660074381
 20
560.3395104009848
 30
0.0
 10
192.5800898408052
 20
560.3364678236262
 30
0.0
 10
192.3244694087094
 20
560.3153113083746
 30
0.0
 10
192.1965168086549
 20
560.3047212662864
 30
0.0
 11
192.9646612300924
 21
560.3410299949078
 31
0.0
 11
192.5805890193736
 21
560.3319528127518
 31
0.0
 11
192.1965168086549
 21
560.3047212662864
 31
0.0
  0
SPLINE
  5
88
330
38
100
AcDbEntity
  8
1
  6
Continuous
 62
     7
100
AcDbSpline
210
0.0
220
0.0
230
1.0
 70
     8
 71
     3
 72
     9
 73
     5
 74
     3
 42
0.0000000001
 43
0.0000000001
 44
0.00000001
 40
0.0
 40
0.0
 40
0.0
 40
0.0
 40
0.3841794610409408
 40
0.7692158491560126
 40
0.7692158491560126
 40
0.7692158491560126
 40
0.7692158491560126
 10
185.4725293617931
 20
560.3410299949077
 30
0.0
 10
185.3444341391373
 20
560.3395104009849
 30
0.0
 10
185.0879579725015
 20
560.3364678236266
 30
0.0
 10
184.8323375404027
 20
560.3153113083748
 30
0.0
 10
184.7043849403467
 20
560.3047212662865
 30
0.0
 11
185.4725293617931
 21
560.3410299949077
 31
0.0
 11
185.0884571510699
 21
560.331952812752
 31
0.0
 11
184.7043849403467
 21
560.3047212662865
 31
0.0
  0
SPLINE
  5
89
330
38
100
AcDbEntity
  8
1
  6
Continuous
 62
     7
100
AcDbSpline
210
0.0
220
0.0
230
1.0
 70
     8
 71
     3
 72
     9
 73
     5
 74
     3
 42
0.0000000001
 43
0.0000000001
 44
0.00000001
 40
0.0
 40
0.0
 40
0.0
 40
0.0
 40
0.0341773458556775
 40
0.068355296380527
 40
0.068355296380527
 40
0.068355296380527
 40
0.068355296380527
 10
192.9646612301299
 20
541.3410299949076
 30
0.0
 10
192.9760537039413
 20
541.3410419751095
 30
0.0
 10
192.998838853121
 20
541.3410659357255
 30
0.0
 10
193.0216233976381
 20
541.3412336511362
 30
0.0
 10
193.0330157706724
 20
541.3413175095832
 30
0.0
 11
192.9646612301299
 21
541.3410299949076
 31
0.0
 11
192.9988385004012
 21
541.3411018735765
 31
0.0
 11
193.0330157706724
 21
541.3413175095832
 31
0.0
  0
SPLINE
  5
8A
330
38
100
AcDbEntity
  8
1
  6
Continuous
 62
     7
100
AcDbSpline
210
0.0
220
0.0
230
1.0
 70
     8
 71
     3
 72
    43
 73
    39
 74
    37
 42
0.0000000001
 43
0.0000000001
 44
0.00000001
 40
0.0
 40
0.0
 40
0.0
 40
0.0
 40
0.3453400206047013
 40
0.6886871607296635
 40
1.099458892434942
 40
1.508530730472075
 40
2.003253423650987
 40
2.497259980132014
 40
3.079730575784605
 40
3.661830467813215
 40
4.325361761291436
 40
4.988704318761863
 40
5.720407605591728
 40
6.452008096997019
 40
7.234951300318515
 40
8.017840109044183
 40
8.832502829616118
 40
9.647141761197705
 40
10.47253033717429
 40
11.2979189131509
 40
12.11255784473253
 40
12.92722056530445
 40
13.7101093740301
 40
14.49305257735155
 40
15.22465306875679
 40
15.95635635558669
 40
16.61969891305712
 40
17.28323020653543
 40
17.865330098564
 40
18.4478006942166
 40
18.94180725069763
 40
19.43652994387654
 40
19.8456017819137
 40
20.25637351361895
 40
20.59972065374382
 40
20.94506067434842
 40
21.10566737008286
 40
21.26385876496989
 40
21.26385876496989
 40
21.26385876496989
 40
21.26385876496989
 10
102.6873015803943
 20
436.9222919437636
 30
0.0
 10
102.6534565068018
 20
437.0328239255065
 30
0.0
 10
102.5859616720117
 20
437.2532500335003
 30
0.0
 10
102.3873325625169
 20
437.5653602339866
 30
0.0
 10
102.1324783293566
 20
437.8586260043398
 30
0.0
 10
101.8026218658052
 20
438.1488486231378
 30
0.0
 10
101.4200752082305
 20
438.416201083341
 30
0.0
 10
100.9662109379664
 20
438.6785687046015
 30
0.0
 10
100.4669221157672
 20
438.9171741108243
 30
0.0
 10
99.9015942607988
 20
439.1454530075255
 30
0.0
 10
99.29840738389041
 20
439.3491759528676
 30
0.0
 10
98.63822018250826
 20
439.5371157713797
 30
0.0
 10
97.94798715438375
 20
439.6996914773898
 30
0.0
 10
97.21269165857046
 20
439.8419401387217
 30
0.0
 10
96.45554990804462
 20
439.9580754525591
 30
0.0
 10
95.66730384155197
 20
440.0505648819632
 30
0.0
 10
94.86577928895154
 20
440.1163723811859
 30
0.0
 10
94.04838982386222
 20
440.1565237254604
 30
0.0
 10
93.22654424336753
 20
440.1696880554315
 30
0.0
 10
92.40469866282803
 20
440.1565237254664
 30
0.0
 10
91.58730919787121
 20
440.1163723811616
 30
0.0
 10
90.78578464479256
 20
440.0505648820521
 30
0.0
 10
89.99753858001557
 20
439.9580754522406
 30
0.0
 10
89.24039682327998
 20
439.8419401398799
 30
0.0
 10
88.50510134919102
 20
439.6996914733806
 30
0.0
 10
87.81486824364512
 20
439.5371157857873
 30
0.0
 10
87.15468130554635
 20
439.3491759046447
 30
0.0
 10
86.55149350600058
 20
439.1454531787824
 30
0.0
 10
85.98616869454293
 20
438.9171735580822
 30
0.0
 10
85.48686939171434
 20
438.6785706450207
 30
0.0
 10
85.03303864476848
 20
438.4161950491401
 30
0.0
 10
84.65037824458496
 20
438.1488696463447
 30
0.0
 10
84.3208776513703
 20
437.8585623721219
 30
0.0
 10
84.06481653915969
 20
437.5655836975122
 30
0.0
 10
83.87000638369392
 20
437.2525650336238
 30
0.0
 10
83.77546864737703
 20
436.9834227061942
 30
0.0
 10
83.73220034540481
 20
436.7656631961421
 30
0.0
 10
83.72842006389537
 20
436.6592978979505
 30
0.0
 10
83.72654424335994
 20
436.6065181750366
 30
0.0
 11
102.6873015803943
 21
436.9222919437636
 31
0.0
 11
102.5714528964416
 21
437.2476207194009
 31
0.0
 11
102.3935046659502
 21
437.5412560134256
 31
0.0
 11
102.1255559437131
 21
437.8526029225474
 31
0.0
 11
101.8199009105085
 21
438.1244756305409
 31
0.0
 11
101.416119746242
 21
438.4103275406793
 31
0.0
 11
100.9890061565866
 21
438.6585541697463
 31
0.0
 11
100.4644191116346
 21
438.9116952906026
 31
0.0
 11
99.92494528406462
 21
439.1303463223101
 31
0.0
 11
99.29677949709591
 21
439.3440786818321
 31
0.0
 11
98.65892494551966
 21
439.5261910635772
 31
0.0
 11
97.94693667991568
 21
439.6948991238466
 31
0.0
 11
97.22871527403974
 21
439.8341732821318
 31
0.0
 11
96.45491850862004
 21
439.9534989937506
 31
0.0
 11
95.67738237750004
 21
440.0448907419057
 31
0.0
 11
94.86548213730596
 21
440.1119231837712
 31
0.0
 11
94.05182418356722
 21
440.1518897093405
 31
0.0
 11
93.22654424336004
 21
440.1652808125168
 31
0.0
 11
92.40126430315283
 21
440.1518897093405
 31
0.0
 11
91.58760634941405
 21
440.1119231837711
 31
0.0
 11
90.77570610921998
 21
440.0448907419055
 31
0.0
 11
89.99816997809998
 21
439.9534989937507
 31
0.0
 11
89.22437321268033
 21
439.8341732821318
 31
0.0
 11
88.50615180680443
 21
439.6948991238467
 31
0.0
 11
87.79416354120042
 21
439.5261910635772
 31
0.0
 11
87.15630898962418
 21
439.3440786818321
 31
0.0
 11
86.5281432026554
 21
439.13034632231
 31
0.0
 11
85.98866937508544
 21
438.9116952906027
 31
0.0
 11
85.46408233013345
 21
438.6585541697463
 31
0.0
 11
85.03696874047807
 21
438.4103275406793
 31
0.0
 11
84.63318757621158
 21
438.1244756305409
 31
0.0
 11
84.32753254300697
 21
437.8526029225473
 31
0.0
 11
84.05958382076989
 21
437.5412560134255
 31
0.0
 11
83.88163559027845
 21
437.247620719401
 31
0.0
 11
83.76578690632576
 21
436.9222919437638
 31
0.0
 11
83.7363549090996
 21
436.7644050594003
 31
0.0
 11
83.72654424335994
 21
436.6065181750366
 31
0.0
  0
SPLINE
  5
8B
330
38
100
AcDbEntity
  8
1
  6
Continuous
 62
     7
100
AcDbSpline
210
0.0
220
0.0
230
1.0
 70
    11
 71
     3
 72
    79
 73
    75
 74
    73
 42
0.0000000001
 43
0.0000000001
 44
0.00000001
 40
0.0
 40
0.0
 40
0.0
 40
0.0
 40
0.3466349915643885
 40
0.6912998311917031
 40
1.103075362522729
 40
1.513161179424214
 40
2.008603109347454
 40
2.503326384509504
 40
3.086275285907957
 40
3.668852117605011
 40
4.332680935041232
 40
4.996319793888704
 40
5.72818854132575
 40
6.459953773776726
 40
7.24297236310679
 40
8.025936135727052
 40
8.840621627471865
 40
9.655283139605723
 40
10.48067711564641
 40
11.30607109168712
 40
12.12073260382097
 40
12.93541809556578
 40
13.71838186818599
 40
14.5014004575161
 40
15.23316568996707
 40
15.96503443740411
 40
16.62867329625156
 40
17.29250211368781
 40
17.87507894538488
 40
18.45802784678337
 40
18.95275112194541
 40
19.44819305186861
 40
19.8582788687701
 40
20.27005440010112
 40
20.61471923972838
 40
20.96135423129282
 40
21.28101688386602
 40
21.60067953643928
 40
21.94731452800366
 40
22.29197936763092
 40
22.70375489896205
 40
23.11384071586358
 40
23.60928264578682
 40
24.10400592094885
 40
24.68695482234728
 40
25.26953165404435
 40
25.93336047148058
 40
26.59699933032806
 40
27.32886807776511
 40
28.06063331021608
 40
28.84365189954618
 40
29.62661567216639
 40
30.44130116391118
 40
31.25596267604504
 40
32.08135665208575
 40
32.90675062812647
 40
33.72141214026034
 40
34.53609763200515
 40
35.31906140462538
 40
36.10207999395545
 40
36.83384522640645
 40
37.56571397384347
 40
38.22935283269094
 40
38.89318165012715
 40
39.47575848182422
 40
40.0587073832227
 40
40.55343065838481
 40
41.04887258830797
 40
41.45895840520942
 40
41.87073393654053
 40
42.21539877616779
 40
42.56203376773224
 40
42.88169642030545
 40
43.20135907287859
 40
43.20135907287859
 40
43.20135907287859
 40
43.20135907287859
 10
102.6873299583914
 20
418.3800893324306
 30
0.0
 10
102.6535132287963
 20
418.4910794353322
 30
0.0
 10
102.5860719720581
 20
418.7124288122473
 30
0.0
 10
102.3875278660418
 20
419.0260100813346
 30
0.0
 10
102.1326975388127
 20
419.3207753115346
 30
0.0
 10
101.8028617577893
 20
419.612407204429
 30
0.0
 10
101.4202730124066
 20
419.8811290675012
 30
0.0
 10
100.9664068413532
 20
420.144774144271
 30
0.0
 10
100.4670696421566
 20
420.3845758240406
 30
0.0
 10
99.9017368456142
 20
420.61396300125
 30
0.0
 10
99.29851110801653
 20
420.8186921718547
 30
0.0
 10
98.63831844251266
 20
421.0075428287747
 30
0.0
 10
97.94805668775125
 20
421.1709146363019
 30
0.0
 10
97.21275529814454
 20
421.3138520335175
 30
0.0
 10
96.45559258617466
 20
421.4305534041835
 30
0.0
 10
95.66733954983283
 20
421.5234904310258
 30
0.0
 10
94.86579958431597
 20
421.5896179619276
 30
0.0
 10
94.04840133154198
 20
421.6299634612777
 30
0.0
 10
93.22654424336834
 20
421.6431920201648
 30
0.0
 10
92.40468715514538
 20
421.6299634612848
 30
0.0
 10
91.58728890251771
 20
421.589617961899
 30
0.0
 10
90.78574893647262
 20
421.5234904311315
 30
0.0
 10
89.99749590202627
 20
421.4305534038053
 30
0.0
 10
89.24033318319496
 20
421.313852034892
 30
0.0
 10
88.5050318175952
 20
421.1709146315432
 30
0.0
 10
87.81476997726928
 20
421.007542845876
 30
0.0
 10
87.15457760280108
 20
420.8186921146028
 30
0.0
 10
86.55135084514372
 20
420.6139632046006
 30
0.0
 10
85.98602141464328
 20
420.3845751674419
 30
0.0
 10
85.48667262094091
 20
420.1447764498133
 30
0.0
 10
85.0328435575863
 20
419.8811218928425
 30
0.0
 10
84.65012885062507
 20
419.6124322101841
 30
0.0
 10
84.32068753450258
 20
419.3206995401805
 30
0.0
 10
84.06451859569596
 20
419.0262762958066
 30
0.0
 10
83.87021553344692
 20
418.7116115332847
 30
0.0
 10
83.75670014491419
 20
418.39171215558
 30
0.0
 10
83.71207666184262
 20
418.0628410837286
 30
0.0
 10
83.75670014491422
 20
417.7339700118772
 30
0.0
 10
83.87021553344695
 20
417.4140706341722
 30
0.0
 10
84.064518595696
 20
417.0994058716506
 30
0.0
 10
84.32068753450253
 20
416.8049826272762
 30
0.0
 10
84.65012885062505
 20
416.5132499572729
 30
0.0
 10
85.03284355758625
 20
416.2445602746142
 30
0.0
 10
85.48667262094094
 20
415.9809057176437
 30
0.0
 10
85.98602141464329
 20
415.7411070000149
 30
0.0
 10
86.55135084514372
 20
415.5117189628563
 30
0.0
 10
87.15457760280114
 20
415.3069900528544
 30
0.0
 10
87.81476997726927
 20
415.1181393215809
 30
0.0
 10
88.50503181759518
 20
414.9547675359136
 30
0.0
 10
89.24033318319502
 20
414.8118301325649
 30
0.0
 10
89.99749590202622
 20
414.6951287636515
 30
0.0
 10
90.78574893647279
 20
414.6021917363254
 30
0.0
 10
91.58728890251717
 20
414.5360642055581
 30
0.0
 10
92.40468715514739
 20
414.4957187061715
 30
0.0
 10
93.22654424336068
 20
414.4824901472941
 30
0.0
 10
94.04840133157059
 20
414.495718706171
 30
0.0
 10
94.86579958421083
 20
414.5360642055603
 30
0.0
 10
95.66733955021894
 20
414.6021917363182
 30
0.0
 10
96.45559258479597
 20
414.6951287636775
 30
0.0
 10
97.21275530315464
 20
414.8118301324701
 30
0.0
 10
97.94805667040808
 20
414.9547675362414
 30
0.0
 10
98.63831850483986
 20
415.118139320403
 30
0.0
 10
99.29851089935642
 20
415.3069900567983
 30
0.0
 10
99.90173758674538
 20
415.5117189488481
 30
0.0
 10
100.467067249121
 20
415.741107045246
 30
0.0
 10
100.9664152441174
 20
415.9809055588225
 30
0.0
 10
101.420246863695
 20
416.2445607688523
 30
0.0
 10
101.8029528935919
 20
416.5132482347116
 30
0.0
 10
102.1324213830588
 20
416.804987846907
 30
0.0
 10
102.3884981094696
 20
417.0993875330416
 30
0.0
 10
102.5830933227895
 20
417.4141269337384
 30
0.0
 10
102.6955830761931
 20
417.7337642842184
 30
0.0
 10
102.7437586287923
 20
418.0635428317345
 30
0.0
 10
102.7061395151917
 20
418.2745738321984
 30
0.0
 10
102.6873299583914
 20
418.3800893324305
 30
0.0
 11
102.6873299583914
 21
418.3800893324306
 31
0.0
 11
102.5715517537049
 21
418.7068173916732
 31
0.0
 11
102.3935671945292
 21
419.0019704847797
 31
0.0
 11
102.1257399087867
 21
419.3147445777202
 31
0.0
 11
101.8199918019525
 21
419.5880364956231
 31
0.0
 11
101.4162872994351
 21
419.8752391776671
 31
0.0
 11
100.9890800184601
 21
420.1247287727787
 31
0.0
 11
100.4645454263282
 21
420.3790767299138
 31
0.0
 11
99.92499929907575
 21
420.5988168978327
 31
0.0
 11
99.29686848383423
 21
420.8135734525703
 31
0.0
 11
98.65896209811947
 21
420.9965815891018
 31
0.0
 11
97.94699638499392
 21
421.1661005756747
 31
0.0
 11
97.22873932874545
 21
421.3060546987769
 31
0.0
 11
96.45495514950559
 21
421.4259553042572
 31
0.0
 11
95.67739586608025
 21
421.5177911904609
 31
0.0
 11
94.86549955940771
 21
421.5851472419409
 31
0.0
 11
94.0518285295519
 21
421.6253073530663
 31
0.0
 11
93.22654424336011
 21
421.6387633052499
 31
0.0
 11
92.40125995716831
 21
421.6253073530662
 31
0.0
 11
91.5875889273125
 21
421.5851472419408
 31
0.0
 11
90.77569262063996
 21
421.5177911904608
 31
0.0
 11
89.99813333721465
 21
421.4259553042572
 31
0.0
 11
89.22434915797477
 21
421.3060546987768
 31
0.0
 11
88.5060921017263
 21
421.1661005756747
 31
0.0
 11
87.79412638860075
 21
420.9965815891018
 31
0.0
 11
87.156220002886
 21
420.8135734525704
 31
0.0
 11
86.52808918764447
 21
420.5988168978327
 31
0.0
 11
85.98854306039196
 21
420.3790767299138
 31
0.0
 11
85.46400846826013
 21
420.1247287727787
 31
0.0
 11
85.03680118728506
 21
419.8752391776671
 31
0.0
 11
84.63309668476772
 21
419.5880364956231
 31
0.0
 11
84.32734857793349
 21
419.3147445777202
 31
0.0
 11
84.05952129219102
 21
419.0019704847797
 31
0.0
 11
83.88153673301532
 21
418.7068173916732
 31
0.0
 11
83.76575852832882
 21
418.3800893324306
 31
0.0
 11
83.72654424336014
 21
418.0628410837285
 31
0.0
 11
83.76575852832883
 21
417.7455928350264
 31
0.0
 11
83.88153673301535
 21
417.4188647757839
 31
0.0
 11
84.05952129219102
 21
417.1237116826774
 31
0.0
 11
84.32734857793348
 21
416.8109375897367
 31
0.0
 11
84.63309668476771
 21
416.5376456718337
 31
0.0
 11
85.03680118728505
 21
416.2504429897897
 31
0.0
 11
85.46400846826015
 21
416.0009533946782
 31
0.0
 11
85.98854306039196
 21
415.7466054375432
 31
0.0
 11
86.52808918764447
 21
415.5268652696243
 31
0.0
 11
87.156220002886
 21
415.3121087148866
 31
0.0
 11
87.79412638860075
 21
415.1291005783551
 31
0.0
 11
88.5060921017263
 21
414.9595815917822
 31
0.0
 11
89.22434915797479
 21
414.8196274686801
 31
0.0
 11
89.99813333721465
 21
414.6997268631997
 31
0.0
 11
90.77569262063997
 21
414.6078909769962
 31
0.0
 11
91.58758892731248
 21
414.5405349255161
 31
0.0
 11
92.40125995716829
 21
414.5003748143906
 31
0.0
 11
93.22654424336011
 21
414.486918862207
 31
0.0
 11
94.05182852955193
 21
414.5003748143907
 31
0.0
 11
94.86549955940774
 21
414.5405349255162
 31
0.0
 11
95.67739586608028
 21
414.6078909769962
 31
0.0
 11
96.45495514950561
 21
414.6997268631997
 31
0.0
 11
97.22873932874546
 21
414.8196274686801
 31
0.0
 11
97.94699638499395
 21
414.9595815917824
 31
0.0
 11
98.65896209811949
 21
415.1291005783552
 31
0.0
 11
99.29686848383422
 21
415.3121087148867
 31
0.0
 11
99.92499929907575
 21
415.5268652696243
 31
0.0
 11
100.4645454263283
 21
415.7466054375432
 31
0.0
 11
100.9890800184601
 21
416.0009533946782
 31
0.0
 11
101.4162872994352
 21
416.2504429897899
 31
0.0
 11
101.8199918019525
 21
416.5376456718338
 31
0.0
 11
102.1257399087867
 21
416.8109375897367
 31
0.0
 11
102.3935671945291
 21
417.1237116826774
 31
0.0
 11
102.5715517537048
 21
417.4188647757839
 31
0.0
 11
102.6873299583914
 21
417.7455928350265
 31
0.0
 11
102.7265442433601
 21
418.0628410837285
 31
0.0
 11
102.6873299583914
 21
418.3800893324305
 31
0.0
  0
SPLINE
  5
8C
330
38
100
AcDbEntity
  8
1
  6
Continuous
 62
     7
100
AcDbSpline
210
0.0
220
0.0
230
1.0
 70
    11
 71
     3
 72
    79
 73
    75
 74
    73
 42
0.0000000001
 43
0.0000000001
 44
0.00000001
 40
0.0
 40
0.0
 40
0.0
 40
0.0
 40
0.2817247536510128
 40
0.5618237363842997
 40
0.8969269911962856
 40
1.230643490647517
 40
1.63423305613545
 40
2.037238404843595
 40
2.51241178550749
 40
2.987282750057088
 40
3.528584594736655
 40
4.069732470567765
 40
4.666648309823713
 40
5.263480289654318
 40
5.902197113416545
 40
6.540869562640109
 40
7.205462834685633
 40
7.870036699923225
 40
8.543380011904116
 40
9.216723323885006
 40
9.881297189122599
 40
10.54589046116813
 40
11.1845629103917
 40
11.82327973415391
 40
12.42011171398449
 40
13.01702755324044
 40
13.55817542907157
 40
14.09947727375115
 40
14.57434823830074
 40
15.04952161896463
 40
15.45252696767275
 40
15.85611653316069
 40
16.1898330326119
 40
16.52493628742403
 40
16.80503527015736
 40
17.08676002380832
 40
17.34634656682882
 40
17.60593310984931
 40
17.88765786350033
 40
18.16775684623359
 40
18.50286010104579
 40
18.83657660049697
 40
19.24016616598495
 40
19.64317151469306
 40
20.11834489535694
 40
20.5932158599065
 40
21.13451770458607
 40
21.6756655804172
 40
22.27258141967314
 40
22.86941339950375
 40
23.50813022326597
 40
24.14680267248954
 40
24.81139594453505
 40
25.47596980977265
 40
26.14931312175357
 40
26.82265643373446
 40
27.48723029897203
 40
28.15182357101755
 40
28.79049602024114
 40
29.42921284400339
 40
30.026044823834
 40
30.62296066308993
 40
31.16410853892103
 40
31.70541038360054
 40
32.18028134815012
 40
32.65545472881401
 40
33.05846007752216
 40
33.4620496430101
 40
33.79576614246133
 40
34.13086939727347
 40
34.41096838000674
 40
34.69269313365776
 40
34.95227967667826
 40
35.21186621969886
 40
35.21186621969886
 40
35.21186621969886
 40
35.21186621969886
 10
100.9445304919933
 20
418.320446000298
 30
0.0
 10
100.9169200372205
 20
418.4106168275094
 30
0.0
 10
100.8618584614707
 20
418.5904381261357
 30
0.0
 10
100.6998189247775
 20
418.8450543423215
 30
0.0
 10
100.4919115240414
 20
419.0842974707672
 30
0.0
 10
100.2228180932495
 20
419.3210580282077
 30
0.0
 10
99.91074055680696
 20
419.5391613510047
 30
0.0
 10
99.54048286264421
 20
419.7531980946648
 30
0.0
 10
99.13316829716592
 20
419.947849873425
 30
0.0
 10
98.67197978390227
 20
420.1340773944183
 30
0.0
 10
98.1799062790559
 20
420.3002724287758
 30
0.0
 10
97.64133250950729
 20
420.4535917544041
 30
0.0
 10
97.07824767077415
 20
420.5862193040439
 30
0.0
 10
96.47840134524223
 20
420.7022642646039
 30
0.0
 10
95.86073307507645
 20
420.7970062311554
 30
0.0
 10
95.21769023135877
 20
420.8724581340904
 30
0.0
 10
94.56381493844795
 20
420.9261431992456
 30
0.0
 10
93.89699721692749
 20
420.9588982432591
 30
0.0
 10
93.22654424336687
 20
420.9696375650772
 30
0.0
 10
92.55609126976577
 20
420.9588982432652
 30
0.0
 10
91.88927354836531
 20
420.9261431992222
 30
0.0
 10
91.23539825502124
 20
420.8724581341776
 30
0.0
 10
90.59235541285813
 20
420.7970062308435
 30
0.0
 10
89.97468713706537
 20
420.7022642657378
 30
0.0
 10
89.37484083121898
 20
420.5862193001188
 30
0.0
 10
88.81175592233058
 20
420.4535917685093
 30
0.0
 10
88.27318239135563
 20
420.3002723815656
 30
0.0
 10
87.78110805046329
 20
420.134077562079
 30
0.0
 10
87.31992229507091
 20
419.9478493322891
 30
0.0
 10
86.9125982325908
 20
419.7531999943402
 30
0.0
 10
86.54237091551738
 20
419.5391554435059
 30
0.0
 10
86.23019031143204
 20
419.3210786099835
 30
0.0
 10
85.96141935185052
 20
419.0842351746561
 30
0.0
 10
85.75241834002063
 20
418.8452731137101
 30
0.0
 10
85.59383934106089
 20
418.5897675094265
 30
0.0
 10
85.50119461733758
 20
418.3299817855441
 30
0.0
 10
85.46472312415507
 20
418.0628410837285
 30
0.0
 10
85.50119461733758
 20
417.7957003819128
 30
0.0
 10
85.59383934106086
 20
417.5359146580305
 30
0.0
 10
85.75241834002067
 20
417.2804090537467
 30
0.0
 10
85.96141935185044
 20
417.041446992801
 30
0.0
 10
86.23019031143207
 20
416.8046035574734
 30
0.0
 10
86.54237091551734
 20
416.5865267239509
 30
0.0
 10
86.91259823259081
 20
416.3724821731167
 30
0.0
 10
87.3199222950709
 20
416.1778328351678
 30
0.0
 10
87.78110805046327
 20
415.991604605378
 30
0.0
 10
88.27318239135565
 20
415.8254097858913
 30
0.0
 10
88.81175592233055
 20
415.6720903989477
 30
0.0
 10
89.37484083121896
 20
415.5394628673384
 30
0.0
 10
89.97468713706533
 20
415.4234179017188
 30
0.0
 10
90.59235541285814
 20
415.3286759366135
 30
0.0
 10
91.2353982550213
 20
415.253224033279
 30
0.0
 10
91.8892735483649
 20
415.1995389682348
 30
0.0
 10
92.55609126976742
 20
415.1667839241914
 30
0.0
 10
93.22654424336059
 20
415.1560446023816
 30
0.0
 10
93.89699721695095
 20
415.166783924191
 30
0.0
 10
94.56381493836175
 20
415.1995389682363
 30
0.0
 10
95.21769023167542
 20
415.253224033273
 30
0.0
 10
95.86073307394577
 20
415.328675936635
 30
0.0
 10
96.47840134935103
 20
415.423417901641
 30
0.0
 10
97.07824765655295
 20
415.5394628676085
 30
0.0
 10
97.64133256061068
 20
415.6720903979764
 30
0.0
 10
98.17990610801294
 20
415.8254097891421
 30
0.0
 10
98.67198039133791
 20
415.9916045938332
 30
0.0
 10
99.13316633662836
 20
416.1778328724288
 30
0.0
 10
99.54048974517531
 20
416.3724820423111
 30
0.0
 10
99.91071915391811
 20
416.5865271307225
 30
0.0
 10
100.2228926610946
 20
416.804602140278
 30
0.0
 10
100.4916858250146
 20
417.0414512823124
 30
0.0
 10
100.7006115342745
 20
417.2803939898471
 30
0.0
 10
100.8594288148192
 20
417.5359608345569
 30
0.0
 10
100.9512374550618
 20
417.7955316777606
 30
0.0
 10
100.990602349721
 20
418.0634160087562
 30
0.0
 10
100.9598877779025
 20
418.2347693364506
 30
0.0
 10
100.9445304919933
 20
418.320446000298
 30
0.0
 11
100.9445304919933
 21
418.320446000298
 31
0.0
 11
100.8500223550846
 21
418.5858457909494
 31
0.0
 11
100.7048540617889
 21
418.8253903729166
 31
0.0
 11
100.4862643147007
 21
419.0793839040419
 31
0.0
 11
100.2369141560338
 21
419.3011747974049
 31
0.0
 11
99.90751373255317
 21
419.5343697767281
 31
0.0
 11
99.55907896204488
 21
419.7368704478089
 31
0.0
 11
99.13112637274196
 21
419.9433803095601
 31
0.0
 11
98.69102930288226
 21
420.1217535196371
 31
0.0
 11
98.17857826614461
 21
420.2961141287207
 31
0.0
 11
97.65822323722713
 21
420.4446794927758
 31
0.0
 11
97.07739070476069
 21
420.5823097524691
 31
0.0
 11
96.49147324207245
 21
420.6959281447544
 31
0.0
 11
95.8602179860722
 21
420.7932728042328
 31
0.0
 11
95.22591219489536
 21
420.8678292303592
 31
0.0
 11
94.56357252526334
 21
420.9225135908284
 31
0.0
 11
93.89979893142386
 21
420.9551178616875
 31
0.0
 11
93.22654424336011
 21
420.9660421826998
 31
0.0
 11
92.55328955529636
 21
420.9551178616877
 31
0.0
 11
91.88951596145688
 21
420.9225135908285
 31
0.0
 11
91.22717629182486
 21
420.8678292303592
 31
0.0
 11
90.59287050064802
 21
420.7932728042328
 31
0.0
 11
89.96161524464779
 21
420.6959281447544
 31
0.0
 11
89.37569778195955
 21
420.5823097524692
 31
0.0
 11
88.79486524949311
 21
420.4446794927758
 31
0.0
 11
88.27451022057564
 21
420.2961141287207
 31
0.0
 11
87.76205918383798
 21
420.1217535196371
 31
0.0
 11
87.32196211397826
 21
419.9433803095602
 31
0.0
 11
86.89400952467534
 21
419.736870447809
 31
0.0
 11
86.54557475416705
 21
419.5343697767282
 31
0.0
 11
86.21617433068647
 21
419.3011747974049
 31
0.0
 11
85.96682417201956
 21
419.079383904042
 31
0.0
 11
85.74823442493137
 21
418.8253903729164
 31
0.0
 11
85.60306613163571
 21
418.5858457909492
 31
0.0
 11
85.50855799472696
 21
418.3204460002979
 31
0.0
 11
85.4765442433601
 21
418.0628410837285
 31
0.0
 11
85.50855799472697
 21
417.805236167159
 31
0.0
 11
85.60306613163573
 21
417.5398363765077
 31
0.0
 11
85.74823442493135
 21
417.3002917945405
 31
0.0
 11
85.96682417201951
 21
417.0462982634149
 31
0.0
 11
86.21617433068644
 21
416.824507370052
 31
0.0
 11
86.54557475416702
 21
416.5913123907287
 31
0.0
 11
86.89400952467534
 21
416.3888117196479
 31
0.0
 11
87.32196211397825
 21
416.1823018578967
 31
0.0
 11
87.76205918383795
 21
416.0039286478199
 31
0.0
 11
88.27451022057564
 21
415.8295680387363
 31
0.0
 11
88.79486524949311
 21
415.6810026746812
 31
0.0
 11
89.37569778195953
 21
415.5433724149878
 31
0.0
 11
89.96161524464777
 21
415.4297540227025
 31
0.0
 11
90.592870500648
 21
415.332409363224
 31
0.0
 11
91.22717629182486
 21
415.2578529370976
 31
0.0
 11
91.88951596145685
 21
415.2031685766283
 31
0.0
 11
92.55328955529635
 21
415.1705643057693
 31
0.0
 11
93.22654424336012
 21
415.1596399847572
 31
0.0
 11
93.89979893142387
 21
415.1705643057693
 31
0.0
 11
94.56357252526334
 21
415.2031685766283
 31
0.0
 11
95.22591219489534
 21
415.2578529370976
 31
0.0
 11
95.86021798607222
 21
415.3324093632241
 31
0.0
 11
96.49147324207247
 21
415.4297540227026
 31
0.0
 11
97.07739070476073
 21
415.5433724149878
 31
0.0
 11
97.65822323722715
 21
415.6810026746812
 31
0.0
 11
98.1785782661446
 21
415.8295680387363
 31
0.0
 11
98.69102930288223
 21
416.0039286478198
 31
0.0
 11
99.1311263727419
 21
416.1823018578968
 31
0.0
 11
99.55907896204482
 21
416.388811719648
 31
0.0
 11
99.90751373255314
 21
416.5913123907288
 31
0.0
 11
100.2369141560338
 21
416.824507370052
 31
0.0
 11
100.4862643147007
 21
417.0462982634149
 31
0.0
 11
100.7048540617889
 21
417.3002917945405
 31
0.0
 11
100.8500223550845
 21
417.5398363765077
 31
0.0
 11
100.9445304919933
 21
417.805236167159
 31
0.0
 11
100.9765442433601
 21
418.0628410837285
 31
0.0
 11
100.9445304919933
 21
418.320446000298
 31
0.0
  0
SPLINE
  5
8D
330
38
100
AcDbEntity
  8
1
  6
Continuous
 62
     7
100
AcDbSpline
210
0.0
220
0.0
230
1.0
 70
     8
 71
     3
 72
     9
 73
     5
 74
     3
 42
0.0000000001
 43
0.0000000001
 44
0.00000001
 40
0.0
 40
0.0
 40
0.0
 40
0.0
 40
0.1581913948612532
 40
0.3187980905695054
 40
0.3187980905695054
 40
0.3187980905695054
 40
0.3187980905695054
 10
102.7265442433601
 20
436.6065181750885
 30
0.0
 10
102.7248601391219
 20
436.6593435039999
 30
0.0
 10
102.7214662173734
 20
436.7658007105089
 30
0.0
 10
102.6987471679486
 20
436.8698653919232
 30
0.0
 10
102.6873015803943
 20
436.9222919437636
 30
0.0
 11
102.7265442433601
 21
436.6065181750885
 31
0.0
 11
102.7167335776172
 21
436.7644050594261
 31
0.0
 11
102.6873015803943
 21
436.9222919437636
 31
0.0
  0
ARC
  5
8E
330
38
100
AcDbEntity
  8
0
  6
Continuous
 62
     7
100
AcDbCircle
 10
194.0044873496169
 20
414.8894603283011
 30
0.0
 40
0.4999999999966028
100
AcDbArc
 50
-111.99999999999
 51
-21.99999999994083
  0
ARC
  5
8F
330
38
100
AcDbEntity
  8
1
  6
Continuous
 62
     7
100
AcDbCircle
 10
184.4327032423199
 20
439.2488722465561
 30
0.0
 40
0.5000000000009656
100
AcDbArc
 50
67.99999999990288
 51
157.9999999999906
  0
ARC
  5
90
330
38
100
AcDbEntity
  8
1
  6
Continuous
 62
     7
100
AcDbCircle
 10
201.1220126244893
 20
432.5059535649901
 30
0.0
 40
0.49999999999997
100
AcDbArc
 50
-21.99999999998865
 51
67.99999999972167
  0
ARC
  5
91
330
38
100
AcDbEntity
  8
1
  6
Continuous
 62
     7
100
AcDbCircle
 10
177.3151779674193
 20
421.6323790097886
 30
0.0
 40
0.4999999999999437
100
AcDbArc
 50
158.0000000000102
 51
-112.0000000000038
  0
ENDBLK
  5
3A
330
38
100
AcDbEntity
  8
0
100
AcDbBlockEnd
  0
BLOCK
  5
3D
330
3B
100
AcDbEntity
  8
0
100
AcDbBlockBegin
  2
Top
 70
     0
 71
     0
 10
-2111.973548632689
 20
-643.7255143399966
 30
0.0
  3
Top
  1

  0
INSERT
  5
3C
330
3B
100
AcDbEntity
  8
0
100
AcDbBlockReference
  2
30-87
 10
565.8677241985889
 20
480.9575411246539
 30
0.0
  0
ENDBLK
  5
3E
330
3B
100
AcDbEntity
  8
0
100
AcDbBlockEnd
  0
BLOCK
  5
40
330
3F
100
AcDbEntity
  8
0
100
AcDbBlockBegin
  2
1
 70
     0
 71
     0
 10
253.9021070145323
 20
415.4293620680095
 30
0.0
  3
1
  1

  0
SPLINE
  5
92
330
3F
100
AcDbEntity
  8
1
  6
Continuous
 62
     7
100
AcDbSpline
210
0.0
220
0.0
230
1.0
 70
    11
 71
     3
 72
    79
 73
    75
 74
    73
 42
0.0000000001
 43
0.0000000001
 44
0.00000001
 40
0.0
 40
0.0
 40
0.0
 40
0.0
 40
0.2435555341178921
 40
0.4857055620063515
 40
0.7754076846945338
 40
1.063910934539188
 40
1.412820590475948
 40
1.761225181701398
 40
2.172020211477489
 40
2.582553797707912
 40
3.050517959491609
 40
3.518349012778706
 40
4.034392375918647
 40
4.550363241265869
 40
5.102544233843105
 40
5.654686863935294
 40
6.229238465823055
 40
6.803773290221086
 40
7.385889443557463
 40
7.968005596893883
 40
8.542540421291948
 40
9.117092023179671
 40
9.669234653271825
 40
10.22141564584903
 40
10.7373865111963
 40
11.25342987433628
 40
11.72126092762342
 40
12.1892250894071
 40
12.59975867563748
 40
13.01055370541357
 40
13.35895829663905
 40
13.70786795257578
 40
13.99637120242052
 40
14.28607332510865
 40
14.528223352997
 40
14.77177888711496
 40
14.99619557348571
 40
15.22061225985657
 40
15.46416779397451
 40
15.70631782186289
 40
15.99601994455107
 40
16.28452319439575
 40
16.63343285033254
 40
16.98183744155795
 40
17.39263247133405
 40
17.80316605756449
 40
18.27113021934822
 40
18.73896127263529
 40
19.25500463577527
 40
19.77097550112248
 40
20.3231564936997
 40
20.87529912379187
 40
21.44985072567961
 40
22.02438555007764
 40
22.60650170341405
 40
23.18861785675046
 40
23.76315268114849
 40
24.33770428303626
 40
24.88984691312847
 40
25.44202790570564
 40
25.95799877105284
 40
26.47404213419284
 40
26.94187318747994
 40
27.40983734926363
 40
27.82037093549409
 40
28.23116596527015
 40
28.57957055649559
 40
28.92848021243233
 40
29.216983462277
 40
29.50668558496522
 40
29.74883561285362
 40
29.99239114697152
 40
30.21680783334227
 40
30.44122451971314
 40
30.44122451971314
 40
30.44122451971314
 40
30.44122451971314
 10
99.89886783764453
 20
418.4709822762355
 30
0.0
 10
99.87499815285585
 20
418.54893638972
 30
0.0
 10
99.82739653005891
 20
418.7043947603862
 30
0.0
 10
99.68731073314352
 20
418.9245145185076
 30
0.0
 10
99.50757143077099
 20
419.1313439930172
 30
0.0
 10
99.27493581869592
 20
419.3360272490025
 30
0.0
 10
99.0051397568766
 20
419.5245810265542
 30
0.0
 10
98.68504600846734
 20
419.7096191850642
 30
0.0
 10
98.33291599924453
 20
419.8778987324885
 30
0.0
 10
97.93421109123216
 20
420.0388953772275
 30
0.0
 10
97.50880561140524
 20
420.1825736188502
 30
0.0
 10
97.04319990120789
 20
420.315120606974
 30
0.0
 10
96.55640397742555
 20
420.4297792262821
 30
0.0
 10
96.03782715433263
 20
420.5301019347915
 30
0.0
 10
95.5038429733425
 20
420.6120078670116
 30
0.0
 10
94.9479220636088
 20
420.6772372335363
 30
0.0
 10
94.38263632721714
 20
420.7236488235744
 30
0.0
 10
93.80616165224018
 20
420.751966078526
 30
0.0
 10
93.22654424336599
 20
420.7612503925071
 30
0.0
 10
92.64692683445669
 20
420.7519660785313
 30
0.0
 10
92.07045215958358
 20
420.7236488235536
 30
0.0
 10
91.50516642281724
 20
420.6772372336118
 30
0.0
 10
90.9492455144276
 20
420.6120078667419
 30
0.0
 10
90.4152613285728
 20
420.5301019357719
 30
0.0
 10
89.89668452249829
 20
420.4297792228888
 30
0.0
 10
89.40988853806552
 20
420.3151206191682
 30
0.0
 10
88.94428303411912
 20
420.1825735780361
 30
0.0
 10
88.51887683151671
 20
420.0388955221728
 30
0.0
 10
88.12017430772931
 20
419.8778982646676
 30
0.0
 10
87.76803608819296
 20
419.7096208273654
 30
0.0
 10
87.44796860127343
 20
419.5245759194232
 30
0.0
 10
87.17808343579694
 20
419.3360450422898
 30
0.0
 10
86.94572660532238
 20
419.1312901369968
 30
0.0
 10
86.76504185843083
 20
418.9247036499921
 30
0.0
 10
86.62794775224256
 20
418.7038150012047
 30
0.0
 10
86.54785489205074
 20
418.479226119432
 30
0.0
 10
86.51632469409169
 20
418.2482787385711
 30
0.0
 10
86.54785489205071
 20
418.0173313577097
 30
0.0
 10
86.62794775224249
 20
417.7927424759373
 30
0.0
 10
86.76504185843091
 20
417.5718538271497
 30
0.0
 10
86.94572660532235
 20
417.3652673401451
 30
0.0
 10
87.17808343579699
 20
417.1605124348519
 30
0.0
 10
87.44796860127339
 20
416.9719815577189
 30
0.0
 10
87.76803608819299
 20
416.7869366497764
 30
0.0
 10
88.12017430772927
 20
416.6186592124744
 30
0.0
 10
88.51887683151674
 20
416.457661954969
 30
0.0
 10
88.94428303411911
 20
416.3139838991057
 30
0.0
 10
89.40988853806559
 20
416.1814368579734
 30
0.0
 10
89.89668452249829
 20
416.0667782542532
 30
0.0
 10
90.41526132857284
 20
415.96645554137
 30
0.0
 10
90.94924551442757
 20
415.8845496104005
 30
0.0
 10
91.5051664228174
 20
415.81932024353
 30
0.0
 10
92.07045215958316
 20
415.7729086535882
 30
0.0
 10
92.64692683445816
 20
415.7445913986104
 30
0.0
 10
93.22654424336048
 20
415.7353070846363
 30
0.0
 10
93.8061616522605
 20
415.7445913986099
 30
0.0
 10
94.38263632714256
 20
415.7729086535895
 30
0.0
 10
94.94792206388263
 20
415.8193202435251
 30
0.0
 10
95.50384297236499
 20
415.884549610419
 30
0.0
 10
96.03782715788471
 20
415.9664555413024
 30
0.0
 10
96.55640396513114
 20
416.0667782544867
 30
0.0
 10
97.04319994538761
 20
416.1814368571338
 30
0.0
 10
97.50880546353588
 20
416.3139839019162
 30
0.0
 10
97.93421161637025
 20
416.4576619449883
 30
0.0
 10
98.33291430432772
 20
416.6186592446871
 30
0.0
 10
98.68505195852816
 20
416.7869365366928
 30
0.0
 10
99.00512125373001
 20
416.9719819093795
 30
0.0
 10
99.27500028381316
 20
417.1605112096629
 30
0.0
 10
99.50737631029857
 20
417.3652710484986
 30
0.0
 10
99.68799595689946
 20
417.5718408041597
 30
0.0
 10
99.82529606135815
 20
417.7927823963031
 30
0.0
 10
99.90466611393083
 20
418.0171855101999
 30
0.0
 10
99.93869770388876
 20
418.2487757706683
 30
0.0
 10
99.91214445972595
 20
418.3969134410464
 30
0.0
 10
99.89886783764453
 20
418.4709822762355
 30
0.0
 11
99.89886783764453
 21
418.4709822762355
 31
0.0
 11
99.81716402571217
 21
418.7004246117257
 31
0.0
 11
99.69166369641508
 21
418.9075146968401
 31
0.0
 11
99.5026893288332
 21
419.1270961356893
 31
0.0
 11
99.28712209917174
 21
419.3188378751906
 31
0.0
 11
99.00235011665147
 21
419.5204386340617
 31
0.0
 11
98.70112264193273
 21
419.6955036724376
 31
0.0
 11
98.33115072361747
 21
419.8740347233695
 31
0.0
 11
97.95067971169809
 21
420.0282411905239
 31
0.0
 11
97.50765752349865
 21
420.1789787023679
 31
0.0
 11
97.05780221055053
 21
420.3074158147306
 31
0.0
 11
96.55566311693475
 21
420.4263993568845
 31
0.0
 11
96.04912802179112
 21
420.5246242583861
 31
0.0
 11
95.50339767086669
 21
420.6087802602129
 31
0.0
 11
94.95503008471528
 21
420.6732354727531
 31
0.0
 11
94.38242675724057
 21
420.7205109695424
 31
0.0
 11
93.80858377993894
 21
420.7486978786969
 31
0.0
 11
93.22654424336012
 21
420.7581421274365
 31
0.0
 11
92.64450470678126
 21
420.7486978786969
 31
0.0
 11
92.07066172947961
 21
420.7205109695423
 31
0.0
 11
91.49805840200493
 21
420.6732354727531
 31
0.0
 11
90.94969081585354
 21
420.608780260213
 31
0.0
 11
90.40396046492913
 21
420.5246242583863
 31
0.0
 11
89.89742536978545
 21
420.4263993568847
 31
0.0
 11
89.39528627616964
 21
420.3074158147307
 31
0.0
 11
88.94543096322153
 21
420.1789787023678
 31
0.0
 11
88.5024087750221
 21
420.0282411905239
 31
0.0
 11
88.12193776310275
 21
419.8740347233695
 31
0.0
 11
87.75196584478749
 21
419.6955036724376
 31
0.0
 11
87.45073837006872
 21
419.5204386340617
 31
0.0
 11
87.16596638754848
 21
419.3188378751906
 31
0.0
 11
86.95039915788701
 21
419.1270961356892
 31
0.0
 11
86.76142479030514
 21
418.9075146968401
 31
0.0
 11
86.63592446100807
 21
418.7004246117257
 31
0.0
 11
86.55422064907569
 21
418.4709822762355
 31
0.0
 11
86.52654424336014
 21
418.248278738571
 31
0.0
 11
86.55422064907569
 21
418.0255752009064
 31
0.0
 11
86.63592446100803
 21
417.7961328654162
 31
0.0
 11
86.76142479030516
 21
417.5890427803018
 31
0.0
 11
86.95039915788703
 21
417.3694613414527
 31
0.0
 11
87.16596638754848
 21
417.1777196019513
 31
0.0
 11
87.45073837006873
 21
416.9761188430801
 31
0.0
 11
87.75196584478746
 21
416.8010538047043
 31
0.0
 11
88.12193776310274
 21
416.6225227537724
 31
0.0
 11
88.50240877502212
 21
416.4683162866179
 31
0.0
 11
88.94543096322157
 21
416.3175787747739
 31
0.0
 11
89.39528627616966
 21
416.1891416624112
 31
0.0
 11
89.89742536978547
 21
416.0701581202572
 31
0.0
 11
90.40396046492911
 21
415.9719332187558
 31
0.0
 11
90.94969081585356
 21
415.8877772169291
 31
0.0
 11
91.49805840200494
 21
415.823322004389
 31
0.0
 11
92.07066172947963
 21
415.7760465075995
 31
0.0
 11
92.64450470678125
 21
415.747859598445
 31
0.0
 11
93.22654424336011
 21
415.7384153497055
 31
0.0
 11
93.80858377993896
 21
415.747859598445
 31
0.0
 11
94.38242675724058
 21
415.7760465075995
 31
0.0
 11
94.95503008471529
 21
415.823322004389
 31
0.0
 11
95.50339767086672
 21
415.8877772169291
 31
0.0
 11
96.04912802179112
 21
415.9719332187557
 31
0.0
 11
96.55566311693477
 21
416.0701581202571
 31
0.0
 11
97.05780221055058
 21
416.1891416624112
 31
0.0
 11
97.50765752349868
 21
416.317578774774
 31
0.0
 11
97.95067971169812
 21
416.4683162866179
 31
0.0
 11
98.33115072361748
 21
416.6225227537724
 31
0.0
 11
98.70112264193274
 21
416.8010538047043
 31
0.0
 11
99.0023501166515
 21
416.9761188430801
 31
0.0
 11
99.28712209917175
 21
417.1777196019512
 31
0.0
 11
99.50268932883319
 21
417.3694613414526
 31
0.0
 11
99.69166369641505
 21
417.5890427803018
 31
0.0
 11
99.81716402571213
 21
417.7961328654162
 31
0.0
 11
99.8988678376445
 21
418.0255752009064
 31
0.0
 11
99.92654424336008
 21
418.2482787385709
 31
0.0
 11
99.89886783764453
 21
418.4709822762355
 31
0.0
  0
ENDBLK
  5
41
330
3F
100
AcDbEntity
  8
0
100
AcDbBlockEnd
  0
BLOCK
  5
44
330
42
100
AcDbEntity
  8
0
100
AcDbBlockBegin
  2
87-155
 70
     0
 71
     0
 10
235.5469086099895
 20
330.7902938719439
 30
0.0
  3
87-155
  1

  0
INSERT
  5
43
330
42
100
AcDbEntity
  8
1
100
AcDbBlockReference
  2
1
 10
253.9021070145323
 20
415.4293620680095
 30
0.0
  0
ENDBLK
  5
45
330
42
100
AcDbEntity
  8
0
100
AcDbBlockEnd
  0
BLOCK
  5
47
330
46
100
AcDbEntity
  8
0
100
AcDbBlockBegin
  2
06-62-C2
 70
     0
 71
     0
 10
-29.27345575664003
 20
-29.6068082022737
 30
0.0
  3
06-62-C2
  1

  0
LINE
  5
93
330
46
100
AcDbEntity
  8
1
  6
Continuous
 62
     2
100
AcDbLine
 10
102.72654424336
 20
102.5410299949082
 30
0.0
 11
102.7265442433599
 21
124.5410299949093
 31
0.0
  0
LINE
  5
94
330
46
100
AcDbEntity
  8
1
  6
Continuous
 62
     7
100
AcDbLine
 10
103.72654424336
 20
102.5410299949082
 30
0.0
 11
103.7265442433587
 21
124.5410299949093
 31
0.0
  0
LINE
  5
95
330
46
100
AcDbEntity
  8
1
  6
Continuous
 62
     2
100
AcDbLine
 10
83.72654424336002
 20
146.5410299949076
 30
0.0
 11
83.72654424336002
 21
136.5410299949089
 31
0.0
  0
LINE
  5
96
330
46
100
AcDbEntity
  8
1
  6
Continuous
 62
     7
100
AcDbLine
 10
82.72654424335983
 20
146.5410299949076
 30
0.0
 11
82.72654424335801
 21
136.5410299949072
 31
0.0
  0
LINE
  5
97
330
46
100
AcDbEntity
  8
1
  6
Continuous
 62
     7
100
AcDbLine
 10
103.726544243358
 20
136.5410299949083
 30
0.0
 11
103.7265442433598
 21
146.5410299949076
 31
0.0
  0
LINE
  5
98
330
46
100
AcDbEntity
  8
1
  6
Continuous
 62
     2
100
AcDbLine
 10
102.7265442433598
 20
136.5410299949089
 30
0.0
 11
102.7265442433598
 21
146.5410299949076
 31
0.0
  0
LINE
  5
99
330
46
100
AcDbEntity
  8
1
  6
Continuous
 62
     7
100
AcDbLine
 10
82.72654424335863
 20
124.5410299949093
 30
0.0
 11
82.72654424335983
 21
102.5410299949082
 31
0.0
  0
LINE
  5
9A
330
46
100
AcDbEntity
  8
1
  6
Continuous
 62
     2
100
AcDbLine
 10
83.72654424335991
 20
124.5410299949093
 30
0.0
 11
83.72654424335983
 21
102.5410299949082
 31
0.0
  0
LINE
  5
9B
330
46
100
AcDbEntity
  8
1
  6
Continuous
 62
     2
100
AcDbLine
 10
343.7265442433599
 20
124.5410299949093
 30
0.0
 11
343.7265442433599
 21
102.5410299949082
 31
0.0
  0
LINE
  5
9C
330
46
100
AcDbEntity
  8
1
  6
Continuous
 62
     7
100
AcDbLine
 10
342.7265442433586
 20
124.5410299949093
 30
0.0
 11
342.7265442433599
 21
102.5410299949082
 31
0.0
  0
LINE
  5
9D
330
46
100
AcDbEntity
  8
1
  6
Continuous
 62
     2
100
AcDbLine
 10
362.7265442433599
 20
136.5410299949089
 30
0.0
 11
362.7265442433599
 21
146.5410299949076
 31
0.0
  0
LINE
  5
9E
330
46
100
AcDbEntity
  8
1
  6
Continuous
 62
     7
100
AcDbLine
 10
363.726544243358
 20
136.5410299949083
 30
0.0
 11
363.7265442433599
 21
146.5410299949076
 31
0.0
  0
LINE
  5
9F
330
46
100
AcDbEntity
  8
1
  6
Continuous
 62
     7
100
AcDbLine
 10
342.7265442433599
 20
146.5410299949076
 30
0.0
 11
342.726544243358
 21
136.5410299949072
 31
0.0
  0
LINE
  5
A0
330
46
100
AcDbEntity
  8
1
  6
Continuous
 62
     2
100
AcDbLine
 10
343.72654424336
 20
146.5410299949076
 30
0.0
 11
343.72654424336
 21
136.5410299949089
 31
0.0
  0
LINE
  5
A1
330
46
100
AcDbEntity
  8
1
  6
Continuous
 62
     7
100
AcDbLine
 10
363.72654424336
 20
102.5410299949082
 30
0.0
 11
363.7265442433587
 21
124.5410299949093
 31
0.0
  0
LINE
  5
A2
330
46
100
AcDbEntity
  8
1
  6
Continuous
 62
     2
100
AcDbLine
 10
362.72654424336
 20
102.5410299949082
 30
0.0
 11
362.7265442433599
 21
124.5410299949093
 31
0.0
  0
ENDBLK
  5
48
330
46
100
AcDbEntity
  8
0
100
AcDbBlockEnd
  0
BLOCK
  5
4A
330
49
100
AcDbEntity
  8
0
100
AcDbBlockBegin
  2
30-261-M1
 70
     0
 71
     0
 10
-28.21944307196099
 20
90.97022908416835
 30
0.0
  3
30-261-M1
  1

  0
LINE
  5
A3
330
49
100
AcDbEntity
  8
1
  6
Continuous
 62
     7
100
AcDbLine
 10
75.22654424336002
 20
147.8410299949076
 30
0.0
 11
75.22654424336002
 21
312.8410299949077
 31
0.0
  0
LINE
  5
A4
330
49
100
AcDbEntity
  8
1
  6
Continuous
 62
     7
100
AcDbLine
 10
111.22654424336
 20
239.6410299949082
 30
0.0
 11
111.22654424336
 21
147.8410299949076
 31
0.0
  0
LINE
  5
A5
330
49
100
AcDbEntity
  8
1
  6
Continuous
 62
     7
100
AcDbLine
 10
75.22654424336002
 20
147.8410299949076
 30
0.0
 11
75.52654424335992
 21
147.5410299949076
 31
0.0
  0
LINE
  5
A6
330
49
100
AcDbEntity
  8
1
  6
Continuous
 62
     7
100
AcDbLine
 10
75.22654424336002
 20
147.8410299949076
 30
0.0
 11
75.52654424335992
 21
147.5410299949076
 31
0.0
  0
LINE
  5
A7
330
49
100
AcDbEntity
  8
1
  6
Continuous
 62
     7
100
AcDbLine
 10
110.72654424336
 20
313.3410299949077
 30
0.0
 11
75.72654424336002
 21
313.3410299949077
 31
0.0
  0
LINE
  5
A8
330
49
100
AcDbEntity
  8
1
  6
Continuous
 62
     7
100
AcDbLine
 10
75.52654424335992
 20
147.5410299949076
 30
0.0
 11
110.9265442433485
 21
147.5410299948961
 31
0.0
  0
LINE
  5
A9
330
49
100
AcDbEntity
  8
1
  6
Continuous
 62
     7
100
AcDbLine
 10
110.92654424336
 20
147.5410299949076
 30
0.0
 11
111.22654424336
 21
147.8410299949076
 31
0.0
  0
LINE
  5
AA
330
49
100
AcDbEntity
  8
1
  6
Continuous
 62
     7
100
AcDbLine
 10
110.9265442433485
 20
147.5410299948961
 30
0.0
 11
111.22654424336
 21
147.8410299949076
 31
0.0
  0
LINE
  5
AB
330
49
100
AcDbEntity
  8
1
  6
Continuous
 62
     7
100
AcDbLine
 10
111.2265442433609
 20
312.8410299949077
 30
0.0
 11
111.22654424336
 21
270.6410299949082
 31
0.0
  0
LINE
  5
AC
330
49
100
AcDbEntity
  8
1
  6
Continuous
 62
     7
100
AcDbLine
 10
111.22654424336
 20
147.8410299949076
 30
0.0
 11
75.22654424336002
 21
147.8410299949076
 31
0.0
  0
LINE
  5
AD
330
49
100
AcDbEntity
  8
1
  6
Continuous
 62
     7
100
AcDbLine
 10
371.22654424336
 20
147.8410299949076
 30
0.0
 11
335.22654424336
 21
147.8410299949076
 31
0.0
  0
LINE
  5
AE
330
49
100
AcDbEntity
  8
1
  6
Continuous
 62
     7
100
AcDbLine
 10
370.9265442433485
 20
147.5410299948961
 30
0.0
 11
371.22654424336
 21
147.8410299949076
 31
0.0
  0
LINE
  5
AF
330
49
100
AcDbEntity
  8
1
  6
Continuous
 62
     7
100
AcDbLine
 10
370.92654424336
 20
147.5410299949076
 30
0.0
 11
371.22654424336
 21
147.8410299949076
 31
0.0
  0
LINE
  5
B0
330
49
100
AcDbEntity
  8
1
  6
Continuous
 62
     7
100
AcDbLine
 10
335.5265442433599
 20
147.5410299949076
 30
0.0
 11
370.9265442433485
 21
147.5410299948961
 31
0.0
  0
LINE
  5
B1
330
49
100
AcDbEntity
  8
1
  6
Continuous
 62
     7
100
AcDbLine
 10
370.72654424336
 20
313.3410299949077
 30
0.0
 11
335.72654424336
 21
313.3410299949077
 31
0.0
  0
LINE
  5
B2
330
49
100
AcDbEntity
  8
1
  6
Continuous
 62
     7
100
AcDbLine
 10
335.22654424336
 20
147.8410299949076
 30
0.0
 11
335.5265442433599
 21
147.5410299949076
 31
0.0
  0
LINE
  5
B3
330
49
100
AcDbEntity
  8
1
  6
Continuous
 62
     7
100
AcDbLine
 10
335.22654424336
 20
147.8410299949076
 30
0.0
 11
335.5265442433599
 21
147.5410299949076
 31
0.0
  0
LINE
  5
B4
330
49
100
AcDbEntity
  8
1
  6
Continuous
 62
     7
100
AcDbLine
 10
371.2265442433609
 20
312.8410299949077
 30
0.0
 11
371.22654424336
 21
147.8410299949076
 31
0.0
  0
LINE
  5
B5
330
49
100
AcDbEntity
  8
1
  6
Continuous
 62
     7
100
AcDbLine
 10
335.22654424336
 20
147.8410299949076
 30
0.0
 11
335.22654424336
 21
312.8410299949077
 31
0.0
  0
ARC
  5
B6
330
49
100
AcDbEntity
  8
1
  6
Continuous
 62
     7
100
AcDbCircle
 10
120.3780468522196
 20
255.1410299949082
 30
0.0
 40
17.999999999999
100
AcDbArc
 50
120.5584317859295
 51
-120.5584317859295
  0
ARC
  5
B7
330
49
100
AcDbEntity
  8
1
  6
Continuous
 62
     7
100
AcDbCircle
 10
353.22654424336
 20
550.8410299949077
 30
0.0
 40
17.99999999999997
100
AcDbArc
 50
-148.1445691759741
 51
0.0
  0
ARC
  5
B8
330
49
100
AcDbEntity
  8
1
  6
Continuous
 62
     7
100
AcDbCircle
 10
353.22654424336
 20
550.8410299949077
 30
0.0
 40
18.0
100
AcDbArc
 50
0.0
 51
148.1445691759741
  0
ARC
  5
B9
330
49
100
AcDbEntity
  8
1
  6
Continuous
 62
     7
100
AcDbCircle
 10
75.72654424336002
 20
312.8410299949077
 30
0.0
 40
0.5
100
AcDbArc
 50
90.0
 51
180.0
  0
ARC
  5
BA
330
49
100
AcDbEntity
  8
1
  6
Continuous
 62
     7
100
AcDbCircle
 10
110.72654424336
 20
312.8410299949077
 30
0.0
 40
0.5000000000009095
100
AcDbArc
 50
0.0
 51
90.0
  0
ARC
  5
BB
330
49
100
AcDbEntity
  8
1
  6
Continuous
 62
     7
100
AcDbCircle
 10
370.72654424336
 20
312.8410299949077
 30
0.0
 40
0.5000000000008527
100
AcDbArc
 50
0.0
 51
90.0
  0
ARC
  5
BC
330
49
100
AcDbEntity
  8
1
  6
Continuous
 62
     7
100
AcDbCircle
 10
335.72654424336
 20
312.8410299949077
 30
0.0
 40
0.5
100
AcDbArc
 50
90.0
 51
180.0
  0
ENDBLK
  5
4B
330
49
100
AcDbEntity
  8
0
100
AcDbBlockEnd
  0
BLOCK
  5
4D
330
4C
100
AcDbEntity
  8
0
100
AcDbBlockBegin
  2
31-87
 70
     0
 71
     0
 10
-58.67852871661847
 20
367.6410299949077
 30
0.0
  3
31-87
  1

  0
LINE
  5
BD
330
4C
100
AcDbEntity
  8
1
  6
Continuous
 62
     7
100
AcDbLine
 10
126.6265442433601
 20
270.1410299949076
 30
0.0
 11
110.4281724811544
 21
270.1410299949076
 31
0.0
  0
LINE
  5
BE
330
4C
100
AcDbEntity
  8
1
  6
Continuous
 62
     7
100
AcDbLine
 10
140.72654424336
 20
270.1410299949076
 30
0.0
 11
136.8265442433601
 21
270.1410299949076
 31
0.0
  0
LINE
  5
BF
330
4C
100
AcDbEntity
  8
1
  6
Continuous
 62
     7
100
AcDbLine
 10
140.72654424336
 20
240.1410299949077
 30
0.0
 11
110.428172481156
 21
240.1410299949077
 31
0.0
  0
LINE
  5
C0
330
4C
100
AcDbEntity
  8
1
  6
Continuous
 62
     7
100
AcDbLine
 10
141.72654424336
 20
269.1410299949076
 30
0.0
 11
141.72654424336
 21
241.1410299949077
 31
0.0
  0
LINE
  5
C1
330
4C
100
AcDbEntity
  8
1
  6
Continuous
 62
     7
100
AcDbLine
 10
367.22654424336
 20
502.3410299949076
 30
0.0
 11
339.22654424336
 21
502.3410299949076
 31
0.0
  0
LINE
  5
C2
330
4C
100
AcDbEntity
  8
1
  6
Continuous
 62
     7
100
AcDbLine
 10
338.22654424336
 20
503.3410299949076
 30
0.0
 11
338.22654424336
 21
540.8911556238414
 31
0.0
  0
LINE
  5
C3
330
4C
100
AcDbEntity
  8
1
  6
Continuous
 62
     7
100
AcDbLine
 10
368.22654424336
 20
503.3410299949076
 30
0.0
 11
368.22654424336
 21
540.8911556238414
 31
0.0
  0
ARC
  5
C4
330
4C
100
AcDbEntity
  8
1
  6
Continuous
 62
     7
100
AcDbCircle
 10
131.7265442433601
 20
284.7779695657337
 30
0.0
 40
15.50000000000047
100
AcDbArc
 50
-109.2100480275834
 51
-70.7899519724167
  0
ARC
  5
C5
330
4C
100
AcDbEntity
  8
1
  6
Continuous
 62
     7
100
AcDbCircle
 10
353.2265442433601
 20
245.0410299949081
 30
0.0
 40
1.500000000000002
100
AcDbArc
 50
175.7414430442991
 51
0.0
  0
ARC
  5
C6
330
4C
100
AcDbEntity
  8
1
  6
Continuous
 62
     7
100
AcDbCircle
 10
353.2265442433601
 20
245.0410299949081
 30
0.0
 40
1.5
100
AcDbArc
 50
0.0
 51
4.25855695570104
  0
ARC
  5
C7
330
4C
100
AcDbEntity
  8
1
  6
Continuous
 62
     7
100
AcDbCircle
 10
353.2265442433601
 20
255.1410299949077
 30
0.0
 40
10.09999999999974
100
AcDbArc
 50
0.0
 51
-98.51711391140495
  0
ARC
  5
C8
330
4C
100
AcDbEntity
  8
1
  6
Continuous
 62
     7
100
AcDbCircle
 10
353.2265442433601
 20
255.1410299949077
 30
0.0
 40
10.09999999999966
100
AcDbArc
 50
-81.48288608859539
 51
0.0
  0
CIRCLE
  5
C9
330
4C
100
AcDbEntity
  8
1
  6
Continuous
 62
     7
100
AcDbCircle
 10
353.2265442433601
 20
255.1410299949077
 30
0.0
 40
15.0
  0
ARC
  5
CA
330
4C
100
AcDbEntity
  8
1
  6
Continuous
 62
     7
100
AcDbCircle
 10
140.72654424336
 20
241.1410299949077
 30
0.0
 40
1.0
100
AcDbArc
 50
-90.0
 51
0.0
  0
ARC
  5
CB
330
4C
100
AcDbEntity
  8
1
  6
Continuous
 62
     7
100
AcDbCircle
 10
140.72654424336
 20
269.1410299949076
 30
0.0
 40
1.0
100
AcDbArc
 50
0.0
 51
90.0
  0
ARC
  5
CC
330
4C
100
AcDbEntity
  8
1
  6
Continuous
 62
     7
100
AcDbCircle
 10
367.22654424336
 20
503.3410299949076
 30
0.0
 40
1.0
100
AcDbArc
 50
-90.0
 51
0.0
  0
ARC
  5
CD
330
4C
100
AcDbEntity
  8
1
  6
Continuous
 62
     7
100
AcDbCircle
 10
339.22654424336
 20
503.3410299949076
 30
0.0
 40
1.0
100
AcDbArc
 50
180.0
 51
-90.0
  0
ENDBLK
  5
4E
330
4C
100
AcDbEntity
  8
0
100
AcDbBlockEnd
  0
BLOCK
  5
50
330
4F
100
AcDbEntity
  8
0
100
AcDbBlockBegin
  2
37-338-M11
 70
     0
 71
     0
 10
17.76591924336009
 20
109.8911718155355
 30
0.0
  3
37-338-M11
  1

  0
LINE
  5
CE
330
4F
100
AcDbEntity
  8
1
  6
Continuous
 62
     7
100
AcDbLine
 10
131.72654424336
 20
313.1410299949077
 30
0.0
 11
127.22654424336
 21
313.1410299949077
 31
0.0
  0
LINE
  5
CF
330
4F
100
AcDbEntity
  8
1
  6
Continuous
 62
     7
100
AcDbLine
 10
126.72654424336
 20
270.1410299949076
 30
0.0
 11
126.72654424336
 21
312.6410299949077
 31
0.0
  0
LINE
  5
D0
330
4F
100
AcDbEntity
  8
1
  6
Continuous
 62
     7
100
AcDbLine
 10
136.72654424336
 20
312.6410299949077
 30
0.0
 11
136.72654424336
 21
270.1410299949076
 31
0.0
  0
LINE
  5
D1
330
4F
100
AcDbEntity
  8
1
  6
Continuous
 62
     7
100
AcDbLine
 10
136.22654424336
 20
313.1410299949077
 30
0.0
 11
131.72654424336
 21
313.1410299949077
 31
0.0
  0
LINE
  5
D2
330
4F
100
AcDbEntity
  8
1
  6
Continuous
 62
     7
100
AcDbLine
 10
357.7265442433601
 20
313.1410299949077
 30
0.0
 11
353.2265442433601
 21
313.1410299949077
 31
0.0
  0
LINE
  5
D3
330
4F
100
AcDbEntity
  8
1
  6
Continuous
 62
     7
100
AcDbLine
 10
358.2265442433601
 20
312.6410299949077
 30
0.0
 11
358.2265442433601
 21
269.1967435370744
 31
0.0
  0
LINE
  5
D4
330
4F
100
AcDbEntity
  8
1
  6
Continuous
 62
     7
100
AcDbLine
 10
348.2265442433601
 20
269.1967435370744
 30
0.0
 11
348.2265442433599
 21
312.6410299949077
 31
0.0
  0
LINE
  5
D5
330
4F
100
AcDbEntity
  8
1
  6
Continuous
 62
     7
100
AcDbLine
 10
353.2265442433601
 20
313.1410299949077
 30
0.0
 11
348.7265442433601
 21
313.1410299949077
 31
0.0
  0
LINE
  5
D6
330
4F
100
AcDbEntity
  8
1
  6
CENTER_DASH_DASH
 62
     2
100
AcDbLine
 10
295.22654424336
 20
255.1410299949077
 30
0.0
 11
295.22654424336
 21
250.6410299949077
 31
0.0
  0
LINE
  5
D7
330
4F
100
AcDbEntity
  8
1
  6
CENTER_DASH_DASH
 62
     2
100
AcDbLine
 10
339.1708307011933
 20
250.1410299949077
 30
0.0
 11
295.72654424336
 21
250.1410299949075
 31
0.0
  0
LINE
  5
D8
330
4F
100
AcDbEntity
  8
1
  6
CENTER_DASH_DASH
 62
     2
100
AcDbLine
 10
295.72654424336
 20
260.1410299949076
 30
0.0
 11
339.1708307011933
 21
260.1410299949076
 31
0.0
  0
LINE
  5
D9
330
4F
100
AcDbEntity
  8
1
  6
CENTER_DASH_DASH
 62
     2
100
AcDbLine
 10
295.22654424336
 20
259.6410299949076
 30
0.0
 11
295.22654424336
 21
255.1410299949077
 31
0.0
  0
CIRCLE
  5
DA
330
4F
100
AcDbEntity
  8
1
  6
Continuous
 62
     7
100
AcDbCircle
 10
353.22654424336
 20
512.3410299949077
 30
0.0
 40
5.000000000000057
  0
ARC
  5
DB
330
4F
100
AcDbEntity
  8
1
  6
Continuous
 62
     7
100
AcDbCircle
 10
127.22654424336
 20
312.6410299949077
 30
0.0
 40
0.5
100
AcDbArc
 50
90.0
 51
180.0
  0
ARC
  5
DC
330
4F
100
AcDbEntity
  8
1
  6
Continuous
 62
     7
100
AcDbCircle
 10
136.22654424336
 20
312.6410299949077
 30
0.0
 40
0.5
100
AcDbArc
 50
0.0
 51
90.0
  0
ARC
  5
DD
330
4F
100
AcDbEntity
  8
1
  6
Continuous
 62
     7
100
AcDbCircle
 10
357.7265442433601
 20
312.6410299949077
 30
0.0
 40
0.5
100
AcDbArc
 50
0.0
 51
90.0
  0
ARC
  5
DE
330
4F
100
AcDbEntity
  8
1
  6
Continuous
 62
     7
100
AcDbCircle
 10
348.7265442433601
 20
312.6410299949077
 30
0.0
 40
0.5
100
AcDbArc
 50
90.0
 51
180.0
  0
ARC
  5
DF
330
4F
100
AcDbEntity
  8
1
  6
CENTER_DASH_DASH
 62
     2
100
AcDbCircle
 10
295.72654424336
 20
250.6410299949077
 30
0.0
 40
0.5
100
AcDbArc
 50
180.0
 51
-90.0
  0
ARC
  5
E0
330
4F
100
AcDbEntity
  8
1
  6
CENTER_DASH_DASH
 62
     2
100
AcDbCircle
 10
295.72654424336
 20
259.6410299949076
 30
0.0
 40
0.5
100
AcDbArc
 50
90.0
 51
180.0
  0
ENDBLK
  5
51
330
4F
100
AcDbEntity
  8
0
100
AcDbBlockEnd
  0
BLOCK
  5
53
330
52
100
AcDbEntity
  8
0
100
AcDbBlockBegin
  2
98-190
 70
     0
 71
     0
 10
-398.0780868091962
 20
6.45938781890959
 30
0.0
  3
98-190
  1

  0
LINE
  5
E1
330
52
100
AcDbEntity
  8
1
  6
Continuous
 62
     7
100
AcDbLine
 10
109.2265442433598
 20
147.5410299948963
 30
0.0
 11
109.2265442433598
 21
146.5410299949076
 31
0.0
  0
LINE
  5
E2
330
52
100
AcDbEntity
  8
1
  6
Continuous
 62
     7
100
AcDbLine
 10
77.22654424336022
 20
146.5410299949076
 30
0.0
 11
77.22654424336022
 21
147.5410299948963
 31
0.0
  0
LINE
  5
E3
330
52
100
AcDbEntity
  8
1
  6
Continuous
 62
     7
100
AcDbLine
 10
77.22654424336022
 20
146.5410299949076
 30
0.0
 11
109.2265442433598
 21
146.5410299949076
 31
0.0
  0
LINE
  5
E4
330
52
100
AcDbEntity
  8
1
  6
Continuous
 62
     7
100
AcDbLine
 10
337.2265442433602
 20
146.5410299949076
 30
0.0
 11
369.2265442433599
 21
146.5410299949076
 31
0.0
  0
LINE
  5
E5
330
52
100
AcDbEntity
  8
1
  6
Continuous
 62
     7
100
AcDbLine
 10
337.2265442433602
 20
146.5410299949076
 30
0.0
 11
337.2265442433602
 21
147.5410299948963
 31
0.0
  0
LINE
  5
E6
330
52
100
AcDbEntity
  8
1
  6
Continuous
 62
     7
100
AcDbLine
 10
369.2265442433599
 20
147.5410299948963
 30
0.0
 11
369.2265442433599
 21
146.5410299949076
 31
0.0
  0
ENDBLK
  5
54
330
52
100
AcDbEntity
  8
0
100
AcDbBlockEnd
  0
BLOCK
  5
56
330
55
100
AcDbEntity
  8
0
100
AcDbBlockBegin
  2
92-53
 70
     0
 71
     0
 10
-672.5405103585284
 20
-378.2400846228167
 30
0.0
  3
92-53
  1

  0
LINE
  5
E7
330
55
100
AcDbEntity
  8
1
  6
Continuous
 62
     7
100
AcDbLine
 10
371.7265442433601
 20
136.5410299949089
 30
0.0
 11
334.7265442433601
 21
136.5410299949089
 31
0.0
  0
LINE
  5
E8
330
55
100
AcDbEntity
  8
1
  6
Continuous
 62
     7
100
AcDbLine
 10
371.7265442433601
 20
135.0410299949089
 30
0.0
 11
371.7265442433601
 21
136.5410299949089
 31
0.0
  0
LINE
  5
E9
330
55
100
AcDbEntity
  8
1
  6
Continuous
 62
     7
100
AcDbLine
 10
334.7265442433601
 20
136.5410299949089
 30
0.0
 11
334.7265442433601
 21
135.0410299949089
 31
0.0
  0
LINE
  5
EA
330
55
100
AcDbEntity
  8
1
  6
Continuous
 62
     7
100
AcDbLine
 10
74.72654424336014
 20
136.5410299949089
 30
0.0
 11
74.72654424336014
 21
135.0410299949089
 31
0.0
  0
LINE
  5
EB
330
55
100
AcDbEntity
  8
1
  6
Continuous
 62
     7
100
AcDbLine
 10
111.72654424336
 20
135.0410299949089
 30
0.0
 11
111.72654424336
 21
136.5410299949089
 31
0.0
  0
LINE
  5
EC
330
55
100
AcDbEntity
  8
1
  6
Continuous
 62
     7
100
AcDbLine
 10
111.72654424336
 20
136.5410299949089
 30
0.0
 11
74.72654424336014
 21
136.5410299949089
 31
0.0
  0
ENDBLK
  5
57
330
55
100
AcDbEntity
  8
0
100
AcDbBlockEnd
  0
BLOCK
  5
59
330
58
100
AcDbEntity
  8
0
100
AcDbBlockBegin
  2
73-1-21_5
 70
     0
 71
     0
 10
-779.465820379978
 20
-282.4733646712272
 30
0.0
  3
73-1-21_5
  1

  0
LINE
  5
ED
330
58
100
AcDbEntity
  8
1
  6
Continuous
 62
     7
100
AcDbLine
 10
334.9633772365089
 20
134.0410299949093
 30
0.0
 11
340.8573760120686
 21
134.0410299949093
 31
0.0
  0
LINE
  5
EE
330
58
100
AcDbEntity
  8
1
  6
Continuous
 62
     7
100
AcDbLine
 10
341.5644827932555
 20
134.0410299949093
 30
0.0
 11
348.3455610564308
 21
134.0410299949093
 31
0.0
  0
LINE
  5
EF
330
58
100
AcDbEntity
  8
1
  6
Continuous
 62
     7
100
AcDbLine
 10
349.3114868827199
 20
134.0410299949093
 30
0.0
 11
357.1416016040004
 21
134.0410299949093
 31
0.0
  0
LINE
  5
F0
330
58
100
AcDbEntity
  8
1
  6
Continuous
 62
     7
100
AcDbLine
 10
358.1075274302897
 20
134.0410299949093
 30
0.0
 11
364.888605693465
 21
134.0410299949093
 31
0.0
  0
LINE
  5
F1
330
58
100
AcDbEntity
  8
1
  6
Continuous
 62
     7
100
AcDbLine
 10
365.5957124746516
 20
134.0410299949093
 30
0.0
 11
371.4897112502114
 21
134.0410299949093
 31
0.0
  0
LINE
  5
F2
330
58
100
AcDbEntity
  8
1
  6
Continuous
 62
     7
100
AcDbLine
 10
331.7265442433601
 20
135.0410299949093
 30
0.0
 11
331.7265442433601
 21
134.0410299949093
 31
0.0
  0
LINE
  5
F3
330
58
100
AcDbEntity
  8
1
  6
Continuous
 62
     7
100
AcDbLine
 10
331.7265442433601
 20
134.0410299949093
 30
0.0
 11
334.9633772365089
 21
134.0410299949093
 31
0.0
  0
LINE
  5
F4
330
58
100
AcDbEntity
  8
1
  6
Continuous
 62
     7
100
AcDbLine
 10
341.5017256518199
 20
132.5410299949093
 30
0.0
 11
344.2972088074845
 21
132.5410299949093
 31
0.0
  0
LINE
  5
F5
330
58
100
AcDbEntity
  8
1
  6
Continuous
 62
     7
100
AcDbLine
 10
345.1632342112691
 20
132.5410299949093
 30
0.0
 11
352.7265442350405
 21
132.5410299949093
 31
0.0
  0
LINE
  5
F6
330
58
100
AcDbEntity
  8
1
  6
Continuous
 62
     7
100
AcDbLine
 10
353.2265442433601
 20
135.0410299949093
 30
0.0
 11
331.7265442433601
 21
135.0410299949093
 31
0.0
  0
LINE
  5
F7
330
58
100
AcDbEntity
  8
1
  6
Continuous
 62
     7
100
AcDbLine
 10
374.7265442433601
 20
135.0410299949093
 30
0.0
 11
353.2265442433601
 21
135.0410299949093
 31
0.0
  0
LINE
  5
F8
330
58
100
AcDbEntity
  8
1
  6
Continuous
 62
     7
100
AcDbLine
 10
353.7265442516797
 20
132.5410299949093
 30
0.0
 11
361.2898542754514
 21
132.5410299949093
 31
0.0
  0
LINE
  5
F9
330
58
100
AcDbEntity
  8
1
  6
Continuous
 62
     7
100
AcDbLine
 10
362.1558796792357
 20
132.5410299949093
 30
0.0
 11
364.9513628349006
 21
132.5410299949093
 31
0.0
  0
LINE
  5
FA
330
58
100
AcDbEntity
  8
1
  6
Continuous
 62
     7
100
AcDbLine
 10
371.4897112502114
 20
134.0410299949093
 30
0.0
 11
374.7265442433601
 21
134.0410299949093
 31
0.0
  0
LINE
  5
FB
330
58
100
AcDbEntity
  8
1
  6
Continuous
 62
     7
100
AcDbLine
 10
374.7265442433601
 20
134.0410299949093
 30
0.0
 11
374.7265442433601
 21
135.0410299949093
 31
0.0
  0
LINE
  5
FC
330
58
100
AcDbEntity
  8
1
  6
Continuous
 62
     7
100
AcDbLine
 10
114.72654424336
 20
134.0410299949093
 30
0.0
 11
114.72654424336
 21
135.0410299949093
 31
0.0
  0
LINE
  5
FD
330
58
100
AcDbEntity
  8
1
  6
Continuous
 62
     7
100
AcDbLine
 10
111.4897112502111
 20
134.0410299949093
 30
0.0
 11
114.72654424336
 21
134.0410299949093
 31
0.0
  0
LINE
  5
FE
330
58
100
AcDbEntity
  8
1
  6
Continuous
 62
     7
100
AcDbLine
 10
114.72654424336
 20
135.0410299949093
 30
0.0
 11
93.22654424336002
 21
135.0410299949093
 31
0.0
  0
LINE
  5
FF
330
58
100
AcDbEntity
  8
1
  6
Continuous
 62
     7
100
AcDbLine
 10
93.22654424336002
 20
135.0410299949093
 30
0.0
 11
71.72654424336014
 21
135.0410299949093
 31
0.0
  0
LINE
  5
100
330
58
100
AcDbEntity
  8
1
  6
Continuous
 62
     7
100
AcDbLine
 10
71.72654424336014
 20
134.0410299949093
 30
0.0
 11
74.96337723650913
 21
134.0410299949089
 31
0.0
  0
LINE
  5
101
330
58
100
AcDbEntity
  8
1
  6
Continuous
 62
     7
100
AcDbLine
 10
71.72654424336014
 20
135.0410299949093
 30
0.0
 11
71.72654424336014
 21
134.0410299949093
 31
0.0
  0
LINE
  5
102
330
58
100
AcDbEntity
  8
1
  6
Continuous
 62
     7
100
AcDbLine
 10
105.5957124746511
 20
134.0410299949093
 30
0.0
 11
111.4897112502111
 21
134.0410299949093
 31
0.0
  0
LINE
  5
103
330
58
100
AcDbEntity
  8
1
  6
Continuous
 62
     7
100
AcDbLine
 10
98.10752743029011
 20
134.0410299949093
 30
0.0
 11
104.8886056934651
 21
134.0410299949093
 31
0.0
  0
LINE
  5
104
330
58
100
AcDbEntity
  8
1
  6
Continuous
 62
     7
100
AcDbLine
 10
89.31148688272023
 20
134.0410299949093
 30
0.0
 11
97.14160160400013
 21
134.0410299949093
 31
0.0
  0
LINE
  5
105
330
58
100
AcDbEntity
  8
1
  6
Continuous
 62
     7
100
AcDbLine
 10
81.56448279325522
 20
134.0410299949093
 30
0.0
 11
88.34556105643111
 21
134.0410299949093
 31
0.0
  0
LINE
  5
106
330
58
100
AcDbEntity
  8
1
  6
Continuous
 62
     7
100
AcDbLine
 10
74.96337723650913
 20
134.0410299949089
 30
0.0
 11
80.85737601206921
 21
134.0410299949093
 31
0.0
  0
ARC
  5
107
330
58
100
AcDbEntity
  8
1
  6
Continuous
 62
     7
100
AcDbCircle
 10
341.5017256518206
 20
142.5410299949089
 30
0.0
 40
10.00000000000004
100
AcDbArc
 50
-115.8419327631729
 51
-90.00000000000391
  0
ARC
  5
108
330
58
100
AcDbEntity
  8
1
  6
Continuous
 62
     7
100
AcDbCircle
 10
364.9513628349006
 20
142.5410299949091
 30
0.0
 40
9.999999999999801
100
AcDbArc
 50
-90.0
 51
-64.1580672368338
  0
ARC
  5
109
330
58
100
AcDbEntity
  8
1
  6
Continuous
 62
     7
100
AcDbCircle
 10
104.9513628349001
 20
142.5410299949089
 30
0.0
 40
9.999999999999602
100
AcDbArc
 50
-90.0
 51
-64.15806723682964
  0
ARC
  5
10A
330
58
100
AcDbEntity
  8
1
  6
Continuous
 62
     7
100
AcDbCircle
 10
81.50172565182021
 20
142.5410299949089
 30
0.0
 40
9.999999999999819
100
AcDbArc
 50
-115.8419327631702
 51
-90.0000000000062
  0
SPLINE
  5
10B
330
58
100
AcDbEntity
  8
1
  6
Continuous
 62
     7
100
AcDbSpline
210
0.0
220
0.0
230
1.0
 70
     8
 71
     3
 72
    31
 73
    27
 74
    25
 42
0.0000000001
 43
0.0000000001
 44
0.00000001
 40
0.0
 40
0.0
 40
0.0
 40
0.0
 40
0.2709659710335029
 40
0.5252266839304979
 40
1.065749190585523
 40
1.674599336098419
 40
2.320394600532212
 40
2.934363290976907
 40
3.290221352613967
 40
3.646480795373446
 40
4.682658409192338
 40
5.750236620427372
 40
6.775822655106091
 40
7.20880282195319
 40
7.646130370974761
 40
8.816358620110611
 40
10.01163910179228
 40
11.17461240778506
 40
11.65874765657674
 40
12.14501675690699
 40
13.08086599414844
 40
14.0409901469
 40
14.98716393936358
 40
15.89608035137238
 40
16.14448975988119
 40
16.39628796123996
 40
16.39628796123996
 40
16.39628796123996
 40
16.39628796123996
 10
78.26048159059812
 20
133.0808853376855
 30
0.0
 10
78.3438781449936
 20
133.0465860547155
 30
0.0
 10
78.50552979279757
 20
132.9801020656494
 30
0.0
 10
78.85224892224673
 20
132.8829357705332
 30
0.0
 10
79.33239331732081
 20
133.0147176779131
 30
0.0
 10
79.80653098109249
 20
133.3817561733398
 30
0.0
 10
80.28500332270336
 20
133.7767039244839
 30
0.0
 10
80.76552290351751
 20
134.0488822695946
 30
0.0
 10
81.21139650275676
 20
134.0971418161803
 30
0.0
 10
81.79397812000221
 20
134.0237880773387
 30
0.0
 10
82.5347221546119
 20
133.6159894522694
 30
0.0
 10
83.33164070834116
 20
132.9600260443365
 30
0.0
 10
84.09425642929121
 20
132.5416749074805
 30
0.0
 10
84.7298373123726
 20
132.4840180096973
 30
0.0
 10
85.4106606511418
 20
132.5523617949218
 30
0.0
 10
86.27763081592772
 20
132.957571395882
 30
0.0
 10
87.23820565143384
 20
133.620394756484
 30
0.0
 10
88.11487789716955
 20
134.0362472130027
 30
0.0
 10
88.82823739466177
 20
134.1027632576542
 30
0.0
 10
89.46508457161842
 20
134.0429830458995
 30
0.0
 10
90.21223051311598
 20
133.7382931840401
 30
0.0
 10
91.01477196225568
 20
133.2368407184795
 30
0.0
 10
91.82041383166538
 20
132.7552997776471
 30
0.0
 10
92.50554581403186
 20
132.5397063140591
 30
0.0
 10
92.97608882164809
 20
132.5315315768764
 30
0.0
 10
93.14268289047398
 20
132.5378495878689
 30
0.0
 10
93.22654424336002
 20
132.5410299949093
 30
0.0
 11
78.26048159059812
 21
133.0808853376855
 31
0.0
 11
78.51312516492745
 21
132.9829374851913
 31
0.0
 11
78.76048159059812
 21
132.9240876015693
 31
0.0
 11
79.28920488877257
 21
133.0364097016572
 31
0.0
 11
79.79439122059108
 21
133.3762409389425
 31
0.0
 11
80.30684634278089
 21
133.7692311058761
 31
0.0
 11
80.85737601206921
 21
134.0410299949093
 31
0.0
 11
81.21072728996099
 21
134.0831943690222
 31
0.0
 11
81.56448279325522
 21
134.0410299949093
 31
0.0
 11
82.5015592043011
 21
133.5988175490863
 31
0.0
 11
83.36805057346781
 21
132.9751862924423
 31
0.0
 11
84.29720880748423
 21
132.5410299949093
 31
0.0
 11
84.72803706984773
 21
132.4979158066207
 31
0.0
 11
85.16323421126921
 21
132.5410299949093
 31
0.0
 11
86.24841294573203
 21
132.9790040459046
 31
0.0
 11
87.26892773041236
 21
133.6012941744926
 31
0.0
 11
88.34556105643111
 21
134.0410299949093
 31
0.0
 11
88.82745209699651
 21
134.0875913967931
 31
0.0
 11
89.31148688272023
 21
134.0410299949093
 31
0.0
 11
90.19017717513448
 21
133.7189785007933
 31
0.0
 11
91.02055004983873
 21
133.2369833995191
 31
0.0
 11
91.85015568114369
 21
132.78201159594
 31
0.0
 11
92.72654424336002
 21
132.5410299949093
 31
0.0
 11
92.97484914338821
 21
132.5338250759167
 31
0.0
 11
93.22654424336002
 21
132.5410299949093
 31
0.0
  0
SPLINE
  5
10C
330
58
100
AcDbEntity
  8
1
  6
Continuous
 62
     7
100
AcDbSpline
210
0.0
220
0.0
230
1.0
 70
     8
 71
     3
 72
    31
 73
    27
 74
    25
 42
0.0000000001
 43
0.0000000001
 44
0.00000001
 40
0.0
 40
0.0
 40
0.0
 40
0.0
 40
0.270965971033425
 40
0.5252266839304345
 40
1.065749190585486
 40
1.67459933609831
 40
2.320394600532
 40
2.934363290976644
 40
3.290221352613676
 40
3.646480795373169
 40
4.682658409192062
 40
5.750236620427096
 40
6.775822655105815
 40
7.208802821952914
 40
7.646130370974485
 40
8.816358620110062
 40
10.01163910179149
 40
11.17461240778398
 40
11.65874765657608
 40
12.14501675690678
 40
13.08086599414832
 40
14.04099014689997
 40
14.98716393936359
 40
15.89608035137244
 40
16.14448975988129
 40
16.39628796124002
 40
16.39628796124002
 40
16.39628796124002
 40
16.39628796124002
 10
108.1926068961221
 20
133.0808853376855
 30
0.0
 10
108.1092103417266
 20
133.0465860547156
 30
0.0
 10
107.9475586939226
 20
132.9801020656495
 30
0.0
 10
107.6008395644735
 20
132.8829357705333
 30
0.0
 10
107.1206951693994
 20
133.0147176779134
 30
0.0
 10
106.6465575056278
 20
133.3817561733399
 30
0.0
 10
106.1680851640169
 20
133.7767039244841
 30
0.0
 10
105.6875655832028
 20
134.0488822695946
 30
0.0
 10
105.2416919839636
 20
134.0971418161803
 30
0.0
 10
104.6591103667181
 20
134.0237880773388
 30
0.0
 10
103.9183663321084
 20
133.6159894522693
 30
0.0
 10
103.1214477783792
 20
132.9600260443366
 30
0.0
 10
102.3588320574291
 20
132.5416749074805
 30
0.0
 10
101.7232511743477
 20
132.4840180096974
 30
0.0
 10
101.0424278355786
 20
132.5523617949218
 30
0.0
 10
100.1754576707929
 20
132.957571395882
 30
0.0
 10
99.21488283528706
 20
133.620394756484
 30
0.0
 10
98.33821058955144
 20
134.0362472130026
 30
0.0
 10
97.62485109205899
 20
134.1027632576544
 30
0.0
 10
96.9880039151021
 20
134.0429830458994
 30
0.0
 10
96.24085797360429
 20
133.73829318404
 30
0.0
 10
95.43831652446455
 20
133.2368407184795
 30
0.0
 10
94.63267465505473
 20
132.7552997776469
 30
0.0
 10
93.94754267268824
 20
132.5397063140591
 30
0.0
 10
93.47699966507192
 20
132.5315315768764
 30
0.0
 10
93.31040559624607
 20
132.537849587869
 30
0.0
 10
93.22654424336002
 20
132.5410299949093
 30
0.0
 11
108.1926068961221
 21
133.0808853376855
 31
0.0
 11
107.9399633217928
 21
132.9829374851914
 31
0.0
 11
107.6926068961221
 21
132.9240876015695
 31
0.0
 11
107.1638835979476
 21
133.0364097016575
 31
0.0
 11
106.6586972661292
 21
133.3762409389427
 31
0.0
 11
106.1462421439394
 21
133.7692311058762
 31
0.0
 11
105.5957124746511
 21
134.0410299949093
 31
0.0
 11
105.2423611967594
 21
134.0831943690222
 31
0.0
 11
104.8886056934651
 21
134.0410299949093
 31
0.0
 11
103.9515292824192
 21
133.5988175490863
 31
0.0
 11
103.0850379132525
 21
132.9751862924423
 31
0.0
 11
102.1558796792361
 21
132.5410299949093
 31
0.0
 11
101.7250514168726
 21
132.4979158066207
 31
0.0
 11
101.2898542754511
 21
132.5410299949093
 31
0.0
 11
100.2046755409886
 21
132.9790040459046
 31
0.0
 11
99.18416075630853
 21
133.6012941744926
 31
0.0
 11
98.10752743029011
 21
134.0410299949093
 31
0.0
 11
97.62563638972429
 21
134.0875913967932
 31
0.0
 11
97.14160160400013
 21
134.0410299949093
 31
0.0
 11
96.26291131158581
 21
133.7189785007932
 31
0.0
 11
95.43253843688146
 21
133.236983399519
 31
0.0
 11
94.60293280557643
 21
132.78201159594
 31
0.0
 11
93.72654424336002
 21
132.5410299949093
 31
0.0
 11
93.47823934333181
 21
132.5338250759167
 31
0.0
 11
93.22654424336002
 21
132.5410299949093
 31
0.0
  0
SPLINE
  5
10D
330
58
100
AcDbEntity
  8
1
  6
Continuous
 62
     7
100
AcDbSpline
210
0.0
220
0.0
230
1.0
 70
     8
 71
     3
 72
    31
 73
    27
 74
    25
 42
0.0000000001
 43
0.0000000001
 44
0.00000001
 40
0.0
 40
0.0
 40
0.0
 40
0.0
 40
0.2709659710335162
 40
0.5252266839304973
 40
1.065749190585231
 40
1.674599336097973
 40
2.320394600531524
 40
2.934363290976027
 40
3.290221352613312
 40
3.646480795373129
 40
4.682658409192146
 40
5.750236620427249
 40
6.775822655106076
 40
7.208802821952816
 40
7.646130370974056
 40
8.816358620109835
 40
10.01163910179141
 40
11.17461240778419
 40
11.65874765657589
 40
12.14501675690627
 40
13.08086599414784
 40
14.04099014689957
 40
14.98716393936325
 40
15.89608035137215
 40
16.14448975988096
 40
16.39628796123973
 40
16.39628796123973
 40
16.39628796123973
 40
16.39628796123973
 10
368.1926068961217
 20
133.0808853376855
 30
0.0
 10
368.1092103417262
 20
133.0465860547156
 30
0.0
 10
367.9475586939223
 20
132.9801020656494
 30
0.0
 10
367.6008395644731
 20
132.8829357705331
 30
0.0
 10
367.1206951693993
 20
133.0147176779132
 30
0.0
 10
366.6465575056278
 20
133.3817561733397
 30
0.0
 10
366.1680851640172
 20
133.776703924484
 30
0.0
 10
365.6875655832032
 20
134.0488822695946
 30
0.0
 10
365.2416919839638
 20
134.0971418161804
 30
0.0
 10
364.6591103667181
 20
134.0237880773387
 30
0.0
 10
363.9183663321082
 20
133.6159894522692
 30
0.0
 10
363.121447778379
 20
132.9600260443364
 30
0.0
 10
362.3588320574288
 20
132.5416749074805
 30
0.0
 10
361.7232511743478
 20
132.4840180096975
 30
0.0
 10
361.0424278355786
 20
132.5523617949218
 30
0.0
 10
360.175457670793
 20
132.9575713958819
 30
0.0
 10
359.214882835287
 20
133.620394756484
 30
0.0
 10
358.3382105895512
 20
134.0362472130026
 30
0.0
 10
357.624851092059
 20
134.1027632576543
 30
0.0
 10
356.9880039151022
 20
134.0429830458994
 30
0.0
 10
356.2408579736046
 20
133.7382931840401
 30
0.0
 10
355.4383165244645
 20
133.2368407184796
 30
0.0
 10
354.6326746550549
 20
132.7552997776469
 30
0.0
 10
353.9475426726884
 20
132.5397063140591
 30
0.0
 10
353.476999665072
 20
132.5315315768764
 30
0.0
 10
353.3104055962461
 20
132.5378495878689
 30
0.0
 10
353.2265442433601
 20
132.5410299949093
 30
0.0
 11
368.1926068961217
 21
133.0808853376855
 31
0.0
 11
367.9399633217923
 21
132.9829374851913
 31
0.0
 11
367.6926068961217
 21
132.9240876015693
 31
0.0
 11
367.1638835979475
 21
133.0364097016572
 31
0.0
 11
366.6586972661292
 21
133.3762409389425
 31
0.0
 11
366.1462421439397
 21
133.7692311058761
 31
0.0
 11
365.5957124746516
 21
134.0410299949093
 31
0.0
 11
365.2423611967596
 21
134.0831943690224
 31
0.0
 11
364.888605693465
 21
134.0410299949093
 31
0.0
 11
363.9515292824191
 21
133.5988175490861
 31
0.0
 11
363.0850379132523
 21
132.9751862924421
 31
0.0
 11
362.1558796792357
 21
132.5410299949093
 31
0.0
 11
361.7250514168725
 21
132.4979158066208
 31
0.0
 11
361.2898542754514
 21
132.5410299949093
 31
0.0
 11
360.2046755409886
 21
132.9790040459045
 31
0.0
 11
359.1841607563084
 21
133.6012941744926
 31
0.0
 11
358.1075274302897
 21
134.0410299949093
 31
0.0
 11
357.6256363897243
 21
134.0875913967931
 31
0.0
 11
357.1416016040004
 21
134.0410299949093
 31
0.0
 11
356.262911311586
 21
133.7189785007933
 31
0.0
 11
355.4325384368816
 21
133.2369833995191
 31
0.0
 11
354.6029328055765
 21
132.78201159594
 31
0.0
 11
353.7265442433601
 21
132.5410299949093
 31
0.0
 11
353.4782393433319
 21
132.5338250759167
 31
0.0
 11
353.2265442433601
 21
132.5410299949093
 31
0.0
  0
SPLINE
  5
10E
330
58
100
AcDbEntity
  8
1
  6
Continuous
 62
     7
100
AcDbSpline
210
0.0
220
0.0
230
1.0
 70
     8
 71
     3
 72
    31
 73
    27
 74
    25
 42
0.0000000001
 43
0.0000000001
 44
0.00000001
 40
0.0
 40
0.0
 40
0.0
 40
0.0
 40
0.2709659710334118
 40
0.5252266839304352
 40
1.065749190585242
 40
1.674599336097842
 40
2.320394600531386
 40
2.934363290975826
 40
3.290221352613337
 40
3.646480795373267
 40
4.682658409192257
 40
5.750236620427252
 40
6.775822655105912
 40
7.208802821952827
 40
7.646130370974243
 40
8.816358620109938
 40
10.01163910179165
 40
11.17461240778436
 40
11.65874765657606
 40
12.14501675690627
 40
13.08086599414778
 40
14.04099014689945
 40
14.98716393936313
 40
15.89608035137198
 40
16.1444897598808
 40
16.39628796123956
 40
16.39628796123956
 40
16.39628796123956
 40
16.39628796123956
 10
338.2604815905985
 20
133.0808853376855
 30
0.0
 10
338.343878144994
 20
133.0465860547156
 30
0.0
 10
338.505529792798
 20
132.9801020656495
 30
0.0
 10
338.852248922247
 20
132.8829357705333
 30
0.0
 10
339.332393317321
 20
133.0147176779135
 30
0.0
 10
339.8065309810924
 20
133.3817561733398
 30
0.0
 10
340.2850033227031
 20
133.7767039244839
 30
0.0
 10
340.7655229035171
 20
134.0488822695947
 30
0.0
 10
341.2113965027565
 20
134.0971418161804
 30
0.0
 10
341.7939781200025
 20
134.0237880773388
 30
0.0
 10
342.534722154612
 20
133.6159894522692
 30
0.0
 10
343.3316407083414
 20
132.9600260443363
 30
0.0
 10
344.0942564292914
 20
132.5416749074805
 30
0.0
 10
344.7298373123726
 20
132.4840180096974
 30
0.0
 10
345.4106606511418
 20
132.5523617949218
 30
0.0
 10
346.2776308159275
 20
132.9575713958821
 30
0.0
 10
347.2382056514337
 20
133.6203947564839
 30
0.0
 10
348.1148778971693
 20
134.0362472130027
 30
0.0
 10
348.8282373946615
 20
134.1027632576542
 30
0.0
 10
349.4650845716181
 20
134.0429830458994
 30
0.0
 10
350.2122305131157
 20
133.7382931840401
 30
0.0
 10
351.0147719622556
 20
133.2368407184796
 30
0.0
 10
351.8204138316653
 20
132.7552997776469
 30
0.0
 10
352.5055458140319
 20
132.5397063140591
 30
0.0
 10
352.9760888216481
 20
132.5315315768764
 30
0.0
 10
353.142682890474
 20
132.5378495878689
 30
0.0
 10
353.2265442433601
 20
132.5410299949093
 30
0.0
 11
338.2604815905985
 21
133.0808853376855
 31
0.0
 11
338.5131251649278
 21
132.9829374851914
 31
0.0
 11
338.7604815905985
 21
132.9240876015695
 31
0.0
 11
339.2892048887727
 21
133.0364097016575
 31
0.0
 11
339.794391220591
 21
133.3762409389426
 31
0.0
 11
340.3068463427806
 21
133.7692311058761
 31
0.0
 11
340.8573760120686
 21
134.0410299949093
 31
0.0
 11
341.2107272899608
 21
134.0831943690224
 31
0.0
 11
341.5644827932555
 21
134.0410299949093
 31
0.0
 11
342.5015592043014
 21
133.5988175490861
 31
0.0
 11
343.3680505734681
 21
132.9751862924421
 31
0.0
 11
344.2972088074845
 21
132.5410299949093
 31
0.0
 11
344.7280370698478
 21
132.4979158066207
 31
0.0
 11
345.1632342112691
 21
132.5410299949093
 31
0.0
 11
346.2484129457318
 21
132.9790040459046
 31
0.0
 11
347.2689277304121
 21
133.6012941744926
 31
0.0
 11
348.3455610564308
 21
134.0410299949093
 31
0.0
 11
348.8274520969962
 21
134.0875913967931
 31
0.0
 11
349.3114868827199
 21
134.0410299949093
 31
0.0
 11
350.1901771751342
 21
133.7189785007933
 31
0.0
 11
351.0205500498386
 21
133.2369833995191
 31
0.0
 11
351.8501556811437
 21
132.78201159594
 31
0.0
 11
352.7265442433601
 21
132.5410299949093
 31
0.0
 11
352.9748491433883
 21
132.5338250759167
 31
0.0
 11
353.2265442433601
 21
132.5410299949093
 31
0.0
  0
ARC
  5
10F
330
58
100
AcDbEntity
  8
1
  6
Continuous
 62
     7
100
AcDbCircle
 10
334.9633772365089
 20
129.0410299949093
 30
0.0
 40
4.999999999999902
100
AcDbArc
 50
64.15806723683519
 51
90.0
  0
ARC
  5
110
330
58
100
AcDbEntity
  8
1
  6
Continuous
 62
     7
100
AcDbCircle
 10
371.4897112502114
 20
129.0410299949093
 30
0.0
 40
5.0
100
AcDbArc
 50
90.0
 51
115.8419327631683
  0
ARC
  5
111
330
58
100
AcDbEntity
  8
1
  6
Continuous
 62
     7
100
AcDbCircle
 10
111.4897112502111
 20
129.0410299949093
 30
0.0
 40
5.0
100
AcDbArc
 50
90.0
 51
115.8419327631626
  0
ARC
  5
112
330
58
100
AcDbEntity
  8
1
  6
Continuous
 62
     7
100
AcDbCircle
 10
74.96337723650913
 20
129.0410299949093
 30
0.0
 40
4.999999999999853
100
AcDbArc
 50
64.15806723683636
 51
90.0
  0
ENDBLK
  5
5A
330
58
100
AcDbEntity
  8
0
100
AcDbBlockEnd
  0
BLOCK
  5
5C
330
5B
100
AcDbEntity
  8
0
100
AcDbBlockBegin
  2
32-35
 70
     0
 71
     0
 10
-514.3878769305011
 20
23.32687403253815
 30
0.0
  3
32-35
  1

  0
LINE
  5
113
330
5B
100
AcDbEntity
  8
1
  6
Continuous
 62
     7
100
AcDbLine
 10
343.2339035562408
 20
125.5410299949093
 30
0.0
 11
341.7265442433601
 21
125.5410299949093
 31
0.0
  0
LINE
  5
114
330
5B
100
AcDbEntity
  8
1
  6
Continuous
 62
     7
100
AcDbLine
 10
363.2191849304796
 20
125.5410299949093
 30
0.0
 11
364.7265442433601
 21
125.5410299949093
 31
0.0
  0
LINE
  5
115
330
5B
100
AcDbEntity
  8
1
  6
Continuous
 62
     7
100
AcDbLine
 10
363.2191849304796
 20
131.0410299949093
 30
0.0
 11
354.7339035562408
 21
131.0410299949093
 31
0.0
  0
LINE
  5
116
330
5B
100
AcDbEntity
  8
1
  6
Continuous
 62
     7
100
AcDbLine
 10
354.7339035562408
 20
131.0410299949093
 30
0.0
 11
354.7339035562408
 21
125.5410299949093
 31
0.0
  0
LINE
  5
117
330
5B
100
AcDbEntity
  8
1
  6
Continuous
 62
     7
100
AcDbLine
 10
353.2265442433601
 20
131.0410299949093
 30
0.0
 11
351.7191849304796
 21
131.0410299949093
 31
0.0
  0
LINE
  5
118
330
5B
100
AcDbEntity
  8
1
  6
Continuous
 62
     7
100
AcDbLine
 10
351.7191849304796
 20
131.0410299949093
 30
0.0
 11
351.7191849304796
 21
125.5410299949093
 31
0.0
  0
LINE
  5
119
330
5B
100
AcDbEntity
  8
1
  6
Continuous
 62
     7
100
AcDbLine
 10
351.7191849304796
 20
131.0410299949093
 30
0.0
 11
343.2339035562408
 21
131.0410299949093
 31
0.0
  0
LINE
  5
11A
330
5B
100
AcDbEntity
  8
1
  6
Continuous
 62
     7
100
AcDbLine
 10
343.2339035562408
 20
131.0410299949093
 30
0.0
 11
343.2339035562408
 21
125.5410299949093
 31
0.0
  0
LINE
  5
11B
330
5B
100
AcDbEntity
  8
1
  6
Continuous
 62
     7
100
AcDbLine
 10
364.7265442433601
 20
131.0410299949093
 30
0.0
 11
363.2191849304796
 21
131.0410299949093
 31
0.0
  0
LINE
  5
11C
330
5B
100
AcDbEntity
  8
1
  6
Continuous
 62
     7
100
AcDbLine
 10
363.2191849304796
 20
131.0410299949093
 30
0.0
 11
363.2191849304796
 21
125.5410299949093
 31
0.0
  0
LINE
  5
11D
330
5B
100
AcDbEntity
  8
1
  6
Continuous
 62
     7
100
AcDbLine
 10
351.7191849304796
 20
125.5410299949093
 30
0.0
 11
354.7339035562408
 21
125.5410299949093
 31
0.0
  0
LINE
  5
11E
330
5B
100
AcDbEntity
  8
1
  6
Continuous
 62
     7
100
AcDbLine
 10
372.2265442433601
 20
131.0410299949093
 30
0.0
 11
364.7265442433601
 21
131.0410299949093
 31
0.0
  0
LINE
  5
11F
330
5B
100
AcDbEntity
  8
1
  6
Continuous
 62
     7
100
AcDbLine
 10
364.7265442433601
 20
131.0410299949093
 30
0.0
 11
364.7265442433601
 21
124.5410299949093
 31
0.0
  0
LINE
  5
120
330
5B
100
AcDbEntity
  8
1
  6
Continuous
 62
     7
100
AcDbLine
 10
343.2339035562408
 20
131.0410299949093
 30
0.0
 11
341.7265442433601
 21
131.0410299949093
 31
0.0
  0
LINE
  5
121
330
5B
100
AcDbEntity
  8
1
  6
Continuous
 62
     7
100
AcDbLine
 10
341.7265442433601
 20
131.0410299949093
 30
0.0
 11
341.7265442433601
 21
124.5410299949093
 31
0.0
  0
LINE
  5
122
330
5B
100
AcDbEntity
  8
1
  6
Continuous
 62
     7
100
AcDbLine
 10
112.22654424336
 20
132.5410299949093
 30
0.0
 11
112.22654424336
 21
131.0410299949093
 31
0.0
  0
LINE
  5
123
330
5B
100
AcDbEntity
  8
1
  6
Continuous
 62
     7
100
AcDbLine
 10
105.72654424336
 20
131.0410299949093
 30
0.0
 11
105.72654424336
 21
125.5410299949093
 31
0.0
  0
LINE
  5
124
330
5B
100
AcDbEntity
  8
1
  6
Continuous
 62
     7
100
AcDbLine
 10
112.22654424336
 20
131.0410299949093
 30
0.0
 11
105.72654424336
 21
131.0410299949093
 31
0.0
  0
LINE
  5
125
330
5B
100
AcDbEntity
  8
1
  6
Continuous
 62
     7
100
AcDbLine
 10
74.22654424336014
 20
132.5410299949093
 30
0.0
 11
112.22654424336
 21
132.5410299949093
 31
0.0
  0
LINE
  5
126
330
5B
100
AcDbEntity
  8
1
  6
Continuous
 62
     7
100
AcDbLine
 10
93.22654424336002
 20
124.5410299949093
 30
0.0
 11
104.72654424336
 21
124.5410299949093
 31
0.0
  0
LINE
  5
127
330
5B
100
AcDbEntity
  8
1
  6
Continuous
 62
     7
100
AcDbLine
 10
105.72654424336
 20
131.0410299949093
 30
0.0
 11
100.7363466440982
 21
131.0410299949093
 31
0.0
  0
LINE
  5
128
330
5B
100
AcDbEntity
  8
1
  6
Continuous
 62
     7
100
AcDbLine
 10
104.72654424336
 20
124.5410299949093
 30
0.0
 11
105.72654424336
 21
125.5410299949093
 31
0.0
  0
LINE
  5
129
330
5B
100
AcDbEntity
  8
1
  6
Continuous
 62
     7
100
AcDbLine
 10
100.7363466440982
 20
125.5410299949093
 30
0.0
 11
98.12552372892611
 21
125.5410299949093
 31
0.0
  0
LINE
  5
12A
330
5B
100
AcDbEntity
  8
1
  6
Continuous
 62
     7
100
AcDbLine
 10
98.12552372892611
 20
125.5410299949093
 30
0.0
 11
98.12552372892611
 21
131.0410299949093
 31
0.0
  0
LINE
  5
12B
330
5B
100
AcDbEntity
  8
1
  6
Continuous
 62
     7
100
AcDbLine
 10
98.12552372892611
 20
131.0410299949093
 30
0.0
 11
93.22654424336002
 21
131.0410299949093
 31
0.0
  0
LINE
  5
12C
330
5B
100
AcDbEntity
  8
1
  6
Continuous
 62
     7
100
AcDbLine
 10
100.7363466440982
 20
125.5410299949093
 30
0.0
 11
100.7363466440982
 21
131.0410299949093
 31
0.0
  0
LINE
  5
12D
330
5B
100
AcDbEntity
  8
1
  6
Continuous
 62
     7
100
AcDbLine
 10
100.7363466440982
 20
131.0410299949093
 30
0.0
 11
98.12552372892611
 21
131.0410299949093
 31
0.0
  0
LINE
  5
12E
330
5B
100
AcDbEntity
  8
1
  6
Continuous
 62
     7
100
AcDbLine
 10
88.32756475779422
 20
131.0410299949093
 30
0.0
 11
85.71674184262213
 21
131.0410299949093
 31
0.0
  0
LINE
  5
12F
330
5B
100
AcDbEntity
  8
1
  6
Continuous
 62
     7
100
AcDbLine
 10
85.71674184262213
 20
131.0410299949093
 30
0.0
 11
85.71674184262213
 21
125.5410299949093
 31
0.0
  0
LINE
  5
130
330
5B
100
AcDbEntity
  8
1
  6
Continuous
 62
     7
100
AcDbLine
 10
93.22654424336002
 20
131.0410299949093
 30
0.0
 11
88.32756475779422
 21
131.0410299949093
 31
0.0
  0
LINE
  5
131
330
5B
100
AcDbEntity
  8
1
  6
Continuous
 62
     7
100
AcDbLine
 10
88.32756475779422
 20
131.0410299949093
 30
0.0
 11
88.32756475779422
 21
125.5410299949093
 31
0.0
  0
LINE
  5
132
330
5B
100
AcDbEntity
  8
1
  6
Continuous
 62
     7
100
AcDbLine
 10
88.32756475779422
 20
125.5410299949093
 30
0.0
 11
85.71674184262213
 21
125.5410299949093
 31
0.0
  0
LINE
  5
133
330
5B
100
AcDbEntity
  8
1
  6
Continuous
 62
     7
100
AcDbLine
 10
80.72654424336002
 20
125.5410299949093
 30
0.0
 11
81.72654424336002
 21
124.5410299949093
 31
0.0
  0
LINE
  5
134
330
5B
100
AcDbEntity
  8
1
  6
Continuous
 62
     7
100
AcDbLine
 10
85.71674184262213
 20
131.0410299949093
 30
0.0
 11
80.72654424336002
 21
131.0410299949093
 31
0.0
  0
LINE
  5
135
330
5B
100
AcDbEntity
  8
1
  6
Continuous
 62
     7
100
AcDbLine
 10
81.72654424336002
 20
124.5410299949093
 30
0.0
 11
93.22654424336002
 21
124.5410299949093
 31
0.0
  0
LINE
  5
136
330
5B
100
AcDbEntity
  8
1
  6
Continuous
 62
     7
100
AcDbLine
 10
80.72654424336002
 20
131.0410299949093
 30
0.0
 11
74.22654424336014
 21
131.0410299949093
 31
0.0
  0
LINE
  5
137
330
5B
100
AcDbEntity
  8
1
  6
Continuous
 62
     7
100
AcDbLine
 10
80.72654424336002
 20
125.5410299949093
 30
0.0
 11
80.72654424336002
 21
131.0410299949093
 31
0.0
  0
LINE
  5
138
330
5B
100
AcDbEntity
  8
1
  6
Continuous
 62
     7
100
AcDbLine
 10
74.22654424336014
 20
131.0410299949093
 30
0.0
 11
74.22654424336014
 21
132.5410299949093
 31
0.0
  0
LINE
  5
139
330
5B
100
AcDbEntity
  8
1
  6
Continuous
 62
     7
100
AcDbLine
 10
334.2265442433601
 20
131.0410299949093
 30
0.0
 11
334.2265442433601
 21
132.5410299949093
 31
0.0
  0
LINE
  5
13A
330
5B
100
AcDbEntity
  8
1
  6
Continuous
 62
     7
100
AcDbLine
 10
341.7265442433601
 20
131.0410299949093
 30
0.0
 11
334.2265442433601
 21
131.0410299949093
 31
0.0
  0
LINE
  5
13B
330
5B
100
AcDbEntity
  8
1
  6
Continuous
 62
     7
100
AcDbLine
 10
334.2265442433601
 20
132.5410299949093
 30
0.0
 11
353.2265442433601
 21
132.5410299949093
 31
0.0
  0
LINE
  5
13C
330
5B
100
AcDbEntity
  8
1
  6
Continuous
 62
     7
100
AcDbLine
 10
341.7265442433601
 20
124.5410299949093
 30
0.0
 11
364.7265442433601
 21
124.5410299949093
 31
0.0
  0
LINE
  5
13D
330
5B
100
AcDbEntity
  8
1
  6
Continuous
 62
     7
100
AcDbLine
 10
354.7339035562408
 20
131.0410299949093
 30
0.0
 11
353.2265442433601
 21
131.0410299949093
 31
0.0
  0
LINE
  5
13E
330
5B
100
AcDbEntity
  8
1
  6
Continuous
 62
     7
100
AcDbLine
 10
353.2265442433601
 20
132.5410299949093
 30
0.0
 11
372.2265442433601
 21
132.5410299949093
 31
0.0
  0
LINE
  5
13F
330
5B
100
AcDbEntity
  8
1
  6
Continuous
 62
     7
100
AcDbLine
 10
372.2265442433601
 20
132.5410299949093
 30
0.0
 11
372.2265442433601
 21
131.0410299949093
 31
0.0
  0
ARC
  5
140
330
5B
100
AcDbEntity
  8
1
  6
Continuous
 62
     7
100
AcDbCircle
 10
358.9765442433601
 20
134.0410299949093
 30
0.0
 40
9.500000000000004
100
AcDbArc
 50
-116.5253520166096
 51
-63.47464798338893
  0
ARC
  5
141
330
5B
100
AcDbEntity
  8
1
  6
Continuous
 62
     7
100
AcDbCircle
 10
347.4765442433601
 20
134.0410299949093
 30
0.0
 40
9.500000000000004
100
AcDbArc
 50
-116.5253520166096
 51
-63.47464798338893
  0
ARC
  5
142
330
5B
100
AcDbEntity
  8
1
  6
Continuous
 62
     7
100
AcDbCircle
 10
103.2314454437292
 20
128.1525670482546
 30
0.0
 40
3.611875385574033
100
AcDbArc
 50
-133.6938045119368
 51
-46.30619548806551
  0
ARC
  5
143
330
5B
100
AcDbEntity
  8
1
  6
Continuous
 62
     7
100
AcDbCircle
 10
93.22654424336002
 20
137.0410299949093
 30
0.0
 40
12.50000000000001
100
AcDbArc
 50
-90.0
 51
-66.92608193437019
  0
ARC
  5
144
330
5B
100
AcDbEntity
  8
1
  6
Continuous
 62
     7
100
AcDbCircle
 10
93.22654424336002
 20
137.0410299949093
 30
0.0
 40
12.4999999999998
100
AcDbArc
 50
-113.0739180656286
 51
-90.0
  0
ARC
  5
145
330
5B
100
AcDbEntity
  8
1
  6
Continuous
 62
     7
100
AcDbCircle
 10
83.22164304299102
 20
128.1525670482546
 30
0.0
 40
3.611875385574033
100
AcDbArc
 50
-133.6938045119368
 51
-46.30619548806193
  0
ENDBLK
  5
5D
330
5B
100
AcDbEntity
  8
0
100
AcDbBlockEnd
  0
BLOCK
  5
5F
330
5E
100
AcDbEntity
  8
0
100
AcDbBlockBegin
  2
32-16
 70
     0
 71
     0
 10
-598.4658203799775
 20
-344.0722030264906
 30
0.0
  3
32-16
  1

  0
LINE
  5
146
330
5E
100
AcDbEntity
  8
1
  6
Continuous
 62
     7
100
AcDbLine
 10
105.2265486946022
 20
102.5410299949082
 30
0.0
 11
107.0765442433601
 21
101.4729345668325
 31
0.0
  0
LINE
  5
147
330
5E
100
AcDbEntity
  8
1
  6
Continuous
 62
     7
100
AcDbLine
 10
107.0765442433601
 20
89.6091254229834
 30
0.0
 11
105.2265486946022
 21
88.5410299949082
 31
0.0
  0
LINE
  5
148
330
5E
100
AcDbEntity
  8
1
  6
Continuous
 62
     7
100
AcDbLine
 10
107.0765442433601
 20
101.4729345668325
 30
0.0
 11
107.0765442433601
 21
89.6091254229834
 31
0.0
  0
LINE
  5
149
330
5E
100
AcDbEntity
  8
1
  6
Continuous
 62
     7
100
AcDbLine
 10
79.37654424336012
 20
89.6091254229834
 30
0.0
 11
79.37654424336012
 21
101.4729345668325
 31
0.0
  0
LINE
  5
14A
330
5E
100
AcDbEntity
  8
1
  6
Continuous
 62
     7
100
AcDbLine
 10
79.37654424336012
 20
101.4729345668325
 30
0.0
 11
81.22653979211901
 21
102.5410299949082
 31
0.0
  0
LINE
  5
14B
330
5E
100
AcDbEntity
  8
1
  6
Continuous
 62
     7
100
AcDbLine
 10
81.22653979211901
 20
102.5410299949082
 30
0.0
 11
105.2265486946022
 21
102.5410299949082
 31
0.0
  0
LINE
  5
14C
330
5E
100
AcDbEntity
  8
1
  6
Continuous
 62
     7
100
AcDbLine
 10
81.22653979211901
 20
88.5410299949082
 30
0.0
 11
79.37654424336012
 21
89.6091254229834
 31
0.0
  0
LINE
  5
14D
330
5E
100
AcDbEntity
  8
1
  6
Continuous
 62
     7
100
AcDbLine
 10
105.2265486946022
 20
88.5410299949082
 30
0.0
 11
81.22653979211901
 21
88.5410299949082
 31
0.0
  0
LINE
  5
14E
330
5E
100
AcDbEntity
  8
1
  6
Continuous
 62
     7
100
AcDbLine
 10
353.2265442433601
 20
89.6091254229834
 30
0.0
 11
353.2265442433601
 21
95.54102999490189
 31
0.0
  0
LINE
  5
14F
330
5E
100
AcDbEntity
  8
1
  6
Continuous
 62
     7
100
AcDbLine
 10
365.2265486946018
 20
88.5410299949082
 30
0.0
 11
365.2265486946018
 21
102.5410299949082
 31
0.0
  0
LINE
  5
150
330
5E
100
AcDbEntity
  8
1
  6
Continuous
 62
     7
100
AcDbLine
 10
341.2265397921184
 20
95.5410299949082
 30
0.0
 11
341.2265397921184
 21
102.5410299949082
 31
0.0
  0
LINE
  5
151
330
5E
100
AcDbEntity
  8
1
  6
Continuous
 62
     7
100
AcDbLine
 10
341.2265397921184
 20
102.5410299949082
 30
0.0
 11
365.2265486946018
 21
102.5410299949082
 31
0.0
  0
LINE
  5
152
330
5E
100
AcDbEntity
  8
1
  6
Continuous
 62
     7
100
AcDbLine
 10
341.2265397921184
 20
88.5410299949082
 30
0.0
 11
365.2265486946018
 21
88.5410299949082
 31
0.0
  0
LINE
  5
153
330
5E
100
AcDbEntity
  8
1
  6
Continuous
 62
     7
100
AcDbLine
 10
341.2265397921184
 20
88.5410299949082
 30
0.0
 11
341.2265397921184
 21
95.5410299949082
 31
0.0
  0
LINE
  5
154
330
5E
100
AcDbEntity
  8
1
  6
Continuous
 62
     7
100
AcDbLine
 10
86.29834101308512
 20
89.60912542298308
 30
0.0
 11
86.29834101308512
 21
101.4729345668325
 31
0.0
  0
LINE
  5
155
330
5E
100
AcDbEntity
  8
1
  6
Continuous
 62
     7
100
AcDbLine
 10
100.1547474736361
 20
101.4729345668325
 30
0.0
 11
100.1547474736361
 21
89.60912542298308
 31
0.0
  0
LINE
  5
156
330
5E
100
AcDbEntity
  8
1
  6
Continuous
 62
     7
100
AcDbLine
 10
353.2265442433601
 20
95.54102999490189
 30
0.0
 11
353.2265442433601
 21
101.472934566833
 31
0.0
  0
ARC
  5
157
330
5E
100
AcDbEntity
  8
1
  6
Continuous
 62
     7
100
AcDbCircle
 10
347.2265442433601
 20
105.9275044929791
 30
0.0
 40
17.38647449807094
100
AcDbArc
 50
-110.1876462291006
 51
-69.81235377089955
  0
ARC
  5
158
330
5E
100
AcDbEntity
  8
1
  6
Continuous
 62
     7
100
AcDbCircle
 10
359.2265442433601
 20
105.927504492979
 30
0.0
 40
17.38647449807092
100
AcDbArc
 50
-110.1876462291006
 51
-69.81235377089944
  0
ARC
  5
159
330
5E
100
AcDbEntity
  8
1
  6
Continuous
 62
     7
100
AcDbCircle
 10
359.2265442433601
 20
85.15455549683739
 30
0.0
 40
17.38647449807094
100
AcDbArc
 50
69.81235377089945
 51
110.1876462291006
  0
ARC
  5
15A
330
5E
100
AcDbEntity
  8
1
  6
Continuous
 62
     7
100
AcDbCircle
 10
347.2265442433601
 20
85.15455549683739
 30
0.0
 40
17.38647449807094
100
AcDbArc
 50
69.81235377089945
 51
110.1876462291006
  0
ARC
  5
15B
330
5E
100
AcDbEntity
  8
1
  6
Continuous
 62
     7
100
AcDbCircle
 10
103.6156458584981
 20
96.40354880420719
 30
0.0
 40
6.138117760409528
100
AcDbArc
 50
90.825176326255
 51
124.3215748715509
  0
ARC
  5
15C
330
5E
100
AcDbEntity
  8
1
  6
Continuous
 62
     7
100
AcDbCircle
 10
93.22654424336002
 20
79.53707990215929
 30
0.0
 40
23.00395009274871
100
AcDbArc
 50
72.47183986366326
 51
90.0
  0
ARC
  5
15D
330
5E
100
AcDbEntity
  8
1
  6
Continuous
 62
     7
100
AcDbCircle
 10
93.22654424336002
 20
79.53707990215929
 30
0.0
 40
23.00395009274891
100
AcDbArc
 50
90.0
 51
107.5281601363339
  0
ARC
  5
15E
330
5E
100
AcDbEntity
  8
1
  6
Continuous
 62
     7
100
AcDbCircle
 10
82.83744262822222
 20
96.40354880420719
 30
0.0
 40
6.138117760409529
100
AcDbArc
 50
55.67842512844212
 51
89.17482367374606
  0
ARC
  5
15F
330
5E
100
AcDbEntity
  8
1
  6
Continuous
 62
     7
100
AcDbCircle
 10
103.6156458584981
 20
94.68216922694109
 30
0.0
 40
6.141139232033174
100
AcDbArc
 50
-124.3023317316571
 51
-90.0
  0
ARC
  5
160
330
5E
100
AcDbEntity
  8
1
  6
Continuous
 62
     7
100
AcDbCircle
 10
93.22654424336002
 20
111.5449800876565
 30
0.0
 40
23.0039500927483
100
AcDbArc
 50
-90.0
 51
-72.47183986366342
  0
ARC
  5
161
330
5E
100
AcDbEntity
  8
1
  6
Continuous
 62
     7
100
AcDbCircle
 10
93.22654424336002
 20
111.5449800876565
 30
0.0
 40
23.00395009274855
100
AcDbArc
 50
-107.5281601363338
 51
-90.0
  0
ARC
  5
162
330
5E
100
AcDbEntity
  8
1
  6
Continuous
 62
     7
100
AcDbCircle
 10
82.83744262822222
 20
94.68216922694109
 30
0.0
 40
6.141139232032884
100
AcDbArc
 50
-90.0
 51
-55.69766826833594
  0
ARC
  5
163
330
5E
100
AcDbEntity
  8
1
  6
Continuous
 62
     7
100
AcDbCircle
 10
103.6156458584981
 20
94.68216922694109
 30
0.0
 40
6.141139232032884
100
AcDbArc
 50
-90.0
 51
-64.30233173165632
  0
ARC
  5
164
330
5E
100
AcDbEntity
  8
1
  6
Continuous
 62
     7
100
AcDbCircle
 10
103.6156458584981
 20
96.40354880420719
 30
0.0
 40
6.138117760409505
100
AcDbArc
 50
64.32157487154861
 51
89.17482367374315
  0
ARC
  5
165
330
5E
100
AcDbEntity
  8
1
  6
Continuous
 62
     7
100
AcDbCircle
 10
82.83744262822222
 20
94.68216922694109
 30
0.0
 40
6.141139232033356
100
AcDbArc
 50
-115.6976682683446
 51
-90.0
  0
ARC
  5
166
330
5E
100
AcDbEntity
  8
1
  6
Continuous
 62
     7
100
AcDbCircle
 10
82.83744262822222
 20
96.40354880420719
 30
0.0
 40
6.138117760409533
100
AcDbArc
 50
90.82517632625766
 51
115.678425128442
  0
ENDBLK
  5
60
330
5E
100
AcDbEntity
  8
0
100
AcDbBlockEnd
  0
BLOCK
  5
62
330
61
100
AcDbEntity
  8
0
100
AcDbBlockBegin
  2
84-55
 70
     0
 71
     0
 10
848.8647920280963
 20
-162.0246038817637
 30
0.0
  3
84-55
  1

  0
CIRCLE
  5
167
330
61
100
AcDbEntity
  8
1
  6
Continuous
 62
     7
100
AcDbCircle
 10
353.2265442433601
 20
255.1410299949077
 30
0.0
 40
10.00300000000129
  0
ENDBLK
  5
63
330
61
100
AcDbEntity
  8
0
100
AcDbBlockEnd
  0
BLOCK
  5
65
330
64
100
AcDbEntity
  8
0
100
AcDbBlockBegin
  2
_J__A4
 70
     0
 71
     0
 10
41.76813806471199
 20
344.0448602104128
 30
0.0
  3
_J__A4
  1

  0
POINT
  5
168
330
64
100
AcDbEntity
  8
1
 62
     4
100
AcDbPoint
 10
75.76813806471199
 20
378.0448602104128
 30
0.0
  0
POINT
  5
169
330
64
100
AcDbEntity
  8
1
 62
     4
100
AcDbPoint
 10
98.76813806471199
 20
356.2948602104128
 30
0.0
  0
POINT
  5
16A
330
64
100
AcDbEntity
  8
1
 62
     4
100
AcDbPoint
 10
98.76813806471199
 20
364.7948602104128
 30
0.0
  0
POINT
  5
16B
330
64
100
AcDbEntity
  8
1
 62
     4
100
AcDbPoint
 10
98.76813806471199
 20
368.7948602104128
 30
0.0
  0
POINT
  5
16C
330
64
100
AcDbEntity
  8
1
 62
     4
100
AcDbPoint
 10
98.76813806471199
 20
360.2948602104128
 30
0.0
  0
POINT
  5
16D
330
64
100
AcDbEntity
  8
1
 62
     4
100
AcDbPoint
 10
199.268138064712
 20
363.0448602104128
 30
0.0
  0
POINT
  5
16E
330
64
100
AcDbEntity
  8
1
 62
     4
100
AcDbPoint
 10
89.26813806471199
 20
626.0448602104132
 30
0.0
  0
POINT
  5
16F
330
64
100
AcDbEntity
  8
1
 62
     4
100
AcDbPoint
 10
98.76813806471199
 20
366.7948602104128
 30
0.0
  0
POINT
  5
170
330
64
100
AcDbEntity
  8
1
 62
     4
100
AcDbPoint
 10
98.76813806471199
 20
358.2948602104128
 30
0.0
  0
POINT
  5
171
330
64
100
AcDbEntity
  8
1
 62
     4
100
AcDbPoint
 10
199.268138064712
 20
356.5448602104128
 30
0.0
  0
POINT
  5
172
330
64
100
AcDbEntity
  8
1
 62
     4
100
AcDbPoint
 10
205.018138064712
 20
356.5448602104128
 30
0.0
  0
POINT
  5
173
330
64
100
AcDbEntity
  8
1
 62
     4
100
AcDbPoint
 10
193.518138064712
 20
356.5448602104128
 30
0.0
  0
POINT
  5
174
330
64
100
AcDbEntity
  8
1
 62
     4
100
AcDbPoint
 10
176.518138064712
 20
356.5448602104128
 30
0.0
  0
POINT
  5
175
330
64
100
AcDbEntity
  8
1
 62
     4
100
AcDbPoint
 10
188.018138064712
 20
356.5448602104128
 30
0.0
  0
POINT
  5
176
330
64
100
AcDbEntity
  8
1
 62
     4
100
AcDbPoint
 10
182.268138064712
 20
356.5448602104128
 30
0.0
  0
POINT
  5
177
330
64
100
AcDbEntity
  8
1
 62
     4
100
AcDbPoint
 10
182.268138064712
 20
363.0448602104128
 30
0.0
  0
POINT
  5
178
330
64
100
AcDbEntity
  8
1
 62
     4
100
AcDbPoint
 10
159.518138064712
 20
356.5448602104128
 30
0.0
  0
POINT
  5
179
330
64
100
AcDbEntity
  8
1
 62
     4
100
AcDbPoint
 10
171.018138064712
 20
356.5448602104128
 30
0.0
  0
POINT
  5
17A
330
64
100
AcDbEntity
  8
1
 62
     4
100
AcDbPoint
 10
165.268138064712
 20
356.5448602104128
 30
0.0
  0
POINT
  5
17B
330
64
100
AcDbEntity
  8
1
 62
     4
100
AcDbPoint
 10
165.268138064712
 20
363.0448602104128
 30
0.0
  0
POINT
  5
17C
330
64
100
AcDbEntity
  8
1
 62
     4
100
AcDbPoint
 10
142.518138064712
 20
356.5448602104128
 30
0.0
  0
POINT
  5
17D
330
64
100
AcDbEntity
  8
1
 62
     4
100
AcDbPoint
 10
154.018138064712
 20
356.5448602104128
 30
0.0
  0
POINT
  5
17E
330
64
100
AcDbEntity
  8
1
 62
     4
100
AcDbPoint
 10
148.268138064712
 20
356.5448602104128
 30
0.0
  0
POINT
  5
17F
330
64
100
AcDbEntity
  8
1
 62
     4
100
AcDbPoint
 10
148.268138064712
 20
363.0448602104128
 30
0.0
  0
POINT
  5
180
330
64
100
AcDbEntity
  8
1
 62
     4
100
AcDbPoint
 10
127.018138064712
 20
361.0448602104128
 30
0.0
  0
POINT
  5
181
330
64
100
AcDbEntity
  8
1
 62
     4
100
AcDbPoint
 10
135.518138064712
 20
361.0448602104128
 30
0.0
  0
LINE
  5
182
330
64
100
AcDbEntity
  8
1
  6
Continuous
 62
     2
100
AcDbLine
 10
122.768138064712
 20
371.0448602104128
 30
0.0
 11
122.768138064712
 21
354.0448602104128
 31
0.0
  0
LINE
  5
183
330
64
100
AcDbEntity
  8
1
  6
DOT_CENTER
 62
     2
100
AcDbLine
 10
228.768138064712
 20
370.5448602104128
 30
0.0
 11
228.768138064712
 21
364.5448602104128
 31
0.0
  0
LINE
  5
184
330
64
100
AcDbEntity
  8
1
  6
DOT_CENTER
 62
     2
100
AcDbLine
 10
225.768138064712
 20
367.5448602104128
 30
0.0
 11
238.768138064712
 21
367.5448602104128
 31
0.0
  0
LINE
  5
185
330
64
100
AcDbEntity
  8
1
  6
Continuous
 62
     7
100
AcDbLine
 10
237.768138064712
 20
365.5448602104128
 30
0.0
 11
232.768138064712
 21
366.3448602104129
 31
0.0
  0
LINE
  5
186
330
64
100
AcDbEntity
  8
1
  6
Continuous
 62
     7
100
AcDbLine
 10
237.768138064712
 20
369.5448602104128
 30
0.0
 11
237.768138064712
 21
365.5448602104128
 31
0.0
  0
LINE
  5
187
330
64
100
AcDbEntity
  8
1
  6
Continuous
 62
     7
100
AcDbLine
 10
232.768138064712
 20
368.7448602104129
 30
0.0
 11
237.768138064712
 21
369.5448602104128
 31
0.0
  0
LINE
  5
188
330
64
100
AcDbEntity
  8
1
  6
Continuous
 62
     7
100
AcDbLine
 10
232.768138064712
 20
368.7448602104129
 30
0.0
 11
232.768138064712
 21
366.3448602104129
 31
0.0
  0
LINE
  5
189
330
64
100
AcDbEntity
  8
1
  6
Continuous
 62
     2
100
AcDbLine
 10
74.76813806471199
 20
371.0448602104128
 30
0.0
 11
74.76813806471199
 21
354.0448602104128
 31
0.0
  0
LINE
  5
18A
330
64
100
AcDbEntity
  8
1
  6
Continuous
 62
     2
100
AcDbLine
 10
66.76813806471199
 20
362.5448602104128
 30
0.0
 11
122.768138064712
 21
362.5448602104128
 31
0.0
  0
LINE
  5
18B
330
64
100
AcDbEntity
  8
1
  6
Continuous
 62
     7
100
AcDbLine
 10
241.768138064712
 20
631.0448602104132
 30
0.0
 11
146.768138064712
 21
631.0448602104132
 31
0.0
  0
LINE
  5
18C
330
64
100
AcDbEntity
  8
1
  6
Continuous
 62
     7
100
AcDbLine
 10
241.768138064712
 20
354.0448602104128
 30
0.0
 11
241.768138064712
 21
492.5448602104128
 31
0.0
  0
LINE
  5
18D
330
64
100
AcDbEntity
  8
1
  6
Continuous
 62
     7
100
AcDbLine
 10
66.76813806471199
 20
354.0448602104128
 30
0.0
 11
146.768138064712
 21
354.0448602104128
 31
0.0
  0
LINE
  5
18E
330
64
100
AcDbEntity
  8
1
  6
PHANTOM
 62
     4
100
AcDbLine
 10
41.76813806471199
 20
641.0448602104128
 30
0.0
 11
41.76813806471199
 21
344.0448602104128
 31
0.0
  0
LINE
  5
18F
330
64
100
AcDbEntity
  8
1
  6
PHANTOM
 62
     4
100
AcDbLine
 10
251.768138064712
 20
641.0448602104128
 30
0.0
 11
41.76813806471199
 21
641.0448602104128
 31
0.0
  0
LINE
  5
190
330
64
100
AcDbEntity
  8
1
  6
PHANTOM
 62
     4
100
AcDbLine
 10
251.768138064712
 20
344.0448602104128
 30
0.0
 11
251.768138064712
 21
641.0448602104128
 31
0.0
  0
LINE
  5
191
330
64
100
AcDbEntity
  8
1
  6
PHANTOM
 62
     4
100
AcDbLine
 10
41.76813806471199
 20
344.0448602104128
 30
0.0
 11
251.768138064712
 21
344.0448602104128
 31
0.0
  0
LINE
  5
192
330
64
100
AcDbEntity
  8
1
  6
Continuous
 62
     7
100
AcDbLine
 10
66.76813806471199
 20
385.0448602104128
 30
0.0
 11
241.768138064712
 21
385.0448602104128
 31
0.0
  0
LINE
  5
193
330
64
100
AcDbEntity
  8
1
  6
Continuous
 62
     7
100
AcDbLine
 10
241.768138064712
 20
371.0448602104128
 30
0.0
 11
66.76813806471199
 21
371.0448602104128
 31
0.0
  0
LINE
  5
194
330
64
100
AcDbEntity
  8
1
  6
Continuous
 62
     2
100
AcDbLine
 10
74.76813806471199
 20
385.0448602104128
 30
0.0
 11
74.76813806471199
 21
371.0448602104128
 31
0.0
  0
LINE
  5
195
330
64
100
AcDbEntity
  8
1
  6
Continuous
 62
     2
100
AcDbLine
 10
96.76813806471199
 20
631.0448602104132
 30
0.0
 11
96.76813806471199
 21
621.0448602104132
 31
0.0
  0
LINE
  5
196
330
64
100
AcDbEntity
  8
1
  6
Continuous
 62
     2
100
AcDbLine
 10
81.76813806471199
 20
631.0448602104132
 30
0.0
 11
81.76813806471199
 21
621.0448602104132
 31
0.0
  0
LINE
  5
197
330
64
100
AcDbEntity
  8
1
  6
Continuous
 62
     7
100
AcDbLine
 10
66.76813806471199
 20
354.0448602104128
 30
0.0
 11
66.76813806471199
 21
492.5448602104128
 31
0.0
  0
LINE
  5
198
330
64
100
AcDbEntity
  8
1
  6
Continuous
 62
     2
100
AcDbLine
 10
96.76813806471199
 20
621.0448602104132
 30
0.0
 11
66.76813806471199
 21
621.0448602104132
 31
0.0
  0
LINE
  5
199
330
64
100
AcDbEntity
  8
1
  6
Continuous
 62
     2
100
AcDbLine
 10
207.768138064712
 20
371.0448602104128
 30
0.0
 11
207.768138064712
 21
354.0448602104128
 31
0.0
  0
LINE
  5
19A
330
64
100
AcDbEntity
  8
1
  6
Continuous
 62
     2
100
AcDbLine
 10
173.768138064712
 20
371.0448602104128
 30
0.0
 11
173.768138064712
 21
354.0448602104128
 31
0.0
  0
LINE
  5
19B
330
64
100
AcDbEntity
  8
1
  6
Continuous
 62
     2
100
AcDbLine
 10
190.768138064712
 20
371.0448602104128
 30
0.0
 11
190.768138064712
 21
354.0448602104128
 31
0.0
  0
LINE
  5
19C
330
64
100
AcDbEntity
  8
1
  6
Continuous
 62
     2
100
AcDbLine
 10
156.768138064712
 20
371.0448602104128
 30
0.0
 11
156.768138064712
 21
354.0448602104128
 31
0.0
  0
LINE
  5
19D
330
64
100
AcDbEntity
  8
1
  6
Continuous
 62
     2
100
AcDbLine
 10
139.768138064712
 20
371.0448602104128
 30
0.0
 11
139.768138064712
 21
354.0448602104128
 31
0.0
  0
LINE
  5
19E
330
64
100
AcDbEntity
  8
1
  6
Continuous
 62
     2
100
AcDbLine
 10
207.768138064712
 20
364.0448602104128
 30
0.0
 11
241.768138064712
 21
364.0448602104128
 31
0.0
  0
LINE
  5
19F
330
64
100
AcDbEntity
  8
1
  6
Continuous
 62
     2
100
AcDbLine
 10
146.768138064712
 20
631.0448602104132
 30
0.0
 11
146.768138064712
 21
636.0448602104132
 31
0.0
  0
LINE
  5
1A0
330
64
100
AcDbEntity
  8
1
  6
Continuous
 62
     7
100
AcDbLine
 10
146.768138064712
 20
631.0448602104132
 30
0.0
 11
66.76813806471199
 21
631.0448602104132
 31
0.0
  0
LINE
  5
1A1
330
64
100
AcDbEntity
  8
1
  6
Continuous
 62
     2
100
AcDbLine
 10
66.76813806471199
 20
492.5448602104128
 30
0.0
 11
61.76813806471199
 21
492.5448602104128
 31
0.0
  0
LINE
  5
1A2
330
64
100
AcDbEntity
  8
1
  6
Continuous
 62
     7
100
AcDbLine
 10
66.76813806471199
 20
492.5448602104128
 30
0.0
 11
66.76813806471199
 21
631.0448602104132
 31
0.0
  0
LINE
  5
1A3
330
64
100
AcDbEntity
  8
1
  6
Continuous
 62
     2
100
AcDbLine
 10
241.768138064712
 20
492.5448602104128
 30
0.0
 11
246.768138064712
 21
492.5448602104128
 31
0.0
  0
LINE
  5
1A4
330
64
100
AcDbEntity
  8
1
  6
Continuous
 62
     7
100
AcDbLine
 10
241.768138064712
 20
492.5448602104128
 30
0.0
 11
241.768138064712
 21
631.0448602104132
 31
0.0
  0
LINE
  5
1A5
330
64
100
AcDbEntity
  8
1
  6
Continuous
 62
     2
100
AcDbLine
 10
146.768138064712
 20
354.0448602104128
 30
0.0
 11
146.768138064712
 21
349.0448602104128
 31
0.0
  0
LINE
  5
1A6
330
64
100
AcDbEntity
  8
1
  6
Continuous
 62
     7
100
AcDbLine
 10
146.768138064712
 20
354.0448602104128
 30
0.0
 11
241.768138064712
 21
354.0448602104128
 31
0.0
  0
CIRCLE
  5
1A7
330
64
100
AcDbEntity
  8
1
  6
DOT_CENTER
 62
     7
100
AcDbCircle
 10
131.268138064712
 20
362.0448602104128
 30
0.0
 40
0.1000000000000227
  0
CIRCLE
  5
1A8
330
64
100
AcDbEntity
  8
1
  6
DOT_CENTER
 62
     7
100
AcDbCircle
 10
131.268138064712
 20
360.0448602104128
 30
0.0
 40
0.1000000000000227
  0
CIRCLE
  5
1A9
330
64
100
AcDbEntity
  8
1
  6
Continuous
 62
     7
100
AcDbCircle
 10
228.768138064712
 20
367.5448602104128
 30
0.0
 40
2.0
  0
CIRCLE
  5
1AA
330
64
100
AcDbEntity
  8
1
  6
Continuous
 62
     7
100
AcDbCircle
 10
228.768138064712
 20
367.5448602104128
 30
0.0
 40
1.200000000000102
  0
CIRCLE
  5
1AB
330
64
100
AcDbEntity
  8
1
  6
Continuous
 62
     7
100
AcDbCircle
 10
196.268138064712
 20
356.5448602104128
 30
0.0
 40
0.3000000000000966
  0
CIRCLE
  5
1AC
330
64
100
AcDbEntity
  8
1
  6
Continuous
 62
     7
100
AcDbCircle
 10
202.268138064712
 20
356.5448602104128
 30
0.0
 40
0.3000000000000966
  0
CIRCLE
  5
1AD
330
64
100
AcDbEntity
  8
1
  6
Continuous
 62
     7
100
AcDbCircle
 10
185.268138064712
 20
356.5448602104128
 30
0.0
 40
0.3000000000000966
  0
CIRCLE
  5
1AE
330
64
100
AcDbEntity
  8
1
  6
Continuous
 62
     7
100
AcDbCircle
 10
179.268138064712
 20
356.5448602104128
 30
0.0
 40
0.3000000000000966
  0
CIRCLE
  5
1AF
330
64
100
AcDbEntity
  8
1
  6
Continuous
 62
     7
100
AcDbCircle
 10
168.268138064712
 20
356.5448602104128
 30
0.0
 40
0.2999999999998977
  0
CIRCLE
  5
1B0
330
64
100
AcDbEntity
  8
1
  6
Continuous
 62
     7
100
AcDbCircle
 10
162.268138064712
 20
356.5448602104128
 30
0.0
 40
0.2999999999998977
  0
CIRCLE
  5
1B1
330
64
100
AcDbEntity
  8
1
  6
Continuous
 62
     7
100
AcDbCircle
 10
151.268138064712
 20
356.5448602104128
 30
0.0
 40
0.2999999999998977
  0
CIRCLE
  5
1B2
330
64
100
AcDbEntity
  8
1
  6
Continuous
 62
     7
100
AcDbCircle
 10
145.268138064712
 20
356.5448602104128
 30
0.0
 40
0.2999999999998977
  0
MTEXT
  5
1B4
330
64
100
AcDbEntity
  8
1
 62
   250
100
AcDbMText
 10
66.76813806471199
 20
349.0448602104128
 30
0.0
 40
3.5
 41
0.0
 71
     4
 72
     1
  1
備考欄の文字列 原点位置=4
  7
CONVERTER_1
 73
     1
 44
0.7202881152461
  0
MTEXT
  5
1B5
330
64
100
AcDbEntity
  8
1
 62
     2
100
AcDbMText
 10
131.268138064712
 20
368.0448602104128
 30
0.0
 40
3.5
 41
0.0
 71
     5
 72
     1
  1
尺度
  7
CONVERTER_1
 73
     1
 44
0.7202881152461
  0
MTEXT
  5
1B6
330
64
100
AcDbEntity
  8
1
 62
     2
100
AcDbMText
 10
177.268138064712
 20
369.0448602104128
 30
0.0
 40
3.0
 41
0.0
 71
     5
 72
     1
  1
製図
  7
CONVERTER_1
 73
     1
 44
0.78031212484994
  0
MTEXT
  5
1B7
330
64
100
AcDbEntity
  8
1
 62
     2
100
AcDbMText
 10
194.268138064712
 20
369.0448602104128
 30
0.0
 40
3.0
 41
0.0
 71
     5
 72
     1
  1
設計
  7
CONVERTER_1
 73
     1
 44
0.78031212484994
  0
MTEXT
  5
1B8
330
64
100
AcDbEntity
  8
1
 62
     2
100
AcDbMText
 10
160.268138064712
 20
369.0448602104128
 30
0.0
 40
3.0
 41
0.0
 71
     5
 72
     1
  1
検図
  7
CONVERTER_1
 73
     1
 44
0.78031212484994
  0
MTEXT
  5
1B9
330
64
100
AcDbEntity
  8
1
 62
     2
100
AcDbMText
 10
216.768138064712
 20
367.5448602104128
 30
0.0
 40
3.5
 41
0.0
 71
     5
 72
     1
  1
第三角法
  7
CONVERTER_1
 73
     1
 44
0.7202881152461
  0
MTEXT
  5
1BA
330
64
100
AcDbEntity
  8
1
 62
     2
100
AcDbMText
 10
143.268138064712
 20
369.0448602104128
 30
0.0
 40
3.0
 41
0.0
 71
     5
 72
     1
  1
承認
  7
CONVERTER_1
 73
     1
 44
0.78031212484994
  0
MTEXT
  5
1BB
330
64
100
AcDbEntity
  8
1
 62
     2
100
AcDbMText
 10
70.76813806471199
 20
358.2948602104128
 30
0.0
 40
3.5
 41
0.0
 71
     5
 72
     1
  1
品番
  7
CONVERTER_1
 73
     1
 44
0.96038415366146
  0
MTEXT
  5
1BC
330
64
100
AcDbEntity
  8
1
 62
     2
100
AcDbMText
 10
70.76813806471199
 20
366.7948602104128
 30
0.0
 40
3.5
 41
0.0
 71
     5
 72
     1
  1
品名
  7
CONVERTER_1
 73
     1
 44
0.96038415366146
  0
MTEXT
  5
1BD
330
64
100
AcDbEntity
  8
1
 62
     2
100
AcDbMText
 10
70.76813806471199
 20
378.0448602104128
 30
0.0
 40
3.5
 41
0.0
 71
     5
 72
     1
  1
備考
  7
CONVERTER_1
 73
     1
 44
0.60024009603842
  0
MTEXT
  5
1BE
330
64
100
AcDbEntity
  8
1
 62
     2
100
AcDbMText
 10
74.26813806471199
 20
626.0448602104132
 30
0.0
 40
5.0
 41
0.0
 71
     5
 72
     1
  1
図番
  7
CONVERTER_1
 73
     1
 44
0.60024009603842
  0
MTEXT
  5
1BF
330
64
100
AcDbEntity
  8
1
 62
     7
100
AcDbMText
 10
213.268138064712
 20
359.0448602104128
 30
0.0
 40
2.5
 41
0.0
 71
     5
 72
     1
  1
株式会社
  7
CONVERTER_1
 73
     1
 44
1.32052821128451
  0
MTEXT
  5
1C0
330
64
100
AcDbEntity
  8
1
 62
     7
100
AcDbMText
 10
230.268138064712
 20
359.0448602104128
 30
0.0
 40
3.0
 41
0.0
 71
     5
 72
     1
  1
三栄水栓製作所
  7
CONVERTER_1
 73
     1
 44
1.32052821128451
  0
ENDBLK
  5
66
330
64
100
AcDbEntity
  8
0
100
AcDbBlockEnd
  0
BLOCK
  5
68
330
67
100
AcDbEntity
  8
0
100
AcDbBlockBegin
  2
A9358__1
 70
     0
 71
     0
 10
410.040739420249
 20
419.8328096495981
 30
0.0
  3
A9358__1
  1

  0
LINE
  5
1C1
330
67
100
AcDbEntity
  8
1
  6
Continuous
 62
     7
100
AcDbLine
 10
201.661414116592
 20
433.173652316153
 30
0.0
 11
201.020034558435
 21
433.0864227494765
 31
0.0
  0
LINE
  5
1C2
330
67
100
AcDbEntity
  8
1
  6
Continuous
 62
     7
100
AcDbLine
 10
184.9092879016649
 20
439.5955869166883
 30
0.0
 11
184.508512807107
 21
440.1038742943471
 31
0.0
  0
ENDBLK
  5
69
330
67
100
AcDbEntity
  8
0
100
AcDbBlockEnd
  0
BLOCK
  5
6C
330
6A
100
AcDbEntity
  8
0
100
AcDbBlockBegin
  2
A9358__2
 70
     0
 71
     0
 10
533.2772865313319
 20
129.8475942678554
 30
0.0
  3
A9358__2
  1

  0
INSERT
  5
6B
330
6A
100
AcDbEntity
  8
0
100
AcDbBlockReference
  2
A9358__1
 10
410.040739420249
 20
419.8328096495981
 30
0.0
  0
LINE
  5
1C3
330
6A
100
AcDbEntity
  8
1
  6
Continuous
 62
     7
100
AcDbLine
 10
343.72654424336
 20
421.438763305249
 30
0.0
 11
343.72654424336
 21
313.3410299949077
 31
0.0
  0
LINE
  5
1C4
330
6A
100
AcDbEntity
  8
1
  6
Continuous
 62
     7
100
AcDbLine
 10
362.72654424336
 20
421.438763305249
 30
0.0
 11
362.72654424336
 21
313.3410299949077
 31
0.0
  0
LINE
  5
1C5
330
6A
100
AcDbEntity
  8
1
  6
Continuous
 62
     7
100
AcDbLine
 10
184.2767168434648
 20
440.197525942701
 30
0.0
 11
201.8932100802286
 21
433.0800006677853
 31
0.0
  0
LINE
  5
1C6
330
6A
100
AcDbEntity
  8
1
  6
Continuous
 62
     7
100
AcDbLine
 10
201.8932100802286
 20
433.0800006677853
 30
0.0
 11
207.860082496402
 21
447.8485281410701
 31
0.0
  0
LINE
  5
1C7
330
6A
100
AcDbEntity
  8
1
  6
Continuous
 62
     7
100
AcDbLine
 10
184.2767168434648
 20
440.197525942701
 30
0.0
 11
190.2435892596341
 21
454.9660534159729
 31
0.0
  0
LINE
  5
1C8
330
6A
100
AcDbEntity
  8
1
  6
Continuous
 62
     7
100
AcDbLine
 10
353.2265442433601
 20
560.3410299949077
 30
0.0
 11
193.0849634618467
 21
560.3410299949077
 31
0.0
  0
LINE
  5
1C9
330
6A
100
AcDbEntity
  8
1
  6
Continuous
 62
     7
100
AcDbLine
 10
353.2265442433601
 20
541.3410299949077
 30
0.0
 11
193.0849634618467
 21
541.3410299949077
 31
0.0
  0
LINE
  5
1CA
330
6A
100
AcDbEntity
  8
1
  6
Continuous
 62
     7
100
AcDbLine
 10
83.72654424336011
 20
313.3410299949077
 30
0.0
 11
83.72654424336011
 21
501.6387633052499
 31
0.0
  0
LINE
  5
1CB
330
6A
100
AcDbEntity
  8
1
  6
Continuous
 62
     7
100
AcDbLine
 10
102.7265442433601
 20
313.3410299949077
 30
0.0
 11
102.7265442433601
 21
501.6387633052499
 31
0.0
  0
ARC
  5
1CC
330
6A
100
AcDbEntity
  8
_______C____
  6
Continuous
 62
     7
100
AcDbCircle
 10
273.2265442433592
 20
421.438763305249
 30
0.0
 40
70.5000000000008
100
AcDbArc
 50
0.0
 51
158.0000000000001
  0
ARC
  5
1CD
330
6A
100
AcDbEntity
  8
_______C____
  6
Continuous
 62
     7
100
AcDbCircle
 10
273.2265442433592
 20
421.438763305249
 30
0.0
 40
89.49999999999767
100
AcDbArc
 50
90.64271825402535
 51
157.9999999999996
  0
ARC
  5
1CE
330
6A
100
AcDbEntity
  8
1
  6
Continuous
 62
     7
100
AcDbCircle
 10
353.22654424336
 20
550.8410299949077
 30
0.0
 40
9.5
100
AcDbArc
 50
-89.99999999999966
 51
89.99999999999966
  0
ARC
  5
1CF
330
6A
100
AcDbEntity
  8
_______C____
  6
Continuous
 62
     7
100
AcDbCircle
 10
273.2265442433592
 20
421.438763305249
 30
0.0
 40
89.5000000000008
100
AcDbArc
 50
0.0
 51
90.64271825402535
  0
ARC
  5
1D0
330
6A
100
AcDbEntity
  8
1
  6
Continuous
 62
     7
100
AcDbCircle
 10
93.22654424336011
 20
501.6387633052499
 30
0.0
 40
9.499999999999986
100
AcDbArc
 50
0.0
 51
180.0
  0
SPLINE
  5
1D1
330
6A
100
AcDbEntity
  8
1
  6
Continuous
 62
     7
100
AcDbSpline
210
0.0
220
0.0
230
1.0
 70
     8
 71
     3
 72
    43
 73
    39
 74
    37
 42
0.0000000001
 43
0.0000000001
 44
0.00000001
 40
0.0
 40
0.0
 40
0.0
 40
0.0
 40
0.7708684768820066
 40
1.541703786928092
 40
2.317888390451762
 40
3.094012842831512
 40
3.878262806418415
 40
4.662435964189492
 40
5.456464110067307
 40
6.250410360608968
 40
7.054712789034708
 40
7.858938611737638
 40
8.672777180267298
 40
9.486552380519107
 40
10.30808158799287
 40
11.12956600144065
 40
11.95607264472135
 40
12.78255618890082
 40
13.61077688214581
 40
14.4389975753908
 40
15.26548111957016
 40
16.09198776285095
 40
16.91347217629874
 40
17.7350013837725
 40
18.54877658402431
 40
19.36261515255399
 40
20.16684097525691
 40
20.97114340368265
 40
21.76508965422432
 40
22.5591178001021
 40
23.3432909578732
 40
24.12754092146007
 40
24.9036653738398
 40
25.67984997736346
 40
26.45068528740954
 40
27.22155376429151
 40
27.60659015240414
 40
27.99076961344256
 40
27.99076961344256
 40
27.99076961344256
 40
27.99076961344256
 10
192.3168190403828
 20
560.3047212662864
 30
0.0
 10
192.0615539031324
 20
560.2736522886942
 30
0.0
 10
191.5510346114869
 20
560.2115156702616
 30
0.0
 10
190.7990140791645
 20
560.0269466539893
 30
0.0
 10
190.0647205035723
 20
559.7783145289501
 30
0.0
 10
189.3529251185976
 20
559.4592330502646
 30
0.0
 10
188.670629292979
 20
559.0759741270371
 30
0.0
 10
188.0211624896443
 20
558.628757794025
 30
0.0
 10
187.4114138613095
 20
558.1236943279541
 30
0.0
 10
186.8440572870942
 20
557.561901146137
 30
0.0
 10
186.3251843534089
 20
556.9505898121618
 30
0.0
 10
185.8570924414582
 20
556.2914642605063
 30
0.0
 10
185.4446361852781
 20
555.5925066959669
 30
0.0
 10
185.0898714112767
 20
554.8561949855867
 30
0.0
 10
184.7961708513048
 20
554.0907419289223
 30
0.0
 10
184.5653220153926
 20
553.2996464164181
 30
0.0
 10
184.3991812219857
 20
552.4907948400527
 30
0.0
 10
184.2990833859368
 20
551.6688941266847
 30
0.0
 10
184.2655218317565
 20
550.8410299949101
 30
0.0
 10
184.299083385936
 20
550.013165863121
 30
0.0
 10
184.3991812219888
 20
549.1912651497958
 30
0.0
 10
184.5653220153811
 20
548.3824135732733
 30
0.0
 10
184.7961708513468
 20
547.5913180613512
 30
0.0
 10
185.0898714111204
 20
546.825865002524
 30
0.0
 10
185.4446361858552
 20
546.0895533001434
 30
0.0
 10
185.8570924393144
 20
545.3905957059221
 30
0.0
 10
186.3251843613051
 20
544.7314702637929
 30
0.0
 10
186.8440572577708
 20
544.1201585237895
 30
0.0
 10
187.4114139691858
 20
543.5583668386834
 30
0.0
 10
188.0211620889361
 20
543.0532978244695
 30
0.0
 10
188.6706307678965
 20
542.6061019526313
 30
0.0
 10
189.3529196353425
 20
542.2227671228005
 30
0.0
 10
190.064740732669
 20
541.9039661397815
 30
0.0
 10
190.7989387702628
 20
541.6542917921306
 30
0.0
 10
191.5513135239738
 20
541.473586971752
 30
0.0
 10
192.1882337708647
 20
541.3839334409271
 30
0.0
 10
192.7004568451087
 20
541.3462987692379
 30
0.0
 10
192.956889813986
 20
541.3427849481875
 30
0.0
 10
193.0849634618242
 20
541.3410299949077
 30
0.0
 11
192.3168190403828
 21
560.3047212662864
 31
0.0
 11
191.5536051664841
 21
560.1963571055184
 31
0.0
 11
190.8039623392007
 21
560.0168502624276
 31
0.0
 11
190.0691427721054
 21
559.7668447773657
 31
0.0
 11
189.3606583770249
 21
559.4499551632898
 31
0.0
 11
188.6769210901866
 21
559.0658310583796
 31
0.0
 11
188.0308335182314
 21
558.6214231480835
 31
0.0
 11
187.4192871383999
 21
558.1149730303413
 31
0.0
 11
186.8548696971446
 21
557.5565971705873
 31
0.0
 11
186.334311939282
 21
556.9434723732576
 31
0.0
 11
185.8683957544308
 21
556.2879563302839
 31
0.0
 11
185.4546987374262
 21
555.5871082770314
 31
0.0
 11
185.1012425130444
 21
554.8541016099466
 31
0.0
 11
184.8068733121159
 21
554.0871224627222
 31
0.0
 11
184.5765763945043
 21
553.2985795207867
 31
0.0
 11
184.4102548136596
 21
552.488980630513
 31
0.0
 11
184.3102272007614
 21
551.6685724848578
 31
0.0
 11
184.2767168434646
 21
550.8410299949076
 31
0.0
 11
184.3102272007614
 21
550.0134875049573
 31
0.0
 11
184.4102548136596
 21
549.1930793593023
 31
0.0
 11
184.5765763945043
 21
548.3834804690284
 31
0.0
 11
184.8068733121158
 21
547.594937527093
 31
0.0
 11
185.1012425130444
 21
546.8279583798685
 31
0.0
 11
185.4546987374262
 21
546.0949517127838
 31
0.0
 11
185.8683957544308
 21
545.3941036595312
 31
0.0
 11
186.334311939282
 21
544.7385876165575
 31
0.0
 11
186.8548696971446
 21
544.1254628192278
 31
0.0
 11
187.4192871383999
 21
543.5670869594738
 31
0.0
 11
188.0308335182315
 21
543.0606368417317
 31
0.0
 11
188.6769210901867
 21
542.6162289314357
 31
0.0
 11
189.360658377025
 21
542.2321048265255
 31
0.0
 11
190.0691427721055
 21
541.9152152124497
 31
0.0
 11
190.8039623392007
 21
541.6652097273875
 31
0.0
 11
191.5536051664841
 21
541.4857028842965
 31
0.0
 11
192.3168190403828
 21
541.377338723529
 31
0.0
 11
192.7008912511035
 21
541.3501071770636
 31
0.0
 11
193.0849634618242
 21
541.3410299949077
 31
0.0
  0
SPLINE
  5
1D2
330
6A
100
AcDbEntity
  8
1
  6
Continuous
 62
     7
100
AcDbSpline
210
0.0
220
0.0
230
1.0
 70
     8
 71
     3
 72
     9
 73
     5
 74
     3
 42
0.0000000001
 43
0.0000000001
 44
0.00000001
 40
0.0
 40
0.0
 40
0.0
 40
0.0
 40
0.3841794610478967
 40
0.7692158491700034
 40
0.7692158491700034
 40
0.7692158491700034
 40
0.7692158491700034
 10
193.0849634618432
 20
560.3410299949078
 30
0.0
 10
192.9568682391851
 20
560.3395104009851
 30
0.0
 10
192.7003920725446
 20
560.336467823627
 30
0.0
 10
192.4447716404411
 20
560.3153113083748
 30
0.0
 10
192.3168190403828
 20
560.3047212662864
 30
0.0
 11
193.0849634618432
 21
560.3410299949078
 31
0.0
 11
192.700891251113
 21
560.3319528127523
 31
0.0
 11
192.3168190403828
 21
560.3047212662864
 31
0.0
  0
SPLINE
  5
1D3
330
6A
100
AcDbEntity
  8
1
  6
Continuous
 62
     7
100
AcDbSpline
210
0.0
220
0.0
230
1.0
 70
     8
 71
     3
 72
     9
 73
     5
 74
     3
 42
0.0000000001
 43
0.0000000001
 44
0.00000001
 40
0.0
 40
0.0
 40
0.0
 40
0.0
 40
0.1581913948783672
 40
0.3187980906042798
 40
0.3187980906042798
 40
0.3187980906042798
 40
0.3187980906042798
 10
102.7265442433601
 20
436.8387633052383
 30
0.0
 10
102.724860139123
 20
436.8915886341554
 30
0.0
 10
102.7214662173765
 20
436.998045840676
 30
0.0
 10
102.6987471679497
 20
437.1021105221019
 30
0.0
 10
102.6873015803943
 20
437.1545370739482
 30
0.0
 11
102.7265442433601
 21
436.8387633052383
 31
0.0
 11
102.7167335776194
 21
436.9966501895931
 31
0.0
 11
102.6873015803943
 21
437.1545370739482
 31
0.0
  0
SPLINE
  5
1D4
330
6A
100
AcDbEntity
  8
1
  6
Continuous
 62
     7
100
AcDbSpline
210
0.0
220
0.0
230
1.0
 70
     8
 71
     3
 72
    43
 73
    39
 74
    37
 42
0.0000000001
 43
0.0000000001
 44
0.00000001
 40
0.0
 40
0.0
 40
0.0
 40
0.0
 40
0.3453400206047061
 40
0.6886871607296343
 40
1.099458892434941
 40
1.508530730472122
 40
2.003253423651055
 40
2.497259980132115
 40
3.079730575784629
 40
3.661830467813257
 40
4.325361761291497
 40
4.988704318761924
 40
5.720407605591831
 40
6.452008096997132
 40
7.2349513003186
 40
8.017840109044281
 40
8.832502829616205
 40
9.647141761197791
 40
10.47253033717438
 40
11.29791891315096
 40
12.11255784473251
 40
12.92722056530449
 40
13.71010937403018
 40
14.49305257735161
 40
15.22465306875686
 40
15.95635635558679
 40
16.61969891305727
 40
17.28323020653552
 40
17.86533009856411
 40
18.44780069421669
 40
18.94180725069769
 40
19.43652994387668
 40
19.84560178191385
 40
20.25637351361926
 40
20.5997206537441
 40
20.9450606743488
 40
21.10566737006311
 40
21.26385876492999
 40
21.26385876492999
 40
21.26385876492999
 40
21.26385876492999
 10
102.6873015803943
 20
437.1545370739482
 30
0.0
 10
102.6534565068018
 20
437.2650690556911
 30
0.0
 10
102.5859616720117
 20
437.4854951636849
 30
0.0
 10
102.3873325625169
 20
437.797605364171
 30
0.0
 10
102.1324783293566
 20
438.0908711345245
 30
0.0
 10
101.8026218658051
 20
438.3810937533224
 30
0.0
 10
101.4200752082304
 20
438.6484462135258
 30
0.0
 10
100.9662109379664
 20
438.9108138347864
 30
0.0
 10
100.4669221157671
 20
439.1494192410087
 30
0.0
 10
99.90159426079892
 20
439.3776981377106
 30
0.0
 10
99.29840738389042
 20
439.5814210830523
 30
0.0
 10
98.63822018250828
 20
439.7693609015645
 30
0.0
 10
97.94798715438373
 20
439.9319366075745
 30
0.0
 10
97.21269165857046
 20
440.0741852689066
 30
0.0
 10
96.4555499080446
 20
440.1903205827441
 30
0.0
 10
95.66730384155197
 20
440.2828100121481
 30
0.0
 10
94.86577928895161
 20
440.3486175113713
 30
0.0
 10
94.04838982386221
 20
440.3887688556453
 30
0.0
 10
93.22654424336754
 20
440.4019331856162
 30
0.0
 10
92.40469866282808
 20
440.3887688556513
 30
0.0
 10
91.58730919787128
 20
440.3486175113472
 30
0.0
 10
90.7857846447926
 20
440.2828100122371
 30
0.0
 10
89.99753858001564
 20
440.1903205824251
 30
0.0
 10
89.24039682327999
 20
440.0741852700647
 30
0.0
 10
88.50510134919105
 20
439.9319366035654
 30
0.0
 10
87.81486824364517
 20
439.7693609159722
 30
0.0
 10
87.15468130554638
 20
439.5814210348293
 30
0.0
 10
86.55149350600055
 20
439.3776983089671
 30
0.0
 10
85.98616869454295
 20
439.149418688267
 30
0.0
 10
85.48686939171435
 20
438.9108157752055
 30
0.0
 10
85.03303864476848
 20
438.6484401793247
 30
0.0
 10
84.65037824458506
 20
438.3811147765296
 30
0.0
 10
84.32087765137024
 20
438.0908075023062
 30
0.0
 10
84.06481653915975
 20
437.7978288276969
 30
0.0
 10
83.87000638369381
 20
437.4848101638085
 30
0.0
 10
83.77546864737931
 20
437.2156678363853
 30
0.0
 10
83.73220034540836
 20
436.9979083263463
 30
0.0
 10
83.72842006389654
 20
436.8915430281685
 30
0.0
 10
83.72654424335991
 20
436.8387633052614
 30
0.0
 11
102.6873015803943
 21
437.1545370739482
 31
0.0
 11
102.5714528964416
 21
437.4798658495855
 31
0.0
 11
102.3935046659502
 21
437.7735011436101
 31
0.0
 11
102.125555943713
 21
438.0848480527319
 31
0.0
 11
101.8199009105084
 21
438.3567207607255
 31
0.0
 11
101.4161197462419
 21
438.642572670864
 31
0.0
 11
100.9890061565865
 21
438.890799299931
 31
0.0
 11
100.4644191116346
 21
439.1439404207873
 31
0.0
 11
99.92494528406465
 21
439.3625914524949
 31
0.0
 11
99.29677949709594
 21
439.576323812017
 31
0.0
 11
98.65892494551969
 21
439.7584361937621
 31
0.0
 11
97.94693667991565
 21
439.9271442540314
 31
0.0
 11
97.22871527403972
 21
440.0664184123167
 31
0.0
 11
96.45491850862004
 21
440.1857441239355
 31
0.0
 11
95.67738237750004
 21
440.2771358720906
 31
0.0
 11
94.86548213730598
 21
440.3441683139563
 31
0.0
 11
94.05182418356723
 21
440.3841348395255
 31
0.0
 11
93.22654424336004
 21
440.3975259427015
 31
0.0
 11
92.40126430315286
 21
440.3841348395254
 31
0.0
 11
91.58760634941415
 21
440.3441683139563
 31
0.0
 11
90.77570610922004
 21
440.2771358720905
 31
0.0
 11
89.99816997810002
 21
440.1857441239354
 31
0.0
 11
89.22437321268038
 21
440.0664184123166
 31
0.0
 11
88.50615180680447
 21
439.9271442540315
 31
0.0
 11
87.79416354120045
 21
439.758436193762
 31
0.0
 11
87.15630898962418
 21
439.5763238120168
 31
0.0
 11
86.52814320265543
 21
439.3625914524948
 31
0.0
 11
85.98866937508544
 21
439.1439404207874
 31
0.0
 11
85.46408233013348
 21
438.890799299931
 31
0.0
 11
85.03696874047813
 21
438.6425726708641
 31
0.0
 11
84.63318757621163
 21
438.3567207607255
 31
0.0
 11
84.327532543007
 21
438.0848480527319
 31
0.0
 11
84.05958382076986
 21
437.77350114361
 31
0.0
 11
83.88163559027839
 21
437.4798658495855
 31
0.0
 11
83.76578690632572
 21
437.1545370739482
 31
0.0
 11
83.73635490910208
 21
436.9966501896047
 31
0.0
 11
83.72654424335991
 21
436.8387633052614
 31
0.0
  0
ENDBLK
  5
6D
330
6A
100
AcDbEntity
  8
0
100
AcDbBlockEnd
  0
BLOCK
  5
20E
330
205
100
AcDbEntity
  8
0
100
AcDbBlockBegin
  2
*D018
 70
     1
 71
     0
 10
0.0
 20
0.0
 30
0.0
  3
*D018
  1

  0
LINE
  5
206
330
205
100
AcDbEntity
  8
1
  6
Continuous
 62
     2
100
AcDbLine
 10
301.357694166891
 20
136.5410299949063
 30
0.0
 11
301.357694166891
 21
122.5410299949063
 31
0.0
  0
LINE
  5
207
330
205
100
AcDbEntity
  8
1
  6
Continuous
 62
     2
100
AcDbLine
 10
301.357694166891
 20
146.5410299949065
 30
0.0
 11
301.357694166891
 21
136.5410299949063
 31
0.0
  0
LINE
  5
208
330
205
100
AcDbEntity
  8
1
  6
Continuous
 62
     2
100
AcDbLine
 10
301.357694166891
 20
211.7852362344164
 30
0.0
 11
301.357694166891
 21
146.5410299949065
 31
0.0
  0
LINE
  5
209
330
205
100
AcDbEntity
  8
1
  6
Continuous
 62
     2
100
AcDbLine
 10
311.2265442433601
 20
146.5410299949065
 30
0.0
 11
299.357694166891
 21
146.5410299949065
 31
0.0
  0
LINE
  5
20A
330
205
100
AcDbEntity
  8
1
  6
Continuous
 62
     2
100
AcDbLine
 10
311.2265442433592
 20
136.5410299949063
 30
0.0
 11
299.357694166891
 21
136.5410299949063
 31
0.0
  0
SOLID
  5
20B
330
205
100
AcDbEntity
  8
1
 62
     2
100
AcDbTrace
 10
300.4361266837793
 20
153.5410299949065
 30
0.0
 11
302.2792616500028
 21
153.5410299949065
 31
0.0
 12
301.357694166891
 22
146.5410299949065
 32
0.0
 13
301.357694166891
 23
146.5410299949065
 33
0.0
  0
SOLID
  5
20C
330
205
100
AcDbEntity
  8
1
 62
     2
100
AcDbTrace
 10
302.2792616500028
 20
129.5410299949063
 30
0.0
 11
300.4361266837793
 21
129.5410299949063
 31
0.0
 12
301.357694166891
 22
136.5410299949063
 32
0.0
 13
301.357694166891
 23
136.5410299949063
 33
0.0
  0
MTEXT
  5
20D
330
205
100
AcDbEntity
  8
1
 62
     7
100
AcDbMText
 10
299.357694166891
 20
161.3852362344164
 30
0.0
 40
7.0
 41
0.0
 71
     7
 72
     1
  1
最大30 最小5
  7
CONVERTER_1
 11
0.0
 21
1.0
 31
0.0
 73
     1
 44
0.60024009603842
  0
ENDBLK
  5
20F
330
205
100
AcDbEntity
  8
0
100
AcDbBlockEnd
  0
BLOCK
  5
219
330
212
100
AcDbEntity
  8
0
100
AcDbBlockBegin
  2
*D119
 70
     1
 71
     0
 10
0.0
 20
0.0
 30
0.0
  3
*D119
  1

  0
LINE
  5
213
330
212
100
AcDbEntity
  8
1
  6
Continuous
 62
     2
100
AcDbLine
 10
157.7083186519627
 20
147.5410299949077
 30
0.0
 11
157.7083186519627
 21
417.7973277417611
 31
0.0
  0
LINE
  5
214
330
212
100
AcDbEntity
  8
1
  6
Continuous
 62
     2
100
AcDbLine
 10
185.4725293618108
 20
417.7973277417611
 30
0.0
 11
155.7083186519627
 21
417.7973277417611
 31
0.0
  0
LINE
  5
215
330
212
100
AcDbEntity
  8
1
  6
Continuous
 62
     2
100
AcDbLine
 10
335.5265442433599
 20
147.5410299949077
 30
0.0
 11
155.7083186519627
 21
147.5410299949077
 31
0.0
  0
SOLID
  5
216
330
212
100
AcDbEntity
  8
1
 62
     2
100
AcDbTrace
 10
156.7867511688509
 20
154.5410299949077
 30
0.0
 11
158.6298861350745
 21
154.5410299949077
 31
0.0
 12
157.7083186519627
 22
147.5410299949077
 32
0.0
 13
157.7083186519627
 23
147.5410299949077
 33
0.0
  0
SOLID
  5
217
330
212
100
AcDbEntity
  8
1
 62
     2
100
AcDbTrace
 10
158.6298861350745
 20
410.7973277417611
 30
0.0
 11
156.7867511688509
 21
410.7973277417611
 31
0.0
 12
157.7083186519627
 22
417.7973277417611
 32
0.0
 13
157.7083186519627
 23
417.7973277417611
 33
0.0
  0
MTEXT
  5
218
330
212
100
AcDbEntity
  8
1
 62
     7
100
AcDbMText
 10
155.7083186519627
 20
280.4634077868364
 30
0.0
 40
7.0
 41
0.0
 71
     7
 72
     1
  1
271
  7
CONVERTER_2
 11
0.0
 21
1.0
 31
0.0
 73
     1
 44
0.60024009603842
  0
ENDBLK
  5
21A
330
212
100
AcDbEntity
  8
0
100
AcDbBlockEnd
  0
BLOCK
  5
224
330
21D
100
AcDbEntity
  8
0
100
AcDbBlockBegin
  2
*D220
 70
     1
 71
     0
 10
0.0
 20
0.0
 30
0.0
  3
*D220
  1

  0
LINE
  5
21E
330
21D
100
AcDbEntity
  8
1
  6
Continuous
 62
     2
100
AcDbLine
 10
197.7083186519627
 20
147.5410299949077
 30
0.0
 11
197.7083186519627
 21
255.1410299949077
 31
0.0
  0
LINE
  5
21F
330
21D
100
AcDbEntity
  8
1
  6
Continuous
 62
     2
100
AcDbLine
 10
292.22654424336
 20
255.1410299949077
 30
0.0
 11
195.7083186519627
 21
255.1410299949077
 31
0.0
  0
LINE
  5
220
330
21D
100
AcDbEntity
  8
1
  6
Continuous
 62
     2
100
AcDbLine
 10
335.5265442433599
 20
147.5410299949077
 30
0.0
 11
195.7083186519627
 21
147.5410299949077
 31
0.0
  0
SOLID
  5
221
330
21D
100
AcDbEntity
  8
1
 62
     2
100
AcDbTrace
 10
196.7867511688509
 20
154.5410299949077
 30
0.0
 11
198.6298861350745
 21
154.5410299949077
 31
0.0
 12
197.7083186519627
 22
147.5410299949077
 32
0.0
 13
197.7083186519627
 23
147.5410299949077
 33
0.0
  0
SOLID
  5
222
330
21D
100
AcDbEntity
  8
1
 62
     2
100
AcDbTrace
 10
198.6298861350745
 20
248.1410299949077
 30
0.0
 11
196.7867511688509
 21
248.1410299949077
 31
0.0
 12
197.7083186519627
 22
255.1410299949077
 32
0.0
 13
197.7083186519627
 23
255.1410299949077
 33
0.0
  0
MTEXT
  5
223
330
21D
100
AcDbEntity
  8
1
 62
     7
100
AcDbMText
 10
195.7083186519627
 20
201.9625302079424
 30
0.0
 40
7.0
 41
0.0
 71
     7
 72
     1
  1
108
  7
CONVERTER_2
 11
0.0
 21
1.0
 31
0.0
 73
     1
 44
0.60024009603842
  0
ENDBLK
  5
225
330
21D
100
AcDbEntity
  8
0
100
AcDbBlockEnd
  0
BLOCK
  5
22F
330
228
100
AcDbEntity
  8
0
100
AcDbBlockBegin
  2
*D321
 70
     1
 71
     0
 10
0.0
 20
0.0
 30
0.0
  3
*D321
  1

  0
LINE
  5
229
330
228
100
AcDbEntity
  8
1
  6
Continuous
 62
     2
100
AcDbLine
 10
177.7083186519627
 20
147.5410299949077
 30
0.0
 11
177.7083186519627
 21
313.3410299949077
 31
0.0
  0
LINE
  5
22A
330
228
100
AcDbEntity
  8
1
  6
Continuous
 62
     2
100
AcDbLine
 10
335.72654424336
 20
313.3410299949077
 30
0.0
 11
175.7083186519627
 21
313.3410299949077
 31
0.0
  0
LINE
  5
22B
330
228
100
AcDbEntity
  8
1
  6
Continuous
 62
     2
100
AcDbLine
 10
335.5265442433599
 20
147.5410299949077
 30
0.0
 11
175.7083186519627
 21
147.5410299949077
 31
0.0
  0
SOLID
  5
22C
330
228
100
AcDbEntity
  8
1
 62
     2
100
AcDbTrace
 10
176.7867511688509
 20
154.5410299949077
 30
0.0
 11
178.6298861350745
 21
154.5410299949077
 31
0.0
 12
177.7083186519627
 22
147.5410299949077
 32
0.0
 13
177.7083186519627
 23
147.5410299949077
 33
0.0
  0
SOLID
  5
22D
330
228
100
AcDbEntity
  8
1
 62
     2
100
AcDbTrace
 10
178.6298861350745
 20
306.3410299949077
 30
0.0
 11
176.7867511688509
 21
306.3410299949077
 31
0.0
 12
177.7083186519627
 22
313.3410299949077
 32
0.0
 13
177.7083186519627
 23
313.3410299949077
 33
0.0
  0
MTEXT
  5
22E
330
228
100
AcDbEntity
  8
1
 62
     7
100
AcDbMText
 10
175.7083186519627
 20
228.3944481780814
 30
0.0
 40
7.0
 41
0.0
 71
     7
 72
     1
  1
166
  7
CONVERTER_2
 11
0.0
 21
1.0
 31
0.0
 73
     1
 44
0.60024009603842
  0
ENDBLK
  5
230
330
228
100
AcDbEntity
  8
0
100
AcDbBlockEnd
  0
BLOCK
  5
23A
330
233
100
AcDbEntity
  8
0
100
AcDbBlockBegin
  2
*D422
 70
     1
 71
     0
 10
0.0
 20
0.0
 30
0.0
  3
*D422
  1

  0
LINE
  5
234
330
233
100
AcDbEntity
  8
1
  6
Continuous
 62
     2
100
AcDbLine
 10
391.2265442433611
 20
510.9331323186969
 30
0.0
 11
391.2265442433611
 21
147.5410299948961
 31
0.0
  0
LINE
  5
235
330
233
100
AcDbEntity
  8
1
  6
Continuous
 62
     2
100
AcDbLine
 10
370.9265442433486
 20
147.5410299948961
 30
0.0
 11
393.2265442433611
 21
147.5410299948961
 31
0.0
  0
LINE
  5
236
330
233
100
AcDbEntity
  8
1
  6
Continuous
 62
     2
100
AcDbLine
 10
272.2225946009987
 20
510.9331323186969
 30
0.0
 11
393.2265442433611
 21
510.9331323186969
 31
0.0
  0
SOLID
  5
237
330
233
100
AcDbEntity
  8
1
 62
     2
100
AcDbTrace
 10
392.1481117264729
 20
503.9331323186969
 30
0.0
 11
390.3049767602494
 21
503.9331323186969
 31
0.0
 12
391.2265442433611
 22
510.9331323186969
 32
0.0
 13
391.2265442433611
 23
510.9331323186969
 33
0.0
  0
SOLID
  5
238
330
233
100
AcDbEntity
  8
1
 62
     2
100
AcDbTrace
 10
390.3049767602494
 20
154.5410299948961
 30
0.0
 11
392.1481117264729
 21
154.5410299948961
 31
0.0
 12
391.2265442433611
 22
147.5410299948961
 32
0.0
 13
391.2265442433611
 23
147.5410299948961
 33
0.0
  0
MTEXT
  5
239
330
233
100
AcDbEntity
  8
1
 62
     7
100
AcDbMText
 10
389.2265442433611
 20
339.0903391298313
 30
0.0
 40
7.0
 41
0.0
 71
     7
 72
     1
  1
364
  7
CONVERTER_2
 11
0.0
 21
1.0
 31
0.0
 73
     1
 44
0.60024009603842
  0
ENDBLK
  5
23B
330
233
100
AcDbEntity
  8
0
100
AcDbBlockEnd
  0
BLOCK
  5
246
330
23E
100
AcDbEntity
  8
0
100
AcDbBlockBegin
  2
*D523
 70
     1
 71
     0
 10
0.0
 20
0.0
 30
0.0
  3
*D523
  1

  0
LINE
  5
23F
330
23E
100
AcDbEntity
  8
1
  6
Continuous
 62
     2
100
AcDbLine
 10
83.4530603580163
 20
162.0897738747764
 30
0.0
 11
119.4530603580163
 21
162.0897738747764
 31
0.0
  0
LINE
  5
240
330
23E
100
AcDbEntity
  8
1
  6
Continuous
 62
     2
100
AcDbLine
 10
119.4530603580163
 20
162.0897738747764
 30
0.0
 11
142.853706792482
 21
162.0897738747764
 31
0.0
  0
LINE
  5
241
330
23E
100
AcDbEntity
  8
1
  6
Continuous
 62
     2
100
AcDbLine
 10
111.22654424336
 20
147.8410299949076
 30
0.0
 11
120.4530603580163
 21
163.8218246823453
 31
0.0
  0
LINE
  5
242
330
23E
100
AcDbEntity
  8
1
  6
Continuous
 62
     2
100
AcDbLine
 10
75.22654424336002
 20
147.8410299949076
 30
0.0
 11
84.4530603580163
 21
163.8218246823453
 31
0.0
  0
SOLID
  5
243
330
23E
100
AcDbEntity
  8
1
 62
     2
100
AcDbTrace
 10
90.4530603580163
 20
163.0113413578882
 30
0.0
 11
90.4530603580163
 21
161.1682063916646
 31
0.0
 12
83.4530603580163
 22
162.0897738747764
 32
0.0
 13
83.4530603580163
 23
162.0897738747764
 33
0.0
  0
SOLID
  5
244
330
23E
100
AcDbEntity
  8
1
 62
     2
100
AcDbTrace
 10
112.4530603580163
 20
161.1682063916646
 30
0.0
 11
112.4530603580163
 21
163.0113413578882
 31
0.0
 12
119.4530603580163
 22
162.0897738747764
 32
0.0
 13
119.4530603580163
 23
162.0897738747764
 33
0.0
  0
MTEXT
  5
245
330
23E
100
AcDbEntity
  8
1
 62
     7
100
AcDbMText
 10
120.8737067925157
 20
164.0897460464711
 30
0.0
 40
7.0
 41
0.0
 71
     7
 72
     1
  1
\C7;{\Fgdt;n}\C7;36
  7
CONVERTER_2
 11
0.9999999999970621
 21
2.424068405545307E-6
 31
0.0
 73
     1
 44
0.60024009603842
  0
ENDBLK
  5
247
330
23E
100
AcDbEntity
  8
0
100
AcDbBlockEnd
  0
BLOCK
  5
251
330
24A
100
AcDbEntity
  8
0
100
AcDbBlockBegin
  2
*D624
 70
     1
 71
     0
 10
0.0
 20
0.0
 30
0.0
  3
*D624
  1

  0
LINE
  5
24B
330
24A
100
AcDbEntity
  8
1
  6
Continuous
 62
     2
100
AcDbLine
 10
185.4725293618108
 20
370.4586330613483
 30
0.0
 11
353.22654424336
 21
370.4586330613483
 31
0.0
  0
LINE
  5
24C
330
24A
100
AcDbEntity
  8
1
  6
Continuous
 62
     2
100
AcDbLine
 10
353.22654424336
 20
421.4387633052489
 30
0.0
 11
353.22654424336
 21
368.4586330613483
 31
0.0
  0
LINE
  5
24D
330
24A
100
AcDbEntity
  8
1
  6
Continuous
 62
     2
100
AcDbLine
 10
185.4725293618108
 20
417.797327741761
 30
0.0
 11
185.4725293618108
 21
368.4586330613483
 31
0.0
  0
SOLID
  5
24E
330
24A
100
AcDbEntity
  8
1
 62
     2
100
AcDbTrace
 10
192.4725293618108
 20
371.38020054446
 30
0.0
 11
192.4725293618108
 21
369.5370655782365
 31
0.0
 12
185.4725293618108
 22
370.4586330613483
 32
0.0
 13
185.4725293618108
 23
370.4586330613483
 33
0.0
  0
SOLID
  5
24F
330
24A
100
AcDbEntity
  8
1
 62
     2
100
AcDbTrace
 10
346.22654424336
 20
369.5370655782365
 30
0.0
 11
346.22654424336
 21
371.38020054446
 31
0.0
 12
353.22654424336
 22
370.4586330613483
 32
0.0
 13
353.22654424336
 23
370.4586330613483
 33
0.0
  0
MTEXT
  5
250
330
24A
100
AcDbEntity
  8
1
 62
     7
100
AcDbMText
 10
261.9995368025854
 20
372.4586330613483
 30
0.0
 40
7.0
 41
0.0
 71
     7
 72
     1
  1
168
  7
CONVERTER_2
 11
0.9999999999970621
 21
2.424068405545307E-6
 31
0.0
 73
     1
 44
0.60024009603842
  0
ENDBLK
  5
252
330
24A
100
AcDbEntity
  8
0
100
AcDbBlockEnd
  0
BLOCK
  5
25C
330
255
100
AcDbEntity
  8
0
100
AcDbBlockBegin
  2
*D725
 70
     1
 71
     0
 10
0.0
 20
0.0
 30
0.0
  3
*D725
  1

  0
LINE
  5
256
330
255
100
AcDbEntity
  8
1
  6
Continuous
 62
     2
100
AcDbLine
 10
157.7083186519627
 20
147.5410299949077
 30
0.0
 11
157.7083186519627
 21
95.54102999490192
 31
0.0
  0
LINE
  5
257
330
255
100
AcDbEntity
  8
1
  6
Continuous
 62
     2
100
AcDbLine
 10
353.2265442433602
 20
95.54102999490192
 30
0.0
 11
155.7083186519627
 21
95.54102999490192
 31
0.0
  0
LINE
  5
258
330
255
100
AcDbEntity
  8
1
  6
Continuous
 62
     2
100
AcDbLine
 10
335.5265442433599
 20
147.5410299949077
 30
0.0
 11
155.7083186519627
 21
147.5410299949077
 31
0.0
  0
SOLID
  5
259
330
255
100
AcDbEntity
  8
1
 62
     2
100
AcDbTrace
 10
158.6298861350745
 20
140.5410299949077
 30
0.0
 11
156.7867511688509
 21
140.5410299949077
 31
0.0
 12
157.7083186519627
 22
147.5410299949077
 32
0.0
 13
157.7083186519627
 23
147.5410299949077
 33
0.0
  0
SOLID
  5
25A
330
255
100
AcDbEntity
  8
1
 62
     2
100
AcDbTrace
 10
156.7867511688509
 20
102.5410299949019
 30
0.0
 11
158.6298861350745
 21
102.5410299949019
 31
0.0
 12
157.7083186519627
 22
95.54102999490192
 32
0.0
 13
157.7083186519627
 23
95.54102999490192
 33
0.0
  0
MTEXT
  5
25B
330
255
100
AcDbEntity
  8
1
 62
     7
100
AcDbMText
 10
155.7083186519627
 20
115.2733370579553
 30
0.0
 40
7.0
 41
0.0
 71
     7
 72
     1
  1
52
  7
CONVERTER_2
 11
0.0
 21
1.0
 31
0.0
 73
     1
 44
0.60024009603842
  0
ENDBLK
  5
25D
330
255
100
AcDbEntity
  8
0
100
AcDbBlockEnd
  0
BLOCK
  5
269
330
260
100
AcDbEntity
  8
0
100
AcDbBlockBegin
  2
*D826
 70
     1
 71
     0
 10
0.0
 20
0.0
 30
0.0
  3
*D826
  1

  0
LINE
  5
261
330
260
100
AcDbEntity
  8
1
  6
Continuous
 62
     2
100
AcDbLine
 10
69.72654424336011
 20
335.0675008883204
 30
0.0
 11
83.7265442433601
 21
335.0675008883204
 31
0.0
  0
LINE
  5
262
330
260
100
AcDbEntity
  8
1
  6
Continuous
 62
     2
100
AcDbLine
 10
83.7265442433601
 20
335.0675008883204
 30
0.0
 11
102.7265442433601
 21
335.0675008883204
 31
0.0
  0
LINE
  5
263
330
260
100
AcDbEntity
  8
1
  6
Continuous
 62
     2
100
AcDbLine
 10
102.7265442433601
 20
335.0675008883204
 30
0.0
 11
123.112776030521
 21
335.0675008883204
 31
0.0
  0
LINE
  5
264
330
260
100
AcDbEntity
  8
1
  6
Continuous
 62
     2
100
AcDbLine
 10
102.7265442433601
 20
313.3410299949077
 30
0.0
 11
102.7265442433601
 21
337.0675008883204
 31
0.0
  0
LINE
  5
265
330
260
100
AcDbEntity
  8
1
  6
Continuous
 62
     2
100
AcDbLine
 10
83.7265442433601
 20
313.3410299949077
 30
0.0
 11
83.7265442433601
 21
337.0675008883204
 31
0.0
  0
SOLID
  5
266
330
260
100
AcDbEntity
  8
1
 62
     2
100
AcDbTrace
 10
76.7265442433601
 20
334.1459334052087
 30
0.0
 11
76.7265442433601
 21
335.9890683714322
 31
0.0
 12
83.7265442433601
 22
335.0675008883204
 32
0.0
 13
83.7265442433601
 23
335.0675008883204
 33
0.0
  0
SOLID
  5
267
330
260
100
AcDbEntity
  8
1
 62
     2
100
AcDbTrace
 10
109.7265442433601
 20
335.9890683714322
 30
0.0
 11
109.7265442433601
 21
334.1459334052087
 31
0.0
 12
102.7265442433601
 22
335.0675008883204
 32
0.0
 13
102.7265442433601
 23
335.0675008883204
 33
0.0
  0
MTEXT
  5
268
330
260
100
AcDbEntity
  8
1
 62
     7
100
AcDbMText
 10
103.2327760305547
 20
337.0674730600151
 30
0.0
 40
7.0
 41
0.0
 71
     7
 72
     1
  1
\C7;{\Fgdt;n}\C7;19
  7
CONVERTER_2
 11
0.9999999999970621
 21
2.424068405545307E-6
 31
0.0
 73
     1
 44
0.60024009603842
  0
ENDBLK
  5
26A
330
260
100
AcDbEntity
  8
0
100
AcDbBlockEnd
  0
BLOCK
  5
276
330
26D
100
AcDbEntity
  8
0
100
AcDbBlockBegin
  2
*D927
 70
     1
 71
     0
 10
0.0
 20
0.0
 30
0.0
  3
*D927
  1

  0
LINE
  5
26E
330
26D
100
AcDbEntity
  8
1
  6
Continuous
 62
     2
100
AcDbLine
 10
176.7410390014921
 20
396.186130740128
 30
0.0
 11
175.9918258146626
 21
394.3317630309934
 31
0.0
  0
LINE
  5
26F
330
26D
100
AcDbEntity
  8
1
  6
Continuous
 62
     2
100
AcDbLine
 10
185.4725293618108
 20
394.4889009446619
 30
0.0
 11
185.4725293618108
 21
392.4889009446619
 31
0.0
  0
LINE
  5
270
330
26D
100
AcDbEntity
  8
1
  6
Continuous
 62
     2
100
AcDbLine
 10
184.3487095815665
 20
415.0157761780594
 30
0.0
 11
176.7410390014921
 21
396.186130740128
 31
0.0
  0
LINE
  5
271
330
26D
100
AcDbEntity
  8
1
  6
Continuous
 62
     2
100
AcDbLine
 10
185.4725293618108
 20
415.2973277417611
 30
0.0
 11
185.4725293618108
 21
394.4889009446619
 31
0.0
  0
ARC
  5
272
330
26D
100
AcDbEntity
  8
1
  6
Continuous
 62
     2
100
AcDbCircle
 10
185.4725293618108
 20
417.7973277417611
 30
0.0
 40
23.30842679709924
100
AcDbArc
 50
-137.8106516635683
 51
-64.18934833636074
  0
SOLID
  5
273
330
26D
100
AcDbEntity
  8
1
 62
     2
100
AcDbTrace
 10
170.2469004659767
 20
398.956591226665
 30
0.0
 11
171.1852308081585
 21
400.5429968093131
 31
0.0
 12
176.7410390014921
 22
396.186130740128
 32
0.0
 13
176.7410390014921
 23
396.186130740128
 33
0.0
  0
SOLID
  5
274
330
26D
100
AcDbEntity
  8
1
 62
     2
100
AcDbTrace
 10
192.2558957738839
 20
396.4472744395517
 30
0.0
 11
192.5316225263155
 21
394.6248800635427
 31
0.0
 12
185.4725293618108
 22
394.4889009446619
 32
0.0
 13
185.4725293618108
 23
394.4889009446619
 33
0.0
  0
MTEXT
  5
275
330
26D
100
AcDbEntity
  8
1
 62
     7
100
AcDbMText
 10
166.855886716716
 20
404.8837817844271
 30
0.0
 40
7.0
 41
0.0
 71
     7
 72
     1
  1
22{\Fgdt;~}
  7
CONVERTER_2
 11
0.9816271834477821
 21
-0.1908089953759371
 31
0.0
 73
     1
 44
0.60024009603842
  0
ENDBLK
  5
277
330
26D
100
AcDbEntity
  8
0
100
AcDbBlockEnd
  0
ENDSEC
  0
SECTION
  2
ENTITIES
  0
INSERT
  5
6E
330
1F
100
AcDbEntity
  8
0
100
AcDbBlockReference
  2
Top
 10
-2111.973548632689
 20
-643.7255143399966
 30
0.0
  0
INSERT
  5
6F
330
1F
100
AcDbEntity
  8
1
100
AcDbBlockReference
  2
87-155
 10
235.5469086099895
 20
330.7902938719439
 30
0.0
  0
INSERT
  5
70
330
1F
100
AcDbEntity
  8
0
100
AcDbBlockReference
  2
06-62-C2
 10
-29.27345575664003
 20
-29.6068082022737
 30
0.0
  0
INSERT
  5
71
330
1F
100
AcDbEntity
  8
0
100
AcDbBlockReference
  2
30-261-M1
 10
-28.21944307196099
 20
90.97022908416835
 30
0.0
  0
INSERT
  5
72
330
1F
100
AcDbEntity
  8
0
100
AcDbBlockReference
  2
31-87
 10
-58.67852871661847
 20
367.6410299949077
 30
0.0
  0
INSERT
  5
73
330
1F
100
AcDbEntity
  8
0
100
AcDbBlockReference
  2
37-338-M11
 10
17.76591924336009
 20
109.8911718155355
 30
0.0
  0
INSERT
  5
74
330
1F
100
AcDbEntity
  8
0
100
AcDbBlockReference
  2
98-190
 10
-398.0780868091962
 20
6.45938781890959
 30
0.0
  0
INSERT
  5
75
330
1F
100
AcDbEntity
  8
0
100
AcDbBlockReference
  2
92-53
 10
-672.5405103585284
 20
-378.2400846228167
 30
0.0
  0
INSERT
  5
76
330
1F
100
AcDbEntity
  8
0
100
AcDbBlockReference
  2
73-1-21_5
 10
-779.465820379978
 20
-282.4733646712272
 30
0.0
  0
INSERT
  5
77
330
1F
100
AcDbEntity
  8
1
100
AcDbBlockReference
  2
32-35
 10
-514.3878769305011
 20
23.32687403253815
 30
0.0
  0
INSERT
  5
78
330
1F
100
AcDbEntity
  8
0
100
AcDbBlockReference
  2
32-16
 10
-598.4658203799775
 20
-344.0722030264906
 30
0.0
  0
INSERT
  5
79
330
1F
100
AcDbEntity
  8
0
100
AcDbBlockReference
  2
84-55
 10
848.8647920280963
 20
-162.0246038817637
 30
0.0
  0
INSERT
  5
7A
330
1F
100
AcDbEntity
  8
1
100
AcDbBlockReference
  2
_J__A4
 10
0.0
 20
0.0
 30
0.0
 41
2.0
 42
2.0
 43
2.0
  0
INSERT
  5
7B
330
1F
100
AcDbEntity
  8
0
100
AcDbBlockReference
  2
A9358__2
 10
533.2772865313319
 20
129.8475942678554
 30
0.0
  0
LINE
  5
1D5
330
1F
100
AcDbEntity
  8
1
  6
CENTER_DASH_DASH
 62
     2
100
AcDbLine
 10
109.2265442433589
 20
146.5410299949079
 30
0.0
 11
135.2265442433598
 21
146.5410299949089
 31
0.0
  0
LINE
  5
1D6
330
1F
100
AcDbEntity
  8
1
  6
CENTER_DASH_DASH
 62
     2
100
AcDbLine
 10
135.2265442433598
 20
136.5410299949089
 30
0.0
 11
111.7265442433598
 21
136.5410299949079
 31
0.0
  0
LINE
  5
1D7
330
1F
100
AcDbEntity
  8
1
  6
CENTER_DASH_DASH
 62
     2
100
AcDbLine
 10
51.22654424335917
 20
136.5410299949051
 30
0.0
 11
74.7265442433602
 21
136.5410299949063
 31
0.0
  0
LINE
  5
1D8
330
1F
100
AcDbEntity
  8
1
  6
CENTER_DASH_DASH
 62
     2
100
AcDbLine
 10
77.2265442433602
 20
146.5410299949064
 30
0.0
 11
51.22654424336008
 21
146.5410299949053
 31
0.0
  0
LINE
  5
1D9
330
1F
100
AcDbEntity
  8
1
  6
CENTER_DASH_DASH
 62
     2
100
AcDbLine
 10
395.2265442433599
 20
136.5410299949089
 30
0.0
 11
371.7265442433599
 21
136.5410299949079
 31
0.0
  0
LINE
  5
1DA
330
1F
100
AcDbEntity
  8
1
  6
CENTER_DASH_DASH
 62
     2
100
AcDbLine
 10
369.2265442433589
 20
146.5410299949079
 30
0.0
 11
395.2265442433599
 21
146.5410299949089
 31
0.0
  0
LINE
  5
1DB
330
1F
100
AcDbEntity
  8
1
  6
DASH_CENTER
 62
     2
100
AcDbLine
 10
353.2265442433601
 20
101.472934566833
 30
0.0
 11
353.22654424336
 21
421.438763305249
 31
0.0
  0
LINE
  5
1DC
330
1F
100
AcDbEntity
  8
1
  6
DASH_CENTER
 62
     2
100
AcDbLine
 10
353.2265442433601
 20
85.54102999490806
 30
0.0
 11
353.2265442433601
 21
89.6091254229834
 31
0.0
  0
LINE
  5
1DD
330
1F
100
AcDbEntity
  8
1
  6
DASH_CENTER
 62
     2
100
AcDbLine
 10
184.3487095815665
 20
415.0157761780594
 30
0.0
 11
185.4725293618108
 21
417.7973277417611
 31
0.0
  0
LINE
  5
1DE
330
1F
100
AcDbEntity
  8
1
  6
DASH_CENTER
 62
     2
100
AcDbLine
 10
292.22654424336
 20
255.1410299949077
 30
0.0
 11
371.2265442433606
 21
255.1410299949077
 31
0.0
  0
LINE
  5
1DF
330
1F
100
AcDbEntity
  8
1
  6
DASH_CENTER
 62
     2
100
AcDbLine
 10
374.22654424336
 20
550.8410299949077
 30
0.0
 11
173.664282743428
 21
550.8410299949076
 31
0.0
  0
LINE
  5
1E0
330
1F
100
AcDbEntity
  8
1
  6
DASH_CENTER
 62
     2
100
AcDbLine
 10
353.22654424336
 20
571.8410299949077
 30
0.0
 11
353.22654424336
 21
499.3410299949076
 31
0.0
  0
LINE
  5
1E1
330
1F
100
AcDbEntity
  8
1
  6
DASH_CENTER
 62
     2
100
AcDbLine
 10
345.22654424336
 20
512.3410299949077
 30
0.0
 11
361.2265442433601
 21
512.3410299949077
 31
0.0
  0
LINE
  5
1E2
330
1F
100
AcDbEntity
  8
1
  6
DASH_CENTER
 62
     2
100
AcDbLine
 10
93.22654424336002
 20
85.54102999490817
 30
0.0
 11
93.22654424336002
 21
514.1387633052498
 31
0.0
  0
LINE
  5
1E3
330
1F
100
AcDbEntity
  8
1
  6
DASH_CENTER
 62
     2
100
AcDbLine
 10
90.22654424336002
 20
255.1410299949077
 30
0.0
 11
144.72654424336
 21
255.1410299949077
 31
0.0
  0
LINE
  5
1E4
330
1F
100
AcDbEntity
  8
1
  6
DASH_CENTER
 62
     2
100
AcDbLine
 10
131.72654424336
 20
252.1410299949077
 30
0.0
 11
131.72654424336
 21
316.1410299949077
 31
0.0
  0
LINE
  5
1E5
330
1F
100
AcDbEntity
  8
1
  6
CENTER_DASH_DASH
 62
     2
100
AcDbLine
 10
337.2265442433601
 20
146.5410299949076
 30
0.0
 11
311.2265442433601
 21
146.5410299949064
 31
0.0
  0
LINE
  5
1E6
330
1F
100
AcDbEntity
  8
1
  6
CENTER_DASH_DASH
 62
     2
100
AcDbLine
 10
311.2265442433592
 20
136.5410299949062
 30
0.0
 11
334.7265442433601
 21
136.5410299949075
 31
0.0
  0
LINE
  5
1E7
330
1F
100
AcDbEntity
  8
1
  6
Continuous
 62
     2
100
AcDbLine
 10
316.5935818274879
 20
299.9132795791726
 30
0.0
 11
330.0935818274879
 21
299.9132795791727
 31
0.0
  0
LINE
  5
1E8
330
1F
100
AcDbEntity
  8
1
  6
Continuous
 62
     2
100
AcDbLine
 10
287.946087222765
 20
264.4132795791727
 30
0.0
 11
301.446087222765
 21
264.4132795791727
 31
0.0
  0
LINE
  5
1E9
330
1F
100
AcDbEntity
  8
1
  6
Continuous
 62
     2
100
AcDbLine
 10
185.4725293618108
 20
417.7973277417611
 30
0.0
 11
185.4725293618108
 21
415.2973277417611
 31
0.0
  0
LINE
  5
1EA
330
1F
100
AcDbEntity
  8
1
  6
DASH_CENTER
 62
     2
100
AcDbLine
 10
185.4725293618108
 20
417.7973277417611
 30
0.0
 11
199.0518358780213
 21
451.4072907785263
 31
0.0
  0
ARC
  5
1EB
330
1F
100
AcDbEntity
  8
______
  6
DASH_CENTER
 62
     2
100
AcDbCircle
 10
273.2265442433592
 20
421.438763305249
 30
0.0
 40
80.0000000000008
100
AcDbArc
 50
0.0
 51
157.9999999999957
  0
ARC
  5
1EC
330
1F
100
AcDbEntity
  8
1
  6
Continuous
 62
     2
100
AcDbCircle
 10
353.2265442433601
 20
255.1410299949077
 30
0.0
 40
43.99999999999984
100
AcDbArc
 50
106.3672247845718
 51
166.6572316303385
  0
SOLID
  5
1F1
330
1F
100
AcDbEntity
  8
1
 62
     2
100
AcDbTrace
 10
108.0246450950363
 20
108.1896359099723
 30
0.0
 11
106.4284433916833
 21
107.2680684268606
 31
0.0
 12
103.7265442433598
 22
113.7910299949075
 32
0.0
 13
103.7265442433598
 23
113.7910299949075
 33
0.0
  0
LEADER
  5
1F2
330
1F
100
AcDbEntity
  8
1
  6
Continuous
 62
     2
100
AcDbLeader
  3
Standard
 71
     0
 76
     3
 10
103.7265442433598
 20
113.7910299949075
 30
0.0
 10
113.9548130686838
 20
96.07514871597371
 30
0.0
 10
142.802566783948
 20
96.07514871597371
 30
0.0
  0
SOLID
  5
1F3
330
1F
100
AcDbEntity
  8
1
 62
     2
100
AcDbTrace
 10
325.5179089558457
 20
123.8164677701333
 30
0.0
 11
323.9217072524928
 21
124.7380352532451
 31
0.0
 12
328.2198081041693
 22
130.3394293381802
 32
0.0
 13
328.2198081041693
 23
130.3394293381802
 33
0.0
  0
LEADER
  5
1F4
330
1F
100
AcDbEntity
  8
1
  6
Continuous
 62
     2
100
AcDbLeader
  3
Standard
 71
     0
 76
     3
 10
328.2198081041693
 20
130.3394293381802
 30
0.0
 10
317.7066241096844
 20
112.1300605104135
 30
0.0
 10
272.5467289280595
 20
112.1300605104135
 30
0.0
  0
SOLID
  5
1F5
330
1F
100
AcDbEntity
  8
1
 62
     2
100
AcDbTrace
 10
311.2149410787403
 20
272.3100317473545
 30
0.0
 11
313.0032355324883
 21
271.8637701083917
 31
0.0
 12
310.414241465863
 22
265.2951784519628
 32
0.0
 13
310.414241465863
 23
265.2951784519628
 33
0.0
  0
LEADER
  5
1F6
330
1F
100
AcDbEntity
  8
1
  6
Continuous
 62
     2
100
AcDbLeader
  3
Standard
 71
     0
 76
     2
 10
310.414241465863
 20
265.2951784519628
 30
0.0
 10
310.6630130057455
 20
266.2920751739314
 30
0.0
  0
SOLID
  5
1F7
330
1F
100
AcDbEntity
  8
1
 62
     2
100
AcDbTrace
 10
334.4684672075225
 20
294.2903955290399
 30
0.0
 11
333.8912116452664
 21
296.0408019160142
 31
0.0
 12
340.8276676827945
 22
297.357944378077
 32
0.0
 13
340.8276676827945
 23
297.357944378077
 33
0.0
  0
LEADER
  5
1F8
330
1F
100
AcDbEntity
  8
1
  6
Continuous
 62
     2
100
AcDbLeader
  3
Standard
 71
     0
 76
     2
 10
340.8276676827945
 20
297.357944378077
 30
0.0
 10
338.0794101971945
 20
296.4516137500125
 30
0.0
  0
MTEXT
  5
1FA
330
1F
100
AcDbEntity
  8
1
 62
     7
100
AcDbMText
 10
127.954651786156
 20
102.0751487159737
 30
0.0
 40
7.0
 41
0.0
 71
     5
 72
     1
  1
PJ1/2
  7
CONVERTER_2
 73
     1
 44
0.7202881152461
  0
MTEXT
  5
1FB
330
1F
100
AcDbEntity
  8
1
 62
     7
100
AcDbMText
 10
294.5422930576617
 20
119.1300605104135
 30
0.0
 40
7.0
 41
0.0
 71
     5
 72
     1
  1
取付穴径
  7
CONVERTER_1
 73
     1
 44
0.7202881152461
  0
MTEXT
  5
1FC
330
1F
100
AcDbEntity
  8
1
 62
     7
100
AcDbMText
 10
294.5422930576617
 20
105.1300605104135
 30
0.0
 40
7.0
 41
0.0
 71
     5
 72
     1
  1
{\Fgdt;n}22～{\Fgdt;n}24
  7
CONVERTER_1
 73
     1
 44
0.7202881152461
  0
MTEXT
  5
1FD
330
1F
100
AcDbEntity
  8
1
 62
     7
100
AcDbMText
 10
323.391366352391
 20
305.9132795791726
 30
0.0
 40
7.0
 41
0.0
 71
     5
 72
     1
  1
止水
  7
CONVERTER_1
 73
     1
 44
0.7202881152461
  0
MTEXT
  5
1FE
330
1F
100
AcDbEntity
  8
1
 62
     7
100
AcDbMText
 10
294.385145223111
 20
270.4132795791726
 30
0.0
 40
7.0
 41
0.0
 71
     5
 72
     1
  1
吐水
  7
CONVERTER_1
 73
     1
 44
0.7202881152461
  0
MTEXT
  5
1FF
330
1F
100
AcDbEntity
  8
1
 62
     7
100
AcDbMText
 10
114.0
 20
28.5
 30
0.0
 40
7.0
 41
0.0
 71
     5
 72
     1
  1
Y5475H-13
  7
CONVERTER_2
 73
     1
 44
0.7202881152461
  0
MTEXT
  5
200
330
1F
100
AcDbEntity
  8
1
 62
     7
100
AcDbMText
 10
114.0
 20
45.5
 30
0.0
 40
7.0
 41
0.0
 71
     5
 72
     1
  1
立水栓
  7
CONVERTER_1
 73
     1
 44
0.7202881152461
  0
MTEXT
  5
201
330
1F
100
AcDbEntity
  8
1
 62
     7
100
AcDbMText
 10
68.0
 20
63.0
 30
0.0
 40
7.0
 41
0.0
 71
     4
 72
     1
  1
吐水口は固定式
  7
CONVERTER_1
 73
     1
 44
0.7202881152461
  0
MTEXT
  5
202
330
1F
100
AcDbEntity
  8
1
 62
     7
100
AcDbMText
 10
170.5
 20
34.0
 30
0.0
 40
7.0
 41
0.0
 71
     5
 72
     1
  1
1
  7
CONVERTER_2
 73
     1
 44
0.7202881152461
  0
MTEXT
  5
203
330
1F
100
AcDbEntity
  8
1
 62
     7
100
AcDbMText
 10
187.5
 20
34.0
 30
0.0
 40
7.0
 41
0.0
 71
     5
 72
     1
  1
2
  7
CONVERTER_2
 73
     1
 44
0.7202881152461
  0
MTEXT
  5
204
330
1F
100
AcDbEntity
  8
1
 62
     7
100
AcDbMText
 10
68.0
 20
73.0
 30
0.0
 40
7.0
 41
0.0
 71
     4
 72
     1
  1
JIS
  7
CONVERTER_2
 73
     1
 44
0.7202881152461
  0
DIMENSION
  5
211
330
1F
100
AcDbEntity
  8
1
100
AcDbDimension
  2
*D018
 10
301.357694166891
 20
146.5410299949065
 30
0.0
 11
295.857694166891
 21
186.5852362344164
 31
0.0
  1
最大30 最小5
 71
     5
 42
0.0
 53
90.0
  3
ME10_DIM_0
100
AcDbAlignedDimension
 13
311.2265442433592
 23
136.5410299949062
 33
0.0
 14
311.2265442433601
 24
146.5410299949064
 34
0.0
 50
90.0
100
AcDbRotatedDimension
  0
DIMENSION
  5
21C
330
1F
100
AcDbEntity
  8
1
100
AcDbDimension
  2
*D119
 10
157.7083186519627
 20
147.5410299949077
 30
0.0
 11
152.2083186519627
 21
287.8134077868364
 31
0.0
  1
271
 71
     5
 42
0.0
 53
90.0
  3
ME10_DIM_1
100
AcDbAlignedDimension
 13
185.4725293618108
 23
417.7973277417611
 33
0.0
 14
335.5265442433599
 24
147.5410299949076
 34
0.0
 50
90.0
100
AcDbRotatedDimension
  0
DIMENSION
  5
227
330
1F
100
AcDbEntity
  8
1
100
AcDbDimension
  2
*D220
 10
197.7083186519627
 20
147.5410299949077
 30
0.0
 11
192.2083186519627
 21
209.3125302079424
 31
0.0
  1
108
 71
     5
 42
0.0
 53
90.0
  3
ME10_DIM_2
100
AcDbAlignedDimension
 13
292.22654424336
 23
255.1410299949077
 33
0.0
 14
335.5265442433599
 24
147.5410299949076
 34
0.0
 50
90.0
100
AcDbRotatedDimension
  0
DIMENSION
  5
232
330
1F
100
AcDbEntity
  8
1
100
AcDbDimension
  2
*D321
 10
177.7083186519627
 20
147.5410299949077
 30
0.0
 11
172.2083186519627
 21
235.7444481780814
 31
0.0
  1
166
 71
     5
 42
0.0
 53
90.0
  3
ME10_DIM_3
100
AcDbAlignedDimension
 13
335.72654424336
 23
313.3410299949077
 33
0.0
 14
335.5265442433599
 24
147.5410299949076
 34
0.0
 50
90.0
100
AcDbRotatedDimension
  0
DIMENSION
  5
23D
330
1F
100
AcDbEntity
  8
1
100
AcDbDimension
  2
*D422
 10
391.2265442433611
 20
510.9331323186969
 30
0.0
 11
385.7265442433611
 21
347.4903391298313
 31
0.0
  1
364
 71
     5
 42
0.0
 53
90.0
  3
ME10_DIM_4
100
AcDbAlignedDimension
 13
370.9265442433485
 23
147.5410299948961
 33
0.0
 14
272.2225946009987
 24
510.9331323186969
 34
0.0
 50
90.0
100
AcDbRotatedDimension
  0
DIMENSION
  5
249
330
1F
100
AcDbEntity
  8
1
100
AcDbDimension
  2
*D523
 10
83.4530603580163
 20
162.0897738747764
 30
0.0
 11
133.403706792482
 21
167.5897738747764
 31
0.0
 70
     1
  1
<>
 71
     5
 42
0.0
 52
60.00000000000001
 53
0.00013888888889
  3
ME10_DIM_5
100
AcDbAlignedDimension
 13
111.22654424336
 23
147.8410299949076
 33
0.0
 14
75.22654424336002
 24
147.8410299949076
 34
0.0
  0
DIMENSION
  5
254
330
1F
100
AcDbEntity
  8
1
100
AcDbDimension
  2
*D624
 10
185.4725293618108
 20
370.4586330613483
 30
0.0
 11
269.3495368025854
 21
375.9586330613483
 31
0.0
  1
168
 71
     5
 42
0.0
 53
0.00013888888889
  3
ME10_DIM_6
100
AcDbAlignedDimension
 13
353.22654424336
 23
421.438763305249
 33
0.0
 14
185.4725293618108
 24
417.7973277417611
 34
0.0
100
AcDbRotatedDimension
  0
DIMENSION
  5
25F
330
1F
100
AcDbEntity
  8
1
100
AcDbDimension
  2
*D725
 10
157.7083186519627
 20
147.5410299949077
 30
0.0
 11
152.2083186519627
 21
120.5233370579553
 31
0.0
  1
<>
 71
     5
 42
0.0
 53
90.0
  3
ME10_DIM_7
100
AcDbAlignedDimension
 13
353.2265442433601
 23
95.54102999490189
 33
0.0
 14
335.5265442433599
 24
147.5410299949076
 34
0.0
 50
90.0
100
AcDbRotatedDimension
  0
DIMENSION
  5
26C
330
1F
100
AcDbEntity
  8
1
100
AcDbDimension
  2
*D826
 10
83.7265442433601
 20
335.0675008883204
 30
0.0
 11
114.712776030521
 21
340.5675008883204
 31
0.0
  1
<>
 71
     5
 42
0.0
 53
0.00013888888889
  3
ME10_DIM_8
100
AcDbAlignedDimension
 13
102.7265442433601
 23
313.3410299949077
 33
0.0
 14
83.72654424336011
 24
313.3410299949077
 34
0.0
100
AcDbRotatedDimension
  0
DIMENSION
  5
279
330
1F
100
AcDbEntity
  8
1
100
AcDbDimension
  2
*D927
 10
181.0250718608628
 20
394.9171423943257
 30
0.0
 11
175.1602793540203
 21
403.2784584757174
 31
0.0
 70
     5
  1
<>
 71
     5
 42
0.0
  3
ME10_DIM_9
100
AcDb3PointAngularDimension
 13
184.3487095815665
 23
415.0157761780594
 33
0.0
 14
185.4725293618108
 24
415.2973277417611
 34
0.0
 15
185.4725293618108
 25
417.7973277417611
 35
0.0
  0
HATCH
  5
27A
330
1F
100
AcDbEntity
  8
1
  6
Continuous
 62
     4
100
AcDbHatch
 10
0.0
 20
0.0
 30
0.0
210
0.0
220
0.0
230
1.0
  2
CUSTOM0
 70
     0
 71
     0
 91
        1
 92
        1
 93
        4
 72
     1
 10
135.2265442433598
 20
146.5410299949089
 11
135.2265442433598
 21
136.5410299949089
 72
     1
 10
135.2265442433598
 20
136.5410299949089
 11
103.726544243358
 21
136.5410299949083
 72
     1
 10
103.726544243358
 20
136.5410299949083
 11
103.7265442433598
 21
146.5410299949076
 72
     1
 10
103.7265442433598
 20
146.5410299949076
 11
135.2265442433598
 21
146.5410299949089
 97
        0
 75
     1
 76
     2
 52
45.0
 41
15.0
 77
     0
 78
     2
 53
45.0
 43
0.0
 44
0.0
 45
-21.21320343559642
 46
0.0000000000000017
 79
     0
 53
45.0
 43
3.535533905932737
 44
-3.535533905932738
 45
-21.21320343559642
 46
0.0000000000000017
 79
     0
 98
        1
 10
0.0
 20
0.0
  0
HATCH
  5
27B
330
1F
100
AcDbEntity
  8
1
  6
Continuous
 62
     4
100
AcDbHatch
 10
0.0
 20
0.0
 30
0.0
210
0.0
220
0.0
230
1.0
  2
CUSTOM1
 70
     0
 71
     0
 91
        1
 92
        1
 93
        4
 72
     1
 10
395.2265442433599
 20
146.5410299949089
 11
395.2265442433599
 21
136.5410299949089
 72
     1
 10
395.2265442433599
 20
136.5410299949089
 11
363.726544243358
 21
136.5410299949083
 72
     1
 10
363.726544243358
 20
136.5410299949083
 11
363.7265442433599
 21
146.5410299949076
 72
     1
 10
363.7265442433599
 20
146.5410299949076
 11
395.2265442433599
 21
146.5410299949089
 97
        0
 75
     1
 76
     2
 52
45.0
 41
15.0
 77
     0
 78
     2
 53
45.0
 43
0.0
 44
0.0
 45
-21.21320343559642
 46
0.0000000000000017
 79
     0
 53
45.0
 43
3.535533905932737
 44
-3.535533905932738
 45
-21.21320343559642
 46
0.0000000000000017
 79
     0
 98
        1
 10
0.0
 20
0.0
  0
HATCH
  5
27C
330
1F
100
AcDbEntity
  8
1
  6
Continuous
 62
     4
100
AcDbHatch
 10
0.0
 20
0.0
 30
0.0
210
0.0
220
0.0
230
1.0
  2
CUSTOM2
 70
     0
 71
     0
 91
        1
 92
        1
 93
        4
 72
     1
 10
51.22654424336008
 20
146.5410299949053
 11
82.72654424335983
 21
146.5410299949076
 72
     1
 10
82.72654424335983
 20
146.5410299949076
 11
82.72654424335838
 21
136.5410299949072
 72
     1
 10
82.72654424335838
 20
136.5410299949072
 11
51.22654424335917
 21
136.5410299949051
 72
     1
 10
51.22654424335917
 20
136.5410299949051
 11
51.22654424336008
 21
146.5410299949053
 97
        0
 75
     1
 76
     2
 52
45.0
 41
15.0
 77
     0
 78
     2
 53
45.0
 43
0.0
 44
0.0
 45
-21.21320343559642
 46
0.0000000000000017
 79
     0
 53
45.0
 43
3.535533905932737
 44
-3.535533905932738
 45
-21.21320343559642
 46
0.0000000000000017
 79
     0
 98
        1
 10
0.0
 20
0.0
  0
HATCH
  5
27D
330
1F
100
AcDbEntity
  8
1
  6
Continuous
 62
     4
100
AcDbHatch
 10
0.0
 20
0.0
 30
0.0
210
0.0
220
0.0
230
1.0
  2
CUSTOM3
 70
     0
 71
     0
 91
        1
 92
        1
 93
        4
 72
     1
 10
311.2265442433601
 20
146.5410299949064
 11
342.72654424336
 21
146.5410299949076
 72
     1
 10
342.72654424336
 20
146.5410299949076
 11
342.7265442433582
 21
136.5410299949072
 72
     1
 10
342.7265442433582
 20
136.5410299949072
 11
311.2265442433592
 21
136.5410299949062
 72
     1
 10
311.2265442433592
 20
136.5410299949062
 11
311.2265442433601
 21
146.5410299949064
 97
        0
 75
     1
 76
     2
 52
45.0
 41
15.0
 77
     0
 78
     2
 53
45.0
 43
0.0
 44
0.0
 45
-21.21320343559642
 46
0.0000000000000017
 79
     0
 53
45.0
 43
3.535533905932737
 44
-3.535533905932738
 45
-21.21320343559642
 46
0.0000000000000017
 79
     0
 98
        1
 10
0.0
 20
0.0
  0
ENDSEC
  0
SECTION
  2
OBJECTS
  0
DICTIONARY
  5
C
330
0
100
AcDbDictionary
281
     1
  3
ACAD_GROUP
350
D
  3
ACAD_LAYOUT
350
1A
  3
ACAD_MLINESTYLE
350
17
  3
ACAD_PLOTSETTINGS
350
19
  3
ACAD_PLOTSTYLENAME
350
E
  3
ACAD_TABLESTYLE
350
2A
  3
AcDbVariableDictionary
350
2C
  0
DICTIONARY
  5
D
102
{ACAD_REACTORS
330
C
102
}
330
C
100
AcDbDictionary
281
     1
  0
DICTIONARY
  5
1A
102
{ACAD_REACTORS
330
C
102
}
330
C
100
AcDbDictionary
281
     1
  3
Layout1
350
1E
  3
Layout2
350
26
  3
Model
350
22
  0
DICTIONARY
  5
17
102
{ACAD_REACTORS
330
C
102
}
330
C
100
AcDbDictionary
281
     1
  3
Standard
350
18
  0
DICTIONARY
  5
19
102
{ACAD_REACTORS
330
C
102
}
330
C
100
AcDbDictionary
281
     1
  0
ACDBDICTIONARYWDFLT
  5
E
102
{ACAD_REACTORS
330
C
102
}
330
C
100
AcDbDictionary
281
     1
  3
Normal
350
F
100
AcDbDictionaryWithDefault
340
F
  0
DICTIONARY
  5
2A
102
{ACAD_REACTORS
330
C
102
}
330
C
100
AcDbDictionary
281
     1
  3
Standard
350
2B
  0
DICTIONARY
  5
2C
102
{ACAD_REACTORS
330
C
102
}
330
C
100
AcDbDictionary
281
     1
  3
CTABLESTYLE
350
2D
  0
LAYOUT
  5
1E
102
{ACAD_REACTORS
330
1A
102
}
330
1A
100
AcDbPlotSettings
  1

  2

  4

  6

 40
0.0
 41
0.0
 42
0.0
 43
0.0
 44
0.0
 45
0.0
 46
0.0
 47
0.0
 48
0.0
 49
0.0
140
0.0
141
0.0
142
1.0
143
1.0
 70
   688
 72
     0
 73
     0
 74
     5
  7

 75
    16
147
1.0
148
0.0
149
0.0
100
AcDbLayout
  1
Layout1
 70
     1
 71
     1
 10
0.0
 20
0.0
 11
12.0
 21
9.0
 12
0.0
 22
0.0
 32
0.0
 14
1.00000000000000E+20
 24
1.00000000000000E+20
 34
1.00000000000000E+20
 15
-1.00000000000000E+20
 25
-1.00000000000000E+20
 35
-1.00000000000000E+20
146
0.0
 13
0.0
 23
0.0
 33
0.0
 16
1.0
 26
0.0
 36
0.0
 17
0.0
 27
1.0
 37
0.0
 76
     0
330
1B
  0
LAYOUT
  5
26
102
{ACAD_REACTORS
330
1A
102
}
330
1A
100
AcDbPlotSettings
  1

  2

  4

  6

 40
0.0
 41
0.0
 42
0.0
 43
0.0
 44
0.0
 45
0.0
 46
0.0
 47
0.0
 48
0.0
 49
0.0
140
0.0
141
0.0
142
1.0
143
1.0
 70
   688
 72
     0
 73
     0
 74
     5
  7

 75
    16
147
1.0
148
0.0
149
0.0
100
AcDbLayout
  1
Layout2
 70
     1
 71
     2
 10
0.0
 20
0.0
 11
0.0
 21
0.0
 12
0.0
 22
0.0
 32
0.0
 14
0.0
 24
0.0
 34
0.0
 15
0.0
 25
0.0
 35
0.0
146
0.0
 13
0.0
 23
0.0
 33
0.0
 16
1.0
 26
0.0
 36
0.0
 17
0.0
 27
1.0
 37
0.0
 76
     0
330
23
  0
LAYOUT
  5
22
102
{ACAD_REACTORS
330
1A
102
}
330
1A
100
AcDbPlotSettings
  1

  2

  4

  6

 40
0.0
 41
0.0
 42
0.0
 43
0.0
 44
0.0
 45
0.0
 46
0.0
 47
0.0
 48
0.0
 49
0.0
140
0.0
141
0.0
142
1.0
143
1.0
 70
  1712
 72
     0
 73
     0
 74
     0
  7

 75
     0
147
1.0
148
0.0
149
0.0
100
AcDbLayout
  1
Model
 70
     1
 71
     0
 10
0.0
 20
0.0
 11
0.0
 21
0.0
 12
0.0
 22
0.0
 32
0.0
 14
0.0
 24
0.0
 34
0.0
 15
420.0
 25
594.0
 35
0.0
146
0.0
 13
0.0
 23
0.0
 33
0.0
 16
1.0
 26
0.0
 36
0.0
 17
0.0
 27
1.0
 37
0.0
 76
     0
330
1F
  0
MLINESTYLE
  5
18
102
{ACAD_REACTORS
330
17
102
}
330
17
100
AcDbMlineStyle
  2
Standard
 70
     0
  3

 62
   256
 51
90.0
 52
90.0
 71
     2
 49
0.5
 62
   256
  6
BYLAYER
 49
-0.5
 62
   256
  6
BYLAYER
  0
ACDBPLACEHOLDER
  5
F
102
{ACAD_REACTORS
330
E
102
}
330
E
  0
TABLESTYLE
  5
2B
102
{ACAD_REACTORS
330
2A
102
}
330
2A
100
AcDbTableStyle
  3
Standard
 70
     0
 71
     0
 40
0.06
 41
0.06
280
     0
281
     0
  7
Standard
140
0.18
170
     2
 62
     0
 63
     7
283
     0
274
    -2
284
     1
 64
     0
275
    -2
285
     1
 65
     0
276
    -2
286
     1
 66
     0
277
    -2
287
     1
 67
     0
278
    -2
288
     1
 68
     0
279
    -2
289
     1
 69
     0
  7
Standard
140
0.25
170
     5
 62
     0
 63
     7
283
     0
274
    -2
284
     1
 64
     0
275
    -2
285
     1
 65
     0
276
    -2
286
     1
 66
     0
277
    -2
287
     1
 67
     0
278
    -2
288
     1
 68
     0
279
    -2
289
     1
 69
     0
  7
Standard
140
0.18
170
     5
 62
     0
 63
     7
283
     0
274
    -2
284
     1
 64
     0
275
    -2
285
     1
 65
     0
276
    -2
286
     1
 66
     0
277
    -2
287
     1
 67
     0
278
    -2
288
     1
 68
     0
279
    -2
289
     1
 69
     0
  0
DICTIONARYVAR
  5
2D
102
{ACAD_REACTORS
330
2C
102
}
330
2C
100
DictionaryVariables
280
     0
  1
Standard
  0
ENDSEC
  0
EOF
