  0
SECTION
  2
HEADER
  9
$ACADVER
  1
AC1015
  9
$ACADMAINTVER
 70
     6
  9
$DWGCODEPAGE
  3
ANSI_932
  9
$INSBASE
 10
0.0
 20
0.0
 30
0.0
  9
$EXTMIN
 10
0.0
 20
0.0
 30
0.0
  9
$EXTMAX
 10
210.0
 20
297.0
 30
0.0
  9
$LIMMIN
 10
0.0
 20
0.0
  9
$LIMMAX
 10
210.0
 20
297.0
  9
$ORTHOMODE
 70
     0
  9
$REGENMODE
 70
     1
  9
$FILLMODE
 70
     1
  9
$QTEXTMODE
 70
     0
  9
$MIRRTEXT
 70
     1
  9
$LTSCALE
 40
1.0
  9
$ATTMODE
 70
     1
  9
$TEXTSIZE
 40
2.5
  9
$TRACEWID
 40
1.0
  9
$TEXTSTYLE
  7
Standard
  9
$CLAYER
  8
0
  9
$CELTYPE
  6
ByLayer
  9
$CECOLOR
 62
   256
  9
$CELTSCALE
 40
1.0
  9
$DISPSILH
 70
     0
  9
$DIMSCALE
 40
1.0
  9
$DIMASZ
 40
2.5
  9
$DIMEXO
 40
0.625
  9
$DIMDLI
 40
3.75
  9
$DIMRND
 40
0.0
  9
$DIMDLE
 40
0.0
  9
$DIMEXE
 40
1.25
  9
$DIMTP
 40
0.0
  9
$DIMTM
 40
0.0
  9
$DIMTXT
 40
2.5
  9
$DIMCEN
 40
2.5
  9
$DIMTSZ
 40
0.0
  9
$DIMTOL
 70
     0
  9
$DIMLIM
 70
     0
  9
$DIMTIH
 70
     0
  9
$DIMTOH
 70
     0
  9
$DIMSE1
 70
     0
  9
$DIMSE2
 70
     0
  9
$DIMTAD
 70
     1
  9
$DIMZIN
 70
     8
  9
$DIMBLK
  1

  9
$DIMASO
 70
     1
  9
$DIMSHO
 70
     1
  9
$DIMPOST
  1

  9
$DIMAPOST
  1

  9
$DIMALT
 70
     0
  9
$DIMALTD
 70
     3
  9
$DIMALTF
 40
0.0393700787
  9
$DIMLFAC
 40
1.0
  9
$DIMTOFL
 70
     1
  9
$DIMTVP
 40
0.0
  9
$DIMTIX
 70
     0
  9
$DIMSOXD
 70
     0
  9
$DIMSAH
 70
     0
  9
$DIMBLK1
  1

  9
$DIMBLK2
  1

  9
$DIMSTYLE
  2
ISO-25
  9
$DIMCLRD
 70
     0
  9
$DIMCLRE
 70
     0
  9
$DIMCLRT
 70
     0
  9
$DIMTFAC
 40
1.0
  9
$DIMGAP
 40
0.625
  9
$DIMJUST
 70
     0
  9
$DIMSD1
 70
     0
  9
$DIMSD2
 70
     0
  9
$DIMTOLJ
 70
     0
  9
$DIMTZIN
 70
     8
  9
$DIMALTZ
 70
     0
  9
$DIMALTTZ
 70
     0
  9
$DIMUPT
 70
     0
  9
$DIMDEC
 70
     2
  9
$DIMTDEC
 70
     2
  9
$DIMALTU
 70
     2
  9
$DIMALTTD
 70
     3
  9
$DIMTXSTY
  7
Standard
  9
$DIMAUNIT
 70
     0
  9
$DIMADEC
 70
     0
  9
$DIMALTRND
 40
0.0
  9
$DIMAZIN
 70
     0
  9
$DIMDSEP
 70
    44
  9
$DIMATFIT
 70
     3
  9
$DIMFRAC
 70
     0
  9
$DIMLDRBLK
  1

  9
$DIMLUNIT
 70
     2
  9
$DIMLWD
 70
    -2
  9
$DIMLWE
 70
    -2
  9
$DIMTMOVE
 70
     0
  9
$LUNITS
 70
     2
  9
$LUPREC
 70
     4
  9
$SKETCHINC
 40
1.0
  9
$FILLETRAD
 40
10.0
  9
$AUNITS
 70
     0
  9
$AUPREC
 70
     0
  9
$MENU
  1
.
  9
$ELEVATION
 40
0.0
  9
$PELEVATION
 40
0.0
  9
$THICKNESS
 40
0.0
  9
$LIMCHECK
 70
     0
  9
$CHAMFERA
 40
10.0
  9
$CHAMFERB
 40
10.0
  9
$CHAMFERC
 40
20.0
  9
$CHAMFERD
 40
0.0
  9
$SKPOLY
 70
     0
  9
$TDCREATE
 40
2455608.656465567
  9
$TDUCREATE
 40
2455608.281465567
  9
$TDUPDATE
 40
2455608.656465579
  9
$TDUUPDATE
 40
2455608.281465579
  9
$TDINDWG
 40
0.0000000116
  9
$TDUSRTIMER
 40
0.0000000116
  9
$USRTIMER
 70
     1
  9
$ANGBASE
 50
0.0
  9
$ANGDIR
 70
     0
  9
$PDMODE
 70
     0
  9
$PDSIZE
 40
0.0
  9
$PLINEWID
 40
0.0
  9
$SPLFRAME
 70
     0
  9
$SPLINETYPE
 70
     6
  9
$SPLINESEGS
 70
     8
  9
$HANDSEED
  5
13E
  9
$SURFTAB1
 70
     6
  9
$SURFTAB2
 70
     6
  9
$SURFTYPE
 70
     6
  9
$SURFU
 70
     6
  9
$SURFV
 70
     6
  9
$UCSBASE
  2

  9
$UCSNAME
  2

  9
$UCSORG
 10
0.0
 20
0.0
 30
0.0
  9
$UCSXDIR
 10
1.0
 20
0.0
 30
0.0
  9
$UCSYDIR
 10
0.0
 20
1.0
 30
0.0
  9
$UCSORTHOREF
  2

  9
$UCSORTHOVIEW
 70
     0
  9
$UCSORGTOP
 10
0.0
 20
0.0
 30
0.0
  9
$UCSORGBOTTOM
 10
0.0
 20
0.0
 30
0.0
  9
$UCSORGLEFT
 10
0.0
 20
0.0
 30
0.0
  9
$UCSORGRIGHT
 10
0.0
 20
0.0
 30
0.0
  9
$UCSORGFRONT
 10
0.0
 20
0.0
 30
0.0
  9
$UCSORGBACK
 10
0.0
 20
0.0
 30
0.0
  9
$PUCSBASE
  2

  9
$PUCSNAME
  2

  9
$PUCSORG
 10
0.0
 20
0.0
 30
0.0
  9
$PUCSXDIR
 10
1.0
 20
0.0
 30
0.0
  9
$PUCSYDIR
 10
0.0
 20
1.0
 30
0.0
  9
$PUCSORTHOREF
  2

  9
$PUCSORTHOVIEW
 70
     0
  9
$PUCSORGTOP
 10
0.0
 20
0.0
 30
0.0
  9
$PUCSORGBOTTOM
 10
0.0
 20
0.0
 30
0.0
  9
$PUCSORGLEFT
 10
0.0
 20
0.0
 30
0.0
  9
$PUCSORGRIGHT
 10
0.0
 20
0.0
 30
0.0
  9
$PUCSORGFRONT
 10
0.0
 20
0.0
 30
0.0
  9
$PUCSORGBACK
 10
0.0
 20
0.0
 30
0.0
  9
$USERI1
 70
     0
  9
$USERI2
 70
     0
  9
$USERI3
 70
     0
  9
$USERI4
 70
     0
  9
$USERI5
 70
     0
  9
$USERR1
 40
0.0
  9
$USERR2
 40
0.0
  9
$USERR3
 40
0.0
  9
$USERR4
 40
0.0
  9
$USERR5
 40
0.0
  9
$WORLDVIEW
 70
     1
  9
$SHADEDGE
 70
     3
  9
$SHADEDIF
 70
    70
  9
$TILEMODE
 70
     1
  9
$MAXACTVP
 70
    64
  9
$PINSBASE
 10
0.0
 20
0.0
 30
0.0
  9
$PLIMCHECK
 70
     0
  9
$PEXTMIN
 10
0.0
 20
0.0
 30
0.0
  9
$PEXTMAX
 10
210.0
 20
297.0
 30
0.0
  9
$PLIMMIN
 10
0.0
 20
0.0
  9
$PLIMMAX
 10
210.0
 20
297.0
  9
$UNITMODE
 70
     0
  9
$VISRETAIN
 70
     1
  9
$PLINEGEN
 70
     0
  9
$PSLTSCALE
 70
     1
  9
$TREEDEPTH
 70
  3020
  9
$CMLSTYLE
  2
Standard
  9
$CMLJUST
 70
     0
  9
$CMLSCALE
 40
20.0
  9
$PROXYGRAPHICS
 70
     1
  9
$MEASUREMENT
 70
     1
  9
$CELWEIGHT
370
    -1
  9
$ENDCAPS
280
     0
  9
$JOINSTYLE
280
     0
  9
$LWDISPLAY
290
     0
  9
$INSUNITS
 70
     4
  9
$HYPERLINKBASE
  1

  9
$STYLESHEET
  1

  9
$XEDIT
290
     1
  9
$CEPSNTYPE
380
     0
  9
$PSTYLEMODE
290
     1
  9
$FINGERPRINTGUID
  2
{9D9F7706-19FF-4145-9126-AA7BE77D6A97}
  9
$VERSIONGUID
  2
{FAEB1C32-E019-11D5-929B-00C0DF256EC4}
  9
$EXTNAMES
290
     1
  9
$PSVPSCALE
 40
0.0
  9
$OLESTARTUP
290
     0
  0
ENDSEC
  0
SECTION
  2
CLASSES
  0
CLASS
  1
ACDBDICTIONARYWDFLT
  2
AcDbDictionaryWithDefault
  3
ObjectDBX Classes
 90
        0
280
     0
281
     0
  0
CLASS
  1
ACDBPLACEHOLDER
  2
AcDbPlaceHolder
  3
ObjectDBX Classes
 90
        0
280
     0
281
     0
  0
CLASS
  1
LAYOUT
  2
AcDbLayout
  3
ObjectDBX Classes
 90
        0
280
     0
281
     0
  0
ENDSEC
  0
SECTION
  2
TABLES
  0
TABLE
  2
VPORT
  5
8
330
0
100
AcDbSymbolTable
 70
     1
  0
VPORT
  5
29
330
8
100
AcDbSymbolTableRecord
100
AcDbViewportTableRecord
  2
*Active
 70
     0
 10
0.0
 20
0.0
 11
1.0
 21
1.0
 12
344.1869158879
 22
148.5
 13
0.0
 23
0.0
 14
10.0
 24
10.0
 15
10.0
 25
10.0
 16
0.0
 26
0.0
 36
1.0
 17
0.0
 27
0.0
 37
0.0
 40
297.0
 41
1.9729729729
 42
50.0
 43
0.0
 44
0.0
 50
0.0
 51
0.0
 71
     0
 72
   100
 73
     1
 74
     3
 75
     0
 76
     0
 77
     0
 78
     0
281
     0
 65
     1
110
0.0
120
0.0
130
0.0
111
1.0
121
0.0
131
0.0
112
0.0
122
1.0
132
0.0
 79
     0
146
0.0
  0
ENDTAB
  0
TABLE
  2
LTYPE
  5
5
330
0
100
AcDbSymbolTable
 70
     1
  0
LTYPE
  5
14
330
5
100
AcDbSymbolTableRecord
100
AcDbLinetypeTableRecord
  2
ByBlock
 70
     0
  3

 72
    65
 73
     0
 40
0.0
  0
LTYPE
  5
15
330
5
100
AcDbSymbolTableRecord
100
AcDbLinetypeTableRecord
  2
ByLayer
 70
     0
  3

 72
    65
 73
     0
 40
0.0
  0
LTYPE
  5
16
330
5
100
AcDbSymbolTableRecord
100
AcDbLinetypeTableRecord
  2
Continuous
 70
     0
  3
Solid line
 72
    65
 73
     0
 40
0.0
  0
ENDTAB
  0
TABLE
  2
LAYER
  5
2
330
0
100
AcDbSymbolTable
 70
     9
  0
LAYER
  5
10
330
2
100
AcDbSymbolTableRecord
100
AcDbLayerTableRecord
  2
0
 70
     0
 62
     7
  6
Continuous
370
    -3
390
F
  0
LAYER
  5
2C
330
2
100
AcDbSymbolTableRecord
100
AcDbLayerTableRecord
  2
Layer1
 70
     0
 62
     7
  6
Continuous
370
    -3
390
F
  0
LAYER
  5
30
330
2
100
AcDbSymbolTableRecord
100
AcDbLayerTableRecord
  2
Bogenauslauf_55grad_unten
 70
     0
 62
     7
  6
Continuous
370
    -3
390
F
  0
LAYER
  5
34
330
2
100
AcDbSymbolTableRecord
100
AcDbLayerTableRecord
  2
Layer3
 70
     0
 62
     7
  6
Continuous
370
    -3
390
F
  0
LAYER
  5
36
330
2
100
AcDbSymbolTableRecord
100
AcDbLayerTableRecord
  2
Default
 70
     0
 62
     7
  6
Continuous
370
    -3
390
F
  0
LAYER
  5
39
330
2
100
AcDbSymbolTableRecord
100
AcDbLayerTableRecord
  2
JP690510
 70
     0
 62
     7
  6
Continuous
370
    -3
390
F
  0
LAYER
  5
54
330
2
100
AcDbSymbolTableRecord
100
AcDbLayerTableRecord
  2
JP690520
 70
     0
 62
     7
  6
Continuous
370
    -3
390
F
  0
LAYER
  5
E4
330
2
100
AcDbSymbolTableRecord
100
AcDbLayerTableRecord
  2
MDS_Layer_90
 70
     0
 62
     7
  6
Continuous
370
    -3
390
F
  0
LAYER
  5
E7
330
2
100
AcDbSymbolTableRecord
100
AcDbLayerTableRecord
  2
MDS_Layer_94
 70
     0
 62
     7
  6
Continuous
370
    -3
390
F
  0
ENDTAB
  0
TABLE
  2
STYLE
  5
3
330
0
100
AcDbSymbolTable
 70
     5
  0
STYLE
  5
11
330
3
100
AcDbSymbolTableRecord
100
AcDbTextStyleTableRecord
  2
Standard
 70
     0
 40
0.0
 41
1.0
 50
0.0
 71
     0
 42
2.5
  3
txt
  4

  0
STYLE
  5
2A
330
3
100
AcDbSymbolTableRecord
100
AcDbTextStyleTableRecord
  2
SEACAD_arial_ttfB
 70
     0
 40
0.0
 41
1.0
 50
0.0
 71
     0
 42
0.2
  3
arial.ttf
  4

  0
STYLE
  5
94
330
3
100
AcDbSymbolTableRecord
100
AcDbTextStyleTableRecord
  2
SEACAD_arial_ttf
 70
     0
 40
0.0
 41
1.0
 50
0.0
 71
     0
 42
0.2
  3
arial.ttf
  4

  0
STYLE
  5
AD
330
3
100
AcDbSymbolTableRecord
100
AcDbTextStyleTableRecord
  2
SEACAD_semeca1_ttf
 70
     0
 40
0.0
 41
1.0
 50
0.0
 71
     0
 42
0.2
  3
semeca1.ttf
  4

  0
STYLE
  5
131
330
3
100
AcDbSymbolTableRecord
100
AcDbTextStyleTableRecord
  2
SEACAD_seiso_ttf
 70
     0
 40
0.0
 41
1.0
 50
0.0
 71
     0
 42
0.2
  3
seiso.ttf
  4

  0
ENDTAB
  0
TABLE
  2
VIEW
  5
6
330
0
100
AcDbSymbolTable
 70
     0
  0
ENDTAB
  0
TABLE
  2
UCS
  5
7
330
0
100
AcDbSymbolTable
 70
     0
  0
ENDTAB
  0
TABLE
  2
APPID
  5
9
330
0
100
AcDbSymbolTable
 70
     1
  0
APPID
  5
12
330
9
100
AcDbSymbolTableRecord
100
AcDbRegAppTableRecord
  2
ACAD
 70
     0
  0
ENDTAB
  0
TABLE
  2
DIMSTYLE
  5
A
330
0
100
AcDbSymbolTable
 70
     3
100
AcDbDimStyleTable
  0
DIMSTYLE
105
27
330
A
100
AcDbSymbolTableRecord
100
AcDbDimStyleTableRecord
  2
ISO-25
 70
     0
 41
2.5
 42
0.625
 43
3.75
 44
1.25
 73
     0
 74
     0
 77
     1
 78
     8
140
2.5
141
2.5
143
0.0393700787
147
0.625
171
     3
172
     1
271
     2
272
     2
274
     3
278
    44
283
     0
284
     8
340
11
  0
DIMSTYLE
105
85
330
A
100
AcDbSymbolTableRecord
100
AcDbDimStyleTableRecord
  2
Standard
 70
     0
340
11
  0
DIMSTYLE
105
95
102
{ACAD_REACTORS
330
96
330
A1
330
AC
330
B9
330
C3
330
CE
330
D8
102
}
330
A
100
AcDbSymbolTableRecord
100
AcDbDimStyleTableRecord
  2
JIS
 70
     0
 41
6.0
 42
0.0
 44
3.0
 78
     8
140
6.0
141
3.0
147
3.0
172
     1
173
     1
176
   136
177
   136
178
   136
271
     2
272
     2
284
     8
340
94
343
8F
344
8F
  0
ENDTAB
  0
TABLE
  2
BLOCK_RECORD
  5
1
330
0
100
AcDbSymbolTable
 70
    13
  0
BLOCK_RECORD
  5
1F
330
1
100
AcDbSymbolTableRecord
100
AcDbBlockTableRecord
  2
*Model_Space
340
22
  0
BLOCK_RECORD
  5
1B
330
1
100
AcDbSymbolTableRecord
100
AcDbBlockTableRecord
  2
*Paper_Space
340
1E
  0
BLOCK_RECORD
  5
37
330
1
100
AcDbSymbolTableRecord
100
AcDbBlockTableRecord
  2
SE
340
0
102
{BLKREFS
331
38
102
}
1001
ACAD
1000
DesignCenter Data
1002
{
1070
     1
1070
     0
1002
}
  0
BLOCK_RECORD
  5
5E
330
1
100
AcDbSymbolTableRecord
100
AcDbBlockTableRecord
  2
SE1
340
0
102
{BLKREFS
331
5F
102
}
1001
ACAD
1000
DesignCenter Data
1002
{
1070
     1
1070
     0
1002
}
  0
BLOCK_RECORD
  5
86
330
1
100
AcDbSymbolTableRecord
100
AcDbBlockTableRecord
  2
_Oblique
340
0
1001
ACAD
1000
DesignCenter Data
1002
{
1070
     1
1070
     0
1002
}
  0
BLOCK_RECORD
  5
8A
330
1
100
AcDbSymbolTableRecord
100
AcDbBlockTableRecord
  2
_Dot
340
0
1001
ACAD
1000
DesignCenter Data
1002
{
1070
     1
1070
     0
1002
}
  0
BLOCK_RECORD
  5
8F
330
1
100
AcDbSymbolTableRecord
100
AcDbBlockTableRecord
  2
_SE_FILLED
340
0
1001
ACAD
1000
DesignCenter Data
1002
{
1070
     1
1070
     0
1002
}
  0
BLOCK_RECORD
  5
97
330
1
100
AcDbSymbolTableRecord
100
AcDbBlockTableRecord
  2
DMBLK1
340
0
1001
ACAD
1000
DesignCenter Data
1002
{
1070
     1
1070
     0
1002
}
  0
BLOCK_RECORD
  5
A2
330
1
100
AcDbSymbolTableRecord
100
AcDbBlockTableRecord
  2
DMBLK2
340
0
1001
ACAD
1000
DesignCenter Data
1002
{
1070
     1
1070
     0
1002
}
  0
BLOCK_RECORD
  5
AE
330
1
100
AcDbSymbolTableRecord
100
AcDbBlockTableRecord
  2
DMBLK3
340
0
1001
ACAD
1000
DesignCenter Data
1002
{
1070
     1
1070
     0
1002
}
  0
BLOCK_RECORD
  5
BA
330
1
100
AcDbSymbolTableRecord
100
AcDbBlockTableRecord
  2
DMBLK4
340
0
1001
ACAD
1000
DesignCenter Data
1002
{
1070
     1
1070
     0
1002
}
  0
BLOCK_RECORD
  5
C4
330
1
100
AcDbSymbolTableRecord
100
AcDbBlockTableRecord
  2
DMBLK5
340
0
1001
ACAD
1000
DesignCenter Data
1002
{
1070
     1
1070
     0
1002
}
  0
BLOCK_RECORD
  5
CF
330
1
100
AcDbSymbolTableRecord
100
AcDbBlockTableRecord
  2
DMBLK6
340
0
1001
ACAD
1000
DesignCenter Data
1002
{
1070
     1
1070
     0
1002
}
  0
BLOCK_RECORD
  5
D9
330
1
100
AcDbSymbolTableRecord
100
AcDbBlockTableRecord
  2
DMBLK7
340
0
1001
ACAD
1000
DesignCenter Data
1002
{
1070
     1
1070
     0
1002
}
  0
ENDTAB
  0
ENDSEC
  0
SECTION
  2
BLOCKS
  0
BLOCK
  5
20
330
1F
100
AcDbEntity
  8
0
100
AcDbBlockBegin
  2
*Model_Space
 70
     0
 71
     0
 10
0.0
 20
0.0
 30
0.0
  3
*Model_Space
  1

  0
ENDBLK
  5
21
330
1F
100
AcDbEntity
  8
0
100
AcDbBlockEnd
  0
BLOCK
  5
1C
330
1B
100
AcDbEntity
 67
     1
  8
0
100
AcDbBlockBegin
  2
*Paper_Space
 70
     0
 71
     0
 10
0.0
 20
0.0
 30
0.0
  3
*Paper_Space
  1

  0
ENDBLK
  5
1D
330
1B
100
AcDbEntity
 67
     1
  8
0
100
AcDbBlockEnd
  0
BLOCK
  5
5C
330
37
100
AcDbEntity
  8
0
100
AcDbBlockBegin
  2
SE
 70
     0
 71
     0
 10
0.0
 20
0.0
 30
0.0
  3
SE
  1

  0
LINE
  5
3A
330
37
100
AcDbEntity
  8
JP690510
  6
Continuous
 62
     7
100
AcDbLine
 10
91.8387249317
 20
203.3136844573
 30
0.0
 11
112.7937249317
 21
203.3136844573
 31
0.0
  0
LINE
  5
3B
330
37
100
AcDbEntity
  8
JP690510
  6
Continuous
 62
     7
100
AcDbLine
 10
91.3162249317
 20
205.8136844573
 30
0.0
 11
113.3162249317
 21
205.8136844573
 31
0.0
  0
LINE
  5
3C
330
37
100
AcDbEntity
  8
JP690510
  6
Continuous
 62
     7
100
AcDbLine
 10
91.8162249317
 20
205.3136844573
 30
0.0
 11
112.8162249317
 21
205.3136844573
 31
0.0
  0
LINE
  5
3D
330
37
100
AcDbEntity
  8
JP690510
  6
Continuous
 62
     7
100
AcDbLine
 10
91.8387249317
 20
196.4736844573
 30
0.0
 11
112.7937249317
 21
196.4736844573
 31
0.0
  0
LINE
  5
3E
330
37
100
AcDbEntity
  8
JP690510
  6
Continuous
 62
     7
100
AcDbLine
 10
92.9987249317
 20
195.3136844573
 30
0.0
 11
111.6337249317
 21
195.3136844573
 31
0.0
  0
LINE
  5
3F
330
37
100
AcDbEntity
  8
JP690510
  6
Continuous
 62
     7
100
AcDbLine
 10
92.9987249317
 20
235.3136844573
 30
0.0
 11
111.6337249317
 21
235.3136844573
 31
0.0
  0
LINE
  5
40
330
37
100
AcDbEntity
  8
JP690510
  6
Continuous
 62
     7
100
AcDbLine
 10
91.8387249317
 20
234.1536844573
 30
0.0
 11
112.7937249317
 21
234.1536844573
 31
0.0
  0
LINE
  5
41
330
37
100
AcDbEntity
  8
JP690510
  6
Continuous
 62
     7
100
AcDbLine
 10
91.8387249317
 20
234.1536844573
 30
0.0
 11
91.8387249317
 21
227.3136844573
 31
0.0
  0
LINE
  5
42
330
37
100
AcDbEntity
  8
JP690510
  6
Continuous
 62
     7
100
AcDbLine
 10
112.7937249317
 20
227.3136844573
 30
0.0
 11
112.7937249317
 21
234.1536844573
 31
0.0
  0
LINE
  5
43
330
37
100
AcDbEntity
  8
JP690510
  6
Continuous
 62
     7
100
AcDbLine
 10
91.3162249317
 20
212.3136844573
 30
0.0
 11
91.3162249317
 21
205.8136844573
 31
0.0
  0
LINE
  5
44
330
37
100
AcDbEntity
  8
JP690510
  6
Continuous
 62
     7
100
AcDbLine
 10
113.3162249317
 20
205.8136844573
 30
0.0
 11
113.3162249317
 21
212.3136844573
 31
0.0
  0
LINE
  5
45
330
37
100
AcDbEntity
  8
JP690510
  6
Continuous
 62
     7
100
AcDbLine
 10
93.3162249317
 20
205.3136844573
 30
0.0
 11
93.3162249317
 21
203.3136844573
 31
0.0
  0
LINE
  5
46
330
37
100
AcDbEntity
  8
JP690510
  6
Continuous
 62
     7
100
AcDbLine
 10
111.3162249317
 20
203.3136844573
 30
0.0
 11
111.3162249317
 21
205.3136844573
 31
0.0
  0
LINE
  5
47
330
37
100
AcDbEntity
  8
JP690510
  6
Continuous
 62
     7
100
AcDbLine
 10
91.8387249317
 20
203.3136844573
 30
0.0
 11
91.8387249317
 21
196.4736844573
 31
0.0
  0
LINE
  5
48
330
37
100
AcDbEntity
  8
JP690510
  6
Continuous
 62
     7
100
AcDbLine
 10
112.7937249317
 20
196.4736844573
 30
0.0
 11
112.7937249317
 21
203.3136844573
 31
0.0
  0
ARC
  5
49
330
37
100
AcDbEntity
  8
JP690510
  6
Continuous
 62
     7
100
AcDbCircle
 10
91.8162249317
 20
205.8136844573
 30
0.0
 40
0.5000000000000004
100
AcDbArc
 50
180.0
 51
270.0
  0
ARC
  5
4A
330
37
100
AcDbEntity
  8
JP690510
  6
Continuous
 62
     7
100
AcDbCircle
 10
112.8162249317
 20
205.8136844573
 30
0.0
 40
0.5000000000000002
100
AcDbArc
 50
270.0
 51
360.0
  0
LINE
  5
4B
330
37
100
AcDbEntity
  8
JP690510
  6
Continuous
 62
     7
100
AcDbLine
 10
91.8387249317
 20
196.4736844573
 30
0.0
 11
92.9987249317
 21
195.3136844573
 31
0.0
  0
LINE
  5
4C
330
37
100
AcDbEntity
  8
JP690510
  6
Continuous
 62
     7
100
AcDbLine
 10
111.6337249317
 20
195.3136844573
 30
0.0
 11
112.7937249317
 21
196.4736844573
 31
0.0
  0
LINE
  5
4D
330
37
100
AcDbEntity
  8
JP690510
  6
Continuous
 62
     7
100
AcDbLine
 10
112.7937249317
 20
234.1536844573
 30
0.0
 11
111.6337249317
 21
235.3136844573
 31
0.0
  0
LINE
  5
4E
330
37
100
AcDbEntity
  8
JP690510
  6
Continuous
 62
     7
100
AcDbLine
 10
92.9987249317
 20
235.3136844573
 30
0.0
 11
91.8387249317
 21
234.1536844573
 31
0.0
  0
LINE
  5
4F
330
37
100
AcDbEntity
  8
JP690510
  6
Continuous
 62
     7
100
AcDbLine
 10
111.6317249317
 20
235.3136844573
 30
0.0
 11
111.6317249317
 21
227.3136844573
 31
0.0
  0
LINE
  5
50
330
37
100
AcDbEntity
  8
JP690510
  6
Continuous
 62
     7
100
AcDbLine
 10
93.0007249317
 20
235.3136844573
 30
0.0
 11
93.0007249317
 21
227.3136844573
 31
0.0
  0
LINE
  5
51
330
37
100
AcDbEntity
  8
JP690510
  6
Continuous
 62
     7
100
AcDbLine
 10
91.8387249317
 20
227.3136844573
 30
0.0
 11
112.7937249317
 21
227.3136844573
 31
0.0
  0
LINE
  5
52
330
37
100
AcDbEntity
  8
JP690510
  6
Continuous
 62
     7
100
AcDbLine
 10
93.0007249317
 20
196.4736844573
 30
0.0
 11
93.0007249317
 21
203.3136844573
 31
0.0
  0
LINE
  5
53
330
37
100
AcDbEntity
  8
JP690510
  6
Continuous
 62
     7
100
AcDbLine
 10
111.6317249317
 20
196.4736844573
 30
0.0
 11
111.6317249317
 21
203.3136844573
 31
0.0
  0
LINE
  5
55
330
37
100
AcDbEntity
  8
JP690520
  6
Continuous
 62
     7
100
AcDbLine
 10
69.8162249317
 20
227.3136844573
 30
0.0
 11
134.8162249317
 21
227.3136844573
 31
0.0
  0
LINE
  5
56
330
37
100
AcDbEntity
  8
JP690520
  6
Continuous
 62
     7
100
AcDbLine
 10
69.8162249317
 20
214.3136844573
 30
0.0
 11
134.8162249317
 21
214.3136844573
 31
0.0
  0
LINE
  5
57
330
37
100
AcDbEntity
  8
JP690520
  6
Continuous
 62
     7
100
AcDbLine
 10
71.8162249317
 20
212.3136844573
 30
0.0
 11
132.8162249317
 21
212.3136844573
 31
0.0
  0
LINE
  5
58
330
37
100
AcDbEntity
  8
JP690520
  6
Continuous
 62
     7
100
AcDbLine
 10
69.8162249317
 20
227.3136844573
 30
0.0
 11
69.8162249317
 21
214.3136844573
 31
0.0
  0
LINE
  5
59
330
37
100
AcDbEntity
  8
JP690520
  6
Continuous
 62
     7
100
AcDbLine
 10
134.8162249317
 20
214.3136844573
 30
0.0
 11
134.8162249317
 21
227.3136844573
 31
0.0
  0
ARC
  5
5A
330
37
100
AcDbEntity
  8
JP690520
  6
Continuous
 62
     7
100
AcDbCircle
 10
132.8162249317
 20
214.3136844573
 30
0.0
 40
2.0
100
AcDbArc
 50
270.0
 51
360.0
  0
ARC
  5
5B
330
37
100
AcDbEntity
  8
JP690520
  6
Continuous
 62
     7
100
AcDbCircle
 10
71.8162249317
 20
214.3136844573
 30
0.0
 40
2.000000000000002
100
AcDbArc
 50
180.0
 51
270.0
  0
ENDBLK
  5
5D
330
37
100
AcDbEntity
  8
0
100
AcDbBlockEnd
  0
BLOCK
  5
83
330
5E
100
AcDbEntity
  8
0
100
AcDbBlockBegin
  2
SE1
 70
     0
 71
     0
 10
0.0
 20
0.0
 30
0.0
  3
SE1
  1

  0
ARC
  5
60
330
5E
100
AcDbEntity
  8
JP690510
  6
Continuous
 62
     7
100
AcDbCircle
 10
102.3162249317
 20
121.1960773033
 30
0.0
 40
6.150000000000002
100
AcDbArc
 50
317.3196165082
 51
342.6803834918
  0
ARC
  5
61
330
5E
100
AcDbEntity
  8
JP690510
  6
Continuous
 62
     7
100
AcDbCircle
 10
102.3162249317
 20
121.1960773033
 30
0.0
 40
6.500000000000005
100
AcDbArc
 50
352.619864948
 51
360.0
  0
ARC
  5
62
330
5E
100
AcDbEntity
  8
JP690510
  6
Continuous
 62
     7
100
AcDbCircle
 10
102.3162249317
 20
121.1960773033
 30
0.0
 40
6.500000000000005
100
AcDbArc
 50
292.619864948
 51
307.380135052
  0
ARC
  5
63
330
5E
100
AcDbEntity
  8
JP690510
  6
Continuous
 62
     7
100
AcDbCircle
 10
102.3162249317
 20
121.1960773033
 30
0.0
 40
6.500000000000005
100
AcDbArc
 50
232.619864948
 51
247.380135052
  0
ARC
  5
64
330
5E
100
AcDbEntity
  8
JP690510
  6
Continuous
 62
     7
100
AcDbCircle
 10
102.3162249317
 20
121.1960773033
 30
0.0
 40
6.500000000000005
100
AcDbArc
 50
172.619864948
 51
187.380135052
  0
ARC
  5
65
330
5E
100
AcDbEntity
  8
JP690510
  6
Continuous
 62
     7
100
AcDbCircle
 10
102.3162249317
 20
121.1960773033
 30
0.0
 40
6.500000000000005
100
AcDbArc
 50
112.619864948
 51
127.380135052
  0
ARC
  5
66
330
5E
100
AcDbEntity
  8
JP690510
  6
Continuous
 62
     7
100
AcDbCircle
 10
102.3162249317
 20
121.1960773033
 30
0.0
 40
6.500000000000005
100
AcDbArc
 50
52.619864948
 51
67.380135052
  0
ARC
  5
67
330
5E
100
AcDbEntity
  8
JP690510
  6
Continuous
 62
     7
100
AcDbCircle
 10
102.3162249317
 20
121.1960773033
 30
0.0
 40
6.500000000000005
100
AcDbArc
 50
0.0
 51
7.380135052
  0
CIRCLE
  5
68
330
5E
100
AcDbEntity
  8
JP690510
  6
Continuous
 62
     7
100
AcDbCircle
 10
102.3162249317
 20
121.1960773033
 30
0.0
 40
7.25
  0
ARC
  5
69
330
5E
100
AcDbEntity
  8
JP690510
  6
Continuous
 62
     7
100
AcDbCircle
 10
102.3162249317
 20
121.1960773033
 30
0.0
 40
6.150000000000001
100
AcDbArc
 50
257.3196165082
 51
282.6803834918
  0
ARC
  5
6A
330
5E
100
AcDbEntity
  8
JP690510
  6
Continuous
 62
     7
100
AcDbCircle
 10
102.3162249317
 20
121.1960773033
 30
0.0
 40
6.150000000000002
100
AcDbArc
 50
197.3196165082
 51
222.6803834918
  0
ARC
  5
6B
330
5E
100
AcDbEntity
  8
JP690510
  6
Continuous
 62
     7
100
AcDbCircle
 10
102.3162249317
 20
121.1960773033
 30
0.0
 40
6.15
100
AcDbArc
 50
137.3196165082
 51
162.6803834918
  0
ARC
  5
6C
330
5E
100
AcDbEntity
  8
JP690510
  6
Continuous
 62
     7
100
AcDbCircle
 10
102.3162249317
 20
121.1960773033
 30
0.0
 40
6.150000000000001
100
AcDbArc
 50
77.3196165082
 51
102.6803834918
  0
ARC
  5
6D
330
5E
100
AcDbEntity
  8
JP690510
  6
Continuous
 62
     7
100
AcDbCircle
 10
102.3162249317
 20
121.1960773033
 30
0.0
 40
6.150000000000002
100
AcDbArc
 50
17.3196165082
 51
42.6803834918
  0
LINE
  5
6E
330
5E
100
AcDbEntity
  8
JP690510
  6
Continuous
 62
     7
100
AcDbLine
 10
103.6662249317
 20
115.1960773033
 30
0.0
 11
105.7803265468
 21
115.1960773033
 31
0.0
  0
LINE
  5
6F
330
5E
100
AcDbEntity
  8
JP690510
  6
Continuous
 62
     7
100
AcDbLine
 10
105.7803265468
 20
115.1960773033
 30
0.0
 11
106.8373773544
 21
117.0269430082
 31
0.0
  0
LINE
  5
70
330
5E
100
AcDbEntity
  8
JP690510
  6
Continuous
 62
     7
100
AcDbLine
 10
98.8521233166
 20
115.1960773033
 30
0.0
 11
100.9662249317
 21
115.1960773033
 31
0.0
  0
LINE
  5
71
330
5E
100
AcDbEntity
  8
JP690510
  6
Continuous
 62
     7
100
AcDbLine
 10
97.795072509
 20
117.0269430082
 30
0.0
 11
98.8521233166
 21
115.1960773033
 31
0.0
  0
LINE
  5
72
330
5E
100
AcDbEntity
  8
JP690510
  6
Continuous
 62
     7
100
AcDbLine
 10
108.1873773544
 20
119.3652115984
 30
0.0
 11
109.244428162
 21
121.1960773033
 31
0.0
  0
LINE
  5
73
330
5E
100
AcDbEntity
  8
JP690510
  6
Continuous
 62
     7
100
AcDbLine
 10
109.244428162
 20
121.1960773033
 30
0.0
 11
108.1873773544
 21
123.0269430082
 31
0.0
  0
LINE
  5
74
330
5E
100
AcDbEntity
  8
JP690510
  6
Continuous
 62
     7
100
AcDbLine
 10
106.8373773544
 20
125.3652115984
 30
0.0
 11
105.7803265468
 21
127.1960773033
 31
0.0
  0
LINE
  5
75
330
5E
100
AcDbEntity
  8
JP690510
  6
Continuous
 62
     7
100
AcDbLine
 10
105.7803265468
 20
127.1960773033
 30
0.0
 11
103.6662249317
 21
127.1960773033
 31
0.0
  0
LINE
  5
76
330
5E
100
AcDbEntity
  8
JP690510
  6
Continuous
 62
     7
100
AcDbLine
 10
100.9662249317
 20
127.1960773033
 30
0.0
 11
98.8521233166
 21
127.1960773033
 31
0.0
  0
LINE
  5
77
330
5E
100
AcDbEntity
  8
JP690510
  6
Continuous
 62
     7
100
AcDbLine
 10
98.8521233166
 20
127.1960773033
 30
0.0
 11
97.795072509
 21
125.3652115984
 31
0.0
  0
LINE
  5
78
330
5E
100
AcDbEntity
  8
JP690510
  6
Continuous
 62
     7
100
AcDbLine
 10
96.445072509
 20
123.0269430082
 30
0.0
 11
95.3880217014
 21
121.1960773033
 31
0.0
  0
LINE
  5
79
330
5E
100
AcDbEntity
  8
JP690510
  6
Continuous
 62
     7
100
AcDbLine
 10
95.3880217014
 20
121.1960773033
 30
0.0
 11
96.445072509
 21
119.3652115984
 31
0.0
  0
CIRCLE
  5
7A
330
5E
100
AcDbEntity
  8
JP690510
  6
Continuous
 62
     7
100
AcDbCircle
 10
102.3162249317
 20
121.1960773033
 30
0.0
 40
11.0
  0
CIRCLE
  5
7B
330
5E
100
AcDbEntity
  8
JP690510
  6
Continuous
 62
     7
100
AcDbCircle
 10
102.3162249317
 20
121.1960773033
 30
0.0
 40
10.5
  0
CIRCLE
  5
7C
330
5E
100
AcDbEntity
  8
JP690510
  6
Continuous
 62
     7
100
AcDbCircle
 10
102.3162249317
 20
121.1960773033
 30
0.0
 40
10.4775
  0
CIRCLE
  5
7D
330
5E
100
AcDbEntity
  8
JP690510
  6
Continuous
 62
     7
100
AcDbCircle
 10
102.3162249317
 20
121.1960773033
 30
0.0
 40
9.317499999999999
  0
ARC
  5
7E
330
5E
100
AcDbEntity
  8
JP690510
  6
Continuous
 62
     7
100
AcDbCircle
 10
102.3162249317
 20
121.1960773033
 30
0.0
 40
9.3155
100
AcDbArc
 50
255.0
 51
195.0
  0
CIRCLE
  5
7F
330
5E
100
AcDbEntity
  8
JP690520
  6
Continuous
 62
     7
100
AcDbCircle
 10
102.3162249317
 20
121.1960773033
 30
0.0
 40
32.5
  0
CIRCLE
  5
80
330
5E
100
AcDbEntity
  8
JP690520
  6
Continuous
 62
     7
100
AcDbCircle
 10
102.3162249317
 20
121.1960773033
 30
0.0
 40
30.5
  0
CIRCLE
  5
81
330
5E
100
AcDbEntity
  8
JP690520
  6
Continuous
 62
     7
100
AcDbCircle
 10
102.3162249317
 20
121.1960773033
 30
0.0
 40
12.0
  0
CIRCLE
  5
82
330
5E
100
AcDbEntity
  8
JP690520
  6
Continuous
 62
     7
100
AcDbCircle
 10
102.3162249317
 20
121.1960773033
 30
0.0
 40
11.5
  0
ENDBLK
  5
84
330
5E
100
AcDbEntity
  8
0
100
AcDbBlockEnd
  0
BLOCK
  5
87
330
86
100
AcDbEntity
  8
0
100
AcDbBlockBegin
  2
_Oblique
 70
     0
 71
     0
 10
0.0
 20
0.0
 30
0.0
  3
_Oblique
  1

  0
LINE
  5
89
330
86
100
AcDbEntity
  8
0
  6
ByBlock
 62
     0
370
    -2
100
AcDbLine
 10
-0.5
 20
-0.5
 30
0.0
 11
0.5
 21
0.5
 31
0.0
  0
ENDBLK
  5
88
330
86
100
AcDbEntity
  8
0
100
AcDbBlockEnd
  0
BLOCK
  5
8B
330
8A
100
AcDbEntity
  8
0
100
AcDbBlockBegin
  2
_Dot
 70
     0
 71
     0
 10
0.0
 20
0.0
 30
0.0
  3
_Dot
  1

  0
LWPOLYLINE
  5
8D
330
8A
100
AcDbEntity
  8
0
  6
ByBlock
 62
     0
100
AcDbPolyline
 90
        2
 70
     1
 43
0.5
 10
-0.25
 20
0.0
 42
1.0
 10
0.25
 20
0.0
 42
1.0
  0
LINE
  5
8E
330
8A
100
AcDbEntity
  8
0
  6
ByBlock
 62
     0
370
    -2
100
AcDbLine
 10
-0.5
 20
0.0
 30
0.0
 11
-1.0
 21
0.0
 31
0.0
  0
ENDBLK
  5
8C
330
8A
100
AcDbEntity
  8
0
100
AcDbBlockEnd
  0
BLOCK
  5
92
330
8F
100
AcDbEntity
  8
0
100
AcDbBlockBegin
  2
_SE_FILLED
 70
     0
 71
     0
 10
0.0
 20
0.0
 30
0.0
  3
_SE_FILLED
  1

  0
SOLID
  5
90
330
8F
100
AcDbEntity
  8
0
 62
     0
100
AcDbTrace
 10
0.0
 20
0.0
 30
0.0
 11
-1.0
 21
-0.1665
 31
0.0
 12
-1.0
 22
0.1665
 32
0.0
 13
0.0
 23
0.0
 33
0.0
  0
LINE
  5
91
330
8F
100
AcDbEntity
  8
0
 62
     0
100
AcDbLine
 10
0.0
 20
0.0
 30
0.0
 11
-1.0
 21
0.0
 31
0.0
  0
ENDBLK
  5
93
330
8F
100
AcDbEntity
  8
0
100
AcDbBlockEnd
  0
BLOCK
  5
9F
330
97
100
AcDbEntity
  8
0
100
AcDbBlockBegin
  2
DMBLK1
 70
     0
 71
     0
 10
0.0
 20
0.0
 30
0.0
  3
DMBLK1
  1

  0
HATCH
  5
98
330
97
100
AcDbEntity
  8
Default
  6
Continuous
 62
   136
370
    30
100
AcDbHatch
 10
0.0
 20
0.0
 30
0.0
210
0.0
220
0.0
230
1.0
  2
SOLID
 70
     1
 71
     0
 91
        1
 92
        1
 93
        3
 72
     1
 10
167.5290922599647
 20
221.3136844051314
 11
166.5290922512723
 21
227.3136844572854
 72
     1
 10
166.5290922512723
 20
227.3136844572854
 11
165.52909224258
 21
221.3136844051314
 72
     1
 10
165.52909224258
 20
221.3136844051314
 11
167.5290922599647
 21
221.3136844051314
 97
        0
 75
     0
 76
     1
 98
        0
  0
HATCH
  5
99
330
97
100
AcDbEntity
  8
Default
  6
Continuous
 62
   136
370
    30
100
AcDbHatch
 10
0.0
 20
0.0
 30
0.0
210
0.0
220
0.0
230
1.0
  2
SOLID
 70
     1
 71
     0
 91
        1
 92
        1
 93
        3
 72
     1
 10
167.5290922599647
 20
201.3136845094395
 11
165.52909224258
 21
201.3136845094395
 72
     1
 10
165.52909224258
 20
201.3136845094395
 11
166.5290922512723
 21
195.3136844572854
 72
     1
 10
166.5290922512723
 20
195.3136844572854
 11
167.5290922599647
 21
201.3136845094395
 97
        0
 75
     0
 76
     1
 98
        0
  0
LINE
  5
9A
330
97
100
AcDbEntity
  8
Default
  6
Continuous
 62
   136
370
    30
100
AcDbLine
 10
134.8162249317
 20
227.3136844573
 30
0.0
 11
169.5290922773
 21
227.3136844573
 31
0.0
  0
LINE
  5
9B
330
97
100
AcDbEntity
  8
Default
  6
Continuous
 62
   136
370
    30
100
AcDbLine
 10
111.6337249317
 20
195.3136844573
 30
0.0
 11
169.5290922773
 21
195.3136844573
 31
0.0
  0
LINE
  5
9C
330
97
100
AcDbEntity
  8
Default
  6
Continuous
 62
   136
370
    30
100
AcDbLine
 10
166.5290922513
 20
227.3136844573
 30
0.0
 11
166.5290922513
 21
216.4136834157
 31
0.0
  0
LINE
  5
9D
330
97
100
AcDbEntity
  8
Default
  6
Continuous
 62
   136
370
    30
100
AcDbLine
 10
166.5290922513
 20
206.2136836362
 30
0.0
 11
166.5290922513
 21
195.3136844573
 31
0.0
  0
TEXT
  5
9E
330
97
100
AcDbEntity
  8
Default
  6
Continuous
 62
   136
370
    30
100
AcDbText
 10
161.8334400774
 20
208.3136836973
 30
0.0
 40
6.0
  1
32
  7
SEACAD_arial_ttf
 11
161.8334400774
 21
214.3136836973
 31
0.0
100
AcDbText
 73
     3
  0
ENDBLK
  5
A0
330
97
100
AcDbEntity
  8
0
100
AcDbBlockEnd
  0
BLOCK
  5
AA
330
A2
100
AcDbEntity
  8
0
100
AcDbBlockBegin
  2
DMBLK2
 70
     0
 71
     0
 10
0.0
 20
0.0
 30
0.0
  3
DMBLK2
  1

  0
HATCH
  5
A3
330
A2
100
AcDbEntity
  8
Default
  6
Continuous
 62
   136
370
    30
100
AcDbHatch
 10
0.0
 20
0.0
 30
0.0
210
0.0
220
0.0
230
1.0
  2
SOLID
 70
     1
 71
     0
 91
        1
 92
        1
 93
        3
 72
     1
 10
167.5290922599647
 20
221.3136844051314
 11
166.5290922512723
 21
227.3136844572854
 72
     1
 10
166.5290922512723
 20
227.3136844572854
 11
165.52909224258
 21
221.3136844051314
 72
     1
 10
165.52909224258
 20
221.3136844051314
 11
167.5290922599647
 21
221.3136844051314
 97
        0
 75
     0
 76
     1
 98
        0
  0
HATCH
  5
A4
330
A2
100
AcDbEntity
  8
Default
  6
Continuous
 62
   136
370
    30
100
AcDbHatch
 10
0.0
 20
0.0
 30
0.0
210
0.0
220
0.0
230
1.0
  2
SOLID
 70
     1
 71
     0
 91
        1
 92
        1
 93
        3
 72
     1
 10
167.5290922599647
 20
241.3136845094395
 11
165.52909224258
 21
241.3136845094395
 72
     1
 10
165.52909224258
 20
241.3136845094395
 11
166.5290922512723
 21
235.3136844572854
 72
     1
 10
166.5290922512723
 20
235.3136844572854
 11
167.5290922599647
 21
241.3136845094395
 97
        0
 75
     0
 76
     1
 98
        0
  0
LINE
  5
A5
330
A2
100
AcDbEntity
  8
Default
  6
Continuous
 62
   136
370
    30
100
AcDbLine
 10
134.8162249317
 20
227.3136844573
 30
0.0
 11
169.5290922773
 21
227.3136844573
 31
0.0
  0
LINE
  5
A6
330
A2
100
AcDbEntity
  8
Default
  6
Continuous
 62
   136
370
    30
100
AcDbLine
 10
111.6337249317
 20
235.3136844573
 30
0.0
 11
169.5290922773
 21
235.3136844573
 31
0.0
  0
LINE
  5
A7
330
A2
100
AcDbEntity
  8
Default
  6
Continuous
 62
   136
370
    30
100
AcDbLine
 10
166.5290922513
 20
215.313684353
 30
0.0
 11
166.5290922513
 21
227.3136844573
 31
0.0
  0
LINE
  5
A8
330
A2
100
AcDbEntity
  8
Default
  6
Continuous
 62
   136
370
    30
100
AcDbLine
 10
166.5290922513
 20
235.3136844573
 30
0.0
 11
166.5290922513
 21
247.3136845616
 31
0.0
  0
TEXT
  5
A9
330
A2
100
AcDbEntity
  8
Default
  6
Continuous
 62
   136
370
    30
100
AcDbText
 10
164.1812661643
 20
228.3136846473
 30
0.0
 40
6.0
  1
8
  7
SEACAD_arial_ttf
 11
164.1812661643
 21
234.3136846473
 31
0.0
100
AcDbText
 73
     3
  0
ENDBLK
  5
AB
330
A2
100
AcDbEntity
  8
0
100
AcDbBlockEnd
  0
BLOCK
  5
B7
330
AE
100
AcDbEntity
  8
0
100
AcDbBlockBegin
  2
DMBLK3
 70
     0
 71
     0
 10
0.0
 20
0.0
 30
0.0
  3
DMBLK3
  1

  0
HATCH
  5
AF
330
AE
100
AcDbEntity
  8
Default
  6
Continuous
 62
   136
370
    30
100
AcDbHatch
 10
0.0
 20
0.0
 30
0.0
210
0.0
220
0.0
230
1.0
  2
SOLID
 70
     1
 71
     0
 91
        1
 92
        1
 93
        3
 72
     1
 10
75.81622498384284
 20
271.3358663047285
 11
69.81622493168878
 21
270.3358662960362
 72
     1
 10
69.81622493168878
 20
270.3358662960362
 11
75.81622498384284
 21
269.3358662873439
 72
     1
 10
75.81622498384284
 20
269.3358662873439
 11
75.81622498384284
 21
271.3358663047285
 97
        0
 75
     0
 76
     1
 98
        0
  0
HATCH
  5
B0
330
AE
100
AcDbEntity
  8
Default
  6
Continuous
 62
   136
370
    30
100
AcDbHatch
 10
0.0
 20
0.0
 30
0.0
210
0.0
220
0.0
230
1.0
  2
SOLID
 70
     1
 71
     0
 91
        1
 92
        1
 93
        3
 72
     1
 10
128.8162248795347
 20
271.3358663047285
 11
128.8162248795347
 21
269.3358662873439
 72
     1
 10
128.8162248795347
 20
269.3358662873439
 11
134.8162249316888
 21
270.3358662960362
 72
     1
 10
134.8162249316888
 20
270.3358662960362
 11
128.8162248795347
 21
271.3358663047285
 97
        0
 75
     0
 76
     1
 98
        0
  0
LINE
  5
B1
330
AE
100
AcDbEntity
  8
Default
  6
Continuous
 62
   136
370
    30
100
AcDbLine
 10
69.8162249317
 20
227.3136844573
 30
0.0
 11
69.8162249317
 21
273.3358663221
 31
0.0
  0
LINE
  5
B2
330
AE
100
AcDbEntity
  8
Default
  6
Continuous
 62
   136
370
    30
100
AcDbLine
 10
134.8162249317
 20
227.3136844573
 30
0.0
 11
134.8162249317
 21
273.3358663221
 31
0.0
  0
LINE
  5
B3
330
AE
100
AcDbEntity
  8
Default
  6
Continuous
 62
   136
370
    30
100
AcDbLine
 10
69.8162249317
 20
270.335866296
 30
0.0
 11
89.9995180806
 21
270.335866296
 31
0.0
  0
LINE
  5
B4
330
AE
100
AcDbEntity
  8
Default
  6
Continuous
 62
   136
370
    30
100
AcDbLine
 10
114.6329280575
 20
270.335866296
 30
0.0
 11
134.8162249317
 21
270.335866296
 31
0.0
  0
TEXT
  5
B5
330
AE
100
AcDbEntity
  8
Default
  6
Continuous
 62
   136
370
    30
100
AcDbText
 10
103.1416241973
 20
267.335866296
 30
0.0
 40
6.0
  1
65
  7
SEACAD_arial_ttf
 11
103.1416241973
 21
273.335866296
 31
0.0
100
AcDbText
 73
     3
  0
TEXT
  5
B6
330
AE
100
AcDbEntity
  8
Default
  6
Continuous
 62
   136
370
    30
100
AcDbText
 10
92.0995189341
 20
267.335866296
 30
0.0
 40
6.0
  1
O
  7
SEACAD_semeca1_ttf
 11
92.0995189341
 21
273.335866296
 31
0.0
100
AcDbText
 73
     3
  0
ENDBLK
  5
B8
330
AE
100
AcDbEntity
  8
0
100
AcDbBlockEnd
  0
BLOCK
  5
C1
330
BA
100
AcDbEntity
  8
0
100
AcDbBlockBegin
  2
DMBLK4
 70
     0
 71
     0
 10
0.0
 20
0.0
 30
0.0
  3
DMBLK4
  1

  0
HATCH
  5
BB
330
BA
100
AcDbEntity
  8
Default
  6
Continuous
 62
   136
370
    30
100
AcDbHatch
 10
0.0
 20
0.0
 30
0.0
210
0.0
220
0.0
230
1.0
  2
SOLID
 70
     1
 71
     0
 91
        1
 92
        1
 93
        3
 72
     1
 10
97.83872498384284
 20
252.9954482603999
 11
91.83872493168877
 21
251.9954482517076
 72
     1
 10
91.83872493168877
 20
251.9954482517076
 11
97.83872498384284
 21
250.9954482430153
 72
     1
 10
97.83872498384284
 20
250.9954482430153
 11
97.83872498384284
 21
252.9954482603999
 97
        0
 75
     0
 76
     1
 98
        0
  0
HATCH
  5
BC
330
BA
100
AcDbEntity
  8
Default
  6
Continuous
 62
   136
370
    30
100
AcDbHatch
 10
0.0
 20
0.0
 30
0.0
210
0.0
220
0.0
230
1.0
  2
SOLID
 70
     1
 71
     0
 91
        1
 92
        1
 93
        3
 72
     1
 10
106.7937249522524
 20
252.9954482603999
 11
106.7937249522524
 21
250.9954482430153
 72
     1
 10
106.7937249522524
 20
250.9954482430153
 11
112.7937250044064
 21
251.9954482517076
 72
     1
 10
112.7937250044064
 20
251.9954482517076
 11
106.7937249522524
 21
252.9954482603999
 97
        0
 75
     0
 76
     1
 98
        0
  0
LINE
  5
BD
330
BA
100
AcDbEntity
  8
Default
  6
Continuous
 62
   136
370
    30
100
AcDbLine
 10
91.8387249317
 20
234.1536844573
 30
0.0
 11
91.8387249317
 21
254.9954482778
 31
0.0
  0
LINE
  5
BE
330
BA
100
AcDbEntity
  8
Default
  6
Continuous
 62
   136
370
    30
100
AcDbLine
 10
112.7937249317
 20
234.1536844573
 30
0.0
 11
112.7937249317
 21
254.9954482778
 31
0.0
  0
LINE
  5
BF
330
BA
100
AcDbEntity
  8
Default
  6
Continuous
 62
   136
370
    30
100
AcDbLine
 10
91.8387249317
 20
251.9954482517
 30
0.0
 11
112.7937250044
 21
251.9954482517
 31
0.0
  0
TEXT
  5
C0
330
BA
100
AcDbEntity
  8
Default
  6
Continuous
 62
   136
370
    30
100
AcDbText
 10
89.4553554028
 20
253.4954482517
 30
0.0
 40
6.0
  1
PJ1/2
  7
SEACAD_arial_ttf
 11
89.4553554028
 21
259.4954482517
 31
0.0
100
AcDbText
 73
     3
  0
ENDBLK
  5
C2
330
BA
100
AcDbEntity
  8
0
100
AcDbBlockEnd
  0
BLOCK
  5
CC
330
C4
100
AcDbEntity
  8
0
100
AcDbBlockBegin
  2
DMBLK5
 70
     0
 71
     0
 10
0.0
 20
0.0
 30
0.0
  3
DMBLK5
  1

  0
HATCH
  5
C5
330
C4
100
AcDbEntity
  8
Default
  6
Continuous
 62
   136
370
    30
100
AcDbHatch
 10
0.0
 20
0.0
 30
0.0
210
0.0
220
0.0
230
1.0
  2
SOLID
 70
     1
 71
     0
 91
        1
 92
        1
 93
        3
 72
     1
 10
50.96294625626206
 20
233.3136845094395
 11
51.9629462649544
 21
227.3136844572854
 72
     1
 10
51.9629462649544
 20
227.3136844572854
 11
52.96294627364675
 21
233.3136845094395
 72
     1
 10
52.96294627364675
 20
233.3136845094395
 11
50.96294625626206
 21
233.3136845094395
 97
        0
 75
     0
 76
     1
 98
        0
  0
HATCH
  5
C6
330
C4
100
AcDbEntity
  8
Default
  6
Continuous
 62
   136
370
    30
100
AcDbHatch
 10
0.0
 20
0.0
 30
0.0
210
0.0
220
0.0
230
1.0
  2
SOLID
 70
     1
 71
     0
 91
        1
 92
        1
 93
        3
 72
     1
 10
50.96294625626206
 20
206.3136844051314
 11
52.96294627364675
 21
206.3136844051314
 72
     1
 10
52.96294627364675
 20
206.3136844051314
 11
51.9629462649544
 21
212.3136844572854
 72
     1
 10
51.9629462649544
 20
212.3136844572854
 11
50.96294625626206
 21
206.3136844051314
 97
        0
 75
     0
 76
     1
 98
        0
  0
LINE
  5
C7
330
C4
100
AcDbEntity
  8
Default
  6
Continuous
 62
   136
370
    30
100
AcDbLine
 10
69.8162249317
 20
227.3136844573
 30
0.0
 11
48.9629462389
 21
227.3136844573
 31
0.0
  0
LINE
  5
C8
330
C4
100
AcDbEntity
  8
Default
  6
Continuous
 62
   136
370
    30
100
AcDbLine
 10
71.8162249317
 20
212.3136844573
 30
0.0
 11
48.9629462389
 21
212.3136844573
 31
0.0
  0
LINE
  5
C9
330
C4
100
AcDbEntity
  8
Default
  6
Continuous
 62
   136
370
    30
100
AcDbLine
 10
51.962946265
 20
239.3136845616
 30
0.0
 11
51.962946265
 21
227.3136844573
 31
0.0
  0
LINE
  5
CA
330
C4
100
AcDbEntity
  8
Default
  6
Continuous
 62
   136
370
    30
100
AcDbLine
 10
51.962946265
 20
212.3136844573
 30
0.0
 11
51.962946265
 21
200.313684353
 31
0.0
  0
TEXT
  5
CB
330
C4
100
AcDbEntity
  8
Default
  6
Continuous
 62
   136
370
    30
100
AcDbText
 10
47.267294091
 20
216.8136846249
 30
0.0
 40
6.0
  1
15
  7
SEACAD_arial_ttf
 11
47.267294091
 21
222.8136846249
 31
0.0
100
AcDbText
 73
     3
  0
ENDBLK
  5
CD
330
C4
100
AcDbEntity
  8
0
100
AcDbBlockEnd
  0
BLOCK
  5
D6
330
CF
100
AcDbEntity
  8
0
100
AcDbBlockBegin
  2
DMBLK6
 70
     0
 71
     0
 10
0.0
 20
0.0
 30
0.0
  3
DMBLK6
  1

  0
HATCH
  5
D0
330
CF
100
AcDbEntity
  8
Default
  6
Continuous
 62
   136
370
    30
100
AcDbHatch
 10
0.0
 20
0.0
 30
0.0
210
0.0
220
0.0
230
1.0
  2
SOLID
 70
     1
 71
     0
 91
        1
 92
        1
 93
        3
 72
     1
 10
106.7937248795347
 20
172.7430005407266
 11
112.7937249316888
 21
173.743000549419
 72
     1
 10
112.7937249316888
 20
173.743000549419
 11
106.7937248795347
 21
174.7430005581113
 72
     1
 10
106.7937248795347
 20
174.7430005581113
 11
106.7937248795347
 21
172.7430005407266
 97
        0
 75
     0
 76
     1
 98
        0
  0
HATCH
  5
D1
330
CF
100
AcDbEntity
  8
Default
  6
Continuous
 62
   136
370
    30
100
AcDbHatch
 10
0.0
 20
0.0
 30
0.0
210
0.0
220
0.0
230
1.0
  2
SOLID
 70
     1
 71
     0
 91
        1
 92
        1
 93
        3
 72
     1
 10
97.83872491112518
 20
172.7430005407266
 11
97.83872491112518
 21
174.7430005581113
 72
     1
 10
97.83872491112518
 20
174.7430005581113
 11
91.83872485897112
 21
173.743000549419
 72
     1
 10
91.83872485897112
 20
173.743000549419
 11
97.83872491112518
 21
172.7430005407266
 97
        0
 75
     0
 76
     1
 98
        0
  0
LINE
  5
D2
330
CF
100
AcDbEntity
  8
Default
  6
Continuous
 62
   136
370
    30
100
AcDbLine
 10
112.7937249317
 20
196.4736844573
 30
0.0
 11
112.7937249317
 21
170.7430005233
 31
0.0
  0
LINE
  5
D3
330
CF
100
AcDbEntity
  8
Default
  6
Continuous
 62
   136
370
    30
100
AcDbLine
 10
91.8387249317
 20
196.4736844573
 30
0.0
 11
91.8387249317
 21
170.7430005233
 31
0.0
  0
LINE
  5
D4
330
CF
100
AcDbEntity
  8
Default
  6
Continuous
 62
   136
370
    30
100
AcDbLine
 10
112.7937249317
 20
173.7430005494
 30
0.0
 11
91.838724859
 21
173.7430005494
 31
0.0
  0
TEXT
  5
D5
330
CF
100
AcDbEntity
  8
Default
  6
Continuous
 62
   136
370
    30
100
AcDbText
 10
89.9118770692
 20
175.2430005494
 30
0.0
 40
6.0
  1
G 1/2
  7
SEACAD_arial_ttf
 11
89.9118770692
 21
181.2430005494
 31
0.0
100
AcDbText
 73
     3
  0
ENDBLK
  5
D7
330
CF
100
AcDbEntity
  8
0
100
AcDbBlockEnd
  0
BLOCK
  5
E2
330
D9
100
AcDbEntity
  8
0
100
AcDbBlockBegin
  2
DMBLK7
 70
     0
 71
     0
 10
0.0
 20
0.0
 30
0.0
  3
DMBLK7
  1

  0
HATCH
  5
DA
330
D9
100
AcDbEntity
  8
Default
  6
Continuous
 62
   136
370
    30
100
AcDbHatch
 10
0.0
 20
0.0
 30
0.0
210
0.0
220
0.0
230
1.0
  2
SOLID
 70
     1
 71
     0
 91
        1
 92
        1
 93
        3
 72
     1
 10
167.9039659006879
 20
133.1960773554135
 11
165.9039658833032
 21
133.1960773554135
 72
     1
 10
165.9039658833032
 20
133.1960773554135
 11
166.9039658919956
 21
127.1960773032595
 72
     1
 10
166.9039658919956
 20
127.1960773032595
 11
167.9039659006879
 21
133.1960773554135
 97
        0
 75
     0
 76
     1
 98
        0
  0
HATCH
  5
DB
330
D9
100
AcDbEntity
  8
Default
  6
Continuous
 62
   136
370
    30
100
AcDbHatch
 10
0.0
 20
0.0
 30
0.0
210
0.0
220
0.0
230
1.0
  2
SOLID
 70
     1
 71
     0
 91
        1
 92
        1
 93
        3
 72
     1
 10
167.9039659006879
 20
109.1960772511055
 11
166.9039658919956
 21
115.1960773032595
 72
     1
 10
166.9039658919956
 20
115.1960773032595
 11
165.9039658833032
 21
109.1960772511055
 72
     1
 10
165.9039658833032
 20
109.1960772511055
 11
167.9039659006879
 21
109.1960772511055
 97
        0
 75
     0
 76
     1
 98
        0
  0
LINE
  5
DC
330
D9
100
AcDbEntity
  8
Default
  6
Continuous
 62
   136
370
    30
100
AcDbLine
 10
105.7803265468
 20
127.1960773033
 30
0.0
 11
169.9039659181
 21
127.1960773033
 31
0.0
  0
LINE
  5
DD
330
D9
100
AcDbEntity
  8
Default
  6
Continuous
 62
   136
370
    30
100
AcDbLine
 10
105.7803265468
 20
115.1960773033
 30
0.0
 11
169.9039659181
 21
115.1960773033
 31
0.0
  0
LINE
  5
DE
330
D9
100
AcDbEntity
  8
Default
  6
Continuous
 62
   136
370
    30
100
AcDbLine
 10
166.903965892
 20
139.1960774076
 30
0.0
 11
166.903965892
 21
126.2960772605
 31
0.0
  0
LINE
  5
DF
330
D9
100
AcDbEntity
  8
Default
  6
Continuous
 62
   136
370
    30
100
AcDbLine
 10
166.903965892
 20
116.0960772296
 30
0.0
 11
166.903965892
 21
103.196077199
 31
0.0
  0
TEXT
  5
E0
330
D9
100
AcDbEntity
  8
Default
  6
Continuous
 62
   136
370
    30
100
AcDbText
 10
171.2865745876
 20
118.1960772511
 30
0.0
 40
6.0
  1
12
  7
SEACAD_arial_ttf
 11
171.2865745876
 21
124.1960772511
 31
0.0
100
AcDbText
 73
     3
  0
TEXT
  5
E1
330
D9
100
AcDbEntity
  8
Default
  6
Continuous
 62
   136
370
    30
100
AcDbText
 10
153.1300528485
 20
118.1960772511
 30
0.0
 40
6.0
  1
SW
  7
SEACAD_arial_ttf
 11
153.1300528485
 21
124.1960772511
 31
0.0
100
AcDbText
 73
     3
  0
ENDBLK
  5
E3
330
D9
100
AcDbEntity
  8
0
100
AcDbBlockEnd
  0
ENDSEC
  0
SECTION
  2
ENTITIES
  0
TEXT
  5
2B
330
1F
100
AcDbEntity
  8
Layer1
  6
Continuous
 62
     7
100
AcDbText
 10
12.1444444444
 20
31.9333333333
 30
0.0
 40
4.0
  1
1:1
  7
SEACAD_arial_ttfB
 11
12.1444444444
 21
35.9333333333
 31
0.0
100
AcDbText
 73
     3
  0
TEXT
  5
2D
330
1F
100
AcDbEntity
  8
Layer1
  6
Continuous
 62
     7
100
AcDbText
 10
18.9611111111
 20
8.6666666667
 30
0.0
 40
5.0
  1
x
  7
SEACAD_arial_ttfB
 11
18.9611111111
 21
13.6666666667
 31
0.0
100
AcDbText
 73
     3
  0
TEXT
  5
2E
330
1F
100
AcDbEntity
  8
Layer1
  6
Continuous
 62
     7
100
AcDbText
 10
175.0888888889
 20
13.9333333333
 30
0.0
 40
4.0
  1
JP6.905.00
  7
SEACAD_arial_ttfB
 11
175.0888888889
 21
17.9333333333
 31
0.0
100
AcDbText
 73
     3
  0
TEXT
  5
2F
330
1F
100
AcDbEntity
  8
Bogenauslauf_55grad_unten
  6
Continuous
 62
     7
100
AcDbText
 10
51.2222222222
 20
41.4666666667
 30
0.0
 40
2.0
  1
J2006
  7
SEACAD_arial_ttfB
 11
51.2222222222
 21
43.4666666667
 31
0.0
100
AcDbText
 73
     3
  0
TEXT
  5
31
330
1F
100
AcDbEntity
  8
Bogenauslauf_55grad_unten
  6
Continuous
 62
     7
100
AcDbText
 10
49.7111111111
 20
36.9666666667
 30
0.0
 40
2.0
  1
06.06.20
  7
SEACAD_arial_ttfB
 11
49.7111111111
 21
38.9666666667
 31
0.0
100
AcDbText
 73
     3
  0
TEXT
  5
32
330
1F
100
AcDbEntity
  8
Bogenauslauf_55grad_unten
  6
Continuous
 62
     7
100
AcDbText
 10
52.8666666667
 20
31.9666666667
 30
0.0
 40
2.0
  1
Sm
  7
SEACAD_arial_ttfB
 11
52.8666666667
 21
33.9666666667
 31
0.0
100
AcDbText
 73
     3
  0
TEXT
  5
33
330
1F
100
AcDbEntity
  8
Layer3
  6
Continuous
 62
     7
100
AcDbText
 10
47.4
 20
17.9333333333
 30
0.0
 40
4.0
  1
28.497.000
  7
SEACAD_arial_ttfB
 11
47.4
 21
21.9333333333
 31
0.0
100
AcDbText
 73
     3
  0
TEXT
  5
35
330
1F
100
AcDbEntity
  8
Bogenauslauf_55grad_unten
  6
Continuous
 62
     7
100
AcDbText
 10
48.6666666667
 20
26.9666666667
 30
0.0
 40
2.0
  1
Rikukawa
  7
SEACAD_arial_ttfB
 11
48.6666666667
 21
28.9666666667
 31
0.0
100
AcDbText
 73
     3
  0
INSERT
  5
38
330
1F
100
AcDbEntity
  8
Default
100
AcDbBlockReference
  2
SE
 10
0.0
 20
0.0
 30
0.0
  0
INSERT
  5
5F
330
1F
100
AcDbEntity
  8
Default
100
AcDbBlockReference
  2
SE1
 10
0.0
 20
0.0
 30
0.0
  0
DIMENSION
  5
96
330
1F
100
AcDbEntity
  8
Default
  6
Continuous
 62
   136
370
    30
100
AcDbDimension
  2
DMBLK1
 10
166.5290922513
 20
195.3136844573
 30
0.0
 11
166.5290922513
 21
211.3136836973
 31
0.0
 70
   160
  1
\A1;<>
 71
     5
 42
-1.0
  3
JIS
100
AcDbAlignedDimension
 13
134.8162249317
 23
227.3136844573
 33
0.0
 14
111.6337249317
 24
195.3136844573
 34
0.0
 50
90.0
100
AcDbRotatedDimension
  0
DIMENSION
  5
A1
330
1F
100
AcDbEntity
  8
Default
  6
Continuous
 62
   136
370
    30
100
AcDbDimension
  2
DMBLK2
 10
166.5290922513
 20
235.3136844573
 30
0.0
 11
166.5290922513
 21
231.3136846473
 31
0.0
 70
   160
  1
\A1;<>
 71
     5
 42
-1.0
  3
JIS
100
AcDbAlignedDimension
 13
134.8162249317
 23
227.3136844573
 33
0.0
 14
111.6337249317
 24
235.3136844573
 34
0.0
 50
90.0
100
AcDbRotatedDimension
  0
DIMENSION
  5
AC
330
1F
100
AcDbEntity
  8
Default
  6
Continuous
 62
   136
370
    30
100
AcDbDimension
  2
DMBLK3
 10
69.8162249317
 20
270.335866296
 30
0.0
 11
102.3162237396
 21
270.335866296
 31
0.0
 70
   161
  1
\A1;%%C <>
 71
     5
 42
-1.0
  3
JIS
100
AcDbAlignedDimension
 13
69.8162249317
 23
227.3136844573
 33
0.0
 14
134.8162249317
 24
227.3136844573
 34
0.0
1001
ACAD
1000
DSTYLE
1002
{
1070
    73
1070
     0
1070
    74
1070
     0
1070
     0
1002
}
  0
DIMENSION
  5
B9
330
1F
100
AcDbEntity
  8
Default
  6
Continuous
 62
   136
370
    30
100
AcDbDimension
  2
DMBLK4
 10
91.8387249317
 20
251.9954482517
 30
0.0
 11
102.316224968
 21
251.9954482517
 31
0.0
 70
   161
  1
\A1;PJ1/2 {}
 71
     5
 42
-1.0
  3
JIS
100
AcDbAlignedDimension
 13
91.8387249317
 23
234.1536844573
 33
0.0
 14
112.7937249317
 24
234.1536844573
 34
0.0
1001
ACAD
1000
DSTYLE
1002
{
1070
    73
1070
     0
1070
    74
1070
     0
1070
    77
1070
     1
1070
     0
1002
}
  0
DIMENSION
  5
C3
330
1F
100
AcDbEntity
  8
Default
  6
Continuous
 62
   136
370
    30
100
AcDbDimension
  2
DMBLK5
 10
51.962946265
 20
212.3136844573
 30
0.0
 11
51.962946265
 21
219.8136846249
 31
0.0
 70
   160
  1
\A1;<>
 71
     5
 42
-1.0
  3
JIS
100
AcDbAlignedDimension
 13
69.8162249317
 23
227.3136844573
 33
0.0
 14
71.8162249317
 24
212.3136844573
 34
0.0
 50
90.0
100
AcDbRotatedDimension
1001
ACAD
1000
DSTYLE
1002
{
1070
   172
1070
     0
1070
     0
1002
}
  0
DIMENSION
  5
CE
330
1F
100
AcDbEntity
  8
Default
  6
Continuous
 62
   136
370
    30
100
AcDbDimension
  2
DMBLK6
 10
91.8387249317
 20
173.7430005494
 30
0.0
 11
102.3162248953
 21
173.7430005494
 31
0.0
 70
   160
  1
\A1;G 1/2 {}
 71
     5
 42
-1.0
  3
JIS
100
AcDbAlignedDimension
 13
112.7937249317
 23
196.4736844573
 33
0.0
 14
91.8387249317
 24
196.4736844573
 34
0.0
100
AcDbRotatedDimension
1001
ACAD
1000
DSTYLE
1002
{
1070
    73
1070
     0
1070
    74
1070
     0
1070
    77
1070
     1
1070
     0
1002
}
  0
DIMENSION
  5
D8
330
1F
100
AcDbEntity
  8
Default
  6
Continuous
 62
   136
370
    30
100
AcDbDimension
  2
DMBLK7
 10
166.903965892
 20
127.1960773033
 30
0.0
 11
166.903965892
 21
121.1960772511
 31
0.0
 70
   161
  1
\A1;SW <>
 71
     5
 42
-1.0
  3
JIS
100
AcDbAlignedDimension
 13
105.7803265468
 23
127.1960773033
 33
0.0
 14
105.7803265468
 24
115.1960773033
 34
0.0
  0
LINE
  5
E5
330
1F
100
AcDbEntity
  8
MDS_Layer_90
  6
Continuous
 62
     7
100
AcDbLine
 10
6.6
 20
291.0
 30
0.0
 11
205.0
 21
291.0
 31
0.0
  0
LINE
  5
E6
330
1F
100
AcDbEntity
  8
MDS_Layer_90
  6
Continuous
 62
     7
100
AcDbLine
 10
6.6
 20
291.0
 30
0.0
 11
6.6
 21
45.0
 31
0.0
  0
LINE
  5
E8
330
1F
100
AcDbEntity
  8
MDS_Layer_94
  6
Continuous
 62
     7
100
AcDbLine
 10
85.0
 20
30.0
 30
0.0
 11
105.0
 21
30.0
 31
0.0
  0
LINE
  5
E9
330
1F
100
AcDbEntity
  8
MDS_Layer_94
  6
Continuous
 62
     7
100
AcDbLine
 10
125.0
 20
35.0
 30
0.0
 11
145.0
 21
35.0
 31
0.0
  0
LINE
  5
EA
330
1F
100
AcDbEntity
  8
MDS_Layer_94
  6
Continuous
 62
     7
100
AcDbLine
 10
105.0
 20
30.0
 30
0.0
 11
125.0
 21
30.0
 31
0.0
  0
LINE
  5
EB
330
1F
100
AcDbEntity
  8
MDS_Layer_94
  6
Continuous
 62
     7
100
AcDbLine
 10
105.0
 20
25.0
 30
0.0
 11
105.0
 21
45.0
 31
0.0
  0
LINE
  5
EC
330
1F
100
AcDbEntity
  8
MDS_Layer_94
  6
Continuous
 62
     7
100
AcDbLine
 10
25.6
 20
45.0
 30
0.0
 11
25.6
 21
25.0
 31
0.0
  0
LINE
  5
ED
330
1F
100
AcDbEntity
  8
MDS_Layer_94
  6
Continuous
 62
     7
100
AcDbLine
 10
85.0
 20
25.0
 30
0.0
 11
105.0
 21
25.0
 31
0.0
  0
LINE
  5
EE
330
1F
100
AcDbEntity
  8
MDS_Layer_94
  6
Continuous
 62
     7
100
AcDbLine
 10
125.0
 20
30.0
 30
0.0
 11
145.0
 21
30.0
 31
0.0
  0
LINE
  5
EF
330
1F
100
AcDbEntity
  8
MDS_Layer_94
  6
Continuous
 62
     7
100
AcDbLine
 10
105.0
 20
25.0
 30
0.0
 11
125.0
 21
25.0
 31
0.0
  0
LINE
  5
F0
330
1F
100
AcDbEntity
  8
MDS_Layer_94
  6
Continuous
 62
     7
100
AcDbLine
 10
125.0
 20
25.0
 30
0.0
 11
125.0
 21
45.0
 31
0.0
  0
LINE
  5
F1
330
1F
100
AcDbEntity
  8
MDS_Layer_94
  6
Continuous
 62
     7
100
AcDbLine
 10
145.0
 20
25.0
 30
0.0
 11
145.0
 21
45.0
 31
0.0
  0
LINE
  5
F2
330
1F
100
AcDbEntity
  8
MDS_Layer_94
  6
Continuous
 62
     7
100
AcDbLine
 10
125.0
 20
25.0
 30
0.0
 11
145.0
 21
25.0
 31
0.0
  0
LINE
  5
F3
330
1F
100
AcDbEntity
  8
MDS_Layer_94
  6
Continuous
 62
     7
100
AcDbLine
 10
85.0
 20
40.0
 30
0.0
 11
105.0
 21
40.0
 31
0.0
  0
LINE
  5
F4
330
1F
100
AcDbEntity
  8
MDS_Layer_94
  6
Continuous
 62
     7
100
AcDbLine
 10
105.0
 20
40.0
 30
0.0
 11
125.0
 21
40.0
 31
0.0
  0
LINE
  5
F5
330
1F
100
AcDbEntity
  8
MDS_Layer_94
  6
Continuous
 62
     7
100
AcDbLine
 10
125.0
 20
40.0
 30
0.0
 11
145.0
 21
40.0
 31
0.0
  0
LINE
  5
F6
330
1F
100
AcDbEntity
  8
MDS_Layer_94
  6
Continuous
 62
     7
100
AcDbLine
 10
25.6
 20
35.0
 30
0.0
 11
45.0
 21
35.0
 31
0.0
  0
LINE
  5
F7
330
1F
100
AcDbEntity
  8
MDS_Layer_94
  6
Continuous
 62
     7
100
AcDbLine
 10
85.0
 20
35.0
 30
0.0
 11
105.0
 21
35.0
 31
0.0
  0
LINE
  5
F8
330
1F
100
AcDbEntity
  8
MDS_Layer_94
  6
Continuous
 62
     7
100
AcDbLine
 10
105.0
 20
35.0
 30
0.0
 11
125.0
 21
35.0
 31
0.0
  0
LINE
  5
F9
330
1F
100
AcDbEntity
  8
MDS_Layer_94
  6
Continuous
 62
     7
100
AcDbLine
 10
6.6
 20
5.0168024536
 30
0.0
 11
6.6
 21
25.0
 31
0.0
  0
LINE
  5
FA
330
1F
100
AcDbEntity
  8
MDS_Layer_94
  6
Continuous
 62
     7
100
AcDbLine
 10
16.1
 20
20.0
 30
0.0
 11
16.1
 21
5.0168024536
 31
0.0
  0
LINE
  5
FB
330
1F
100
AcDbEntity
  8
MDS_Layer_94
  6
Continuous
 62
     7
100
AcDbLine
 10
6.6
 20
5.0
 30
0.0
 11
45.0
 21
5.0
 31
0.0
  0
LINE
  5
FC
330
1F
100
AcDbEntity
  8
MDS_Layer_94
  6
Continuous
 62
     7
100
AcDbLine
 10
6.6
 20
39.999
 30
0.0
 11
45.0
 21
39.999
 31
0.0
  0
LINE
  5
FD
330
1F
100
AcDbEntity
  8
MDS_Layer_94
  6
Continuous
 62
     7
100
AcDbLine
 10
6.6
 20
40.0
 30
0.0
 11
45.0
 21
40.0
 31
0.0
  0
LINE
  5
FE
330
1F
100
AcDbEntity
  8
MDS_Layer_94
  6
Continuous
 62
     7
100
AcDbLine
 10
6.6
 20
39.998
 30
0.0
 11
45.0
 21
39.998
 31
0.0
  0
POINT
  5
FF
330
1F
100
AcDbEntity
  8
MDS_Layer_94
  6
Continuous
 62
     7
100
AcDbPoint
 10
45.0
 20
5.0
 30
0.0
  0
LINE
  5
100
330
1F
100
AcDbEntity
  8
MDS_Layer_94
  6
Continuous
 62
     7
100
AcDbLine
 10
45.0
 20
5.0
 30
0.0
 11
45.0
 21
25.0
 31
0.0
  0
LINE
  5
101
330
1F
100
AcDbEntity
  8
MDS_Layer_94
  6
Continuous
 62
     7
100
AcDbLine
 10
45.0
 20
15.0
 30
0.0
 11
77.0
 21
15.0
 31
0.0
  0
LINE
  5
102
330
1F
100
AcDbEntity
  8
MDS_Layer_94
  6
Continuous
 62
     7
100
AcDbLine
 10
77.0
 20
15.0
 30
0.0
 11
109.0
 21
15.0
 31
0.0
  0
LINE
  5
103
330
1F
100
AcDbEntity
  8
MDS_Layer_94
  6
Continuous
 62
     7
100
AcDbLine
 10
25.6
 20
5.0168024536
 30
0.0
 11
25.6
 21
25.0
 31
0.0
  0
LINE
  5
104
330
1F
100
AcDbEntity
  8
MDS_Layer_94
  6
Continuous
 62
     7
100
AcDbLine
 10
45.0
 20
5.0
 30
0.0
 11
77.0
 21
5.0
 31
0.0
  0
LINE
  5
105
330
1F
100
AcDbEntity
  8
MDS_Layer_94
  6
Continuous
 62
     7
100
AcDbLine
 10
165.0
 20
25.0
 30
0.0
 11
185.0
 21
25.0
 31
0.0
  0
LINE
  5
106
330
1F
100
AcDbEntity
  8
MDS_Layer_94
  6
Continuous
 62
     7
100
AcDbLine
 10
141.0
 20
15.0
 30
0.0
 11
173.0
 21
15.0
 31
0.0
  0
LINE
  5
107
330
1F
100
AcDbEntity
  8
MDS_Layer_94
  6
Continuous
 62
     7
100
AcDbLine
 10
205.0
 20
25.0
 30
0.0
 11
205.0
 21
45.0
 31
0.0
  0
LINE
  5
108
330
1F
100
AcDbEntity
  8
MDS_Layer_94
  6
Continuous
 62
     7
100
AcDbLine
 10
185.0
 20
30.0
 30
0.0
 11
205.0
 21
30.0
 31
0.0
  0
LINE
  5
109
330
1F
100
AcDbEntity
  8
MDS_Layer_94
  6
Continuous
 62
     7
100
AcDbLine
 10
185.0
 20
35.0
 30
0.0
 11
205.0
 21
35.0
 31
0.0
  0
LINE
  5
10A
330
1F
100
AcDbEntity
  8
MDS_Layer_94
  6
Continuous
 62
     7
100
AcDbLine
 10
185.0
 20
40.0
 30
0.0
 11
205.0
 21
40.0
 31
0.0
  0
LINE
  5
10B
330
1F
100
AcDbEntity
  8
MDS_Layer_94
  6
Continuous
 62
     7
100
AcDbLine
 10
185.0
 20
25.0
 30
0.0
 11
185.0
 21
45.0
 31
0.0
  0
LINE
  5
10C
330
1F
100
AcDbEntity
  8
MDS_Layer_94
  6
Continuous
 62
     7
100
AcDbLine
 10
165.0
 20
30.0
 30
0.0
 11
185.0
 21
30.0
 31
0.0
  0
LINE
  5
10D
330
1F
100
AcDbEntity
  8
MDS_Layer_94
  6
Continuous
 62
     7
100
AcDbLine
 10
165.0
 20
35.0
 30
0.0
 11
185.0
 21
35.0
 31
0.0
  0
LINE
  5
10E
330
1F
100
AcDbEntity
  8
MDS_Layer_94
  6
Continuous
 62
     7
100
AcDbLine
 10
165.0
 20
40.0
 30
0.0
 11
185.0
 21
40.0
 31
0.0
  0
LINE
  5
10F
330
1F
100
AcDbEntity
  8
MDS_Layer_94
  6
Continuous
 62
     7
100
AcDbLine
 10
145.0
 20
35.0
 30
0.0
 11
165.0
 21
35.0
 31
0.0
  0
LINE
  5
110
330
1F
100
AcDbEntity
  8
MDS_Layer_94
  6
Continuous
 62
     7
100
AcDbLine
 10
165.0
 20
25.0
 30
0.0
 11
165.0
 21
45.0
 31
0.0
  0
LINE
  5
111
330
1F
100
AcDbEntity
  8
MDS_Layer_94
  6
Continuous
 62
     7
100
AcDbLine
 10
145.0
 20
40.0
 30
0.0
 11
165.0
 21
40.0
 31
0.0
  0
LINE
  5
112
330
1F
100
AcDbEntity
  8
MDS_Layer_94
  6
Continuous
 62
     7
100
AcDbLine
 10
45.0
 20
45.0
 30
0.0
 11
205.0
 21
45.0
 31
0.0
  0
LINE
  5
113
330
1F
100
AcDbEntity
  8
MDS_Layer_94
  6
Continuous
 62
     7
100
AcDbLine
 10
25.6
 20
30.0
 30
0.0
 11
45.0
 21
30.0
 31
0.0
  0
LINE
  5
114
330
1F
100
AcDbEntity
  8
MDS_Layer_94
  6
Continuous
 62
     7
100
AcDbLine
 10
6.6
 20
20.0
 30
0.0
 11
25.6
 21
20.0
 31
0.0
  0
LINE
  5
115
330
1F
100
AcDbEntity
  8
MDS_Layer_94
  6
Continuous
 62
     7
100
AcDbLine
 10
6.6
 20
15.0
 30
0.0
 11
25.6
 21
15.0
 31
0.0
  0
LINE
  5
116
330
1F
100
AcDbEntity
  8
MDS_Layer_94
  6
Continuous
 62
     7
100
AcDbLine
 10
6.6
 20
25.0
 30
0.0
 11
45.0
 21
25.0
 31
0.0
  0
LINE
  5
117
330
1F
100
AcDbEntity
  8
MDS_Layer_94
  6
Continuous
 62
     7
100
AcDbLine
 10
45.0
 20
25.0
 30
0.0
 11
45.0
 21
45.0
 31
0.0
  0
LINE
  5
118
330
1F
100
AcDbEntity
  8
MDS_Layer_94
  6
Continuous
 62
     7
100
AcDbLine
 10
45.0
 20
40.0
 30
0.0
 11
65.0
 21
40.0
 31
0.0
  0
LINE
  5
119
330
1F
100
AcDbEntity
  8
MDS_Layer_94
  6
Continuous
 62
     7
100
AcDbLine
 10
45.0
 20
35.0
 30
0.0
 11
65.0
 21
35.0
 31
0.0
  0
LINE
  5
11A
330
1F
100
AcDbEntity
  8
MDS_Layer_94
  6
Continuous
 62
     7
100
AcDbLine
 10
45.0
 20
30.0
 30
0.0
 11
65.0
 21
30.0
 31
0.0
  0
LINE
  5
11B
330
1F
100
AcDbEntity
  8
MDS_Layer_94
  6
Continuous
 62
     7
100
AcDbLine
 10
65.0
 20
25.0
 30
0.0
 11
65.0
 21
45.0
 31
0.0
  0
LINE
  5
11C
330
1F
100
AcDbEntity
  8
MDS_Layer_94
  6
Continuous
 62
     7
100
AcDbLine
 10
45.0
 20
25.0
 30
0.0
 11
65.0
 21
25.0
 31
0.0
  0
LINE
  5
11D
330
1F
100
AcDbEntity
  8
MDS_Layer_94
  6
Continuous
 62
     7
100
AcDbLine
 10
65.0
 20
40.0
 30
0.0
 11
85.0
 21
40.0
 31
0.0
  0
LINE
  5
11E
330
1F
100
AcDbEntity
  8
MDS_Layer_94
  6
Continuous
 62
     7
100
AcDbLine
 10
65.0
 20
35.0
 30
0.0
 11
85.0
 21
35.0
 31
0.0
  0
LINE
  5
11F
330
1F
100
AcDbEntity
  8
MDS_Layer_94
  6
Continuous
 62
     7
100
AcDbLine
 10
65.0
 20
30.0
 30
0.0
 11
85.0
 21
30.0
 31
0.0
  0
LINE
  5
120
330
1F
100
AcDbEntity
  8
MDS_Layer_94
  6
Continuous
 62
     7
100
AcDbLine
 10
85.0
 20
25.0
 30
0.0
 11
85.0
 21
45.0
 31
0.0
  0
LINE
  5
121
330
1F
100
AcDbEntity
  8
MDS_Layer_94
  6
Continuous
 62
     7
100
AcDbLine
 10
65.0
 20
25.0
 30
0.0
 11
85.0
 21
25.0
 31
0.0
  0
LINE
  5
122
330
1F
100
AcDbEntity
  8
MDS_Layer_94
  6
Continuous
 62
     7
100
AcDbLine
 10
45.0
 20
45.0
 30
0.0
 11
6.6
 21
45.0
 31
0.0
  0
LINE
  5
123
330
1F
100
AcDbEntity
  8
MDS_Layer_94
  6
Continuous
 62
     7
100
AcDbLine
 10
6.6
 20
45.0
 30
0.0
 11
6.6
 21
25.0
 31
0.0
  0
LINE
  5
124
330
1F
100
AcDbEntity
  8
MDS_Layer_94
  6
Continuous
 62
     7
100
AcDbLine
 10
185.0
 20
25.0
 30
0.0
 11
205.0
 21
25.0
 31
0.0
  0
LINE
  5
125
330
1F
100
AcDbEntity
  8
MDS_Layer_94
  6
Continuous
 62
     7
100
AcDbLine
 10
77.0
 20
5.0
 30
0.0
 11
109.0
 21
5.0
 31
0.0
  0
LINE
  5
126
330
1F
100
AcDbEntity
  8
MDS_Layer_94
  6
Continuous
 62
     7
100
AcDbLine
 10
145.0
 20
30.0
 30
0.0
 11
165.0
 21
30.0
 31
0.0
  0
LINE
  5
127
330
1F
100
AcDbEntity
  8
MDS_Layer_94
  6
Continuous
 62
     7
100
AcDbLine
 10
109.0
 20
5.0
 30
0.0
 11
109.0
 21
25.0
 31
0.0
  0
LINE
  5
128
330
1F
100
AcDbEntity
  8
MDS_Layer_94
  6
Continuous
 62
     7
100
AcDbLine
 10
109.0
 20
15.0
 30
0.0
 11
141.0
 21
15.0
 31
0.0
  0
LINE
  5
129
330
1F
100
AcDbEntity
  8
MDS_Layer_94
  6
Continuous
 62
     7
100
AcDbLine
 10
145.0
 20
25.0
 30
0.0
 11
165.0
 21
25.0
 31
0.0
  0
LINE
  5
12A
330
1F
100
AcDbEntity
  8
MDS_Layer_94
  6
Continuous
 62
     7
100
AcDbLine
 10
77.0
 20
5.0
 30
0.0
 11
77.0
 21
25.0
 31
0.0
  0
LINE
  5
12B
330
1F
100
AcDbEntity
  8
MDS_Layer_94
  6
Continuous
 62
     7
100
AcDbLine
 10
205.0
 20
5.0
 30
0.0
 11
205.0
 21
25.0
 31
0.0
  0
LINE
  5
12C
330
1F
100
AcDbEntity
  8
MDS_Layer_94
  6
Continuous
 62
     7
100
AcDbLine
 10
173.0
 20
5.0
 30
0.0
 11
205.0
 21
5.0
 31
0.0
  0
LINE
  5
12D
330
1F
100
AcDbEntity
  8
MDS_Layer_94
  6
Continuous
 62
     7
100
AcDbLine
 10
173.0
 20
5.0
 30
0.0
 11
173.0
 21
25.0
 31
0.0
  0
LINE
  5
12E
330
1F
100
AcDbEntity
  8
MDS_Layer_94
  6
Continuous
 62
     7
100
AcDbLine
 10
141.0
 20
5.0
 30
0.0
 11
173.0
 21
5.0
 31
0.0
  0
LINE
  5
12F
330
1F
100
AcDbEntity
  8
MDS_Layer_94
  6
Continuous
 62
     7
100
AcDbLine
 10
109.0
 20
5.0
 30
0.0
 11
141.0
 21
5.0
 31
0.0
  0
LINE
  5
130
330
1F
100
AcDbEntity
  8
MDS_Layer_94
  6
Continuous
 62
     7
100
AcDbLine
 10
141.0
 20
5.0
 30
0.0
 11
141.0
 21
25.0
 31
0.0
  0
TEXT
  5
132
330
1F
100
AcDbEntity
  8
MDS_Layer_94
  6
Continuous
 62
     7
100
AcDbText
 10
27.2
 20
14.0913731012
 30
0.0
 40
2.5
  1
und
  7
SEACAD_seiso_ttf
 11
27.2
 21
16.5913731012
 31
0.0
100
AcDbText
 73
     3
  0
TEXT
  5
133
330
1F
100
AcDbEntity
  8
MDS_Layer_94
  6
Continuous
 62
     7
100
AcDbText
 10
27.2
 20
9.0913731012
 30
0.0
 40
2.5
  1
Varianten
  7
SEACAD_seiso_ttf
 11
27.2
 21
11.5913731012
 31
0.0
100
AcDbText
 73
     3
  0
TEXT
  5
134
330
1F
100
AcDbEntity
  8
MDS_Layer_94
  6
Continuous
 62
     7
100
AcDbText
 10
7.1240657125
 20
21.5397731012
 30
0.0
 40
2.5
  1
Dateiformat
  7
SEACAD_seiso_ttf
 11
7.1240657125
 21
24.0397731012
 31
0.0
100
AcDbText
 73
     3
  0
TEXT
  5
135
330
1F
100
AcDbEntity
  8
MDS_Layer_94
  6
Continuous
 62
     7
100
AcDbText
 10
7.4059642026
 20
16.5238108871
 30
0.0
 40
2.0
  1
Raster
  7
SEACAD_arial_ttf
 11
7.4059642026
 21
18.5238108871
 31
0.0
100
AcDbText
 73
     3
  0
TEXT
  5
136
330
1F
100
AcDbEntity
  8
MDS_Layer_94
  6
Continuous
 62
     7
100
AcDbText
 10
16.9707887071
 20
16.3869274332
 30
0.0
 40
2.0
  1
Vektor
  7
SEACAD_arial_ttf
 11
16.9707887071
 21
18.3869274332
 31
0.0
100
AcDbText
 73
     3
  0
TEXT
  5
137
330
1F
100
AcDbEntity
  8
MDS_Layer_94
  6
Continuous
 62
     7
100
AcDbText
 10
27.2
 20
31.4228985666
 30
0.0
 40
2.5
  1
Name
  7
SEACAD_seiso_ttf
 11
27.2
 21
33.9228985666
 31
0.0
100
AcDbText
 73
     3
  0
TEXT
  5
138
330
1F
100
AcDbEntity
  8
MDS_Layer_94
  6
Continuous
 62
     7
100
AcDbText
 10
27.2
 20
19.0913831012
 30
0.0
 40
2.5
  1
Prod.-Nr.
  7
SEACAD_seiso_ttf
 11
27.2
 21
21.5913831012
 31
0.0
100
AcDbText
 73
     3
  0
TEXT
  5
139
330
1F
100
AcDbEntity
  8
MDS_Layer_94
  6
Continuous
 62
     7
100
AcDbText
 10
27.266739169
 20
26.5531113353
 30
0.0
 40
2.5
  1
Gepruft
  7
SEACAD_seiso_ttf
 11
27.266739169
 21
29.0531113353
 31
0.0
100
AcDbText
 73
     3
  0
TEXT
  5
13A
330
1F
100
AcDbEntity
  8
MDS_Layer_94
  6
Continuous
 62
     7
100
AcDbText
 10
9.468641411
 20
41.4915690176
 30
0.0
 40
2.5
  1
Masstab
  7
SEACAD_seiso_ttf
 11
9.468641411
 21
43.9915690176
 31
0.0
100
AcDbText
 73
     3
  0
TEXT
  5
13B
330
1F
100
AcDbEntity
  8
MDS_Layer_94
  6
Continuous
 62
     7
100
AcDbText
 10
27.2010851897
 20
36.4228985666
 30
0.0
 40
2.5
  1
Datum
  7
SEACAD_seiso_ttf
 11
27.2010851897
 21
38.9228985666
 31
0.0
100
AcDbText
 73
     3
  0
TEXT
  5
13C
330
1F
100
AcDbEntity
  8
MDS_Layer_94
  6
Continuous
 62
     7
100
AcDbText
 10
27.2
 20
41.4250689461
 30
0.0
 40
2.5
  1
And.-Mitt.
  7
SEACAD_seiso_ttf
 11
27.2
 21
43.9250689461
 31
0.0
100
AcDbText
 73
     3
  0
LINE
  5
13D
330
1F
100
AcDbEntity
  8
MDS_Layer_90
  6
Continuous
 62
     7
100
AcDbLine
 10
205.0
 20
291.0
 30
0.0
 11
205.0
 21
45.0
 31
0.0
  0
ENDSEC
  0
SECTION
  2
OBJECTS
  0
DICTIONARY
  5
C
330
0
100
AcDbDictionary
281
     1
  3
ACAD_GROUP
350
D
  3
ACAD_LAYOUT
350
1A
  3
ACAD_MLINESTYLE
350
17
  3
ACAD_PLOTSETTINGS
350
19
  3
ACAD_PLOTSTYLENAME
350
E
  0
DICTIONARY
  5
D
102
{ACAD_REACTORS
330
C
102
}
330
C
100
AcDbDictionary
281
     1
  0
DICTIONARY
  5
1A
102
{ACAD_REACTORS
330
C
102
}
330
C
100
AcDbDictionary
281
     1
  3
Layout1
350
1E
  3
Model
350
22
  0
DICTIONARY
  5
17
102
{ACAD_REACTORS
330
C
102
}
330
C
100
AcDbDictionary
281
     1
  3
Standard
350
18
  0
DICTIONARY
  5
19
102
{ACAD_REACTORS
330
C
102
}
330
C
100
AcDbDictionary
281
     1
  0
ACDBDICTIONARYWDFLT
  5
E
102
{ACAD_REACTORS
330
C
102
}
330
C
100
AcDbDictionary
281
     1
  3
Normal
350
F
100
AcDbDictionaryWithDefault
340
F
  0
LAYOUT
  5
1E
102
{ACAD_REACTORS
330
1A
102
}
330
1A
100
AcDbPlotSettings
  1

  2
none_device
  4

  6

 40
0.0
 41
0.0
 42
0.0
 43
0.0
 44
0.0
 45
0.0
 46
0.0
 47
0.0
 48
0.0
 49
0.0
140
0.0
141
0.0
142
1.0
143
1.0
 70
   688
 72
     0
 73
     0
 74
     5
  7

 75
    16
147
1.0
148
0.0
149
0.0
100
AcDbLayout
  1
Layout1
 70
     1
 71
     1
 10
0.0
 20
0.0
 11
210.0
 21
297.0
 12
0.0
 22
0.0
 32
0.0
 14
0.0
 24
0.0
 34
0.0
 15
210.0
 25
297.0
 35
0.0
146
0.0
 13
0.0
 23
0.0
 33
0.0
 16
1.0
 26
0.0
 36
0.0
 17
0.0
 27
1.0
 37
0.0
 76
     0
330
1B
  0
LAYOUT
  5
22
102
{ACAD_REACTORS
330
1A
102
}
330
1A
100
AcDbPlotSettings
  1

  2
none_device
  4

  6

 40
0.0
 41
0.0
 42
0.0
 43
0.0
 44
0.0
 45
0.0
 46
0.0
 47
0.0
 48
0.0
 49
0.0
140
0.0
141
0.0
142
1.0
143
1.0
 70
  1712
 72
     0
 73
     0
 74
     0
  7

 75
     0
147
1.0
148
0.0
149
0.0
100
AcDbLayout
  1
Model
 70
     1
 71
     0
 10
0.0
 20
0.0
 11
210.0
 21
297.0
 12
0.0
 22
0.0
 32
0.0
 14
0.0
 24
0.0
 34
0.0
 15
210.0
 25
297.0
 35
0.0
146
0.0
 13
0.0
 23
0.0
 33
0.0
 16
1.0
 26
0.0
 36
0.0
 17
0.0
 27
1.0
 37
0.0
 76
     0
330
1F
  0
MLINESTYLE
  5
18
102
{ACAD_REACTORS
330
17
102
}
330
17
100
AcDbMlineStyle
  2
Standard
 70
     0
  3

 62
   256
 51
90.0
 52
90.0
 71
     2
 49
0.5
 62
   256
  6
BYLAYER
 49
-0.5
 62
   256
  6
BYLAYER
  0
ACDBPLACEHOLDER
  5
F
102
{ACAD_REACTORS
330
E
102
}
330
E
  0
ENDSEC
  0
EOF
