  0
SECTION
  2
HEADER
  9
$ACADVER
  1
AC1009
  9
$INSBASE
 10
0.0
 20
0.0
 30
0.0
  9
$EXTMIN
 10
30.531657096120401
 20
25.257594784945699
 30
0.0
  9
$EXTMAX
 10
2011.136518323533
 20
1419.8238051759131
 30
0.0
  9
$LIMMIN
 10
0.0
 20
0.0
  9
$LIMMAX
 10
2100.0
 20
1465.0
  9
$ORTHOMODE
 70
     1
  9
$REGENMODE
 70
     1
  9
$FILLMODE
 70
     1
  9
$QTEXTMODE
 70
     0
  9
$MIRRTEXT
 70
     1
  9
$DRAGMODE
 70
     2
  9
$LTSCALE
 40
1.0
  9
$OSMODE
 70
  1007
  9
$ATTMODE
 70
     1
  9
$TEXTSIZE
 40
25.0
  9
$TRACEWID
 40
1.0
  9
$TEXTSTYLE
  7
STANDARD
  9
$CLAYER
  8
0
  9
$CELTYPE
  6
CONTINUOUS
  9
$CECOLOR
 62
     0
  9
$DIMSCALE
 40
0.0
  9
$DIMASZ
 40
13.0
  9
$DIMEXO
 40
0.0625
  9
$DIMDLI
 40
0.38
  9
$DIMRND
 40
0.0
  9
$DIMDLE
 40
0.0
  9
$DIMEXE
 40
0.18
  9
$DIMTP
 40
2.0
  9
$DIMTM
 40
1.0
  9
$DIMTXT
 40
15.0
  9
$DIMCEN
 40
0.0
  9
$DIMTSZ
 40
0.0
  9
$DIMTOL
 70
     0
  9
$DIMLIM
 70
     0
  9
$DIMTIH
 70
     0
  9
$DIMTOH
 70
     0
  9
$DIMSE1
 70
     0
  9
$DIMSE2
 70
     0
  9
$DIMTAD
 70
     1
  9
$DIMZIN
 70
     8
  9
$DIMBLK
  1

  9
$DIMASO
 70
     1
  9
$DIMSHO
 70
     1
  9
$DIMPOST
  1

  9
$DIMAPOST
  1

  9
$DIMALT
 70
     0
  9
$DIMALTD
 70
     2
  9
$DIMALTF
 40
25.399999999999999
  9
$DIMLFAC
 40
1.0
  9
$DIMTOFL
 70
     0
  9
$DIMTVP
 40
0.0
  9
$DIMTIX
 70
     0
  9
$DIMSOXD
 70
     0
  9
$DIMSAH
 70
     0
  9
$DIMBLK1
  1

  9
$DIMBLK2
  1

  9
$DIMSTYLE
  2
STANDARD
  9
$DIMCLRD
 70
     2
  9
$DIMCLRE
 70
     2
  9
$DIMCLRT
 70
     3
  9
$DIMTFAC
 40
1.0
  9
$DIMGAP
 40
5.0
  9
$LUNITS
 70
     2
  9
$LUPREC
 70
     4
  9
$SKETCHINC
 40
1.0
  9
$FILLETRAD
 40
0.2
  9
$AUNITS
 70
     0
  9
$AUPREC
 70
     0
  9
$MENU
  1
.
  9
$ELEVATION
 40
0.0
  9
$PELEVATION
 40
0.0
  9
$THICKNESS
 40
0.0
  9
$LIMCHECK
 70
     0
  9
$BLIPMODE
 70
     0
  9
$CHAMFERA
 40
10.0
  9
$CHAMFERB
 40
10.0
  9
$SKPOLY
 70
     0
  9
$TDCREATE
 40
2450606.4402920138
  9
$TDUPDATE
 40
2457211.634714942
  9
$TDINDWG
 40
6.7605620369999997
  9
$TDUSRTIMER
 40
6.7605616318999999
  9
$USRTIMER
 70
     1
  9
$ANGBASE
 50
0.0
  9
$ANGDIR
 70
     0
  9
$PDMODE
 70
     0
  9
$PDSIZE
 40
0.0
  9
$PLINEWID
 40
0.0
  9
$COORDS
 70
     1
  9
$SPLFRAME
 70
     0
  9
$SPLINETYPE
 70
     6
  9
$SPLINESEGS
 70
     8
  9
$ATTDIA
 70
     0
  9
$ATTREQ
 70
     0
  9
$HANDLING
 70
     1
  9
$HANDSEED
  5
1246D
  9
$SURFTAB1
 70
     6
  9
$SURFTAB2
 70
     6
  9
$SURFTYPE
 70
     6
  9
$SURFU
 70
     6
  9
$SURFV
 70
     6
  9
$UCSNAME
  2

  9
$UCSORG
 10
0.0
 20
0.0
 30
0.0
  9
$UCSXDIR
 10
1.0
 20
0.0
 30
0.0
  9
$UCSYDIR
 10
0.0
 20
1.0
 30
0.0
  9
$PUCSNAME
  2

  9
$PUCSORG
 10
0.0
 20
0.0
 30
0.0
  9
$PUCSXDIR
 10
1.0
 20
0.0
 30
0.0
  9
$PUCSYDIR
 10
0.0
 20
1.0
 30
0.0
  9
$USERI1
 70
     0
  9
$USERI2
 70
     0
  9
$USERI3
 70
     0
  9
$USERI4
 70
     0
  9
$USERI5
 70
     0
  9
$USERR1
 40
0.0
  9
$USERR2
 40
0.0
  9
$USERR3
 40
0.0
  9
$USERR4
 40
0.0
  9
$USERR5
 40
0.0
  9
$WORLDVIEW
 70
     1
  9
$SHADEDGE
 70
     3
  9
$SHADEDIF
 70
    70
  9
$TILEMODE
 70
     1
  9
$MAXACTVP
 70
    16
  9
$PLIMCHECK
 70
     0
  9
$PEXTMIN
 10
1.0499999523162831
 20
0.7999999523162847
 30
0.0
  9
$PEXTMAX
 10
9.4499995708465576
 20
7.1999995708465567
 30
0.0
  9
$PLIMMIN
 10
-0.2500002402958907
 20
-0.2499999962453767
  9
$PLIMMAX
 10
10.74999951940822
 20
8.2499997634587316
  9
$UNITMODE
 70
     0
  9
$VISRETAIN
 70
     0
  9
$PLINEGEN
 70
     0
  9
$PSLTSCALE
 70
     1
  0
ENDSEC
  0
SECTION
  2
TABLES
  0
TABLE
  2
VPORT
 70
     1
  0
VPORT
  2
*ACTIVE
 70
     0
 10
0.0
 20
0.0
 11
1.0
 21
1.0
 12
1020.760350314388
 22
722.55241733981848
 13
0.0
 23
0.0
 14
1.0
 24
1.0
 15
5.0
 25
5.0
 16
0.0
 26
0.0
 36
1.0
 17
0.0
 27
0.0
 37
0.0
 40
1405.612538573087
 41
2.3416230366492141
 42
50.0
 43
0.0
 44
0.0
 50
0.0
 51
0.0
 71
     0
 72
   100
 73
     1
 74
     1
 75
     0
 76
     0
 77
     0
 78
     0
  0
ENDTAB
  0
TABLE
  2
LTYPE
 70
     4
  0
LTYPE
  2
CONTINUOUS
 70
     0
  3
Solid line
 72
    65
 73
     0
 40
0.0
  0
LTYPE
  2
CENTER
 70
     0
  3
____ _ ____ _ ____ _ ____ _ ____ _ ____ _ ____ 
 72
    65
 73
     4
 40
2.0
 49
1.25
 49
-0.25
 49
0.25
 49
-0.25
  0
LTYPE
  2
DASHED2
 70
     0
  3
_ _ _ _ _ _ _ _ _ _ _ _ _ _ _ _ _ _ _ _ _ _ 
 72
    65
 73
     2
 40
0.375
 49
0.25
 49
-0.125
  0
LTYPE
  2
HIDDEN
 70
     0
  3
_ _ _ _ _ _ _ _ _ _ _ _ _ _ _ _ _ _ _ _ _ _ _
 72
    65
 73
     2
 40
0.375
 49
0.25
 49
-0.125
  0
ENDTAB
  0
TABLE
  2
LAYER
 70
     7
  0
LAYER
  2
0
 70
     0
 62
     7
  6
CONTINUOUS
  0
LAYER
  2
DEFPOINTS
 70
     0
 62
     7
  6
CONTINUOUS
  0
LAYER
  2
GAWA
 70
     0
 62
     2
  6
CONTINUOUS
  0
LAYER
  2
HYO
 70
     0
 62
     4
  6
CONTINUOUS
  0
LAYER
  2
ASHADE
 70
     0
 62
     7
  6
CONTINUOUS
  0
LAYER
  2
SCALE
 70
     0
 62
     4
  6
CONTINUOUS
  0
LAYER
  2
GAIKEI
 70
     0
 62
     2
  6
CONTINUOUS
  0
ENDTAB
  0
TABLE
  2
STYLE
 70
     2
  0
STYLE
  2
STANDARD
 70
     0
 40
0.0
 41
1.0
 50
0.0
 71
     0
 42
25.0
  3
txt.shx
  4
bigfont.shx
  0
STYLE
  2
MSP明朝
 70
     0
 40
12.0
 41
1.0
 50
0.0
 71
     0
 42
4.0
  3
txt
  4

  0
ENDTAB
  0
TABLE
  2
VIEW
 70
     2
  0
ENDTAB
  0
TABLE
  2
UCS
 70
     0
  0
ENDTAB
  0
TABLE
  2
APPID
 70
    16
  0
APPID
  2
ACAD
 70
     0
  0
APPID
  2
AVE_RENDER
 70
     0
  0
APPID
  2
AVE_ENTITY_MATERIAL
 70
     0
  0
APPID
  2
AVE_FINISH
 70
     0
  0
APPID
  2
AVE_MATERIAL
 70
     0
  0
APPID
  2
AVE_GLOBAL
 70
     0
  0
APPID
  2
ACAD_PSEXT
 70
     0
  0
APPID
  2
ACAECLAYERSTANDARD
 70
     0
  0
APPID
  2
ACAD_DSTYLE_DIMRADIAL_EXTENSION
 70
     0
  0
APPID
  2
ACAD_EXEMPT_FROM_CAD_STANDARDS
 70
     0
  0
APPID
  2
CIR2ARC
 70
     0
  0
APPID
  2
GRADIENTCOLOR1ACI
 70
     0
  0
APPID
  2
GRADIENTCOLOR2ACI
 70
     0
  0
APPID
  2
ACADANNOTATIVE
 70
     0
  0
APPID
  2
ACAD_MLEADERVER
 70
     0
  0
APPID
  2
CONTENTBLOCKICON
 70
     0
  0
ENDTAB
  0
TABLE
  2
DIMSTYLE
 70
     1
  0
DIMSTYLE
  2
STANDARD
 70
     0
  3

  4

  5

  6

  7

 40
1.0
 41
0.18
 42
0.0625
 43
0.38
 44
0.18
 45
0.0
 46
0.0
 47
0.0
 48
0.0
140
0.18
141
0.09
142
0.0
143
25.399999999999999
144
1.0
145
0.0
146
1.0
147
0.09
 71
     0
 72
     0
 73
     1
 74
     1
 75
     0
 76
     0
 77
     0
 78
     0
170
     0
171
     2
172
     0
173
     0
174
     0
175
     0
176
     0
177
     0
178
     0
  0
ENDTAB
  0
ENDSEC
  0
SECTION
  2
BLOCKS
  0
BLOCK
  8
0
  2
$MODEL_SPACE
 70
     0
 10
0.0
 20
0.0
 30
0.0
  3
$MODEL_SPACE
  1

  0
ENDBLK
  5
1C
  8
0
  0
BLOCK
 67
     1
  8
0
  2
$PAPER_SPACE
 70
     0
 10
0.0
 20
0.0
 30
0.0
  3
$PAPER_SPACE
  1

  0
ENDBLK
  5
19
 67
     1
  8
0
  0
BLOCK
  8
ASHADE
  2
AVE_RENDER
 70
     0
 10
0.0
 20
0.0
 30
0.0
  3
AVE_RENDER
  1
AVE_RENDER
  0
ENDBLK
  5
AC5A
  8
0
  0
BLOCK
  8
ASHADE
  2
AVE_GLOBAL
 70
     0
 10
0.0
 20
0.0
 30
0.0
  3
AVE_GLOBAL
  1
AVE_GLOBAL
  0
ENDBLK
  5
AC68
  8
0
  0
BLOCK
  8
0
 62
     0
  2
社名
 70
     0
 10
0.0
 20
0.0
 30
0.0
  3
社名
  1

  0
TEXT
  5
B90E
  8
HYO
 62
     3
 10
-1.2810730868513911
 20
-8.1570012301590396
 30
0.0
 40
16.0
  1
㈱
  7
MSP明朝
  0
TEXT
  5
B90F
  8
HYO
 62
     3
 10
26.17502231692562
 20
-10.497256279620441
 30
0.0
 40
21.232313514843749
  1
NITTO CERA
  7
MSP明朝
  0
ENDBLK
  5
B910
  8
0
 62
     0
  0
BLOCK
  8
0
  2
YAZ1
 70
     0
 10
0.0
 20
0.0
 30
0.0
  3
YAZ1
  1

  0
LINE
  5
BB60
  8
0
 62
     0
 10
-1.0
 20
0.0
 30
0.0
 11
0.0
 21
0.0
 31
0.0
  0
LINE
  5
BB61
  8
0
 62
     0
 10
0.0
 20
0.0
 30
0.0
 11
-1.0
 21
0.2679491924311037
 31
0.0
  0
LINE
  5
BB62
  8
0
 62
     0
 10
0.0
 20
0.0
 30
0.0
 11
-1.0
 21
-0.2679491924311037
 31
0.0
  0
ENDBLK
  5
BB63
  8
0
  0
BLOCK
  8
0
 62
     0
  2
*D4
 70
     1
 10
0.0
 20
0.0
 30
0.0
  3
*D4
  1

  0
LINE
  5
11B89
  8
SCALE
  6
CONTINUOUS
 62
     2
 10
850.74649415748161
 20
1223.5187726313559
 30
0.0
 11
1024.4778009075169
 21
1223.5187726313559
 31
0.0
  0
LINE
  5
11B8A
  8
SCALE
  6
CONTINUOUS
 62
     2
 10
843.74649415748161
 20
693.51877263135623
 30
0.0
 11
1024.4778009075169
 21
693.51877263135623
 31
0.0
  0
LINE
  5
11B8B
  8
SCALE
  6
CONTINUOUS
 62
     2
 10
1024.2978009075171
 20
1210.5187726313559
 30
0.0
 11
1024.2978009075171
 21
706.51877263135623
 31
0.0
  0
SOLID
  5
11B8C
  8
SCALE
  6
CONTINUOUS
 62
     2
 10
1022.13113424085
 20
1210.5187726313559
 30
0.0
 11
1026.464467574184
 21
1210.5187726313559
 31
0.0
 12
1024.2978009075171
 22
1223.5187726313559
 32
0.0
 13
1024.2978009075171
 23
1223.5187726313559
 33
0.0
  0
SOLID
  5
11B8D
  8
SCALE
  6
CONTINUOUS
 62
     2
 10
1022.13113424085
 20
706.51877263135623
 30
0.0
 11
1026.464467574184
 21
706.51877263135623
 31
0.0
 12
1024.2978009075171
 22
693.51877263135623
 32
0.0
 13
1024.2978009075171
 23
693.51877263135623
 33
0.0
  0
TEXT
  8
SCALE
  40
15
  5
11C3D
  62
3
  72
0
  71
0
 10
1011.80
 20
939.304
 30
0.000000
  1
530
  0
POINT
  5
11B8F
  8
DEFPOINTS
  6
CONTINUOUS
 62
     0
 10
850.68399415748172
 20
1223.5187726313559
 30
0.0
  0
POINT
  5
11B90
  8
DEFPOINTS
  6
CONTINUOUS
 62
     0
 10
843.68399415748172
 20
693.51877263135623
 30
0.0
  0
POINT
  5
11B91
  8
DEFPOINTS
  6
CONTINUOUS
 62
     0
 10
1024.2978009075171
 20
693.51877263135623
 30
0.0
  0
ENDBLK
  5
F4EC
  8
0
 62
     0
  0
BLOCK
  8
0
 62
     0
  2
*D5
 70
     1
 10
0.0
 20
0.0
 30
0.0
  3
*D5
  1

  0
LINE
  5
11B92
  8
SCALE
  6
CONTINUOUS
 62
     2
 10
323.68399415748172
 20
1220.5812726313559
 30
0.0
 11
323.68399415748172
 21
1308.9629339323019
 31
0.0
  0
LINE
  5
11B93
  8
SCALE
  6
CONTINUOUS
 62
     2
 10
853.68399415748161
 20
1220.5812726313559
 30
0.0
 11
853.68399415748161
 21
1308.9629339323019
 31
0.0
  0
LINE
  5
11B94
  8
SCALE
  6
CONTINUOUS
 62
     2
 10
336.68399415748172
 20
1308.7829339323021
 30
0.0
 11
840.68399415748172
 21
1308.7829339323021
 31
0.0
  0
SOLID
  5
11B95
  8
SCALE
  6
CONTINUOUS
 62
     2
 10
336.68399415748172
 20
1310.9496005989679
 30
0.0
 11
336.68399415748172
 21
1306.6162672656351
 31
0.0
 12
323.68399415748172
 22
1308.7829339323021
 32
0.0
 13
323.68399415748172
 23
1308.7829339323021
 33
0.0
  0
SOLID
  5
11B96
  8
SCALE
  6
CONTINUOUS
 62
     2
 10
840.68399415748172
 20
1310.9496005989679
 30
0.0
 11
840.68399415748172
 21
1306.6162672656351
 31
0.0
 12
853.68399415748161
 22
1308.7829339323021
 32
0.0
 13
853.68399415748161
 23
1308.7829339323021
 33
0.0
  0
TEXT
  8
SCALE
  40
15
  5
11C3E
  62
3
  72
0
  71
0
 10
587.847
 20
1301.78
 30
0.000000
  1
530
  0
POINT
  5
11B98
  8
DEFPOINTS
  6
CONTINUOUS
 62
     0
 10
323.68399415748172
 20
1220.5187726313559
 30
0.0
  0
POINT
  5
11B99
  8
DEFPOINTS
  6
CONTINUOUS
 62
     0
 10
853.68399415748161
 20
1220.5187726313559
 30
0.0
  0
POINT
  5
11B9A
  8
DEFPOINTS
  6
CONTINUOUS
 62
     0
 10
853.68399415748161
 20
1308.7829339323021
 30
0.0
  0
ENDBLK
  5
F4F9
  8
0
 62
     0
  0
BLOCK
  8
0
 62
     0
  2
*D6
 70
     1
 10
0.0
 20
0.0
 30
0.0
  3
*D6
  1

  0
LINE
  5
11B9B
  8
SCALE
  6
CONTINUOUS
 62
     2
 10
1264.6839941574831
 20
1213.581272631357
 30
0.0
 11
1264.6839941574831
 21
1308.9629339323019
 31
0.0
  0
LINE
  5
11B9C
  8
SCALE
  6
CONTINUOUS
 62
     2
 10
1404.680085776736
 20
1220.7343576046039
 30
0.0
 11
1404.680085776736
 21
1308.9629339323019
 31
0.0
  0
LINE
  5
11B9D
  8
SCALE
  6
CONTINUOUS
 62
     2
 10
1277.6839941574831
 20
1308.7829339323021
 30
0.0
 11
1391.680085776736
 21
1308.7829339323021
 31
0.0
  0
SOLID
  5
11B9E
  8
SCALE
  6
CONTINUOUS
 62
     2
 10
1277.6839941574831
 20
1310.9496005989679
 30
0.0
 11
1277.6839941574831
 21
1306.6162672656351
 31
0.0
 12
1264.6839941574831
 22
1308.7829339323021
 32
0.0
 13
1264.6839941574831
 23
1308.7829339323021
 33
0.0
  0
SOLID
  5
11B9F
  8
SCALE
  6
CONTINUOUS
 62
     2
 10
1391.680085776736
 20
1310.9496005989679
 30
0.0
 11
1391.680085776736
 21
1306.6162672656351
 31
0.0
 12
1404.680085776736
 22
1308.7829339323021
 32
0.0
 13
1404.680085776736
 23
1308.7829339323021
 33
0.0
  0
TEXT
  8
SCALE
  40
15
  5
11C3F
  62
3
  72
0
  71
0
 10
1334.68
 20
1301.78
 30
0.000000
  1
140
  0
POINT
  5
11BA1
  8
DEFPOINTS
  6
CONTINUOUS
 62
     0
 10
1264.6839941574831
 20
1213.518772631357
 30
0.0
  0
POINT
  5
11BA2
  8
DEFPOINTS
  6
CONTINUOUS
 62
     0
 10
1404.680085776736
 20
1220.6718576046039
 30
0.0
  0
POINT
  5
11BA3
  8
DEFPOINTS
  6
CONTINUOUS
 62
     0
 10
1404.680085776736
 20
1308.7829339323021
 30
0.0
  0
ENDBLK
  5
F506
  8
0
 62
     0
  0
BLOCK
  8
0
 62
     0
  2
*D7
 70
     1
 10
0.0
 20
0.0
 30
0.0
  3
*D7
  1

  0
LINE
  5
11BA4
  8
SCALE
  6
CONTINUOUS
 62
     2
 10
1401.7464941574819
 20
1223.518772631357
 30
0.0
 11
1506.6692391239751
 21
1223.518772631357
 31
0.0
  0
LINE
  5
11BA5
  8
SCALE
  6
CONTINUOUS
 62
     2
 10
1404.7464941574831
 20
1008.518772631356
 30
0.0
 11
1506.6692391239751
 21
1008.518772631356
 31
0.0
  0
LINE
  5
11BA6
  8
SCALE
  6
CONTINUOUS
 62
     2
 10
1506.489239123975
 20
1210.518772631357
 30
0.0
 11
1506.489239123975
 21
1021.518772631356
 31
0.0
  0
SOLID
  5
11BA7
  8
SCALE
  6
CONTINUOUS
 62
     2
 10
1504.3225724573081
 20
1210.518772631357
 30
0.0
 11
1508.6559057906411
 21
1210.518772631357
 31
0.0
 12
1506.489239123975
 22
1223.518772631357
 32
0.0
 13
1506.489239123975
 23
1223.518772631357
 33
0.0
  0
SOLID
  5
11BA8
  8
SCALE
  6
CONTINUOUS
 62
     2
 10
1504.3225724573081
 20
1021.518772631356
 30
0.0
 11
1508.6559057906411
 21
1021.518772631356
 31
0.0
 12
1506.489239123975
 22
1008.518772631356
 32
0.0
 13
1506.489239123975
 23
1008.518772631356
 33
0.0
  0
TEXT
  8
SCALE
  40
15
  5
11C40
  62
3
  72
0
  71
0
 10
1493.99
 20
1096.52
 30
0.000000
  1
215
  0
POINT
  5
11BAA
  8
DEFPOINTS
  6
CONTINUOUS
 62
     0
 10
1401.6839941574819
 20
1223.518772631357
 30
0.0
  0
POINT
  5
11BAB
  8
DEFPOINTS
  6
CONTINUOUS
 62
     0
 10
1404.6839941574831
 20
1008.518772631356
 30
0.0
  0
POINT
  5
11BAC
  8
DEFPOINTS
  6
CONTINUOUS
 62
     0
 10
1506.489239123975
 20
1008.518772631356
 30
0.0
  0
ENDBLK
  5
F513
  8
0
 62
     0
  0
BLOCK
  8
0
 62
     0
  2
*D8
 70
     1
 10
0.0
 20
0.0
 30
0.0
  3
*D8
  1

  0
LINE
  5
11BAD
  8
SCALE
  6
CONTINUOUS
 62
     2
 10
1404.7464941574831
 20
1030.5187726313559
 30
0.0
 11
1446.742869178471
 21
1030.5187726313559
 31
0.0
  0
LINE
  5
11BAE
  8
SCALE
  6
CONTINUOUS
 62
     2
 10
1404.7464941574831
 20
986.51877263135555
 30
0.0
 11
1446.742869178471
 21
986.51877263135555
 31
0.0
  0
LINE
  5
11BAF
  8
SCALE
  6
CONTINUOUS
 62
     2
 10
1446.5628691784709
 20
973.51877263135543
 30
0.0
 11
1446.5628691784709
 21
960.51877263135555
 31
0.0
  0
LINE
  5
11BB0
  8
SCALE
  6
CONTINUOUS
 62
     2
 10
1446.5628691784709
 20
1043.5187726313559
 30
0.0
 11
1446.5628691784709
 21
1108.518772631357
 31
0.0
  0
SOLID
  5
11BB1
  8
SCALE
  6
CONTINUOUS
 62
     2
 10
1444.3962025118051
 20
973.51877263135543
 30
0.0
 11
1448.7295358451379
 21
973.51877263135543
 31
0.0
 12
1446.5628691784709
 22
986.51877263135555
 32
0.0
 13
1446.5628691784709
 23
986.51877263135555
 33
0.0
  0
SOLID
  5
11BB2
  8
SCALE
  6
CONTINUOUS
 62
     2
 10
1444.3962025118051
 20
1043.5187726313559
 30
0.0
 11
1448.7295358451379
 21
1043.5187726313559
 31
0.0
 12
1446.5628691784709
 22
1030.5187726313559
 32
0.0
 13
1446.5628691784709
 23
1030.5187726313559
 33
0.0
  0
TEXT
  8
SCALE
  40
15
  5
11C41
  62
3
  72
0
  71
0
 10
1434.06
 20
1064.02
 30
0.000000
  1
%%c44
  0
POINT
  5
11BB4
  8
DEFPOINTS
  6
CONTINUOUS
 62
     0
 10
1404.6839941574831
 20
1030.5187726313559
 30
0.0
  0
POINT
  5
11BB5
  8
DEFPOINTS
  6
CONTINUOUS
 62
     0
 10
1404.6839941574831
 20
986.51877263135555
 30
0.0
  0
POINT
  5
11BB6
  8
DEFPOINTS
  6
CONTINUOUS
 62
     0
 10
1446.5628691784709
 20
986.51877263135555
 30
0.0
  0
ENDBLK
  5
F529
  8
0
 62
     0
  0
BLOCK
  8
0
 62
     0
  2
*D9
 70
     1
 10
0.0
 20
0.0
 30
0.0
  3
*D9
  1

  0
LINE
  5
11BB7
  8
SCALE
  6
CONTINUOUS
 62
     2
 10
810.68399415744898
 20
997.72627263136872
 30
0.0
 11
810.68399415744898
 21
964.68071771907739
 31
0.0
  0
LINE
  5
11BB8
  8
SCALE
  6
CONTINUOUS
 62
     2
 10
826.68399415748172
 20
997.72627263136872
 30
0.0
 11
826.68399415748172
 21
964.68071771907739
 31
0.0
  0
LINE
  5
11BB9
  8
SCALE
  6
CONTINUOUS
 62
     2
 10
797.68399415744909
 20
964.86071771907746
 30
0.0
 11
784.68399415744909
 21
964.86071771907746
 31
0.0
  0
LINE
  5
11BBA
  8
SCALE
  6
CONTINUOUS
 62
     2
 10
839.68399415748183
 20
964.86071771907746
 30
0.0
 11
882.68399415748172
 21
964.86071771907746
 31
0.0
  0
SOLID
  5
11BBB
  8
SCALE
  6
CONTINUOUS
 62
     2
 10
797.68399415744909
 20
967.02738438574397
 30
0.0
 11
797.68399415744909
 21
962.69405105241071
 31
0.0
 12
810.68399415744898
 22
964.86071771907746
 32
0.0
 13
810.68399415744898
 23
964.86071771907746
 33
0.0
  0
SOLID
  5
11BBC
  8
SCALE
  6
CONTINUOUS
 62
     2
 10
839.68399415748183
 20
967.02738438574397
 30
0.0
 11
839.68399415748183
 21
962.69405105241071
 31
0.0
 12
826.68399415748172
 22
964.86071771907746
 32
0.0
 13
826.68399415748172
 23
964.86071771907746
 33
0.0
  0
TEXT
  8
SCALE
  40
15
  5
11C42
  62
3
  72
0
  71
0
 10
867.684
 20
957.861
 30
0.000000
  1
16
  0
POINT
  5
11BBE
  8
DEFPOINTS
  6
CONTINUOUS
 62
     0
 10
810.68399415744898
 20
997.78877263136872
 30
0.0
  0
POINT
  5
11BBF
  8
DEFPOINTS
  6
CONTINUOUS
 62
     0
 10
826.68399415748172
 20
997.78877263136872
 30
0.0
  0
POINT
  5
11BC0
  8
DEFPOINTS
  6
CONTINUOUS
 62
     0
 10
826.68399415748172
 20
964.86071771907746
 30
0.0
  0
ENDBLK
  5
F568
  8
0
 62
     0
  0
BLOCK
  8
0
 62
     0
  2
*D10
 70
     1
 10
0.0
 20
0.0
 30
0.0
  3
*D10
  1

  0
LINE
  5
11BC1
  8
SCALE
  6
CONTINUOUS
 62
     2
 10
818.62149415748081
 20
1027.788772631385
 30
0.0
 11
775.40219627582906
 21
1027.788772631385
 31
0.0
  0
LINE
  5
11BC2
  8
SCALE
  6
CONTINUOUS
 62
     2
 10
818.6214941574608
 20
989.78877263135269
 30
0.0
 11
775.40219627582906
 21
989.78877263135269
 31
0.0
  0
LINE
  5
11BC3
  8
SCALE
  6
CONTINUOUS
 62
     2
 10
775.58219627582901
 20
1040.788772631385
 30
0.0
 11
775.58219627582901
 21
1053.788772631385
 31
0.0
  0
LINE
  5
11BC4
  8
SCALE
  6
CONTINUOUS
 62
     2
 10
775.58219627582901
 20
976.78877263135257
 30
0.0
 11
775.58219627582901
 21
913.78877263135269
 31
0.0
  0
SOLID
  5
11BC5
  8
SCALE
  6
CONTINUOUS
 62
     2
 10
773.41552960916249
 20
1040.788772631385
 30
0.0
 11
777.74886294249575
 21
1040.788772631385
 31
0.0
 12
775.58219627582901
 22
1027.788772631385
 32
0.0
 13
775.58219627582901
 23
1027.788772631385
 33
0.0
  0
SOLID
  5
11BC6
  8
SCALE
  6
CONTINUOUS
 62
     2
 10
773.41552960916249
 20
976.78877263135257
 30
0.0
 11
777.74886294249575
 21
976.78877263135257
 31
0.0
 12
775.58219627582901
 22
989.78877263135269
 32
0.0
 13
775.58219627582901
 23
989.78877263135269
 33
0.0
  0
TEXT
  8
SCALE
  40
15
  5
11C43
  62
3
  72
0
  71
0
 10
763.082
 20
911.789
 30
0.000000
  1
38
  0
POINT
  5
11BC8
  8
DEFPOINTS
  6
CONTINUOUS
 62
     0
 10
818.68399415748081
 20
1027.788772631385
 30
0.0
  0
POINT
  5
11BC9
  8
DEFPOINTS
  6
CONTINUOUS
 62
     0
 10
818.68399415746069
 20
989.78877263135269
 30
0.0
  0
POINT
  5
11BCA
  8
DEFPOINTS
  6
CONTINUOUS
 62
     0
 10
775.58219627582901
 20
989.78877263135269
 30
0.0
  0
ENDBLK
  5
F576
  8
0
 62
     0
  0
BLOCK
  8
0
 62
     0
  2
*D11
 70
     1
 10
0.0
 20
0.0
 30
0.0
  3
*D11
  1

  0
LINE
  5
11BCB
  8
SCALE
  6
CONTINUOUS
 62
     2
 10
358.684885447422
 20
360.02239936017048
 30
0.0
 11
358.684885447422
 21
250.96300011367799
 31
0.0
  0
LINE
  5
11BCC
  8
SCALE
  6
CONTINUOUS
 62
     2
 10
818.68303209977046
 20
359.84197474017577
 30
0.0
 11
818.68303209977046
 21
250.96300011367799
 31
0.0
  0
LINE
  5
11BCD
  8
SCALE
  6
CONTINUOUS
 62
     2
 10
371.684885447422
 20
251.143000113678
 30
0.0
 11
805.68303209977034
 21
251.143000113678
 31
0.0
  0
SOLID
  5
11BCE
  8
SCALE
  6
CONTINUOUS
 62
     2
 10
371.684885447422
 20
253.30966678034471
 30
0.0
 11
371.684885447422
 21
248.9763334470114
 31
0.0
 12
358.684885447422
 22
251.143000113678
 32
0.0
 13
358.684885447422
 23
251.143000113678
 33
0.0
  0
SOLID
  5
11BCF
  8
SCALE
  6
CONTINUOUS
 62
     2
 10
805.68303209977034
 20
253.30966678034471
 30
0.0
 11
805.68303209977034
 21
248.9763334470114
 31
0.0
 12
818.68303209977046
 22
251.143000113678
 32
0.0
 13
818.68303209977046
 23
251.143000113678
 33
0.0
  0
TEXT
  8
SCALE
  40
15
  5
11C44
  62
3
  72
0
  71
0
 10
590.185
 20
244.143
 30
0.000000
  1
460
  0
POINT
  5
11BD1
  8
DEFPOINTS
  6
CONTINUOUS
 62
     0
 10
358.684885447422
 20
360.08489936017048
 30
0.0
  0
POINT
  5
11BD2
  8
DEFPOINTS
  6
CONTINUOUS
 62
     0
 10
818.68303209977046
 20
359.90447474017577
 30
0.0
  0
POINT
  5
11BD3
  8
DEFPOINTS
  6
CONTINUOUS
 62
     0
 10
818.68303209977046
 20
251.143000113678
 30
0.0
  0
ENDBLK
  5
F58E
  8
0
 62
     0
  0
BLOCK
  8
0
 62
     0
  2
*D12
 70
     1
 10
0.0
 20
0.0
 30
0.0
  3
*D12
  1

  0
LINE
  5
11BD4
  8
SCALE
  6
CONTINUOUS
 62
     2
 10
844.67706509588959
 20
1008.518772631356
 30
0.0
 11
940.12121028564945
 21
1008.518772631356
 31
0.0
  0
LINE
  5
11BD5
  8
SCALE
  6
CONTINUOUS
 62
     2
 10
850.74649415748161
 20
1223.5187726313559
 30
0.0
 11
940.12121028564945
 21
1223.5187726313559
 31
0.0
  0
LINE
  5
11BD6
  8
SCALE
  6
CONTINUOUS
 62
     2
 10
939.94121028564939
 20
1021.518772631356
 30
0.0
 11
939.94121028564939
 21
1210.5187726313559
 31
0.0
  0
SOLID
  5
11BD7
  8
SCALE
  6
CONTINUOUS
 62
     2
 10
937.77454361898276
 20
1021.518772631356
 30
0.0
 11
942.10787695231613
 21
1021.518772631356
 31
0.0
 12
939.94121028564939
 22
1008.518772631356
 32
0.0
 13
939.94121028564939
 23
1008.518772631356
 33
0.0
  0
SOLID
  5
11BD8
  8
SCALE
  6
CONTINUOUS
 62
     2
 10
937.77454361898276
 20
1210.5187726313559
 30
0.0
 11
942.10787695231613
 21
1210.5187726313559
 31
0.0
 12
939.94121028564939
 22
1223.5187726313559
 32
0.0
 13
939.94121028564939
 23
1223.5187726313559
 33
0.0
  0
TEXT
  8
SCALE
  40
15
  5
11C45
  62
3
  72
0
  71
0
 10
927.441
 20
1099.34
 30
0.000000
  1
215
  0
POINT
  5
11BDA
  8
DEFPOINTS
  6
CONTINUOUS
 62
     0
 10
844.6145650958897
 20
1008.518772631356
 30
0.0
  0
POINT
  5
11BDB
  8
DEFPOINTS
  6
CONTINUOUS
 62
     0
 10
850.68399415748172
 20
1223.5187726313559
 30
0.0
  0
POINT
  5
11BDC
  8
DEFPOINTS
  6
CONTINUOUS
 62
     0
 10
939.94121028564939
 20
1223.5187726313559
 30
0.0
  0
ENDBLK
  5
F59B
  8
0
 62
     0
  0
BLOCK
  8
0
 62
     0
  2
*D13
 70
     1
 10
0.0
 20
0.0
 30
0.0
  3
*D13
  1

  0
LINE
  5
11BDD
  8
SCALE
  6
CONTINUOUS
 62
     2
 10
566.13442915991072
 20
449.73346546155892
 30
0.0
 11
566.13442915991072
 21
421.8127718454985
 31
0.0
  0
LINE
  5
11BDE
  8
SCALE
  6
CONTINUOUS
 62
     2
 10
611.1839941574799
 20
449.73346546155852
 30
0.0
 11
611.1839941574799
 21
421.8127718454985
 31
0.0
  0
LINE
  5
11BDF
  8
SCALE
  6
CONTINUOUS
 62
     2
 10
553.13442915991072
 20
421.99277184549851
 30
0.0
 11
540.13442915991072
 21
421.99277184549851
 31
0.0
  0
LINE
  5
11BE0
  8
SCALE
  6
CONTINUOUS
 62
     2
 10
624.1839941574799
 20
421.99277184549851
 30
0.0
 11
708.4339941574799
 21
421.99277184549851
 31
0.0
  0
SOLID
  5
11BE1
  8
SCALE
  6
CONTINUOUS
 62
     2
 10
553.13442915991072
 20
424.15943851216508
 30
0.0
 11
553.13442915991072
 21
419.82610517883182
 31
0.0
 12
566.13442915991072
 22
421.99277184549851
 32
0.0
 13
566.13442915991072
 23
421.99277184549851
 33
0.0
  0
SOLID
  5
11BE2
  8
SCALE
  6
CONTINUOUS
 62
     2
 10
624.1839941574799
 20
424.15943851216508
 30
0.0
 11
624.1839941574799
 21
419.82610517883182
 31
0.0
 12
611.1839941574799
 22
421.99277184549851
 32
0.0
 13
611.1839941574799
 23
421.99277184549851
 33
0.0
  0
TEXT
  8
SCALE
  40
15
  5
11C46
  62
3
  72
0
  71
0
 10
690.934
 20
414.993
 30
0.000000
  1
45
  0
POINT
  5
11BE4
  8
DEFPOINTS
  6
CONTINUOUS
 62
     0
 10
566.13442915991072
 20
449.79596546155892
 30
0.0
  0
POINT
  5
11BE5
  8
DEFPOINTS
  6
CONTINUOUS
 62
     0
 10
611.1839941574799
 20
449.79596546155852
 30
0.0
  0
POINT
  5
11BE6
  8
DEFPOINTS
  6
CONTINUOUS
 62
     0
 10
611.1839941574799
 20
421.99277184549851
 30
0.0
  0
ENDBLK
  5
F5B6
  8
0
 62
     0
  0
BLOCK
  8
0
 62
     0
  2
*D14
 70
     1
 10
0.0
 20
0.0
 30
0.0
  3
*D14
  1

  0
LINE
  5
11BE7
  8
SCALE
  6
CONTINUOUS
 62
     2
 10
818.74756401246577
 20
365.08489897551982
 30
0.0
 11
879.59381162610714
 21
365.08489897551982
 31
0.0
  0
LINE
  5
11BE8
  8
SCALE
  6
CONTINUOUS
 62
     2
 10
845.85810482886166
 20
353.0848989755201
 30
0.0
 11
879.59381162610714
 21
353.0848989755201
 31
0.0
  0
LINE
  5
11BE9
  8
SCALE
  6
CONTINUOUS
 62
     2
 10
879.41381162610719
 20
378.08489897551982
 30
0.0
 11
879.41381162610719
 21
391.08489897551982
 31
0.0
  0
LINE
  5
11BEA
  8
SCALE
  6
CONTINUOUS
 62
     2
 10
879.41381162610719
 20
340.08489897551999
 30
0.0
 11
879.41381162610719
 21
297.08489897551999
 31
0.0
  0
SOLID
  5
11BEB
  8
SCALE
  6
CONTINUOUS
 62
     2
 10
877.24714495944045
 20
378.08489897551982
 30
0.0
 11
881.58047829277382
 21
378.08489897551982
 31
0.0
 12
879.41381162610719
 22
365.08489897551982
 32
0.0
 13
879.41381162610719
 23
365.08489897551982
 33
0.0
  0
SOLID
  5
11BEC
  8
SCALE
  6
CONTINUOUS
 62
     2
 10
877.24714495944045
 20
340.08489897551999
 30
0.0
 11
881.58047829277382
 21
340.08489897551999
 31
0.0
 12
879.41381162610719
 22
353.0848989755201
 32
0.0
 13
879.41381162610719
 23
353.0848989755201
 33
0.0
  0
TEXT
  8
SCALE
  40
15
  5
11C47
  62
3
  72
0
  71
0
 10
866.914
 20
292.585
 30
0.000000
  1
12
  0
POINT
  5
11BEE
  8
DEFPOINTS
  6
CONTINUOUS
 62
     0
 10
818.68506401246566
 20
365.08489897551982
 30
0.0
  0
POINT
  5
11BEF
  8
DEFPOINTS
  6
CONTINUOUS
 62
     0
 10
845.79560482886154
 20
353.0848989755201
 30
0.0
  0
POINT
  5
11BF0
  8
DEFPOINTS
  6
CONTINUOUS
 62
     0
 10
879.41381162610719
 20
353.0848989755201
 30
0.0
  0
ENDBLK
  5
F5F2
  8
0
 62
     0
  0
BLOCK
  8
0
 62
     0
  2
*D15
 70
     1
 10
0.0
 20
0.0
 30
0.0
  3
*D15
  1

  0
LINE
  5
11BF1
  8
SCALE
  6
CONTINUOUS
 62
     2
 10
1359.6839941574819
 20
975.95627263135589
 30
0.0
 11
1359.6839941574819
 21
927.40188554808867
 31
0.0
  0
LINE
  5
11BF2
  8
SCALE
  6
CONTINUOUS
 62
     2
 10
1404.6839941574831
 20
982.55458276056595
 30
0.0
 11
1404.6839941574831
 21
927.40188554808867
 31
0.0
  0
LINE
  5
11BF3
  8
SCALE
  6
CONTINUOUS
 62
     2
 10
1346.6839941574819
 20
927.58188554808874
 30
0.0
 11
1333.6839941574819
 21
927.58188554808874
 31
0.0
  0
LINE
  5
11BF4
  8
SCALE
  6
CONTINUOUS
 62
     2
 10
1417.6839941574819
 20
927.58188554808874
 30
0.0
 11
1501.9339941574819
 21
927.58188554808874
 31
0.0
  0
SOLID
  5
11BF5
  8
SCALE
  6
CONTINUOUS
 62
     2
 10
1346.6839941574819
 20
929.74855221475525
 30
0.0
 11
1346.6839941574819
 21
925.41521888142199
 31
0.0
 12
1359.6839941574819
 22
927.58188554808874
 32
0.0
 13
1359.6839941574819
 23
927.58188554808874
 33
0.0
  0
SOLID
  5
11BF6
  8
SCALE
  6
CONTINUOUS
 62
     2
 10
1417.6839941574819
 20
929.74855221475525
 30
0.0
 11
1417.6839941574819
 21
925.41521888142199
 31
0.0
 12
1404.6839941574831
 22
927.58188554808874
 32
0.0
 13
1404.6839941574831
 23
927.58188554808874
 33
0.0
  0
TEXT
  8
SCALE
  40
15
  5
11C48
  62
3
  72
0
  71
0
 10
1484.43
 20
920.582
 30
0.000000
  1
45
  0
POINT
  5
11BF8
  8
DEFPOINTS
  6
CONTINUOUS
 62
     0
 10
1359.6839941574819
 20
976.018772631356
 30
0.0
  0
POINT
  5
11BF9
  8
DEFPOINTS
  6
CONTINUOUS
 62
     0
 10
1404.6839941574831
 20
982.61708276056595
 30
0.0
  0
POINT
  5
11BFA
  8
DEFPOINTS
  6
CONTINUOUS
 62
     0
 10
1404.6839941574831
 20
927.58188554808874
 30
0.0
  0
ENDBLK
  5
F600
  8
0
 62
     0
  0
BLOCK
  8
0
 62
     0
  2
*D16
 70
     1
 10
0.0
 20
0.0
 30
0.0
  3
*D16
  1

  0
LINE
  5
11BFB
  8
SCALE
  6
CONTINUOUS
 62
     2
 10
1625.1835058464239
 20
370.02239897551829
 30
0.0
 11
1625.1835058464239
 21
316.49603067173899
 31
0.0
  0
LINE
  5
11BFC
  8
SCALE
  6
CONTINUOUS
 62
     2
 10
1650.1844824685361
 20
370.02239897551829
 30
0.0
 11
1650.1844824685361
 21
316.49603067173899
 31
0.0
  0
LINE
  5
11BFD
  8
SCALE
  6
CONTINUOUS
 62
     2
 10
1612.1835058464239
 20
316.676030671739
 30
0.0
 11
1599.1835058464239
 21
316.676030671739
 31
0.0
  0
LINE
  5
11BFE
  8
SCALE
  6
CONTINUOUS
 62
     2
 10
1663.1844824685361
 20
316.676030671739
 30
0.0
 11
1711.1844824685361
 21
316.676030671739
 31
0.0
  0
SOLID
  5
11BFF
  8
SCALE
  6
CONTINUOUS
 62
     2
 10
1612.1835058464239
 20
318.84269733840569
 30
0.0
 11
1612.1835058464239
 21
314.50936400507231
 31
0.0
 12
1625.1835058464239
 22
316.676030671739
 32
0.0
 13
1625.1835058464239
 23
316.676030671739
 33
0.0
  0
SOLID
  5
11C00
  8
SCALE
  6
CONTINUOUS
 62
     2
 10
1663.1844824685361
 20
318.84269733840569
 30
0.0
 11
1663.1844824685361
 21
314.50936400507231
 31
0.0
 12
1650.1844824685361
 22
316.676030671739
 32
0.0
 13
1650.1844824685361
 23
316.676030671739
 33
0.0
  0
TEXT
  8
SCALE
  40
15
  5
11C49
  62
3
  72
0
  71
0
 10
1693.68
 20
309.676
 30
0.000000
  1
25
  0
POINT
  5
11C02
  8
DEFPOINTS
  6
CONTINUOUS
 62
     0
 10
1625.1835058464239
 20
370.08489897551829
 30
0.0
  0
POINT
  5
11C03
  8
DEFPOINTS
  6
CONTINUOUS
 62
     0
 10
1650.1844824685361
 20
370.08489897551829
 30
0.0
  0
POINT
  5
11C04
  8
DEFPOINTS
  6
CONTINUOUS
 62
     0
 10
1650.1844824685361
 20
316.676030671739
 30
0.0
  0
ENDBLK
  5
F62F
  8
0
 62
     0
  0
BLOCK
  8
0
 62
     0
  2
*D17
 70
     1
 10
0.0
 20
0.0
 30
0.0
  3
*D17
  1

  0
LINE
  5
11C12
  8
SCALE
  6
CONTINUOUS
 62
     2
 10
561.62149415748161
 20
1145.5187726313559
 30
0.0
 11
516.32545491084466
 21
1145.5187726313559
 31
0.0
  0
LINE
  5
11C13
  8
SCALE
  6
CONTINUOUS
 62
     2
 10
561.62149415748161
 20
1223.5187726313559
 30
0.0
 11
516.32545491084466
 21
1223.5187726313559
 31
0.0
  0
LINE
  5
11C14
  8
SCALE
  6
CONTINUOUS
 62
     2
 10
516.50545491084472
 20
1158.5187726313559
 30
0.0
 11
516.50545491084472
 21
1210.5187726313559
 31
0.0
  0
SOLID
  5
11C15
  8
SCALE
  6
CONTINUOUS
 62
     2
 10
514.33878824417798
 20
1158.5187726313559
 30
0.0
 11
518.67212157751135
 21
1158.5187726313559
 31
0.0
 12
516.50545491084472
 22
1145.5187726313559
 32
0.0
 13
516.50545491084472
 23
1145.5187726313559
 33
0.0
  0
SOLID
  5
11C16
  8
SCALE
  6
CONTINUOUS
 62
     2
 10
514.33878824417798
 20
1210.5187726313559
 30
0.0
 11
518.67212157751135
 21
1210.5187726313559
 31
0.0
 12
516.50545491084472
 22
1223.5187726313559
 32
0.0
 13
516.50545491084472
 23
1223.5187726313559
 33
0.0
  0
TEXT
  8
SCALE
  40
15
  5
11C4A
  62
3
  72
0
  71
0
 10
504.005
 20
1156.72
 30
0.000000
  1
78
  0
POINT
  5
11C18
  8
DEFPOINTS
  6
CONTINUOUS
 62
     0
 10
561.68399415748161
 20
1145.5187726313559
 30
0.0
  0
POINT
  5
11C19
  8
DEFPOINTS
  6
CONTINUOUS
 62
     0
 10
561.68399415748161
 20
1223.5187726313559
 30
0.0
  0
POINT
  5
11C1A
  8
DEFPOINTS
  6
CONTINUOUS
 62
     0
 10
516.50545491084472
 20
1223.5187726313559
 30
0.0
  0
ENDBLK
  5
F653
  8
0
 62
     0
  0
BLOCK
  8
0
 62
     0
  2
*D18
 70
     1
 10
0.0
 20
0.0
 30
0.0
  3
*D18
  1

  0
LINE
  5
11C1C
  8
SCALE
  6
CONTINUOUS
 62
     2
 10
1629.1210058464251
 20
373.58489897551948
 30
0.0
 11
1576.233335637133
 21
373.58489897551948
 31
0.0
  0
LINE
  5
11C1D
  8
SCALE
  6
CONTINUOUS
 62
     2
 10
1629.1210058464251
 20
366.58489897551959
 30
0.0
 11
1576.233335637133
 21
366.58489897551959
 31
0.0
  0
LINE
  5
11C1E
  8
SCALE
  6
CONTINUOUS
 62
     2
 10
1576.4133356371319
 20
386.58489897551948
 30
0.0
 11
1576.4133356371319
 21
399.58489897551948
 31
0.0
  0
LINE
  5
11C1F
  8
SCALE
  6
CONTINUOUS
 62
     2
 10
1576.4133356371319
 20
353.58489897551971
 30
0.0
 11
1576.4133356371319
 21
320.58489897551959
 31
0.0
  0
SOLID
  5
11C20
  8
SCALE
  6
CONTINUOUS
 62
     2
 10
1574.2466689704661
 20
386.58489897551948
 30
0.0
 11
1578.5800023037989
 21
386.58489897551948
 31
0.0
 12
1576.4133356371319
 22
373.58489897551948
 32
0.0
 13
1576.4133356371319
 23
373.58489897551948
 33
0.0
  0
SOLID
  5
11C21
  8
SCALE
  6
CONTINUOUS
 62
     2
 10
1574.2466689704661
 20
353.58489897551971
 30
0.0
 11
1578.5800023037989
 21
353.58489897551971
 31
0.0
 12
1576.4133356371319
 22
366.58489897551959
 32
0.0
 13
1576.4133356371319
 23
366.58489897551959
 33
0.0
  0
TEXT
  8
SCALE
  40
15
  5
11C4B
  62
3
  72
0
  71
0
 10
1563.91
 20
311.085
 30
0.000000
  1
7
  0
POINT
  5
11C23
  8
DEFPOINTS
  6
CONTINUOUS
 62
     0
 10
1629.1835058464251
 20
373.58489897551948
 30
0.0
  0
POINT
  5
11C24
  8
DEFPOINTS
  6
CONTINUOUS
 62
     0
 10
1629.1835058464251
 20
366.58489897551959
 30
0.0
  0
POINT
  5
11C25
  8
DEFPOINTS
  6
CONTINUOUS
 62
     0
 10
1576.4133356371319
 20
366.58489897551959
 30
0.0
  0
ENDBLK
  5
119F0
  8
0
 62
     0
  0
BLOCK
  8
0
 62
     0
  2
*D19
 70
     1
 10
0.0
 20
0.0
 30
0.0
  3
*D19
  1

  0
LINE
  5
11C26
  8
SCALE
  6
CONTINUOUS
 62
     2
 10
576.40984536720396
 20
456.93395196128381
 30
0.0
 11
528.45510356648572
 21
456.93395196128381
 31
0.0
  0
LINE
  5
11C27
  8
SCALE
  6
CONTINUOUS
 62
     2
 10
576.40984536720396
 20
442.65797896183329
 30
0.0
 11
528.45510356648572
 21
442.65797896183329
 31
0.0
  0
LINE
  5
11C28
  8
SCALE
  6
CONTINUOUS
 62
     2
 10
528.63510356648555
 20
469.93395196128381
 30
0.0
 11
528.63510356648555
 21
482.93395196128381
 31
0.0
  0
LINE
  5
11C29
  8
SCALE
  6
CONTINUOUS
 62
     2
 10
528.63510356648555
 20
429.65797896183329
 30
0.0
 11
528.63510356648555
 21
386.65797896183329
 31
0.0
  0
SOLID
  5
11C2A
  8
SCALE
  6
CONTINUOUS
 62
     2
 10
526.46843689981904
 20
469.93395196128381
 30
0.0
 11
530.8017702331523
 21
469.93395196128381
 31
0.0
 12
528.63510356648555
 22
456.93395196128381
 32
0.0
 13
528.63510356648555
 23
456.93395196128381
 33
0.0
  0
SOLID
  5
11C2B
  8
SCALE
  6
CONTINUOUS
 62
     2
 10
526.46843689981904
 20
429.65797896183329
 30
0.0
 11
530.8017702331523
 21
429.65797896183329
 31
0.0
 12
528.63510356648555
 22
442.65797896183329
 32
0.0
 13
528.63510356648555
 23
442.65797896183329
 33
0.0
  0
TEXT
  8
SCALE
  40
15
  5
11C4C
  62
3
  72
0
  71
0
 10
516.135
 20
382.158
 30
0.000000
  1
14
  0
POINT
  5
11C2D
  8
DEFPOINTS
  6
CONTINUOUS
 62
     0
 10
576.47234536720396
 20
456.93395196128381
 30
0.0
  0
POINT
  5
11C2E
  8
DEFPOINTS
  6
CONTINUOUS
 62
     0
 10
576.47234536720396
 20
442.65797896183329
 30
0.0
  0
POINT
  5
11C2F
  8
DEFPOINTS
  6
CONTINUOUS
 62
     0
 10
528.63510356648555
 20
442.65797896183329
 30
0.0
  0
ENDBLK
  5
11A1E
  8
0
 62
     0
  0
BLOCK
  8
0
 62
     0
  2
*U20
 70
     1
 10
0.0
 20
0.0
 30
0.0
  3
*U20
  1

  0
SOLID
  5
11C06
  8
SCALE
  6
CONTINUOUS
 62
     0
 10
601.56314262332944
 20
1122.123401094671
 30
0.0
 11
602.24793699434849
 21
1135.2849170071279
 31
0.0
 12
605.86875829066776
 22
1122.612738915554
 32
0.0
 13
605.86875829066776
 23
1122.612738915554
 33
0.0
  0
POLYLINE
  5
11C07
  8
SCALE
  6
CONTINUOUS
 62
     0
 66
     1
 10
0.0
 20
0.0
 30
0.0
  0
VERTEX
  5
11C08
  8
SCALE
  6
CONTINUOUS
 62
     0
 10
603.71595045699871
 20
1122.368070005112
 30
0.0
  0
VERTEX
  5
11C09
  8
SCALE
  6
CONTINUOUS
 62
     0
 10
605.29430777130074
 20
1108.480322745256
 30
0.0
  0
VERTEX
  5
11C0A
  8
SCALE
  6
CONTINUOUS
 62
     0
 10
663.29430777130074
 20
1108.480322745256
 30
0.0
  0
SEQEND
  5
11C0B
  8
SCALE
  6
CONTINUOUS
 62
     0
  0
ENDBLK
  5
11C0D
  8
0
 62
     0
  0
BLOCK
  8
0
 62
     0
  2
*U21
 70
     1
 10
0.0
 20
0.0
 30
0.0
  3
*U21
  1

  0
TEXT
  5
11C0F
  8
SCALE
  6
CONTINUOUS
 62
     3
 10
623.29430777130074
 20
1113.480322745256
 30
0.0
 40
15.0
  1
\U+220534
  0
ENDBLK
  5
11C11
  8
0
 62
     0
  0
BLOCK
  8
0
 62
     0
  2
*U22
 70
     1
 10
0.0
 20
0.0
 30
0.0
  3
*U22
  1

  0
SOLID
  5
11C31
  8
SCALE
  6
CONTINUOUS
 62
     0
 10
603.71515589187675
 20
978.32507133780575
 30
0.0
 11
600.43509475209009
 21
991.08969602338516
 31
0.0
 12
607.67773356613043
 22
980.07885466344362
 32
0.0
 13
607.67773356613043
 23
980.07885466344362
 33
0.0
  0
POLYLINE
  5
11C32
  8
SCALE
  6
CONTINUOUS
 62
     0
 66
     1
 10
0.0
 20
0.0
 30
0.0
  0
VERTEX
  5
11C33
  8
SCALE
  6
CONTINUOUS
 62
     0
 10
605.69644472900359
 20
979.20196300062469
 30
0.0
  0
VERTEX
  5
11C34
  8
SCALE
  6
CONTINUOUS
 62
     0
 10
620.21514354543615
 20
946.39775569167341
 30
0.0
  0
VERTEX
  5
11C35
  8
SCALE
  6
CONTINUOUS
 62
     0
 10
678.21514354543615
 20
946.39775569167341
 30
0.0
  0
SEQEND
  5
11C36
  8
SCALE
  6
CONTINUOUS
 62
     0
  0
ENDBLK
  5
11C38
  8
0
 62
     0
  0
BLOCK
  8
0
 62
     0
  2
*U23
 70
     1
 10
0.0
 20
0.0
 30
0.0
  3
*U23
  1

  0
TEXT
  5
11C3A
  8
SCALE
  6
CONTINUOUS
 62
     3
 10
638.21514354543615
 20
951.3977556916733
 30
0.0
 40
15.0
  1
\U+220543
  0
ENDBLK
  5
11C3C
  8
0
 62
     0
  0
ENDSEC
  0
SECTION
  2
ENTITIES
  0
INSERT
  5
AC5B
  8
ASHADE
  6
CONTINUOUS
 62
     1
  2
AVE_RENDER
 10
0.0
 20
0.0
 30
0.0
1001
AVE_RENDER
1002
{
1070
     7
1000
Pref
1070
    30
1070
    20
1070
     1
1070
     0
1000

1070
    10
1070
     1
1070
    10
1040
1.0
1070
     1
1040
0.3
1040
0.7
1040
0.0
1040
10.0
1010
-1.0
1020
-1.0
1030
-1.0
1040
0.3
1070
    49
1070
     0
1070
     0
1010
1.0
1020
1.0
1030
1.0
1040
45.0
1070
     1
1070
     0
1000
WCS
1040
0.0
1070
     0
1040
10.0
1002
}
  0
INSERT
  5
AC5C
  8
ASHADE
  6
CONTINUOUS
 62
     3
  2
AVE_RENDER
 10
0.0
 20
0.0
 30
0.0
1001
AVE_RENDER
1002
{
1070
     0
1000
Full Opt
1070
     0
1070
     1
1070
     1
1070
     1
1070
     0
1070
     0
1070
     0
1070
     1
1070
     1
1040
0.0001
1040
0.0001
1002
}
  0
INSERT
  5
AC5D
  8
ASHADE
  6
CONTINUOUS
 62
     4
  2
AVE_RENDER
 10
0.0
 20
0.0
 30
0.0
1001
AVE_RENDER
1002
{
1070
     0
1000
Quick Opt
1070
     0
1070
     1
1070
     1
1070
     1
1070
     0
1070
     0
1070
     1
1002
}
  0
INSERT
  5
AC5E
  8
ASHADE
  6
CONTINUOUS
 62
     5
  2
AVE_RENDER
 10
0.0
 20
0.0
 30
0.0
1001
AVE_RENDER
1002
{
1070
     1
1000
Scanl Opt
1070
     2
1070
     0
1070
     2
1040
2.0
1040
4.0
1070
     0
1070
     1
1070
     0
1040
0.03
1002
}
  0
INSERT
  5
AC5F
  8
ASHADE
  6
CONTINUOUS
 62
     6
  2
AVE_RENDER
 10
0.0
 20
0.0
 30
0.0
1001
AVE_RENDER
1002
{
1070
     2
1000
Raytr Opt
1070
     2
1070
     0
1070
     2
1040
2.0
1040
4.0
1070
     0
1070
     1
1070
     1
1040
0.03
1070
     3
1040
0.03
1002
}
  0
INSERT
  5
AC60
  8
ASHADE
  6
CONTINUOUS
 62
     7
  2
AVE_RENDER
 10
0.0
 20
0.0
 30
0.0
1001
AVE_RENDER
1002
{
1070
     0
1000
RFile Opt
1070
     1
1070
   640
1070
   480
1070
 10000
1070
     1
1070
     8
1070
     8
1070
     0
1070
     0
1070
     0
1070
     0
1070
     0
1070
     0
1070
     0
1002
}
  0
INSERT
  5
AC61
  8
ASHADE
  6
CONTINUOUS
 62
     8
  2
AVE_RENDER
 10
0.0
 20
0.0
 30
0.0
1001
AVE_RENDER
1002
{
1070
     0
1000
Fog Opt
1070
     0
1070
     0
1040
0.0
1040
1.0
1040
0.0
1040
1.0
1010
0.5
1020
0.5
1030
0.5
1002
}
  0
INSERT
  5
AC62
  8
ASHADE
  6
CONTINUOUS
 62
     9
  2
AVE_RENDER
 10
0.0
 20
0.0
 30
0.0
1001
AVE_RENDER
1002
{
1070
     0
1000
BG Opt
1070
     0
1070
     1
1010
0.0
1020
0.0
1030
0.0
1010
1.0
1020
0.0
1030
0.0
1010
0.0
1020
1.0
1030
0.0
1010
0.0
1020
0.0
1030
1.0
1040
0.5
1040
0.33
1040
0.0
1000

1070
     1
1000

1070
     1
1070
     1
1040
1.0
1040
1.0
1040
0.0
1040
0.0
1070
     0
1002
}
  0
INSERT
  5
AC69
  8
ASHADE
  6
CONTINUOUS
 62
     1
  2
AVE_GLOBAL
 10
0.0
 20
0.0
 30
0.0
1001
AVE_MATERIAL
1002
{
1000
*GLOBAL*
1000
1
1000
Global finish.
1002
{
1002
}
1002
{
1070
    63
1002
{
1002
{
1010
-1.0
1020
-1.0
1030
-1.0
1002
}
1040
0.1000000014901161
1000

1040
0.0
1002
{
1002
}
1040
0.0
1002
{
1002
}
1040
0.0
1002
}
1002
{
1002
{
1010
-1.0
1020
-1.0
1030
-1.0
1002
}
1040
0.699999988079071
1000

1040
0.0
1002
{
1002
}
1040
0.0
1002
{
1002
}
1040
0.0
1002
}
1002
{
1002
{
1010
-1.0
1020
-1.0
1030
-1.0
1002
}
1040
0.2000000029802322
1000

1040
0.0
1002
{
1002
}
1040
0.0
1002
{
1002
}
1040
0.0
1002
}
1002
{
1070
     0
1002
{
1070
     1
1002
{
1040
1.0
1040
1.0
1000

1040
0.0
1002
{
1002
}
1040
0.0
1002
{
1002
}
1040
0.0
1002
}
1002
}
1040
1.0
1040
0.0
1040
0.0
1002
}
1002
{
1040
1.0
1040
1.0
1000

1040
0.0
1002
{
1002
}
1040
0.0
1002
{
1002
}
1040
0.0
1002
}
1002
{
1040
0.5
1040
1.0
1000

1040
0.0
1002
{
1002
}
1040
0.0
1002
{
1002
}
1040
0.0
1002
}
1002
{
1070
     0
1040
0.0
1002
{
1002
}
1040
1.0
1002
{
1002
}
1040
0.0
1002
}
1002
{
1040
0.0
1002
{
1002
{
1010
0.0
1020
0.0
1030
0.0
1002
}
1040
1.0
1000

1040
0.0
1002
{
1002
}
1040
0.0
1002
{
1002
}
1040
0.0
1002
}
1002
}
1002
{
1002
{
1070
     1
1002
{
1040
0.0
1040
1.0
1000

1040
0.0
1002
{
1002
}
1040
0.0
1002
{
1002
}
1040
0.0
1002
}
1002
}
1040
0.0
1002
{
1002
}
1010
1.0
1020
0.0
1030
0.0
1010
0.0
1020
1.0
1030
0.0
1010
0.0
1020
0.0
1030
1.0
1070
     0
1002
}
1002
{
1002
{
1040
1.0
1040
1.0
1002
{
1070
     1
1002
{
1040
1.0
1040
1.0
1000

1040
0.0
1002
{
1002
}
1040
0.0
1002
{
1002
}
1040
0.0
1002
}
1002
}
1002
}
1070
     0
1040
0.0
1002
{
1002
}
1002
}
1002
{
1002
}
1002
}
1002
{
1071
        3
1070
     3
1070
     0
1002
{
1070
     2
1070
     0
1070
     0
1040
0.0
1002
}
1070
     0
1070
     2
1002
{
1002
}
1002
}
1002
{
1040
8030.0
1040
190.30000305175781
1040
0.3050000071525574
1040
228.0
1040
545.0
1040
14.0
1040
17.39999961853027
1040
0.4560000002384186
1002
}
1002
}
  0
LINE
  5
EF3B
  8
GAWA
 62
     2
 10
2011.136518323533
 20
25.257594784945699
 30
0.0
 11
30.531657096120401
 21
25.257594784945699
 31
0.0
  0
LINE
  5
EF3C
  8
GAWA
 10
2011.1365183235321
 20
1419.8238051759131
 30
0.0
 11
30.531657096120401
 21
1419.8238051759131
 31
0.0
  0
LINE
  5
EF3D
  8
GAWA
 62
     2
 10
30.531657096120401
 20
25.257594784945699
 30
0.0
 11
30.531657096120401
 21
1419.8238051759131
 31
0.0
  0
LINE
  5
EF3E
  8
GAWA
 62
     2
 10
2011.1365183235321
 20
1419.8238051759131
 30
0.0
 11
2011.136518323533
 21
25.257594784945699
 31
0.0
  0
LINE
  5
EF3F
  8
GAWA
 62
     4
 10
1364.756033396651
 20
25.257594784945699
 30
0.0
 11
1364.756033396651
 21
129.34204460620521
 31
0.0
  0
LINE
  5
EF40
  8
GAWA
 62
     4
 10
1440.503746474021
 20
129.34204460620521
 30
0.0
 11
1440.503746474021
 21
25.257594784945699
 31
0.0
  0
LINE
  5
EF41
  8
GAWA
 62
     4
 10
1289.008320319283
 20
25.257594784945699
 30
0.0
 11
1289.008320319283
 21
220.23930029904801
 31
0.0
  0
LINE
  5
EF42
  8
GAWA
 62
     4
 10
1642.4976480136711
 20
25.257594784945699
 30
0.0
 11
1642.4976480136711
 21
220.23930029904801
 31
0.0
  0
LINE
  5
EF43
  8
GAWA
 62
     4
 10
1516.251459551389
 20
25.257594784945699
 30
0.0
 11
1516.251459551389
 21
220.23930029904801
 31
0.0
  0
LINE
  5
EF45
  8
GAWA
 62
     4
 10
1289.008320319283
 20
189.94021506810051
 30
0.0
 11
1642.4976480136711
 21
189.94021506810051
 31
0.0
  0
LINE
  5
EF46
  8
GAWA
 62
     4
 10
1289.008320319283
 20
129.34204460620521
 30
0.0
 11
1642.4976480136711
 21
129.34204460620521
 31
0.0
  0
LINE
  5
EF47
  8
GAWA
 62
     4
 10
2011.136518323533
 20
220.23930029904801
 30
0.0
 11
1289.008320319283
 21
220.23930029904801
 31
0.0
  0
TEXT
  5
EF48
  8
GAWA
 62
     3
 10
1329.6731885332611
 20
152.73650152193679
 30
0.0
 40
15.727639640625
  1
1:5
  7
MSP明朝
  0
TEXT
  5
EF49
  8
GAWA
 62
     3
 10
1648.2845811624829
 20
194.99006260659161
 30
0.0
 40
15.727639640625
  1
品
  7
MSP明朝
  0
TEXT
  5
EF4A
  8
GAWA
 62
     3
 10
1648.2845811624829
 20
164.6909773756438
 30
0.0
 40
15.727639640625
  1
番
  7
MSP明朝
  0
TEXT
  5
EF4B
  8
GAWA
 62
     3
 10
1648.2845811624829
 20
104.092806913749
 30
0.0
 40
15.727639640625
  1
名
  7
MSP明朝
  0
TEXT
  5
EF4C
  8
GAWA
 62
     3
 10
1648.2845811624829
 20
134.39189214469641
 30
0.0
 40
15.727639640625
  1
品
  7
MSP明朝
  0
LINE
  5
EF4D
  8
GAWA
 62
     4
 10
1642.4976480136711
 20
159.6411298371529
 30
0.0
 11
2011.136518323533
 21
159.6411298371529
 31
0.0
  0
LINE
  5
EF4E
  8
GAWA
 62
     4
 10
1289.008320319283
 20
99.042959375257638
 30
0.0
 11
2011.136518323533
 21
99.042959375257638
 31
0.0
  0
TEXT
  5
EF4F
  8
GAWA
 62
     3
 10
1450.6034415510039
 20
104.092806913749
 30
0.0
 40
15.727639640625
  1
受
  7
MSP明朝
  0
TEXT
  5
EF50
  8
GAWA
 62
     3
 10
1299.108015396265
 20
104.092806913749
 30
0.0
 40
15.727639640625
  1
製
  7
MSP明朝
  0
TEXT
  5
EF51
  8
GAWA
 62
     3
 10
1334.456948165704
 20
104.092806913749
 30
0.0
 40
15.727639640625
  1
図
  7
MSP明朝
  0
TEXT
  5
EF52
  8
GAWA
 62
     3
 10
1410.2046612430729
 20
104.092806913749
 30
0.0
 40
15.727639640625
  1
図
  7
MSP明朝
  0
TEXT
  5
EF53
  8
GAWA
 62
     3
 10
1374.8557284736339
 20
104.092806913749
 30
0.0
 40
15.727639640625
  1
検
  7
MSP明朝
  0
TEXT
  5
EF54
  8
GAWA
 62
     3
 10
1522.5573161998409
 20
151.6693082401282
 30
0.0
 40
15.727639640625
  1
溶化素地質
  7
MSP明朝
  0
TEXT
  5
EF55
  8
GAWA
 62
     3
 10
1485.952374320442
 20
104.092806913749
 30
0.0
 40
15.727639640625
  1
領
  7
MSP明朝
  0
TEXT
  5
EF56
  8
GAWA
 62
     3
 10
1526.351154628373
 20
104.092806913749
 30
0.0
 40
15.727639640625
  1
日
  7
MSP明朝
  0
TEXT
  5
EF57
  8
GAWA
 62
     3
 10
1612.198562782723
 20
104.092806913749
 30
0.0
 40
15.727639640625
  1
付
  7
MSP明朝
  0
TEXT
  5
EF58
  8
GAWA
 62
     3
 10
1526.351154628373
 20
198.2493100953929
 30
0.0
 40
15.727639640625
  1
材
  7
MSP明朝
  0
TEXT
  5
EF59
  8
GAWA
 62
     3
 10
1612.198562782723
 20
198.2493100953929
 30
0.0
 40
15.727639640625
  1
質
  7
MSP明朝
  0
TEXT
  5
EF5A
  8
HYO
 62
     3
 10
1718.1818999126699
 20
123.4807283705738
 30
0.0
 40
19.800000000000001
  1
スクエア型ベッセル洗面器
 41
0.75
  7
MSP明朝
  0
LINE
  5
EF5B
  8
GAWA
 62
     4
 10
1674.270904465262
 20
220.23930029904801
 30
0.0
 11
1674.270904465262
 21
99.042959375257638
 31
0.0
  0
LINE
  5
EF5C
  8
GAWA
 62
     4
 10
1945.488500323147
 20
159.6411298371529
 30
0.0
 11
1945.488500323147
 21
220.23930029904801
 31
0.0
  0
TEXT
  5
EF5D
  8
GAWA
 62
     3
 10
1914.0654990519181
 20
194.99006260659161
 30
0.0
 40
15.727639640625
  1
図
  7
MSP明朝
  0
LINE
  5
EF5E
  8
GAWA
 62
     4
 10
1910.4532344919919
 20
159.6411298371529
 30
0.0
 11
1910.4532344919919
 21
220.23930029904801
 31
0.0
  0
TEXT
  5
EF5F
  8
GAWA
 62
     3
 10
1914.0654990519181
 20
164.6909773756438
 30
0.0
 40
15.727639640625
  1
番
  7
MSP明朝
  0
LINE
  5
EF60
  8
0
  6
CENTER
 62
     6
 10
588.68399415748172
 20
1175.086908334278
 30
0.0
 11
588.68399415748172
 21
962.41052448656455
 31
0.0
  0
LINE
  5
EF62
  8
0
  6
CENTER
 62
     6
 10
342.24325275355301
 20
1008.518772631356
 30
0.0
 11
844.6145650958897
 21
1008.518772631356
 31
0.0
  0
LINE
  5
EFE5
  8
GAWA
 62
     4
 10
1402.4014595513891
 20
220.376800299048
 30
0.0
 11
1402.4014595513891
 21
129.34204460620521
 31
0.0
  0
TEXT
  5
EFE6
  8
GAWA
 62
     3
 10
1311.673191094558
 20
198.2493100953929
 30
0.0
 40
15.727639640625
  1
尺　度
  7
MSP明朝
  0
TEXT
  5
EFE7
  8
GAWA
 62
     3
 10
1425.8883054831149
 20
198.2493100953929
 30
0.0
 40
15.727639640625
  1
容　量
  7
MSP明朝
  0
TEXT
  5
F057
  8
GAWA
 62
     3
 10
1441.700803081829
 20
152.4700629760984
 30
0.0
 40
18.0
  1
5L
  7
MSP明朝
  0
LINE
  5
F30A
  8
0
 10
323.68399415748172
 20
1223.5187726313559
 30
0.0
 11
326.68399415748172
 21
1223.5187726313559
 31
0.0
  0
LINE
  5
F30B
  8
GAIKEI
  6
CONTINUOUS
 10
326.68399415748172
 20
1223.5187726313559
 30
0.0
 11
850.68399415748172
 21
1223.5187726313559
 31
0.0
  0
LINE
  5
F30C
  8
GAIKEI
  6
CONTINUOUS
 10
853.68399415748161
 20
1220.5187726313559
 30
0.0
 11
853.68399415748161
 21
703.51877263135623
 31
0.0
  0
LINE
  5
F30D
  8
0
 10
853.68399415748161
 20
703.51877263135623
 30
0.0
 11
853.68399415748161
 21
693.51877263135623
 31
0.0
  0
LINE
  5
F30E
  8
0
 10
853.68399415748161
 20
693.51877263135623
 30
0.0
 11
843.68399415748172
 21
693.51877263135623
 31
0.0
  0
LINE
  5
F30F
  8
GAIKEI
  6
CONTINUOUS
 10
843.68399415748172
 20
693.51877263135623
 30
0.0
 11
333.68399415748172
 21
693.51877263135623
 31
0.0
  0
LINE
  5
F310
  8
0
 10
333.68399415748172
 20
693.51877263135623
 30
0.0
 11
323.68399415748172
 21
693.51877263135623
 31
0.0
  0
LINE
  5
F311
  8
0
 10
323.68399415748172
 20
693.51877263135623
 30
0.0
 11
323.68399415748172
 21
703.51877263135623
 31
0.0
  0
LINE
  5
F312
  8
GAIKEI
  6
CONTINUOUS
 10
323.68399415748172
 20
703.51877263135623
 30
0.0
 11
323.68399415748172
 21
1220.5187726313559
 31
0.0
  0
LINE
  5
F313
  8
0
 10
323.68399415748172
 20
1220.5187726313559
 30
0.0
 11
323.68399415748172
 21
1223.5187726313559
 31
0.0
  0
ARC
  5
F314
  8
GAIKEI
  6
CONTINUOUS
 10
333.68399415748172
 20
703.51877263135623
 30
0.0
 40
10.0
 50
180.0
 51
270.0
  0
ARC
  5
F315
  8
GAIKEI
  6
CONTINUOUS
 10
843.68399415748172
 20
703.51877263135623
 30
0.0
 40
10.0
 50
270.0
 51
0.0
  0
LINE
  5
F316
  8
0
  6
CENTER
 62
     6
 10
1349.6839941574819
 20
1008.518772631356
 30
0.0
 11
1414.6839941574819
 21
1008.518772631356
 31
0.0
  0
LINE
  5
F317
  8
GAIKEI
  6
CONTINUOUS
 10
1369.6839941574819
 20
1030.0187726313559
 30
0.0
 11
1377.6839941574819
 21
1030.0187726313559
 31
0.0
  0
LINE
  5
F318
  8
GAIKEI
  6
CONTINUOUS
 10
1369.6839941574819
 20
987.018772631356
 30
0.0
 11
1377.6839941574819
 21
987.018772631356
 31
0.0
  0
LINE
  5
F319
  8
GAIKEI
  6
CONTINUOUS
 10
1396.6839941574831
 20
1030.5187726313559
 30
0.0
 11
1404.6839941574831
 21
1030.5187726313559
 31
0.0
  0
LINE
  5
F31A
  8
GAIKEI
  6
CONTINUOUS
 10
1359.6839941574819
 20
1041.0187726313559
 30
0.0
 11
1369.6839941574819
 21
1030.0187726313559
 31
0.0
  0
LINE
  5
F31B
  8
GAIKEI
  6
CONTINUOUS
 10
1369.386088051953
 20
1042.239324345293
 30
0.0
 11
1377.4239342308781
 21
1033.397693548475
 31
0.0
  0
LINE
  5
F31C
  8
GAIKEI
  6
CONTINUOUS
 10
1369.6839941574819
 20
987.018772631356
 30
0.0
 11
1359.6839941574819
 21
976.018772631356
 31
0.0
  0
LINE
  5
F31D
  8
GAIKEI
  6
CONTINUOUS
 10
1377.4239342308781
 20
983.63985171423678
 30
0.0
 11
1368.1116518108161
 21
973.39634105216783
 31
0.0
  0
ARC
  5
F31E
  8
GAIKEI
  6
CONTINUOUS
 10
1376.6839941574819
 20
984.31252450823308
 30
0.0
 40
1.0
 50
317.72631099391958
 51
0.0
  0
LINE
  5
F31F
  8
0
 10
1404.6839941574831
 20
1037.677001071555
 30
0.0
 11
1404.6839941574831
 21
1215.948124730942
 31
0.0
  0
LINE
  5
F320
  8
0
 10
1404.6839941574831
 20
1220.518772631357
 30
0.0
 11
1404.6839941574831
 21
1223.518772631357
 31
0.0
  0
LINE
  5
F321
  8
GAIKEI
  6
CONTINUOUS
 10
1404.6839941574831
 20
1215.948124730942
 30
0.0
 11
1404.6839941574831
 21
1220.518772631357
 31
0.0
  0
ARC
  5
F322
  8
GAIKEI
  6
CONTINUOUS
 10
1401.6839941574819
 20
1220.518772631357
 30
0.0
 40
3.0
 50
0.0
 51
90.0
  0
LINE
  5
F323
  8
GAIKEI
  6
CONTINUOUS
 10
1369.6839941574819
 20
1030.0187726313559
 30
0.0
 11
1369.6839941574819
 21
987.018772631356
 31
0.0
  0
LINE
  5
F324
  8
GAIKEI
  6
CONTINUOUS
 10
1377.6839941574819
 20
1032.7250207544789
 30
0.0
 11
1377.6839941574819
 21
984.31252450823308
 31
0.0
  0
ARC
  5
F325
  8
GAIKEI
  6
CONTINUOUS
 10
1376.6839941574819
 20
1032.7250207544789
 30
0.0
 40
1.0
 50
0.0
 51
42.273689006080083
  0
LINE
  5
F326
  8
GAIKEI
  6
CONTINUOUS
 10
1359.6839941574819
 20
976.018772631356
 30
0.0
 11
1359.6839941574819
 21
1042.5623433603689
 31
0.0
  0
LINE
  5
F327
  8
0
 10
1359.6839941574819
 20
1042.5623433603689
 30
0.0
 11
1359.6839941574819
 21
1055.518772631357
 31
0.0
  0
ARC
  5
F328
  8
GAIKEI
  6
CONTINUOUS
 10
1341.6839941574819
 20
1042.5623433603689
 30
0.0
 40
18.0
 50
0.0
 51
71.492802100230165
  0
ARC
  5
F329
  8
GAIKEI
  6
CONTINUOUS
 10
1341.6839941574819
 20
1042.5623433603689
 30
0.0
 40
26.0
 50
8.5559654226712318
 51
71.492802100230165
  0
ARC
  5
F32A
  8
GAIKEI
  6
CONTINUOUS
 10
1375.3056086391209
 20
1047.6207066972629
 30
0.0
 40
8.0
 50
188.55596542267119
 51
222.27368900608039
  0
ARC
  5
F32B
  8
GAIKEI
  6
CONTINUOUS
 10
1341.6839941574819
 20
1042.5623433603689
 30
0.0
 40
48.0
 50
15.998328730756921
 51
71.492802100230165
  0
ARC
  5
F32C
  8
GAIKEI
  6
CONTINUOUS
 10
1392.631290146247
 20
1057.1696371355069
 30
0.0
 40
5.0
 50
195.9983287307569
 51
233.46965989158679
  0
ARC
  5
F32D
  8
GAIKEI
  6
CONTINUOUS
 10
1392.631290146247
 20
1057.1696371355069
 30
0.0
 40
13.0
 50
195.9983287307569
 51
233.46965989158679
  0
ARC
  5
F32E
  8
GAIKEI
  6
CONTINUOUS
 10
1341.6839941574819
 20
1042.5623433603689
 30
0.0
 40
40.0
 50
15.998328730756921
 51
71.492802100230165
  0
ARC
  5
F32F
  8
GAIKEI
  6
CONTINUOUS
 10
326.68399415748172
 20
1220.5187726313559
 30
0.0
 40
3.0
 50
90.0
 51
180.0
  0
ARC
  5
F330
  8
GAIKEI
  6
CONTINUOUS
 10
850.68399415748172
 20
1220.5187726313559
 30
0.0
 40
3.0
 50
0.0
 51
90.0
  0
LINE
  5
F331
  8
GAIKEI
  6
CONTINUOUS
 10
1404.6839941574831
 20
1036.9816775813561
 30
0.0
 11
1404.6839941574831
 21
982.60786034338946
 31
0.0
  0
ARC
  5
F332
  8
GAIKEI
  6
CONTINUOUS
 10
1394.6839941574819
 20
1036.9816775813561
 30
0.0
 40
10.0
 50
0.0
 51
53.469659891619273
  0
LINE
  5
F333
  8
0
 10
1404.6839941574831
 20
982.60786034338946
 30
0.0
 11
1404.6839941574831
 21
975.018772631356
 31
0.0
  0
LINE
  5
F334
  8
GAIKEI
  6
CONTINUOUS
 10
1396.6839941574831
 20
1037.485387086356
 30
0.0
 11
1396.6839941574831
 21
982.61708276056595
 31
0.0
  0
ARC
  5
F335
  8
GAIKEI
  6
CONTINUOUS
 10
1395.6839941574831
 20
1037.485387086356
 30
0.0
 40
1.0
 50
0.0
 51
53.469659891619273
  0
LINE
  5
F336
  8
0
 10
1404.6839941574831
 20
758.51877263136805
 30
0.0
 11
1404.6839941574831
 21
756.24660038644868
 31
0.0
  0
LINE
  5
F337
  8
GAIKEI
  6
CONTINUOUS
 10
1404.6839941574831
 20
756.24660038644868
 30
0.0
 11
1404.6839941574831
 21
750.86110185057646
 31
0.0
  0
ARC
  5
F338
  8
GAIKEI
  6
CONTINUOUS
 10
1401.6839941574819
 20
756.24660038644822
 30
0.0
 40
3.0
 50
0.0
 51
74.279902333540051
  0
LINE
  5
F339
  8
0
 10
1404.6839941574831
 20
750.86110185057646
 30
0.0
 11
1404.6839941574831
 21
748.51877263136623
 31
0.0
  0
LINE
  5
F33A
  8
0
 10
1404.6839941574831
 20
708.51877263136623
 30
0.0
 11
1404.6839941574831
 21
706.17644341215612
 31
0.0
  0
LINE
  5
F33B
  8
GAIKEI
  6
CONTINUOUS
 10
1404.6839941574831
 20
706.17644341215612
 30
0.0
 11
1404.6839941574831
 21
701.40716195997618
 31
0.0
  0
LINE
  5
F33C
  8
0
 10
1404.6839941574831
 20
701.40716195997618
 30
0.0
 11
1404.6839941574831
 21
698.51877263135725
 31
0.0
  0
ARC
  5
F33D
  8
GAIKEI
  6
CONTINUOUS
 10
1401.6839941574819
 20
706.17644341215623
 30
0.0
 40
3.0
 50
0.0
 51
75.963756532066384
  0
ARC
  5
F33E
  8
GAIKEI
  6
CONTINUOUS
 10
1269.6839941574819
 20
1211.6089425751061
 30
0.0
 40
5.0
 50
180.0
 51
243.43494882293521
  0
LINE
  5
F33F
  8
0
 10
1264.6839941574831
 20
1223.518772631357
 30
0.0
 11
1264.6839941574831
 21
1213.518772631357
 31
0.0
  0
LINE
  5
F340
  8
GAIKEI
  6
CONTINUOUS
 10
1264.6839941574831
 20
1213.518772631357
 30
0.0
 11
1264.6839941574831
 21
701.01877263135623
 31
0.0
  0
ARC
  5
F341
  8
GAIKEI
  6
CONTINUOUS
 10
1274.6839941574831
 20
1213.518772631357
 30
0.0
 40
10.0
 50
90.0
 51
180.0
  0
ARC
  5
F342
  8
GAIKEI
  6
CONTINUOUS
 10
1274.6839941574831
 20
1213.518772631357
 30
0.0
 40
2.0
 50
90.0
 51
150.24030945224959
  0
ARC
  5
F343
  8
GAIKEI
  6
CONTINUOUS
 10
1273.815879281482
 20
1214.0151359681049
 30
0.0
 40
1.0
 50
150.24030945224959
 51
243.43494882290591
  0
LINE
  5
F344
  8
0
 10
1264.6839941574831
 20
701.01877263135623
 30
0.0
 11
1264.6839941574831
 21
693.51877263135623
 31
0.0
  0
ARC
  5
F345
  8
GAIKEI
  6
CONTINUOUS
 10
1270.6839941574831
 20
701.84070510622144
 30
0.0
 40
6.0
 50
110.2975697722392
 51
180.0
  0
LINE
  5
F348
  8
0
  6
CENTER
 62
     6
 10
561.68399415748161
 20
1145.5187726313559
 30
0.0
 11
615.68399415748161
 21
1145.5187726313559
 31
0.0
  0
LINE
  5
F349
  8
0
  6
CENTER
 62
     6
 10
588.68399415748172
 20
1118.5187726313559
 30
0.0
 11
588.68399415748172
 21
1172.5187726313559
 31
0.0
  0
LINE
  5
F34A
  8
0
 10
1272.6839941574831
 20
693.51877263135623
 30
0.0
 11
1264.6839941574831
 21
693.51877263135623
 31
0.0
  0
LINE
  5
F34B
  8
0
 10
853.68399415748161
 20
1223.5187726313559
 30
0.0
 11
850.68399415748172
 21
1223.5187726313559
 31
0.0
  0
LINE
  5
F34C
  8
0
 10
853.68399415748161
 20
1220.5187726313559
 30
0.0
 11
853.68399415748161
 21
1223.5187726313559
 31
0.0
  0
LINE
  5
F34D
  8
0
 10
1337.683994157481
 20
733.01877263135725
 30
0.0
 11
1328.802373754362
 21
729.73378974253285
 31
0.0
  0
LINE
  5
F34E
  8
GAIKEI
  6
CONTINUOUS
 10
1328.802373754362
 20
729.73378974253285
 30
0.0
 11
1268.60261893595
 21
707.46812700147575
 31
0.0
  0
LINE
  5
F34F
  8
GAIKEI
  6
CONTINUOUS
 10
1331.5775407164051
 20
722.23056054886001
 30
0.0
 11
1278.8496909407741
 21
702.72847912499606
 31
0.0
  0
LINE
  5
F350
  8
0
 10
1268.60261893595
 20
707.46812700147575
 30
0.0
 11
1264.6839941574831
 21
706.01877263135793
 31
0.0
  0
ARC
  5
F351
  8
GAIKEI
  6
CONTINUOUS
 10
1323.5989357005301
 20
743.80234448066926
 30
0.0
 40
15.0
 50
290.29756977223923
 51
354.82683112078843
  0
ARC
  5
F352
  8
GAIKEI
  6
CONTINUOUS
 10
1323.5989357005301
 20
743.80234448066926
 30
0.0
 40
23.0
 50
290.29756977223923
 51
354.82683112078843
  0
LINE
  5
F353
  8
0
 10
1337.683994157481
 20
733.01877263135725
 30
0.0
 11
1338.5378366786581
 21
742.44985138799905
 31
0.0
  0
LINE
  5
F354
  8
GAIKEI
  6
CONTINUOUS
 10
1338.5378366786581
 20
742.44985138799905
 30
0.0
 11
1359.6839941574819
 21
976.018772631356
 31
0.0
  0
LINE
  5
F355
  8
GAIKEI
  6
CONTINUOUS
 10
1346.505250533658
 20
741.72852173857541
 30
0.0
 11
1349.014857359155
 21
769.44826985655322
 31
0.0
  0
LINE
  5
F356
  8
0
 10
1351.3915600991099
 20
773.51877263136805
 30
0.0
 11
1352.5154800319731
 21
785.9329791625297
 31
0.0
  0
LINE
  5
F357
  8
GAIKEI
  6
CONTINUOUS
 10
1352.5154800319731
 20
785.9329791625297
 30
0.0
 11
1368.1060150762989
 21
958.13752533393676
 31
0.0
  0
LINE
  5
F358
  8
0
 10
1368.1060150762989
 20
958.13752533393676
 30
0.0
 11
1368.7290086587809
 21
965.01877263135543
 31
0.0
  0
LINE
  5
F359
  8
0
 10
1404.6839941574831
 20
975.018772631356
 30
0.0
 11
1397.363543163211
 21
972.98276819616137
 31
0.0
  0
LINE
  5
F35A
  8
GAIKEI
  6
CONTINUOUS
 10
1397.363543163211
 20
972.98276819616137
 30
0.0
 11
1375.38573338932
 21
966.87017783656142
 31
0.0
  0
LINE
  5
F35B
  8
0
 10
1375.38573338932
 20
966.87017783656142
 30
0.0
 11
1368.7290086587809
 21
965.01877263135543
 31
0.0
  0
LINE
  5
F35C
  8
GAIKEI
  6
CONTINUOUS
 10
1395.2199039586269
 20
980.69021984768494
 30
0.0
 11
1373.2420941847361
 21
974.57762948808465
 31
0.0
  0
ARC
  5
F35D
  8
GAIKEI
  6
CONTINUOUS
 10
1394.6839941574819
 20
982.61708276056595
 30
0.0
 40
2.0
 50
285.54260768931709
 51
0.0
  0
ARC
  5
F35E
  8
GAIKEI
  6
CONTINUOUS
 10
1378.06528239505
 20
957.23586327215673
 30
0.0
 40
10.0
 50
105.54260768931719
 51
174.8268311207884
  0
ARC
  5
F35F
  8
GAIKEI
  6
CONTINUOUS
 10
1378.06528239505
 20
957.23586327215673
 30
0.0
 40
18.0
 50
105.54260768931719
 51
121.20058248851031
  0
ARC
  5
F360
  8
GAIKEI
  6
CONTINUOUS
 10
1368.4816218475121
 20
973.06000465516956
 30
0.0
 40
0.5
 50
137.72631099388639
 51
301.20058248851041
  0
ARC
  5
F361
  8
GAIKEI
  6
CONTINUOUS
 10
1394.6839941574819
 20
982.61708276056595
 30
0.0
 40
10.0
 50
285.54260768931709
 51
0.0
  0
LINE
  5
F362
  8
GAIKEI
  6
CONTINUOUS
 10
1404.6839941574831
 20
986.51877263135555
 30
0.0
 11
1396.6839941574831
 21
986.51877263135532
 31
0.0
  0
LINE
  5
F363
  8
0
 10
1284.6839941574869
 20
1198.518772631357
 30
0.0
 11
1284.988810420695
 21
1192.7025318484559
 31
0.0
  0
LINE
  5
F364
  8
GAIKEI
  6
CONTINUOUS
 10
1284.988810420695
 20
1192.7025318484559
 30
0.0
 11
1290.7947803063309
 21
1081.918026855775
 31
0.0
  0
LINE
  5
F365
  8
GAIKEI
  6
CONTINUOUS
 10
1297.9138804882889
 20
1098.9360840646041
 30
0.0
 11
1298.6412986922719
 21
1085.0561178852549
 31
0.0
  0
LINE
  5
F366
  8
0
 10
1290.7947803063309
 20
1081.918026855775
 30
0.0
 11
1290.972927671452
 21
1078.518772631357
 31
0.0
  0
LINE
  5
F367
  8
0
 10
1293.1512879079919
 20
1189.811764077213
 30
0.0
 11
1293.598279201816
 21
1181.2826621015399
 31
0.0
  0
LINE
  5
F368
  8
GAIKEI
  6
CONTINUOUS
 10
1293.598279201816
 20
1181.2826621015399
 30
0.0
 11
1297.0830729392151
 21
1114.788836469673
 31
0.0
  0
ARC
  5
F369
  8
GAIKEI
  6
CONTINUOUS
 10
1303.5845745493609
 20
1181.8060216639699
 30
0.0
 40
10.0
 50
101.9999999999896
 51
183.0000000000056
  0
ARC
  5
F36A
  8
GAIKEI
  6
CONTINUOUS
 10
1303.5845745493609
 20
1181.8060216639699
 30
0.0
 40
18.0
 50
101.9999999999896
 51
125.3171617706605
  0
ARC
  5
F36B
  8
GAIKEI
  6
CONTINUOUS
 10
1292.8896865195879
 20
1196.901364324229
 30
0.0
 40
0.5
 50
194.7886140604578
 51
305.31716177065891
  0
LINE
  5
F36C
  8
0
 10
1297.0830729392151
 20
1114.788836469673
 30
0.0
 11
1297.439367669456
 21
1107.9903280208309
 31
0.0
  0
ARC
  5
F36D
  8
GAIKEI
  6
CONTINUOUS
 10
1295.787927980105
 20
1082.17970663699
 30
0.0
 40
5.0
 50
183.0000000000056
 51
251.49280210023011
  0
ARC
  5
F36E
  8
GAIKEI
  6
CONTINUOUS
 10
1275.002515073149
 20
1192.1791722860271
 30
0.0
 40
10.0
 50
3.0000000000055982
 51
63.434948822935148
  0
ARC
  5
F36F
  8
GAIKEI
  6
CONTINUOUS
 10
1275.002515073149
 20
1192.1791722860271
 30
0.0
 40
18.0
 50
14.78861406045783
 51
63.434948822935148
  0
LINE
  5
F370
  8
0
 10
1404.6839941574831
 20
1223.518772631357
 30
0.0
 11
1401.6839941574819
 21
1223.518772631357
 31
0.0
  0
LINE
  5
F371
  8
GAIKEI
  6
CONTINUOUS
 10
1401.6839941574819
 20
1223.518772631357
 30
0.0
 11
1274.6839941574831
 21
1223.518772631357
 31
0.0
  0
LINE
  5
F372
  8
GAIKEI
  6
CONTINUOUS
 10
1279.4880333750889
 20
1215.518772631357
 30
0.0
 11
1274.6839941574831
 21
1215.518772631357
 31
0.0
  0
LINE
  5
F373
  8
0
 10
1274.6839941574831
 20
1223.518772631357
 30
0.0
 11
1264.6839941574799
 21
1223.518772631357
 31
0.0
  0
LINE
  5
F374
  8
0
 10
1404.6839941574831
 20
1213.518772631357
 30
0.0
 11
1402.3077292299361
 21
1213.01368192874
 31
0.0
  0
LINE
  5
F375
  8
GAIKEI
  6
CONTINUOUS
 10
1402.3077292299361
 20
1213.0136819287411
 30
0.0
 11
1301.505457641184
 21
1191.587497671308
 31
0.0
  0
ARC
  5
F376
  8
GAIKEI
  6
CONTINUOUS
 10
1399.6839941574831
 20
1215.523011607602
 30
0.0
 40
3.0
 50
281.99999999998948
 51
0.0
  0
LINE
  5
F377
  8
GAIKEI
  6
CONTINUOUS
 10
1350.072986289767
 20
1210.0895693285811
 30
0.0
 11
1299.842164114641
 21
1199.412678477179
 31
0.0
  0
ARC
  5
F378
  8
GAIKEI
  6
CONTINUOUS
 10
1349.8650745989489
 20
1211.0677169293151
 30
0.0
 40
1.0
 50
281.99999999998948
 51
87.193629748218513
  0
LINE
  5
F379
  8
0
 10
1301.505457641184
 20
1191.587497671308
 30
0.0
 11
1293.1512879079919
 21
1189.811764077213
 31
0.0
  0
ARC
  5
F37A
  8
GAIKEI
  6
CONTINUOUS
 10
1378.6839941574819
 20
1211.0593238125321
 30
0.0
 40
3.0
 50
281.99999999998948
 51
0.0
  0
ARC
  5
F37B
  8
GAIKEI
  6
CONTINUOUS
 10
1401.6839941574819
 20
1215.948124730942
 30
0.0
 40
3.0
 50
281.99999999998948
 51
0.0
  0
LINE
  5
F37C
  8
0
 10
1284.6839941574869
 20
1198.518772631357
 30
0.0
 11
1279.4746510281459
 21
1201.1234441960271
 31
0.0
  0
LINE
  5
F37D
  8
GAIKEI
  6
CONTINUOUS
 10
1279.4746510281459
 20
1201.1234441960271
 30
0.0
 11
1267.4479261799829
 21
1207.136806620106
 31
0.0
  0
LINE
  5
F37E
  8
GAIKEI
  6
CONTINUOUS
 10
1283.0523597921449
 20
1208.278861724026
 30
0.0
 11
1273.3686656859829
 21
1213.1207087771061
 31
0.0
  0
LINE
  5
F37F
  8
0
 10
1267.4479261799829
 20
1207.136806620106
 30
0.0
 11
1264.6839941574831
 21
1208.5187726313559
 31
0.0
  0
LINE
  5
F380
  8
0
 10
1290.9729276714411
 20
1078.518772631357
 30
0.0
 11
1294.2008090350839
 21
1077.4382877086141
 31
0.0
  0
LINE
  5
F381
  8
GAIKEI
  6
CONTINUOUS
 10
1294.2008090350839
 20
1077.4382877086141
 30
0.0
 11
1347.3976223595589
 21
1059.6314515025199
 31
0.0
  0
LINE
  5
F382
  8
GAIKEI
  6
CONTINUOUS
 10
1299.322504438022
 20
1084.1601700558231
 30
0.0
 11
1349.9370126715939
 21
1067.21772178792
 31
0.0
  0
ARC
  5
F383
  8
GAIKEI
  6
CONTINUOUS
 10
1299.6399282270261
 20
1085.108453841498
 30
0.0
 40
1.0
 50
183.0000000000056
 51
251.49280210023011
  0
LINE
  5
F384
  8
0
 10
1347.3976223595589
 20
1059.6314515025199
 30
0.0
 11
1359.683994157481
 21
1055.518772631357
 31
0.0
  0
LINE
  5
F385
  8
0
 10
1297.439367669456
 20
1107.9903280208309
 30
0.0
 11
1303.8951303967181
 21
1105.8293581753519
 31
0.0
  0
LINE
  5
F386
  8
GAIKEI
  6
CONTINUOUS
 10
1303.8951303967181
 20
1105.8293581753519
 30
0.0
 11
1356.9203360296881
 21
1088.0799650727699
 31
0.0
  0
LINE
  5
F387
  8
GAIKEI
  6
CONTINUOUS
 10
1301.3557400846839
 20
1098.243087889952
 30
0.0
 11
1354.380945717654
 21
1080.49369478737
 31
0.0
  0
ARC
  5
F388
  8
GAIKEI
  6
CONTINUOUS
 10
1307.0693682867609
 20
1115.3121960321021
 30
0.0
 40
10.0
 50
183.0000000000056
 51
251.49280210023011
  0
ARC
  5
F389
  8
GAIKEI
  6
CONTINUOUS
 10
1307.0693682867609
 20
1115.3121960321021
 30
0.0
 40
18.0
 50
242.1018521747564
 51
251.49280210023011
  0
ARC
  5
F38A
  8
GAIKEI
  6
CONTINUOUS
 10
1298.4131952556661
 20
1098.962252042726
 30
0.0
 40
0.5
 50
62.101852174756353
 51
183.0000000000056
  0
LINE
  5
F38B
  8
GAIKEI
  6
CONTINUOUS
 10
1389.655048278714
 20
1053.151928292654
 30
0.0
 11
1400.6364778925481
 21
1045.017095267064
 31
0.0
  0
LINE
  5
F38C
  8
0
 10
1400.6364778925481
 20
1045.017095267064
 30
0.0
 11
1404.6839941574831
 21
1042.0187726313541
 31
0.0
  0
LINE
  5
F38D
  8
GAIKEI
  6
CONTINUOUS
 10
1384.8930612906611
 20
1046.7235941440881
 30
0.0
 11
1396.2792425309881
 21
1038.288928854927
 31
0.0
  0
LINE
  5
F38E
  8
0
 10
838.68399415747956
 20
1208.518772631355
 30
0.0
 11
823.68399415747956
 21
1208.518772631355
 31
0.0
  0
LINE
  5
F38F
  8
GAIKEI
  6
CONTINUOUS
 10
823.68399415747956
 20
1208.518772631355
 30
0.0
 11
353.68399415748348
 21
1208.518772631355
 31
0.0
  0
LINE
  5
F390
  8
0
 10
353.68399415748348
 20
1208.518772631355
 30
0.0
 11
338.6839941574836
 21
1208.518772631355
 31
0.0
  0
ARC
  5
F391
  8
GAIKEI
  6
CONTINUOUS
 10
823.68399415747956
 20
1193.518772631355
 30
0.0
 40
15.0
 50
0.0
 51
90.0
  0
LINE
  5
F392
  8
0
 10
838.68399415747956
 20
706.01877263135725
 30
0.0
 11
823.68399415747956
 21
706.01877263135725
 31
0.0
  0
LINE
  5
F393
  8
GAIKEI
  6
CONTINUOUS
 10
823.68399415747956
 20
706.01877263135725
 30
0.0
 11
353.6839941574799
 21
706.01877263135725
 31
0.0
  0
LINE
  5
F394
  8
0
 10
353.6839941574799
 20
706.01877263135725
 30
0.0
 11
338.6839941574836
 21
706.01877263135725
 31
0.0
  0
ARC
  5
F395
  8
GAIKEI
  6
CONTINUOUS
 10
353.6839941574799
 20
721.01877263135725
 30
0.0
 40
15.0
 50
180.0
 51
270.0
  0
LINE
  5
F396
  8
0
 10
838.68399415747956
 20
1208.518772631355
 30
0.0
 11
838.68399415747956
 21
1193.518772631355
 31
0.0
  0
LINE
  5
F397
  8
GAIKEI
  6
CONTINUOUS
 10
838.68399415747956
 20
1193.518772631355
 30
0.0
 11
838.68399415747956
 21
721.01877263135543
 31
0.0
  0
LINE
  5
F398
  8
0
 10
838.68399415747956
 20
721.01877263135543
 30
0.0
 11
838.68399415747956
 21
706.01877263135725
 31
0.0
  0
ARC
  5
F399
  8
GAIKEI
  6
CONTINUOUS
 10
823.68399415747956
 20
721.01877263135543
 30
0.0
 40
15.0
 50
270.0
 51
0.0
  0
LINE
  5
F39A
  8
0
 10
338.6839941574836
 20
1208.518772631355
 30
0.0
 11
338.6839941574836
 21
1193.5187726313579
 31
0.0
  0
LINE
  5
F39B
  8
GAIKEI
  6
CONTINUOUS
 10
338.6839941574836
 20
1193.5187726313579
 30
0.0
 11
338.6839941574836
 21
721.01877263135725
 31
0.0
  0
LINE
  5
F39C
  8
0
 10
338.6839941574836
 20
721.01877263135725
 30
0.0
 11
338.6839941574836
 21
706.01877263135725
 31
0.0
  0
ARC
  5
F39D
  8
GAIKEI
  6
CONTINUOUS
 10
353.68399415748348
 20
1193.5187726313579
 30
0.0
 40
15.0
 50
90.0
 51
180.0
  0
LINE
  5
F39E
  8
0
 10
823.05996612509875
 20
1198.518772631357
 30
0.0
 11
354.30802218986372
 21
1198.518772631357
 31
0.0
  0
LINE
  5
F39F
  8
GAIKEI
  6
CONTINUOUS
 10
821.33741698854533
 20
1078.518772631357
 30
0.0
 11
356.03057132641698
 21
1078.518772631357
 31
0.0
  0
LINE
  5
F3A0
  8
0
 10
833.05893601500895
 20
1188.3752416567711
 30
0.0
 11
831.33638687845632
 21
1068.3752416567711
 31
0.0
  0
ARC
  5
F3A1
  8
GAIKEI
  6
CONTINUOUS
 10
821.33741698854533
 20
1068.518772631357
 30
0.0
 40
10.0
 50
359.17759985373641
 51
90.0
  0
ARC
  5
F3A2
  8
0
 10
823.05996612509875
 20
1188.518772631357
 30
0.0
 40
10.0
 50
359.17759985373641
 51
90.0
  0
LINE
  5
F3A3
  8
0
 10
833.20454210269145
 20
1198.518772631357
 30
0.0
 11
835.51642821995836
 21
1202.737964795373
 31
0.0
  0
LINE
  5
F3A4
  8
0
 10
344.30905229995369
 20
1188.3752416567711
 30
0.0
 11
346.03160143650712
 21
1068.3752416567711
 31
0.0
  0
ARC
  5
F3A5
  8
GAIKEI
  6
CONTINUOUS
 10
356.03057132641698
 20
1068.518772631357
 30
0.0
 40
10.0
 50
90.0
 51
180.82240014626359
  0
ARC
  5
F3A6
  8
0
 10
354.30802218986372
 20
1188.518772631357
 30
0.0
 40
10.0
 50
90.0
 51
180.82240014626359
  0
LINE
  5
F3A7
  8
0
 10
346.33535328650402
 20
1194.5550422208789
 30
0.0
 11
341.85156009500503
 21
1202.737964795373
 31
0.0
  0
LINE
  5
F3A8
  8
0
  6
CENTER
 62
     6
 10
1306.3858087264209
 20
1068.0868584160321
 30
0.0
 11
1312.099436928499
 21
1085.155966558184
 31
0.0
  0
LINE
  5
F3A9
  8
GAIKEI
  6
CONTINUOUS
 10
1314.610914171169
 20
1070.606310821378
 30
0.0
 11
1317.1503044832029
 21
1078.1925811067781
 31
0.0
  0
LINE
  5
F3AA
  8
GAIKEI
  6
CONTINUOUS
 10
1301.3349411717179
 20
1075.050243867438
 30
0.0
 11
1303.8743314837529
 21
1082.636514152839
 31
0.0
  0
LINE
  5
F3AB
  8
GAIKEI
  6
CONTINUOUS
 10
604.18399415747979
 20
1075.050243867438
 30
0.0
 11
573.1839941574799
 21
1075.050243867438
 31
0.0
  0
LINE
  5
F3AC
  8
GAIKEI
  6
CONTINUOUS
 10
604.18399415747979
 20
1070.6063108213791
 30
0.0
 11
573.1839941574799
 21
1070.6063108213791
 31
0.0
  0
POLYLINE
  5
F3AD
  8
GAIKEI
  6
CONTINUOUS
 10
604.18399415747979
 20
1070.6063108213832
 30
0.0
 66
     1
 70
     8
  0
VERTEX
  8
GAIKEI
  5
11C4D
 10
604.184
 20
1070.61
 30
0.000000
  70
    32
  0
VERTEX
  8
GAIKEI
  5
11C4E
 10
604.356
 20
1070.61
 30
0.000000
  70
    32
  0
VERTEX
  8
GAIKEI
  5
11C4F
 10
604.527
 20
1070.61
 30
0.000000
  70
    32
  0
VERTEX
  8
GAIKEI
  5
11C50
 10
604.699
 20
1070.61
 30
0.000000
  70
    32
  0
VERTEX
  8
GAIKEI
  5
11C51
 10
604.870
 20
1070.62
 30
0.000000
  70
    32
  0
VERTEX
  8
GAIKEI
  5
11C52
 10
605.041
 20
1070.62
 30
0.000000
  70
    32
  0
VERTEX
  8
GAIKEI
  5
11C53
 10
605.211
 20
1070.63
 30
0.000000
  70
    32
  0
VERTEX
  8
GAIKEI
  5
11C54
 10
605.381
 20
1070.64
 30
0.000000
  70
    32
  0
VERTEX
  8
GAIKEI
  5
11C55
 10
605.550
 20
1070.65
 30
0.000000
  70
    32
  0
VERTEX
  8
GAIKEI
  5
11C56
 10
605.718
 20
1070.66
 30
0.000000
  70
    32
  0
VERTEX
  8
GAIKEI
  5
11C57
 10
605.885
 20
1070.67
 30
0.000000
  70
    32
  0
VERTEX
  8
GAIKEI
  5
11C58
 10
606.051
 20
1070.69
 30
0.000000
  70
    32
  0
VERTEX
  8
GAIKEI
  5
11C59
 10
606.216
 20
1070.70
 30
0.000000
  70
    32
  0
VERTEX
  8
GAIKEI
  5
11C5A
 10
606.380
 20
1070.72
 30
0.000000
  70
    32
  0
VERTEX
  8
GAIKEI
  5
11C5B
 10
606.542
 20
1070.74
 30
0.000000
  70
    32
  0
VERTEX
  8
GAIKEI
  5
11C5C
 10
606.703
 20
1070.76
 30
0.000000
  70
    32
  0
VERTEX
  8
GAIKEI
  5
11C5D
 10
606.863
 20
1070.78
 30
0.000000
  70
    32
  0
VERTEX
  8
GAIKEI
  5
11C5E
 10
607.021
 20
1070.80
 30
0.000000
  70
    32
  0
VERTEX
  8
GAIKEI
  5
11C5F
 10
607.177
 20
1070.82
 30
0.000000
  70
    32
  0
VERTEX
  8
GAIKEI
  5
11C60
 10
607.331
 20
1070.84
 30
0.000000
  70
    32
  0
VERTEX
  8
GAIKEI
  5
11C61
 10
607.484
 20
1070.87
 30
0.000000
  70
    32
  0
VERTEX
  8
GAIKEI
  5
11C62
 10
607.634
 20
1070.89
 30
0.000000
  70
    32
  0
VERTEX
  8
GAIKEI
  5
11C63
 10
607.783
 20
1070.92
 30
0.000000
  70
    32
  0
VERTEX
  8
GAIKEI
  5
11C64
 10
607.929
 20
1070.95
 30
0.000000
  70
    32
  0
VERTEX
  8
GAIKEI
  5
11C65
 10
608.073
 20
1070.98
 30
0.000000
  70
    32
  0
VERTEX
  8
GAIKEI
  5
11C66
 10
608.215
 20
1071.01
 30
0.000000
  70
    32
  0
VERTEX
  8
GAIKEI
  5
11C67
 10
608.354
 20
1071.04
 30
0.000000
  70
    32
  0
VERTEX
  8
GAIKEI
  5
11C68
 10
608.491
 20
1071.08
 30
0.000000
  70
    32
  0
VERTEX
  8
GAIKEI
  5
11C69
 10
608.625
 20
1071.11
 30
0.000000
  70
    32
  0
VERTEX
  8
GAIKEI
  5
11C6A
 10
608.756
 20
1071.15
 30
0.000000
  70
    32
  0
VERTEX
  8
GAIKEI
  5
11C6B
 10
608.885
 20
1071.18
 30
0.000000
  70
    32
  0
VERTEX
  8
GAIKEI
  5
11C6C
 10
609.011
 20
1071.22
 30
0.000000
  70
    32
  0
VERTEX
  8
GAIKEI
  5
11C6D
 10
609.134
 20
1071.26
 30
0.000000
  70
    32
  0
VERTEX
  8
GAIKEI
  5
11C6E
 10
609.254
 20
1071.30
 30
0.000000
  70
    32
  0
VERTEX
  8
GAIKEI
  5
11C6F
 10
609.371
 20
1071.34
 30
0.000000
  70
    32
  0
VERTEX
  8
GAIKEI
  5
11C70
 10
609.484
 20
1071.38
 30
0.000000
  70
    32
  0
VERTEX
  8
GAIKEI
  5
11C71
 10
609.595
 20
1071.42
 30
0.000000
  70
    32
  0
VERTEX
  8
GAIKEI
  5
11C72
 10
609.702
 20
1071.46
 30
0.000000
  70
    32
  0
VERTEX
  8
GAIKEI
  5
11C73
 10
609.806
 20
1071.50
 30
0.000000
  70
    32
  0
VERTEX
  8
GAIKEI
  5
11C74
 10
609.907
 20
1071.55
 30
0.000000
  70
    32
  0
VERTEX
  8
GAIKEI
  5
11C75
 10
610.004
 20
1071.59
 30
0.000000
  70
    32
  0
VERTEX
  8
GAIKEI
  5
11C76
 10
610.098
 20
1071.64
 30
0.000000
  70
    32
  0
VERTEX
  8
GAIKEI
  5
11C77
 10
610.188
 20
1071.69
 30
0.000000
  70
    32
  0
VERTEX
  8
GAIKEI
  5
11C78
 10
610.275
 20
1071.73
 30
0.000000
  70
    32
  0
VERTEX
  8
GAIKEI
  5
11C79
 10
610.357
 20
1071.78
 30
0.000000
  70
    32
  0
VERTEX
  8
GAIKEI
  5
11C7A
 10
610.437
 20
1071.83
 30
0.000000
  70
    32
  0
VERTEX
  8
GAIKEI
  5
11C7B
 10
610.512
 20
1071.88
 30
0.000000
  70
    32
  0
VERTEX
  8
GAIKEI
  5
11C7C
 10
610.583
 20
1071.93
 30
0.000000
  70
    32
  0
VERTEX
  8
GAIKEI
  5
11C7D
 10
610.651
 20
1071.98
 30
0.000000
  70
    32
  0
VERTEX
  8
GAIKEI
  5
11C7E
 10
610.715
 20
1072.03
 30
0.000000
  70
    32
  0
VERTEX
  8
GAIKEI
  5
11C7F
 10
610.775
 20
1072.08
 30
0.000000
  70
    32
  0
VERTEX
  8
GAIKEI
  5
11C80
 10
610.831
 20
1072.13
 30
0.000000
  70
    32
  0
VERTEX
  8
GAIKEI
  5
11C81
 10
610.883
 20
1072.18
 30
0.000000
  70
    32
  0
VERTEX
  8
GAIKEI
  5
11C82
 10
610.930
 20
1072.24
 30
0.000000
  70
    32
  0
VERTEX
  8
GAIKEI
  5
11C83
 10
610.974
 20
1072.29
 30
0.000000
  70
    32
  0
VERTEX
  8
GAIKEI
  5
11C84
 10
611.014
 20
1072.34
 30
0.000000
  70
    32
  0
VERTEX
  8
GAIKEI
  5
11C85
 10
611.049
 20
1072.39
 30
0.000000
  70
    32
  0
VERTEX
  8
GAIKEI
  5
11C86
 10
611.081
 20
1072.45
 30
0.000000
  70
    32
  0
VERTEX
  8
GAIKEI
  5
11C87
 10
611.108
 20
1072.50
 30
0.000000
  70
    32
  0
VERTEX
  8
GAIKEI
  5
11C88
 10
611.131
 20
1072.56
 30
0.000000
  70
    32
  0
VERTEX
  8
GAIKEI
  5
11C89
 10
611.150
 20
1072.61
 30
0.000000
  70
    32
  0
VERTEX
  8
GAIKEI
  5
11C8A
 10
611.165
 20
1072.66
 30
0.000000
  70
    32
  0
VERTEX
  8
GAIKEI
  5
11C8B
 10
611.176
 20
1072.72
 30
0.000000
  70
    32
  0
VERTEX
  8
GAIKEI
  5
11C8C
 10
611.182
 20
1072.77
 30
0.000000
  70
    32
  0
VERTEX
  8
GAIKEI
  5
11C8D
 10
611.184
 20
1072.83
 30
0.000000
  70
    32
  0
VERTEX
  8
GAIKEI
  5
11C8E
 10
611.182
 20
1072.88
 30
0.000000
  70
    32
  0
VERTEX
  8
GAIKEI
  5
11C8F
 10
611.176
 20
1072.94
 30
0.000000
  70
    32
  0
VERTEX
  8
GAIKEI
  5
11C90
 10
611.165
 20
1072.99
 30
0.000000
  70
    32
  0
VERTEX
  8
GAIKEI
  5
11C91
 10
611.150
 20
1073.05
 30
0.000000
  70
    32
  0
VERTEX
  8
GAIKEI
  5
11C92
 10
611.131
 20
1073.10
 30
0.000000
  70
    32
  0
VERTEX
  8
GAIKEI
  5
11C93
 10
611.108
 20
1073.15
 30
0.000000
  70
    32
  0
VERTEX
  8
GAIKEI
  5
11C94
 10
611.081
 20
1073.21
 30
0.000000
  70
    32
  0
VERTEX
  8
GAIKEI
  5
11C95
 10
611.049
 20
1073.26
 30
0.000000
  70
    32
  0
VERTEX
  8
GAIKEI
  5
11C96
 10
611.014
 20
1073.32
 30
0.000000
  70
    32
  0
VERTEX
  8
GAIKEI
  5
11C97
 10
610.974
 20
1073.37
 30
0.000000
  70
    32
  0
VERTEX
  8
GAIKEI
  5
11C98
 10
610.930
 20
1073.42
 30
0.000000
  70
    32
  0
VERTEX
  8
GAIKEI
  5
11C99
 10
610.883
 20
1073.47
 30
0.000000
  70
    32
  0
VERTEX
  8
GAIKEI
  5
11C9A
 10
610.831
 20
1073.53
 30
0.000000
  70
    32
  0
VERTEX
  8
GAIKEI
  5
11C9B
 10
610.775
 20
1073.58
 30
0.000000
  70
    32
  0
VERTEX
  8
GAIKEI
  5
11C9C
 10
610.715
 20
1073.63
 30
0.000000
  70
    32
  0
VERTEX
  8
GAIKEI
  5
11C9D
 10
610.651
 20
1073.68
 30
0.000000
  70
    32
  0
VERTEX
  8
GAIKEI
  5
11C9E
 10
610.583
 20
1073.73
 30
0.000000
  70
    32
  0
VERTEX
  8
GAIKEI
  5
11C9F
 10
610.512
 20
1073.78
 30
0.000000
  70
    32
  0
VERTEX
  8
GAIKEI
  5
11CA0
 10
610.437
 20
1073.83
 30
0.000000
  70
    32
  0
VERTEX
  8
GAIKEI
  5
11CA1
 10
610.357
 20
1073.88
 30
0.000000
  70
    32
  0
VERTEX
  8
GAIKEI
  5
11CA2
 10
610.275
 20
1073.92
 30
0.000000
  70
    32
  0
VERTEX
  8
GAIKEI
  5
11CA3
 10
610.188
 20
1073.97
 30
0.000000
  70
    32
  0
VERTEX
  8
GAIKEI
  5
11CA4
 10
610.098
 20
1074.02
 30
0.000000
  70
    32
  0
VERTEX
  8
GAIKEI
  5
11CA5
 10
610.004
 20
1074.06
 30
0.000000
  70
    32
  0
VERTEX
  8
GAIKEI
  5
11CA6
 10
609.907
 20
1074.11
 30
0.000000
  70
    32
  0
VERTEX
  8
GAIKEI
  5
11CA7
 10
609.806
 20
1074.15
 30
0.000000
  70
    32
  0
VERTEX
  8
GAIKEI
  5
11CA8
 10
609.702
 20
1074.20
 30
0.000000
  70
    32
  0
VERTEX
  8
GAIKEI
  5
11CA9
 10
609.595
 20
1074.24
 30
0.000000
  70
    32
  0
VERTEX
  8
GAIKEI
  5
11CAA
 10
609.484
 20
1074.28
 30
0.000000
  70
    32
  0
VERTEX
  8
GAIKEI
  5
11CAB
 10
609.371
 20
1074.32
 30
0.000000
  70
    32
  0
VERTEX
  8
GAIKEI
  5
11CAC
 10
609.254
 20
1074.36
 30
0.000000
  70
    32
  0
VERTEX
  8
GAIKEI
  5
11CAD
 10
609.134
 20
1074.40
 30
0.000000
  70
    32
  0
VERTEX
  8
GAIKEI
  5
11CAE
 10
609.011
 20
1074.44
 30
0.000000
  70
    32
  0
VERTEX
  8
GAIKEI
  5
11CAF
 10
608.885
 20
1074.47
 30
0.000000
  70
    32
  0
VERTEX
  8
GAIKEI
  5
11CB0
 10
608.756
 20
1074.51
 30
0.000000
  70
    32
  0
VERTEX
  8
GAIKEI
  5
11CB1
 10
608.625
 20
1074.55
 30
0.000000
  70
    32
  0
VERTEX
  8
GAIKEI
  5
11CB2
 10
608.491
 20
1074.58
 30
0.000000
  70
    32
  0
VERTEX
  8
GAIKEI
  5
11CB3
 10
608.354
 20
1074.61
 30
0.000000
  70
    32
  0
VERTEX
  8
GAIKEI
  5
11CB4
 10
608.215
 20
1074.64
 30
0.000000
  70
    32
  0
VERTEX
  8
GAIKEI
  5
11CB5
 10
608.073
 20
1074.68
 30
0.000000
  70
    32
  0
VERTEX
  8
GAIKEI
  5
11CB6
 10
607.929
 20
1074.71
 30
0.000000
  70
    32
  0
VERTEX
  8
GAIKEI
  5
11CB7
 10
607.783
 20
1074.73
 30
0.000000
  70
    32
  0
VERTEX
  8
GAIKEI
  5
11CB8
 10
607.634
 20
1074.76
 30
0.000000
  70
    32
  0
VERTEX
  8
GAIKEI
  5
11CB9
 10
607.484
 20
1074.79
 30
0.000000
  70
    32
  0
VERTEX
  8
GAIKEI
  5
11CBA
 10
607.331
 20
1074.81
 30
0.000000
  70
    32
  0
VERTEX
  8
GAIKEI
  5
11CBB
 10
607.177
 20
1074.84
 30
0.000000
  70
    32
  0
VERTEX
  8
GAIKEI
  5
11CBC
 10
607.021
 20
1074.86
 30
0.000000
  70
    32
  0
VERTEX
  8
GAIKEI
  5
11CBD
 10
606.863
 20
1074.88
 30
0.000000
  70
    32
  0
VERTEX
  8
GAIKEI
  5
11CBE
 10
606.703
 20
1074.90
 30
0.000000
  70
    32
  0
VERTEX
  8
GAIKEI
  5
11CBF
 10
606.542
 20
1074.92
 30
0.000000
  70
    32
  0
VERTEX
  8
GAIKEI
  5
11CC0
 10
606.380
 20
1074.94
 30
0.000000
  70
    32
  0
VERTEX
  8
GAIKEI
  5
11CC1
 10
606.216
 20
1074.95
 30
0.000000
  70
    32
  0
VERTEX
  8
GAIKEI
  5
11CC2
 10
606.051
 20
1074.97
 30
0.000000
  70
    32
  0
VERTEX
  8
GAIKEI
  5
11CC3
 10
605.885
 20
1074.98
 30
0.000000
  70
    32
  0
VERTEX
  8
GAIKEI
  5
11CC4
 10
605.718
 20
1075.00
 30
0.000000
  70
    32
  0
VERTEX
  8
GAIKEI
  5
11CC5
 10
605.550
 20
1075.01
 30
0.000000
  70
    32
  0
VERTEX
  8
GAIKEI
  5
11CC6
 10
605.381
 20
1075.02
 30
0.000000
  70
    32
  0
VERTEX
  8
GAIKEI
  5
11CC7
 10
605.211
 20
1075.03
 30
0.000000
  70
    32
  0
VERTEX
  8
GAIKEI
  5
11CC8
 10
605.041
 20
1075.03
 30
0.000000
  70
    32
  0
VERTEX
  8
GAIKEI
  5
11CC9
 10
604.870
 20
1075.04
 30
0.000000
  70
    32
  0
VERTEX
  8
GAIKEI
  5
11CCA
 10
604.699
 20
1075.04
 30
0.000000
  70
    32
  0
VERTEX
  8
GAIKEI
  5
11CCB
 10
604.527
 20
1075.05
 30
0.000000
  70
    32
  0
VERTEX
  8
GAIKEI
  5
11CCC
 10
604.356
 20
1075.05
 30
0.000000
  70
    32
  0
VERTEX
  8
GAIKEI
  5
11CCD
 10
604.184
 20
1075.05
 30
0.000000
  70
    32
  0
SEQEND
  8
GAIKEI
  5
11CCE
  0
POLYLINE
  5
F3AE
  8
GAIKEI
  6
CONTINUOUS
 10
573.1839941574799
 20
1070.6063108213832
 30
0.0
 66
     1
 70
     8
  0
VERTEX
  8
GAIKEI
  5
11CCF
 10
573.184
 20
1070.61
 30
0.000000
  70
    32
  0
VERTEX
  8
GAIKEI
  5
11CD0
 10
573.012
 20
1070.61
 30
0.000000
  70
    32
  0
VERTEX
  8
GAIKEI
  5
11CD1
 10
572.841
 20
1070.61
 30
0.000000
  70
    32
  0
VERTEX
  8
GAIKEI
  5
11CD2
 10
572.669
 20
1070.61
 30
0.000000
  70
    32
  0
VERTEX
  8
GAIKEI
  5
11CD3
 10
572.498
 20
1070.62
 30
0.000000
  70
    32
  0
VERTEX
  8
GAIKEI
  5
11CD4
 10
572.327
 20
1070.62
 30
0.000000
  70
    32
  0
VERTEX
  8
GAIKEI
  5
11CD5
 10
572.157
 20
1070.63
 30
0.000000
  70
    32
  0
VERTEX
  8
GAIKEI
  5
11CD6
 10
571.987
 20
1070.64
 30
0.000000
  70
    32
  0
VERTEX
  8
GAIKEI
  5
11CD7
 10
571.818
 20
1070.65
 30
0.000000
  70
    32
  0
VERTEX
  8
GAIKEI
  5
11CD8
 10
571.650
 20
1070.66
 30
0.000000
  70
    32
  0
VERTEX
  8
GAIKEI
  5
11CD9
 10
571.483
 20
1070.67
 30
0.000000
  70
    32
  0
VERTEX
  8
GAIKEI
  5
11CDA
 10
571.317
 20
1070.69
 30
0.000000
  70
    32
  0
VERTEX
  8
GAIKEI
  5
11CDB
 10
571.152
 20
1070.70
 30
0.000000
  70
    32
  0
VERTEX
  8
GAIKEI
  5
11CDC
 10
570.988
 20
1070.72
 30
0.000000
  70
    32
  0
VERTEX
  8
GAIKEI
  5
11CDD
 10
570.826
 20
1070.74
 30
0.000000
  70
    32
  0
VERTEX
  8
GAIKEI
  5
11CDE
 10
570.665
 20
1070.76
 30
0.000000
  70
    32
  0
VERTEX
  8
GAIKEI
  5
11CDF
 10
570.505
 20
1070.78
 30
0.000000
  70
    32
  0
VERTEX
  8
GAIKEI
  5
11CE0
 10
570.347
 20
1070.80
 30
0.000000
  70
    32
  0
VERTEX
  8
GAIKEI
  5
11CE1
 10
570.191
 20
1070.82
 30
0.000000
  70
    32
  0
VERTEX
  8
GAIKEI
  5
11CE2
 10
570.037
 20
1070.84
 30
0.000000
  70
    32
  0
VERTEX
  8
GAIKEI
  5
11CE3
 10
569.884
 20
1070.87
 30
0.000000
  70
    32
  0
VERTEX
  8
GAIKEI
  5
11CE4
 10
569.734
 20
1070.89
 30
0.000000
  70
    32
  0
VERTEX
  8
GAIKEI
  5
11CE5
 10
569.585
 20
1070.92
 30
0.000000
  70
    32
  0
VERTEX
  8
GAIKEI
  5
11CE6
 10
569.439
 20
1070.95
 30
0.000000
  70
    32
  0
VERTEX
  8
GAIKEI
  5
11CE7
 10
569.295
 20
1070.98
 30
0.000000
  70
    32
  0
VERTEX
  8
GAIKEI
  5
11CE8
 10
569.153
 20
1071.01
 30
0.000000
  70
    32
  0
VERTEX
  8
GAIKEI
  5
11CE9
 10
569.014
 20
1071.04
 30
0.000000
  70
    32
  0
VERTEX
  8
GAIKEI
  5
11CEA
 10
568.877
 20
1071.08
 30
0.000000
  70
    32
  0
VERTEX
  8
GAIKEI
  5
11CEB
 10
568.743
 20
1071.11
 30
0.000000
  70
    32
  0
VERTEX
  8
GAIKEI
  5
11CEC
 10
568.612
 20
1071.15
 30
0.000000
  70
    32
  0
VERTEX
  8
GAIKEI
  5
11CED
 10
568.483
 20
1071.18
 30
0.000000
  70
    32
  0
VERTEX
  8
GAIKEI
  5
11CEE
 10
568.357
 20
1071.22
 30
0.000000
  70
    32
  0
VERTEX
  8
GAIKEI
  5
11CEF
 10
568.234
 20
1071.26
 30
0.000000
  70
    32
  0
VERTEX
  8
GAIKEI
  5
11CF0
 10
568.114
 20
1071.30
 30
0.000000
  70
    32
  0
VERTEX
  8
GAIKEI
  5
11CF1
 10
567.997
 20
1071.34
 30
0.000000
  70
    32
  0
VERTEX
  8
GAIKEI
  5
11CF2
 10
567.884
 20
1071.38
 30
0.000000
  70
    32
  0
VERTEX
  8
GAIKEI
  5
11CF3
 10
567.773
 20
1071.42
 30
0.000000
  70
    32
  0
VERTEX
  8
GAIKEI
  5
11CF4
 10
567.666
 20
1071.46
 30
0.000000
  70
    32
  0
VERTEX
  8
GAIKEI
  5
11CF5
 10
567.562
 20
1071.50
 30
0.000000
  70
    32
  0
VERTEX
  8
GAIKEI
  5
11CF6
 10
567.461
 20
1071.55
 30
0.000000
  70
    32
  0
VERTEX
  8
GAIKEI
  5
11CF7
 10
567.364
 20
1071.59
 30
0.000000
  70
    32
  0
VERTEX
  8
GAIKEI
  5
11CF8
 10
567.270
 20
1071.64
 30
0.000000
  70
    32
  0
VERTEX
  8
GAIKEI
  5
11CF9
 10
567.180
 20
1071.69
 30
0.000000
  70
    32
  0
VERTEX
  8
GAIKEI
  5
11CFA
 10
567.093
 20
1071.73
 30
0.000000
  70
    32
  0
VERTEX
  8
GAIKEI
  5
11CFB
 10
567.011
 20
1071.78
 30
0.000000
  70
    32
  0
VERTEX
  8
GAIKEI
  5
11CFC
 10
566.931
 20
1071.83
 30
0.000000
  70
    32
  0
VERTEX
  8
GAIKEI
  5
11CFD
 10
566.856
 20
1071.88
 30
0.000000
  70
    32
  0
VERTEX
  8
GAIKEI
  5
11CFE
 10
566.785
 20
1071.93
 30
0.000000
  70
    32
  0
VERTEX
  8
GAIKEI
  5
11CFF
 10
566.717
 20
1071.98
 30
0.000000
  70
    32
  0
VERTEX
  8
GAIKEI
  5
11D00
 10
566.653
 20
1072.03
 30
0.000000
  70
    32
  0
VERTEX
  8
GAIKEI
  5
11D01
 10
566.593
 20
1072.08
 30
0.000000
  70
    32
  0
VERTEX
  8
GAIKEI
  5
11D02
 10
566.537
 20
1072.13
 30
0.000000
  70
    32
  0
VERTEX
  8
GAIKEI
  5
11D03
 10
566.485
 20
1072.18
 30
0.000000
  70
    32
  0
VERTEX
  8
GAIKEI
  5
11D04
 10
566.438
 20
1072.24
 30
0.000000
  70
    32
  0
VERTEX
  8
GAIKEI
  5
11D05
 10
566.394
 20
1072.29
 30
0.000000
  70
    32
  0
VERTEX
  8
GAIKEI
  5
11D06
 10
566.354
 20
1072.34
 30
0.000000
  70
    32
  0
VERTEX
  8
GAIKEI
  5
11D07
 10
566.318
 20
1072.39
 30
0.000000
  70
    32
  0
VERTEX
  8
GAIKEI
  5
11D08
 10
566.287
 20
1072.45
 30
0.000000
  70
    32
  0
VERTEX
  8
GAIKEI
  5
11D09
 10
566.260
 20
1072.50
 30
0.000000
  70
    32
  0
VERTEX
  8
GAIKEI
  5
11D0A
 10
566.237
 20
1072.56
 30
0.000000
  70
    32
  0
VERTEX
  8
GAIKEI
  5
11D0B
 10
566.218
 20
1072.61
 30
0.000000
  70
    32
  0
VERTEX
  8
GAIKEI
  5
11D0C
 10
566.203
 20
1072.66
 30
0.000000
  70
    32
  0
VERTEX
  8
GAIKEI
  5
11D0D
 10
566.192
 20
1072.72
 30
0.000000
  70
    32
  0
VERTEX
  8
GAIKEI
  5
11D0E
 10
566.186
 20
1072.77
 30
0.000000
  70
    32
  0
VERTEX
  8
GAIKEI
  5
11D0F
 10
566.184
 20
1072.83
 30
0.000000
  70
    32
  0
VERTEX
  8
GAIKEI
  5
11D10
 10
566.186
 20
1072.88
 30
0.000000
  70
    32
  0
VERTEX
  8
GAIKEI
  5
11D11
 10
566.192
 20
1072.94
 30
0.000000
  70
    32
  0
VERTEX
  8
GAIKEI
  5
11D12
 10
566.203
 20
1072.99
 30
0.000000
  70
    32
  0
VERTEX
  8
GAIKEI
  5
11D13
 10
566.218
 20
1073.05
 30
0.000000
  70
    32
  0
VERTEX
  8
GAIKEI
  5
11D14
 10
566.237
 20
1073.10
 30
0.000000
  70
    32
  0
VERTEX
  8
GAIKEI
  5
11D15
 10
566.260
 20
1073.15
 30
0.000000
  70
    32
  0
VERTEX
  8
GAIKEI
  5
11D16
 10
566.287
 20
1073.21
 30
0.000000
  70
    32
  0
VERTEX
  8
GAIKEI
  5
11D17
 10
566.318
 20
1073.26
 30
0.000000
  70
    32
  0
VERTEX
  8
GAIKEI
  5
11D18
 10
566.354
 20
1073.32
 30
0.000000
  70
    32
  0
VERTEX
  8
GAIKEI
  5
11D19
 10
566.394
 20
1073.37
 30
0.000000
  70
    32
  0
VERTEX
  8
GAIKEI
  5
11D1A
 10
566.438
 20
1073.42
 30
0.000000
  70
    32
  0
VERTEX
  8
GAIKEI
  5
11D1B
 10
566.485
 20
1073.47
 30
0.000000
  70
    32
  0
VERTEX
  8
GAIKEI
  5
11D1C
 10
566.537
 20
1073.53
 30
0.000000
  70
    32
  0
VERTEX
  8
GAIKEI
  5
11D1D
 10
566.593
 20
1073.58
 30
0.000000
  70
    32
  0
VERTEX
  8
GAIKEI
  5
11D1E
 10
566.653
 20
1073.63
 30
0.000000
  70
    32
  0
VERTEX
  8
GAIKEI
  5
11D1F
 10
566.717
 20
1073.68
 30
0.000000
  70
    32
  0
VERTEX
  8
GAIKEI
  5
11D20
 10
566.785
 20
1073.73
 30
0.000000
  70
    32
  0
VERTEX
  8
GAIKEI
  5
11D21
 10
566.856
 20
1073.78
 30
0.000000
  70
    32
  0
VERTEX
  8
GAIKEI
  5
11D22
 10
566.931
 20
1073.83
 30
0.000000
  70
    32
  0
VERTEX
  8
GAIKEI
  5
11D23
 10
567.011
 20
1073.88
 30
0.000000
  70
    32
  0
VERTEX
  8
GAIKEI
  5
11D24
 10
567.093
 20
1073.92
 30
0.000000
  70
    32
  0
VERTEX
  8
GAIKEI
  5
11D25
 10
567.180
 20
1073.97
 30
0.000000
  70
    32
  0
VERTEX
  8
GAIKEI
  5
11D26
 10
567.270
 20
1074.02
 30
0.000000
  70
    32
  0
VERTEX
  8
GAIKEI
  5
11D27
 10
567.364
 20
1074.06
 30
0.000000
  70
    32
  0
VERTEX
  8
GAIKEI
  5
11D28
 10
567.461
 20
1074.11
 30
0.000000
  70
    32
  0
VERTEX
  8
GAIKEI
  5
11D29
 10
567.562
 20
1074.15
 30
0.000000
  70
    32
  0
VERTEX
  8
GAIKEI
  5
11D2A
 10
567.666
 20
1074.20
 30
0.000000
  70
    32
  0
VERTEX
  8
GAIKEI
  5
11D2B
 10
567.773
 20
1074.24
 30
0.000000
  70
    32
  0
VERTEX
  8
GAIKEI
  5
11D2C
 10
567.884
 20
1074.28
 30
0.000000
  70
    32
  0
VERTEX
  8
GAIKEI
  5
11D2D
 10
567.997
 20
1074.32
 30
0.000000
  70
    32
  0
VERTEX
  8
GAIKEI
  5
11D2E
 10
568.114
 20
1074.36
 30
0.000000
  70
    32
  0
VERTEX
  8
GAIKEI
  5
11D2F
 10
568.234
 20
1074.40
 30
0.000000
  70
    32
  0
VERTEX
  8
GAIKEI
  5
11D30
 10
568.357
 20
1074.44
 30
0.000000
  70
    32
  0
VERTEX
  8
GAIKEI
  5
11D31
 10
568.483
 20
1074.47
 30
0.000000
  70
    32
  0
VERTEX
  8
GAIKEI
  5
11D32
 10
568.612
 20
1074.51
 30
0.000000
  70
    32
  0
VERTEX
  8
GAIKEI
  5
11D33
 10
568.743
 20
1074.55
 30
0.000000
  70
    32
  0
VERTEX
  8
GAIKEI
  5
11D34
 10
568.877
 20
1074.58
 30
0.000000
  70
    32
  0
VERTEX
  8
GAIKEI
  5
11D35
 10
569.014
 20
1074.61
 30
0.000000
  70
    32
  0
VERTEX
  8
GAIKEI
  5
11D36
 10
569.153
 20
1074.64
 30
0.000000
  70
    32
  0
VERTEX
  8
GAIKEI
  5
11D37
 10
569.295
 20
1074.68
 30
0.000000
  70
    32
  0
VERTEX
  8
GAIKEI
  5
11D38
 10
569.439
 20
1074.71
 30
0.000000
  70
    32
  0
VERTEX
  8
GAIKEI
  5
11D39
 10
569.585
 20
1074.73
 30
0.000000
  70
    32
  0
VERTEX
  8
GAIKEI
  5
11D3A
 10
569.734
 20
1074.76
 30
0.000000
  70
    32
  0
VERTEX
  8
GAIKEI
  5
11D3B
 10
569.884
 20
1074.79
 30
0.000000
  70
    32
  0
VERTEX
  8
GAIKEI
  5
11D3C
 10
570.037
 20
1074.81
 30
0.000000
  70
    32
  0
VERTEX
  8
GAIKEI
  5
11D3D
 10
570.191
 20
1074.84
 30
0.000000
  70
    32
  0
VERTEX
  8
GAIKEI
  5
11D3E
 10
570.347
 20
1074.86
 30
0.000000
  70
    32
  0
VERTEX
  8
GAIKEI
  5
11D3F
 10
570.505
 20
1074.88
 30
0.000000
  70
    32
  0
VERTEX
  8
GAIKEI
  5
11D40
 10
570.665
 20
1074.90
 30
0.000000
  70
    32
  0
VERTEX
  8
GAIKEI
  5
11D41
 10
570.826
 20
1074.92
 30
0.000000
  70
    32
  0
VERTEX
  8
GAIKEI
  5
11D42
 10
570.988
 20
1074.94
 30
0.000000
  70
    32
  0
VERTEX
  8
GAIKEI
  5
11D43
 10
571.152
 20
1074.95
 30
0.000000
  70
    32
  0
VERTEX
  8
GAIKEI
  5
11D44
 10
571.317
 20
1074.97
 30
0.000000
  70
    32
  0
VERTEX
  8
GAIKEI
  5
11D45
 10
571.483
 20
1074.98
 30
0.000000
  70
    32
  0
VERTEX
  8
GAIKEI
  5
11D46
 10
571.650
 20
1075.00
 30
0.000000
  70
    32
  0
VERTEX
  8
GAIKEI
  5
11D47
 10
571.818
 20
1075.01
 30
0.000000
  70
    32
  0
VERTEX
  8
GAIKEI
  5
11D48
 10
571.987
 20
1075.02
 30
0.000000
  70
    32
  0
VERTEX
  8
GAIKEI
  5
11D49
 10
572.157
 20
1075.03
 30
0.000000
  70
    32
  0
VERTEX
  8
GAIKEI
  5
11D4A
 10
572.327
 20
1075.03
 30
0.000000
  70
    32
  0
VERTEX
  8
GAIKEI
  5
11D4B
 10
572.498
 20
1075.04
 30
0.000000
  70
    32
  0
VERTEX
  8
GAIKEI
  5
11D4C
 10
572.669
 20
1075.04
 30
0.000000
  70
    32
  0
VERTEX
  8
GAIKEI
  5
11D4D
 10
572.841
 20
1075.05
 30
0.000000
  70
    32
  0
VERTEX
  8
GAIKEI
  5
11D4E
 10
573.012
 20
1075.05
 30
0.000000
  70
    32
  0
VERTEX
  8
GAIKEI
  5
11D4F
 10
573.184
 20
1075.05
 30
0.000000
  70
    32
  0
SEQEND
  8
GAIKEI
  5
11D50
  0
LINE
  5
F3AF
  8
0
 10
808.6839941574799
 20
1055.518772631357
 30
0.0
 11
368.68399415748348
 21
1055.518772631357
 31
0.0
  0
LINE
  5
F3B0
  8
0
 10
808.68399415746535
 20
733.01877263135725
 30
0.0
 11
368.68399415749809
 21
733.01877263135725
 31
0.0
  0
ARC
  5
F3B1
  8
0
 10
808.68399415746535
 20
743.01877263135725
 30
0.0
 40
10.0
 50
270.0
 51
0.0
  0
LINE
  5
F3B2
  8
0
 10
818.6839941574799
 20
1045.518772631352
 30
0.0
 11
818.6839941574799
 21
743.01877263135725
 31
0.0
  0
ARC
  5
F3B3
  8
0
 10
808.6839941574799
 20
1045.518772631352
 30
0.0
 40
10.0
 50
0.0
 51
90.0
  0
LINE
  5
F3B4
  8
0
 10
358.68399415748348
 20
1045.518772631352
 30
0.0
 11
358.68399415748348
 21
743.01877263135725
 31
0.0
  0
ARC
  5
F3B5
  8
0
 10
368.68399415748348
 20
1045.518772631352
 30
0.0
 40
10.0
 50
90.0
 51
180.0
  0
ARC
  5
F3B6
  8
0
 10
368.68399415749809
 20
743.01877263135725
 30
0.0
 40
10.0
 50
180.0
 51
270.0
  0
LINE
  5
F3B7
  8
0
 10
358.68399415748348
 20
1055.518772631355
 30
0.0
 11
348.07732545405088
 21
1074.5806106441789
 31
0.0
  0
LINE
  5
F3BA
  8
0
 10
1392.6839941574819
 20
745.51877263136623
 30
0.0
 11
1392.6839941574819
 21
743.17644341214987
 31
0.0
  0
LINE
  5
F3BB
  8
GAIKEI
  6
CONTINUOUS
 10
1392.6839941574819
 20
743.17644341214987
 30
0.0
 11
1392.6839941574819
 21
713.8611018505826
 31
0.0
  0
LINE
  5
F3BC
  8
0
 10
1392.6839941574819
 20
713.8611018505826
 30
0.0
 11
1392.6839941574819
 21
711.51877263136635
 31
0.0
  0
LINE
  5
F3BD
  8
GAIKEI
  6
CONTINUOUS
 10
1384.6839941574819
 20
743.17644341214987
 30
0.0
 11
1384.6839941574819
 21
713.86110185058214
 31
0.0
  0
ARC
  5
F3BE
  8
GAIKEI
  6
CONTINUOUS
 10
1395.6839941574831
 20
743.17644341214987
 30
0.0
 40
3.0
 50
104.0362434679336
 51
180.0
  0
ARC
  5
F3BF
  8
GAIKEI
  6
CONTINUOUS
 10
1395.6839941574831
 20
743.17644341214987
 30
0.0
 40
11.0
 50
121.1299602897508
 51
180.0
  0
ARC
  5
F3C0
  8
GAIKEI
  6
CONTINUOUS
 10
1389.4802220954621
 20
753.44840584405551
 30
0.0
 40
1.0
 50
301.12996028975118
 51
74.279902333540051
  0
LINE
  5
F3C1
  8
0
 10
1404.6839941574949
 20
748.51877263136623
 30
0.0
 11
1402.4116010325911
 21
747.95067435014039
 31
0.0
  0
LINE
  5
F3C2
  8
GAIKEI
  6
CONTINUOUS
 10
1402.4116010325911
 20
747.95067435014039
 30
0.0
 11
1394.956387282374
 21
746.08687091258594
 31
0.0
  0
LINE
  5
F3C3
  8
0
 10
1394.956387282374
 20
746.08687091258594
 30
0.0
 11
1392.6839941574949
 21
745.51877263136623
 31
0.0
  0
ARC
  5
F3C4
  8
GAIKEI
  6
CONTINUOUS
 10
1401.6839941574819
 20
750.86110185057646
 30
0.0
 40
3.0
 50
284.0362434679335
 51
0.0
  0
LINE
  5
F3C5
  8
0
 10
1392.6839941574949
 20
711.51877263136635
 30
0.0
 11
1394.956387282374
 21
710.95067435014676
 31
0.0
  0
LINE
  5
F3C6
  8
GAIKEI
  6
CONTINUOUS
 10
1394.956387282374
 20
710.95067435014676
 30
0.0
 11
1402.4116010325911
 21
709.08687091259208
 31
0.0
  0
LINE
  5
F3C7
  8
0
 10
1402.4116010325911
 20
709.08687091259208
 30
0.0
 11
1404.6839941574931
 21
708.51877263136623
 31
0.0
  0
ARC
  5
F3C8
  8
GAIKEI
  6
CONTINUOUS
 10
1395.6839941574831
 20
713.8611018505826
 30
0.0
 40
3.0
 50
180.0
 51
255.96375653206641
  0
ARC
  5
F3C9
  8
GAIKEI
  6
CONTINUOUS
 10
1395.6839941574831
 20
713.8611018505826
 30
0.0
 40
11.0
 50
180.0
 51
220.75740636471011
  0
ARC
  5
F3CA
  8
GAIKEI
  6
CONTINUOUS
 10
1386.9729672716051
 20
706.35323859973016
 30
0.0
 40
0.5
 50
272.1717500012204
 51
40.757406364710043
  0
LINE
  5
F3CB
  8
0
 10
1351.3915600991099
 20
773.51877263136805
 30
0.0
 11
1363.3903093129909
 21
770.14153454141581
 31
0.0
  0
LINE
  5
F3CC
  8
GAIKEI
  6
CONTINUOUS
 10
1363.3903093129909
 20
770.14153454141581
 30
0.0
 11
1402.496808496905
 21
759.13439069213734
 31
0.0
  0
LINE
  5
F3CD
  8
GAIKEI
  6
CONTINUOUS
 10
1361.2228044078661
 20
762.44076039291224
 30
0.0
 11
1389.751160208602
 21
754.41100261261818
 31
0.0
  0
LINE
  5
F3CE
  8
0
 10
1402.496808496905
 20
759.13439069213734
 30
0.0
 11
1404.683994157484
 21
758.51877263136805
 31
0.0
  0
ARC
  5
F3CF
  8
GAIKEI
  6
CONTINUOUS
 10
1367.454381010099
 20
784.58048606985972
 30
0.0
 40
15.0
 50
174.8268311207884
 51
254.27990233354001
  0
ARC
  5
F3D0
  8
GAIKEI
  6
CONTINUOUS
 10
1367.454381010099
 20
784.58048606985972
 30
0.0
 40
23.0
 50
220.22887445931019
 51
254.27990233354001
  0
ARC
  5
F3D1
  8
GAIKEI
  6
CONTINUOUS
 10
1349.512820725093
 20
769.40318675346407
 30
0.0
 40
0.5
 50
40.228874459310198
 51
174.8268311207753
  0
LINE
  5
F3D2
  8
0
 10
1381.6839941574831
 20
1208.6299717129459
 30
0.0
 11
1381.6839941574831
 21
1211.0593238125321
 31
0.0
  0
LINE
  5
F3D3
  8
GAIKEI
  6
CONTINUOUS
 10
1381.6839941574831
 20
1211.0593238125321
 30
0.0
 11
1381.6839941574831
 21
1215.6622292346219
 31
0.0
  0
LINE
  5
F3D4
  8
0
 10
1381.6839941574831
 20
1215.6622292346219
 30
0.0
 11
1381.6839941574831
 21
1218.518772631357
 31
0.0
  0
ARC
  5
F3D5
  8
GAIKEI
  6
CONTINUOUS
 10
1378.6839941574819
 20
1215.6622292346219
 30
0.0
 40
3.0
 50
0.0
 51
87.193629748218513
  0
LINE
  5
F3D6
  8
0
 10
1381.6839941574831
 20
1218.518772631357
 30
0.0
 11
1378.83087661336
 21
1218.6586313344999
 31
0.0
  0
LINE
  5
F3D7
  8
GAIKEI
  6
CONTINUOUS
 10
1378.83087661336
 20
1218.6586313344999
 30
0.0
 11
1279.6839941574831
 21
1223.518772631357
 31
0.0
  0
LINE
  5
F3D8
  8
GAIKEI
  6
CONTINUOUS
 10
1349.914035417575
 20
1212.0665176292739
 30
0.0
 11
1279.292307608478
 21
1215.528367031681
 31
0.0
  0
LINE
  5
F3D9
  8
GAIKEI
  6
CONTINUOUS
 10
1381.6839941574831
 20
1218.518772631357
 30
0.0
 11
1403.0855046471561
 21
1223.171274911721
 31
0.0
  0
LINE
  5
F3DA
  8
0
 10
342.4404104240075
 20
711.08993459116357
 30
0.0
 11
358.68399415748348
 21
733.01877263135725
 31
0.0
  0
LINE
  5
F3DB
  8
0
 10
834.92757789095572
 20
711.08993459116357
 30
0.0
 11
818.6839941574799
 21
733.01877263135725
 31
0.0
  0
LINE
  5
F3DC
  8
0
  6
CENTER
 62
     6
 10
1277.475311111943
 20
1144.9954130689271
 30
0.0
 11
1305.436938085071
 21
1146.460819843729
 31
0.0
  0
LINE
  5
F3DD
  8
GAIKEI
  6
CONTINUOUS
 10
1288.3513177156181
 20
1128.5420705405279
 30
0.0
 11
1296.3403539936551
 21
1128.960758190472
 31
0.0
  0
LINE
  5
F3DE
  8
GAIKEI
  6
CONTINUOUS
 10
1286.5718952033581
 20
1162.4954747221841
 30
0.0
 11
1294.5609314813951
 21
1162.9141623721271
 31
0.0
  0
LINE
  5
F3DF
  8
GAIKEI
  6
CONTINUOUS
 10
1402.6839941574819
 20
1215.523011607602
 30
0.0
 11
1402.6839941574819
 21
1219.3617459454599
 31
0.0
  0
ARC
  5
F3E0
  8
GAIKEI
  6
CONTINUOUS
 10
1399.6839941574831
 20
1219.3617459454599
 30
0.0
 40
3.0
 50
0.0
 51
102.26477372790291
  0
ARC
  5
F3E1
  8
GAIKEI
  6
CONTINUOUS
 10
1272.6839941574831
 20
701.51877263135623
 30
0.0
 40
8.0
 50
180.0
 51
272.17175000124661
  0
LINE
  5
F3E2
  8
0
 10
1404.6839941574831
 20
698.51877263135725
 30
0.0
 11
1401.797679494601
 21
698.40931679317305
 31
0.0
  0
LINE
  5
F3E3
  8
GAIKEI
  6
CONTINUOUS
 10
1401.797679494601
 20
698.40931679317305
 30
0.0
 11
1272.987155056464
 21
693.52451885321489
 31
0.0
  0
LINE
  5
F3E4
  8
GAIKEI
  6
CONTINUOUS
 10
1386.99191482779
 20
705.85359773859648
 30
0.0
 11
1279.0420864320879
 21
701.7598864392578
 31
0.0
  0
ARC
  5
F3E5
  8
GAIKEI
  6
CONTINUOUS
 10
1279.0231388759021
 20
702.25952730039171
 30
0.0
 40
0.5
 50
110.2975697722392
 51
272.17175000124661
  0
ARC
  5
F3E6
  8
GAIKEI
  6
CONTINUOUS
 10
1401.6839941574819
 20
701.40716195997618
 30
0.0
 40
3.0
 50
272.17175000124661
 51
0.0
  0
POLYLINE
  5
F3E7
  8
GAIKEI
  6
CONTINUOUS
 10
605.68399415748149
 20
1145.5187726313559
 30
0.0
 66
     1
 70
     8
  0
VERTEX
  8
GAIKEI
  5
11D51
 10
605.684
 20
1145.52
 30
0.000000
  70
    32
  0
VERTEX
  8
GAIKEI
  5
11D52
 10
605.664
 20
1146.35
 30
0.000000
  70
    32
  0
VERTEX
  8
GAIKEI
  5
11D53
 10
605.602
 20
1147.18
 30
0.000000
  70
    32
  0
VERTEX
  8
GAIKEI
  5
11D54
 10
605.500
 20
1148.01
 30
0.000000
  70
    32
  0
VERTEX
  8
GAIKEI
  5
11D55
 10
605.357
 20
1148.83
 30
0.000000
  70
    32
  0
VERTEX
  8
GAIKEI
  5
11D56
 10
605.175
 20
1149.64
 30
0.000000
  70
    32
  0
VERTEX
  8
GAIKEI
  5
11D57
 10
604.952
 20
1150.45
 30
0.000000
  70
    32
  0
VERTEX
  8
GAIKEI
  5
11D58
 10
604.690
 20
1151.24
 30
0.000000
  70
    32
  0
VERTEX
  8
GAIKEI
  5
11D59
 10
604.390
 20
1152.02
 30
0.000000
  70
    32
  0
VERTEX
  8
GAIKEI
  5
11D5A
 10
604.052
 20
1152.78
 30
0.000000
  70
    32
  0
VERTEX
  8
GAIKEI
  5
11D5B
 10
603.677
 20
1153.52
 30
0.000000
  70
    32
  0
VERTEX
  8
GAIKEI
  5
11D5C
 10
603.265
 20
1154.25
 30
0.000000
  70
    32
  0
VERTEX
  8
GAIKEI
  5
11D5D
 10
602.819
 20
1154.95
 30
0.000000
  70
    32
  0
VERTEX
  8
GAIKEI
  5
11D5E
 10
602.339
 20
1155.63
 30
0.000000
  70
    32
  0
VERTEX
  8
GAIKEI
  5
11D5F
 10
601.825
 20
1156.29
 30
0.000000
  70
    32
  0
VERTEX
  8
GAIKEI
  5
11D60
 10
601.280
 20
1156.92
 30
0.000000
  70
    32
  0
VERTEX
  8
GAIKEI
  5
11D61
 10
600.705
 20
1157.52
 30
0.000000
  70
    32
  0
VERTEX
  8
GAIKEI
  5
11D62
 10
600.100
 20
1158.10
 30
0.000000
  70
    32
  0
VERTEX
  8
GAIKEI
  5
11D63
 10
599.469
 20
1158.64
 30
0.000000
  70
    32
  0
VERTEX
  8
GAIKEI
  5
11D64
 10
598.811
 20
1159.15
 30
0.000000
  70
    32
  0
VERTEX
  8
GAIKEI
  5
11D65
 10
598.129
 20
1159.63
 30
0.000000
  70
    32
  0
VERTEX
  8
GAIKEI
  5
11D66
 10
597.424
 20
1160.08
 30
0.000000
  70
    32
  0
VERTEX
  8
GAIKEI
  5
11D67
 10
596.698
 20
1160.49
 30
0.000000
  70
    32
  0
VERTEX
  8
GAIKEI
  5
11D68
 10
595.952
 20
1160.87
 30
0.000000
  70
    32
  0
VERTEX
  8
GAIKEI
  5
11D69
 10
595.190
 20
1161.20
 30
0.000000
  70
    32
  0
VERTEX
  8
GAIKEI
  5
11D6A
 10
594.411
 20
1161.50
 30
0.000000
  70
    32
  0
VERTEX
  8
GAIKEI
  5
11D6B
 10
593.619
 20
1161.76
 30
0.000000
  70
    32
  0
VERTEX
  8
GAIKEI
  5
11D6C
 10
592.815
 20
1161.99
 30
0.000000
  70
    32
  0
VERTEX
  8
GAIKEI
  5
11D6D
 10
592.001
 20
1162.17
 30
0.000000
  70
    32
  0
VERTEX
  8
GAIKEI
  5
11D6E
 10
591.178
 20
1162.31
 30
0.000000
  70
    32
  0
VERTEX
  8
GAIKEI
  5
11D6F
 10
590.350
 20
1162.41
 30
0.000000
  70
    32
  0
VERTEX
  8
GAIKEI
  5
11D70
 10
589.518
 20
1162.48
 30
0.000000
  70
    32
  0
VERTEX
  8
GAIKEI
  5
11D71
 10
588.684
 20
1162.50
 30
0.000000
  70
    32
  0
VERTEX
  8
GAIKEI
  5
11D72
 10
587.850
 20
1162.48
 30
0.000000
  70
    32
  0
VERTEX
  8
GAIKEI
  5
11D73
 10
587.018
 20
1162.41
 30
0.000000
  70
    32
  0
VERTEX
  8
GAIKEI
  5
11D74
 10
586.190
 20
1162.31
 30
0.000000
  70
    32
  0
VERTEX
  8
GAIKEI
  5
11D75
 10
585.367
 20
1162.17
 30
0.000000
  70
    32
  0
VERTEX
  8
GAIKEI
  5
11D76
 10
584.553
 20
1161.99
 30
0.000000
  70
    32
  0
VERTEX
  8
GAIKEI
  5
11D77
 10
583.749
 20
1161.76
 30
0.000000
  70
    32
  0
VERTEX
  8
GAIKEI
  5
11D78
 10
582.957
 20
1161.50
 30
0.000000
  70
    32
  0
VERTEX
  8
GAIKEI
  5
11D79
 10
582.178
 20
1161.20
 30
0.000000
  70
    32
  0
VERTEX
  8
GAIKEI
  5
11D7A
 10
581.416
 20
1160.87
 30
0.000000
  70
    32
  0
VERTEX
  8
GAIKEI
  5
11D7B
 10
580.670
 20
1160.49
 30
0.000000
  70
    32
  0
VERTEX
  8
GAIKEI
  5
11D7C
 10
579.944
 20
1160.08
 30
0.000000
  70
    32
  0
VERTEX
  8
GAIKEI
  5
11D7D
 10
579.239
 20
1159.63
 30
0.000000
  70
    32
  0
VERTEX
  8
GAIKEI
  5
11D7E
 10
578.557
 20
1159.15
 30
0.000000
  70
    32
  0
VERTEX
  8
GAIKEI
  5
11D7F
 10
577.899
 20
1158.64
 30
0.000000
  70
    32
  0
VERTEX
  8
GAIKEI
  5
11D80
 10
577.267
 20
1158.10
 30
0.000000
  70
    32
  0
VERTEX
  8
GAIKEI
  5
11D81
 10
576.663
 20
1157.52
 30
0.000000
  70
    32
  0
VERTEX
  8
GAIKEI
  5
11D82
 10
576.088
 20
1156.92
 30
0.000000
  70
    32
  0
VERTEX
  8
GAIKEI
  5
11D83
 10
575.543
 20
1156.29
 30
0.000000
  70
    32
  0
VERTEX
  8
GAIKEI
  5
11D84
 10
575.029
 20
1155.63
 30
0.000000
  70
    32
  0
VERTEX
  8
GAIKEI
  5
11D85
 10
574.549
 20
1154.95
 30
0.000000
  70
    32
  0
VERTEX
  8
GAIKEI
  5
11D86
 10
574.103
 20
1154.25
 30
0.000000
  70
    32
  0
VERTEX
  8
GAIKEI
  5
11D87
 10
573.691
 20
1153.52
 30
0.000000
  70
    32
  0
VERTEX
  8
GAIKEI
  5
11D88
 10
573.316
 20
1152.78
 30
0.000000
  70
    32
  0
VERTEX
  8
GAIKEI
  5
11D89
 10
572.978
 20
1152.02
 30
0.000000
  70
    32
  0
VERTEX
  8
GAIKEI
  5
11D8A
 10
572.678
 20
1151.24
 30
0.000000
  70
    32
  0
VERTEX
  8
GAIKEI
  5
11D8B
 10
572.416
 20
1150.45
 30
0.000000
  70
    32
  0
VERTEX
  8
GAIKEI
  5
11D8C
 10
572.193
 20
1149.64
 30
0.000000
  70
    32
  0
VERTEX
  8
GAIKEI
  5
11D8D
 10
572.011
 20
1148.83
 30
0.000000
  70
    32
  0
VERTEX
  8
GAIKEI
  5
11D8E
 10
571.868
 20
1148.01
 30
0.000000
  70
    32
  0
VERTEX
  8
GAIKEI
  5
11D8F
 10
571.766
 20
1147.18
 30
0.000000
  70
    32
  0
VERTEX
  8
GAIKEI
  5
11D90
 10
571.704
 20
1146.35
 30
0.000000
  70
    32
  0
VERTEX
  8
GAIKEI
  5
11D91
 10
571.684
 20
1145.52
 30
0.000000
  70
    32
  0
VERTEX
  8
GAIKEI
  5
11D92
 10
571.704
 20
1144.69
 30
0.000000
  70
    32
  0
VERTEX
  8
GAIKEI
  5
11D93
 10
571.766
 20
1143.85
 30
0.000000
  70
    32
  0
VERTEX
  8
GAIKEI
  5
11D94
 10
571.868
 20
1143.03
 30
0.000000
  70
    32
  0
VERTEX
  8
GAIKEI
  5
11D95
 10
572.011
 20
1142.21
 30
0.000000
  70
    32
  0
VERTEX
  8
GAIKEI
  5
11D96
 10
572.193
 20
1141.39
 30
0.000000
  70
    32
  0
VERTEX
  8
GAIKEI
  5
11D97
 10
572.416
 20
1140.59
 30
0.000000
  70
    32
  0
VERTEX
  8
GAIKEI
  5
11D98
 10
572.678
 20
1139.80
 30
0.000000
  70
    32
  0
VERTEX
  8
GAIKEI
  5
11D99
 10
572.978
 20
1139.02
 30
0.000000
  70
    32
  0
VERTEX
  8
GAIKEI
  5
11D9A
 10
573.316
 20
1138.26
 30
0.000000
  70
    32
  0
VERTEX
  8
GAIKEI
  5
11D9B
 10
573.691
 20
1137.52
 30
0.000000
  70
    32
  0
VERTEX
  8
GAIKEI
  5
11D9C
 10
574.103
 20
1136.79
 30
0.000000
  70
    32
  0
VERTEX
  8
GAIKEI
  5
11D9D
 10
574.549
 20
1136.09
 30
0.000000
  70
    32
  0
VERTEX
  8
GAIKEI
  5
11D9E
 10
575.029
 20
1135.41
 30
0.000000
  70
    32
  0
VERTEX
  8
GAIKEI
  5
11D9F
 10
575.543
 20
1134.75
 30
0.000000
  70
    32
  0
VERTEX
  8
GAIKEI
  5
11DA0
 10
576.088
 20
1134.12
 30
0.000000
  70
    32
  0
VERTEX
  8
GAIKEI
  5
11DA1
 10
576.663
 20
1133.51
 30
0.000000
  70
    32
  0
VERTEX
  8
GAIKEI
  5
11DA2
 10
577.267
 20
1132.94
 30
0.000000
  70
    32
  0
VERTEX
  8
GAIKEI
  5
11DA3
 10
577.899
 20
1132.40
 30
0.000000
  70
    32
  0
VERTEX
  8
GAIKEI
  5
11DA4
 10
578.557
 20
1131.88
 30
0.000000
  70
    32
  0
VERTEX
  8
GAIKEI
  5
11DA5
 10
579.239
 20
1131.40
 30
0.000000
  70
    32
  0
VERTEX
  8
GAIKEI
  5
11DA6
 10
579.944
 20
1130.96
 30
0.000000
  70
    32
  0
VERTEX
  8
GAIKEI
  5
11DA7
 10
580.670
 20
1130.55
 30
0.000000
  70
    32
  0
VERTEX
  8
GAIKEI
  5
11DA8
 10
581.416
 20
1130.17
 30
0.000000
  70
    32
  0
VERTEX
  8
GAIKEI
  5
11DA9
 10
582.178
 20
1129.83
 30
0.000000
  70
    32
  0
VERTEX
  8
GAIKEI
  5
11DAA
 10
582.957
 20
1129.53
 30
0.000000
  70
    32
  0
VERTEX
  8
GAIKEI
  5
11DAB
 10
583.749
 20
1129.27
 30
0.000000
  70
    32
  0
VERTEX
  8
GAIKEI
  5
11DAC
 10
584.553
 20
1129.05
 30
0.000000
  70
    32
  0
VERTEX
  8
GAIKEI
  5
11DAD
 10
585.367
 20
1128.87
 30
0.000000
  70
    32
  0
VERTEX
  8
GAIKEI
  5
11DAE
 10
586.190
 20
1128.73
 30
0.000000
  70
    32
  0
VERTEX
  8
GAIKEI
  5
11DAF
 10
587.018
 20
1128.62
 30
0.000000
  70
    32
  0
VERTEX
  8
GAIKEI
  5
11DB0
 10
587.850
 20
1128.56
 30
0.000000
  70
    32
  0
VERTEX
  8
GAIKEI
  5
11DB1
 10
588.684
 20
1128.54
 30
0.000000
  70
    32
  0
VERTEX
  8
GAIKEI
  5
11DB2
 10
589.518
 20
1128.56
 30
0.000000
  70
    32
  0
VERTEX
  8
GAIKEI
  5
11DB3
 10
590.350
 20
1128.62
 30
0.000000
  70
    32
  0
VERTEX
  8
GAIKEI
  5
11DB4
 10
591.178
 20
1128.73
 30
0.000000
  70
    32
  0
VERTEX
  8
GAIKEI
  5
11DB5
 10
592.001
 20
1128.87
 30
0.000000
  70
    32
  0
VERTEX
  8
GAIKEI
  5
11DB6
 10
592.815
 20
1129.05
 30
0.000000
  70
    32
  0
VERTEX
  8
GAIKEI
  5
11DB7
 10
593.619
 20
1129.27
 30
0.000000
  70
    32
  0
VERTEX
  8
GAIKEI
  5
11DB8
 10
594.411
 20
1129.53
 30
0.000000
  70
    32
  0
VERTEX
  8
GAIKEI
  5
11DB9
 10
595.190
 20
1129.83
 30
0.000000
  70
    32
  0
VERTEX
  8
GAIKEI
  5
11DBA
 10
595.952
 20
1130.17
 30
0.000000
  70
    32
  0
VERTEX
  8
GAIKEI
  5
11DBB
 10
596.698
 20
1130.55
 30
0.000000
  70
    32
  0
VERTEX
  8
GAIKEI
  5
11DBC
 10
597.424
 20
1130.96
 30
0.000000
  70
    32
  0
VERTEX
  8
GAIKEI
  5
11DBD
 10
598.129
 20
1131.40
 30
0.000000
  70
    32
  0
VERTEX
  8
GAIKEI
  5
11DBE
 10
598.811
 20
1131.88
 30
0.000000
  70
    32
  0
VERTEX
  8
GAIKEI
  5
11DBF
 10
599.469
 20
1132.40
 30
0.000000
  70
    32
  0
VERTEX
  8
GAIKEI
  5
11DC0
 10
600.100
 20
1132.94
 30
0.000000
  70
    32
  0
VERTEX
  8
GAIKEI
  5
11DC1
 10
600.705
 20
1133.51
 30
0.000000
  70
    32
  0
VERTEX
  8
GAIKEI
  5
11DC2
 10
601.280
 20
1134.12
 30
0.000000
  70
    32
  0
VERTEX
  8
GAIKEI
  5
11DC3
 10
601.825
 20
1134.75
 30
0.000000
  70
    32
  0
VERTEX
  8
GAIKEI
  5
11DC4
 10
602.339
 20
1135.41
 30
0.000000
  70
    32
  0
VERTEX
  8
GAIKEI
  5
11DC5
 10
602.819
 20
1136.09
 30
0.000000
  70
    32
  0
VERTEX
  8
GAIKEI
  5
11DC6
 10
603.265
 20
1136.79
 30
0.000000
  70
    32
  0
VERTEX
  8
GAIKEI
  5
11DC7
 10
603.677
 20
1137.52
 30
0.000000
  70
    32
  0
VERTEX
  8
GAIKEI
  5
11DC8
 10
604.052
 20
1138.26
 30
0.000000
  70
    32
  0
VERTEX
  8
GAIKEI
  5
11DC9
 10
604.390
 20
1139.02
 30
0.000000
  70
    32
  0
VERTEX
  8
GAIKEI
  5
11DCA
 10
604.690
 20
1139.80
 30
0.000000
  70
    32
  0
VERTEX
  8
GAIKEI
  5
11DCB
 10
604.952
 20
1140.59
 30
0.000000
  70
    32
  0
VERTEX
  8
GAIKEI
  5
11DCC
 10
605.175
 20
1141.39
 30
0.000000
  70
    32
  0
VERTEX
  8
GAIKEI
  5
11DCD
 10
605.357
 20
1142.21
 30
0.000000
  70
    32
  0
VERTEX
  8
GAIKEI
  5
11DCE
 10
605.500
 20
1143.03
 30
0.000000
  70
    32
  0
VERTEX
  8
GAIKEI
  5
11DCF
 10
605.602
 20
1143.85
 30
0.000000
  70
    32
  0
VERTEX
  8
GAIKEI
  5
11DD0
 10
605.664
 20
1144.69
 30
0.000000
  70
    32
  0
VERTEX
  8
GAIKEI
  5
11DD1
 10
605.684
 20
1145.52
 30
0.000000
  70
    32
  0
SEQEND
  8
GAIKEI
  5
11DD2
  0
POLYLINE
  5
F3E8
  8
GAIKEI
  6
CONTINUOUS
 10
571.68528671265756
 20
1145.7281164563274
 30
0.0
 66
     1
 70
     8
  0
VERTEX
  8
GAIKEI
  5
11DD3
 10
571.685
 20
1145.73
 30
0.000000
  70
    32
  0
VERTEX
  8
GAIKEI
  5
11DD4
 10
571.695
 20
1145.31
 30
0.000000
  70
    32
  0
VERTEX
  8
GAIKEI
  5
11DD5
 10
571.716
 20
1144.90
 30
0.000000
  70
    32
  0
VERTEX
  8
GAIKEI
  5
11DD6
 10
571.746
 20
1144.49
 30
0.000000
  70
    32
  0
VERTEX
  8
GAIKEI
  5
11DD7
 10
571.786
 20
1144.08
 30
0.000000
  70
    32
  0
VERTEX
  8
GAIKEI
  5
11DD8
 10
571.837
 20
1143.67
 30
0.000000
  70
    32
  0
VERTEX
  8
GAIKEI
  5
11DD9
 10
571.897
 20
1143.26
 30
0.000000
  70
    32
  0
VERTEX
  8
GAIKEI
  5
11DDA
 10
571.967
 20
1142.85
 30
0.000000
  70
    32
  0
VERTEX
  8
GAIKEI
  5
11DDB
 10
572.047
 20
1142.45
 30
0.000000
  70
    32
  0
VERTEX
  8
GAIKEI
  5
11DDC
 10
572.137
 20
1142.04
 30
0.000000
  70
    32
  0
VERTEX
  8
GAIKEI
  5
11DDD
 10
572.237
 20
1141.64
 30
0.000000
  70
    32
  0
VERTEX
  8
GAIKEI
  5
11DDE
 10
572.347
 20
1141.24
 30
0.000000
  70
    32
  0
VERTEX
  8
GAIKEI
  5
11DDF
 10
572.466
 20
1140.85
 30
0.000000
  70
    32
  0
VERTEX
  8
GAIKEI
  5
11DE0
 10
572.595
 20
1140.45
 30
0.000000
  70
    32
  0
VERTEX
  8
GAIKEI
  5
11DE1
 10
572.734
 20
1140.06
 30
0.000000
  70
    32
  0
VERTEX
  8
GAIKEI
  5
11DE2
 10
572.882
 20
1139.68
 30
0.000000
  70
    32
  0
VERTEX
  8
GAIKEI
  5
11DE3
 10
573.039
 20
1139.30
 30
0.000000
  70
    32
  0
VERTEX
  8
GAIKEI
  5
11DE4
 10
573.205
 20
1138.92
 30
0.000000
  70
    32
  0
VERTEX
  8
GAIKEI
  5
11DE5
 10
573.381
 20
1138.54
 30
0.000000
  70
    32
  0
VERTEX
  8
GAIKEI
  5
11DE6
 10
573.566
 20
1138.17
 30
0.000000
  70
    32
  0
VERTEX
  8
GAIKEI
  5
11DE7
 10
573.760
 20
1137.81
 30
0.000000
  70
    32
  0
VERTEX
  8
GAIKEI
  5
11DE8
 10
573.962
 20
1137.45
 30
0.000000
  70
    32
  0
VERTEX
  8
GAIKEI
  5
11DE9
 10
574.174
 20
1137.09
 30
0.000000
  70
    32
  0
VERTEX
  8
GAIKEI
  5
11DEA
 10
574.394
 20
1136.74
 30
0.000000
  70
    32
  0
VERTEX
  8
GAIKEI
  5
11DEB
 10
574.622
 20
1136.40
 30
0.000000
  70
    32
  0
VERTEX
  8
GAIKEI
  5
11DEC
 10
574.859
 20
1136.06
 30
0.000000
  70
    32
  0
VERTEX
  8
GAIKEI
  5
11DED
 10
575.104
 20
1135.72
 30
0.000000
  70
    32
  0
VERTEX
  8
GAIKEI
  5
11DEE
 10
575.357
 20
1135.40
 30
0.000000
  70
    32
  0
VERTEX
  8
GAIKEI
  5
11DEF
 10
575.618
 20
1135.08
 30
0.000000
  70
    32
  0
VERTEX
  8
GAIKEI
  5
11DF0
 10
575.887
 20
1134.76
 30
0.000000
  70
    32
  0
VERTEX
  8
GAIKEI
  5
11DF1
 10
576.163
 20
1134.45
 30
0.000000
  70
    32
  0
VERTEX
  8
GAIKEI
  5
11DF2
 10
576.447
 20
1134.15
 30
0.000000
  70
    32
  0
VERTEX
  8
GAIKEI
  5
11DF3
 10
576.738
 20
1133.86
 30
0.000000
  70
    32
  0
VERTEX
  8
GAIKEI
  5
11DF4
 10
577.036
 20
1133.57
 30
0.000000
  70
    32
  0
VERTEX
  8
GAIKEI
  5
11DF5
 10
577.340
 20
1133.29
 30
0.000000
  70
    32
  0
VERTEX
  8
GAIKEI
  5
11DF6
 10
577.652
 20
1133.02
 30
0.000000
  70
    32
  0
VERTEX
  8
GAIKEI
  5
11DF7
 10
577.970
 20
1132.76
 30
0.000000
  70
    32
  0
VERTEX
  8
GAIKEI
  5
11DF8
 10
578.295
 20
1132.50
 30
0.000000
  70
    32
  0
VERTEX
  8
GAIKEI
  5
11DF9
 10
578.626
 20
1132.25
 30
0.000000
  70
    32
  0
VERTEX
  8
GAIKEI
  5
11DFA
 10
578.962
 20
1132.01
 30
0.000000
  70
    32
  0
VERTEX
  8
GAIKEI
  5
11DFB
 10
579.305
 20
1131.78
 30
0.000000
  70
    32
  0
VERTEX
  8
GAIKEI
  5
11DFC
 10
579.653
 20
1131.55
 30
0.000000
  70
    32
  0
VERTEX
  8
GAIKEI
  5
11DFD
 10
580.006
 20
1131.34
 30
0.000000
  70
    32
  0
VERTEX
  8
GAIKEI
  5
11DFE
 10
580.365
 20
1131.13
 30
0.000000
  70
    32
  0
VERTEX
  8
GAIKEI
  5
11DFF
 10
580.728
 20
1130.93
 30
0.000000
  70
    32
  0
VERTEX
  8
GAIKEI
  5
11E00
 10
581.096
 20
1130.75
 30
0.000000
  70
    32
  0
VERTEX
  8
GAIKEI
  5
11E01
 10
581.469
 20
1130.57
 30
0.000000
  70
    32
  0
VERTEX
  8
GAIKEI
  5
11E02
 10
581.846
 20
1130.39
 30
0.000000
  70
    32
  0
VERTEX
  8
GAIKEI
  5
11E03
 10
582.227
 20
1130.23
 30
0.000000
  70
    32
  0
VERTEX
  8
GAIKEI
  5
11E04
 10
582.612
 20
1130.08
 30
0.000000
  70
    32
  0
VERTEX
  8
GAIKEI
  5
11E05
 10
583.000
 20
1129.94
 30
0.000000
  70
    32
  0
VERTEX
  8
GAIKEI
  5
11E06
 10
583.392
 20
1129.80
 30
0.000000
  70
    32
  0
VERTEX
  8
GAIKEI
  5
11E07
 10
583.787
 20
1129.68
 30
0.000000
  70
    32
  0
VERTEX
  8
GAIKEI
  5
11E08
 10
584.185
 20
1129.57
 30
0.000000
  70
    32
  0
VERTEX
  8
GAIKEI
  5
11E09
 10
584.585
 20
1129.46
 30
0.000000
  70
    32
  0
VERTEX
  8
GAIKEI
  5
11E0A
 10
584.988
 20
1129.37
 30
0.000000
  70
    32
  0
VERTEX
  8
GAIKEI
  5
11E0B
 10
585.393
 20
1129.28
 30
0.000000
  70
    32
  0
VERTEX
  8
GAIKEI
  5
11E0C
 10
585.800
 20
1129.21
 30
0.000000
  70
    32
  0
VERTEX
  8
GAIKEI
  5
11E0D
 10
586.209
 20
1129.14
 30
0.000000
  70
    32
  0
VERTEX
  8
GAIKEI
  5
11E0E
 10
586.619
 20
1129.09
 30
0.000000
  70
    32
  0
VERTEX
  8
GAIKEI
  5
11E0F
 10
587.031
 20
1129.04
 30
0.000000
  70
    32
  0
VERTEX
  8
GAIKEI
  5
11E10
 10
587.443
 20
1129.01
 30
0.000000
  70
    32
  0
VERTEX
  8
GAIKEI
  5
11E11
 10
587.856
 20
1128.98
 30
0.000000
  70
    32
  0
VERTEX
  8
GAIKEI
  5
11E12
 10
588.270
 20
1128.97
 30
0.000000
  70
    32
  0
VERTEX
  8
GAIKEI
  5
11E13
 10
588.684
 20
1128.96
 30
0.000000
  70
    32
  0
VERTEX
  8
GAIKEI
  5
11E14
 10
589.098
 20
1128.97
 30
0.000000
  70
    32
  0
VERTEX
  8
GAIKEI
  5
11E15
 10
589.512
 20
1128.98
 30
0.000000
  70
    32
  0
VERTEX
  8
GAIKEI
  5
11E16
 10
589.925
 20
1129.01
 30
0.000000
  70
    32
  0
VERTEX
  8
GAIKEI
  5
11E17
 10
590.337
 20
1129.04
 30
0.000000
  70
    32
  0
VERTEX
  8
GAIKEI
  5
11E18
 10
590.749
 20
1129.09
 30
0.000000
  70
    32
  0
VERTEX
  8
GAIKEI
  5
11E19
 10
591.159
 20
1129.14
 30
0.000000
  70
    32
  0
VERTEX
  8
GAIKEI
  5
11E1A
 10
591.568
 20
1129.21
 30
0.000000
  70
    32
  0
VERTEX
  8
GAIKEI
  5
11E1B
 10
591.975
 20
1129.28
 30
0.000000
  70
    32
  0
VERTEX
  8
GAIKEI
  5
11E1C
 10
592.380
 20
1129.37
 30
0.000000
  70
    32
  0
VERTEX
  8
GAIKEI
  5
11E1D
 10
592.783
 20
1129.46
 30
0.000000
  70
    32
  0
VERTEX
  8
GAIKEI
  5
11E1E
 10
593.183
 20
1129.57
 30
0.000000
  70
    32
  0
VERTEX
  8
GAIKEI
  5
11E1F
 10
593.581
 20
1129.68
 30
0.000000
  70
    32
  0
VERTEX
  8
GAIKEI
  5
11E20
 10
593.976
 20
1129.80
 30
0.000000
  70
    32
  0
VERTEX
  8
GAIKEI
  5
11E21
 10
594.368
 20
1129.94
 30
0.000000
  70
    32
  0
VERTEX
  8
GAIKEI
  5
11E22
 10
594.756
 20
1130.08
 30
0.000000
  70
    32
  0
VERTEX
  8
GAIKEI
  5
11E23
 10
595.141
 20
1130.23
 30
0.000000
  70
    32
  0
VERTEX
  8
GAIKEI
  5
11E24
 10
595.522
 20
1130.39
 30
0.000000
  70
    32
  0
VERTEX
  8
GAIKEI
  5
11E25
 10
595.899
 20
1130.57
 30
0.000000
  70
    32
  0
VERTEX
  8
GAIKEI
  5
11E26
 10
596.272
 20
1130.75
 30
0.000000
  70
    32
  0
VERTEX
  8
GAIKEI
  5
11E27
 10
596.640
 20
1130.93
 30
0.000000
  70
    32
  0
VERTEX
  8
GAIKEI
  5
11E28
 10
597.003
 20
1131.13
 30
0.000000
  70
    32
  0
VERTEX
  8
GAIKEI
  5
11E29
 10
597.362
 20
1131.34
 30
0.000000
  70
    32
  0
VERTEX
  8
GAIKEI
  5
11E2A
 10
597.715
 20
1131.55
 30
0.000000
  70
    32
  0
VERTEX
  8
GAIKEI
  5
11E2B
 10
598.063
 20
1131.78
 30
0.000000
  70
    32
  0
VERTEX
  8
GAIKEI
  5
11E2C
 10
598.406
 20
1132.01
 30
0.000000
  70
    32
  0
VERTEX
  8
GAIKEI
  5
11E2D
 10
598.742
 20
1132.25
 30
0.000000
  70
    32
  0
VERTEX
  8
GAIKEI
  5
11E2E
 10
599.073
 20
1132.50
 30
0.000000
  70
    32
  0
VERTEX
  8
GAIKEI
  5
11E2F
 10
599.398
 20
1132.76
 30
0.000000
  70
    32
  0
VERTEX
  8
GAIKEI
  5
11E30
 10
599.716
 20
1133.02
 30
0.000000
  70
    32
  0
VERTEX
  8
GAIKEI
  5
11E31
 10
600.027
 20
1133.29
 30
0.000000
  70
    32
  0
VERTEX
  8
GAIKEI
  5
11E32
 10
600.332
 20
1133.57
 30
0.000000
  70
    32
  0
VERTEX
  8
GAIKEI
  5
11E33
 10
600.630
 20
1133.86
 30
0.000000
  70
    32
  0
VERTEX
  8
GAIKEI
  5
11E34
 10
600.921
 20
1134.15
 30
0.000000
  70
    32
  0
VERTEX
  8
GAIKEI
  5
11E35
 10
601.205
 20
1134.45
 30
0.000000
  70
    32
  0
VERTEX
  8
GAIKEI
  5
11E36
 10
601.481
 20
1134.76
 30
0.000000
  70
    32
  0
VERTEX
  8
GAIKEI
  5
11E37
 10
601.750
 20
1135.08
 30
0.000000
  70
    32
  0
VERTEX
  8
GAIKEI
  5
11E38
 10
602.011
 20
1135.40
 30
0.000000
  70
    32
  0
VERTEX
  8
GAIKEI
  5
11E39
 10
602.264
 20
1135.72
 30
0.000000
  70
    32
  0
VERTEX
  8
GAIKEI
  5
11E3A
 10
602.509
 20
1136.06
 30
0.000000
  70
    32
  0
VERTEX
  8
GAIKEI
  5
11E3B
 10
602.746
 20
1136.40
 30
0.000000
  70
    32
  0
VERTEX
  8
GAIKEI
  5
11E3C
 10
602.974
 20
1136.74
 30
0.000000
  70
    32
  0
VERTEX
  8
GAIKEI
  5
11E3D
 10
603.194
 20
1137.09
 30
0.000000
  70
    32
  0
VERTEX
  8
GAIKEI
  5
11E3E
 10
603.406
 20
1137.45
 30
0.000000
  70
    32
  0
VERTEX
  8
GAIKEI
  5
11E3F
 10
603.608
 20
1137.81
 30
0.000000
  70
    32
  0
VERTEX
  8
GAIKEI
  5
11E40
 10
603.802
 20
1138.17
 30
0.000000
  70
    32
  0
VERTEX
  8
GAIKEI
  5
11E41
 10
603.987
 20
1138.54
 30
0.000000
  70
    32
  0
VERTEX
  8
GAIKEI
  5
11E42
 10
604.163
 20
1138.92
 30
0.000000
  70
    32
  0
VERTEX
  8
GAIKEI
  5
11E43
 10
604.329
 20
1139.30
 30
0.000000
  70
    32
  0
VERTEX
  8
GAIKEI
  5
11E44
 10
604.486
 20
1139.68
 30
0.000000
  70
    32
  0
VERTEX
  8
GAIKEI
  5
11E45
 10
604.634
 20
1140.06
 30
0.000000
  70
    32
  0
VERTEX
  8
GAIKEI
  5
11E46
 10
604.773
 20
1140.45
 30
0.000000
  70
    32
  0
VERTEX
  8
GAIKEI
  5
11E47
 10
604.902
 20
1140.85
 30
0.000000
  70
    32
  0
VERTEX
  8
GAIKEI
  5
11E48
 10
605.021
 20
1141.24
 30
0.000000
  70
    32
  0
VERTEX
  8
GAIKEI
  5
11E49
 10
605.131
 20
1141.64
 30
0.000000
  70
    32
  0
VERTEX
  8
GAIKEI
  5
11E4A
 10
605.231
 20
1142.04
 30
0.000000
  70
    32
  0
VERTEX
  8
GAIKEI
  5
11E4B
 10
605.321
 20
1142.45
 30
0.000000
  70
    32
  0
VERTEX
  8
GAIKEI
  5
11E4C
 10
605.401
 20
1142.85
 30
0.000000
  70
    32
  0
VERTEX
  8
GAIKEI
  5
11E4D
 10
605.471
 20
1143.26
 30
0.000000
  70
    32
  0
VERTEX
  8
GAIKEI
  5
11E4E
 10
605.531
 20
1143.67
 30
0.000000
  70
    32
  0
VERTEX
  8
GAIKEI
  5
11E4F
 10
605.582
 20
1144.08
 30
0.000000
  70
    32
  0
VERTEX
  8
GAIKEI
  5
11E50
 10
605.622
 20
1144.49
 30
0.000000
  70
    32
  0
VERTEX
  8
GAIKEI
  5
11E51
 10
605.652
 20
1144.90
 30
0.000000
  70
    32
  0
VERTEX
  8
GAIKEI
  5
11E52
 10
605.673
 20
1145.31
 30
0.000000
  70
    32
  0
VERTEX
  8
GAIKEI
  5
11E53
 10
605.683
 20
1145.73
 30
0.000000
  70
    32
  0
SEQEND
  8
GAIKEI
  5
11E54
  0
LINE
  5
F3E9
  8
0
  6
CENTER
 62
     6
 10
621.18392866293266
 20
1072.82827734441
 30
0.0
 11
556.18405965205602
 21
1072.82827734441
 31
0.0
  0
LINE
  5
F3EA
  8
0
  6
CENTER
 62
     6
 10
588.68399415747967
 20
503.08489897551999
 30
0.0
 11
588.68399415747967
 21
343.08489897551982
 31
0.0
  0
LINE
  5
F3EB
  8
0
 10
846.31278290825674
 20
493.08489897551982
 30
0.0
 11
853.6839941574799
 21
493.08489897551982
 31
0.0
  0
LINE
  5
F3EC
  8
GAIKEI
  6
CONTINUOUS
 10
588.68399415747967
 20
398.08489897551999
 30
0.0
 11
620.1839941574799
 21
398.08489897551982
 31
0.0
  0
LINE
  5
F3ED
  8
GAIKEI
  6
CONTINUOUS
 10
610.1839941574799
 20
388.0848989755201
 30
0.0
 11
588.68399415748081
 21
388.0848989755201
 31
0.0
  0
LINE
  5
F3EE
  8
GAIKEI
  6
CONTINUOUS
 10
613.08348909409131
 20
380.0848989755201
 30
0.0
 11
588.68399415747967
 21
380.0848989755201
 31
0.0
  0
LINE
  5
F3EF
  8
0
 10
622.1839941574799
 20
353.08489897551948
 30
0.0
 11
614.56804476274181
 21
353.08489897551948
 31
0.0
  0
LINE
  5
F3F0
  8
GAIKEI
  6
CONTINUOUS
 10
614.56804476274181
 20
353.08489897551948
 30
0.0
 11
588.68399415748081
 21
353.08489897551982
 31
0.0
  0
ARC
  5
F3F1
  8
GAIKEI
  6
CONTINUOUS
 10
614.56804476274181
 20
363.08489897551948
 30
0.0
 40
10.0
 50
270.0
 51
344.5854300176976
  0
LINE
  5
F3F2
  8
GAIKEI
  6
CONTINUOUS
 10
588.68399415747967
 20
493.08489897551982
 30
0.0
 11
846.68399415747967
 21
493.08489897551982
 31
0.0
  0
ARC
  5
F3F3
  8
GAIKEI
  6
CONTINUOUS
 10
841.02632337669354
 20
356.08489897551999
 30
0.0
 40
3.0
 50
194.03624346792009
 51
270.0
  0
LINE
  5
F3F4
  8
0
 10
588.68399415747967
 20
473.08489897551999
 30
0.0
 11
825.57575335190995
 21
473.08489897551999
 31
0.0
  0
LINE
  5
F3F5
  8
GAIKEI
  6
CONTINUOUS
 10
711.3463608916162
 20
353.08489897551738
 30
0.0
 11
791.34166493826149
 21
353.08489897551948
 31
0.0
  0
ARC
  5
F3F6
  8
GAIKEI
  6
CONTINUOUS
 10
785.33573323899327
 20
355.08489897551948
 30
0.0
 40
2.0
 50
190.89547408470651
 51
270.0
  0
LINE
  5
F3F7
  8
0
 10
791.34166493826149
 20
353.08489897551948
 30
0.0
 11
793.68399415747547
 21
353.08489897551982
 31
0.0
  0
ARC
  5
F3F8
  8
GAIKEI
  6
CONTINUOUS
 10
791.34166493826149
 20
356.08489897551959
 30
0.0
 40
3.0
 50
270.0
 51
345.9637565320798
  0
LINE
  5
F3F9
  8
0
 10
838.68399415747956
 20
353.0848989755201
 30
0.0
 11
841.02632337669354
 21
353.0848989755201
 31
0.0
  0
LINE
  5
F3FA
  8
GAIKEI
  6
CONTINUOUS
 10
841.02632337669354
 20
353.0848989755201
 30
0.0
 11
845.79560482886154
 21
353.0848989755201
 31
0.0
  0
LINE
  5
F3FB
  8
0
 10
845.79560482886154
 20
353.0848989755201
 30
0.0
 11
848.68399415747956
 21
353.0848989755201
 31
0.0
  0
ARC
  5
F3FC
  8
GAIKEI
  6
CONTINUOUS
 10
845.79560482886154
 20
356.08489897551999
 30
0.0
 40
3.0
 50
270.0
 51
357.82824999874038
  0
LINE
  5
F3FD
  8
GAIKEI
  6
CONTINUOUS
 10
799.02632337668888
 20
373.08489897551948
 30
0.0
 11
833.34166493826694
 21
373.08489897551982
 31
0.0
  0
LINE
  5
F3FE
  8
0
 10
796.68399415747524
 20
365.08489897551982
 30
0.0
 11
799.02632337668888
 21
365.08489897551982
 31
0.0
  0
LINE
  5
F3FF
  8
GAIKEI
  6
CONTINUOUS
 10
799.02632337668888
 20
365.08489897551982
 30
0.0
 11
833.34166493826694
 21
365.08489897551982
 31
0.0
  0
LINE
  5
F400
  8
0
 10
833.34166493826694
 20
365.08489897551982
 30
0.0
 11
835.6839941574799
 21
365.08489897551982
 31
0.0
  0
LINE
  5
F401
  8
0
 10
831.48199296613234
 20
466.7975946271003
 30
0.0
 11
823.8532042153563
 21
466.7975946271003
 31
0.0
  0
LINE
  5
F402
  8
GAIKEI
  6
CONTINUOUS
 10
823.8532042153563
 20
466.7975946271003
 30
0.0
 11
588.68399415748081
 21
466.7975946271003
 31
0.0
  0
ARC
  5
F403
  8
GAIKEI
  6
CONTINUOUS
 10
823.8532042153563
 20
476.79759462710018
 30
0.0
 40
10.0
 50
270.0
 51
344.67848992513302
  0
LINE
  5
F404
  8
0
 10
853.6839941574799
 20
493.08489897551982
 30
0.0
 11
853.6839941574799
 21
485.08489897551982
 31
0.0
  0
LINE
  5
F405
  8
0
 10
838.6839941574807
 20
493.08489897551982
 30
0.0
 11
836.66820003988755
 21
485.72725044630602
 31
0.0
  0
LINE
  5
F406
  8
GAIKEI
  6
CONTINUOUS
 10
836.66820003988755
 20
485.72725044630602
 30
0.0
 11
821.3752862154214
 21
429.90811498700401
 31
0.0
  0
LINE
  5
F407
  8
0
 10
821.3752862154214
 20
429.90811498700401
 30
0.0
 11
818.68399415748081
 21
420.08489897551999
 31
0.0
  0
LINE
  5
F408
  8
GAIKEI
  6
CONTINUOUS
 10
843.53557523853669
 20
480.51710676911108
 30
0.0
 11
829.09095251011672
 21
427.79423381037532
 31
0.0
  0
ARC
  5
F409
  8
GAIKEI
  6
CONTINUOUS
 10
844.5000335253734
 20
480.25287162203273
 30
0.0
 40
1.0
 50
357.82824999874038
 51
164.67848992513299
  0
ARC
  5
F40A
  8
0
 10
825.57575335190995
 20
483.08489897551999
 30
0.0
 40
10.0
 50
270.0
 51
344.67848992513302
  0
ARC
  5
F40B
  8
GAIKEI
  6
CONTINUOUS
 10
846.31278290825674
 20
483.08489897551999
 30
0.0
 40
10.0
 50
90.0
 51
164.67848992513299
  0
LINE
  5
F40C
  8
0
 10
835.6839941574799
 20
365.08489897551982
 30
0.0
 11
836.25209243870268
 21
362.81250585062872
 31
0.0
  0
LINE
  5
F40D
  8
GAIKEI
  6
CONTINUOUS
 10
836.25209243870268
 20
362.81250585062872
 30
0.0
 11
838.11589587625701
 21
355.3572921004108
 31
0.0
  0
LINE
  5
F40E
  8
0
 10
838.11589587625701
 20
355.3572921004108
 30
0.0
 11
838.68399415747956
 21
353.0848989755201
 31
0.0
  0
ARC
  5
F40F
  8
GAIKEI
  6
CONTINUOUS
 10
833.34166493826694
 20
362.08489897551982
 30
0.0
 40
3.0
 50
14.03624346792013
 51
90.0
  0
ARC
  5
F410
  8
GAIKEI
  6
CONTINUOUS
 10
833.34166493826694
 20
362.08489897551982
 30
0.0
 40
11.0
 50
49.24259363537633
 51
90.0
  0
ARC
  5
F411
  8
GAIKEI
  6
CONTINUOUS
 10
840.84952818910745
 20
370.7959258614087
 30
0.0
 40
0.5
 50
229.24259363537641
 51
357.82824999875351
  0
LINE
  5
F412
  8
GAIKEI
  6
CONTINUOUS
 10
610.6839941574799
 20
361.08489897551948
 30
0.0
 11
610.6839941574799
 21
353.08489897551948
 31
0.0
  0
LINE
  5
F413
  8
GAIKEI
  6
CONTINUOUS
 10
610.1839941574799
 20
388.0848989755201
 30
0.0
 11
610.1839941574799
 21
380.0848989755201
 31
0.0
  0
LINE
  5
F414
  8
GAIKEI
  6
CONTINUOUS
 10
620.1839941574799
 20
398.08489897551982
 30
0.0
 11
808.56076302228382
 21
418.96292877413788
 31
0.0
  0
LINE
  5
F415
  8
GAIKEI
  6
CONTINUOUS
 10
624.20445343003473
 20
390.48150715528209
 30
0.0
 11
624.29752932303734
 21
390.49182287138319
 31
0.0
  0
LINE
  5
F416
  8
0
 10
632.18399415748161
 20
389.35364343198478
 30
0.0
 11
638.92102833471654
 21
390.10031724507888
 31
0.0
  0
LINE
  5
F417
  8
GAIKEI
  6
CONTINUOUS
 10
638.92102833471654
 20
390.10031724507888
 30
0.0
 11
759.91967166192705
 21
403.5107462284472
 31
0.0
  0
LINE
  5
F418
  8
0
 10
759.91967166192705
 20
403.5107462284472
 30
0.0
 11
773.68399415752344
 21
405.03626307934468
 31
0.0
  0
ARC
  5
F419
  8
GAIKEI
  6
CONTINUOUS
 10
761.57202277134274
 20
388.60203280940249
 30
0.0
 40
15.0
 50
10.89547408470653
 51
96.324351055264131
  0
ARC
  5
F41A
  8
GAIKEI
  6
CONTINUOUS
 10
761.57202277134274
 20
388.60203280940249
 30
0.0
 40
23.0
 50
10.89547408470653
 51
50.922307716744633
  0
ARC
  5
F41B
  8
GAIKEI
  6
CONTINUOUS
 10
776.38580263734173
 20
406.84489240108178
 30
0.0
 40
0.5
 50
96.324351055290379
 51
230.9223077167446
  0
ARC
  5
F41C
  8
GAIKEI
  6
CONTINUOUS
 10
640.02259574099276
 20
380.16117496571542
 30
0.0
 40
10.0
 50
96.324351055264131
 51
164.5854300176976
  0
ARC
  5
F41D
  8
GAIKEI
  6
CONTINUOUS
 10
640.02259574099276
 20
380.16117496571542
 30
0.0
 40
18.0
 50
147.8897002375775
 51
164.5854300176976
  0
ARC
  5
F41E
  8
GAIKEI
  6
CONTINUOUS
 10
624.35260769335127
 20
389.99486575741503
 30
0.0
 40
0.5
 50
327.88970023758532
 51
96.324351055290379
  0
LINE
  5
F41F
  8
GAIKEI
  6
CONTINUOUS
 10
776.33072426702802
 20
407.34184951504977
 30
0.0
 11
809.44201694730498
 21
411.01161495064707
 31
0.0
  0
LINE
  5
F420
  8
0
 10
808.56076302228382
 20
418.96292877413788
 30
0.0
 11
818.68399415748081
 21
420.08489897551999
 31
0.0
  0
ARC
  5
F421
  8
GAIKEI
  6
CONTINUOUS
 10
806.90841191286825
 20
433.87164219318271
 30
0.0
 40
15.0
 50
276.32435105526412
 51
344.67848992513302
  0
ARC
  5
F422
  8
GAIKEI
  6
CONTINUOUS
 10
806.90841191286825
 20
433.87164219318271
 30
0.0
 40
23.0
 50
276.32435105526412
 51
344.67848992513302
  0
LINE
  5
F423
  8
GAIKEI
  6
CONTINUOUS
 10
620.1839941574799
 20
398.08489897552079
 30
0.0
 11
610.1839941574799
 21
388.08489897552079
 31
0.0
  0
LINE
  5
F424
  8
GAIKEI
  6
CONTINUOUS
 10
623.60750338947582
 20
390.19469970853243
 30
0.0
 11
613.79059587527809
 21
380.37779219433332
 31
0.0
  0
ARC
  5
F425
  8
GAIKEI
  6
CONTINUOUS
 10
624.31461017066226
 20
389.48759292734582
 30
0.0
 40
1.0
 50
96.324351055264131
 51
135.00000000000881
  0
ARC
  5
F426
  8
GAIKEI
  6
CONTINUOUS
 10
613.08348909409131
 20
381.08489897551999
 30
0.0
 40
1.0
 50
270.0
 51
315.00000000000881
  0
LINE
  5
F427
  8
GAIKEI
  6
CONTINUOUS
 10
615.3296397022159
 20
361.08489897551948
 30
0.0
 11
588.68399415747967
 21
361.08489897551948
 31
0.0
  0
LINE
  5
F428
  8
0
  6
CENTER
 62
     6
 10
818.69016298951101
 20
378.08489859091202
 30
0.0
 11
818.68310286754149
 21
360.0848993601287
 31
0.0
  0
LINE
  5
F429
  8
GAIKEI
  6
CONTINUOUS
 10
810.68820184458696
 20
373.08489897551982
 30
0.0
 11
810.68506401246577
 21
365.08489897551982
 31
0.0
  0
LINE
  5
F42A
  8
GAIKEI
  6
CONTINUOUS
 10
826.68820184458673
 20
373.08489897551982
 30
0.0
 11
826.68506401246566
 21
365.08489897551982
 31
0.0
  0
LINE
  5
F42B
  8
0
 10
793.68399415747547
 20
353.08489897551982
 30
0.0
 11
794.25209243869722
 21
355.35729210041058
 31
0.0
  0
LINE
  5
F42C
  8
GAIKEI
  6
CONTINUOUS
 10
794.25209243869722
 20
355.35729210041058
 30
0.0
 11
796.11589587625235
 21
362.8125058506289
 31
0.0
  0
LINE
  5
F42D
  8
0
 10
796.11589587625235
 20
362.8125058506289
 30
0.0
 11
796.68399415747524
 21
365.08489897551982
 31
0.0
  0
ARC
  5
F42E
  8
GAIKEI
  6
CONTINUOUS
 10
799.02632337668888
 20
362.08489897551982
 30
0.0
 40
3.0
 50
90.0
 51
165.96375653207991
  0
ARC
  5
F42F
  8
GAIKEI
  6
CONTINUOUS
 10
799.02632337668888
 20
362.08489897551982
 30
0.0
 40
11.0
 50
90.0
 51
146.856156655934
  0
ARC
  5
F430
  8
GAIKEI
  6
CONTINUOUS
 10
789.39736661088773
 20
368.37244154812629
 30
0.0
 40
0.5
 50
190.89547408470651
 51
326.85615665594179
  0
LINE
  5
F431
  8
0
 10
622.1839941574799
 20
353.08489897551948
 30
0.0
 11
624.20832319966473
 21
360.42688624819863
 31
0.0
  0
LINE
  5
F432
  8
GAIKEI
  6
CONTINUOUS
 10
624.20832319966473
 20
360.42688624819863
 30
0.0
 11
630.38231730407097
 21
382.81918769303672
 31
0.0
  0
LINE
  5
F433
  8
0
 10
630.38231730407097
 20
382.81918769303672
 30
0.0
 11
632.18399415748161
 21
389.35364343198478
 31
0.0
  0
LINE
  5
F434
  8
GAIKEI
  6
CONTINUOUS
 10
616.29366754590774
 20
361.81909770278747
 30
0.0
 11
622.67009455453183
 21
384.94559787489328
 31
0.0
  0
ARC
  5
F435
  8
GAIKEI
  6
CONTINUOUS
 10
615.3296397022159
 20
362.08489897551959
 30
0.0
 40
1.0
 50
270.0
 51
344.5854300176976
  0
LINE
  5
F436
  8
GAIKEI
  6
CONTINUOUS
 10
628.52554260220666
 20
376.0848989755259
 30
0.0
 11
672.85002856133985
 21
376.0848989755259
 31
0.0
  0
ARC
  5
F437
  8
GAIKEI
  6
CONTINUOUS
 10
672.85002856133985
 20
356.0848989755259
 30
0.0
 40
20.0
 50
33.111341960471457
 51
90.0
  0
ARC
  5
F438
  8
GAIKEI
  6
CONTINUOUS
 10
711.3463608916162
 20
356.08489897551959
 30
0.0
 40
3.0
 50
209.99999999999619
 51
270.0
  0
ARC
  5
F439
  8
GAIKEI
  6
CONTINUOUS
 10
706.15020846890911
 20
353.08489897551948
 30
0.0
 40
3.0
 50
29.999999999996199
 51
90.0
  0
LINE
  5
F43A
  8
GAIKEI
  6
CONTINUOUS
 10
693.76834924797186
 20
360.62222117003631
 30
0.0
 11
689.60224049809403
 21
367.01025458649269
 31
0.0
  0
ARC
  5
F43B
  8
GAIKEI
  6
CONTINUOUS
 10
702.14445521634923
 20
366.08489897551948
 30
0.0
 40
10.0
 50
213.11134196047149
 51
270.0
  0
LINE
  5
F43C
  8
GAIKEI
  6
CONTINUOUS
 10
702.14445521634923
 20
356.08489897551931
 30
0.0
 11
706.15020846890911
 21
356.08489897551931
 31
0.0
  0
LINE
  5
F43D
  8
GAIKEI
  6
CONTINUOUS
 10
604.18399415748172
 20
456.43395196128381
 30
0.0
 11
588.68399415747967
 21
456.43395196128381
 31
0.0
  0
LINE
  5
F43E
  8
GAIKEI
  6
DASHED2
 10
588.68399415747967
 20
456.43395196128381
 30
0.0
 11
573.18399415748172
 21
456.43395196128381
 31
0.0
  0
LINE
  5
F43F
  8
0
  6
CENTER
 62
     6
 10
621.18393778312031
 20
449.79596546155892
 30
0.0
 11
556.18405053184131
 21
449.79596546155892
 31
0.0
  0
LINE
  5
F440
  8
GAIKEI
  6
CONTINUOUS
 10
604.18399415748172
 20
443.15797896183329
 30
0.0
 11
588.68399415747967
 21
443.15797896183329
 31
0.0
  0
LINE
  5
F441
  8
GAIKEI
  6
DASHED2
 10
588.68399415747967
 20
443.15797896183329
 30
0.0
 11
573.18399415748172
 21
443.15797896183329
 31
0.0
  0
POLYLINE
  5
F442
  8
GAIKEI
  6
CONTINUOUS
 10
604.18399415747979
 20
443.15797896183415
 30
0.0
 66
     1
 70
     8
  0
VERTEX
  8
GAIKEI
  5
11E55
 10
604.184
 20
443.158
 30
0.000000
  70
    32
  0
VERTEX
  8
GAIKEI
  5
11E56
 10
604.356
 20
443.160
 30
0.000000
  70
    32
  0
VERTEX
  8
GAIKEI
  5
11E57
 10
604.527
 20
443.166
 30
0.000000
  70
    32
  0
VERTEX
  8
GAIKEI
  5
11E58
 10
604.699
 20
443.176
 30
0.000000
  70
    32
  0
VERTEX
  8
GAIKEI
  5
11E59
 10
604.870
 20
443.190
 30
0.000000
  70
    32
  0
VERTEX
  8
GAIKEI
  5
11E5A
 10
605.041
 20
443.208
 30
0.000000
  70
    32
  0
VERTEX
  8
GAIKEI
  5
11E5B
 10
605.211
 20
443.230
 30
0.000000
  70
    32
  0
VERTEX
  8
GAIKEI
  5
11E5C
 10
605.381
 20
443.256
 30
0.000000
  70
    32
  0
VERTEX
  8
GAIKEI
  5
11E5D
 10
605.550
 20
443.286
 30
0.000000
  70
    32
  0
VERTEX
  8
GAIKEI
  5
11E5E
 10
605.718
 20
443.319
 30
0.000000
  70
    32
  0
VERTEX
  8
GAIKEI
  5
11E5F
 10
605.885
 20
443.357
 30
0.000000
  70
    32
  0
VERTEX
  8
GAIKEI
  5
11E60
 10
606.051
 20
443.398
 30
0.000000
  70
    32
  0
VERTEX
  8
GAIKEI
  5
11E61
 10
606.216
 20
443.444
 30
0.000000
  70
    32
  0
VERTEX
  8
GAIKEI
  5
11E62
 10
606.380
 20
443.493
 30
0.000000
  70
    32
  0
VERTEX
  8
GAIKEI
  5
11E63
 10
606.542
 20
443.546
 30
0.000000
  70
    32
  0
VERTEX
  8
GAIKEI
  5
11E64
 10
606.703
 20
443.603
 30
0.000000
  70
    32
  0
VERTEX
  8
GAIKEI
  5
11E65
 10
606.863
 20
443.663
 30
0.000000
  70
    32
  0
VERTEX
  8
GAIKEI
  5
11E66
 10
607.021
 20
443.727
 30
0.000000
  70
    32
  0
VERTEX
  8
GAIKEI
  5
11E67
 10
607.177
 20
443.795
 30
0.000000
  70
    32
  0
VERTEX
  8
GAIKEI
  5
11E68
 10
607.331
 20
443.867
 30
0.000000
  70
    32
  0
VERTEX
  8
GAIKEI
  5
11E69
 10
607.484
 20
443.942
 30
0.000000
  70
    32
  0
VERTEX
  8
GAIKEI
  5
11E6A
 10
607.634
 20
444.020
 30
0.000000
  70
    32
  0
VERTEX
  8
GAIKEI
  5
11E6B
 10
607.783
 20
444.102
 30
0.000000
  70
    32
  0
VERTEX
  8
GAIKEI
  5
11E6C
 10
607.929
 20
444.188
 30
0.000000
  70
    32
  0
VERTEX
  8
GAIKEI
  5
11E6D
 10
608.073
 20
444.277
 30
0.000000
  70
    32
  0
VERTEX
  8
GAIKEI
  5
11E6E
 10
608.215
 20
444.369
 30
0.000000
  70
    32
  0
VERTEX
  8
GAIKEI
  5
11E6F
 10
608.354
 20
444.464
 30
0.000000
  70
    32
  0
VERTEX
  8
GAIKEI
  5
11E70
 10
608.491
 20
444.563
 30
0.000000
  70
    32
  0
VERTEX
  8
GAIKEI
  5
11E71
 10
608.625
 20
444.665
 30
0.000000
  70
    32
  0
VERTEX
  8
GAIKEI
  5
11E72
 10
608.756
 20
444.770
 30
0.000000
  70
    32
  0
VERTEX
  8
GAIKEI
  5
11E73
 10
608.885
 20
444.878
 30
0.000000
  70
    32
  0
VERTEX
  8
GAIKEI
  5
11E74
 10
609.011
 20
444.988
 30
0.000000
  70
    32
  0
VERTEX
  8
GAIKEI
  5
11E75
 10
609.134
 20
445.102
 30
0.000000
  70
    32
  0
VERTEX
  8
GAIKEI
  5
11E76
 10
609.254
 20
445.219
 30
0.000000
  70
    32
  0
VERTEX
  8
GAIKEI
  5
11E77
 10
609.371
 20
445.338
 30
0.000000
  70
    32
  0
VERTEX
  8
GAIKEI
  5
11E78
 10
609.484
 20
445.460
 30
0.000000
  70
    32
  0
VERTEX
  8
GAIKEI
  5
11E79
 10
609.595
 20
445.585
 30
0.000000
  70
    32
  0
VERTEX
  8
GAIKEI
  5
11E7A
 10
609.702
 20
445.712
 30
0.000000
  70
    32
  0
VERTEX
  8
GAIKEI
  5
11E7B
 10
609.806
 20
445.842
 30
0.000000
  70
    32
  0
VERTEX
  8
GAIKEI
  5
11E7C
 10
609.907
 20
445.974
 30
0.000000
  70
    32
  0
VERTEX
  8
GAIKEI
  5
11E7D
 10
610.004
 20
446.108
 30
0.000000
  70
    32
  0
VERTEX
  8
GAIKEI
  5
11E7E
 10
610.098
 20
446.245
 30
0.000000
  70
    32
  0
VERTEX
  8
GAIKEI
  5
11E7F
 10
610.188
 20
446.383
 30
0.000000
  70
    32
  0
VERTEX
  8
GAIKEI
  5
11E80
 10
610.275
 20
446.524
 30
0.000000
  70
    32
  0
VERTEX
  8
GAIKEI
  5
11E81
 10
610.357
 20
446.667
 30
0.000000
  70
    32
  0
VERTEX
  8
GAIKEI
  5
11E82
 10
610.437
 20
446.811
 30
0.000000
  70
    32
  0
VERTEX
  8
GAIKEI
  5
11E83
 10
610.512
 20
446.958
 30
0.000000
  70
    32
  0
VERTEX
  8
GAIKEI
  5
11E84
 10
610.583
 20
447.106
 30
0.000000
  70
    32
  0
VERTEX
  8
GAIKEI
  5
11E85
 10
610.651
 20
447.256
 30
0.000000
  70
    32
  0
VERTEX
  8
GAIKEI
  5
11E86
 10
610.715
 20
447.407
 30
0.000000
  70
    32
  0
VERTEX
  8
GAIKEI
  5
11E87
 10
610.775
 20
447.560
 30
0.000000
  70
    32
  0
VERTEX
  8
GAIKEI
  5
11E88
 10
610.831
 20
447.714
 30
0.000000
  70
    32
  0
VERTEX
  8
GAIKEI
  5
11E89
 10
610.883
 20
447.869
 30
0.000000
  70
    32
  0
VERTEX
  8
GAIKEI
  5
11E8A
 10
610.930
 20
448.026
 30
0.000000
  70
    32
  0
VERTEX
  8
GAIKEI
  5
11E8B
 10
610.974
 20
448.183
 30
0.000000
  70
    32
  0
VERTEX
  8
GAIKEI
  5
11E8C
 10
611.014
 20
448.342
 30
0.000000
  70
    32
  0
VERTEX
  8
GAIKEI
  5
11E8D
 10
611.049
 20
448.501
 30
0.000000
  70
    32
  0
VERTEX
  8
GAIKEI
  5
11E8E
 10
611.081
 20
448.661
 30
0.000000
  70
    32
  0
VERTEX
  8
GAIKEI
  5
11E8F
 10
611.108
 20
448.822
 30
0.000000
  70
    32
  0
VERTEX
  8
GAIKEI
  5
11E90
 10
611.131
 20
448.983
 30
0.000000
  70
    32
  0
VERTEX
  8
GAIKEI
  5
11E91
 10
611.150
 20
449.145
 30
0.000000
  70
    32
  0
VERTEX
  8
GAIKEI
  5
11E92
 10
611.165
 20
449.308
 30
0.000000
  70
    32
  0
VERTEX
  8
GAIKEI
  5
11E93
 10
611.176
 20
449.470
 30
0.000000
  70
    32
  0
VERTEX
  8
GAIKEI
  5
11E94
 10
611.182
 20
449.633
 30
0.000000
  70
    32
  0
VERTEX
  8
GAIKEI
  5
11E95
 10
611.184
 20
449.796
 30
0.000000
  70
    32
  0
VERTEX
  8
GAIKEI
  5
11E96
 10
611.182
 20
449.959
 30
0.000000
  70
    32
  0
VERTEX
  8
GAIKEI
  5
11E97
 10
611.176
 20
450.122
 30
0.000000
  70
    32
  0
VERTEX
  8
GAIKEI
  5
11E98
 10
611.165
 20
450.284
 30
0.000000
  70
    32
  0
VERTEX
  8
GAIKEI
  5
11E99
 10
611.150
 20
450.447
 30
0.000000
  70
    32
  0
VERTEX
  8
GAIKEI
  5
11E9A
 10
611.131
 20
450.609
 30
0.000000
  70
    32
  0
VERTEX
  8
GAIKEI
  5
11E9B
 10
611.108
 20
450.770
 30
0.000000
  70
    32
  0
VERTEX
  8
GAIKEI
  5
11E9C
 10
611.081
 20
450.931
 30
0.000000
  70
    32
  0
VERTEX
  8
GAIKEI
  5
11E9D
 10
611.049
 20
451.091
 30
0.000000
  70
    32
  0
VERTEX
  8
GAIKEI
  5
11E9E
 10
611.014
 20
451.250
 30
0.000000
  70
    32
  0
VERTEX
  8
GAIKEI
  5
11E9F
 10
610.974
 20
451.409
 30
0.000000
  70
    32
  0
VERTEX
  8
GAIKEI
  5
11EA0
 10
610.930
 20
451.566
 30
0.000000
  70
    32
  0
VERTEX
  8
GAIKEI
  5
11EA1
 10
610.883
 20
451.723
 30
0.000000
  70
    32
  0
VERTEX
  8
GAIKEI
  5
11EA2
 10
610.831
 20
451.878
 30
0.000000
  70
    32
  0
VERTEX
  8
GAIKEI
  5
11EA3
 10
610.775
 20
452.032
 30
0.000000
  70
    32
  0
VERTEX
  8
GAIKEI
  5
11EA4
 10
610.715
 20
452.185
 30
0.000000
  70
    32
  0
VERTEX
  8
GAIKEI
  5
11EA5
 10
610.651
 20
452.336
 30
0.000000
  70
    32
  0
VERTEX
  8
GAIKEI
  5
11EA6
 10
610.583
 20
452.486
 30
0.000000
  70
    32
  0
VERTEX
  8
GAIKEI
  5
11EA7
 10
610.512
 20
452.634
 30
0.000000
  70
    32
  0
VERTEX
  8
GAIKEI
  5
11EA8
 10
610.437
 20
452.780
 30
0.000000
  70
    32
  0
VERTEX
  8
GAIKEI
  5
11EA9
 10
610.357
 20
452.925
 30
0.000000
  70
    32
  0
VERTEX
  8
GAIKEI
  5
11EAA
 10
610.275
 20
453.068
 30
0.000000
  70
    32
  0
VERTEX
  8
GAIKEI
  5
11EAB
 10
610.188
 20
453.209
 30
0.000000
  70
    32
  0
VERTEX
  8
GAIKEI
  5
11EAC
 10
610.098
 20
453.347
 30
0.000000
  70
    32
  0
VERTEX
  8
GAIKEI
  5
11EAD
 10
610.004
 20
453.484
 30
0.000000
  70
    32
  0
VERTEX
  8
GAIKEI
  5
11EAE
 10
609.907
 20
453.618
 30
0.000000
  70
    32
  0
VERTEX
  8
GAIKEI
  5
11EAF
 10
609.806
 20
453.750
 30
0.000000
  70
    32
  0
VERTEX
  8
GAIKEI
  5
11EB0
 10
609.702
 20
453.880
 30
0.000000
  70
    32
  0
VERTEX
  8
GAIKEI
  5
11EB1
 10
609.595
 20
454.007
 30
0.000000
  70
    32
  0
VERTEX
  8
GAIKEI
  5
11EB2
 10
609.484
 20
454.132
 30
0.000000
  70
    32
  0
VERTEX
  8
GAIKEI
  5
11EB3
 10
609.371
 20
454.254
 30
0.000000
  70
    32
  0
VERTEX
  8
GAIKEI
  5
11EB4
 10
609.254
 20
454.373
 30
0.000000
  70
    32
  0
VERTEX
  8
GAIKEI
  5
11EB5
 10
609.134
 20
454.490
 30
0.000000
  70
    32
  0
VERTEX
  8
GAIKEI
  5
11EB6
 10
609.011
 20
454.604
 30
0.000000
  70
    32
  0
VERTEX
  8
GAIKEI
  5
11EB7
 10
608.885
 20
454.714
 30
0.000000
  70
    32
  0
VERTEX
  8
GAIKEI
  5
11EB8
 10
608.756
 20
454.822
 30
0.000000
  70
    32
  0
VERTEX
  8
GAIKEI
  5
11EB9
 10
608.625
 20
454.927
 30
0.000000
  70
    32
  0
VERTEX
  8
GAIKEI
  5
11EBA
 10
608.491
 20
455.029
 30
0.000000
  70
    32
  0
VERTEX
  8
GAIKEI
  5
11EBB
 10
608.354
 20
455.128
 30
0.000000
  70
    32
  0
VERTEX
  8
GAIKEI
  5
11EBC
 10
608.215
 20
455.223
 30
0.000000
  70
    32
  0
VERTEX
  8
GAIKEI
  5
11EBD
 10
608.073
 20
455.315
 30
0.000000
  70
    32
  0
VERTEX
  8
GAIKEI
  5
11EBE
 10
607.929
 20
455.404
 30
0.000000
  70
    32
  0
VERTEX
  8
GAIKEI
  5
11EBF
 10
607.783
 20
455.490
 30
0.000000
  70
    32
  0
VERTEX
  8
GAIKEI
  5
11EC0
 10
607.634
 20
455.572
 30
0.000000
  70
    32
  0
VERTEX
  8
GAIKEI
  5
11EC1
 10
607.484
 20
455.650
 30
0.000000
  70
    32
  0
VERTEX
  8
GAIKEI
  5
11EC2
 10
607.331
 20
455.725
 30
0.000000
  70
    32
  0
VERTEX
  8
GAIKEI
  5
11EC3
 10
607.177
 20
455.797
 30
0.000000
  70
    32
  0
VERTEX
  8
GAIKEI
  5
11EC4
 10
607.021
 20
455.864
 30
0.000000
  70
    32
  0
VERTEX
  8
GAIKEI
  5
11EC5
 10
606.863
 20
455.929
 30
0.000000
  70
    32
  0
VERTEX
  8
GAIKEI
  5
11EC6
 10
606.703
 20
455.989
 30
0.000000
  70
    32
  0
VERTEX
  8
GAIKEI
  5
11EC7
 10
606.542
 20
456.046
 30
0.000000
  70
    32
  0
VERTEX
  8
GAIKEI
  5
11EC8
 10
606.380
 20
456.099
 30
0.000000
  70
    32
  0
VERTEX
  8
GAIKEI
  5
11EC9
 10
606.216
 20
456.148
 30
0.000000
  70
    32
  0
VERTEX
  8
GAIKEI
  5
11ECA
 10
606.051
 20
456.193
 30
0.000000
  70
    32
  0
VERTEX
  8
GAIKEI
  5
11ECB
 10
605.885
 20
456.235
 30
0.000000
  70
    32
  0
VERTEX
  8
GAIKEI
  5
11ECC
 10
605.718
 20
456.273
 30
0.000000
  70
    32
  0
VERTEX
  8
GAIKEI
  5
11ECD
 10
605.550
 20
456.306
 30
0.000000
  70
    32
  0
VERTEX
  8
GAIKEI
  5
11ECE
 10
605.381
 20
456.336
 30
0.000000
  70
    32
  0
VERTEX
  8
GAIKEI
  5
11ECF
 10
605.211
 20
456.362
 30
0.000000
  70
    32
  0
VERTEX
  8
GAIKEI
  5
11ED0
 10
605.041
 20
456.384
 30
0.000000
  70
    32
  0
VERTEX
  8
GAIKEI
  5
11ED1
 10
604.870
 20
456.402
 30
0.000000
  70
    32
  0
VERTEX
  8
GAIKEI
  5
11ED2
 10
604.699
 20
456.416
 30
0.000000
  70
    32
  0
VERTEX
  8
GAIKEI
  5
11ED3
 10
604.527
 20
456.426
 30
0.000000
  70
    32
  0
VERTEX
  8
GAIKEI
  5
11ED4
 10
604.356
 20
456.432
 30
0.000000
  70
    32
  0
VERTEX
  8
GAIKEI
  5
11ED5
 10
604.184
 20
456.434
 30
0.000000
  70
    32
  0
SEQEND
  8
GAIKEI
  5
11ED6
  0
POLYLINE
  5
F443
  8
GAIKEI
  6
DASHED2
 10
573.1839941574799
 20
443.15797896183415
 30
0.0
 66
     1
 70
     8
  0
VERTEX
  8
GAIKEI
  5
11ED7
 10
573.184
 20
443.158
 30
0.000000
  70
    32
  0
VERTEX
  8
GAIKEI
  5
11ED8
 10
573.012
 20
443.160
 30
0.000000
  70
    32
  0
VERTEX
  8
GAIKEI
  5
11ED9
 10
572.841
 20
443.166
 30
0.000000
  70
    32
  0
VERTEX
  8
GAIKEI
  5
11EDA
 10
572.669
 20
443.176
 30
0.000000
  70
    32
  0
VERTEX
  8
GAIKEI
  5
11EDB
 10
572.498
 20
443.190
 30
0.000000
  70
    32
  0
VERTEX
  8
GAIKEI
  5
11EDC
 10
572.327
 20
443.208
 30
0.000000
  70
    32
  0
VERTEX
  8
GAIKEI
  5
11EDD
 10
572.157
 20
443.230
 30
0.000000
  70
    32
  0
VERTEX
  8
GAIKEI
  5
11EDE
 10
571.987
 20
443.256
 30
0.000000
  70
    32
  0
VERTEX
  8
GAIKEI
  5
11EDF
 10
571.818
 20
443.286
 30
0.000000
  70
    32
  0
VERTEX
  8
GAIKEI
  5
11EE0
 10
571.650
 20
443.319
 30
0.000000
  70
    32
  0
VERTEX
  8
GAIKEI
  5
11EE1
 10
571.483
 20
443.357
 30
0.000000
  70
    32
  0
VERTEX
  8
GAIKEI
  5
11EE2
 10
571.317
 20
443.398
 30
0.000000
  70
    32
  0
VERTEX
  8
GAIKEI
  5
11EE3
 10
571.152
 20
443.444
 30
0.000000
  70
    32
  0
VERTEX
  8
GAIKEI
  5
11EE4
 10
570.988
 20
443.493
 30
0.000000
  70
    32
  0
VERTEX
  8
GAIKEI
  5
11EE5
 10
570.826
 20
443.546
 30
0.000000
  70
    32
  0
VERTEX
  8
GAIKEI
  5
11EE6
 10
570.665
 20
443.603
 30
0.000000
  70
    32
  0
VERTEX
  8
GAIKEI
  5
11EE7
 10
570.505
 20
443.663
 30
0.000000
  70
    32
  0
VERTEX
  8
GAIKEI
  5
11EE8
 10
570.347
 20
443.727
 30
0.000000
  70
    32
  0
VERTEX
  8
GAIKEI
  5
11EE9
 10
570.191
 20
443.795
 30
0.000000
  70
    32
  0
VERTEX
  8
GAIKEI
  5
11EEA
 10
570.037
 20
443.867
 30
0.000000
  70
    32
  0
VERTEX
  8
GAIKEI
  5
11EEB
 10
569.884
 20
443.942
 30
0.000000
  70
    32
  0
VERTEX
  8
GAIKEI
  5
11EEC
 10
569.734
 20
444.020
 30
0.000000
  70
    32
  0
VERTEX
  8
GAIKEI
  5
11EED
 10
569.585
 20
444.102
 30
0.000000
  70
    32
  0
VERTEX
  8
GAIKEI
  5
11EEE
 10
569.439
 20
444.188
 30
0.000000
  70
    32
  0
VERTEX
  8
GAIKEI
  5
11EEF
 10
569.295
 20
444.277
 30
0.000000
  70
    32
  0
VERTEX
  8
GAIKEI
  5
11EF0
 10
569.153
 20
444.369
 30
0.000000
  70
    32
  0
VERTEX
  8
GAIKEI
  5
11EF1
 10
569.014
 20
444.464
 30
0.000000
  70
    32
  0
VERTEX
  8
GAIKEI
  5
11EF2
 10
568.877
 20
444.563
 30
0.000000
  70
    32
  0
VERTEX
  8
GAIKEI
  5
11EF3
 10
568.743
 20
444.665
 30
0.000000
  70
    32
  0
VERTEX
  8
GAIKEI
  5
11EF4
 10
568.612
 20
444.770
 30
0.000000
  70
    32
  0
VERTEX
  8
GAIKEI
  5
11EF5
 10
568.483
 20
444.878
 30
0.000000
  70
    32
  0
VERTEX
  8
GAIKEI
  5
11EF6
 10
568.357
 20
444.988
 30
0.000000
  70
    32
  0
VERTEX
  8
GAIKEI
  5
11EF7
 10
568.234
 20
445.102
 30
0.000000
  70
    32
  0
VERTEX
  8
GAIKEI
  5
11EF8
 10
568.114
 20
445.219
 30
0.000000
  70
    32
  0
VERTEX
  8
GAIKEI
  5
11EF9
 10
567.997
 20
445.338
 30
0.000000
  70
    32
  0
VERTEX
  8
GAIKEI
  5
11EFA
 10
567.884
 20
445.460
 30
0.000000
  70
    32
  0
VERTEX
  8
GAIKEI
  5
11EFB
 10
567.773
 20
445.585
 30
0.000000
  70
    32
  0
VERTEX
  8
GAIKEI
  5
11EFC
 10
567.666
 20
445.712
 30
0.000000
  70
    32
  0
VERTEX
  8
GAIKEI
  5
11EFD
 10
567.562
 20
445.842
 30
0.000000
  70
    32
  0
VERTEX
  8
GAIKEI
  5
11EFE
 10
567.461
 20
445.974
 30
0.000000
  70
    32
  0
VERTEX
  8
GAIKEI
  5
11EFF
 10
567.364
 20
446.108
 30
0.000000
  70
    32
  0
VERTEX
  8
GAIKEI
  5
11F00
 10
567.270
 20
446.245
 30
0.000000
  70
    32
  0
VERTEX
  8
GAIKEI
  5
11F01
 10
567.180
 20
446.383
 30
0.000000
  70
    32
  0
VERTEX
  8
GAIKEI
  5
11F02
 10
567.093
 20
446.524
 30
0.000000
  70
    32
  0
VERTEX
  8
GAIKEI
  5
11F03
 10
567.011
 20
446.667
 30
0.000000
  70
    32
  0
VERTEX
  8
GAIKEI
  5
11F04
 10
566.931
 20
446.811
 30
0.000000
  70
    32
  0
VERTEX
  8
GAIKEI
  5
11F05
 10
566.856
 20
446.958
 30
0.000000
  70
    32
  0
VERTEX
  8
GAIKEI
  5
11F06
 10
566.785
 20
447.106
 30
0.000000
  70
    32
  0
VERTEX
  8
GAIKEI
  5
11F07
 10
566.717
 20
447.256
 30
0.000000
  70
    32
  0
VERTEX
  8
GAIKEI
  5
11F08
 10
566.653
 20
447.407
 30
0.000000
  70
    32
  0
VERTEX
  8
GAIKEI
  5
11F09
 10
566.593
 20
447.560
 30
0.000000
  70
    32
  0
VERTEX
  8
GAIKEI
  5
11F0A
 10
566.537
 20
447.714
 30
0.000000
  70
    32
  0
VERTEX
  8
GAIKEI
  5
11F0B
 10
566.485
 20
447.869
 30
0.000000
  70
    32
  0
VERTEX
  8
GAIKEI
  5
11F0C
 10
566.438
 20
448.026
 30
0.000000
  70
    32
  0
VERTEX
  8
GAIKEI
  5
11F0D
 10
566.394
 20
448.183
 30
0.000000
  70
    32
  0
VERTEX
  8
GAIKEI
  5
11F0E
 10
566.354
 20
448.342
 30
0.000000
  70
    32
  0
VERTEX
  8
GAIKEI
  5
11F0F
 10
566.318
 20
448.501
 30
0.000000
  70
    32
  0
VERTEX
  8
GAIKEI
  5
11F10
 10
566.287
 20
448.661
 30
0.000000
  70
    32
  0
VERTEX
  8
GAIKEI
  5
11F11
 10
566.260
 20
448.822
 30
0.000000
  70
    32
  0
VERTEX
  8
GAIKEI
  5
11F12
 10
566.237
 20
448.983
 30
0.000000
  70
    32
  0
VERTEX
  8
GAIKEI
  5
11F13
 10
566.218
 20
449.145
 30
0.000000
  70
    32
  0
VERTEX
  8
GAIKEI
  5
11F14
 10
566.203
 20
449.308
 30
0.000000
  70
    32
  0
VERTEX
  8
GAIKEI
  5
11F15
 10
566.192
 20
449.470
 30
0.000000
  70
    32
  0
VERTEX
  8
GAIKEI
  5
11F16
 10
566.186
 20
449.633
 30
0.000000
  70
    32
  0
VERTEX
  8
GAIKEI
  5
11F17
 10
566.184
 20
449.796
 30
0.000000
  70
    32
  0
VERTEX
  8
GAIKEI
  5
11F18
 10
566.186
 20
449.959
 30
0.000000
  70
    32
  0
VERTEX
  8
GAIKEI
  5
11F19
 10
566.192
 20
450.122
 30
0.000000
  70
    32
  0
VERTEX
  8
GAIKEI
  5
11F1A
 10
566.203
 20
450.284
 30
0.000000
  70
    32
  0
VERTEX
  8
GAIKEI
  5
11F1B
 10
566.218
 20
450.447
 30
0.000000
  70
    32
  0
VERTEX
  8
GAIKEI
  5
11F1C
 10
566.237
 20
450.609
 30
0.000000
  70
    32
  0
VERTEX
  8
GAIKEI
  5
11F1D
 10
566.260
 20
450.770
 30
0.000000
  70
    32
  0
VERTEX
  8
GAIKEI
  5
11F1E
 10
566.287
 20
450.931
 30
0.000000
  70
    32
  0
VERTEX
  8
GAIKEI
  5
11F1F
 10
566.318
 20
451.091
 30
0.000000
  70
    32
  0
VERTEX
  8
GAIKEI
  5
11F20
 10
566.354
 20
451.250
 30
0.000000
  70
    32
  0
VERTEX
  8
GAIKEI
  5
11F21
 10
566.394
 20
451.409
 30
0.000000
  70
    32
  0
VERTEX
  8
GAIKEI
  5
11F22
 10
566.438
 20
451.566
 30
0.000000
  70
    32
  0
VERTEX
  8
GAIKEI
  5
11F23
 10
566.485
 20
451.723
 30
0.000000
  70
    32
  0
VERTEX
  8
GAIKEI
  5
11F24
 10
566.537
 20
451.878
 30
0.000000
  70
    32
  0
VERTEX
  8
GAIKEI
  5
11F25
 10
566.593
 20
452.032
 30
0.000000
  70
    32
  0
VERTEX
  8
GAIKEI
  5
11F26
 10
566.653
 20
452.185
 30
0.000000
  70
    32
  0
VERTEX
  8
GAIKEI
  5
11F27
 10
566.717
 20
452.336
 30
0.000000
  70
    32
  0
VERTEX
  8
GAIKEI
  5
11F28
 10
566.785
 20
452.486
 30
0.000000
  70
    32
  0
VERTEX
  8
GAIKEI
  5
11F29
 10
566.856
 20
452.634
 30
0.000000
  70
    32
  0
VERTEX
  8
GAIKEI
  5
11F2A
 10
566.931
 20
452.780
 30
0.000000
  70
    32
  0
VERTEX
  8
GAIKEI
  5
11F2B
 10
567.011
 20
452.925
 30
0.000000
  70
    32
  0
VERTEX
  8
GAIKEI
  5
11F2C
 10
567.093
 20
453.068
 30
0.000000
  70
    32
  0
VERTEX
  8
GAIKEI
  5
11F2D
 10
567.180
 20
453.209
 30
0.000000
  70
    32
  0
VERTEX
  8
GAIKEI
  5
11F2E
 10
567.270
 20
453.347
 30
0.000000
  70
    32
  0
VERTEX
  8
GAIKEI
  5
11F2F
 10
567.364
 20
453.484
 30
0.000000
  70
    32
  0
VERTEX
  8
GAIKEI
  5
11F30
 10
567.461
 20
453.618
 30
0.000000
  70
    32
  0
VERTEX
  8
GAIKEI
  5
11F31
 10
567.562
 20
453.750
 30
0.000000
  70
    32
  0
VERTEX
  8
GAIKEI
  5
11F32
 10
567.666
 20
453.880
 30
0.000000
  70
    32
  0
VERTEX
  8
GAIKEI
  5
11F33
 10
567.773
 20
454.007
 30
0.000000
  70
    32
  0
VERTEX
  8
GAIKEI
  5
11F34
 10
567.884
 20
454.132
 30
0.000000
  70
    32
  0
VERTEX
  8
GAIKEI
  5
11F35
 10
567.997
 20
454.254
 30
0.000000
  70
    32
  0
VERTEX
  8
GAIKEI
  5
11F36
 10
568.114
 20
454.373
 30
0.000000
  70
    32
  0
VERTEX
  8
GAIKEI
  5
11F37
 10
568.234
 20
454.490
 30
0.000000
  70
    32
  0
VERTEX
  8
GAIKEI
  5
11F38
 10
568.357
 20
454.604
 30
0.000000
  70
    32
  0
VERTEX
  8
GAIKEI
  5
11F39
 10
568.483
 20
454.714
 30
0.000000
  70
    32
  0
VERTEX
  8
GAIKEI
  5
11F3A
 10
568.612
 20
454.822
 30
0.000000
  70
    32
  0
VERTEX
  8
GAIKEI
  5
11F3B
 10
568.743
 20
454.927
 30
0.000000
  70
    32
  0
VERTEX
  8
GAIKEI
  5
11F3C
 10
568.877
 20
455.029
 30
0.000000
  70
    32
  0
VERTEX
  8
GAIKEI
  5
11F3D
 10
569.014
 20
455.128
 30
0.000000
  70
    32
  0
VERTEX
  8
GAIKEI
  5
11F3E
 10
569.153
 20
455.223
 30
0.000000
  70
    32
  0
VERTEX
  8
GAIKEI
  5
11F3F
 10
569.295
 20
455.315
 30
0.000000
  70
    32
  0
VERTEX
  8
GAIKEI
  5
11F40
 10
569.439
 20
455.404
 30
0.000000
  70
    32
  0
VERTEX
  8
GAIKEI
  5
11F41
 10
569.585
 20
455.490
 30
0.000000
  70
    32
  0
VERTEX
  8
GAIKEI
  5
11F42
 10
569.734
 20
455.572
 30
0.000000
  70
    32
  0
VERTEX
  8
GAIKEI
  5
11F43
 10
569.884
 20
455.650
 30
0.000000
  70
    32
  0
VERTEX
  8
GAIKEI
  5
11F44
 10
570.037
 20
455.725
 30
0.000000
  70
    32
  0
VERTEX
  8
GAIKEI
  5
11F45
 10
570.191
 20
455.797
 30
0.000000
  70
    32
  0
VERTEX
  8
GAIKEI
  5
11F46
 10
570.347
 20
455.864
 30
0.000000
  70
    32
  0
VERTEX
  8
GAIKEI
  5
11F47
 10
570.505
 20
455.929
 30
0.000000
  70
    32
  0
VERTEX
  8
GAIKEI
  5
11F48
 10
570.665
 20
455.989
 30
0.000000
  70
    32
  0
VERTEX
  8
GAIKEI
  5
11F49
 10
570.826
 20
456.046
 30
0.000000
  70
    32
  0
VERTEX
  8
GAIKEI
  5
11F4A
 10
570.988
 20
456.099
 30
0.000000
  70
    32
  0
VERTEX
  8
GAIKEI
  5
11F4B
 10
571.152
 20
456.148
 30
0.000000
  70
    32
  0
VERTEX
  8
GAIKEI
  5
11F4C
 10
571.317
 20
456.193
 30
0.000000
  70
    32
  0
VERTEX
  8
GAIKEI
  5
11F4D
 10
571.483
 20
456.235
 30
0.000000
  70
    32
  0
VERTEX
  8
GAIKEI
  5
11F4E
 10
571.650
 20
456.273
 30
0.000000
  70
    32
  0
VERTEX
  8
GAIKEI
  5
11F4F
 10
571.818
 20
456.306
 30
0.000000
  70
    32
  0
VERTEX
  8
GAIKEI
  5
11F50
 10
571.987
 20
456.336
 30
0.000000
  70
    32
  0
VERTEX
  8
GAIKEI
  5
11F51
 10
572.157
 20
456.362
 30
0.000000
  70
    32
  0
VERTEX
  8
GAIKEI
  5
11F52
 10
572.327
 20
456.384
 30
0.000000
  70
    32
  0
VERTEX
  8
GAIKEI
  5
11F53
 10
572.498
 20
456.402
 30
0.000000
  70
    32
  0
VERTEX
  8
GAIKEI
  5
11F54
 10
572.669
 20
456.416
 30
0.000000
  70
    32
  0
VERTEX
  8
GAIKEI
  5
11F55
 10
572.841
 20
456.426
 30
0.000000
  70
    32
  0
VERTEX
  8
GAIKEI
  5
11F56
 10
573.012
 20
456.432
 30
0.000000
  70
    32
  0
VERTEX
  8
GAIKEI
  5
11F57
 10
573.184
 20
456.434
 30
0.000000
  70
    32
  0
SEQEND
  8
GAIKEI
  5
11F58
  0
LINE
  5
F444
  8
GAIKEI
  6
CONTINUOUS
 10
604.18399415748172
 20
453.89456164924968
 30
0.0
 11
588.68399415748172
 21
453.89456164924968
 31
0.0
  0
LINE
  5
F445
  8
GAIKEI
  6
DASHED2
 10
588.68399415748172
 20
453.89456164924968
 30
0.0
 11
573.18399415748172
 21
453.89456164924968
 31
0.0
  0
POLYLINE
  5
F446
  8
GAIKEI
  6
CONTINUOUS
 10
611.05474662686731
 20
448.52627030554186
 30
0.0
 66
     1
 70
     8
  0
VERTEX
  8
GAIKEI
  5
11F59
 10
611.055
 20
448.526
 30
0.000000
  70
    32
  0
VERTEX
  8
GAIKEI
  5
11F5A
 10
611.040
 20
448.596
 30
0.000000
  70
    32
  0
VERTEX
  8
GAIKEI
  5
11F5B
 10
611.024
 20
448.666
 30
0.000000
  70
    32
  0
VERTEX
  8
GAIKEI
  5
11F5C
 10
611.008
 20
448.736
 30
0.000000
  70
    32
  0
VERTEX
  8
GAIKEI
  5
11F5D
 10
610.991
 20
448.806
 30
0.000000
  70
    32
  0
VERTEX
  8
GAIKEI
  5
11F5E
 10
610.973
 20
448.875
 30
0.000000
  70
    32
  0
VERTEX
  8
GAIKEI
  5
11F5F
 10
610.954
 20
448.944
 30
0.000000
  70
    32
  0
VERTEX
  8
GAIKEI
  5
11F60
 10
610.934
 20
449.013
 30
0.000000
  70
    32
  0
VERTEX
  8
GAIKEI
  5
11F61
 10
610.914
 20
449.082
 30
0.000000
  70
    32
  0
VERTEX
  8
GAIKEI
  5
11F62
 10
610.893
 20
449.151
 30
0.000000
  70
    32
  0
VERTEX
  8
GAIKEI
  5
11F63
 10
610.871
 20
449.219
 30
0.000000
  70
    32
  0
VERTEX
  8
GAIKEI
  5
11F64
 10
610.848
 20
449.287
 30
0.000000
  70
    32
  0
VERTEX
  8
GAIKEI
  5
11F65
 10
610.825
 20
449.355
 30
0.000000
  70
    32
  0
VERTEX
  8
GAIKEI
  5
11F66
 10
610.801
 20
449.423
 30
0.000000
  70
    32
  0
VERTEX
  8
GAIKEI
  5
11F67
 10
610.776
 20
449.490
 30
0.000000
  70
    32
  0
VERTEX
  8
GAIKEI
  5
11F68
 10
610.750
 20
449.558
 30
0.000000
  70
    32
  0
VERTEX
  8
GAIKEI
  5
11F69
 10
610.723
 20
449.624
 30
0.000000
  70
    32
  0
VERTEX
  8
GAIKEI
  5
11F6A
 10
610.696
 20
449.691
 30
0.000000
  70
    32
  0
VERTEX
  8
GAIKEI
  5
11F6B
 10
610.668
 20
449.757
 30
0.000000
  70
    32
  0
VERTEX
  8
GAIKEI
  5
11F6C
 10
610.639
 20
449.824
 30
0.000000
  70
    32
  0
VERTEX
  8
GAIKEI
  5
11F6D
 10
610.610
 20
449.889
 30
0.000000
  70
    32
  0
VERTEX
  8
GAIKEI
  5
11F6E
 10
610.580
 20
449.955
 30
0.000000
  70
    32
  0
VERTEX
  8
GAIKEI
  5
11F6F
 10
610.549
 20
450.020
 30
0.000000
  70
    32
  0
VERTEX
  8
GAIKEI
  5
11F70
 10
610.517
 20
450.085
 30
0.000000
  70
    32
  0
VERTEX
  8
GAIKEI
  5
11F71
 10
610.484
 20
450.149
 30
0.000000
  70
    32
  0
VERTEX
  8
GAIKEI
  5
11F72
 10
610.451
 20
450.213
 30
0.000000
  70
    32
  0
VERTEX
  8
GAIKEI
  5
11F73
 10
610.417
 20
450.277
 30
0.000000
  70
    32
  0
VERTEX
  8
GAIKEI
  5
11F74
 10
610.383
 20
450.341
 30
0.000000
  70
    32
  0
VERTEX
  8
GAIKEI
  5
11F75
 10
610.347
 20
450.404
 30
0.000000
  70
    32
  0
VERTEX
  8
GAIKEI
  5
11F76
 10
610.311
 20
450.467
 30
0.000000
  70
    32
  0
VERTEX
  8
GAIKEI
  5
11F77
 10
610.274
 20
450.529
 30
0.000000
  70
    32
  0
VERTEX
  8
GAIKEI
  5
11F78
 10
610.237
 20
450.591
 30
0.000000
  70
    32
  0
VERTEX
  8
GAIKEI
  5
11F79
 10
610.199
 20
450.653
 30
0.000000
  70
    32
  0
VERTEX
  8
GAIKEI
  5
11F7A
 10
610.160
 20
450.714
 30
0.000000
  70
    32
  0
VERTEX
  8
GAIKEI
  5
11F7B
 10
610.120
 20
450.775
 30
0.000000
  70
    32
  0
VERTEX
  8
GAIKEI
  5
11F7C
 10
610.080
 20
450.835
 30
0.000000
  70
    32
  0
VERTEX
  8
GAIKEI
  5
11F7D
 10
610.039
 20
450.895
 30
0.000000
  70
    32
  0
VERTEX
  8
GAIKEI
  5
11F7E
 10
609.997
 20
450.955
 30
0.000000
  70
    32
  0
VERTEX
  8
GAIKEI
  5
11F7F
 10
609.955
 20
451.014
 30
0.000000
  70
    32
  0
VERTEX
  8
GAIKEI
  5
11F80
 10
609.912
 20
451.072
 30
0.000000
  70
    32
  0
VERTEX
  8
GAIKEI
  5
11F81
 10
609.868
 20
451.131
 30
0.000000
  70
    32
  0
VERTEX
  8
GAIKEI
  5
11F82
 10
609.824
 20
451.189
 30
0.000000
  70
    32
  0
VERTEX
  8
GAIKEI
  5
11F83
 10
609.779
 20
451.246
 30
0.000000
  70
    32
  0
VERTEX
  8
GAIKEI
  5
11F84
 10
609.733
 20
451.303
 30
0.000000
  70
    32
  0
VERTEX
  8
GAIKEI
  5
11F85
 10
609.687
 20
451.359
 30
0.000000
  70
    32
  0
VERTEX
  8
GAIKEI
  5
11F86
 10
609.640
 20
451.415
 30
0.000000
  70
    32
  0
VERTEX
  8
GAIKEI
  5
11F87
 10
609.592
 20
451.471
 30
0.000000
  70
    32
  0
VERTEX
  8
GAIKEI
  5
11F88
 10
609.544
 20
451.526
 30
0.000000
  70
    32
  0
VERTEX
  8
GAIKEI
  5
11F89
 10
609.496
 20
451.580
 30
0.000000
  70
    32
  0
VERTEX
  8
GAIKEI
  5
11F8A
 10
609.446
 20
451.634
 30
0.000000
  70
    32
  0
VERTEX
  8
GAIKEI
  5
11F8B
 10
609.396
 20
451.688
 30
0.000000
  70
    32
  0
VERTEX
  8
GAIKEI
  5
11F8C
 10
609.346
 20
451.741
 30
0.000000
  70
    32
  0
VERTEX
  8
GAIKEI
  5
11F8D
 10
609.294
 20
451.793
 30
0.000000
  70
    32
  0
VERTEX
  8
GAIKEI
  5
11F8E
 10
609.242
 20
451.845
 30
0.000000
  70
    32
  0
VERTEX
  8
GAIKEI
  5
11F8F
 10
609.190
 20
451.896
 30
0.000000
  70
    32
  0
VERTEX
  8
GAIKEI
  5
11F90
 10
609.137
 20
451.947
 30
0.000000
  70
    32
  0
VERTEX
  8
GAIKEI
  5
11F91
 10
609.084
 20
451.997
 30
0.000000
  70
    32
  0
VERTEX
  8
GAIKEI
  5
11F92
 10
609.029
 20
452.047
 30
0.000000
  70
    32
  0
VERTEX
  8
GAIKEI
  5
11F93
 10
608.975
 20
452.096
 30
0.000000
  70
    32
  0
VERTEX
  8
GAIKEI
  5
11F94
 10
608.920
 20
452.145
 30
0.000000
  70
    32
  0
VERTEX
  8
GAIKEI
  5
11F95
 10
608.864
 20
452.193
 30
0.000000
  70
    32
  0
VERTEX
  8
GAIKEI
  5
11F96
 10
608.807
 20
452.241
 30
0.000000
  70
    32
  0
VERTEX
  8
GAIKEI
  5
11F97
 10
608.751
 20
452.288
 30
0.000000
  70
    32
  0
VERTEX
  8
GAIKEI
  5
11F98
 10
608.693
 20
452.334
 30
0.000000
  70
    32
  0
VERTEX
  8
GAIKEI
  5
11F99
 10
608.635
 20
452.380
 30
0.000000
  70
    32
  0
VERTEX
  8
GAIKEI
  5
11F9A
 10
608.577
 20
452.425
 30
0.000000
  70
    32
  0
VERTEX
  8
GAIKEI
  5
11F9B
 10
608.518
 20
452.469
 30
0.000000
  70
    32
  0
VERTEX
  8
GAIKEI
  5
11F9C
 10
608.458
 20
452.513
 30
0.000000
  70
    32
  0
VERTEX
  8
GAIKEI
  5
11F9D
 10
608.398
 20
452.557
 30
0.000000
  70
    32
  0
VERTEX
  8
GAIKEI
  5
11F9E
 10
608.338
 20
452.599
 30
0.000000
  70
    32
  0
VERTEX
  8
GAIKEI
  5
11F9F
 10
608.277
 20
452.641
 30
0.000000
  70
    32
  0
VERTEX
  8
GAIKEI
  5
11FA0
 10
608.216
 20
452.683
 30
0.000000
  70
    32
  0
VERTEX
  8
GAIKEI
  5
11FA1
 10
608.154
 20
452.724
 30
0.000000
  70
    32
  0
VERTEX
  8
GAIKEI
  5
11FA2
 10
608.092
 20
452.764
 30
0.000000
  70
    32
  0
VERTEX
  8
GAIKEI
  5
11FA3
 10
608.029
 20
452.804
 30
0.000000
  70
    32
  0
VERTEX
  8
GAIKEI
  5
11FA4
 10
607.966
 20
452.843
 30
0.000000
  70
    32
  0
VERTEX
  8
GAIKEI
  5
11FA5
 10
607.902
 20
452.881
 30
0.000000
  70
    32
  0
VERTEX
  8
GAIKEI
  5
11FA6
 10
607.838
 20
452.918
 30
0.000000
  70
    32
  0
VERTEX
  8
GAIKEI
  5
11FA7
 10
607.773
 20
452.955
 30
0.000000
  70
    32
  0
VERTEX
  8
GAIKEI
  5
11FA8
 10
607.708
 20
452.992
 30
0.000000
  70
    32
  0
VERTEX
  8
GAIKEI
  5
11FA9
 10
607.643
 20
453.027
 30
0.000000
  70
    32
  0
VERTEX
  8
GAIKEI
  5
11FAA
 10
607.577
 20
453.062
 30
0.000000
  70
    32
  0
VERTEX
  8
GAIKEI
  5
11FAB
 10
607.511
 20
453.097
 30
0.000000
  70
    32
  0
VERTEX
  8
GAIKEI
  5
11FAC
 10
607.445
 20
453.130
 30
0.000000
  70
    32
  0
VERTEX
  8
GAIKEI
  5
11FAD
 10
607.378
 20
453.163
 30
0.000000
  70
    32
  0
VERTEX
  8
GAIKEI
  5
11FAE
 10
607.311
 20
453.196
 30
0.000000
  70
    32
  0
VERTEX
  8
GAIKEI
  5
11FAF
 10
607.243
 20
453.227
 30
0.000000
  70
    32
  0
VERTEX
  8
GAIKEI
  5
11FB0
 10
607.175
 20
453.258
 30
0.000000
  70
    32
  0
VERTEX
  8
GAIKEI
  5
11FB1
 10
607.107
 20
453.288
 30
0.000000
  70
    32
  0
VERTEX
  8
GAIKEI
  5
11FB2
 10
607.038
 20
453.318
 30
0.000000
  70
    32
  0
VERTEX
  8
GAIKEI
  5
11FB3
 10
606.969
 20
453.347
 30
0.000000
  70
    32
  0
VERTEX
  8
GAIKEI
  5
11FB4
 10
606.900
 20
453.375
 30
0.000000
  70
    32
  0
VERTEX
  8
GAIKEI
  5
11FB5
 10
606.830
 20
453.402
 30
0.000000
  70
    32
  0
VERTEX
  8
GAIKEI
  5
11FB6
 10
606.760
 20
453.429
 30
0.000000
  70
    32
  0
VERTEX
  8
GAIKEI
  5
11FB7
 10
606.690
 20
453.455
 30
0.000000
  70
    32
  0
VERTEX
  8
GAIKEI
  5
11FB8
 10
606.619
 20
453.480
 30
0.000000
  70
    32
  0
VERTEX
  8
GAIKEI
  5
11FB9
 10
606.549
 20
453.504
 30
0.000000
  70
    32
  0
VERTEX
  8
GAIKEI
  5
11FBA
 10
606.478
 20
453.528
 30
0.000000
  70
    32
  0
VERTEX
  8
GAIKEI
  5
11FBB
 10
606.406
 20
453.551
 30
0.000000
  70
    32
  0
VERTEX
  8
GAIKEI
  5
11FBC
 10
606.335
 20
453.574
 30
0.000000
  70
    32
  0
VERTEX
  8
GAIKEI
  5
11FBD
 10
606.263
 20
453.595
 30
0.000000
  70
    32
  0
VERTEX
  8
GAIKEI
  5
11FBE
 10
606.191
 20
453.616
 30
0.000000
  70
    32
  0
VERTEX
  8
GAIKEI
  5
11FBF
 10
606.118
 20
453.636
 30
0.000000
  70
    32
  0
VERTEX
  8
GAIKEI
  5
11FC0
 10
606.046
 20
453.655
 30
0.000000
  70
    32
  0
VERTEX
  8
GAIKEI
  5
11FC1
 10
605.973
 20
453.674
 30
0.000000
  70
    32
  0
VERTEX
  8
GAIKEI
  5
11FC2
 10
605.900
 20
453.692
 30
0.000000
  70
    32
  0
VERTEX
  8
GAIKEI
  5
11FC3
 10
605.827
 20
453.709
 30
0.000000
  70
    32
  0
VERTEX
  8
GAIKEI
  5
11FC4
 10
605.753
 20
453.726
 30
0.000000
  70
    32
  0
VERTEX
  8
GAIKEI
  5
11FC5
 10
605.680
 20
453.741
 30
0.000000
  70
    32
  0
VERTEX
  8
GAIKEI
  5
11FC6
 10
605.606
 20
453.756
 30
0.000000
  70
    32
  0
VERTEX
  8
GAIKEI
  5
11FC7
 10
605.532
 20
453.770
 30
0.000000
  70
    32
  0
VERTEX
  8
GAIKEI
  5
11FC8
 10
605.458
 20
453.784
 30
0.000000
  70
    32
  0
VERTEX
  8
GAIKEI
  5
11FC9
 10
605.384
 20
453.796
 30
0.000000
  70
    32
  0
VERTEX
  8
GAIKEI
  5
11FCA
 10
605.310
 20
453.808
 30
0.000000
  70
    32
  0
VERTEX
  8
GAIKEI
  5
11FCB
 10
605.235
 20
453.819
 30
0.000000
  70
    32
  0
VERTEX
  8
GAIKEI
  5
11FCC
 10
605.161
 20
453.830
 30
0.000000
  70
    32
  0
VERTEX
  8
GAIKEI
  5
11FCD
 10
605.086
 20
453.839
 30
0.000000
  70
    32
  0
VERTEX
  8
GAIKEI
  5
11FCE
 10
605.011
 20
453.848
 30
0.000000
  70
    32
  0
VERTEX
  8
GAIKEI
  5
11FCF
 10
604.936
 20
453.856
 30
0.000000
  70
    32
  0
VERTEX
  8
GAIKEI
  5
11FD0
 10
604.861
 20
453.863
 30
0.000000
  70
    32
  0
VERTEX
  8
GAIKEI
  5
11FD1
 10
604.786
 20
453.870
 30
0.000000
  70
    32
  0
VERTEX
  8
GAIKEI
  5
11FD2
 10
604.711
 20
453.876
 30
0.000000
  70
    32
  0
VERTEX
  8
GAIKEI
  5
11FD3
 10
604.636
 20
453.881
 30
0.000000
  70
    32
  0
VERTEX
  8
GAIKEI
  5
11FD4
 10
604.561
 20
453.885
 30
0.000000
  70
    32
  0
VERTEX
  8
GAIKEI
  5
11FD5
 10
604.485
 20
453.888
 30
0.000000
  70
    32
  0
VERTEX
  8
GAIKEI
  5
11FD6
 10
604.410
 20
453.891
 30
0.000000
  70
    32
  0
VERTEX
  8
GAIKEI
  5
11FD7
 10
604.335
 20
453.893
 30
0.000000
  70
    32
  0
VERTEX
  8
GAIKEI
  5
11FD8
 10
604.259
 20
453.894
 30
0.000000
  70
    32
  0
VERTEX
  8
GAIKEI
  5
11FD9
 10
604.184
 20
453.895
 30
0.000000
  70
    32
  0
SEQEND
  8
GAIKEI
  5
11FDA
  0
POLYLINE
  5
F447
  8
GAIKEI
  6
DASHED2
 10
566.31324168809249
 20
448.52627030554197
 30
0.0
 66
     1
 70
     8
  0
VERTEX
  8
GAIKEI
  5
11FDB
 10
566.313
 20
448.526
 30
0.000000
  70
    32
  0
VERTEX
  8
GAIKEI
  5
11FDC
 10
566.328
 20
448.596
 30
0.000000
  70
    32
  0
VERTEX
  8
GAIKEI
  5
11FDD
 10
566.344
 20
448.666
 30
0.000000
  70
    32
  0
VERTEX
  8
GAIKEI
  5
11FDE
 10
566.360
 20
448.736
 30
0.000000
  70
    32
  0
VERTEX
  8
GAIKEI
  5
11FDF
 10
566.377
 20
448.806
 30
0.000000
  70
    32
  0
VERTEX
  8
GAIKEI
  5
11FE0
 10
566.395
 20
448.875
 30
0.000000
  70
    32
  0
VERTEX
  8
GAIKEI
  5
11FE1
 10
566.414
 20
448.944
 30
0.000000
  70
    32
  0
VERTEX
  8
GAIKEI
  5
11FE2
 10
566.434
 20
449.013
 30
0.000000
  70
    32
  0
VERTEX
  8
GAIKEI
  5
11FE3
 10
566.454
 20
449.082
 30
0.000000
  70
    32
  0
VERTEX
  8
GAIKEI
  5
11FE4
 10
566.475
 20
449.151
 30
0.000000
  70
    32
  0
VERTEX
  8
GAIKEI
  5
11FE5
 10
566.497
 20
449.219
 30
0.000000
  70
    32
  0
VERTEX
  8
GAIKEI
  5
11FE6
 10
566.520
 20
449.287
 30
0.000000
  70
    32
  0
VERTEX
  8
GAIKEI
  5
11FE7
 10
566.543
 20
449.355
 30
0.000000
  70
    32
  0
VERTEX
  8
GAIKEI
  5
11FE8
 10
566.567
 20
449.423
 30
0.000000
  70
    32
  0
VERTEX
  8
GAIKEI
  5
11FE9
 10
566.592
 20
449.490
 30
0.000000
  70
    32
  0
VERTEX
  8
GAIKEI
  5
11FEA
 10
566.618
 20
449.558
 30
0.000000
  70
    32
  0
VERTEX
  8
GAIKEI
  5
11FEB
 10
566.645
 20
449.624
 30
0.000000
  70
    32
  0
VERTEX
  8
GAIKEI
  5
11FEC
 10
566.672
 20
449.691
 30
0.000000
  70
    32
  0
VERTEX
  8
GAIKEI
  5
11FED
 10
566.700
 20
449.757
 30
0.000000
  70
    32
  0
VERTEX
  8
GAIKEI
  5
11FEE
 10
566.729
 20
449.824
 30
0.000000
  70
    32
  0
VERTEX
  8
GAIKEI
  5
11FEF
 10
566.758
 20
449.889
 30
0.000000
  70
    32
  0
VERTEX
  8
GAIKEI
  5
11FF0
 10
566.788
 20
449.955
 30
0.000000
  70
    32
  0
VERTEX
  8
GAIKEI
  5
11FF1
 10
566.819
 20
450.020
 30
0.000000
  70
    32
  0
VERTEX
  8
GAIKEI
  5
11FF2
 10
566.851
 20
450.085
 30
0.000000
  70
    32
  0
VERTEX
  8
GAIKEI
  5
11FF3
 10
566.884
 20
450.149
 30
0.000000
  70
    32
  0
VERTEX
  8
GAIKEI
  5
11FF4
 10
566.917
 20
450.213
 30
0.000000
  70
    32
  0
VERTEX
  8
GAIKEI
  5
11FF5
 10
566.951
 20
450.277
 30
0.000000
  70
    32
  0
VERTEX
  8
GAIKEI
  5
11FF6
 10
566.985
 20
450.341
 30
0.000000
  70
    32
  0
VERTEX
  8
GAIKEI
  5
11FF7
 10
567.021
 20
450.404
 30
0.000000
  70
    32
  0
VERTEX
  8
GAIKEI
  5
11FF8
 10
567.057
 20
450.467
 30
0.000000
  70
    32
  0
VERTEX
  8
GAIKEI
  5
11FF9
 10
567.094
 20
450.529
 30
0.000000
  70
    32
  0
VERTEX
  8
GAIKEI
  5
11FFA
 10
567.131
 20
450.591
 30
0.000000
  70
    32
  0
VERTEX
  8
GAIKEI
  5
11FFB
 10
567.169
 20
450.653
 30
0.000000
  70
    32
  0
VERTEX
  8
GAIKEI
  5
11FFC
 10
567.208
 20
450.714
 30
0.000000
  70
    32
  0
VERTEX
  8
GAIKEI
  5
11FFD
 10
567.248
 20
450.775
 30
0.000000
  70
    32
  0
VERTEX
  8
GAIKEI
  5
11FFE
 10
567.288
 20
450.835
 30
0.000000
  70
    32
  0
VERTEX
  8
GAIKEI
  5
11FFF
 10
567.329
 20
450.895
 30
0.000000
  70
    32
  0
VERTEX
  8
GAIKEI
  5
12000
 10
567.371
 20
450.955
 30
0.000000
  70
    32
  0
VERTEX
  8
GAIKEI
  5
12001
 10
567.413
 20
451.014
 30
0.000000
  70
    32
  0
VERTEX
  8
GAIKEI
  5
12002
 10
567.456
 20
451.072
 30
0.000000
  70
    32
  0
VERTEX
  8
GAIKEI
  5
12003
 10
567.500
 20
451.131
 30
0.000000
  70
    32
  0
VERTEX
  8
GAIKEI
  5
12004
 10
567.544
 20
451.189
 30
0.000000
  70
    32
  0
VERTEX
  8
GAIKEI
  5
12005
 10
567.589
 20
451.246
 30
0.000000
  70
    32
  0
VERTEX
  8
GAIKEI
  5
12006
 10
567.635
 20
451.303
 30
0.000000
  70
    32
  0
VERTEX
  8
GAIKEI
  5
12007
 10
567.681
 20
451.359
 30
0.000000
  70
    32
  0
VERTEX
  8
GAIKEI
  5
12008
 10
567.728
 20
451.415
 30
0.000000
  70
    32
  0
VERTEX
  8
GAIKEI
  5
12009
 10
567.775
 20
451.471
 30
0.000000
  70
    32
  0
VERTEX
  8
GAIKEI
  5
1200A
 10
567.824
 20
451.526
 30
0.000000
  70
    32
  0
VERTEX
  8
GAIKEI
  5
1200B
 10
567.872
 20
451.580
 30
0.000000
  70
    32
  0
VERTEX
  8
GAIKEI
  5
1200C
 10
567.922
 20
451.634
 30
0.000000
  70
    32
  0
VERTEX
  8
GAIKEI
  5
1200D
 10
567.972
 20
451.688
 30
0.000000
  70
    32
  0
VERTEX
  8
GAIKEI
  5
1200E
 10
568.022
 20
451.741
 30
0.000000
  70
    32
  0
VERTEX
  8
GAIKEI
  5
1200F
 10
568.074
 20
451.793
 30
0.000000
  70
    32
  0
VERTEX
  8
GAIKEI
  5
12010
 10
568.125
 20
451.845
 30
0.000000
  70
    32
  0
VERTEX
  8
GAIKEI
  5
12011
 10
568.178
 20
451.896
 30
0.000000
  70
    32
  0
VERTEX
  8
GAIKEI
  5
12012
 10
568.231
 20
451.947
 30
0.000000
  70
    32
  0
VERTEX
  8
GAIKEI
  5
12013
 10
568.284
 20
451.997
 30
0.000000
  70
    32
  0
VERTEX
  8
GAIKEI
  5
12014
 10
568.339
 20
452.047
 30
0.000000
  70
    32
  0
VERTEX
  8
GAIKEI
  5
12015
 10
568.393
 20
452.096
 30
0.000000
  70
    32
  0
VERTEX
  8
GAIKEI
  5
12016
 10
568.448
 20
452.145
 30
0.000000
  70
    32
  0
VERTEX
  8
GAIKEI
  5
12017
 10
568.504
 20
452.193
 30
0.000000
  70
    32
  0
VERTEX
  8
GAIKEI
  5
12018
 10
568.561
 20
452.241
 30
0.000000
  70
    32
  0
VERTEX
  8
GAIKEI
  5
12019
 10
568.617
 20
452.288
 30
0.000000
  70
    32
  0
VERTEX
  8
GAIKEI
  5
1201A
 10
568.675
 20
452.334
 30
0.000000
  70
    32
  0
VERTEX
  8
GAIKEI
  5
1201B
 10
568.733
 20
452.380
 30
0.000000
  70
    32
  0
VERTEX
  8
GAIKEI
  5
1201C
 10
568.791
 20
452.425
 30
0.000000
  70
    32
  0
VERTEX
  8
GAIKEI
  5
1201D
 10
568.850
 20
452.469
 30
0.000000
  70
    32
  0
VERTEX
  8
GAIKEI
  5
1201E
 10
568.910
 20
452.513
 30
0.000000
  70
    32
  0
VERTEX
  8
GAIKEI
  5
1201F
 10
568.969
 20
452.557
 30
0.000000
  70
    32
  0
VERTEX
  8
GAIKEI
  5
12020
 10
569.030
 20
452.599
 30
0.000000
  70
    32
  0
VERTEX
  8
GAIKEI
  5
12021
 10
569.091
 20
452.641
 30
0.000000
  70
    32
  0
VERTEX
  8
GAIKEI
  5
12022
 10
569.152
 20
452.683
 30
0.000000
  70
    32
  0
VERTEX
  8
GAIKEI
  5
12023
 10
569.214
 20
452.724
 30
0.000000
  70
    32
  0
VERTEX
  8
GAIKEI
  5
12024
 10
569.276
 20
452.764
 30
0.000000
  70
    32
  0
VERTEX
  8
GAIKEI
  5
12025
 10
569.339
 20
452.804
 30
0.000000
  70
    32
  0
VERTEX
  8
GAIKEI
  5
12026
 10
569.402
 20
452.843
 30
0.000000
  70
    32
  0
VERTEX
  8
GAIKEI
  5
12027
 10
569.466
 20
452.881
 30
0.000000
  70
    32
  0
VERTEX
  8
GAIKEI
  5
12028
 10
569.530
 20
452.918
 30
0.000000
  70
    32
  0
VERTEX
  8
GAIKEI
  5
12029
 10
569.595
 20
452.955
 30
0.000000
  70
    32
  0
VERTEX
  8
GAIKEI
  5
1202A
 10
569.660
 20
452.992
 30
0.000000
  70
    32
  0
VERTEX
  8
GAIKEI
  5
1202B
 10
569.725
 20
453.027
 30
0.000000
  70
    32
  0
VERTEX
  8
GAIKEI
  5
1202C
 10
569.791
 20
453.062
 30
0.000000
  70
    32
  0
VERTEX
  8
GAIKEI
  5
1202D
 10
569.857
 20
453.097
 30
0.000000
  70
    32
  0
VERTEX
  8
GAIKEI
  5
1202E
 10
569.923
 20
453.130
 30
0.000000
  70
    32
  0
VERTEX
  8
GAIKEI
  5
1202F
 10
569.990
 20
453.163
 30
0.000000
  70
    32
  0
VERTEX
  8
GAIKEI
  5
12030
 10
570.057
 20
453.196
 30
0.000000
  70
    32
  0
VERTEX
  8
GAIKEI
  5
12031
 10
570.125
 20
453.227
 30
0.000000
  70
    32
  0
VERTEX
  8
GAIKEI
  5
12032
 10
570.193
 20
453.258
 30
0.000000
  70
    32
  0
VERTEX
  8
GAIKEI
  5
12033
 10
570.261
 20
453.288
 30
0.000000
  70
    32
  0
VERTEX
  8
GAIKEI
  5
12034
 10
570.330
 20
453.318
 30
0.000000
  70
    32
  0
VERTEX
  8
GAIKEI
  5
12035
 10
570.399
 20
453.347
 30
0.000000
  70
    32
  0
VERTEX
  8
GAIKEI
  5
12036
 10
570.468
 20
453.375
 30
0.000000
  70
    32
  0
VERTEX
  8
GAIKEI
  5
12037
 10
570.538
 20
453.402
 30
0.000000
  70
    32
  0
VERTEX
  8
GAIKEI
  5
12038
 10
570.608
 20
453.429
 30
0.000000
  70
    32
  0
VERTEX
  8
GAIKEI
  5
12039
 10
570.678
 20
453.455
 30
0.000000
  70
    32
  0
VERTEX
  8
GAIKEI
  5
1203A
 10
570.749
 20
453.480
 30
0.000000
  70
    32
  0
VERTEX
  8
GAIKEI
  5
1203B
 10
570.819
 20
453.504
 30
0.000000
  70
    32
  0
VERTEX
  8
GAIKEI
  5
1203C
 10
570.890
 20
453.528
 30
0.000000
  70
    32
  0
VERTEX
  8
GAIKEI
  5
1203D
 10
570.962
 20
453.551
 30
0.000000
  70
    32
  0
VERTEX
  8
GAIKEI
  5
1203E
 10
571.033
 20
453.574
 30
0.000000
  70
    32
  0
VERTEX
  8
GAIKEI
  5
1203F
 10
571.105
 20
453.595
 30
0.000000
  70
    32
  0
VERTEX
  8
GAIKEI
  5
12040
 10
571.177
 20
453.616
 30
0.000000
  70
    32
  0
VERTEX
  8
GAIKEI
  5
12041
 10
571.250
 20
453.636
 30
0.000000
  70
    32
  0
VERTEX
  8
GAIKEI
  5
12042
 10
571.322
 20
453.655
 30
0.000000
  70
    32
  0
VERTEX
  8
GAIKEI
  5
12043
 10
571.395
 20
453.674
 30
0.000000
  70
    32
  0
VERTEX
  8
GAIKEI
  5
12044
 10
571.468
 20
453.692
 30
0.000000
  70
    32
  0
VERTEX
  8
GAIKEI
  5
12045
 10
571.541
 20
453.709
 30
0.000000
  70
    32
  0
VERTEX
  8
GAIKEI
  5
12046
 10
571.615
 20
453.726
 30
0.000000
  70
    32
  0
VERTEX
  8
GAIKEI
  5
12047
 10
571.688
 20
453.741
 30
0.000000
  70
    32
  0
VERTEX
  8
GAIKEI
  5
12048
 10
571.762
 20
453.756
 30
0.000000
  70
    32
  0
VERTEX
  8
GAIKEI
  5
12049
 10
571.836
 20
453.770
 30
0.000000
  70
    32
  0
VERTEX
  8
GAIKEI
  5
1204A
 10
571.910
 20
453.784
 30
0.000000
  70
    32
  0
VERTEX
  8
GAIKEI
  5
1204B
 10
571.984
 20
453.796
 30
0.000000
  70
    32
  0
VERTEX
  8
GAIKEI
  5
1204C
 10
572.058
 20
453.808
 30
0.000000
  70
    32
  0
VERTEX
  8
GAIKEI
  5
1204D
 10
572.133
 20
453.819
 30
0.000000
  70
    32
  0
VERTEX
  8
GAIKEI
  5
1204E
 10
572.207
 20
453.830
 30
0.000000
  70
    32
  0
VERTEX
  8
GAIKEI
  5
1204F
 10
572.282
 20
453.839
 30
0.000000
  70
    32
  0
VERTEX
  8
GAIKEI
  5
12050
 10
572.357
 20
453.848
 30
0.000000
  70
    32
  0
VERTEX
  8
GAIKEI
  5
12051
 10
572.432
 20
453.856
 30
0.000000
  70
    32
  0
VERTEX
  8
GAIKEI
  5
12052
 10
572.507
 20
453.863
 30
0.000000
  70
    32
  0
VERTEX
  8
GAIKEI
  5
12053
 10
572.582
 20
453.870
 30
0.000000
  70
    32
  0
VERTEX
  8
GAIKEI
  5
12054
 10
572.657
 20
453.876
 30
0.000000
  70
    32
  0
VERTEX
  8
GAIKEI
  5
12055
 10
572.732
 20
453.881
 30
0.000000
  70
    32
  0
VERTEX
  8
GAIKEI
  5
12056
 10
572.807
 20
453.885
 30
0.000000
  70
    32
  0
VERTEX
  8
GAIKEI
  5
12057
 10
572.883
 20
453.888
 30
0.000000
  70
    32
  0
VERTEX
  8
GAIKEI
  5
12058
 10
572.958
 20
453.891
 30
0.000000
  70
    32
  0
VERTEX
  8
GAIKEI
  5
12059
 10
573.033
 20
453.893
 30
0.000000
  70
    32
  0
VERTEX
  8
GAIKEI
  5
1205A
 10
573.109
 20
453.894
 30
0.000000
  70
    32
  0
VERTEX
  8
GAIKEI
  5
1205B
 10
573.184
 20
453.895
 30
0.000000
  70
    32
  0
SEQEND
  8
GAIKEI
  5
1205C
  0
ARC
  5
F448
  8
GAIKEI
  6
CONTINUOUS
 10
845.6839941574799
 20
485.08489897551982
 30
0.0
 40
8.0
 50
357.82824999874038
 51
90.0
  0
LINE
  5
F449
  8
0
 10
848.68399415747956
 20
353.0848989755201
 30
0.0
 11
848.79344999566445
 21
355.97121363840188
 31
0.0
  0
LINE
  5
F44A
  8
GAIKEI
  6
CONTINUOUS
 10
848.79344999566445
 20
355.97121363840188
 30
0.0
 11
853.67824793562147
 21
484.78173807653809
 31
0.0
  0
LINE
  5
F44B
  8
GAIKEI
  6
CONTINUOUS
 10
841.34916905024124
 20
370.77697830522243
 30
0.0
 11
845.49931524764168
 21
480.21497650966012
 31
0.0
  0
LINE
  5
F44C
  8
0
 10
773.68399415752344
 20
405.03626307930392
 30
0.0
 11
776.30162747159375
 21
391.43730094034419
 31
0.0
  0
LINE
  5
F44D
  8
GAIKEI
  6
CONTINUOUS
 10
776.30162747159375
 20
391.43730094034419
 30
0.0
 11
783.37178594562647
 21
354.70686322472721
 31
0.0
  0
LINE
  5
F44E
  8
GAIKEI
  6
CONTINUOUS
 10
784.15741664506186
 20
392.94944394351302
 30
0.0
 11
788.90637978754592
 21
368.27793261042831
 31
0.0
  0
LINE
  5
F44F
  8
0
 10
783.37178594562647
 20
354.70686322472721
 30
0.0
 11
783.68399415751537
 21
353.08489897551948
 31
0.0
  0
LINE
  5
F450
  8
GAIKEI
  6
CONTINUOUS
 10
588.68399415747967
 20
493.08489897551982
 30
0.0
 11
330.6839941574799
 21
493.08489897551982
 31
0.0
  0
LINE
  5
F451
  8
GAIKEI
  6
CONTINUOUS
 10
588.68399415747967
 20
353.0848989755201
 30
0.0
 11
331.57238348609923
 21
353.0848989755201
 31
0.0
  0
ARC
  5
F452
  8
GAIKEI
  6
CONTINUOUS
 10
331.57238348609923
 20
356.08489897551999
 30
0.0
 40
3.0
 50
182.1717500012596
 51
270.0
  0
ARC
  5
F453
  8
GAIKEI
  6
CONTINUOUS
 10
331.68399415747979
 20
485.08489897551982
 30
0.0
 40
8.0
 50
90.0
 51
182.1717500012596
  0
LINE
  5
F454
  8
GAIKEI
  6
CONTINUOUS
 10
328.57453831929621
 20
355.97121363840188
 30
0.0
 11
323.68974037933913
 21
484.78173807653809
 31
0.0
  0
LINE
  5
F455
  8
GAIKEI
  6
CONTINUOUS
 10
1170.6839941574799
 20
493.08489897551971
 30
0.0
 11
1686.6839941574799
 21
493.08489897551948
 31
0.0
  0
LINE
  5
F456
  8
0
 10
1598.683994157451
 20
353.08489897551908
 30
0.0
 11
1599.2115864313121
 21
353.08489897551908
 31
0.0
  0
LINE
  5
F457
  8
GAIKEI
  6
CONTINUOUS
 10
1599.2115864313121
 20
353.08489897551908
 30
0.0
 11
1685.7947644573389
 21
353.08489897551982
 31
0.0
  0
ARC
  5
F458
  8
GAIKEI
  6
CONTINUOUS
 10
1606.726171059285
 20
356.08489897551908
 30
0.0
 40
3.0
 50
130.91438322002409
 51
270.0
  0
ARC
  5
F459
  8
GAIKEI
  6
CONTINUOUS
 10
1599.2115864313121
 20
358.08489897551908
 30
0.0
 40
5.0
 50
257.95305458864931
 51
270.0
  0
LINE
  5
F45A
  8
0
 10
1685.7947644573389
 20
353.08489897551982
 30
0.0
 11
1688.6839941574499
 21
353.08489897551982
 31
0.0
  0
LINE
  5
F45B
  8
0
 10
1686.6839941574799
 20
493.08489897551948
 30
0.0
 11
1693.683994157479
 21
493.08489897551948
 31
0.0
  0
LINE
  5
F45C
  8
0
 10
1613.683994157451
 20
366.08489897552022
 30
0.0
 11
1619.2794940512349
 21
366.08489897552022
 31
0.0
  0
LINE
  5
F45D
  8
GAIKEI
  6
CONTINUOUS
 10
1619.2794940512349
 20
366.08489897552022
 30
0.0
 11
1644.6839941574799
 21
366.0848989755201
 31
0.0
  0
LINE
  5
F45E
  8
0
 10
1619.2794940512349
 20
376.0848989755201
 30
0.0
 11
1650.4868755650571
 21
376.0848989755201
 31
0.0
  0
LINE
  5
F45F
  8
0
 10
1644.6839941574799
 20
366.0848989755201
 30
0.0
 11
1659.6839941574799
 21
366.0848989755201
 31
0.0
  0
ARC
  5
F460
  8
GAIKEI
  6
CONTINUOUS
 10
1686.6839941574799
 20
486.08489897551931
 30
0.0
 40
7.0
 50
357.84490579398857
 51
90.0
  0
LINE
  5
F461
  8
0
  6
CENTER
 62
     6
 10
1637.6839941574799
 20
379.08489897551931
 30
0.0
 11
1637.6839941574799
 21
361.08489897551982
 31
0.0
  0
LINE
  5
F462
  8
0
  6
CENTER
 62
     6
 10
1655.1844824685361
 20
370.08489897551948
 30
0.0
 11
1620.1835058464239
 21
370.08489897551948
 31
0.0
  0
LINE
  5
F463
  8
0
  6
CENTER
 62
     6
 10
1603.6839941574799
 20
453.08489897551942
 30
0.0
 11
1603.6839941574799
 21
343.08489897551908
 31
0.0
  0
LINE
  5
F464
  8
0
 10
1693.6839941574799
 20
486.08489897551931
 30
0.0
 11
1693.6839941574799
 21
493.08489897551931
 31
0.0
  0
LINE
  5
F465
  8
0
 10
1688.6839941574499
 20
353.08489897551982
 30
0.0
 11
1688.792642545628
 21
355.9720851121852
 31
0.0
  0
LINE
  5
F466
  8
GAIKEI
  6
CONTINUOUS
 10
1688.792642545628
 20
355.9720851121852
 30
0.0
 11
1693.679043030153
 21
485.82166662773841
 31
0.0
  0
ARC
  5
F467
  8
GAIKEI
  6
CONTINUOUS
 10
1685.7947644573389
 20
356.08489897551982
 30
0.0
 40
3.0
 50
270.0
 51
357.84490579396248
  0
LINE
  5
F468
  8
0
 10
1557.6839941574799
 20
443.08489897551948
 30
0.0
 11
1572.01766384762
 21
443.08489897551948
 31
0.0
  0
LINE
  5
F469
  8
GAIKEI
  6
CONTINUOUS
 10
1572.01766384762
 20
443.08489897551948
 30
0.0
 11
1636.9504448540099
 21
443.08489897551948
 31
0.0
  0
LINE
  5
F46A
  8
0
 10
1636.9504448540099
 20
443.08489897551948
 30
0.0
 11
1649.6839941574799
 21
443.08489897551948
 31
0.0
  0
LINE
  5
F46B
  8
0
 10
1659.6839941574799
 20
381.08489897551931
 30
0.0
 11
1659.6839941574799
 21
366.08489897552022
 31
0.0
  0
ARC
  5
F46C
  8
GAIKEI
  6
CONTINUOUS
 10
1644.6839941574799
 20
381.08489897551931
 30
0.0
 40
15.0
 50
270.0
 51
9.3439266204103983
  0
LINE
  5
F46D
  8
0
 10
1649.6839941574799
 20
443.08489897551948
 30
0.0
 11
1651.751417812078
 21
430.5203043821266
 31
0.0
  0
LINE
  5
F46E
  8
GAIKEI
  6
CONTINUOUS
 10
1651.751417812078
 20
430.5203043821266
 30
0.0
 11
1659.484967115548
 21
383.5203043821266
 31
0.0
  0
ARC
  5
F46F
  8
GAIKEI
  6
CONTINUOUS
 10
1636.9504448540099
 20
428.08489897551942
 30
0.0
 40
15.0
 50
9.3439266204103983
 51
90.0
  0
LINE
  5
F470
  8
0
 10
1533.6839941574799
 20
478.08489897552568
 30
0.0
 11
1515.9748464227671
 21
478.08489897552568
 31
0.0
  0
LINE
  5
F471
  8
GAIKEI
  6
CONTINUOUS
 10
1515.9748464227671
 20
478.08489897552568
 30
0.0
 11
1341.3931418921929
 21
478.08489897552568
 31
0.0
  0
LINE
  5
F472
  8
0
 10
1341.3931418921929
 20
478.08489897552568
 30
0.0
 11
1323.683994157509
 21
478.08489897552568
 31
0.0
  0
ARC
  5
F473
  8
GAIKEI
  6
CONTINUOUS
 10
1515.9748464227671
 20
458.08489897552562
 30
0.0
 40
20.0
 50
6.9529574681694157
 51
90.0
  0
LINE
  5
F474
  8
0
 10
1523.683994157451
 20
376.08489897552568
 30
0.0
 11
1513.3916362515081
 21
376.08489897552568
 31
0.0
  0
LINE
  5
F475
  8
GAIKEI
  6
CONTINUOUS
 10
1513.3916362515081
 20
376.08489897552568
 30
0.0
 11
1344.517959753621
 21
376.08489897552568
 31
0.0
  0
LINE
  5
F476
  8
0
 10
1344.517959753621
 20
376.08489897552568
 30
0.0
 11
1333.683994157509
 21
376.08489897552568
 31
0.0
  0
ARC
  5
F477
  8
GAIKEI
  6
CONTINUOUS
 10
1344.517959753621
 20
356.08489897552568
 30
0.0
 40
20.0
 50
90.0
 51
146.88865803949449
  0
ARC
  5
F478
  8
GAIKEI
  6
CONTINUOUS
 10
1513.3916362515081
 20
356.08489897552568
 30
0.0
 40
20.0
 50
35.537677792086917
 51
90.0
  0
LINE
  5
F479
  8
0
 10
1538.683994157451
 20
355.08489897551863
 30
0.0
 11
1543.8301731103579
 21
355.08489897551863
 31
0.0
  0
LINE
  5
F47A
  8
GAIKEI
  6
CONTINUOUS
 10
1543.8301731103579
 20
355.08489897551863
 30
0.0
 11
1588.7849051360779
 21
355.08489897551908
 31
0.0
  0
ARC
  5
F47B
  8
GAIKEI
  6
CONTINUOUS
 10
1588.7849051360779
 20
350.08489897551908
 30
0.0
 40
5.0
 50
77.95305458870223
 51
90.0
  0
LINE
  5
F47C
  8
0
 10
1538.683994157451
 20
355.08489897551863
 30
0.0
 11
1535.6928383983011
 21
359.27251703831388
 31
0.0
  0
LINE
  5
F47D
  8
GAIKEI
  6
CONTINUOUS
 10
1535.6928383983011
 20
359.27251703831388
 30
0.0
 11
1529.6663056756699
 21
367.70966284996757
 31
0.0
  0
LINE
  5
F47E
  8
0
 10
1529.6663056756699
 20
367.70966284996757
 30
0.0
 11
1523.683994157451
 21
376.08489897544399
 31
0.0
  0
ARC
  5
F47F
  8
GAIKEI
  6
CONTINUOUS
 10
1543.8301731103579
 20
365.08489897551863
 30
0.0
 40
10.0
 50
215.5376777920869
 51
270.0
  0
LINE
  5
F480
  8
0
 10
1548.683994157451
 20
355.08489897551829
 30
0.0
 11
1548.362428685004
 21
357.7217358495858
 31
0.0
  0
LINE
  5
F481
  8
GAIKEI
  6
CONTINUOUS
 10
1548.362428685004
 20
357.7217358495858
 30
0.0
 11
1535.8277639737901
 21
460.5059864817452
 31
0.0
  0
LINE
  5
F482
  8
0
 10
1535.8277639737901
 20
460.5059864817452
 30
0.0
 11
1533.6839941574799
 21
478.08489897552568
 31
0.0
  0
ARC
  5
F483
  8
GAIKEI
  6
CONTINUOUS
 10
1551.3403663176559
 20
358.08489897551863
 30
0.0
 40
3.0
 50
186.95295746816939
 51
270.0
  0
LINE
  5
F484
  8
0
  6
HIDDEN
 10
1633.6839941574799
 20
463.0848989755255
 30
0.0
 11
1573.683994157509
 21
463.0848989755255
 31
0.0
  0
LINE
  5
F485
  8
0
  6
HIDDEN
 10
1633.6839941574799
 20
463.0848989755255
 30
0.0
 11
1639.0448188997491
 21
443.08489897551971
 31
0.0
  0
LINE
  5
F486
  8
0
 10
1639.0448188997491
 20
443.08489897551971
 30
0.0
 11
1655.316393545831
 21
382.37940894974798
 31
0.0
  0
ARC
  5
F487
  8
0
 10
1629.847700307324
 20
458.08489897552562
 30
0.0
 40
5.0
 50
15.00492038285031
 51
90.0
  0
ARC
  5
F488
  8
0
 10
1650.4868755650571
 20
381.08489897551999
 30
0.0
 40
5.0
 50
270.0
 51
15.00492038285031
  0
LINE
  5
F489
  8
0
 10
1318.683994157509
 20
353.08489897551948
 30
0.0
 11
1306.0216274233439
 21
353.08489897551948
 31
0.0
  0
LINE
  5
F48A
  8
GAIKEI
  6
CONTINUOUS
 10
1306.0216274233439
 20
353.08489897551948
 30
0.0
 11
1171.57322385762
 21
353.08489897551982
 31
0.0
  0
ARC
  5
F48B
  8
GAIKEI
  6
CONTINUOUS
 10
1306.0216274233439
 20
356.08489897551931
 30
0.0
 40
3.0
 50
270.0
 51
353.17526251036918
  0
ARC
  5
F48C
  8
GAIKEI
  6
CONTINUOUS
 10
1311.2177798460509
 20
353.08489897551931
 30
0.0
 40
3.0
 50
90.0
 51
150.00000000000381
  0
LINE
  5
F48D
  8
0
 10
1171.57322385762
 20
353.08489897551982
 30
0.0
 11
1168.683994157509
 21
353.08489897551982
 31
0.0
  0
LINE
  5
F48E
  8
0
 10
1170.6839941574799
 20
493.08489897551948
 30
0.0
 11
1163.6839941574819
 21
493.08489897551948
 31
0.0
  0
LINE
  5
F48F
  8
0
 10
1309.6839941574799
 20
366.08489897551931
 30
0.0
 11
1294.6839941574799
 21
366.08489897551948
 31
0.0
  0
LINE
  5
F490
  8
GAIKEI
  6
CONTINUOUS
 10
1294.6839941574799
 20
366.08489897551948
 30
0.0
 11
1212.6839941574799
 21
366.0848989755201
 31
0.0
  0
LINE
  5
F491
  8
0
 10
1300.4868755650509
 20
376.08489897551948
 30
0.0
 11
1206.881112749903
 21
376.0848989755201
 31
0.0
  0
LINE
  5
F492
  8
0
 10
1212.6839941574799
 20
366.0848989755201
 30
0.0
 11
1197.6839941574799
 21
366.0848989755201
 31
0.0
  0
ARC
  5
F493
  8
GAIKEI
  6
CONTINUOUS
 10
1170.6839941574799
 20
486.08489897551931
 30
0.0
 40
7.0
 50
90.0
 51
182.1550942060114
  0
LINE
  5
F494
  8
0
  6
CENTER
 62
     6
 10
1219.6839941574799
 20
379.08489897551931
 30
0.0
 11
1219.6839941574799
 21
361.08489897551982
 31
0.0
  0
LINE
  5
F495
  8
0
  6
CENTER
 62
     6
 10
1202.1835058464239
 20
370.08489897551948
 30
0.0
 11
1237.1844824685361
 21
370.08489897551948
 31
0.0
  0
LINE
  5
F496
  8
0
  6
CENTER
 62
     6
 10
1253.6839941574799
 20
453.08489897551942
 30
0.0
 11
1253.6839941574799
 21
343.08489897551908
 31
0.0
  0
LINE
  5
F497
  8
0
 10
1163.6839941574799
 20
486.08489897551931
 30
0.0
 11
1163.6839941574799
 21
493.08489897551931
 31
0.0
  0
LINE
  5
F498
  8
0
 10
1168.683994157509
 20
353.08489897551982
 30
0.0
 11
1168.5753457693311
 21
355.9720851121852
 31
0.0
  0
LINE
  5
F499
  8
GAIKEI
  6
CONTINUOUS
 10
1168.5753457693311
 20
355.9720851121852
 30
0.0
 11
1163.688945284807
 21
485.82166662773841
 31
0.0
  0
ARC
  5
F49A
  8
GAIKEI
  6
CONTINUOUS
 10
1171.57322385762
 20
356.08489897551982
 30
0.0
 40
3.0
 50
182.15509420603749
 51
270.0
  0
LINE
  5
F49B
  8
0
 10
1299.6839941574799
 20
443.08489897551948
 30
0.0
 11
1286.9504448540099
 21
443.08489897551948
 31
0.0
  0
LINE
  5
F49C
  8
GAIKEI
  6
CONTINUOUS
 10
1286.9504448540099
 20
443.08489897551948
 30
0.0
 11
1220.417543460949
 21
443.08489897551948
 31
0.0
  0
LINE
  5
F49D
  8
0
 10
1220.417543460949
 20
443.08489897551948
 30
0.0
 11
1207.6839941574799
 21
443.08489897551948
 31
0.0
  0
ARC
  5
F49E
  8
GAIKEI
  6
CONTINUOUS
 10
1286.9504448540099
 20
428.08489897551942
 30
0.0
 40
15.0
 50
9.3439266204103983
 51
90.0
  0
LINE
  5
F49F
  8
0
 10
1309.6839941574799
 20
381.08489897551931
 30
0.0
 11
1309.6839941574799
 21
366.08489897551948
 31
0.0
  0
LINE
  5
F4A0
  8
0
 10
1197.6839941574799
 20
381.08489897551931
 30
0.0
 11
1197.6839941574799
 21
366.08489897552022
 31
0.0
  0
ARC
  5
F4A1
  8
GAIKEI
  6
CONTINUOUS
 10
1294.6839941574799
 20
381.08489897551931
 30
0.0
 40
15.0
 50
270.0
 51
9.3439266204103983
  0
LINE
  5
F4A2
  8
0
 10
1299.6839941574799
 20
443.08489897551948
 30
0.0
 11
1301.751417812078
 21
430.5203043821266
 31
0.0
  0
LINE
  5
F4A3
  8
GAIKEI
  6
CONTINUOUS
 10
1301.751417812078
 20
430.5203043821266
 30
0.0
 11
1309.484967115548
 21
383.5203043821266
 31
0.0
  0
ARC
  5
F4A4
  8
GAIKEI
  6
CONTINUOUS
 10
1212.6839941574799
 20
381.08489897551931
 30
0.0
 40
15.0
 50
170.6560733795896
 51
270.0
  0
LINE
  5
F4A5
  8
0
 10
1207.6839941574799
 20
443.08489897551948
 30
0.0
 11
1205.6165705028809
 21
430.5203043821266
 31
0.0
  0
LINE
  5
F4A6
  8
GAIKEI
  6
CONTINUOUS
 10
1205.6165705028809
 20
430.5203043821266
 30
0.0
 11
1197.883021199412
 21
383.5203043821266
 31
0.0
  0
ARC
  5
F4A7
  8
GAIKEI
  6
CONTINUOUS
 10
1220.417543460949
 20
428.08489897551942
 30
0.0
 40
15.0
 50
90.0
 51
170.6560733795896
  0
ARC
  5
F4A8
  8
GAIKEI
  6
CONTINUOUS
 10
1341.3931418921929
 20
458.08489897552562
 30
0.0
 40
20.0
 50
90.0
 51
173.04704253183061
  0
LINE
  5
F4A9
  8
0
 10
1308.683994157509
 20
353.08489897552892
 30
0.0
 11
1309.000370307054
 21
355.7284009632578
 31
0.0
  0
LINE
  5
F4AA
  8
GAIKEI
  6
CONTINUOUS
 10
1309.000370307054
 20
355.7284009632578
 30
0.0
 11
1321.5402243411691
 21
460.50598648174349
 31
0.0
  0
LINE
  5
F4AB
  8
0
 10
1321.5402243411691
 20
460.50598648174349
 30
0.0
 11
1323.6839941574799
 21
478.08489897552568
 31
0.0
  0
LINE
  5
F4AC
  8
0
  6
HIDDEN
 10
1223.6839941574799
 20
463.0848989755255
 30
0.0
 11
1283.683994157451
 21
463.0848989755255
 31
0.0
  0
LINE
  5
F4AD
  8
0
 10
1305.3163935458249
 20
382.37940894974901
 30
0.0
 11
1289.044818899725
 21
443.08489897551948
 31
0.0
  0
LINE
  5
F4AE
  8
0
  6
HIDDEN
 10
1289.044818899725
 20
443.08489897551948
 30
0.0
 11
1283.683994157451
 21
463.0848989755255
 31
0.0
  0
ARC
  5
F4AF
  8
0
  6
HIDDEN
 10
1279.847700307296
 20
458.08489897552562
 30
0.0
 40
5.0
 50
15.004920382873911
 51
90.0
  0
ARC
  5
F4B0
  8
0
 10
1300.4868755650509
 20
381.08489897551959
 30
0.0
 40
5.0
 50
270.0
 51
15.004920382873911
  0
LINE
  5
F4B1
  8
0
  6
HIDDEN
 10
1223.6839941574799
 20
463.0848989755255
 30
0.0
 11
1218.3231694152109
 21
443.08489897551971
 31
0.0
  0
LINE
  5
F4B2
  8
0
 10
1218.3231694152109
 20
443.08489897551971
 30
0.0
 11
1202.051594769127
 21
382.37940894974798
 31
0.0
  0
ARC
  5
F4B3
  8
0
 10
1227.5202880076349
 20
458.08489897552562
 30
0.0
 40
5.0
 50
90.0
 51
164.99507961714971
  0
ARC
  5
F4B4
  8
0
 10
1206.881112749903
 20
381.08489897551999
 30
0.0
 40
5.0
 50
164.99507961714971
 51
270.0
  0
LINE
  5
F4B5
  8
0
 10
1318.683994157502
 20
353.08489897551948
 30
0.0
 11
1323.5996390669879
 21
360.62222117003603
 31
0.0
  0
LINE
  5
F4B6
  8
GAIKEI
  6
CONTINUOUS
 10
1323.5996390669879
 20
360.62222117003603
 30
0.0
 11
1327.765747816866
 21
367.01025458649252
 31
0.0
  0
ARC
  5
F4B7
  8
GAIKEI
  6
CONTINUOUS
 10
1315.2235330986109
 20
366.08489897551931
 30
0.0
 40
10.0
 50
270.0
 51
326.88865803949449
  0
LINE
  5
F4B8
  8
0
 10
1327.765747816866
 20
367.01025458649252
 30
0.0
 11
1333.683994157509
 21
376.08489897544428
 31
0.0
  0
LINE
  5
F4B9
  8
GAIKEI
  6
CONTINUOUS
 10
1315.2235330986109
 20
356.08489897551908
 30
0.0
 11
1311.2177798460509
 21
356.08489897551908
 31
0.0
  0
LINE
  5
F4BA
  8
0
 10
1311.2177798460509
 20
356.08489897551908
 30
0.0
 11
1309.0430362361751
 21
356.08489897551908
 31
0.0
  0
LINE
  5
F4BB
  8
0
 10
1598.683994157451
 20
353.08489897551908
 30
0.0
 11
1604.761379444031
 21
358.35196622388838
 31
0.0
  0
LINE
  5
F4BC
  8
GAIKEI
  6
CONTINUOUS
 10
1604.761379444031
 20
358.35196622388838
 30
0.0
 11
1609.4555359749661
 21
362.42023521736701
 31
0.0
  0
LINE
  5
F4BD
  8
0
 10
1609.4555359749661
 20
362.42023521736701
 30
0.0
 11
1613.683994157451
 21
366.08489897551948
 31
0.0
  0
ARC
  5
F4BE
  8
GAIKEI
  6
CONTINUOUS
 10
1619.2794940512349
 20
351.0848989755201
 30
0.0
 40
15.0
 50
90.0
 51
130.91438322002409
  0
LINE
  5
F4BF
  8
0
 10
1588.3658591788819
 20
357.37547082161268
 30
0.0
 11
1602.906230590788
 21
369.97712604526509
 31
0.0
  0
ARC
  5
F4C0
  8
0
 10
1619.2794940512349
 20
351.0848989755201
 30
0.0
 40
25.0
 50
90.0
 51
130.91438322002409
  0
LINE
  5
F4C1
  8
0
 10
1598.6839941574519
 20
353.08489897551891
 30
0.0
 11
1598.1680210906741
 21
353.19501437771743
 31
0.0
  0
LINE
  5
F4C2
  8
GAIKEI
  6
CONTINUOUS
 10
1598.1680210906741
 20
353.19501437771743
 30
0.0
 11
1589.8284704767159
 21
354.97478357332079
 31
0.0
  0
LINE
  5
F4C3
  8
0
  6
HIDDEN
 10
1573.9738715631979
 20
460.9977816545595
 30
0.0
 11
1576.4617719352859
 21
443.08489897551948
 31
0.0
  0
LINE
  5
F4C4
  8
0
 10
1576.4617719352859
 20
443.08489897551948
 30
0.0
 11
1588.683994157509
 21
355.08489897550021
 31
0.0
  0
LINE
  5
F4C5
  8
0
 10
1557.6839941574799
 20
443.08489897551948
 30
0.0
 11
1557.033135744465
 21
428.76601388930379
 31
0.0
  0
LINE
  5
F4C6
  8
GAIKEI
  6
CONTINUOUS
 10
1557.033135744465
 20
428.76601388930379
 30
0.0
 11
1553.683994157451
 21
355.08489897551863
 31
0.0
  0
ARC
  5
F4C7
  8
GAIKEI
  6
CONTINUOUS
 10
1572.01766384762
 20
428.08489897551942
 30
0.0
 40
15.0
 50
90.0
 51
177.3974377974827
  0
LINE
  5
F4C8
  8
0
 10
1558.6891567814389
 20
355.08489897551891
 30
0.0
 11
1570.901397649342
 21
443.04330630299211
 31
0.0
  0
LINE
  5
F4C9
  8
0
  6
HIDDEN
 10
1570.901397649342
 20
443.04330630299211
 30
0.0
 11
1573.683994157509
 21
463.0848989755255
 31
0.0
  0
ARC
  5
F4CA
  8
0
  6
HIDDEN
 10
1578.0377508057679
 20
458.08489897552562
 30
0.0
 40
5.0
 50
90.0
 51
172.09552433857331
  0
LINE
  5
F4CB
  8
0
 10
1314.0787175908929
 20
356.08489897551908
 30
0.0
 11
1322.6611034804221
 21
465.09280429309399
 31
0.0
  0
LINE
  5
F4CC
  8
0
 10
1543.646745953336
 20
355.0865813931419
 30
0.0
 11
1534.744568752232
 21
464.99123835863992
 31
0.0
  0
LINE
  5
F4CD
  8
0
  6
CENTER
 62
     6
 10
1428.6839941574799
 20
343.08489897551891
 30
0.0
 11
1428.6839941574799
 21
503.08489897551971
 31
0.0
  0
LINE
  5
F4CE
  8
0
 10
1395.1839941574799
 20
353.08489897551863
 30
0.0
 11
1402.7999435522181
 21
353.08489897551863
 31
0.0
  0
LINE
  5
F4CF
  8
GAIKEI
  6
CONTINUOUS
 10
1402.7999435522181
 20
353.08489897551863
 30
0.0
 11
1454.5680447627419
 21
353.08489897551908
 31
0.0
  0
ARC
  5
F4D0
  8
GAIKEI
  6
CONTINUOUS
 10
1402.7999435522181
 20
363.08489897551863
 30
0.0
 40
10.0
 50
195.4145699823024
 51
270.0
  0
LINE
  5
F4D1
  8
0
 10
1395.1839941574799
 20
353.08489897551863
 30
0.0
 11
1393.1596651152961
 21
360.42688624819772
 31
0.0
  0
LINE
  5
F4D2
  8
GAIKEI
  6
CONTINUOUS
 10
1393.1596651152961
 20
360.42688624819772
 30
0.0
 11
1388.842445712753
 21
376.08489897552528
 31
0.0
  0
LINE
  5
F4D3
  8
0
 10
1462.1839941574799
 20
353.08489897551863
 30
0.0
 11
1454.5680447627419
 21
353.08489897551863
 31
0.0
  0
ARC
  5
F4D4
  8
GAIKEI
  6
CONTINUOUS
 10
1454.5680447627419
 20
363.08489897551863
 30
0.0
 40
10.0
 50
270.0
 51
344.5854300176976
  0
LINE
  5
F4D5
  8
0
 10
1462.1839941574799
 20
353.08489897551863
 30
0.0
 11
1464.2083231996639
 21
360.42688624819772
 31
0.0
  0
LINE
  5
F4D6
  8
GAIKEI
  6
CONTINUOUS
 10
1464.2083231996639
 20
360.42688624819772
 30
0.0
 11
1468.525542602207
 21
376.08489897552528
 31
0.0
  0
LINE
  5
F4D7
  8
GAIKEI
  6
CONTINUOUS
 10
1406.4326262196851
 20
369.5144076753873
 30
0.0
 11
1450.9353620952741
 21
369.51440767538747
 31
0.0
  0
ARC
  5
F4D8
  8
GAIKEI
  6
CONTINUOUS
 10
1406.4326262196851
 20
379.5144076753873
 30
0.0
 40
10.0
 50
200.05675934087569
 51
270.0
  0
ARC
  5
F4D9
  8
GAIKEI
  6
CONTINUOUS
 10
1450.9353620952741
 20
379.5144076753873
 30
0.0
 40
10.0
 50
270.0
 51
339.94324065912429
  0
LINE
  5
F4DA
  8
GAIKEI
  6
CONTINUOUS
 10
1629.183505846421
 20
373.20036050873949
 30
0.0
 11
1646.184482468537
 21
373.20036050873949
 31
0.0
  0
LINE
  5
F4DB
  8
GAIKEI
  6
CONTINUOUS
 10
1629.183505846421
 20
366.94547185756909
 30
0.0
 11
1646.184482468537
 21
366.94547185756909
 31
0.0
  0
POLYLINE
  5
F4DC
  8
GAIKEI
  6
CONTINUOUS
 10
1646.1844824685361
 20
366.94547185756903
 30
0.0
 66
     1
 70
     8
  0
VERTEX
  8
GAIKEI
  5
1205D
 10
1646.18
 20
366.945
 30
0.000000
  70
    32
  0
VERTEX
  8
GAIKEI
  5
1205E
 10
1646.23
 20
366.946
 30
0.000000
  70
    32
  0
VERTEX
  8
GAIKEI
  5
1205F
 10
1646.28
 20
366.946
 30
0.000000
  70
    32
  0
VERTEX
  8
GAIKEI
  5
12060
 10
1646.33
 20
366.948
 30
0.000000
  70
    32
  0
VERTEX
  8
GAIKEI
  5
12061
 10
1646.38
 20
366.949
 30
0.000000
  70
    32
  0
VERTEX
  8
GAIKEI
  5
12062
 10
1646.43
 20
366.951
 30
0.000000
  70
    32
  0
VERTEX
  8
GAIKEI
  5
12063
 10
1646.48
 20
366.954
 30
0.000000
  70
    32
  0
VERTEX
  8
GAIKEI
  5
12064
 10
1646.53
 20
366.957
 30
0.000000
  70
    32
  0
VERTEX
  8
GAIKEI
  5
12065
 10
1646.58
 20
366.961
 30
0.000000
  70
    32
  0
VERTEX
  8
GAIKEI
  5
12066
 10
1646.63
 20
366.965
 30
0.000000
  70
    32
  0
VERTEX
  8
GAIKEI
  5
12067
 10
1646.67
 20
366.969
 30
0.000000
  70
    32
  0
VERTEX
  8
GAIKEI
  5
12068
 10
1646.72
 20
366.974
 30
0.000000
  70
    32
  0
VERTEX
  8
GAIKEI
  5
12069
 10
1646.77
 20
366.979
 30
0.000000
  70
    32
  0
VERTEX
  8
GAIKEI
  5
1206A
 10
1646.82
 20
366.985
 30
0.000000
  70
    32
  0
VERTEX
  8
GAIKEI
  5
1206B
 10
1646.87
 20
366.992
 30
0.000000
  70
    32
  0
VERTEX
  8
GAIKEI
  5
1206C
 10
1646.92
 20
366.999
 30
0.000000
  70
    32
  0
VERTEX
  8
GAIKEI
  5
1206D
 10
1646.96
 20
367.006
 30
0.000000
  70
    32
  0
VERTEX
  8
GAIKEI
  5
1206E
 10
1647.01
 20
367.014
 30
0.000000
  70
    32
  0
VERTEX
  8
GAIKEI
  5
1206F
 10
1647.06
 20
367.022
 30
0.000000
  70
    32
  0
VERTEX
  8
GAIKEI
  5
12070
 10
1647.11
 20
367.030
 30
0.000000
  70
    32
  0
VERTEX
  8
GAIKEI
  5
12071
 10
1647.16
 20
367.040
 30
0.000000
  70
    32
  0
VERTEX
  8
GAIKEI
  5
12072
 10
1647.20
 20
367.049
 30
0.000000
  70
    32
  0
VERTEX
  8
GAIKEI
  5
12073
 10
1647.25
 20
367.059
 30
0.000000
  70
    32
  0
VERTEX
  8
GAIKEI
  5
12074
 10
1647.30
 20
367.070
 30
0.000000
  70
    32
  0
VERTEX
  8
GAIKEI
  5
12075
 10
1647.35
 20
367.081
 30
0.000000
  70
    32
  0
VERTEX
  8
GAIKEI
  5
12076
 10
1647.39
 20
367.092
 30
0.000000
  70
    32
  0
VERTEX
  8
GAIKEI
  5
12077
 10
1647.44
 20
367.104
 30
0.000000
  70
    32
  0
VERTEX
  8
GAIKEI
  5
12078
 10
1647.49
 20
367.116
 30
0.000000
  70
    32
  0
VERTEX
  8
GAIKEI
  5
12079
 10
1647.53
 20
367.129
 30
0.000000
  70
    32
  0
VERTEX
  8
GAIKEI
  5
1207A
 10
1647.58
 20
367.142
 30
0.000000
  70
    32
  0
VERTEX
  8
GAIKEI
  5
1207B
 10
1647.62
 20
367.156
 30
0.000000
  70
    32
  0
VERTEX
  8
GAIKEI
  5
1207C
 10
1647.67
 20
367.170
 30
0.000000
  70
    32
  0
VERTEX
  8
GAIKEI
  5
1207D
 10
1647.72
 20
367.184
 30
0.000000
  70
    32
  0
VERTEX
  8
GAIKEI
  5
1207E
 10
1647.76
 20
367.199
 30
0.000000
  70
    32
  0
VERTEX
  8
GAIKEI
  5
1207F
 10
1647.81
 20
367.215
 30
0.000000
  70
    32
  0
VERTEX
  8
GAIKEI
  5
12080
 10
1647.85
 20
367.231
 30
0.000000
  70
    32
  0
VERTEX
  8
GAIKEI
  5
12081
 10
1647.89
 20
367.247
 30
0.000000
  70
    32
  0
VERTEX
  8
GAIKEI
  5
12082
 10
1647.94
 20
367.264
 30
0.000000
  70
    32
  0
VERTEX
  8
GAIKEI
  5
12083
 10
1647.98
 20
367.281
 30
0.000000
  70
    32
  0
VERTEX
  8
GAIKEI
  5
12084
 10
1648.03
 20
367.298
 30
0.000000
  70
    32
  0
VERTEX
  8
GAIKEI
  5
12085
 10
1648.07
 20
367.316
 30
0.000000
  70
    32
  0
VERTEX
  8
GAIKEI
  5
12086
 10
1648.11
 20
367.335
 30
0.000000
  70
    32
  0
VERTEX
  8
GAIKEI
  5
12087
 10
1648.16
 20
367.353
 30
0.000000
  70
    32
  0
VERTEX
  8
GAIKEI
  5
12088
 10
1648.20
 20
367.373
 30
0.000000
  70
    32
  0
VERTEX
  8
GAIKEI
  5
12089
 10
1648.24
 20
367.392
 30
0.000000
  70
    32
  0
VERTEX
  8
GAIKEI
  5
1208A
 10
1648.28
 20
367.412
 30
0.000000
  70
    32
  0
VERTEX
  8
GAIKEI
  5
1208B
 10
1648.32
 20
367.433
 30
0.000000
  70
    32
  0
VERTEX
  8
GAIKEI
  5
1208C
 10
1648.37
 20
367.453
 30
0.000000
  70
    32
  0
VERTEX
  8
GAIKEI
  5
1208D
 10
1648.41
 20
367.475
 30
0.000000
  70
    32
  0
VERTEX
  8
GAIKEI
  5
1208E
 10
1648.45
 20
367.496
 30
0.000000
  70
    32
  0
VERTEX
  8
GAIKEI
  5
1208F
 10
1648.49
 20
367.518
 30
0.000000
  70
    32
  0
VERTEX
  8
GAIKEI
  5
12090
 10
1648.53
 20
367.541
 30
0.000000
  70
    32
  0
VERTEX
  8
GAIKEI
  5
12091
 10
1648.57
 20
367.563
 30
0.000000
  70
    32
  0
VERTEX
  8
GAIKEI
  5
12092
 10
1648.61
 20
367.586
 30
0.000000
  70
    32
  0
VERTEX
  8
GAIKEI
  5
12093
 10
1648.65
 20
367.610
 30
0.000000
  70
    32
  0
VERTEX
  8
GAIKEI
  5
12094
 10
1648.68
 20
367.634
 30
0.000000
  70
    32
  0
VERTEX
  8
GAIKEI
  5
12095
 10
1648.72
 20
367.658
 30
0.000000
  70
    32
  0
VERTEX
  8
GAIKEI
  5
12096
 10
1648.76
 20
367.683
 30
0.000000
  70
    32
  0
VERTEX
  8
GAIKEI
  5
12097
 10
1648.80
 20
367.708
 30
0.000000
  70
    32
  0
VERTEX
  8
GAIKEI
  5
12098
 10
1648.83
 20
367.733
 30
0.000000
  70
    32
  0
VERTEX
  8
GAIKEI
  5
12099
 10
1648.87
 20
367.759
 30
0.000000
  70
    32
  0
VERTEX
  8
GAIKEI
  5
1209A
 10
1648.91
 20
367.785
 30
0.000000
  70
    32
  0
VERTEX
  8
GAIKEI
  5
1209B
 10
1648.94
 20
367.811
 30
0.000000
  70
    32
  0
VERTEX
  8
GAIKEI
  5
1209C
 10
1648.98
 20
367.838
 30
0.000000
  70
    32
  0
VERTEX
  8
GAIKEI
  5
1209D
 10
1649.01
 20
367.865
 30
0.000000
  70
    32
  0
VERTEX
  8
GAIKEI
  5
1209E
 10
1649.05
 20
367.892
 30
0.000000
  70
    32
  0
VERTEX
  8
GAIKEI
  5
1209F
 10
1649.08
 20
367.920
 30
0.000000
  70
    32
  0
VERTEX
  8
GAIKEI
  5
120A0
 10
1649.12
 20
367.948
 30
0.000000
  70
    32
  0
VERTEX
  8
GAIKEI
  5
120A1
 10
1649.15
 20
367.977
 30
0.000000
  70
    32
  0
VERTEX
  8
GAIKEI
  5
120A2
 10
1649.18
 20
368.005
 30
0.000000
  70
    32
  0
VERTEX
  8
GAIKEI
  5
120A3
 10
1649.21
 20
368.034
 30
0.000000
  70
    32
  0
VERTEX
  8
GAIKEI
  5
120A4
 10
1649.25
 20
368.064
 30
0.000000
  70
    32
  0
VERTEX
  8
GAIKEI
  5
120A5
 10
1649.28
 20
368.093
 30
0.000000
  70
    32
  0
VERTEX
  8
GAIKEI
  5
120A6
 10
1649.31
 20
368.123
 30
0.000000
  70
    32
  0
VERTEX
  8
GAIKEI
  5
120A7
 10
1649.34
 20
368.153
 30
0.000000
  70
    32
  0
VERTEX
  8
GAIKEI
  5
120A8
 10
1649.37
 20
368.184
 30
0.000000
  70
    32
  0
VERTEX
  8
GAIKEI
  5
120A9
 10
1649.40
 20
368.215
 30
0.000000
  70
    32
  0
VERTEX
  8
GAIKEI
  5
120AA
 10
1649.43
 20
368.246
 30
0.000000
  70
    32
  0
VERTEX
  8
GAIKEI
  5
120AB
 10
1649.45
 20
368.277
 30
0.000000
  70
    32
  0
VERTEX
  8
GAIKEI
  5
120AC
 10
1649.48
 20
368.309
 30
0.000000
  70
    32
  0
VERTEX
  8
GAIKEI
  5
120AD
 10
1649.51
 20
368.341
 30
0.000000
  70
    32
  0
VERTEX
  8
GAIKEI
  5
120AE
 10
1649.54
 20
368.373
 30
0.000000
  70
    32
  0
VERTEX
  8
GAIKEI
  5
120AF
 10
1649.56
 20
368.405
 30
0.000000
  70
    32
  0
VERTEX
  8
GAIKEI
  5
120B0
 10
1649.59
 20
368.438
 30
0.000000
  70
    32
  0
VERTEX
  8
GAIKEI
  5
120B1
 10
1649.62
 20
368.471
 30
0.000000
  70
    32
  0
VERTEX
  8
GAIKEI
  5
120B2
 10
1649.64
 20
368.504
 30
0.000000
  70
    32
  0
VERTEX
  8
GAIKEI
  5
120B3
 10
1649.66
 20
368.537
 30
0.000000
  70
    32
  0
VERTEX
  8
GAIKEI
  5
120B4
 10
1649.69
 20
368.571
 30
0.000000
  70
    32
  0
VERTEX
  8
GAIKEI
  5
120B5
 10
1649.71
 20
368.605
 30
0.000000
  70
    32
  0
VERTEX
  8
GAIKEI
  5
120B6
 10
1649.74
 20
368.639
 30
0.000000
  70
    32
  0
VERTEX
  8
GAIKEI
  5
120B7
 10
1649.76
 20
368.673
 30
0.000000
  70
    32
  0
VERTEX
  8
GAIKEI
  5
120B8
 10
1649.78
 20
368.708
 30
0.000000
  70
    32
  0
VERTEX
  8
GAIKEI
  5
120B9
 10
1649.80
 20
368.743
 30
0.000000
  70
    32
  0
VERTEX
  8
GAIKEI
  5
120BA
 10
1649.82
 20
368.778
 30
0.000000
  70
    32
  0
VERTEX
  8
GAIKEI
  5
120BB
 10
1649.84
 20
368.813
 30
0.000000
  70
    32
  0
VERTEX
  8
GAIKEI
  5
120BC
 10
1649.86
 20
368.848
 30
0.000000
  70
    32
  0
VERTEX
  8
GAIKEI
  5
120BD
 10
1649.88
 20
368.883
 30
0.000000
  70
    32
  0
VERTEX
  8
GAIKEI
  5
120BE
 10
1649.90
 20
368.919
 30
0.000000
  70
    32
  0
VERTEX
  8
GAIKEI
  5
120BF
 10
1649.92
 20
368.955
 30
0.000000
  70
    32
  0
VERTEX
  8
GAIKEI
  5
120C0
 10
1649.93
 20
368.991
 30
0.000000
  70
    32
  0
VERTEX
  8
GAIKEI
  5
120C1
 10
1649.95
 20
369.027
 30
0.000000
  70
    32
  0
VERTEX
  8
GAIKEI
  5
120C2
 10
1649.97
 20
369.064
 30
0.000000
  70
    32
  0
VERTEX
  8
GAIKEI
  5
120C3
 10
1649.98
 20
369.100
 30
0.000000
  70
    32
  0
VERTEX
  8
GAIKEI
  5
120C4
 10
1650.00
 20
369.137
 30
0.000000
  70
    32
  0
VERTEX
  8
GAIKEI
  5
120C5
 10
1650.01
 20
369.174
 30
0.000000
  70
    32
  0
VERTEX
  8
GAIKEI
  5
120C6
 10
1650.03
 20
369.211
 30
0.000000
  70
    32
  0
VERTEX
  8
GAIKEI
  5
120C7
 10
1650.04
 20
369.248
 30
0.000000
  70
    32
  0
VERTEX
  8
GAIKEI
  5
120C8
 10
1650.05
 20
369.285
 30
0.000000
  70
    32
  0
VERTEX
  8
GAIKEI
  5
120C9
 10
1650.06
 20
369.322
 30
0.000000
  70
    32
  0
VERTEX
  8
GAIKEI
  5
120CA
 10
1650.08
 20
369.360
 30
0.000000
  70
    32
  0
VERTEX
  8
GAIKEI
  5
120CB
 10
1650.09
 20
369.397
 30
0.000000
  70
    32
  0
VERTEX
  8
GAIKEI
  5
120CC
 10
1650.10
 20
369.435
 30
0.000000
  70
    32
  0
VERTEX
  8
GAIKEI
  5
120CD
 10
1650.11
 20
369.472
 30
0.000000
  70
    32
  0
VERTEX
  8
GAIKEI
  5
120CE
 10
1650.12
 20
369.510
 30
0.000000
  70
    32
  0
VERTEX
  8
GAIKEI
  5
120CF
 10
1650.13
 20
369.548
 30
0.000000
  70
    32
  0
VERTEX
  8
GAIKEI
  5
120D0
 10
1650.13
 20
369.586
 30
0.000000
  70
    32
  0
VERTEX
  8
GAIKEI
  5
120D1
 10
1650.14
 20
369.624
 30
0.000000
  70
    32
  0
VERTEX
  8
GAIKEI
  5
120D2
 10
1650.15
 20
369.662
 30
0.000000
  70
    32
  0
VERTEX
  8
GAIKEI
  5
120D3
 10
1650.15
 20
369.701
 30
0.000000
  70
    32
  0
VERTEX
  8
GAIKEI
  5
120D4
 10
1650.16
 20
369.739
 30
0.000000
  70
    32
  0
VERTEX
  8
GAIKEI
  5
120D5
 10
1650.17
 20
369.777
 30
0.000000
  70
    32
  0
VERTEX
  8
GAIKEI
  5
120D6
 10
1650.17
 20
369.816
 30
0.000000
  70
    32
  0
VERTEX
  8
GAIKEI
  5
120D7
 10
1650.17
 20
369.854
 30
0.000000
  70
    32
  0
VERTEX
  8
GAIKEI
  5
120D8
 10
1650.18
 20
369.892
 30
0.000000
  70
    32
  0
VERTEX
  8
GAIKEI
  5
120D9
 10
1650.18
 20
369.931
 30
0.000000
  70
    32
  0
VERTEX
  8
GAIKEI
  5
120DA
 10
1650.18
 20
369.969
 30
0.000000
  70
    32
  0
VERTEX
  8
GAIKEI
  5
120DB
 10
1650.18
 20
370.008
 30
0.000000
  70
    32
  0
VERTEX
  8
GAIKEI
  5
120DC
 10
1650.18
 20
370.046
 30
0.000000
  70
    32
  0
VERTEX
  8
GAIKEI
  5
120DD
 10
1650.18
 20
370.085
 30
0.000000
  70
    32
  0
SEQEND
  8
GAIKEI
  5
120DE
  0
POLYLINE
  5
F4DD
  8
GAIKEI
  6
CONTINUOUS
 10
1650.1844824685361
 20
370.08489897551942
 30
0.0
 66
     1
 70
     8
  0
VERTEX
  8
GAIKEI
  5
120DF
 10
1650.18
 20
370.085
 30
0.000000
  70
    32
  0
VERTEX
  8
GAIKEI
  5
120E0
 10
1650.18
 20
370.123
 30
0.000000
  70
    32
  0
VERTEX
  8
GAIKEI
  5
120E1
 10
1650.18
 20
370.161
 30
0.000000
  70
    32
  0
VERTEX
  8
GAIKEI
  5
120E2
 10
1650.18
 20
370.200
 30
0.000000
  70
    32
  0
VERTEX
  8
GAIKEI
  5
120E3
 10
1650.18
 20
370.238
 30
0.000000
  70
    32
  0
VERTEX
  8
GAIKEI
  5
120E4
 10
1650.18
 20
370.276
 30
0.000000
  70
    32
  0
VERTEX
  8
GAIKEI
  5
120E5
 10
1650.17
 20
370.314
 30
0.000000
  70
    32
  0
VERTEX
  8
GAIKEI
  5
120E6
 10
1650.17
 20
370.352
 30
0.000000
  70
    32
  0
VERTEX
  8
GAIKEI
  5
120E7
 10
1650.17
 20
370.390
 30
0.000000
  70
    32
  0
VERTEX
  8
GAIKEI
  5
120E8
 10
1650.16
 20
370.428
 30
0.000000
  70
    32
  0
VERTEX
  8
GAIKEI
  5
120E9
 10
1650.15
 20
370.466
 30
0.000000
  70
    32
  0
VERTEX
  8
GAIKEI
  5
120EA
 10
1650.15
 20
370.504
 30
0.000000
  70
    32
  0
VERTEX
  8
GAIKEI
  5
120EB
 10
1650.14
 20
370.542
 30
0.000000
  70
    32
  0
VERTEX
  8
GAIKEI
  5
120EC
 10
1650.13
 20
370.580
 30
0.000000
  70
    32
  0
VERTEX
  8
GAIKEI
  5
120ED
 10
1650.13
 20
370.618
 30
0.000000
  70
    32
  0
VERTEX
  8
GAIKEI
  5
120EE
 10
1650.12
 20
370.655
 30
0.000000
  70
    32
  0
VERTEX
  8
GAIKEI
  5
120EF
 10
1650.11
 20
370.693
 30
0.000000
  70
    32
  0
VERTEX
  8
GAIKEI
  5
120F0
 10
1650.10
 20
370.730
 30
0.000000
  70
    32
  0
VERTEX
  8
GAIKEI
  5
120F1
 10
1650.09
 20
370.768
 30
0.000000
  70
    32
  0
VERTEX
  8
GAIKEI
  5
120F2
 10
1650.08
 20
370.805
 30
0.000000
  70
    32
  0
VERTEX
  8
GAIKEI
  5
120F3
 10
1650.06
 20
370.842
 30
0.000000
  70
    32
  0
VERTEX
  8
GAIKEI
  5
120F4
 10
1650.05
 20
370.879
 30
0.000000
  70
    32
  0
VERTEX
  8
GAIKEI
  5
120F5
 10
1650.04
 20
370.916
 30
0.000000
  70
    32
  0
VERTEX
  8
GAIKEI
  5
120F6
 10
1650.03
 20
370.953
 30
0.000000
  70
    32
  0
VERTEX
  8
GAIKEI
  5
120F7
 10
1650.01
 20
370.989
 30
0.000000
  70
    32
  0
VERTEX
  8
GAIKEI
  5
120F8
 10
1650.00
 20
371.026
 30
0.000000
  70
    32
  0
VERTEX
  8
GAIKEI
  5
120F9
 10
1649.98
 20
371.062
 30
0.000000
  70
    32
  0
VERTEX
  8
GAIKEI
  5
120FA
 10
1649.97
 20
371.098
 30
0.000000
  70
    32
  0
VERTEX
  8
GAIKEI
  5
120FB
 10
1649.95
 20
371.134
 30
0.000000
  70
    32
  0
VERTEX
  8
GAIKEI
  5
120FC
 10
1649.93
 20
371.170
 30
0.000000
  70
    32
  0
VERTEX
  8
GAIKEI
  5
120FD
 10
1649.92
 20
371.206
 30
0.000000
  70
    32
  0
VERTEX
  8
GAIKEI
  5
120FE
 10
1649.90
 20
371.242
 30
0.000000
  70
    32
  0
VERTEX
  8
GAIKEI
  5
120FF
 10
1649.88
 20
371.277
 30
0.000000
  70
    32
  0
VERTEX
  8
GAIKEI
  5
12100
 10
1649.86
 20
371.312
 30
0.000000
  70
    32
  0
VERTEX
  8
GAIKEI
  5
12101
 10
1649.84
 20
371.347
 30
0.000000
  70
    32
  0
VERTEX
  8
GAIKEI
  5
12102
 10
1649.82
 20
371.382
 30
0.000000
  70
    32
  0
VERTEX
  8
GAIKEI
  5
12103
 10
1649.80
 20
371.417
 30
0.000000
  70
    32
  0
VERTEX
  8
GAIKEI
  5
12104
 10
1649.78
 20
371.451
 30
0.000000
  70
    32
  0
VERTEX
  8
GAIKEI
  5
12105
 10
1649.76
 20
371.486
 30
0.000000
  70
    32
  0
VERTEX
  8
GAIKEI
  5
12106
 10
1649.74
 20
371.520
 30
0.000000
  70
    32
  0
VERTEX
  8
GAIKEI
  5
12107
 10
1649.71
 20
371.554
 30
0.000000
  70
    32
  0
VERTEX
  8
GAIKEI
  5
12108
 10
1649.69
 20
371.587
 30
0.000000
  70
    32
  0
VERTEX
  8
GAIKEI
  5
12109
 10
1649.66
 20
371.621
 30
0.000000
  70
    32
  0
VERTEX
  8
GAIKEI
  5
1210A
 10
1649.64
 20
371.654
 30
0.000000
  70
    32
  0
VERTEX
  8
GAIKEI
  5
1210B
 10
1649.62
 20
371.687
 30
0.000000
  70
    32
  0
VERTEX
  8
GAIKEI
  5
1210C
 10
1649.59
 20
371.719
 30
0.000000
  70
    32
  0
VERTEX
  8
GAIKEI
  5
1210D
 10
1649.56
 20
371.752
 30
0.000000
  70
    32
  0
VERTEX
  8
GAIKEI
  5
1210E
 10
1649.54
 20
371.784
 30
0.000000
  70
    32
  0
VERTEX
  8
GAIKEI
  5
1210F
 10
1649.51
 20
371.816
 30
0.000000
  70
    32
  0
VERTEX
  8
GAIKEI
  5
12110
 10
1649.48
 20
371.847
 30
0.000000
  70
    32
  0
VERTEX
  8
GAIKEI
  5
12111
 10
1649.45
 20
371.879
 30
0.000000
  70
    32
  0
VERTEX
  8
GAIKEI
  5
12112
 10
1649.43
 20
371.910
 30
0.000000
  70
    32
  0
VERTEX
  8
GAIKEI
  5
12113
 10
1649.40
 20
371.941
 30
0.000000
  70
    32
  0
VERTEX
  8
GAIKEI
  5
12114
 10
1649.37
 20
371.971
 30
0.000000
  70
    32
  0
VERTEX
  8
GAIKEI
  5
12115
 10
1649.34
 20
372.002
 30
0.000000
  70
    32
  0
VERTEX
  8
GAIKEI
  5
12116
 10
1649.31
 20
372.032
 30
0.000000
  70
    32
  0
VERTEX
  8
GAIKEI
  5
12117
 10
1649.28
 20
372.061
 30
0.000000
  70
    32
  0
VERTEX
  8
GAIKEI
  5
12118
 10
1649.25
 20
372.091
 30
0.000000
  70
    32
  0
VERTEX
  8
GAIKEI
  5
12119
 10
1649.21
 20
372.120
 30
0.000000
  70
    32
  0
VERTEX
  8
GAIKEI
  5
1211A
 10
1649.18
 20
372.149
 30
0.000000
  70
    32
  0
VERTEX
  8
GAIKEI
  5
1211B
 10
1649.15
 20
372.177
 30
0.000000
  70
    32
  0
VERTEX
  8
GAIKEI
  5
1211C
 10
1649.12
 20
372.205
 30
0.000000
  70
    32
  0
VERTEX
  8
GAIKEI
  5
1211D
 10
1649.08
 20
372.233
 30
0.000000
  70
    32
  0
VERTEX
  8
GAIKEI
  5
1211E
 10
1649.05
 20
372.261
 30
0.000000
  70
    32
  0
VERTEX
  8
GAIKEI
  5
1211F
 10
1649.01
 20
372.288
 30
0.000000
  70
    32
  0
VERTEX
  8
GAIKEI
  5
12120
 10
1648.98
 20
372.315
 30
0.000000
  70
    32
  0
VERTEX
  8
GAIKEI
  5
12121
 10
1648.94
 20
372.341
 30
0.000000
  70
    32
  0
VERTEX
  8
GAIKEI
  5
12122
 10
1648.91
 20
372.367
 30
0.000000
  70
    32
  0
VERTEX
  8
GAIKEI
  5
12123
 10
1648.87
 20
372.393
 30
0.000000
  70
    32
  0
VERTEX
  8
GAIKEI
  5
12124
 10
1648.83
 20
372.419
 30
0.000000
  70
    32
  0
VERTEX
  8
GAIKEI
  5
12125
 10
1648.80
 20
372.444
 30
0.000000
  70
    32
  0
VERTEX
  8
GAIKEI
  5
12126
 10
1648.76
 20
372.469
 30
0.000000
  70
    32
  0
VERTEX
  8
GAIKEI
  5
12127
 10
1648.72
 20
372.493
 30
0.000000
  70
    32
  0
VERTEX
  8
GAIKEI
  5
12128
 10
1648.68
 20
372.517
 30
0.000000
  70
    32
  0
VERTEX
  8
GAIKEI
  5
12129
 10
1648.65
 20
372.541
 30
0.000000
  70
    32
  0
VERTEX
  8
GAIKEI
  5
1212A
 10
1648.61
 20
372.564
 30
0.000000
  70
    32
  0
VERTEX
  8
GAIKEI
  5
1212B
 10
1648.57
 20
372.587
 30
0.000000
  70
    32
  0
VERTEX
  8
GAIKEI
  5
1212C
 10
1648.53
 20
372.610
 30
0.000000
  70
    32
  0
VERTEX
  8
GAIKEI
  5
1212D
 10
1648.49
 20
372.632
 30
0.000000
  70
    32
  0
VERTEX
  8
GAIKEI
  5
1212E
 10
1648.45
 20
372.654
 30
0.000000
  70
    32
  0
VERTEX
  8
GAIKEI
  5
1212F
 10
1648.41
 20
372.675
 30
0.000000
  70
    32
  0
VERTEX
  8
GAIKEI
  5
12130
 10
1648.37
 20
372.696
 30
0.000000
  70
    32
  0
VERTEX
  8
GAIKEI
  5
12131
 10
1648.32
 20
372.717
 30
0.000000
  70
    32
  0
VERTEX
  8
GAIKEI
  5
12132
 10
1648.28
 20
372.737
 30
0.000000
  70
    32
  0
VERTEX
  8
GAIKEI
  5
12133
 10
1648.24
 20
372.757
 30
0.000000
  70
    32
  0
VERTEX
  8
GAIKEI
  5
12134
 10
1648.20
 20
372.777
 30
0.000000
  70
    32
  0
VERTEX
  8
GAIKEI
  5
12135
 10
1648.16
 20
372.796
 30
0.000000
  70
    32
  0
VERTEX
  8
GAIKEI
  5
12136
 10
1648.11
 20
372.814
 30
0.000000
  70
    32
  0
VERTEX
  8
GAIKEI
  5
12137
 10
1648.07
 20
372.832
 30
0.000000
  70
    32
  0
VERTEX
  8
GAIKEI
  5
12138
 10
1648.03
 20
372.850
 30
0.000000
  70
    32
  0
VERTEX
  8
GAIKEI
  5
12139
 10
1647.98
 20
372.868
 30
0.000000
  70
    32
  0
VERTEX
  8
GAIKEI
  5
1213A
 10
1647.94
 20
372.885
 30
0.000000
  70
    32
  0
VERTEX
  8
GAIKEI
  5
1213B
 10
1647.89
 20
372.901
 30
0.000000
  70
    32
  0
VERTEX
  8
GAIKEI
  5
1213C
 10
1647.85
 20
372.917
 30
0.000000
  70
    32
  0
VERTEX
  8
GAIKEI
  5
1213D
 10
1647.81
 20
372.933
 30
0.000000
  70
    32
  0
VERTEX
  8
GAIKEI
  5
1213E
 10
1647.76
 20
372.948
 30
0.000000
  70
    32
  0
VERTEX
  8
GAIKEI
  5
1213F
 10
1647.72
 20
372.963
 30
0.000000
  70
    32
  0
VERTEX
  8
GAIKEI
  5
12140
 10
1647.67
 20
372.978
 30
0.000000
  70
    32
  0
VERTEX
  8
GAIKEI
  5
12141
 10
1647.62
 20
372.992
 30
0.000000
  70
    32
  0
VERTEX
  8
GAIKEI
  5
12142
 10
1647.58
 20
373.005
 30
0.000000
  70
    32
  0
VERTEX
  8
GAIKEI
  5
12143
 10
1647.53
 20
373.018
 30
0.000000
  70
    32
  0
VERTEX
  8
GAIKEI
  5
12144
 10
1647.49
 20
373.031
 30
0.000000
  70
    32
  0
VERTEX
  8
GAIKEI
  5
12145
 10
1647.44
 20
373.043
 30
0.000000
  70
    32
  0
VERTEX
  8
GAIKEI
  5
12146
 10
1647.39
 20
373.055
 30
0.000000
  70
    32
  0
VERTEX
  8
GAIKEI
  5
12147
 10
1647.35
 20
373.066
 30
0.000000
  70
    32
  0
VERTEX
  8
GAIKEI
  5
12148
 10
1647.30
 20
373.077
 30
0.000000
  70
    32
  0
VERTEX
  8
GAIKEI
  5
12149
 10
1647.25
 20
373.088
 30
0.000000
  70
    32
  0
VERTEX
  8
GAIKEI
  5
1214A
 10
1647.20
 20
373.097
 30
0.000000
  70
    32
  0
VERTEX
  8
GAIKEI
  5
1214B
 10
1647.16
 20
373.107
 30
0.000000
  70
    32
  0
VERTEX
  8
GAIKEI
  5
1214C
 10
1647.11
 20
373.116
 30
0.000000
  70
    32
  0
VERTEX
  8
GAIKEI
  5
1214D
 10
1647.06
 20
373.125
 30
0.000000
  70
    32
  0
VERTEX
  8
GAIKEI
  5
1214E
 10
1647.01
 20
373.133
 30
0.000000
  70
    32
  0
VERTEX
  8
GAIKEI
  5
1214F
 10
1646.96
 20
373.140
 30
0.000000
  70
    32
  0
VERTEX
  8
GAIKEI
  5
12150
 10
1646.92
 20
373.148
 30
0.000000
  70
    32
  0
VERTEX
  8
GAIKEI
  5
12151
 10
1646.87
 20
373.154
 30
0.000000
  70
    32
  0
VERTEX
  8
GAIKEI
  5
12152
 10
1646.82
 20
373.161
 30
0.000000
  70
    32
  0
VERTEX
  8
GAIKEI
  5
12153
 10
1646.77
 20
373.167
 30
0.000000
  70
    32
  0
VERTEX
  8
GAIKEI
  5
12154
 10
1646.72
 20
373.172
 30
0.000000
  70
    32
  0
VERTEX
  8
GAIKEI
  5
12155
 10
1646.67
 20
373.177
 30
0.000000
  70
    32
  0
VERTEX
  8
GAIKEI
  5
12156
 10
1646.63
 20
373.181
 30
0.000000
  70
    32
  0
VERTEX
  8
GAIKEI
  5
12157
 10
1646.58
 20
373.185
 30
0.000000
  70
    32
  0
VERTEX
  8
GAIKEI
  5
12158
 10
1646.53
 20
373.189
 30
0.000000
  70
    32
  0
VERTEX
  8
GAIKEI
  5
12159
 10
1646.48
 20
373.192
 30
0.000000
  70
    32
  0
VERTEX
  8
GAIKEI
  5
1215A
 10
1646.43
 20
373.194
 30
0.000000
  70
    32
  0
VERTEX
  8
GAIKEI
  5
1215B
 10
1646.38
 20
373.197
 30
0.000000
  70
    32
  0
VERTEX
  8
GAIKEI
  5
1215C
 10
1646.33
 20
373.198
 30
0.000000
  70
    32
  0
VERTEX
  8
GAIKEI
  5
1215D
 10
1646.28
 20
373.199
 30
0.000000
  70
    32
  0
VERTEX
  8
GAIKEI
  5
1215E
 10
1646.23
 20
373.200
 30
0.000000
  70
    32
  0
VERTEX
  8
GAIKEI
  5
1215F
 10
1646.18
 20
373.200
 30
0.000000
  70
    32
  0
SEQEND
  8
GAIKEI
  5
12160
  0
POLYLINE
  5
F4DE
  8
GAIKEI
  6
CONTINUOUS
 10
1629.1835058464239
 20
366.94547185756903
 30
0.0
 66
     1
 70
     8
  0
VERTEX
  8
GAIKEI
  5
12161
 10
1629.18
 20
366.945
 30
0.000000
  70
    32
  0
VERTEX
  8
GAIKEI
  5
12162
 10
1629.13
 20
366.946
 30
0.000000
  70
    32
  0
VERTEX
  8
GAIKEI
  5
12163
 10
1629.09
 20
366.946
 30
0.000000
  70
    32
  0
VERTEX
  8
GAIKEI
  5
12164
 10
1629.04
 20
366.948
 30
0.000000
  70
    32
  0
VERTEX
  8
GAIKEI
  5
12165
 10
1628.99
 20
366.949
 30
0.000000
  70
    32
  0
VERTEX
  8
GAIKEI
  5
12166
 10
1628.94
 20
366.951
 30
0.000000
  70
    32
  0
VERTEX
  8
GAIKEI
  5
12167
 10
1628.89
 20
366.954
 30
0.000000
  70
    32
  0
VERTEX
  8
GAIKEI
  5
12168
 10
1628.84
 20
366.957
 30
0.000000
  70
    32
  0
VERTEX
  8
GAIKEI
  5
12169
 10
1628.79
 20
366.961
 30
0.000000
  70
    32
  0
VERTEX
  8
GAIKEI
  5
1216A
 10
1628.74
 20
366.965
 30
0.000000
  70
    32
  0
VERTEX
  8
GAIKEI
  5
1216B
 10
1628.69
 20
366.969
 30
0.000000
  70
    32
  0
VERTEX
  8
GAIKEI
  5
1216C
 10
1628.65
 20
366.974
 30
0.000000
  70
    32
  0
VERTEX
  8
GAIKEI
  5
1216D
 10
1628.60
 20
366.979
 30
0.000000
  70
    32
  0
VERTEX
  8
GAIKEI
  5
1216E
 10
1628.55
 20
366.985
 30
0.000000
  70
    32
  0
VERTEX
  8
GAIKEI
  5
1216F
 10
1628.50
 20
366.992
 30
0.000000
  70
    32
  0
VERTEX
  8
GAIKEI
  5
12170
 10
1628.45
 20
366.999
 30
0.000000
  70
    32
  0
VERTEX
  8
GAIKEI
  5
12171
 10
1628.40
 20
367.006
 30
0.000000
  70
    32
  0
VERTEX
  8
GAIKEI
  5
12172
 10
1628.36
 20
367.014
 30
0.000000
  70
    32
  0
VERTEX
  8
GAIKEI
  5
12173
 10
1628.31
 20
367.022
 30
0.000000
  70
    32
  0
VERTEX
  8
GAIKEI
  5
12174
 10
1628.26
 20
367.030
 30
0.000000
  70
    32
  0
VERTEX
  8
GAIKEI
  5
12175
 10
1628.21
 20
367.040
 30
0.000000
  70
    32
  0
VERTEX
  8
GAIKEI
  5
12176
 10
1628.16
 20
367.049
 30
0.000000
  70
    32
  0
VERTEX
  8
GAIKEI
  5
12177
 10
1628.12
 20
367.059
 30
0.000000
  70
    32
  0
VERTEX
  8
GAIKEI
  5
12178
 10
1628.07
 20
367.070
 30
0.000000
  70
    32
  0
VERTEX
  8
GAIKEI
  5
12179
 10
1628.02
 20
367.081
 30
0.000000
  70
    32
  0
VERTEX
  8
GAIKEI
  5
1217A
 10
1627.98
 20
367.092
 30
0.000000
  70
    32
  0
VERTEX
  8
GAIKEI
  5
1217B
 10
1627.93
 20
367.104
 30
0.000000
  70
    32
  0
VERTEX
  8
GAIKEI
  5
1217C
 10
1627.88
 20
367.116
 30
0.000000
  70
    32
  0
VERTEX
  8
GAIKEI
  5
1217D
 10
1627.84
 20
367.129
 30
0.000000
  70
    32
  0
VERTEX
  8
GAIKEI
  5
1217E
 10
1627.79
 20
367.142
 30
0.000000
  70
    32
  0
VERTEX
  8
GAIKEI
  5
1217F
 10
1627.74
 20
367.156
 30
0.000000
  70
    32
  0
VERTEX
  8
GAIKEI
  5
12180
 10
1627.70
 20
367.170
 30
0.000000
  70
    32
  0
VERTEX
  8
GAIKEI
  5
12181
 10
1627.65
 20
367.184
 30
0.000000
  70
    32
  0
VERTEX
  8
GAIKEI
  5
12182
 10
1627.61
 20
367.199
 30
0.000000
  70
    32
  0
VERTEX
  8
GAIKEI
  5
12183
 10
1627.56
 20
367.215
 30
0.000000
  70
    32
  0
VERTEX
  8
GAIKEI
  5
12184
 10
1627.52
 20
367.231
 30
0.000000
  70
    32
  0
VERTEX
  8
GAIKEI
  5
12185
 10
1627.47
 20
367.247
 30
0.000000
  70
    32
  0
VERTEX
  8
GAIKEI
  5
12186
 10
1627.43
 20
367.264
 30
0.000000
  70
    32
  0
VERTEX
  8
GAIKEI
  5
12187
 10
1627.39
 20
367.281
 30
0.000000
  70
    32
  0
VERTEX
  8
GAIKEI
  5
12188
 10
1627.34
 20
367.298
 30
0.000000
  70
    32
  0
VERTEX
  8
GAIKEI
  5
12189
 10
1627.30
 20
367.316
 30
0.000000
  70
    32
  0
VERTEX
  8
GAIKEI
  5
1218A
 10
1627.25
 20
367.335
 30
0.000000
  70
    32
  0
VERTEX
  8
GAIKEI
  5
1218B
 10
1627.21
 20
367.353
 30
0.000000
  70
    32
  0
VERTEX
  8
GAIKEI
  5
1218C
 10
1627.17
 20
367.373
 30
0.000000
  70
    32
  0
VERTEX
  8
GAIKEI
  5
1218D
 10
1627.13
 20
367.392
 30
0.000000
  70
    32
  0
VERTEX
  8
GAIKEI
  5
1218E
 10
1627.09
 20
367.412
 30
0.000000
  70
    32
  0
VERTEX
  8
GAIKEI
  5
1218F
 10
1627.04
 20
367.433
 30
0.000000
  70
    32
  0
VERTEX
  8
GAIKEI
  5
12190
 10
1627.00
 20
367.453
 30
0.000000
  70
    32
  0
VERTEX
  8
GAIKEI
  5
12191
 10
1626.96
 20
367.475
 30
0.000000
  70
    32
  0
VERTEX
  8
GAIKEI
  5
12192
 10
1626.92
 20
367.496
 30
0.000000
  70
    32
  0
VERTEX
  8
GAIKEI
  5
12193
 10
1626.88
 20
367.518
 30
0.000000
  70
    32
  0
VERTEX
  8
GAIKEI
  5
12194
 10
1626.84
 20
367.541
 30
0.000000
  70
    32
  0
VERTEX
  8
GAIKEI
  5
12195
 10
1626.80
 20
367.563
 30
0.000000
  70
    32
  0
VERTEX
  8
GAIKEI
  5
12196
 10
1626.76
 20
367.586
 30
0.000000
  70
    32
  0
VERTEX
  8
GAIKEI
  5
12197
 10
1626.72
 20
367.610
 30
0.000000
  70
    32
  0
VERTEX
  8
GAIKEI
  5
12198
 10
1626.68
 20
367.634
 30
0.000000
  70
    32
  0
VERTEX
  8
GAIKEI
  5
12199
 10
1626.65
 20
367.658
 30
0.000000
  70
    32
  0
VERTEX
  8
GAIKEI
  5
1219A
 10
1626.61
 20
367.683
 30
0.000000
  70
    32
  0
VERTEX
  8
GAIKEI
  5
1219B
 10
1626.57
 20
367.708
 30
0.000000
  70
    32
  0
VERTEX
  8
GAIKEI
  5
1219C
 10
1626.53
 20
367.733
 30
0.000000
  70
    32
  0
VERTEX
  8
GAIKEI
  5
1219D
 10
1626.50
 20
367.759
 30
0.000000
  70
    32
  0
VERTEX
  8
GAIKEI
  5
1219E
 10
1626.46
 20
367.785
 30
0.000000
  70
    32
  0
VERTEX
  8
GAIKEI
  5
1219F
 10
1626.43
 20
367.811
 30
0.000000
  70
    32
  0
VERTEX
  8
GAIKEI
  5
121A0
 10
1626.39
 20
367.838
 30
0.000000
  70
    32
  0
VERTEX
  8
GAIKEI
  5
121A1
 10
1626.36
 20
367.865
 30
0.000000
  70
    32
  0
VERTEX
  8
GAIKEI
  5
121A2
 10
1626.32
 20
367.892
 30
0.000000
  70
    32
  0
VERTEX
  8
GAIKEI
  5
121A3
 10
1626.29
 20
367.920
 30
0.000000
  70
    32
  0
VERTEX
  8
GAIKEI
  5
121A4
 10
1626.25
 20
367.948
 30
0.000000
  70
    32
  0
VERTEX
  8
GAIKEI
  5
121A5
 10
1626.22
 20
367.977
 30
0.000000
  70
    32
  0
VERTEX
  8
GAIKEI
  5
121A6
 10
1626.19
 20
368.005
 30
0.000000
  70
    32
  0
VERTEX
  8
GAIKEI
  5
121A7
 10
1626.15
 20
368.034
 30
0.000000
  70
    32
  0
VERTEX
  8
GAIKEI
  5
121A8
 10
1626.12
 20
368.064
 30
0.000000
  70
    32
  0
VERTEX
  8
GAIKEI
  5
121A9
 10
1626.09
 20
368.093
 30
0.000000
  70
    32
  0
VERTEX
  8
GAIKEI
  5
121AA
 10
1626.06
 20
368.123
 30
0.000000
  70
    32
  0
VERTEX
  8
GAIKEI
  5
121AB
 10
1626.03
 20
368.153
 30
0.000000
  70
    32
  0
VERTEX
  8
GAIKEI
  5
121AC
 10
1626.00
 20
368.184
 30
0.000000
  70
    32
  0
VERTEX
  8
GAIKEI
  5
121AD
 10
1625.97
 20
368.215
 30
0.000000
  70
    32
  0
VERTEX
  8
GAIKEI
  5
121AE
 10
1625.94
 20
368.246
 30
0.000000
  70
    32
  0
VERTEX
  8
GAIKEI
  5
121AF
 10
1625.91
 20
368.277
 30
0.000000
  70
    32
  0
VERTEX
  8
GAIKEI
  5
121B0
 10
1625.89
 20
368.309
 30
0.000000
  70
    32
  0
VERTEX
  8
GAIKEI
  5
121B1
 10
1625.86
 20
368.341
 30
0.000000
  70
    32
  0
VERTEX
  8
GAIKEI
  5
121B2
 10
1625.83
 20
368.373
 30
0.000000
  70
    32
  0
VERTEX
  8
GAIKEI
  5
121B3
 10
1625.80
 20
368.405
 30
0.000000
  70
    32
  0
VERTEX
  8
GAIKEI
  5
121B4
 10
1625.78
 20
368.438
 30
0.000000
  70
    32
  0
VERTEX
  8
GAIKEI
  5
121B5
 10
1625.75
 20
368.471
 30
0.000000
  70
    32
  0
VERTEX
  8
GAIKEI
  5
121B6
 10
1625.73
 20
368.504
 30
0.000000
  70
    32
  0
VERTEX
  8
GAIKEI
  5
121B7
 10
1625.70
 20
368.537
 30
0.000000
  70
    32
  0
VERTEX
  8
GAIKEI
  5
121B8
 10
1625.68
 20
368.571
 30
0.000000
  70
    32
  0
VERTEX
  8
GAIKEI
  5
121B9
 10
1625.66
 20
368.605
 30
0.000000
  70
    32
  0
VERTEX
  8
GAIKEI
  5
121BA
 10
1625.63
 20
368.639
 30
0.000000
  70
    32
  0
VERTEX
  8
GAIKEI
  5
121BB
 10
1625.61
 20
368.673
 30
0.000000
  70
    32
  0
VERTEX
  8
GAIKEI
  5
121BC
 10
1625.59
 20
368.708
 30
0.000000
  70
    32
  0
VERTEX
  8
GAIKEI
  5
121BD
 10
1625.57
 20
368.743
 30
0.000000
  70
    32
  0
VERTEX
  8
GAIKEI
  5
121BE
 10
1625.55
 20
368.778
 30
0.000000
  70
    32
  0
VERTEX
  8
GAIKEI
  5
121BF
 10
1625.53
 20
368.813
 30
0.000000
  70
    32
  0
VERTEX
  8
GAIKEI
  5
121C0
 10
1625.51
 20
368.848
 30
0.000000
  70
    32
  0
VERTEX
  8
GAIKEI
  5
121C1
 10
1625.49
 20
368.883
 30
0.000000
  70
    32
  0
VERTEX
  8
GAIKEI
  5
121C2
 10
1625.47
 20
368.919
 30
0.000000
  70
    32
  0
VERTEX
  8
GAIKEI
  5
121C3
 10
1625.45
 20
368.955
 30
0.000000
  70
    32
  0
VERTEX
  8
GAIKEI
  5
121C4
 10
1625.43
 20
368.991
 30
0.000000
  70
    32
  0
VERTEX
  8
GAIKEI
  5
121C5
 10
1625.42
 20
369.027
 30
0.000000
  70
    32
  0
VERTEX
  8
GAIKEI
  5
121C6
 10
1625.40
 20
369.064
 30
0.000000
  70
    32
  0
VERTEX
  8
GAIKEI
  5
121C7
 10
1625.39
 20
369.100
 30
0.000000
  70
    32
  0
VERTEX
  8
GAIKEI
  5
121C8
 10
1625.37
 20
369.137
 30
0.000000
  70
    32
  0
VERTEX
  8
GAIKEI
  5
121C9
 10
1625.36
 20
369.174
 30
0.000000
  70
    32
  0
VERTEX
  8
GAIKEI
  5
121CA
 10
1625.34
 20
369.211
 30
0.000000
  70
    32
  0
VERTEX
  8
GAIKEI
  5
121CB
 10
1625.33
 20
369.248
 30
0.000000
  70
    32
  0
VERTEX
  8
GAIKEI
  5
121CC
 10
1625.32
 20
369.285
 30
0.000000
  70
    32
  0
VERTEX
  8
GAIKEI
  5
121CD
 10
1625.30
 20
369.322
 30
0.000000
  70
    32
  0
VERTEX
  8
GAIKEI
  5
121CE
 10
1625.29
 20
369.360
 30
0.000000
  70
    32
  0
VERTEX
  8
GAIKEI
  5
121CF
 10
1625.28
 20
369.397
 30
0.000000
  70
    32
  0
VERTEX
  8
GAIKEI
  5
121D0
 10
1625.27
 20
369.435
 30
0.000000
  70
    32
  0
VERTEX
  8
GAIKEI
  5
121D1
 10
1625.26
 20
369.472
 30
0.000000
  70
    32
  0
VERTEX
  8
GAIKEI
  5
121D2
 10
1625.25
 20
369.510
 30
0.000000
  70
    32
  0
VERTEX
  8
GAIKEI
  5
121D3
 10
1625.24
 20
369.548
 30
0.000000
  70
    32
  0
VERTEX
  8
GAIKEI
  5
121D4
 10
1625.23
 20
369.586
 30
0.000000
  70
    32
  0
VERTEX
  8
GAIKEI
  5
121D5
 10
1625.23
 20
369.624
 30
0.000000
  70
    32
  0
VERTEX
  8
GAIKEI
  5
121D6
 10
1625.22
 20
369.662
 30
0.000000
  70
    32
  0
VERTEX
  8
GAIKEI
  5
121D7
 10
1625.21
 20
369.701
 30
0.000000
  70
    32
  0
VERTEX
  8
GAIKEI
  5
121D8
 10
1625.21
 20
369.739
 30
0.000000
  70
    32
  0
VERTEX
  8
GAIKEI
  5
121D9
 10
1625.20
 20
369.777
 30
0.000000
  70
    32
  0
VERTEX
  8
GAIKEI
  5
121DA
 10
1625.20
 20
369.816
 30
0.000000
  70
    32
  0
VERTEX
  8
GAIKEI
  5
121DB
 10
1625.19
 20
369.854
 30
0.000000
  70
    32
  0
VERTEX
  8
GAIKEI
  5
121DC
 10
1625.19
 20
369.892
 30
0.000000
  70
    32
  0
VERTEX
  8
GAIKEI
  5
121DD
 10
1625.19
 20
369.931
 30
0.000000
  70
    32
  0
VERTEX
  8
GAIKEI
  5
121DE
 10
1625.19
 20
369.969
 30
0.000000
  70
    32
  0
VERTEX
  8
GAIKEI
  5
121DF
 10
1625.18
 20
370.008
 30
0.000000
  70
    32
  0
VERTEX
  8
GAIKEI
  5
121E0
 10
1625.18
 20
370.046
 30
0.000000
  70
    32
  0
VERTEX
  8
GAIKEI
  5
121E1
 10
1625.18
 20
370.085
 30
0.000000
  70
    32
  0
SEQEND
  8
GAIKEI
  5
121E2
  0
POLYLINE
  5
F4DF
  8
GAIKEI
  6
CONTINUOUS
 10
1625.1835058464239
 20
370.08489897551942
 30
0.0
 66
     1
 70
     8
  0
VERTEX
  8
GAIKEI
  5
121E3
 10
1625.18
 20
370.085
 30
0.000000
  70
    32
  0
VERTEX
  8
GAIKEI
  5
121E4
 10
1625.18
 20
370.123
 30
0.000000
  70
    32
  0
VERTEX
  8
GAIKEI
  5
121E5
 10
1625.18
 20
370.161
 30
0.000000
  70
    32
  0
VERTEX
  8
GAIKEI
  5
121E6
 10
1625.19
 20
370.200
 30
0.000000
  70
    32
  0
VERTEX
  8
GAIKEI
  5
121E7
 10
1625.19
 20
370.238
 30
0.000000
  70
    32
  0
VERTEX
  8
GAIKEI
  5
121E8
 10
1625.19
 20
370.276
 30
0.000000
  70
    32
  0
VERTEX
  8
GAIKEI
  5
121E9
 10
1625.19
 20
370.314
 30
0.000000
  70
    32
  0
VERTEX
  8
GAIKEI
  5
121EA
 10
1625.20
 20
370.352
 30
0.000000
  70
    32
  0
VERTEX
  8
GAIKEI
  5
121EB
 10
1625.20
 20
370.390
 30
0.000000
  70
    32
  0
VERTEX
  8
GAIKEI
  5
121EC
 10
1625.21
 20
370.428
 30
0.000000
  70
    32
  0
VERTEX
  8
GAIKEI
  5
121ED
 10
1625.21
 20
370.466
 30
0.000000
  70
    32
  0
VERTEX
  8
GAIKEI
  5
121EE
 10
1625.22
 20
370.504
 30
0.000000
  70
    32
  0
VERTEX
  8
GAIKEI
  5
121EF
 10
1625.23
 20
370.542
 30
0.000000
  70
    32
  0
VERTEX
  8
GAIKEI
  5
121F0
 10
1625.23
 20
370.580
 30
0.000000
  70
    32
  0
VERTEX
  8
GAIKEI
  5
121F1
 10
1625.24
 20
370.618
 30
0.000000
  70
    32
  0
VERTEX
  8
GAIKEI
  5
121F2
 10
1625.25
 20
370.655
 30
0.000000
  70
    32
  0
VERTEX
  8
GAIKEI
  5
121F3
 10
1625.26
 20
370.693
 30
0.000000
  70
    32
  0
VERTEX
  8
GAIKEI
  5
121F4
 10
1625.27
 20
370.730
 30
0.000000
  70
    32
  0
VERTEX
  8
GAIKEI
  5
121F5
 10
1625.28
 20
370.768
 30
0.000000
  70
    32
  0
VERTEX
  8
GAIKEI
  5
121F6
 10
1625.29
 20
370.805
 30
0.000000
  70
    32
  0
VERTEX
  8
GAIKEI
  5
121F7
 10
1625.30
 20
370.842
 30
0.000000
  70
    32
  0
VERTEX
  8
GAIKEI
  5
121F8
 10
1625.32
 20
370.879
 30
0.000000
  70
    32
  0
VERTEX
  8
GAIKEI
  5
121F9
 10
1625.33
 20
370.916
 30
0.000000
  70
    32
  0
VERTEX
  8
GAIKEI
  5
121FA
 10
1625.34
 20
370.953
 30
0.000000
  70
    32
  0
VERTEX
  8
GAIKEI
  5
121FB
 10
1625.36
 20
370.989
 30
0.000000
  70
    32
  0
VERTEX
  8
GAIKEI
  5
121FC
 10
1625.37
 20
371.026
 30
0.000000
  70
    32
  0
VERTEX
  8
GAIKEI
  5
121FD
 10
1625.39
 20
371.062
 30
0.000000
  70
    32
  0
VERTEX
  8
GAIKEI
  5
121FE
 10
1625.40
 20
371.098
 30
0.000000
  70
    32
  0
VERTEX
  8
GAIKEI
  5
121FF
 10
1625.42
 20
371.134
 30
0.000000
  70
    32
  0
VERTEX
  8
GAIKEI
  5
12200
 10
1625.43
 20
371.170
 30
0.000000
  70
    32
  0
VERTEX
  8
GAIKEI
  5
12201
 10
1625.45
 20
371.206
 30
0.000000
  70
    32
  0
VERTEX
  8
GAIKEI
  5
12202
 10
1625.47
 20
371.242
 30
0.000000
  70
    32
  0
VERTEX
  8
GAIKEI
  5
12203
 10
1625.49
 20
371.277
 30
0.000000
  70
    32
  0
VERTEX
  8
GAIKEI
  5
12204
 10
1625.51
 20
371.312
 30
0.000000
  70
    32
  0
VERTEX
  8
GAIKEI
  5
12205
 10
1625.53
 20
371.347
 30
0.000000
  70
    32
  0
VERTEX
  8
GAIKEI
  5
12206
 10
1625.55
 20
371.382
 30
0.000000
  70
    32
  0
VERTEX
  8
GAIKEI
  5
12207
 10
1625.57
 20
371.417
 30
0.000000
  70
    32
  0
VERTEX
  8
GAIKEI
  5
12208
 10
1625.59
 20
371.451
 30
0.000000
  70
    32
  0
VERTEX
  8
GAIKEI
  5
12209
 10
1625.61
 20
371.486
 30
0.000000
  70
    32
  0
VERTEX
  8
GAIKEI
  5
1220A
 10
1625.63
 20
371.520
 30
0.000000
  70
    32
  0
VERTEX
  8
GAIKEI
  5
1220B
 10
1625.66
 20
371.554
 30
0.000000
  70
    32
  0
VERTEX
  8
GAIKEI
  5
1220C
 10
1625.68
 20
371.587
 30
0.000000
  70
    32
  0
VERTEX
  8
GAIKEI
  5
1220D
 10
1625.70
 20
371.621
 30
0.000000
  70
    32
  0
VERTEX
  8
GAIKEI
  5
1220E
 10
1625.73
 20
371.654
 30
0.000000
  70
    32
  0
VERTEX
  8
GAIKEI
  5
1220F
 10
1625.75
 20
371.687
 30
0.000000
  70
    32
  0
VERTEX
  8
GAIKEI
  5
12210
 10
1625.78
 20
371.719
 30
0.000000
  70
    32
  0
VERTEX
  8
GAIKEI
  5
12211
 10
1625.80
 20
371.752
 30
0.000000
  70
    32
  0
VERTEX
  8
GAIKEI
  5
12212
 10
1625.83
 20
371.784
 30
0.000000
  70
    32
  0
VERTEX
  8
GAIKEI
  5
12213
 10
1625.86
 20
371.816
 30
0.000000
  70
    32
  0
VERTEX
  8
GAIKEI
  5
12214
 10
1625.89
 20
371.847
 30
0.000000
  70
    32
  0
VERTEX
  8
GAIKEI
  5
12215
 10
1625.91
 20
371.879
 30
0.000000
  70
    32
  0
VERTEX
  8
GAIKEI
  5
12216
 10
1625.94
 20
371.910
 30
0.000000
  70
    32
  0
VERTEX
  8
GAIKEI
  5
12217
 10
1625.97
 20
371.941
 30
0.000000
  70
    32
  0
VERTEX
  8
GAIKEI
  5
12218
 10
1626.00
 20
371.971
 30
0.000000
  70
    32
  0
VERTEX
  8
GAIKEI
  5
12219
 10
1626.03
 20
372.002
 30
0.000000
  70
    32
  0
VERTEX
  8
GAIKEI
  5
1221A
 10
1626.06
 20
372.032
 30
0.000000
  70
    32
  0
VERTEX
  8
GAIKEI
  5
1221B
 10
1626.09
 20
372.061
 30
0.000000
  70
    32
  0
VERTEX
  8
GAIKEI
  5
1221C
 10
1626.12
 20
372.091
 30
0.000000
  70
    32
  0
VERTEX
  8
GAIKEI
  5
1221D
 10
1626.15
 20
372.120
 30
0.000000
  70
    32
  0
VERTEX
  8
GAIKEI
  5
1221E
 10
1626.19
 20
372.149
 30
0.000000
  70
    32
  0
VERTEX
  8
GAIKEI
  5
1221F
 10
1626.22
 20
372.177
 30
0.000000
  70
    32
  0
VERTEX
  8
GAIKEI
  5
12220
 10
1626.25
 20
372.205
 30
0.000000
  70
    32
  0
VERTEX
  8
GAIKEI
  5
12221
 10
1626.29
 20
372.233
 30
0.000000
  70
    32
  0
VERTEX
  8
GAIKEI
  5
12222
 10
1626.32
 20
372.261
 30
0.000000
  70
    32
  0
VERTEX
  8
GAIKEI
  5
12223
 10
1626.36
 20
372.288
 30
0.000000
  70
    32
  0
VERTEX
  8
GAIKEI
  5
12224
 10
1626.39
 20
372.315
 30
0.000000
  70
    32
  0
VERTEX
  8
GAIKEI
  5
12225
 10
1626.43
 20
372.341
 30
0.000000
  70
    32
  0
VERTEX
  8
GAIKEI
  5
12226
 10
1626.46
 20
372.367
 30
0.000000
  70
    32
  0
VERTEX
  8
GAIKEI
  5
12227
 10
1626.50
 20
372.393
 30
0.000000
  70
    32
  0
VERTEX
  8
GAIKEI
  5
12228
 10
1626.53
 20
372.419
 30
0.000000
  70
    32
  0
VERTEX
  8
GAIKEI
  5
12229
 10
1626.57
 20
372.444
 30
0.000000
  70
    32
  0
VERTEX
  8
GAIKEI
  5
1222A
 10
1626.61
 20
372.469
 30
0.000000
  70
    32
  0
VERTEX
  8
GAIKEI
  5
1222B
 10
1626.65
 20
372.493
 30
0.000000
  70
    32
  0
VERTEX
  8
GAIKEI
  5
1222C
 10
1626.68
 20
372.517
 30
0.000000
  70
    32
  0
VERTEX
  8
GAIKEI
  5
1222D
 10
1626.72
 20
372.541
 30
0.000000
  70
    32
  0
VERTEX
  8
GAIKEI
  5
1222E
 10
1626.76
 20
372.564
 30
0.000000
  70
    32
  0
VERTEX
  8
GAIKEI
  5
1222F
 10
1626.80
 20
372.587
 30
0.000000
  70
    32
  0
VERTEX
  8
GAIKEI
  5
12230
 10
1626.84
 20
372.610
 30
0.000000
  70
    32
  0
VERTEX
  8
GAIKEI
  5
12231
 10
1626.88
 20
372.632
 30
0.000000
  70
    32
  0
VERTEX
  8
GAIKEI
  5
12232
 10
1626.92
 20
372.654
 30
0.000000
  70
    32
  0
VERTEX
  8
GAIKEI
  5
12233
 10
1626.96
 20
372.675
 30
0.000000
  70
    32
  0
VERTEX
  8
GAIKEI
  5
12234
 10
1627.00
 20
372.696
 30
0.000000
  70
    32
  0
VERTEX
  8
GAIKEI
  5
12235
 10
1627.04
 20
372.717
 30
0.000000
  70
    32
  0
VERTEX
  8
GAIKEI
  5
12236
 10
1627.09
 20
372.737
 30
0.000000
  70
    32
  0
VERTEX
  8
GAIKEI
  5
12237
 10
1627.13
 20
372.757
 30
0.000000
  70
    32
  0
VERTEX
  8
GAIKEI
  5
12238
 10
1627.17
 20
372.777
 30
0.000000
  70
    32
  0
VERTEX
  8
GAIKEI
  5
12239
 10
1627.21
 20
372.796
 30
0.000000
  70
    32
  0
VERTEX
  8
GAIKEI
  5
1223A
 10
1627.25
 20
372.814
 30
0.000000
  70
    32
  0
VERTEX
  8
GAIKEI
  5
1223B
 10
1627.30
 20
372.832
 30
0.000000
  70
    32
  0
VERTEX
  8
GAIKEI
  5
1223C
 10
1627.34
 20
372.850
 30
0.000000
  70
    32
  0
VERTEX
  8
GAIKEI
  5
1223D
 10
1627.39
 20
372.868
 30
0.000000
  70
    32
  0
VERTEX
  8
GAIKEI
  5
1223E
 10
1627.43
 20
372.885
 30
0.000000
  70
    32
  0
VERTEX
  8
GAIKEI
  5
1223F
 10
1627.47
 20
372.901
 30
0.000000
  70
    32
  0
VERTEX
  8
GAIKEI
  5
12240
 10
1627.52
 20
372.917
 30
0.000000
  70
    32
  0
VERTEX
  8
GAIKEI
  5
12241
 10
1627.56
 20
372.933
 30
0.000000
  70
    32
  0
VERTEX
  8
GAIKEI
  5
12242
 10
1627.61
 20
372.948
 30
0.000000
  70
    32
  0
VERTEX
  8
GAIKEI
  5
12243
 10
1627.65
 20
372.963
 30
0.000000
  70
    32
  0
VERTEX
  8
GAIKEI
  5
12244
 10
1627.70
 20
372.978
 30
0.000000
  70
    32
  0
VERTEX
  8
GAIKEI
  5
12245
 10
1627.74
 20
372.992
 30
0.000000
  70
    32
  0
VERTEX
  8
GAIKEI
  5
12246
 10
1627.79
 20
373.005
 30
0.000000
  70
    32
  0
VERTEX
  8
GAIKEI
  5
12247
 10
1627.84
 20
373.018
 30
0.000000
  70
    32
  0
VERTEX
  8
GAIKEI
  5
12248
 10
1627.88
 20
373.031
 30
0.000000
  70
    32
  0
VERTEX
  8
GAIKEI
  5
12249
 10
1627.93
 20
373.043
 30
0.000000
  70
    32
  0
VERTEX
  8
GAIKEI
  5
1224A
 10
1627.98
 20
373.055
 30
0.000000
  70
    32
  0
VERTEX
  8
GAIKEI
  5
1224B
 10
1628.02
 20
373.066
 30
0.000000
  70
    32
  0
VERTEX
  8
GAIKEI
  5
1224C
 10
1628.07
 20
373.077
 30
0.000000
  70
    32
  0
VERTEX
  8
GAIKEI
  5
1224D
 10
1628.12
 20
373.088
 30
0.000000
  70
    32
  0
VERTEX
  8
GAIKEI
  5
1224E
 10
1628.16
 20
373.097
 30
0.000000
  70
    32
  0
VERTEX
  8
GAIKEI
  5
1224F
 10
1628.21
 20
373.107
 30
0.000000
  70
    32
  0
VERTEX
  8
GAIKEI
  5
12250
 10
1628.26
 20
373.116
 30
0.000000
  70
    32
  0
VERTEX
  8
GAIKEI
  5
12251
 10
1628.31
 20
373.125
 30
0.000000
  70
    32
  0
VERTEX
  8
GAIKEI
  5
12252
 10
1628.36
 20
373.133
 30
0.000000
  70
    32
  0
VERTEX
  8
GAIKEI
  5
12253
 10
1628.40
 20
373.140
 30
0.000000
  70
    32
  0
VERTEX
  8
GAIKEI
  5
12254
 10
1628.45
 20
373.148
 30
0.000000
  70
    32
  0
VERTEX
  8
GAIKEI
  5
12255
 10
1628.50
 20
373.154
 30
0.000000
  70
    32
  0
VERTEX
  8
GAIKEI
  5
12256
 10
1628.55
 20
373.161
 30
0.000000
  70
    32
  0
VERTEX
  8
GAIKEI
  5
12257
 10
1628.60
 20
373.167
 30
0.000000
  70
    32
  0
VERTEX
  8
GAIKEI
  5
12258
 10
1628.65
 20
373.172
 30
0.000000
  70
    32
  0
VERTEX
  8
GAIKEI
  5
12259
 10
1628.69
 20
373.177
 30
0.000000
  70
    32
  0
VERTEX
  8
GAIKEI
  5
1225A
 10
1628.74
 20
373.181
 30
0.000000
  70
    32
  0
VERTEX
  8
GAIKEI
  5
1225B
 10
1628.79
 20
373.185
 30
0.000000
  70
    32
  0
VERTEX
  8
GAIKEI
  5
1225C
 10
1628.84
 20
373.189
 30
0.000000
  70
    32
  0
VERTEX
  8
GAIKEI
  5
1225D
 10
1628.89
 20
373.192
 30
0.000000
  70
    32
  0
VERTEX
  8
GAIKEI
  5
1225E
 10
1628.94
 20
373.194
 30
0.000000
  70
    32
  0
VERTEX
  8
GAIKEI
  5
1225F
 10
1628.99
 20
373.197
 30
0.000000
  70
    32
  0
VERTEX
  8
GAIKEI
  5
12260
 10
1629.04
 20
373.198
 30
0.000000
  70
    32
  0
VERTEX
  8
GAIKEI
  5
12261
 10
1629.09
 20
373.199
 30
0.000000
  70
    32
  0
VERTEX
  8
GAIKEI
  5
12262
 10
1629.13
 20
373.200
 30
0.000000
  70
    32
  0
VERTEX
  8
GAIKEI
  5
12263
 10
1629.18
 20
373.200
 30
0.000000
  70
    32
  0
SEQEND
  8
GAIKEI
  5
12264
  0
LINE
  5
F4E0
  8
GAIKEI
  6
CONTINUOUS
 10
1228.1844824685379
 20
373.20036050873949
 30
0.0
 11
1211.183505846423
 21
373.20036050873949
 31
0.0
  0
LINE
  5
F4E1
  8
GAIKEI
  6
CONTINUOUS
 10
1228.1844824685379
 20
366.94547185756909
 30
0.0
 11
1211.183505846423
 21
366.94547185756909
 31
0.0
  0
POLYLINE
  5
F4E2
  8
GAIKEI
  6
CONTINUOUS
 10
1211.1835058464239
 20
366.94547185756903
 30
0.0
 66
     1
 70
     8
  0
VERTEX
  8
GAIKEI
  5
12265
 10
1211.18
 20
366.945
 30
0.000000
  70
    32
  0
VERTEX
  8
GAIKEI
  5
12266
 10
1211.13
 20
366.946
 30
0.000000
  70
    32
  0
VERTEX
  8
GAIKEI
  5
12267
 10
1211.09
 20
366.946
 30
0.000000
  70
    32
  0
VERTEX
  8
GAIKEI
  5
12268
 10
1211.04
 20
366.948
 30
0.000000
  70
    32
  0
VERTEX
  8
GAIKEI
  5
12269
 10
1210.99
 20
366.949
 30
0.000000
  70
    32
  0
VERTEX
  8
GAIKEI
  5
1226A
 10
1210.94
 20
366.951
 30
0.000000
  70
    32
  0
VERTEX
  8
GAIKEI
  5
1226B
 10
1210.89
 20
366.954
 30
0.000000
  70
    32
  0
VERTEX
  8
GAIKEI
  5
1226C
 10
1210.84
 20
366.957
 30
0.000000
  70
    32
  0
VERTEX
  8
GAIKEI
  5
1226D
 10
1210.79
 20
366.961
 30
0.000000
  70
    32
  0
VERTEX
  8
GAIKEI
  5
1226E
 10
1210.74
 20
366.965
 30
0.000000
  70
    32
  0
VERTEX
  8
GAIKEI
  5
1226F
 10
1210.69
 20
366.969
 30
0.000000
  70
    32
  0
VERTEX
  8
GAIKEI
  5
12270
 10
1210.65
 20
366.974
 30
0.000000
  70
    32
  0
VERTEX
  8
GAIKEI
  5
12271
 10
1210.60
 20
366.979
 30
0.000000
  70
    32
  0
VERTEX
  8
GAIKEI
  5
12272
 10
1210.55
 20
366.985
 30
0.000000
  70
    32
  0
VERTEX
  8
GAIKEI
  5
12273
 10
1210.50
 20
366.992
 30
0.000000
  70
    32
  0
VERTEX
  8
GAIKEI
  5
12274
 10
1210.45
 20
366.999
 30
0.000000
  70
    32
  0
VERTEX
  8
GAIKEI
  5
12275
 10
1210.40
 20
367.006
 30
0.000000
  70
    32
  0
VERTEX
  8
GAIKEI
  5
12276
 10
1210.36
 20
367.014
 30
0.000000
  70
    32
  0
VERTEX
  8
GAIKEI
  5
12277
 10
1210.31
 20
367.022
 30
0.000000
  70
    32
  0
VERTEX
  8
GAIKEI
  5
12278
 10
1210.26
 20
367.030
 30
0.000000
  70
    32
  0
VERTEX
  8
GAIKEI
  5
12279
 10
1210.21
 20
367.040
 30
0.000000
  70
    32
  0
VERTEX
  8
GAIKEI
  5
1227A
 10
1210.16
 20
367.049
 30
0.000000
  70
    32
  0
VERTEX
  8
GAIKEI
  5
1227B
 10
1210.12
 20
367.059
 30
0.000000
  70
    32
  0
VERTEX
  8
GAIKEI
  5
1227C
 10
1210.07
 20
367.070
 30
0.000000
  70
    32
  0
VERTEX
  8
GAIKEI
  5
1227D
 10
1210.02
 20
367.081
 30
0.000000
  70
    32
  0
VERTEX
  8
GAIKEI
  5
1227E
 10
1209.98
 20
367.092
 30
0.000000
  70
    32
  0
VERTEX
  8
GAIKEI
  5
1227F
 10
1209.93
 20
367.104
 30
0.000000
  70
    32
  0
VERTEX
  8
GAIKEI
  5
12280
 10
1209.88
 20
367.116
 30
0.000000
  70
    32
  0
VERTEX
  8
GAIKEI
  5
12281
 10
1209.84
 20
367.129
 30
0.000000
  70
    32
  0
VERTEX
  8
GAIKEI
  5
12282
 10
1209.79
 20
367.142
 30
0.000000
  70
    32
  0
VERTEX
  8
GAIKEI
  5
12283
 10
1209.74
 20
367.156
 30
0.000000
  70
    32
  0
VERTEX
  8
GAIKEI
  5
12284
 10
1209.70
 20
367.170
 30
0.000000
  70
    32
  0
VERTEX
  8
GAIKEI
  5
12285
 10
1209.65
 20
367.184
 30
0.000000
  70
    32
  0
VERTEX
  8
GAIKEI
  5
12286
 10
1209.61
 20
367.199
 30
0.000000
  70
    32
  0
VERTEX
  8
GAIKEI
  5
12287
 10
1209.56
 20
367.215
 30
0.000000
  70
    32
  0
VERTEX
  8
GAIKEI
  5
12288
 10
1209.52
 20
367.231
 30
0.000000
  70
    32
  0
VERTEX
  8
GAIKEI
  5
12289
 10
1209.47
 20
367.247
 30
0.000000
  70
    32
  0
VERTEX
  8
GAIKEI
  5
1228A
 10
1209.43
 20
367.264
 30
0.000000
  70
    32
  0
VERTEX
  8
GAIKEI
  5
1228B
 10
1209.39
 20
367.281
 30
0.000000
  70
    32
  0
VERTEX
  8
GAIKEI
  5
1228C
 10
1209.34
 20
367.298
 30
0.000000
  70
    32
  0
VERTEX
  8
GAIKEI
  5
1228D
 10
1209.30
 20
367.316
 30
0.000000
  70
    32
  0
VERTEX
  8
GAIKEI
  5
1228E
 10
1209.25
 20
367.335
 30
0.000000
  70
    32
  0
VERTEX
  8
GAIKEI
  5
1228F
 10
1209.21
 20
367.353
 30
0.000000
  70
    32
  0
VERTEX
  8
GAIKEI
  5
12290
 10
1209.17
 20
367.373
 30
0.000000
  70
    32
  0
VERTEX
  8
GAIKEI
  5
12291
 10
1209.13
 20
367.392
 30
0.000000
  70
    32
  0
VERTEX
  8
GAIKEI
  5
12292
 10
1209.09
 20
367.412
 30
0.000000
  70
    32
  0
VERTEX
  8
GAIKEI
  5
12293
 10
1209.04
 20
367.433
 30
0.000000
  70
    32
  0
VERTEX
  8
GAIKEI
  5
12294
 10
1209.00
 20
367.453
 30
0.000000
  70
    32
  0
VERTEX
  8
GAIKEI
  5
12295
 10
1208.96
 20
367.475
 30
0.000000
  70
    32
  0
VERTEX
  8
GAIKEI
  5
12296
 10
1208.92
 20
367.496
 30
0.000000
  70
    32
  0
VERTEX
  8
GAIKEI
  5
12297
 10
1208.88
 20
367.518
 30
0.000000
  70
    32
  0
VERTEX
  8
GAIKEI
  5
12298
 10
1208.84
 20
367.541
 30
0.000000
  70
    32
  0
VERTEX
  8
GAIKEI
  5
12299
 10
1208.80
 20
367.563
 30
0.000000
  70
    32
  0
VERTEX
  8
GAIKEI
  5
1229A
 10
1208.76
 20
367.586
 30
0.000000
  70
    32
  0
VERTEX
  8
GAIKEI
  5
1229B
 10
1208.72
 20
367.610
 30
0.000000
  70
    32
  0
VERTEX
  8
GAIKEI
  5
1229C
 10
1208.68
 20
367.634
 30
0.000000
  70
    32
  0
VERTEX
  8
GAIKEI
  5
1229D
 10
1208.65
 20
367.658
 30
0.000000
  70
    32
  0
VERTEX
  8
GAIKEI
  5
1229E
 10
1208.61
 20
367.683
 30
0.000000
  70
    32
  0
VERTEX
  8
GAIKEI
  5
1229F
 10
1208.57
 20
367.708
 30
0.000000
  70
    32
  0
VERTEX
  8
GAIKEI
  5
122A0
 10
1208.53
 20
367.733
 30
0.000000
  70
    32
  0
VERTEX
  8
GAIKEI
  5
122A1
 10
1208.50
 20
367.759
 30
0.000000
  70
    32
  0
VERTEX
  8
GAIKEI
  5
122A2
 10
1208.46
 20
367.785
 30
0.000000
  70
    32
  0
VERTEX
  8
GAIKEI
  5
122A3
 10
1208.43
 20
367.811
 30
0.000000
  70
    32
  0
VERTEX
  8
GAIKEI
  5
122A4
 10
1208.39
 20
367.838
 30
0.000000
  70
    32
  0
VERTEX
  8
GAIKEI
  5
122A5
 10
1208.36
 20
367.865
 30
0.000000
  70
    32
  0
VERTEX
  8
GAIKEI
  5
122A6
 10
1208.32
 20
367.892
 30
0.000000
  70
    32
  0
VERTEX
  8
GAIKEI
  5
122A7
 10
1208.29
 20
367.920
 30
0.000000
  70
    32
  0
VERTEX
  8
GAIKEI
  5
122A8
 10
1208.25
 20
367.948
 30
0.000000
  70
    32
  0
VERTEX
  8
GAIKEI
  5
122A9
 10
1208.22
 20
367.977
 30
0.000000
  70
    32
  0
VERTEX
  8
GAIKEI
  5
122AA
 10
1208.19
 20
368.005
 30
0.000000
  70
    32
  0
VERTEX
  8
GAIKEI
  5
122AB
 10
1208.15
 20
368.034
 30
0.000000
  70
    32
  0
VERTEX
  8
GAIKEI
  5
122AC
 10
1208.12
 20
368.064
 30
0.000000
  70
    32
  0
VERTEX
  8
GAIKEI
  5
122AD
 10
1208.09
 20
368.093
 30
0.000000
  70
    32
  0
VERTEX
  8
GAIKEI
  5
122AE
 10
1208.06
 20
368.123
 30
0.000000
  70
    32
  0
VERTEX
  8
GAIKEI
  5
122AF
 10
1208.03
 20
368.153
 30
0.000000
  70
    32
  0
VERTEX
  8
GAIKEI
  5
122B0
 10
1208.00
 20
368.184
 30
0.000000
  70
    32
  0
VERTEX
  8
GAIKEI
  5
122B1
 10
1207.97
 20
368.215
 30
0.000000
  70
    32
  0
VERTEX
  8
GAIKEI
  5
122B2
 10
1207.94
 20
368.246
 30
0.000000
  70
    32
  0
VERTEX
  8
GAIKEI
  5
122B3
 10
1207.91
 20
368.277
 30
0.000000
  70
    32
  0
VERTEX
  8
GAIKEI
  5
122B4
 10
1207.89
 20
368.309
 30
0.000000
  70
    32
  0
VERTEX
  8
GAIKEI
  5
122B5
 10
1207.86
 20
368.341
 30
0.000000
  70
    32
  0
VERTEX
  8
GAIKEI
  5
122B6
 10
1207.83
 20
368.373
 30
0.000000
  70
    32
  0
VERTEX
  8
GAIKEI
  5
122B7
 10
1207.80
 20
368.405
 30
0.000000
  70
    32
  0
VERTEX
  8
GAIKEI
  5
122B8
 10
1207.78
 20
368.438
 30
0.000000
  70
    32
  0
VERTEX
  8
GAIKEI
  5
122B9
 10
1207.75
 20
368.471
 30
0.000000
  70
    32
  0
VERTEX
  8
GAIKEI
  5
122BA
 10
1207.73
 20
368.504
 30
0.000000
  70
    32
  0
VERTEX
  8
GAIKEI
  5
122BB
 10
1207.70
 20
368.537
 30
0.000000
  70
    32
  0
VERTEX
  8
GAIKEI
  5
122BC
 10
1207.68
 20
368.571
 30
0.000000
  70
    32
  0
VERTEX
  8
GAIKEI
  5
122BD
 10
1207.66
 20
368.605
 30
0.000000
  70
    32
  0
VERTEX
  8
GAIKEI
  5
122BE
 10
1207.63
 20
368.639
 30
0.000000
  70
    32
  0
VERTEX
  8
GAIKEI
  5
122BF
 10
1207.61
 20
368.673
 30
0.000000
  70
    32
  0
VERTEX
  8
GAIKEI
  5
122C0
 10
1207.59
 20
368.708
 30
0.000000
  70
    32
  0
VERTEX
  8
GAIKEI
  5
122C1
 10
1207.57
 20
368.743
 30
0.000000
  70
    32
  0
VERTEX
  8
GAIKEI
  5
122C2
 10
1207.55
 20
368.778
 30
0.000000
  70
    32
  0
VERTEX
  8
GAIKEI
  5
122C3
 10
1207.53
 20
368.813
 30
0.000000
  70
    32
  0
VERTEX
  8
GAIKEI
  5
122C4
 10
1207.51
 20
368.848
 30
0.000000
  70
    32
  0
VERTEX
  8
GAIKEI
  5
122C5
 10
1207.49
 20
368.883
 30
0.000000
  70
    32
  0
VERTEX
  8
GAIKEI
  5
122C6
 10
1207.47
 20
368.919
 30
0.000000
  70
    32
  0
VERTEX
  8
GAIKEI
  5
122C7
 10
1207.45
 20
368.955
 30
0.000000
  70
    32
  0
VERTEX
  8
GAIKEI
  5
122C8
 10
1207.43
 20
368.991
 30
0.000000
  70
    32
  0
VERTEX
  8
GAIKEI
  5
122C9
 10
1207.42
 20
369.027
 30
0.000000
  70
    32
  0
VERTEX
  8
GAIKEI
  5
122CA
 10
1207.40
 20
369.064
 30
0.000000
  70
    32
  0
VERTEX
  8
GAIKEI
  5
122CB
 10
1207.39
 20
369.100
 30
0.000000
  70
    32
  0
VERTEX
  8
GAIKEI
  5
122CC
 10
1207.37
 20
369.137
 30
0.000000
  70
    32
  0
VERTEX
  8
GAIKEI
  5
122CD
 10
1207.36
 20
369.174
 30
0.000000
  70
    32
  0
VERTEX
  8
GAIKEI
  5
122CE
 10
1207.34
 20
369.211
 30
0.000000
  70
    32
  0
VERTEX
  8
GAIKEI
  5
122CF
 10
1207.33
 20
369.248
 30
0.000000
  70
    32
  0
VERTEX
  8
GAIKEI
  5
122D0
 10
1207.32
 20
369.285
 30
0.000000
  70
    32
  0
VERTEX
  8
GAIKEI
  5
122D1
 10
1207.30
 20
369.322
 30
0.000000
  70
    32
  0
VERTEX
  8
GAIKEI
  5
122D2
 10
1207.29
 20
369.360
 30
0.000000
  70
    32
  0
VERTEX
  8
GAIKEI
  5
122D3
 10
1207.28
 20
369.397
 30
0.000000
  70
    32
  0
VERTEX
  8
GAIKEI
  5
122D4
 10
1207.27
 20
369.435
 30
0.000000
  70
    32
  0
VERTEX
  8
GAIKEI
  5
122D5
 10
1207.26
 20
369.472
 30
0.000000
  70
    32
  0
VERTEX
  8
GAIKEI
  5
122D6
 10
1207.25
 20
369.510
 30
0.000000
  70
    32
  0
VERTEX
  8
GAIKEI
  5
122D7
 10
1207.24
 20
369.548
 30
0.000000
  70
    32
  0
VERTEX
  8
GAIKEI
  5
122D8
 10
1207.23
 20
369.586
 30
0.000000
  70
    32
  0
VERTEX
  8
GAIKEI
  5
122D9
 10
1207.23
 20
369.624
 30
0.000000
  70
    32
  0
VERTEX
  8
GAIKEI
  5
122DA
 10
1207.22
 20
369.662
 30
0.000000
  70
    32
  0
VERTEX
  8
GAIKEI
  5
122DB
 10
1207.21
 20
369.701
 30
0.000000
  70
    32
  0
VERTEX
  8
GAIKEI
  5
122DC
 10
1207.21
 20
369.739
 30
0.000000
  70
    32
  0
VERTEX
  8
GAIKEI
  5
122DD
 10
1207.20
 20
369.777
 30
0.000000
  70
    32
  0
VERTEX
  8
GAIKEI
  5
122DE
 10
1207.20
 20
369.816
 30
0.000000
  70
    32
  0
VERTEX
  8
GAIKEI
  5
122DF
 10
1207.19
 20
369.854
 30
0.000000
  70
    32
  0
VERTEX
  8
GAIKEI
  5
122E0
 10
1207.19
 20
369.892
 30
0.000000
  70
    32
  0
VERTEX
  8
GAIKEI
  5
122E1
 10
1207.19
 20
369.931
 30
0.000000
  70
    32
  0
VERTEX
  8
GAIKEI
  5
122E2
 10
1207.19
 20
369.969
 30
0.000000
  70
    32
  0
VERTEX
  8
GAIKEI
  5
122E3
 10
1207.18
 20
370.008
 30
0.000000
  70
    32
  0
VERTEX
  8
GAIKEI
  5
122E4
 10
1207.18
 20
370.046
 30
0.000000
  70
    32
  0
VERTEX
  8
GAIKEI
  5
122E5
 10
1207.18
 20
370.085
 30
0.000000
  70
    32
  0
SEQEND
  8
GAIKEI
  5
122E6
  0
POLYLINE
  5
F4E3
  8
GAIKEI
  6
CONTINUOUS
 10
1207.1835058464239
 20
370.08489897551942
 30
0.0
 66
     1
 70
     8
  0
VERTEX
  8
GAIKEI
  5
122E7
 10
1207.18
 20
370.085
 30
0.000000
  70
    32
  0
VERTEX
  8
GAIKEI
  5
122E8
 10
1207.18
 20
370.123
 30
0.000000
  70
    32
  0
VERTEX
  8
GAIKEI
  5
122E9
 10
1207.18
 20
370.161
 30
0.000000
  70
    32
  0
VERTEX
  8
GAIKEI
  5
122EA
 10
1207.19
 20
370.200
 30
0.000000
  70
    32
  0
VERTEX
  8
GAIKEI
  5
122EB
 10
1207.19
 20
370.238
 30
0.000000
  70
    32
  0
VERTEX
  8
GAIKEI
  5
122EC
 10
1207.19
 20
370.276
 30
0.000000
  70
    32
  0
VERTEX
  8
GAIKEI
  5
122ED
 10
1207.19
 20
370.314
 30
0.000000
  70
    32
  0
VERTEX
  8
GAIKEI
  5
122EE
 10
1207.20
 20
370.352
 30
0.000000
  70
    32
  0
VERTEX
  8
GAIKEI
  5
122EF
 10
1207.20
 20
370.390
 30
0.000000
  70
    32
  0
VERTEX
  8
GAIKEI
  5
122F0
 10
1207.21
 20
370.428
 30
0.000000
  70
    32
  0
VERTEX
  8
GAIKEI
  5
122F1
 10
1207.21
 20
370.466
 30
0.000000
  70
    32
  0
VERTEX
  8
GAIKEI
  5
122F2
 10
1207.22
 20
370.504
 30
0.000000
  70
    32
  0
VERTEX
  8
GAIKEI
  5
122F3
 10
1207.23
 20
370.542
 30
0.000000
  70
    32
  0
VERTEX
  8
GAIKEI
  5
122F4
 10
1207.23
 20
370.580
 30
0.000000
  70
    32
  0
VERTEX
  8
GAIKEI
  5
122F5
 10
1207.24
 20
370.618
 30
0.000000
  70
    32
  0
VERTEX
  8
GAIKEI
  5
122F6
 10
1207.25
 20
370.655
 30
0.000000
  70
    32
  0
VERTEX
  8
GAIKEI
  5
122F7
 10
1207.26
 20
370.693
 30
0.000000
  70
    32
  0
VERTEX
  8
GAIKEI
  5
122F8
 10
1207.27
 20
370.730
 30
0.000000
  70
    32
  0
VERTEX
  8
GAIKEI
  5
122F9
 10
1207.28
 20
370.768
 30
0.000000
  70
    32
  0
VERTEX
  8
GAIKEI
  5
122FA
 10
1207.29
 20
370.805
 30
0.000000
  70
    32
  0
VERTEX
  8
GAIKEI
  5
122FB
 10
1207.30
 20
370.842
 30
0.000000
  70
    32
  0
VERTEX
  8
GAIKEI
  5
122FC
 10
1207.32
 20
370.879
 30
0.000000
  70
    32
  0
VERTEX
  8
GAIKEI
  5
122FD
 10
1207.33
 20
370.916
 30
0.000000
  70
    32
  0
VERTEX
  8
GAIKEI
  5
122FE
 10
1207.34
 20
370.953
 30
0.000000
  70
    32
  0
VERTEX
  8
GAIKEI
  5
122FF
 10
1207.36
 20
370.989
 30
0.000000
  70
    32
  0
VERTEX
  8
GAIKEI
  5
12300
 10
1207.37
 20
371.026
 30
0.000000
  70
    32
  0
VERTEX
  8
GAIKEI
  5
12301
 10
1207.39
 20
371.062
 30
0.000000
  70
    32
  0
VERTEX
  8
GAIKEI
  5
12302
 10
1207.40
 20
371.098
 30
0.000000
  70
    32
  0
VERTEX
  8
GAIKEI
  5
12303
 10
1207.42
 20
371.134
 30
0.000000
  70
    32
  0
VERTEX
  8
GAIKEI
  5
12304
 10
1207.43
 20
371.170
 30
0.000000
  70
    32
  0
VERTEX
  8
GAIKEI
  5
12305
 10
1207.45
 20
371.206
 30
0.000000
  70
    32
  0
VERTEX
  8
GAIKEI
  5
12306
 10
1207.47
 20
371.242
 30
0.000000
  70
    32
  0
VERTEX
  8
GAIKEI
  5
12307
 10
1207.49
 20
371.277
 30
0.000000
  70
    32
  0
VERTEX
  8
GAIKEI
  5
12308
 10
1207.51
 20
371.312
 30
0.000000
  70
    32
  0
VERTEX
  8
GAIKEI
  5
12309
 10
1207.53
 20
371.347
 30
0.000000
  70
    32
  0
VERTEX
  8
GAIKEI
  5
1230A
 10
1207.55
 20
371.382
 30
0.000000
  70
    32
  0
VERTEX
  8
GAIKEI
  5
1230B
 10
1207.57
 20
371.417
 30
0.000000
  70
    32
  0
VERTEX
  8
GAIKEI
  5
1230C
 10
1207.59
 20
371.451
 30
0.000000
  70
    32
  0
VERTEX
  8
GAIKEI
  5
1230D
 10
1207.61
 20
371.486
 30
0.000000
  70
    32
  0
VERTEX
  8
GAIKEI
  5
1230E
 10
1207.63
 20
371.520
 30
0.000000
  70
    32
  0
VERTEX
  8
GAIKEI
  5
1230F
 10
1207.66
 20
371.554
 30
0.000000
  70
    32
  0
VERTEX
  8
GAIKEI
  5
12310
 10
1207.68
 20
371.587
 30
0.000000
  70
    32
  0
VERTEX
  8
GAIKEI
  5
12311
 10
1207.70
 20
371.621
 30
0.000000
  70
    32
  0
VERTEX
  8
GAIKEI
  5
12312
 10
1207.73
 20
371.654
 30
0.000000
  70
    32
  0
VERTEX
  8
GAIKEI
  5
12313
 10
1207.75
 20
371.687
 30
0.000000
  70
    32
  0
VERTEX
  8
GAIKEI
  5
12314
 10
1207.78
 20
371.719
 30
0.000000
  70
    32
  0
VERTEX
  8
GAIKEI
  5
12315
 10
1207.80
 20
371.752
 30
0.000000
  70
    32
  0
VERTEX
  8
GAIKEI
  5
12316
 10
1207.83
 20
371.784
 30
0.000000
  70
    32
  0
VERTEX
  8
GAIKEI
  5
12317
 10
1207.86
 20
371.816
 30
0.000000
  70
    32
  0
VERTEX
  8
GAIKEI
  5
12318
 10
1207.89
 20
371.847
 30
0.000000
  70
    32
  0
VERTEX
  8
GAIKEI
  5
12319
 10
1207.91
 20
371.879
 30
0.000000
  70
    32
  0
VERTEX
  8
GAIKEI
  5
1231A
 10
1207.94
 20
371.910
 30
0.000000
  70
    32
  0
VERTEX
  8
GAIKEI
  5
1231B
 10
1207.97
 20
371.941
 30
0.000000
  70
    32
  0
VERTEX
  8
GAIKEI
  5
1231C
 10
1208.00
 20
371.971
 30
0.000000
  70
    32
  0
VERTEX
  8
GAIKEI
  5
1231D
 10
1208.03
 20
372.002
 30
0.000000
  70
    32
  0
VERTEX
  8
GAIKEI
  5
1231E
 10
1208.06
 20
372.032
 30
0.000000
  70
    32
  0
VERTEX
  8
GAIKEI
  5
1231F
 10
1208.09
 20
372.061
 30
0.000000
  70
    32
  0
VERTEX
  8
GAIKEI
  5
12320
 10
1208.12
 20
372.091
 30
0.000000
  70
    32
  0
VERTEX
  8
GAIKEI
  5
12321
 10
1208.15
 20
372.120
 30
0.000000
  70
    32
  0
VERTEX
  8
GAIKEI
  5
12322
 10
1208.19
 20
372.149
 30
0.000000
  70
    32
  0
VERTEX
  8
GAIKEI
  5
12323
 10
1208.22
 20
372.177
 30
0.000000
  70
    32
  0
VERTEX
  8
GAIKEI
  5
12324
 10
1208.25
 20
372.205
 30
0.000000
  70
    32
  0
VERTEX
  8
GAIKEI
  5
12325
 10
1208.29
 20
372.233
 30
0.000000
  70
    32
  0
VERTEX
  8
GAIKEI
  5
12326
 10
1208.32
 20
372.261
 30
0.000000
  70
    32
  0
VERTEX
  8
GAIKEI
  5
12327
 10
1208.36
 20
372.288
 30
0.000000
  70
    32
  0
VERTEX
  8
GAIKEI
  5
12328
 10
1208.39
 20
372.315
 30
0.000000
  70
    32
  0
VERTEX
  8
GAIKEI
  5
12329
 10
1208.43
 20
372.341
 30
0.000000
  70
    32
  0
VERTEX
  8
GAIKEI
  5
1232A
 10
1208.46
 20
372.367
 30
0.000000
  70
    32
  0
VERTEX
  8
GAIKEI
  5
1232B
 10
1208.50
 20
372.393
 30
0.000000
  70
    32
  0
VERTEX
  8
GAIKEI
  5
1232C
 10
1208.53
 20
372.419
 30
0.000000
  70
    32
  0
VERTEX
  8
GAIKEI
  5
1232D
 10
1208.57
 20
372.444
 30
0.000000
  70
    32
  0
VERTEX
  8
GAIKEI
  5
1232E
 10
1208.61
 20
372.469
 30
0.000000
  70
    32
  0
VERTEX
  8
GAIKEI
  5
1232F
 10
1208.65
 20
372.493
 30
0.000000
  70
    32
  0
VERTEX
  8
GAIKEI
  5
12330
 10
1208.68
 20
372.517
 30
0.000000
  70
    32
  0
VERTEX
  8
GAIKEI
  5
12331
 10
1208.72
 20
372.541
 30
0.000000
  70
    32
  0
VERTEX
  8
GAIKEI
  5
12332
 10
1208.76
 20
372.564
 30
0.000000
  70
    32
  0
VERTEX
  8
GAIKEI
  5
12333
 10
1208.80
 20
372.587
 30
0.000000
  70
    32
  0
VERTEX
  8
GAIKEI
  5
12334
 10
1208.84
 20
372.610
 30
0.000000
  70
    32
  0
VERTEX
  8
GAIKEI
  5
12335
 10
1208.88
 20
372.632
 30
0.000000
  70
    32
  0
VERTEX
  8
GAIKEI
  5
12336
 10
1208.92
 20
372.654
 30
0.000000
  70
    32
  0
VERTEX
  8
GAIKEI
  5
12337
 10
1208.96
 20
372.675
 30
0.000000
  70
    32
  0
VERTEX
  8
GAIKEI
  5
12338
 10
1209.00
 20
372.696
 30
0.000000
  70
    32
  0
VERTEX
  8
GAIKEI
  5
12339
 10
1209.04
 20
372.717
 30
0.000000
  70
    32
  0
VERTEX
  8
GAIKEI
  5
1233A
 10
1209.09
 20
372.737
 30
0.000000
  70
    32
  0
VERTEX
  8
GAIKEI
  5
1233B
 10
1209.13
 20
372.757
 30
0.000000
  70
    32
  0
VERTEX
  8
GAIKEI
  5
1233C
 10
1209.17
 20
372.777
 30
0.000000
  70
    32
  0
VERTEX
  8
GAIKEI
  5
1233D
 10
1209.21
 20
372.796
 30
0.000000
  70
    32
  0
VERTEX
  8
GAIKEI
  5
1233E
 10
1209.25
 20
372.814
 30
0.000000
  70
    32
  0
VERTEX
  8
GAIKEI
  5
1233F
 10
1209.30
 20
372.832
 30
0.000000
  70
    32
  0
VERTEX
  8
GAIKEI
  5
12340
 10
1209.34
 20
372.850
 30
0.000000
  70
    32
  0
VERTEX
  8
GAIKEI
  5
12341
 10
1209.39
 20
372.868
 30
0.000000
  70
    32
  0
VERTEX
  8
GAIKEI
  5
12342
 10
1209.43
 20
372.885
 30
0.000000
  70
    32
  0
VERTEX
  8
GAIKEI
  5
12343
 10
1209.47
 20
372.901
 30
0.000000
  70
    32
  0
VERTEX
  8
GAIKEI
  5
12344
 10
1209.52
 20
372.917
 30
0.000000
  70
    32
  0
VERTEX
  8
GAIKEI
  5
12345
 10
1209.56
 20
372.933
 30
0.000000
  70
    32
  0
VERTEX
  8
GAIKEI
  5
12346
 10
1209.61
 20
372.948
 30
0.000000
  70
    32
  0
VERTEX
  8
GAIKEI
  5
12347
 10
1209.65
 20
372.963
 30
0.000000
  70
    32
  0
VERTEX
  8
GAIKEI
  5
12348
 10
1209.70
 20
372.978
 30
0.000000
  70
    32
  0
VERTEX
  8
GAIKEI
  5
12349
 10
1209.74
 20
372.992
 30
0.000000
  70
    32
  0
VERTEX
  8
GAIKEI
  5
1234A
 10
1209.79
 20
373.005
 30
0.000000
  70
    32
  0
VERTEX
  8
GAIKEI
  5
1234B
 10
1209.84
 20
373.018
 30
0.000000
  70
    32
  0
VERTEX
  8
GAIKEI
  5
1234C
 10
1209.88
 20
373.031
 30
0.000000
  70
    32
  0
VERTEX
  8
GAIKEI
  5
1234D
 10
1209.93
 20
373.043
 30
0.000000
  70
    32
  0
VERTEX
  8
GAIKEI
  5
1234E
 10
1209.98
 20
373.055
 30
0.000000
  70
    32
  0
VERTEX
  8
GAIKEI
  5
1234F
 10
1210.02
 20
373.066
 30
0.000000
  70
    32
  0
VERTEX
  8
GAIKEI
  5
12350
 10
1210.07
 20
373.077
 30
0.000000
  70
    32
  0
VERTEX
  8
GAIKEI
  5
12351
 10
1210.12
 20
373.088
 30
0.000000
  70
    32
  0
VERTEX
  8
GAIKEI
  5
12352
 10
1210.16
 20
373.097
 30
0.000000
  70
    32
  0
VERTEX
  8
GAIKEI
  5
12353
 10
1210.21
 20
373.107
 30
0.000000
  70
    32
  0
VERTEX
  8
GAIKEI
  5
12354
 10
1210.26
 20
373.116
 30
0.000000
  70
    32
  0
VERTEX
  8
GAIKEI
  5
12355
 10
1210.31
 20
373.125
 30
0.000000
  70
    32
  0
VERTEX
  8
GAIKEI
  5
12356
 10
1210.36
 20
373.133
 30
0.000000
  70
    32
  0
VERTEX
  8
GAIKEI
  5
12357
 10
1210.40
 20
373.140
 30
0.000000
  70
    32
  0
VERTEX
  8
GAIKEI
  5
12358
 10
1210.45
 20
373.148
 30
0.000000
  70
    32
  0
VERTEX
  8
GAIKEI
  5
12359
 10
1210.50
 20
373.154
 30
0.000000
  70
    32
  0
VERTEX
  8
GAIKEI
  5
1235A
 10
1210.55
 20
373.161
 30
0.000000
  70
    32
  0
VERTEX
  8
GAIKEI
  5
1235B
 10
1210.60
 20
373.167
 30
0.000000
  70
    32
  0
VERTEX
  8
GAIKEI
  5
1235C
 10
1210.65
 20
373.172
 30
0.000000
  70
    32
  0
VERTEX
  8
GAIKEI
  5
1235D
 10
1210.69
 20
373.177
 30
0.000000
  70
    32
  0
VERTEX
  8
GAIKEI
  5
1235E
 10
1210.74
 20
373.181
 30
0.000000
  70
    32
  0
VERTEX
  8
GAIKEI
  5
1235F
 10
1210.79
 20
373.185
 30
0.000000
  70
    32
  0
VERTEX
  8
GAIKEI
  5
12360
 10
1210.84
 20
373.189
 30
0.000000
  70
    32
  0
VERTEX
  8
GAIKEI
  5
12361
 10
1210.89
 20
373.192
 30
0.000000
  70
    32
  0
VERTEX
  8
GAIKEI
  5
12362
 10
1210.94
 20
373.194
 30
0.000000
  70
    32
  0
VERTEX
  8
GAIKEI
  5
12363
 10
1210.99
 20
373.197
 30
0.000000
  70
    32
  0
VERTEX
  8
GAIKEI
  5
12364
 10
1211.04
 20
373.198
 30
0.000000
  70
    32
  0
VERTEX
  8
GAIKEI
  5
12365
 10
1211.09
 20
373.199
 30
0.000000
  70
    32
  0
VERTEX
  8
GAIKEI
  5
12366
 10
1211.13
 20
373.200
 30
0.000000
  70
    32
  0
VERTEX
  8
GAIKEI
  5
12367
 10
1211.18
 20
373.200
 30
0.000000
  70
    32
  0
SEQEND
  8
GAIKEI
  5
12368
  0
POLYLINE
  5
F4E4
  8
GAIKEI
  6
CONTINUOUS
 10
1228.1844824685361
 20
366.94547185756903
 30
0.0
 66
     1
 70
     8
  0
VERTEX
  8
GAIKEI
  5
12369
 10
1228.18
 20
366.945
 30
0.000000
  70
    32
  0
VERTEX
  8
GAIKEI
  5
1236A
 10
1228.23
 20
366.946
 30
0.000000
  70
    32
  0
VERTEX
  8
GAIKEI
  5
1236B
 10
1228.28
 20
366.946
 30
0.000000
  70
    32
  0
VERTEX
  8
GAIKEI
  5
1236C
 10
1228.33
 20
366.948
 30
0.000000
  70
    32
  0
VERTEX
  8
GAIKEI
  5
1236D
 10
1228.38
 20
366.949
 30
0.000000
  70
    32
  0
VERTEX
  8
GAIKEI
  5
1236E
 10
1228.43
 20
366.951
 30
0.000000
  70
    32
  0
VERTEX
  8
GAIKEI
  5
1236F
 10
1228.48
 20
366.954
 30
0.000000
  70
    32
  0
VERTEX
  8
GAIKEI
  5
12370
 10
1228.53
 20
366.957
 30
0.000000
  70
    32
  0
VERTEX
  8
GAIKEI
  5
12371
 10
1228.58
 20
366.961
 30
0.000000
  70
    32
  0
VERTEX
  8
GAIKEI
  5
12372
 10
1228.63
 20
366.965
 30
0.000000
  70
    32
  0
VERTEX
  8
GAIKEI
  5
12373
 10
1228.67
 20
366.969
 30
0.000000
  70
    32
  0
VERTEX
  8
GAIKEI
  5
12374
 10
1228.72
 20
366.974
 30
0.000000
  70
    32
  0
VERTEX
  8
GAIKEI
  5
12375
 10
1228.77
 20
366.979
 30
0.000000
  70
    32
  0
VERTEX
  8
GAIKEI
  5
12376
 10
1228.82
 20
366.985
 30
0.000000
  70
    32
  0
VERTEX
  8
GAIKEI
  5
12377
 10
1228.87
 20
366.992
 30
0.000000
  70
    32
  0
VERTEX
  8
GAIKEI
  5
12378
 10
1228.92
 20
366.999
 30
0.000000
  70
    32
  0
VERTEX
  8
GAIKEI
  5
12379
 10
1228.96
 20
367.006
 30
0.000000
  70
    32
  0
VERTEX
  8
GAIKEI
  5
1237A
 10
1229.01
 20
367.014
 30
0.000000
  70
    32
  0
VERTEX
  8
GAIKEI
  5
1237B
 10
1229.06
 20
367.022
 30
0.000000
  70
    32
  0
VERTEX
  8
GAIKEI
  5
1237C
 10
1229.11
 20
367.030
 30
0.000000
  70
    32
  0
VERTEX
  8
GAIKEI
  5
1237D
 10
1229.16
 20
367.040
 30
0.000000
  70
    32
  0
VERTEX
  8
GAIKEI
  5
1237E
 10
1229.20
 20
367.049
 30
0.000000
  70
    32
  0
VERTEX
  8
GAIKEI
  5
1237F
 10
1229.25
 20
367.059
 30
0.000000
  70
    32
  0
VERTEX
  8
GAIKEI
  5
12380
 10
1229.30
 20
367.070
 30
0.000000
  70
    32
  0
VERTEX
  8
GAIKEI
  5
12381
 10
1229.35
 20
367.081
 30
0.000000
  70
    32
  0
VERTEX
  8
GAIKEI
  5
12382
 10
1229.39
 20
367.092
 30
0.000000
  70
    32
  0
VERTEX
  8
GAIKEI
  5
12383
 10
1229.44
 20
367.104
 30
0.000000
  70
    32
  0
VERTEX
  8
GAIKEI
  5
12384
 10
1229.49
 20
367.116
 30
0.000000
  70
    32
  0
VERTEX
  8
GAIKEI
  5
12385
 10
1229.53
 20
367.129
 30
0.000000
  70
    32
  0
VERTEX
  8
GAIKEI
  5
12386
 10
1229.58
 20
367.142
 30
0.000000
  70
    32
  0
VERTEX
  8
GAIKEI
  5
12387
 10
1229.62
 20
367.156
 30
0.000000
  70
    32
  0
VERTEX
  8
GAIKEI
  5
12388
 10
1229.67
 20
367.170
 30
0.000000
  70
    32
  0
VERTEX
  8
GAIKEI
  5
12389
 10
1229.72
 20
367.184
 30
0.000000
  70
    32
  0
VERTEX
  8
GAIKEI
  5
1238A
 10
1229.76
 20
367.199
 30
0.000000
  70
    32
  0
VERTEX
  8
GAIKEI
  5
1238B
 10
1229.81
 20
367.215
 30
0.000000
  70
    32
  0
VERTEX
  8
GAIKEI
  5
1238C
 10
1229.85
 20
367.231
 30
0.000000
  70
    32
  0
VERTEX
  8
GAIKEI
  5
1238D
 10
1229.89
 20
367.247
 30
0.000000
  70
    32
  0
VERTEX
  8
GAIKEI
  5
1238E
 10
1229.94
 20
367.264
 30
0.000000
  70
    32
  0
VERTEX
  8
GAIKEI
  5
1238F
 10
1229.98
 20
367.281
 30
0.000000
  70
    32
  0
VERTEX
  8
GAIKEI
  5
12390
 10
1230.03
 20
367.298
 30
0.000000
  70
    32
  0
VERTEX
  8
GAIKEI
  5
12391
 10
1230.07
 20
367.316
 30
0.000000
  70
    32
  0
VERTEX
  8
GAIKEI
  5
12392
 10
1230.11
 20
367.335
 30
0.000000
  70
    32
  0
VERTEX
  8
GAIKEI
  5
12393
 10
1230.16
 20
367.353
 30
0.000000
  70
    32
  0
VERTEX
  8
GAIKEI
  5
12394
 10
1230.20
 20
367.373
 30
0.000000
  70
    32
  0
VERTEX
  8
GAIKEI
  5
12395
 10
1230.24
 20
367.392
 30
0.000000
  70
    32
  0
VERTEX
  8
GAIKEI
  5
12396
 10
1230.28
 20
367.412
 30
0.000000
  70
    32
  0
VERTEX
  8
GAIKEI
  5
12397
 10
1230.32
 20
367.433
 30
0.000000
  70
    32
  0
VERTEX
  8
GAIKEI
  5
12398
 10
1230.37
 20
367.453
 30
0.000000
  70
    32
  0
VERTEX
  8
GAIKEI
  5
12399
 10
1230.41
 20
367.475
 30
0.000000
  70
    32
  0
VERTEX
  8
GAIKEI
  5
1239A
 10
1230.45
 20
367.496
 30
0.000000
  70
    32
  0
VERTEX
  8
GAIKEI
  5
1239B
 10
1230.49
 20
367.518
 30
0.000000
  70
    32
  0
VERTEX
  8
GAIKEI
  5
1239C
 10
1230.53
 20
367.541
 30
0.000000
  70
    32
  0
VERTEX
  8
GAIKEI
  5
1239D
 10
1230.57
 20
367.563
 30
0.000000
  70
    32
  0
VERTEX
  8
GAIKEI
  5
1239E
 10
1230.61
 20
367.586
 30
0.000000
  70
    32
  0
VERTEX
  8
GAIKEI
  5
1239F
 10
1230.65
 20
367.610
 30
0.000000
  70
    32
  0
VERTEX
  8
GAIKEI
  5
123A0
 10
1230.68
 20
367.634
 30
0.000000
  70
    32
  0
VERTEX
  8
GAIKEI
  5
123A1
 10
1230.72
 20
367.658
 30
0.000000
  70
    32
  0
VERTEX
  8
GAIKEI
  5
123A2
 10
1230.76
 20
367.683
 30
0.000000
  70
    32
  0
VERTEX
  8
GAIKEI
  5
123A3
 10
1230.80
 20
367.708
 30
0.000000
  70
    32
  0
VERTEX
  8
GAIKEI
  5
123A4
 10
1230.83
 20
367.733
 30
0.000000
  70
    32
  0
VERTEX
  8
GAIKEI
  5
123A5
 10
1230.87
 20
367.759
 30
0.000000
  70
    32
  0
VERTEX
  8
GAIKEI
  5
123A6
 10
1230.91
 20
367.785
 30
0.000000
  70
    32
  0
VERTEX
  8
GAIKEI
  5
123A7
 10
1230.94
 20
367.811
 30
0.000000
  70
    32
  0
VERTEX
  8
GAIKEI
  5
123A8
 10
1230.98
 20
367.838
 30
0.000000
  70
    32
  0
VERTEX
  8
GAIKEI
  5
123A9
 10
1231.01
 20
367.865
 30
0.000000
  70
    32
  0
VERTEX
  8
GAIKEI
  5
123AA
 10
1231.05
 20
367.892
 30
0.000000
  70
    32
  0
VERTEX
  8
GAIKEI
  5
123AB
 10
1231.08
 20
367.920
 30
0.000000
  70
    32
  0
VERTEX
  8
GAIKEI
  5
123AC
 10
1231.12
 20
367.948
 30
0.000000
  70
    32
  0
VERTEX
  8
GAIKEI
  5
123AD
 10
1231.15
 20
367.977
 30
0.000000
  70
    32
  0
VERTEX
  8
GAIKEI
  5
123AE
 10
1231.18
 20
368.005
 30
0.000000
  70
    32
  0
VERTEX
  8
GAIKEI
  5
123AF
 10
1231.21
 20
368.034
 30
0.000000
  70
    32
  0
VERTEX
  8
GAIKEI
  5
123B0
 10
1231.25
 20
368.064
 30
0.000000
  70
    32
  0
VERTEX
  8
GAIKEI
  5
123B1
 10
1231.28
 20
368.093
 30
0.000000
  70
    32
  0
VERTEX
  8
GAIKEI
  5
123B2
 10
1231.31
 20
368.123
 30
0.000000
  70
    32
  0
VERTEX
  8
GAIKEI
  5
123B3
 10
1231.34
 20
368.153
 30
0.000000
  70
    32
  0
VERTEX
  8
GAIKEI
  5
123B4
 10
1231.37
 20
368.184
 30
0.000000
  70
    32
  0
VERTEX
  8
GAIKEI
  5
123B5
 10
1231.40
 20
368.215
 30
0.000000
  70
    32
  0
VERTEX
  8
GAIKEI
  5
123B6
 10
1231.43
 20
368.246
 30
0.000000
  70
    32
  0
VERTEX
  8
GAIKEI
  5
123B7
 10
1231.45
 20
368.277
 30
0.000000
  70
    32
  0
VERTEX
  8
GAIKEI
  5
123B8
 10
1231.48
 20
368.309
 30
0.000000
  70
    32
  0
VERTEX
  8
GAIKEI
  5
123B9
 10
1231.51
 20
368.341
 30
0.000000
  70
    32
  0
VERTEX
  8
GAIKEI
  5
123BA
 10
1231.54
 20
368.373
 30
0.000000
  70
    32
  0
VERTEX
  8
GAIKEI
  5
123BB
 10
1231.56
 20
368.405
 30
0.000000
  70
    32
  0
VERTEX
  8
GAIKEI
  5
123BC
 10
1231.59
 20
368.438
 30
0.000000
  70
    32
  0
VERTEX
  8
GAIKEI
  5
123BD
 10
1231.62
 20
368.471
 30
0.000000
  70
    32
  0
VERTEX
  8
GAIKEI
  5
123BE
 10
1231.64
 20
368.504
 30
0.000000
  70
    32
  0
VERTEX
  8
GAIKEI
  5
123BF
 10
1231.66
 20
368.537
 30
0.000000
  70
    32
  0
VERTEX
  8
GAIKEI
  5
123C0
 10
1231.69
 20
368.571
 30
0.000000
  70
    32
  0
VERTEX
  8
GAIKEI
  5
123C1
 10
1231.71
 20
368.605
 30
0.000000
  70
    32
  0
VERTEX
  8
GAIKEI
  5
123C2
 10
1231.74
 20
368.639
 30
0.000000
  70
    32
  0
VERTEX
  8
GAIKEI
  5
123C3
 10
1231.76
 20
368.673
 30
0.000000
  70
    32
  0
VERTEX
  8
GAIKEI
  5
123C4
 10
1231.78
 20
368.708
 30
0.000000
  70
    32
  0
VERTEX
  8
GAIKEI
  5
123C5
 10
1231.80
 20
368.743
 30
0.000000
  70
    32
  0
VERTEX
  8
GAIKEI
  5
123C6
 10
1231.82
 20
368.778
 30
0.000000
  70
    32
  0
VERTEX
  8
GAIKEI
  5
123C7
 10
1231.84
 20
368.813
 30
0.000000
  70
    32
  0
VERTEX
  8
GAIKEI
  5
123C8
 10
1231.86
 20
368.848
 30
0.000000
  70
    32
  0
VERTEX
  8
GAIKEI
  5
123C9
 10
1231.88
 20
368.883
 30
0.000000
  70
    32
  0
VERTEX
  8
GAIKEI
  5
123CA
 10
1231.90
 20
368.919
 30
0.000000
  70
    32
  0
VERTEX
  8
GAIKEI
  5
123CB
 10
1231.92
 20
368.955
 30
0.000000
  70
    32
  0
VERTEX
  8
GAIKEI
  5
123CC
 10
1231.93
 20
368.991
 30
0.000000
  70
    32
  0
VERTEX
  8
GAIKEI
  5
123CD
 10
1231.95
 20
369.027
 30
0.000000
  70
    32
  0
VERTEX
  8
GAIKEI
  5
123CE
 10
1231.97
 20
369.064
 30
0.000000
  70
    32
  0
VERTEX
  8
GAIKEI
  5
123CF
 10
1231.98
 20
369.100
 30
0.000000
  70
    32
  0
VERTEX
  8
GAIKEI
  5
123D0
 10
1232.00
 20
369.137
 30
0.000000
  70
    32
  0
VERTEX
  8
GAIKEI
  5
123D1
 10
1232.01
 20
369.174
 30
0.000000
  70
    32
  0
VERTEX
  8
GAIKEI
  5
123D2
 10
1232.03
 20
369.211
 30
0.000000
  70
    32
  0
VERTEX
  8
GAIKEI
  5
123D3
 10
1232.04
 20
369.248
 30
0.000000
  70
    32
  0
VERTEX
  8
GAIKEI
  5
123D4
 10
1232.05
 20
369.285
 30
0.000000
  70
    32
  0
VERTEX
  8
GAIKEI
  5
123D5
 10
1232.06
 20
369.322
 30
0.000000
  70
    32
  0
VERTEX
  8
GAIKEI
  5
123D6
 10
1232.08
 20
369.360
 30
0.000000
  70
    32
  0
VERTEX
  8
GAIKEI
  5
123D7
 10
1232.09
 20
369.397
 30
0.000000
  70
    32
  0
VERTEX
  8
GAIKEI
  5
123D8
 10
1232.10
 20
369.435
 30
0.000000
  70
    32
  0
VERTEX
  8
GAIKEI
  5
123D9
 10
1232.11
 20
369.472
 30
0.000000
  70
    32
  0
VERTEX
  8
GAIKEI
  5
123DA
 10
1232.12
 20
369.510
 30
0.000000
  70
    32
  0
VERTEX
  8
GAIKEI
  5
123DB
 10
1232.13
 20
369.548
 30
0.000000
  70
    32
  0
VERTEX
  8
GAIKEI
  5
123DC
 10
1232.13
 20
369.586
 30
0.000000
  70
    32
  0
VERTEX
  8
GAIKEI
  5
123DD
 10
1232.14
 20
369.624
 30
0.000000
  70
    32
  0
VERTEX
  8
GAIKEI
  5
123DE
 10
1232.15
 20
369.662
 30
0.000000
  70
    32
  0
VERTEX
  8
GAIKEI
  5
123DF
 10
1232.15
 20
369.701
 30
0.000000
  70
    32
  0
VERTEX
  8
GAIKEI
  5
123E0
 10
1232.16
 20
369.739
 30
0.000000
  70
    32
  0
VERTEX
  8
GAIKEI
  5
123E1
 10
1232.17
 20
369.777
 30
0.000000
  70
    32
  0
VERTEX
  8
GAIKEI
  5
123E2
 10
1232.17
 20
369.816
 30
0.000000
  70
    32
  0
VERTEX
  8
GAIKEI
  5
123E3
 10
1232.17
 20
369.854
 30
0.000000
  70
    32
  0
VERTEX
  8
GAIKEI
  5
123E4
 10
1232.18
 20
369.892
 30
0.000000
  70
    32
  0
VERTEX
  8
GAIKEI
  5
123E5
 10
1232.18
 20
369.931
 30
0.000000
  70
    32
  0
VERTEX
  8
GAIKEI
  5
123E6
 10
1232.18
 20
369.969
 30
0.000000
  70
    32
  0
VERTEX
  8
GAIKEI
  5
123E7
 10
1232.18
 20
370.008
 30
0.000000
  70
    32
  0
VERTEX
  8
GAIKEI
  5
123E8
 10
1232.18
 20
370.046
 30
0.000000
  70
    32
  0
VERTEX
  8
GAIKEI
  5
123E9
 10
1232.18
 20
370.085
 30
0.000000
  70
    32
  0
SEQEND
  8
GAIKEI
  5
123EA
  0
POLYLINE
  5
F4E5
  8
GAIKEI
  6
CONTINUOUS
 10
1232.1844824685361
 20
370.08489897551942
 30
0.0
 66
     1
 70
     8
  0
VERTEX
  8
GAIKEI
  5
123EB
 10
1232.18
 20
370.085
 30
0.000000
  70
    32
  0
VERTEX
  8
GAIKEI
  5
123EC
 10
1232.18
 20
370.123
 30
0.000000
  70
    32
  0
VERTEX
  8
GAIKEI
  5
123ED
 10
1232.18
 20
370.161
 30
0.000000
  70
    32
  0
VERTEX
  8
GAIKEI
  5
123EE
 10
1232.18
 20
370.200
 30
0.000000
  70
    32
  0
VERTEX
  8
GAIKEI
  5
123EF
 10
1232.18
 20
370.238
 30
0.000000
  70
    32
  0
VERTEX
  8
GAIKEI
  5
123F0
 10
1232.18
 20
370.276
 30
0.000000
  70
    32
  0
VERTEX
  8
GAIKEI
  5
123F1
 10
1232.17
 20
370.314
 30
0.000000
  70
    32
  0
VERTEX
  8
GAIKEI
  5
123F2
 10
1232.17
 20
370.352
 30
0.000000
  70
    32
  0
VERTEX
  8
GAIKEI
  5
123F3
 10
1232.17
 20
370.390
 30
0.000000
  70
    32
  0
VERTEX
  8
GAIKEI
  5
123F4
 10
1232.16
 20
370.428
 30
0.000000
  70
    32
  0
VERTEX
  8
GAIKEI
  5
123F5
 10
1232.15
 20
370.466
 30
0.000000
  70
    32
  0
VERTEX
  8
GAIKEI
  5
123F6
 10
1232.15
 20
370.504
 30
0.000000
  70
    32
  0
VERTEX
  8
GAIKEI
  5
123F7
 10
1232.14
 20
370.542
 30
0.000000
  70
    32
  0
VERTEX
  8
GAIKEI
  5
123F8
 10
1232.13
 20
370.580
 30
0.000000
  70
    32
  0
VERTEX
  8
GAIKEI
  5
123F9
 10
1232.13
 20
370.618
 30
0.000000
  70
    32
  0
VERTEX
  8
GAIKEI
  5
123FA
 10
1232.12
 20
370.655
 30
0.000000
  70
    32
  0
VERTEX
  8
GAIKEI
  5
123FB
 10
1232.11
 20
370.693
 30
0.000000
  70
    32
  0
VERTEX
  8
GAIKEI
  5
123FC
 10
1232.10
 20
370.730
 30
0.000000
  70
    32
  0
VERTEX
  8
GAIKEI
  5
123FD
 10
1232.09
 20
370.768
 30
0.000000
  70
    32
  0
VERTEX
  8
GAIKEI
  5
123FE
 10
1232.08
 20
370.805
 30
0.000000
  70
    32
  0
VERTEX
  8
GAIKEI
  5
123FF
 10
1232.06
 20
370.842
 30
0.000000
  70
    32
  0
VERTEX
  8
GAIKEI
  5
12400
 10
1232.05
 20
370.879
 30
0.000000
  70
    32
  0
VERTEX
  8
GAIKEI
  5
12401
 10
1232.04
 20
370.916
 30
0.000000
  70
    32
  0
VERTEX
  8
GAIKEI
  5
12402
 10
1232.03
 20
370.953
 30
0.000000
  70
    32
  0
VERTEX
  8
GAIKEI
  5
12403
 10
1232.01
 20
370.989
 30
0.000000
  70
    32
  0
VERTEX
  8
GAIKEI
  5
12404
 10
1232.00
 20
371.026
 30
0.000000
  70
    32
  0
VERTEX
  8
GAIKEI
  5
12405
 10
1231.98
 20
371.062
 30
0.000000
  70
    32
  0
VERTEX
  8
GAIKEI
  5
12406
 10
1231.97
 20
371.098
 30
0.000000
  70
    32
  0
VERTEX
  8
GAIKEI
  5
12407
 10
1231.95
 20
371.134
 30
0.000000
  70
    32
  0
VERTEX
  8
GAIKEI
  5
12408
 10
1231.93
 20
371.170
 30
0.000000
  70
    32
  0
VERTEX
  8
GAIKEI
  5
12409
 10
1231.92
 20
371.206
 30
0.000000
  70
    32
  0
VERTEX
  8
GAIKEI
  5
1240A
 10
1231.90
 20
371.242
 30
0.000000
  70
    32
  0
VERTEX
  8
GAIKEI
  5
1240B
 10
1231.88
 20
371.277
 30
0.000000
  70
    32
  0
VERTEX
  8
GAIKEI
  5
1240C
 10
1231.86
 20
371.312
 30
0.000000
  70
    32
  0
VERTEX
  8
GAIKEI
  5
1240D
 10
1231.84
 20
371.347
 30
0.000000
  70
    32
  0
VERTEX
  8
GAIKEI
  5
1240E
 10
1231.82
 20
371.382
 30
0.000000
  70
    32
  0
VERTEX
  8
GAIKEI
  5
1240F
 10
1231.80
 20
371.417
 30
0.000000
  70
    32
  0
VERTEX
  8
GAIKEI
  5
12410
 10
1231.78
 20
371.451
 30
0.000000
  70
    32
  0
VERTEX
  8
GAIKEI
  5
12411
 10
1231.76
 20
371.486
 30
0.000000
  70
    32
  0
VERTEX
  8
GAIKEI
  5
12412
 10
1231.74
 20
371.520
 30
0.000000
  70
    32
  0
VERTEX
  8
GAIKEI
  5
12413
 10
1231.71
 20
371.554
 30
0.000000
  70
    32
  0
VERTEX
  8
GAIKEI
  5
12414
 10
1231.69
 20
371.587
 30
0.000000
  70
    32
  0
VERTEX
  8
GAIKEI
  5
12415
 10
1231.66
 20
371.621
 30
0.000000
  70
    32
  0
VERTEX
  8
GAIKEI
  5
12416
 10
1231.64
 20
371.654
 30
0.000000
  70
    32
  0
VERTEX
  8
GAIKEI
  5
12417
 10
1231.62
 20
371.687
 30
0.000000
  70
    32
  0
VERTEX
  8
GAIKEI
  5
12418
 10
1231.59
 20
371.719
 30
0.000000
  70
    32
  0
VERTEX
  8
GAIKEI
  5
12419
 10
1231.56
 20
371.752
 30
0.000000
  70
    32
  0
VERTEX
  8
GAIKEI
  5
1241A
 10
1231.54
 20
371.784
 30
0.000000
  70
    32
  0
VERTEX
  8
GAIKEI
  5
1241B
 10
1231.51
 20
371.816
 30
0.000000
  70
    32
  0
VERTEX
  8
GAIKEI
  5
1241C
 10
1231.48
 20
371.847
 30
0.000000
  70
    32
  0
VERTEX
  8
GAIKEI
  5
1241D
 10
1231.45
 20
371.879
 30
0.000000
  70
    32
  0
VERTEX
  8
GAIKEI
  5
1241E
 10
1231.43
 20
371.910
 30
0.000000
  70
    32
  0
VERTEX
  8
GAIKEI
  5
1241F
 10
1231.40
 20
371.941
 30
0.000000
  70
    32
  0
VERTEX
  8
GAIKEI
  5
12420
 10
1231.37
 20
371.971
 30
0.000000
  70
    32
  0
VERTEX
  8
GAIKEI
  5
12421
 10
1231.34
 20
372.002
 30
0.000000
  70
    32
  0
VERTEX
  8
GAIKEI
  5
12422
 10
1231.31
 20
372.032
 30
0.000000
  70
    32
  0
VERTEX
  8
GAIKEI
  5
12423
 10
1231.28
 20
372.061
 30
0.000000
  70
    32
  0
VERTEX
  8
GAIKEI
  5
12424
 10
1231.25
 20
372.091
 30
0.000000
  70
    32
  0
VERTEX
  8
GAIKEI
  5
12425
 10
1231.21
 20
372.120
 30
0.000000
  70
    32
  0
VERTEX
  8
GAIKEI
  5
12426
 10
1231.18
 20
372.149
 30
0.000000
  70
    32
  0
VERTEX
  8
GAIKEI
  5
12427
 10
1231.15
 20
372.177
 30
0.000000
  70
    32
  0
VERTEX
  8
GAIKEI
  5
12428
 10
1231.12
 20
372.205
 30
0.000000
  70
    32
  0
VERTEX
  8
GAIKEI
  5
12429
 10
1231.08
 20
372.233
 30
0.000000
  70
    32
  0
VERTEX
  8
GAIKEI
  5
1242A
 10
1231.05
 20
372.261
 30
0.000000
  70
    32
  0
VERTEX
  8
GAIKEI
  5
1242B
 10
1231.01
 20
372.288
 30
0.000000
  70
    32
  0
VERTEX
  8
GAIKEI
  5
1242C
 10
1230.98
 20
372.315
 30
0.000000
  70
    32
  0
VERTEX
  8
GAIKEI
  5
1242D
 10
1230.94
 20
372.341
 30
0.000000
  70
    32
  0
VERTEX
  8
GAIKEI
  5
1242E
 10
1230.91
 20
372.367
 30
0.000000
  70
    32
  0
VERTEX
  8
GAIKEI
  5
1242F
 10
1230.87
 20
372.393
 30
0.000000
  70
    32
  0
VERTEX
  8
GAIKEI
  5
12430
 10
1230.83
 20
372.419
 30
0.000000
  70
    32
  0
VERTEX
  8
GAIKEI
  5
12431
 10
1230.80
 20
372.444
 30
0.000000
  70
    32
  0
VERTEX
  8
GAIKEI
  5
12432
 10
1230.76
 20
372.469
 30
0.000000
  70
    32
  0
VERTEX
  8
GAIKEI
  5
12433
 10
1230.72
 20
372.493
 30
0.000000
  70
    32
  0
VERTEX
  8
GAIKEI
  5
12434
 10
1230.68
 20
372.517
 30
0.000000
  70
    32
  0
VERTEX
  8
GAIKEI
  5
12435
 10
1230.65
 20
372.541
 30
0.000000
  70
    32
  0
VERTEX
  8
GAIKEI
  5
12436
 10
1230.61
 20
372.564
 30
0.000000
  70
    32
  0
VERTEX
  8
GAIKEI
  5
12437
 10
1230.57
 20
372.587
 30
0.000000
  70
    32
  0
VERTEX
  8
GAIKEI
  5
12438
 10
1230.53
 20
372.610
 30
0.000000
  70
    32
  0
VERTEX
  8
GAIKEI
  5
12439
 10
1230.49
 20
372.632
 30
0.000000
  70
    32
  0
VERTEX
  8
GAIKEI
  5
1243A
 10
1230.45
 20
372.654
 30
0.000000
  70
    32
  0
VERTEX
  8
GAIKEI
  5
1243B
 10
1230.41
 20
372.675
 30
0.000000
  70
    32
  0
VERTEX
  8
GAIKEI
  5
1243C
 10
1230.37
 20
372.696
 30
0.000000
  70
    32
  0
VERTEX
  8
GAIKEI
  5
1243D
 10
1230.32
 20
372.717
 30
0.000000
  70
    32
  0
VERTEX
  8
GAIKEI
  5
1243E
 10
1230.28
 20
372.737
 30
0.000000
  70
    32
  0
VERTEX
  8
GAIKEI
  5
1243F
 10
1230.24
 20
372.757
 30
0.000000
  70
    32
  0
VERTEX
  8
GAIKEI
  5
12440
 10
1230.20
 20
372.777
 30
0.000000
  70
    32
  0
VERTEX
  8
GAIKEI
  5
12441
 10
1230.16
 20
372.796
 30
0.000000
  70
    32
  0
VERTEX
  8
GAIKEI
  5
12442
 10
1230.11
 20
372.814
 30
0.000000
  70
    32
  0
VERTEX
  8
GAIKEI
  5
12443
 10
1230.07
 20
372.832
 30
0.000000
  70
    32
  0
VERTEX
  8
GAIKEI
  5
12444
 10
1230.03
 20
372.850
 30
0.000000
  70
    32
  0
VERTEX
  8
GAIKEI
  5
12445
 10
1229.98
 20
372.868
 30
0.000000
  70
    32
  0
VERTEX
  8
GAIKEI
  5
12446
 10
1229.94
 20
372.885
 30
0.000000
  70
    32
  0
VERTEX
  8
GAIKEI
  5
12447
 10
1229.89
 20
372.901
 30
0.000000
  70
    32
  0
VERTEX
  8
GAIKEI
  5
12448
 10
1229.85
 20
372.917
 30
0.000000
  70
    32
  0
VERTEX
  8
GAIKEI
  5
12449
 10
1229.81
 20
372.933
 30
0.000000
  70
    32
  0
VERTEX
  8
GAIKEI
  5
1244A
 10
1229.76
 20
372.948
 30
0.000000
  70
    32
  0
VERTEX
  8
GAIKEI
  5
1244B
 10
1229.72
 20
372.963
 30
0.000000
  70
    32
  0
VERTEX
  8
GAIKEI
  5
1244C
 10
1229.67
 20
372.978
 30
0.000000
  70
    32
  0
VERTEX
  8
GAIKEI
  5
1244D
 10
1229.62
 20
372.992
 30
0.000000
  70
    32
  0
VERTEX
  8
GAIKEI
  5
1244E
 10
1229.58
 20
373.005
 30
0.000000
  70
    32
  0
VERTEX
  8
GAIKEI
  5
1244F
 10
1229.53
 20
373.018
 30
0.000000
  70
    32
  0
VERTEX
  8
GAIKEI
  5
12450
 10
1229.49
 20
373.031
 30
0.000000
  70
    32
  0
VERTEX
  8
GAIKEI
  5
12451
 10
1229.44
 20
373.043
 30
0.000000
  70
    32
  0
VERTEX
  8
GAIKEI
  5
12452
 10
1229.39
 20
373.055
 30
0.000000
  70
    32
  0
VERTEX
  8
GAIKEI
  5
12453
 10
1229.35
 20
373.066
 30
0.000000
  70
    32
  0
VERTEX
  8
GAIKEI
  5
12454
 10
1229.30
 20
373.077
 30
0.000000
  70
    32
  0
VERTEX
  8
GAIKEI
  5
12455
 10
1229.25
 20
373.088
 30
0.000000
  70
    32
  0
VERTEX
  8
GAIKEI
  5
12456
 10
1229.20
 20
373.097
 30
0.000000
  70
    32
  0
VERTEX
  8
GAIKEI
  5
12457
 10
1229.16
 20
373.107
 30
0.000000
  70
    32
  0
VERTEX
  8
GAIKEI
  5
12458
 10
1229.11
 20
373.116
 30
0.000000
  70
    32
  0
VERTEX
  8
GAIKEI
  5
12459
 10
1229.06
 20
373.125
 30
0.000000
  70
    32
  0
VERTEX
  8
GAIKEI
  5
1245A
 10
1229.01
 20
373.133
 30
0.000000
  70
    32
  0
VERTEX
  8
GAIKEI
  5
1245B
 10
1228.96
 20
373.140
 30
0.000000
  70
    32
  0
VERTEX
  8
GAIKEI
  5
1245C
 10
1228.92
 20
373.148
 30
0.000000
  70
    32
  0
VERTEX
  8
GAIKEI
  5
1245D
 10
1228.87
 20
373.154
 30
0.000000
  70
    32
  0
VERTEX
  8
GAIKEI
  5
1245E
 10
1228.82
 20
373.161
 30
0.000000
  70
    32
  0
VERTEX
  8
GAIKEI
  5
1245F
 10
1228.77
 20
373.167
 30
0.000000
  70
    32
  0
VERTEX
  8
GAIKEI
  5
12460
 10
1228.72
 20
373.172
 30
0.000000
  70
    32
  0
VERTEX
  8
GAIKEI
  5
12461
 10
1228.67
 20
373.177
 30
0.000000
  70
    32
  0
VERTEX
  8
GAIKEI
  5
12462
 10
1228.63
 20
373.181
 30
0.000000
  70
    32
  0
VERTEX
  8
GAIKEI
  5
12463
 10
1228.58
 20
373.185
 30
0.000000
  70
    32
  0
VERTEX
  8
GAIKEI
  5
12464
 10
1228.53
 20
373.189
 30
0.000000
  70
    32
  0
VERTEX
  8
GAIKEI
  5
12465
 10
1228.48
 20
373.192
 30
0.000000
  70
    32
  0
VERTEX
  8
GAIKEI
  5
12466
 10
1228.43
 20
373.194
 30
0.000000
  70
    32
  0
VERTEX
  8
GAIKEI
  5
12467
 10
1228.38
 20
373.197
 30
0.000000
  70
    32
  0
VERTEX
  8
GAIKEI
  5
12468
 10
1228.33
 20
373.198
 30
0.000000
  70
    32
  0
VERTEX
  8
GAIKEI
  5
12469
 10
1228.28
 20
373.199
 30
0.000000
  70
    32
  0
VERTEX
  8
GAIKEI
  5
1246A
 10
1228.23
 20
373.200
 30
0.000000
  70
    32
  0
VERTEX
  8
GAIKEI
  5
1246B
 10
1228.18
 20
373.200
 30
0.000000
  70
    32
  0
SEQEND
  8
GAIKEI
  5
1246C
  0
TEXT
  5
F4E8
  8
HYO
 62
     3
 10
1689.221804051454
 20
178.5353274375459
 30
0.0
 40
19.800000000000001
  1
JPK11100/JPK11101/JPK11102　
 41
0.55
  7
MSP明朝
  0
DIMENSION
  5
F4E9
  8
SCALE
  6
CONTINUOUS
 62
     0
  2
*D4
 10
1024.2978009075171
 20
693.51877263135623
 30
0.0
 11
1024.2978009075159
 21
958.80414576055614
 31
0.0
 70
   128
 13
850.68399415748172
 23
1223.5187726313559
 33
0.0
 14
843.68399415748172
 24
693.51877263135623
 34
0.0
 50
90.0
1001
ACAD
1000
DSTYLE
1002
{
1070
   287
1070
     1
1070
    41
1040
13.0
1070
    47
1040
14.0
1070
    48
1040
14.0
1070
    73
1070
     0
1070
    74
1070
     0
1070
    77
1070
     1
1070
    78
1070
     8
1070
   140
1040
15.0
1070
   141
1040
0.0
1070
   147
1040
5.0
1070
   176
1070
     2
1070
   177
1070
     2
1070
   178
1070
     3
1070
   271
1070
     0
1070
   272
1070
     0
1070
   283
1070
     2
1070
   289
1070
     1
1002
}
  0
DIMENSION
  5
F4F6
  8
SCALE
  6
CONTINUOUS
 62
     0
  2
*D5
 10
853.68399415748161
 20
1308.7829339323021
 30
0.0
 11
587.84672494526433
 21
1308.7829339323021
 31
0.0
 70
   128
 13
323.68399415748172
 23
1220.5187726313559
 33
0.0
 14
853.68399415748161
 24
1220.5187726313559
 34
0.0
1001
ACAD
1000
DSTYLE
1002
{
1070
   287
1070
     1
1070
    72
1070
     0
1070
    71
1070
     0
1070
    41
1040
13.0
1070
    47
1040
14.0
1070
    48
1040
14.0
1070
    73
1070
     0
1070
    74
1070
     0
1070
    77
1070
     1
1070
    78
1070
     8
1070
   140
1040
15.0
1070
   141
1040
0.0
1070
   147
1040
5.0
1070
   176
1070
     2
1070
   177
1070
     2
1070
   178
1070
     3
1070
   271
1070
     0
1070
   272
1070
     0
1070
   283
1070
     2
1070
   289
1070
     1
1002
}
  0
DIMENSION
  5
F503
  8
SCALE
  6
CONTINUOUS
 62
     0
  2
*D6
 10
1404.680085776736
 20
1308.7829339323021
 30
0.0
 11
1334.6820399671089
 21
1308.7829339323021
 31
0.0
 70
   128
 13
1264.6839941574831
 23
1213.518772631357
 33
0.0
 14
1404.680085776736
 24
1220.6718576046039
 34
0.0
1001
ACAD
1000
DSTYLE
1002
{
1070
   287
1070
     1
1070
    41
1040
13.0
1070
    47
1040
14.0
1070
    48
1040
14.0
1070
    73
1070
     0
1070
    74
1070
     0
1070
    77
1070
     1
1070
    78
1070
     8
1070
   140
1040
15.0
1070
   141
1040
0.0
1070
   147
1040
5.0
1070
   176
1070
     2
1070
   177
1070
     2
1070
   178
1070
     3
1070
   271
1070
     0
1070
   272
1070
     0
1070
   283
1070
     2
1070
   289
1070
     1
1002
}
  0
DIMENSION
  5
F510
  8
SCALE
  6
CONTINUOUS
 62
     0
  2
*D7
 10
1506.489239123975
 20
1008.518772631356
 30
0.0
 11
1493.989239123975
 21
1116.018772631357
 31
0.0
 70
     0
 13
1401.6839941574819
 23
1223.518772631357
 33
0.0
 14
1404.6839941574831
 24
1008.518772631356
 34
0.0
 50
90.0
1001
ACAD
1000
DSTYLE
1002
{
1070
   287
1070
     1
1070
    41
1040
13.0
1070
    47
1040
14.0
1070
    48
1040
14.0
1070
    73
1070
     0
1070
    74
1070
     0
1070
    77
1070
     1
1070
    78
1070
     8
1070
   140
1040
15.0
1070
   141
1040
0.0
1070
   147
1040
5.0
1070
   176
1070
     2
1070
   177
1070
     2
1070
   178
1070
     3
1070
   271
1070
     0
1070
   272
1070
     0
1070
   283
1070
     2
1070
   289
1070
     1
1002
}
  0
DIMENSION
  5
F526
  8
SCALE
  6
CONTINUOUS
 62
     0
  2
*D8
 10
1446.5628691784709
 20
986.51877263135555
 30
0.0
 11
1446.5628691784709
 21
1083.518772631357
 31
0.0
 70
   128
  1
%%c<>
 13
1404.6839941574831
 23
1030.5187726313559
 33
0.0
 14
1404.6839941574831
 24
986.51877263135555
 34
0.0
 50
90.0
1001
ACAD
1000
DSTYLE
1002
{
1070
   287
1070
     1
1070
    41
1040
13.0
1070
    47
1040
14.0
1070
    48
1040
14.0
1070
    73
1070
     0
1070
    74
1070
     0
1070
    77
1070
     1
1070
    78
1070
     8
1070
   140
1040
15.0
1070
   141
1040
0.0
1070
   147
1040
5.0
1070
   176
1070
     2
1070
   177
1070
     2
1070
   178
1070
     3
1070
   271
1070
     0
1070
   272
1070
     0
1070
   283
1070
     2
1070
   289
1070
     1
1002
}
  0
LINE
  5
F55B
  8
0
  6
CENTER
 62
     6
 10
818.68399415748172
 20
984.78877263135257
 30
0.0
 11
818.68399415748081
 21
1032.788772631385
 31
0.0
  0
LINE
  5
F55C
  8
GAIKEI
  6
DASHED2
 10
826.68399415748081
 20
997.78877263136872
 30
0.0
 11
826.68399415748081
 21
1019.7887726313691
 31
0.0
  0
ARC
  5
F55D
  8
GAIKEI
  6
DASHED2
 10
818.68399415746524
 20
997.78877263136872
 30
0.0
 40
8.0000000000161418
 50
180.0
 51
0.0
  0
ARC
  5
F55E
  8
GAIKEI
  6
DASHED2
 10
818.68399415746524
 20
1019.7887726313691
 30
0.0
 40
8.0000000000161418
 50
0.0
 51
180.0
  0
LINE
  5
F55F
  8
GAIKEI
  6
DASHED2
 10
810.68399415743625
 20
1019.7887726313691
 30
0.0
 11
810.68399415743625
 21
997.78877263136872
 31
0.0
  0
LINE
  5
F560
  8
0
  6
CENTER
 62
     6
 10
358.68399415748092
 20
984.78877263135257
 30
0.0
 11
358.68399415748092
 21
1032.788772631385
 31
0.0
  0
LINE
  5
F561
  8
GAIKEI
  6
DASHED2
 10
350.68399415748092
 20
997.78877263136872
 30
0.0
 11
350.68399415748092
 21
1019.7887726313691
 31
0.0
  0
ARC
  5
F562
  8
GAIKEI
  6
DASHED2
 10
358.68399415749718
 20
997.78877263136872
 30
0.0
 40
8.0000000000161418
 50
180.0
 51
0.0
  0
ARC
  5
F563
  8
GAIKEI
  6
DASHED2
 10
358.68399415749718
 20
1019.7887726313691
 30
0.0
 40
8.0000000000161418
 50
0.0
 51
180.0
  0
LINE
  5
F564
  8
GAIKEI
  6
DASHED2
 10
366.68399415752629
 20
1019.7887726313691
 30
0.0
 11
366.68399415752629
 21
997.78877263136872
 31
0.0
  0
DIMENSION
  5
F565
  8
SCALE
  6
CONTINUOUS
 62
     0
  2
*D9
 10
826.68399415748172
 20
964.86071771907746
 30
0.0
 11
867.68399415748172
 21
977.36071771907746
 31
0.0
 70
     0
 13
810.68399415744898
 23
997.78877263136872
 33
0.0
 14
826.68399415748172
 24
997.78877263136872
 34
0.0
1001
ACAD
1000
DSTYLE
1002
{
1070
   287
1070
     1
1070
    41
1040
13.0
1070
    47
1040
14.0
1070
    48
1040
14.0
1070
    73
1070
     0
1070
    74
1070
     0
1070
    77
1070
     1
1070
    78
1070
     8
1070
   140
1040
15.0
1070
   141
1040
0.0
1070
   147
1040
5.0
1070
   176
1070
     2
1070
   177
1070
     2
1070
   178
1070
     3
1070
   271
1070
     0
1070
   272
1070
     0
1070
   283
1070
     2
1070
   289
1070
     1
1002
}
  0
DIMENSION
  5
F573
  8
SCALE
  6
CONTINUOUS
 62
     0
  2
*D10
 10
775.58219627582901
 20
989.78877263135269
 30
0.0
 11
775.58219627582901
 21
931.28877263135303
 31
0.0
 70
   128
 13
818.68399415748081
 23
1027.788772631385
 33
0.0
 14
818.68399415746069
 24
989.78877263135269
 34
0.0
 50
90.0
1001
ACAD
1000
DSTYLE
1002
{
1070
   287
1070
     1
1070
    41
1040
13.0
1070
    47
1040
14.0
1070
    48
1040
14.0
1070
    73
1070
     0
1070
    74
1070
     0
1070
    77
1070
     1
1070
    78
1070
     8
1070
   140
1040
15.0
1070
   141
1040
0.0
1070
   147
1040
5.0
1070
   176
1070
     2
1070
   177
1070
     2
1070
   178
1070
     3
1070
   271
1070
     0
1070
   272
1070
     0
1070
   283
1070
     2
1070
   289
1070
     1
1002
}
  0
DIMENSION
  5
F58B
  8
SCALE
  6
CONTINUOUS
 62
     0
  2
*D11
 10
818.68303209977046
 20
251.143000113678
 30
0.0
 11
590.18524245109631
 21
251.143000113678
 31
0.0
 70
   128
 13
358.684885447422
 23
360.08489936017048
 33
0.0
 14
818.68303209977046
 24
359.90447474017577
 34
0.0
1001
ACAD
1000
DSTYLE
1002
{
1070
   287
1070
     1
1070
    41
1040
13.0
1070
    47
1040
14.0
1070
    48
1040
14.0
1070
    73
1070
     0
1070
    74
1070
     0
1070
    77
1070
     1
1070
    78
1070
     8
1070
   140
1040
15.0
1070
   141
1040
0.0
1070
   147
1040
5.0
1070
   176
1070
     2
1070
   177
1070
     2
1070
   178
1070
     3
1070
   271
1070
     0
1070
   272
1070
     0
1070
   283
1070
     2
1070
   289
1070
     1
1002
}
  0
DIMENSION
  5
F598
  8
SCALE
  6
CONTINUOUS
 62
     0
  2
*D12
 10
939.94121028564939
 20
1223.5187726313559
 30
0.0
 11
939.94121028564939
 21
1118.841604518695
 31
0.0
 70
   128
 13
844.6145650958897
 23
1008.518772631356
 33
0.0
 14
850.68399415748172
 24
1223.5187726313559
 34
0.0
 50
90.0
1001
ACAD
1000
DSTYLE
1002
{
1070
   287
1070
     1
1070
    41
1040
13.0
1070
    47
1040
14.0
1070
    48
1040
14.0
1070
    73
1070
     0
1070
    74
1070
     0
1070
    77
1070
     1
1070
    78
1070
     8
1070
   140
1040
15.0
1070
   141
1040
0.0
1070
   147
1040
5.0
1070
   176
1070
     2
1070
   177
1070
     2
1070
   178
1070
     3
1070
   271
1070
     0
1070
   272
1070
     0
1070
   283
1070
     2
1070
   289
1070
     1
1002
}
  0
DIMENSION
  5
F5B3
  8
SCALE
  6
CONTINUOUS
 62
     0
  2
*D13
 10
611.1839941574799
 20
421.99277184549851
 30
0.0
 11
690.9339941574799
 21
421.99277184549851
 31
0.0
 70
   128
 13
566.13442915991072
 23
449.79596546155892
 33
0.0
 14
611.1839941574799
 24
449.79596546155852
 34
0.0
1001
ACAD
1000
DSTYLE
1002
{
1070
   287
1070
     1
1070
    41
1040
13.0
1070
    47
1040
14.0
1070
    48
1040
14.0
1070
    73
1070
     0
1070
    74
1070
     0
1070
    77
1070
     1
1070
    78
1070
     8
1070
   140
1040
15.0
1070
   141
1040
0.0
1070
   147
1040
5.0
1070
   176
1070
     2
1070
   177
1070
     2
1070
   178
1070
     3
1070
   271
1070
     0
1070
   272
1070
     0
1070
   283
1070
     2
1070
   289
1070
     1
1002
}
  0
DIMENSION
  5
F5EF
  8
SCALE
  6
CONTINUOUS
 62
     0
  2
*D14
 10
879.41381162610719
 20
353.0848989755201
 30
0.0
 11
866.91381162610696
 21
312.08489897552022
 31
0.0
 70
     0
 13
818.68506401246566
 23
365.08489897551982
 33
0.0
 14
845.79560482886154
 24
353.0848989755201
 34
0.0
 50
90.0
1001
ACAD
1000
DSTYLE
1002
{
1070
   287
1070
     1
1070
    41
1040
13.0
1070
    47
1040
14.0
1070
    48
1040
14.0
1070
    73
1070
     0
1070
    74
1070
     0
1070
    77
1070
     1
1070
    78
1070
     8
1070
   140
1040
15.0
1070
   141
1040
0.0
1070
   147
1040
5.0
1070
   176
1070
     2
1070
   177
1070
     2
1070
   178
1070
     3
1070
   271
1070
     0
1070
   272
1070
     0
1070
   283
1070
     2
1070
   289
1070
     1
1002
}
  0
DIMENSION
  5
F5FD
  8
SCALE
  6
CONTINUOUS
 62
     0
  2
*D15
 10
1404.6839941574831
 20
927.58188554808874
 30
0.0
 11
1484.4339941574819
 21
927.58188554808874
 31
0.0
 70
   128
 13
1359.6839941574819
 23
976.018772631356
 33
0.0
 14
1404.6839941574831
 24
982.61708276056595
 34
0.0
1001
ACAD
1000
DSTYLE
1002
{
1070
   287
1070
     1
1070
    41
1040
13.0
1070
    47
1040
14.0
1070
    48
1040
14.0
1070
    73
1070
     0
1070
    74
1070
     0
1070
    77
1070
     1
1070
    78
1070
     8
1070
   140
1040
15.0
1070
   141
1040
0.0
1070
   147
1040
5.0
1070
   176
1070
     2
1070
   177
1070
     2
1070
   178
1070
     3
1070
   271
1070
     0
1070
   272
1070
     0
1070
   283
1070
     2
1070
   289
1070
     1
1002
}
  0
DIMENSION
  5
F62C
  8
SCALE
  6
CONTINUOUS
 62
     0
  2
*D16
 10
1650.1844824685361
 20
316.676030671739
 30
0.0
 11
1693.6844824685361
 21
329.176030671739
 31
0.0
 70
     0
 13
1625.1835058464239
 23
370.08489897551829
 33
0.0
 14
1650.1844824685361
 24
370.08489897551829
 34
0.0
1001
ACAD
1000
DSTYLE
1002
{
1070
   287
1070
     1
1070
    41
1040
13.0
1070
    47
1040
14.0
1070
    48
1040
14.0
1070
    73
1070
     0
1070
    74
1070
     0
1070
    77
1070
     1
1070
    78
1070
     8
1070
   140
1040
15.0
1070
   141
1040
0.0
1070
   147
1040
5.0
1070
   176
1070
     2
1070
   177
1070
     2
1070
   178
1070
     3
1070
   271
1070
     0
1070
   272
1070
     0
1070
   283
1070
     2
1070
   289
1070
     1
1002
}
  0
INSERT
  5
F64E
  8
0
  6
CONTINUOUS
 62
     0
  2
*U20
 10
0.0
 20
0.0
 30
0.0
1001
ACAD
1000
DSTYLE
1002
{
1070
    41
1040
13.0
1070
    47
1040
2.0
1070
    48
1040
1.0
1070
    73
1070
     0
1070
    74
1070
     0
1070
    77
1070
     1
1070
    78
1070
     8
1070
   140
1040
15.0
1070
   141
1040
0.0
1070
   147
1040
5.0
1070
   176
1070
     2
1070
   177
1070
     2
1070
   178
1070
     3
1070
   271
1070
     0
1070
   272
1070
     3
1070
   283
1070
     2
1070
   289
1070
     1
1002
}
  0
INSERT
  5
F64F
  8
0
  6
CONTINUOUS
 62
     0
  2
*U21
 10
0.0
 20
0.0
 30
0.0
  0
DIMENSION
  5
F650
  8
SCALE
  6
CONTINUOUS
 62
     0
  2
*D17
 10
516.50545491084472
 20
1223.5187726313559
 30
0.0
 11
516.50545491084461
 21
1176.2188266385281
 31
0.0
 70
   128
 13
561.68399415748161
 23
1145.5187726313559
 33
0.0
 14
561.68399415748161
 24
1223.5187726313559
 34
0.0
 50
90.0
1001
ACAD
1000
DSTYLE
1002
{
1070
   287
1070
     1
1070
    41
1040
13.0
1070
    47
1040
14.0
1070
    48
1040
14.0
1070
    73
1070
     0
1070
    74
1070
     0
1070
    77
1070
     1
1070
    78
1070
     8
1070
   140
1040
15.0
1070
   141
1040
0.0
1070
   147
1040
5.0
1070
   176
1070
     2
1070
   177
1070
     2
1070
   178
1070
     3
1070
   271
1070
     0
1070
   272
1070
     0
1070
   283
1070
     2
1070
   289
1070
     1
1002
}
  0
LINE
  5
FC9D
  8
0
  6
CONTINUOUS
 62
     0
 10
1404.6839941574831
 20
975.018772631356
 30
0.0
 11
1404.6839941574931
 21
708.51877263136623
 31
0.0
  0
LINE
  5
FC9E
  8
0
  6
CONTINUOUS
 62
     0
 10
793.68399415747547
 20
353.08489897551982
 30
0.0
 11
838.68399415747956
 21
353.0848989755201
 31
0.0
  0
CIRCLE
  5
11609
  8
GAIKEI
  6
CONTINUOUS
 62
     0
 10
588.68399415748172
 20
1008.518772631356
 30
0.0
 40
21.499999999999321
  0
CIRCLE
  5
1160A
  8
GAIKEI
  6
CONTINUOUS
 62
     0
 10
588.68399415748172
 20
1008.518772631356
 30
0.0
 40
32.499999999999318
  0
TEXT
  5
1161D
  8
GAWA
 62
     3
 10
926.12331944170182
 20
99.931281463293558
 30
0.0
 40
15.727639640625
  1
*公差なき寸法はJIS公差に準じる。
  7
MSP明朝
  0
TEXT
  5
1161E
  8
GAWA
 62
     3
 10
939.00813828266018
 20
66.3755611337549
 30
0.0
 40
15.727639640625
  1
ただし、最大公差は15ミリとする。
  7
MSP明朝
  0
DIMENSION
  5
119ED
  8
SCALE
  6
CONTINUOUS
 62
     0
  2
*D18
 10
1576.4133356371319
 20
366.58489897551959
 30
0.0
 11
1563.9133356371331
 21
330.58489897551988
 31
0.0
 70
     0
 13
1629.1835058464251
 23
373.58489897551948
 33
0.0
 14
1629.1835058464251
 24
366.58489897551959
 34
0.0
 50
90.0
1001
ACAD
1000
DSTYLE
1002
{
1070
   287
1070
     1
1070
    41
1040
13.0
1070
    47
1040
2.0
1070
    48
1040
1.0
1070
    73
1070
     0
1070
    74
1070
     0
1070
    77
1070
     1
1070
    78
1070
     8
1070
    79
1070
     2
1070
   140
1040
15.0
1070
   141
1040
0.0
1070
   147
1040
5.0
1070
   176
1070
     2
1070
   177
1070
     2
1070
   178
1070
     3
1070
   179
1070
     2
1070
   271
1070
     0
1070
   272
1070
     3
1070
   283
1070
     2
1070
   289
1070
     1
1070
   341
1005
BB5E
1002
}
  0
DIMENSION
  5
11A1B
  8
SCALE
  6
CONTINUOUS
 62
     0
  2
*D19
 10
528.63510356648555
 20
442.65797896183329
 30
0.0
 11
528.63510356648555
 21
401.65797896183329
 31
0.0
 70
   128
 13
576.47234536720396
 23
456.93395196128381
 33
0.0
 14
576.47234536720396
 24
442.65797896183329
 34
0.0
 50
90.0
1001
ACAD
1000
DSTYLE
1002
{
1070
   287
1070
     1
1070
    41
1040
13.0
1070
    47
1040
2.0
1070
    48
1040
1.0
1070
    73
1070
     0
1070
    74
1070
     0
1070
    77
1070
     1
1070
    78
1070
     8
1070
    79
1070
     2
1070
   140
1040
15.0
1070
   141
1040
0.0
1070
   147
1040
5.0
1070
   176
1070
     2
1070
   177
1070
     2
1070
   178
1070
     3
1070
   179
1070
     2
1070
   271
1070
     0
1070
   272
1070
     3
1070
   283
1070
     2
1070
   289
1070
     1
1070
   341
1005
BB5E
1002
}
  0
INSERT
  5
11A53
  8
0
  6
CONTINUOUS
 62
     0
  2
*U22
 10
0.0
 20
0.0
 30
0.0
1001
ACAD
1000
DSTYLE
1002
{
1070
    41
1040
13.0
1070
    47
1040
2.0
1070
    48
1040
1.0
1070
    73
1070
     0
1070
    74
1070
     0
1070
    77
1070
     1
1070
    78
1070
     8
1070
   140
1040
15.0
1070
   141
1040
0.0
1070
   147
1040
5.0
1070
   176
1070
     2
1070
   177
1070
     2
1070
   178
1070
     3
1070
   271
1070
     0
1070
   272
1070
     3
1070
   283
1070
     2
1070
   289
1070
     1
1002
}
  0
INSERT
  5
11A54
  8
0
  6
CONTINUOUS
 62
     0
  2
*U23
 10
0.0
 20
0.0
 30
0.0
  0
TEXT
  5
11ACF
  8
GAWA
 62
     3
 10
1527.243613400683
 20
54.41899354889555
 30
0.0
 40
15.727639640625
  1
2015.04.01
  7
MSP明朝
 72
     4
 11
1579.37455378253
 21
62.15027708010166
 31
0.0
  0
TEXT
  5
11AE1
  8
HYO
 62
     3
 10
1692.891919264961
 20
47.417774077382752
 30
0.0
 40
27.5
  1
グローエジャパン(株)
 41
0.75
  7
MSP明朝
  0
VIEWPORT
  5
22
 67
     1
  8
0
 10
10.590700000472021
 20
3.9999998836066779
 30
0.0
 40
21.06021585410156
 41
8.9938540595492427
 68
     1
 69
     1
1001
ACAD
1000
MVIEW
1002
{
1070
    16
1010
0.0
1020
0.0
1030
0.0
1010
0.0
1020
0.0
1030
1.0
1040
0.0
1040
8.9938540595492427
1040
10.590700000472021
1040
3.9999998836066779
1040
50.0
1040
0.0
1040
0.0
1070
     0
1070
   100
1070
     1
1070
     1
1070
     0
1070
     0
1070
     0
1070
     0
1040
0.0
1040
0.0
1040
0.0
1040
10.0
1040
10.0
1040
10.0
1040
10.0
1070
     0
1002
{
1002
}
1002
}
  0
VIEWPORT
  5
11629
 67
     1
  8
0
  6
CONTINUOUS
 62
     0
 10
5.24999976158142
 20
3.9999997615814209
 30
0.0
 40
8.3999996185302752
 41
6.3999996185302734
 68
     2
 69
     2
1001
ACAD
1000
MVIEW
1002
{
1070
    16
1010
0.0
1020
0.0
1030
0.0
1010
0.0
1020
0.0
1030
1.0
1040
0.0
1040
1521.970584784767
1040
5150.1337661213347
1040
-1260.0618811755551
1040
50.0
1040
0.0
1040
0.0
1070
     0
1070
   100
1070
     1
1070
     1
1070
     0
1070
     0
1070
     0
1070
     0
1040
0.0
1040
0.0
1040
0.0
1040
1.0
1040
1.0
1040
5.0
1040
5.0
1070
     0
1002
{
1002
}
1002
}
  0
ENDSEC
  0
EOF
