  0
SECTION
  2
HEADER
  9
$ACADVER
  1
AC1009
  9
$INSBASE
 10
0.0
 20
0.0
 30
0.0
  9
$EXTMIN
 10
1.1535370374284071
 20
-0.3002437570861502
 30
-0.0015258207003583
  9
$EXTMAX
 10
211.17452017965181
 20
296.71421358513101
 30
0.0000000349246037
  9
$LIMMIN
 10
0.0
 20
0.0
  9
$LIMMAX
 10
210.0
 20
297.0
  9
$ORTHOMODE
 70
     1
  9
$REGENMODE
 70
     1
  9
$FILLMODE
 70
     1
  9
$QTEXTMODE
 70
     0
  9
$MIRRTEXT
 70
     0
  9
$DRAGMODE
 70
     2
  9
$LTSCALE
 40
8.0
  9
$OSMODE
 70
  1007
  9
$ATTMODE
 70
     1
  9
$TEXTSIZE
 40
7.4181471684321432
  9
$TRACEWID
 40
0.05
  9
$TEXTSTYLE
  7
STANDARD
  9
$CLAYER
  8
0
  9
$CELTYPE
  6
BYLAYER
  9
$CECOLOR
 62
   256
  9
$DIMSCALE
 40
1.0
  9
$DIMASZ
 40
1.5
  9
$DIMEXO
 40
0.5
  9
$DIMDLI
 40
10.0
  9
$DIMRND
 40
0.0
  9
$DIMDLE
 40
0.0
  9
$DIMEXE
 40
2.0
  9
$DIMTP
 40
0.0
  9
$DIMTM
 40
0.0
  9
$DIMTXT
 40
4.0
  9
$DIMCEN
 40
0.0
  9
$DIMTSZ
 40
0.0
  9
$DIMTOL
 70
     0
  9
$DIMLIM
 70
     0
  9
$DIMTIH
 70
     0
  9
$DIMTOH
 70
     0
  9
$DIMSE1
 70
     0
  9
$DIMSE2
 70
     0
  9
$DIMTAD
 70
     0
  9
$DIMZIN
 70
     8
  9
$DIMBLK
  1
YAZ1
  9
$DIMASO
 70
     1
  9
$DIMSHO
 70
     1
  9
$DIMPOST
  1

  9
$DIMAPOST
  1

  9
$DIMALT
 70
     0
  9
$DIMALTD
 70
     2
  9
$DIMALTF
 40
25.399999999999999
  9
$DIMLFAC
 40
1.0
  9
$DIMTOFL
 70
     0
  9
$DIMTVP
 40
1.0
  9
$DIMTIX
 70
     0
  9
$DIMSOXD
 70
     0
  9
$DIMSAH
 70
     0
  9
$DIMBLK1
  1

  9
$DIMBLK2
  1

  9
$DIMSTYLE
  2
STANDARD
  9
$DIMCLRD
 70
   256
  9
$DIMCLRE
 70
   256
  9
$DIMCLRT
 70
   256
  9
$DIMTFAC
 40
0.6
  9
$DIMGAP
 40
1.0
  9
$LUNITS
 70
     2
  9
$LUPREC
 70
     4
  9
$SKETCHINC
 40
0.1
  9
$FILLETRAD
 40
0.0
  9
$AUNITS
 70
     0
  9
$AUPREC
 70
     2
  9
$MENU
  1
amecex
  9
$ELEVATION
 40
0.0
  9
$PELEVATION
 40
0.0
  9
$THICKNESS
 40
0.0
  9
$LIMCHECK
 70
     0
  9
$BLIPMODE
 70
     0
  9
$CHAMFERA
 40
0.3
  9
$CHAMFERB
 40
0.3
  9
$SKPOLY
 70
     0
  9
$TDCREATE
 40
2451136.3847059952
  9
$TDUPDATE
 40
2457207.706032604
  9
$TDINDWG
 40
0.5379183565
  9
$TDUSRTIMER
 40
0.5379175579
  9
$USRTIMER
 70
     1
  9
$ANGBASE
 50
0.0
  9
$ANGDIR
 70
     0
  9
$PDMODE
 70
     2
  9
$PDSIZE
 40
2.0
  9
$PLINEWID
 40
0.0
  9
$COORDS
 70
     1
  9
$SPLFRAME
 70
     0
  9
$SPLINETYPE
 70
     6
  9
$SPLINESEGS
 70
     8
  9
$ATTDIA
 70
     0
  9
$ATTREQ
 70
     0
  9
$HANDLING
 70
     1
  9
$HANDSEED
  5
29D8
  9
$SURFTAB1
 70
     6
  9
$SURFTAB2
 70
     6
  9
$SURFTYPE
 70
     6
  9
$SURFU
 70
     6
  9
$SURFV
 70
     6
  9
$UCSNAME
  2

  9
$UCSORG
 10
0.0
 20
0.0
 30
0.0
  9
$UCSXDIR
 10
1.0
 20
0.0
 30
0.0
  9
$UCSYDIR
 10
0.0
 20
1.0
 30
0.0
  9
$PUCSNAME
  2

  9
$PUCSORG
 10
0.0
 20
0.0
 30
0.0
  9
$PUCSXDIR
 10
1.0
 20
0.0
 30
0.0
  9
$PUCSYDIR
 10
0.0
 20
1.0
 30
0.0
  9
$USERI1
 70
     0
  9
$USERI2
 70
     0
  9
$USERI3
 70
     0
  9
$USERI4
 70
     4
  9
$USERI5
 70
     0
  9
$USERR1
 40
0.0
  9
$USERR2
 40
0.0
  9
$USERR3
 40
0.0
  9
$USERR4
 40
0.0
  9
$USERR5
 40
0.0
  9
$WORLDVIEW
 70
     1
  9
$SHADEDGE
 70
     3
  9
$SHADEDIF
 70
    70
  9
$TILEMODE
 70
     1
  9
$MAXACTVP
 70
    16
  9
$PLIMCHECK
 70
     0
  9
$PEXTMIN
 10
1.049999952316284
 20
0.7999999523162842
 30
0.0
  9
$PEXTMAX
 10
9.4499995708465594
 20
7.1999995708465576
 30
0.0
  9
$PLIMMIN
 10
-0.2500002402958907
 20
-0.2499999962453767
  9
$PLIMMAX
 10
10.74999951940822
 20
8.2499997634587334
  9
$UNITMODE
 70
     0
  9
$VISRETAIN
 70
     0
  9
$PLINEGEN
 70
     0
  9
$PSLTSCALE
 70
     1
  0
ENDSEC
  0
SECTION
  2
TABLES
  0
TABLE
  2
VPORT
 70
     1
  0
VPORT
  2
*ACTIVE
 70
     0
 10
0.0
 20
0.0
 11
1.0
 21
1.0
 12
106.16402860853999
 22
148.2069849140224
 13
0.0
 23
0.0
 14
1.0
 24
1.0
 15
0.0
 25
0.0
 16
0.0
 26
0.0
 36
1.0
 17
0.0
 27
0.0
 37
0.0
 40
299.34398249784238
 41
2.3416230366492141
 42
50.0
 43
0.0
 44
0.0
 50
0.0
 51
0.0
 71
     0
 72
  1000
 73
     1
 74
     1
 75
     0
 76
     0
 77
     0
 78
     0
  0
ENDTAB
  0
TABLE
  2
LTYPE
 70
     4
  0
LTYPE
  2
CONTINUOUS
 70
     0
  3
Solid line
 72
    65
 73
     0
 40
0.0
  0
LTYPE
  2
CENTER2
 70
     0
  3
___ _ ___ _ ___ _ ___ _ ___ _ ___ _ ___ _ ___ _
 72
    65
 73
     4
 40
1.125
 49
0.75
 49
-0.125
 49
0.125
 49
-0.125
  0
LTYPE
  2
DASHED2
 70
     0
  3
_ _ _ _ _ _ _ _ _ _ _ _ _ _ _ _ _ _ _ _ _ _ _ _
 72
    65
 73
     2
 40
0.375
 49
0.25
 49
-0.125
  0
ENDTAB
  0
TABLE
  2
LAYER
 70
     9
  0
LAYER
  2
0
 70
     0
 62
     7
  6
CONTINUOUS
  0
LAYER
  2
CENTER
 70
     0
 62
     1
  6
CENTER2
  0
LAYER
  2
SCALE
 70
     0
 62
     4
  6
CONTINUOUS
  0
LAYER
  2
DEFPOINTS
 70
     0
 62
     7
  6
CONTINUOUS
  0
LAYER
  2
GAIKEI
 70
     0
 62
     2
  6
CONTINUOUS
  0
LAYER
  2
DRAFRM
 70
     0
 62
     7
  6
CONTINUOUS
  0
LAYER
  2
HYO
 70
     0
 62
     4
  6
CONTINUOUS
  0
LAYER
  2
印
 70
     0
 62
    10
  6
CONTINUOUS
  0
LAYER
  2
HOJYO
 70
     0
 62
    -6
  6
CONTINUOUS
  0
ENDTAB
  0
TABLE
  2
STYLE
 70
     3
  0
STYLE
  2
STANDARD
 70
     0
 40
0.0
 41
0.7
 50
0.0
 71
     0
 42
7.4181471684321432
  3
ROMANS
  4
EXTFONT
  0
STYLE
  2
MSP明朝
 70
     0
 40
6.0
 41
1.0
 50
0.0
 71
     0
 42
4.0
  3
txt
  4

  0
STYLE
  2
MSP明朝1
 70
     0
 40
0.0
 41
0.7
 50
0.0
 71
     0
 42
5.0
  3
txt
  4

  0
ENDTAB
  0
TABLE
  2
VIEW
 70
     3
  0
ENDTAB
  0
TABLE
  2
UCS
 70
     1
  0
UCS
  2
AM_UCS
 70
     0
 10
0.0
 20
0.0
 30
0.0
 11
1.0
 21
0.0
 31
0.0
 12
0.0
 22
1.0
 32
0.0
  0
ENDTAB
  0
TABLE
  2
APPID
 70
    16
  0
APPID
  2
ACAD
 70
     0
  0
APPID
  2
EX_DIM
 70
     0
  0
APPID
  2
EX_TSTY
 70
     0
  0
APPID
  2
EX_TSTYL
 70
     0
  0
APPID
  2
EX_TCON
 70
     0
  0
APPID
  2
EX_TCONL
 70
     0
  0
APPID
  2
EX_ETC
 70
     0
  0
APPID
  2
ACAD_DSTYLE_DIMTEXT_FILL
 70
     0
  0
APPID
  2
ACAD_PSEXT
 70
     0
  0
APPID
  2
CONTENTBLOCKDESCRIPTION
 70
     0
  0
APPID
  2
DCO15
 70
     0
  0
APPID
  2
ACAD_DSTYLE_DIMRADIAL_EXTENSION
 70
     0
  0
APPID
  2
ACAD_EXEMPT_FROM_CAD_STANDARDS
 70
     0
  0
APPID
  2
CIR2ARC
 70
     0
  0
APPID
  2
ACAD_MLEADERVER
 70
     0
  0
APPID
  2
CONTENTBLOCKICON
 70
     0
  0
ENDTAB
  0
TABLE
  2
DIMSTYLE
 70
     1
  0
DIMSTYLE
  2
STANDARD
 70
     0
  3

  4

  5
YAZ1
  6

  7

 40
1.0
 41
1.5
 42
0.5
 43
10.0
 44
2.0
 45
0.0
 46
0.0
 47
0.0
 48
0.0
140
4.0
141
0.0
142
0.0
143
25.399999999999999
144
1.0
145
1.0
146
0.6
147
1.0
 71
     0
 72
     0
 73
     0
 74
     0
 75
     0
 76
     0
 77
     3
 78
     8
170
     0
171
     2
172
     1
173
     0
174
     0
175
     0
176
   256
177
   256
178
   256
  0
ENDTAB
  0
ENDSEC
  0
SECTION
  2
BLOCKS
  0
BLOCK
  8
0
  2
$MODEL_SPACE
 70
     0
 10
0.0
 20
0.0
 30
0.0
  3
$MODEL_SPACE
  1

  0
ENDBLK
  5
458
  8
0
  0
BLOCK
 67
     1
  8
0
  2
$PAPER_SPACE
 70
     0
 10
0.0
 20
0.0
 30
0.0
  3
$PAPER_SPACE
  1

  0
ENDBLK
  5
455
 67
     1
  8
0
  0
BLOCK
  8
0
  2
YAZ1
 70
     0
 10
0.0
 20
0.0
 30
0.0
  3
YAZ1
  1

  0
LINE
  5
30
  8
0
 62
     0
 10
-1.0
 20
0.0
 30
0.0
 11
0.0
 21
0.0
 31
0.0
  0
LINE
  5
31
  8
0
 62
     0
 10
0.0
 20
0.0
 30
0.0
 11
-1.0
 21
0.267949
 31
0.0
  0
LINE
  5
32
  8
0
 62
     0
 10
0.0
 20
0.0
 30
0.0
 11
-1.0
 21
-0.267949
 31
0.0
  0
ENDBLK
  5
34
  8
0
  0
BLOCK
  8
0
  2
INSLYTXT
 70
     0
 10
0.0
 20
0.0
 30
0.0
  3
INSLYTXT
  1

  0
ENDBLK
  5
410
  8
0
1001
EX_TSTYL
1002
{
1000
TYP1
1040
4.0
1040
0.0
1040
0.0
1040
0.0
1040
7.0
1040
0.0
1040
0.0
1040
0.0
1040
10.0
1040
0.0
1040
0.0
1040
0.0
1040
15.0
1040
0.0
1040
0.0
1040
0.0
1040
15.0
1040
0.0
1040
0.0
1040
0.0
1040
20.0
1040
0.0
1040
0.0
1040
0.0
1040
30.0
1040
0.0
1040
0.0
1040
0.0
1040
40.0
1040
0.0
1040
0.0
1040
0.0
1040
50.0
1040
0.0
1040
0.0
1040
0.0
1002
}
1001
EX_TCONL
1002
{
1000
BNO1
1000
SRD-
1000

1000
01
1070
     1
1000
PROJ-
1000
A
1000
100
1070
     1
1000
PROJ-
1000
B
1000
200
1070
     1
1000
PROJ-
1000
C
1000
300
1070
    10
1000
PROJ-
1000
C
1000
300
1070
    10
1002
}
1001
EX_DIM
1002
{
1070
     0
1040
10.0
1040
4.0
1000

1000
1
1040
0.0
1070
     1
1070
     0
1000
YAZ0
1070
     0
1002
}
1001
EX_ETC
1002
{
1040
1.0
1040
3.0
1000
ACAD
1070
    10
1070
     1
1070
     1
1070
     4
1070
     5
1070
    97
1070
     1
1002
}
1001
EX_TSTY
1002
{
1000
TYP1
1040
4.0
1040
7.0
1040
10.0
1040
15.0
1040
15.0
1040
0.0
1040
0.0
1040
0.0
1040
0.0
1040
0.0
1010
0.0
1020
0.0
1030
0.0
1010
0.0
1020
0.0
1030
0.0
1010
0.0
1020
0.0
1030
0.0
1010
0.0
1020
0.0
1030
0.0
1010
0.0
1020
0.0
1030
0.0
1002
}
1001
EX_TCON
1002
{
1000
BNO1
1000
SRD-
1000
PROJ-
1000
PROJ-
1000
PROJ-
1000
PROJ-
1000

1000
A
1000
B
1000
C
1000
C
1000
01
1000
100
1000
200
1000
300
1000
300
1070
     1
1070
     1
1070
     1
1070
    10
1070
    10
1002
}
  0
BLOCK
  8
0
 62
     0
  2
社名
 70
     0
 10
0.0
 20
0.0
 30
0.0
  3
社名
  1

  0
TEXT
  5
9C1
  8
HYO
 62
     3
 10
-1.2810730868513911
 20
-8.1570012301590396
 30
0.0
 40
16.0
  1
㈱
  7
MSP明朝
  0
TEXT
  5
9C2
  8
HYO
 62
     3
 10
26.17502231692562
 20
-10.497256279620441
 30
0.0
 40
21.232313514843749
  1
NITTO CERA
  7
MSP明朝
  0
ENDBLK
  5
9C3
  8
0
 62
     0
  0
BLOCK
  8
0
  2
*D3
 70
     1
 10
0.0
 20
0.0
 30
0.0
  3
*D3
  1

  0
LINE
  5
29C2
  8
SCALE
 10
68.482738732929022
 20
127.49041318100601
 30
0.0
 11
68.482738732929022
 21
149.11708555109601
 31
0.0
  0
LINE
  5
29C3
  8
SCALE
 10
130.57439972008069
 20
127.49041318100601
 30
0.0
 11
130.57439972008069
 21
149.11708555109601
 31
0.0
  0
LINE
  5
29C4
  8
SCALE
 10
71.482738732929022
 20
147.11708555109601
 30
0.0
 11
127.57439972008071
 21
147.11708555109601
 31
0.0
  0
INSERT
  5
29C5
  8
SCALE
  2
YAZ1
 10
68.482738732929022
 20
147.11708555109601
 30
0.0
 41
3.0
 42
3.0
 43
3.0
 50
180.0
  0
INSERT
  5
29C6
  8
SCALE
  2
YAZ1
 10
130.57439972008069
 20
147.11708555109601
 30
0.0
 41
3.0
 42
3.0
 43
3.0
  0
TEXT
  8
SCALE
  40
5
  5
29D6
  72
0
  71
0
 10
89.5286
 20
143.267
 30
0.000000
  1
%%c62
  0
POINT
  5
29C8
  8
DEFPOINTS
 62
     0
 10
68.482738732929022
 20
126.49041318100601
 30
0.0
  0
POINT
  5
29C9
  8
DEFPOINTS
 62
     0
 10
130.57439972008069
 20
126.49041318100601
 30
0.0
  0
POINT
  5
29CA
  8
DEFPOINTS
 62
     0
 10
130.57439972008069
 20
147.11708555109601
 30
0.0
  0
ENDBLK
  5
2893
  8
0
  0
BLOCK
  8
0
  2
*D4
 70
     1
 10
0.0
 20
0.0
 30
0.0
  3
*D4
  1

  0
LINE
  5
29CB
  8
SCALE
 10
100.5285692265046
 20
130.5512201246124
 30
0.0
 11
152.57439972008069
 21
130.5512201246124
 31
0.0
  0
LINE
  5
29CC
  8
SCALE
 10
114.22791017598981
 20
103.988066580687
 30
0.0
 11
152.57439972008069
 21
103.988066580687
 31
0.0
  0
LINE
  5
29CD
  8
SCALE
 10
150.57439972008069
 20
127.5512201246124
 30
0.0
 11
150.57439972008069
 21
106.988066580687
 31
0.0
  0
INSERT
  5
29CE
  8
SCALE
  2
YAZ1
 10
150.57439972008069
 20
130.5512201246124
 30
0.0
 41
3.0
 42
3.0
 43
3.0
 50
90.0
  0
INSERT
  5
29CF
  8
SCALE
  2
YAZ1
 10
150.57439972008069
 20
103.988066580687
 30
0.0
 41
3.0
 42
3.0
 43
3.0
 50
270.0
  0
TEXT
  8
SCALE
  40
5
  5
29D7
  72
0
  71
0
 10
135.574
 20
108.420
 30
0.000000
  1
27
  0
POINT
  5
29D1
  8
DEFPOINTS
 62
     0
 10
99.528569226504587
 20
130.5512201246124
 30
0.0
  0
POINT
  5
29D2
  8
DEFPOINTS
 62
     0
 10
113.22791017598981
 20
103.988066580687
 30
0.0
  0
POINT
  5
29D3
  8
DEFPOINTS
 62
     0
 10
150.57439972008069
 20
103.988066580687
 30
0.0
  0
ENDBLK
  5
28E0
  8
0
  0
ENDSEC
  0
SECTION
  2
ENTITIES
  0
TEXT
  5
3
  8
SCALE
 10
10.418721
 20
7.0
 30
0.0
 40
4.0
  1
A4
 41
0.7
 72
     2
 11
15.218721
 21
7.0
 31
0.0
 73
     1
  0
LINE
  5
95
  8
GAIKEI
 10
16.326547999999999
 20
7.193749999999997
 30
0.0
 11
16.326547999999999
 21
17.193750000000001
 31
0.0
  0
LINE
  5
96
  8
0
 10
21.326547999999999
 20
7.193749999999997
 30
0.0
 11
21.326547999999999
 21
17.193750000000001
 31
0.0
  0
LINE
  5
97
  8
DRAFRM
 10
16.326547999999999
 20
7.193749999999997
 30
0.0
 11
106.326548
 21
7.193749999999997
 31
0.0
  0
LINE
  5
9B
  8
0
 10
21.326547999999999
 20
17.193750000000001
 30
0.0
 11
21.326547999999999
 21
27.193750000000001
 31
0.0
  0
LINE
  5
9E
  8
0
 10
41.971392461278057
 20
27.193750000000001
 30
0.0
 11
41.971392461278057
 21
37.193750000000001
 31
0.0
  0
LINE
  5
9F
  8
0
 10
21.326547999999999
 20
27.193750000000001
 30
0.0
 11
21.326547999999999
 21
37.193750000000001
 31
0.0
  0
LINE
  5
A1
  8
DRAFRM
 10
61.971392461278072
 20
27.193750000000001
 30
0.0
 11
61.971392461278072
 21
37.193750000000001
 31
0.0
  0
LINE
  5
A2
  8
0
 10
46.971392461278057
 20
27.193750000000001
 30
0.0
 11
46.971392461278057
 21
37.193750000000001
 31
0.0
  0
LINE
  5
A4
  8
DRAFRM
 10
81.971392461278086
 20
27.193750000000001
 30
0.0
 11
81.971392461278086
 21
37.193750000000001
 31
0.0
  0
LINE
  5
A5
  8
0
 10
66.971392461278072
 20
27.193750000000001
 30
0.0
 11
66.971392461278072
 21
37.193750000000001
 31
0.0
  0
LINE
  5
A6
  8
0
 10
61.971392461278072
 20
27.193750000000001
 30
0.0
 11
61.971392461278072
 21
37.193750000000001
 31
0.0
  0
LINE
  5
A9
  8
0
 10
86.971392461278086
 20
27.193750000000001
 30
0.0
 11
86.971392461278086
 21
37.193750000000001
 31
0.0
  0
LINE
  5
AA
  8
0
 10
81.971392461278086
 20
27.193750000000001
 30
0.0
 11
81.971392461278086
 21
37.193750000000001
 31
0.0
  0
LINE
  5
AD
  8
GAIKEI
 10
196.326548
 20
7.193749999999997
 30
0.0
 11
196.326548
 21
17.193750000000001
 31
0.0
  0
LINE
  5
AF
  8
DRAFRM
 10
106.326548
 20
7.193749999999997
 30
0.0
 11
196.326548
 21
7.193749999999997
 31
0.0
  0
LINE
  5
B0
  8
0
 10
16.326547999999999
 20
17.193750000000001
 30
0.0
 11
196.326548
 21
17.193750000000001
 31
0.0
  0
LINE
  5
B1
  8
GAIKEI
 10
196.326548
 20
17.193750000000001
 30
0.0
 11
196.326548
 21
27.193750000000001
 31
0.0
  0
LINE
  5
B4
  8
0
 10
16.326547999999999
 20
17.193750000000001
 30
0.0
 11
196.326548
 21
17.193750000000001
 31
0.0
  0
LINE
  5
B6
  8
GAIKEI
 10
196.326548
 20
27.193750000000001
 30
0.0
 11
196.326548
 21
37.193750000000001
 31
0.0
  0
LINE
  5
303
  8
SCALE
 10
196.326548
 20
37.193750000000001
 30
0.0
 11
16.326547999999999
 21
37.193750000000001
 31
0.0
  0
LINE
  5
304
  8
GAIKEI
 10
196.326548
 20
7.193749999999997
 30
0.0
 11
196.326548
 21
37.193750000000001
 31
0.0
  0
LINE
  5
305
  8
GAIKEI
 10
16.326547999999999
 20
7.193749999999997
 30
0.0
 11
196.326548
 21
7.193749999999997
 31
0.0
  0
LINE
  5
306
  8
GAIKEI
 10
16.326547999999999
 20
37.193750000000001
 30
0.0
 11
16.326547999999999
 21
7.193749999999997
 31
0.0
  0
TEXT
  5
307
  8
SCALE
 10
23.422356702239249
 20
30.693750000000001
 30
0.0
 40
3.0
  1
2015.04.01
 41
0.7
 72
     4
 11
32.122356702239252
 21
32.193750000000001
 31
0.0
  0
TEXT
  5
309
  8
SCALE
 10
119.1173115102319
 20
19.532212340548881
 30
0.0
 40
5.0
  1
排水目皿カバー
 41
0.7
 11
119.1173115102319
 21
22.032212340548881
 31
0.0
 73
     2
  0
TEXT
  5
30B
  8
SCALE
 10
112.326548
 20
28.320478999999999
 30
0.0
 40
3.5
  1
　
 41
0.7
 11
112.326548
 21
30.070478999999999
 31
0.0
 73
     2
  0
TEXT
  5
30C
  8
SCALE
 10
51.729725794611397
 20
30.443750000000001
 30
0.0
 40
3.5
  1
1:1
 41
0.7
 72
     4
 11
54.471392461278057
 21
32.193750000000001
 31
0.0
  0
VIEWPORT
  5
30D
  8
GAIKEI
 10
106.326548
 20
160.69374999999999
 30
0.0
 40
180.0
 41
247.0
 69
     0
1001
ACAD
1000
MVIEW
1002
{
1070
    16
1010
0.0
1020
0.0
1030
0.0
1010
0.0
1020
0.0
1030
1.0
1040
0.0
1040
1235.0
1040
450.0
1040
617.49999999999977
1040
50.0
1040
0.0
1040
0.0
1070
     0
1070
   100
1070
     1
1070
     1
1070
     0
1070
     0
1070
     0
1070
     0
1040
0.0
1040
0.0
1040
0.0
1040
1.0
1040
1.0
1040
0.0
1040
0.0
1070
     1
1002
{
1002
}
1002
}
  0
LINE
  5
30F
  8
0
 10
196.326548
 20
27.193750000000001
 30
0.0
 11
16.326547999999999
 21
27.193750000000001
 31
0.0
  0
LINE
  5
310
  8
GAIKEI
 10
16.326547999999999
 20
17.193750000000001
 30
0.0
 11
16.326547999999999
 21
37.193750000000001
 31
0.0
  0
TEXT
  5
311
  8
SCALE
 10
17.683214666666672
 20
7.9437499999999988
 30
0.0
 40
3.5
  1
考
 41
0.7
 72
     1
 11
18.826547999999999
 21
9.6937499999999996
 31
0.0
 73
     2
  0
TEXT
  5
312
  8
SCALE
 10
17.683214666666672
 20
12.94375
 30
0.0
 40
3.5
  1
備
 41
0.7
 72
     1
 11
18.826547999999999
 21
14.69375
 31
0.0
 73
     2
  0
TEXT
  5
313
  8
SCALE
 10
103.4097257946066
 20
17.943750000000001
 30
0.0
 40
3.5
  1
名
 41
0.7
 72
     1
 11
104.4713924612733
 21
19.693750000000001
 31
0.0
 73
     2
  0
TEXT
  5
314
  8
SCALE
 10
103.32805912793989
 20
22.943750000000001
 30
0.0
 40
3.5
  1
品
 41
0.7
 72
     1
 11
104.4713924612733
 21
24.693750000000001
 31
0.0
 73
     2
  0
TEXT
  5
315
  8
SCALE
 10
17.683214666666672
 20
17.943750000000001
 30
0.0
 40
3.5
  1
番
 41
0.7
 72
     1
 11
18.826547999999999
 21
19.693750000000001
 31
0.0
 73
     2
  0
TEXT
  5
316
  8
SCALE
 10
17.683214666666672
 20
22.943750000000001
 30
0.0
 40
3.5
  1
図
 41
0.7
 72
     1
 11
18.826547999999999
 21
24.693750000000001
 31
0.0
 73
     2
  0
TEXT
  5
317
  8
SCALE
 10
103.32805912793989
 20
27.943750000000001
 30
0.0
 40
3.5
  1
番
 41
0.7
 72
     1
 11
104.4713924612733
 21
29.693750000000001
 31
0.0
 73
     2
  0
TEXT
  5
318
  8
SCALE
 10
103.32805912793989
 20
32.943750000000001
 30
0.0
 40
3.5
  1
品
 41
0.7
 72
     1
 11
104.4713924612733
 21
34.693750000000001
 31
0.0
 73
     2
  0
TEXT
  5
319
  8
SCALE
 10
83.328059127944755
 20
27.943750000000001
 30
0.0
 40
3.5
  1
図
 41
0.7
 72
     1
 11
84.471392461278086
 21
29.693750000000001
 31
0.0
 73
     2
  0
TEXT
  5
31A
  8
SCALE
 10
83.328059127944755
 20
32.943750000000001
 30
0.0
 40
3.5
  1
検
 41
0.7
 72
     1
 11
84.471392461278086
 21
34.693750000000001
 31
0.0
 73
     2
  0
TEXT
  5
31B
  8
SCALE
 10
63.328059127944741
 20
27.943750000000001
 30
0.0
 40
3.5
  1
図
 41
0.7
 72
     1
 11
64.471392461278072
 21
29.693750000000001
 31
0.0
 73
     2
  0
TEXT
  5
31C
  8
SCALE
 10
63.328059127944741
 20
32.943750000000001
 30
0.0
 40
3.5
  1
製
 41
0.7
 72
     1
 11
64.471392461278072
 21
34.693750000000001
 31
0.0
 73
     2
  0
TEXT
  5
31D
  8
SCALE
 10
43.328059127944726
 20
27.943750000000001
 30
0.0
 40
3.5
  1
度
 41
0.7
 72
     1
 11
44.471392461278057
 21
29.693750000000001
 31
0.0
 73
     2
  0
TEXT
  5
31E
  8
SCALE
 10
43.328059127944726
 20
32.943750000000001
 30
0.0
 40
3.5
  1
尺
 41
0.7
 72
     1
 11
44.471392461278057
 21
34.693750000000001
 31
0.0
 73
     2
  0
TEXT
  5
31F
  8
SCALE
 10
17.683214666666672
 20
27.943750000000001
 30
0.0
 40
3.5
  1
付
 41
0.7
 72
     1
 11
18.826547999999999
 21
29.693750000000001
 31
0.0
 73
     2
  0
TEXT
  5
320
  8
SCALE
 10
17.683214666666672
 20
32.943750000000001
 30
0.0
 40
3.5
  1
日
 41
0.7
 72
     1
 11
18.826547999999999
 21
34.693750000000001
 31
0.0
 73
     2
  0
TEXT
  5
321
  8
SCALE
 10
119.1173115102319
 20
29.34375
 30
0.0
 40
5.0
  1
JPK11500
 41
0.7
 11
119.1173115102319
 21
31.84375
 31
0.0
 73
     2
  0
TEXT
  5
43C
  8
0
 10
126.432
 20
168.077
 30
0.0
 40
4.0
  1
　
  0
TEXT
  5
43E
  8
0
 10
126.291
 20
156.75399999999999
 30
0.0
 40
4.0
  1
　
  0
INSERT
  5
42E
  8
0
  2
INSLYTXT
 10
0.0
 20
0.0
 30
0.0
  0
LINE
  5
236F
  8
HOJYO
 10
1.168075349743275
 20
-0.2911718426979632
 30
0.0
 11
1.168075349743275
 21
296.70882815730198
 31
0.0
  0
LINE
  5
2370
  8
HOJYO
 10
1.168075349743275
 20
296.70882815730198
 30
0.0
 11
211.1680753497433
 21
296.70882815730198
 31
0.0
  0
LINE
  5
2371
  8
HOJYO
 10
211.1680753497433
 20
296.70882815730198
 30
0.0
 11
211.1680753497433
 21
-0.2911718426979632
 31
0.0
  0
LINE
  5
2372
  8
HOJYO
 10
211.1680753497433
 20
-0.2911718426979632
 30
0.0
 11
1.168075349743275
 21
-0.2911718426979632
 31
0.0
  0
LINE
  5
26B3
  8
0
 10
101.9713924612733
 20
37.193750000000001
 30
0.0
 11
101.9713924612733
 21
7.1937499999999979
 31
0.0
  0
LINE
  5
26B5
  8
0
 10
106.9713924612733
 20
37.193750000000001
 30
0.0
 11
106.9713924612733
 21
17.193750000000001
 31
0.0
  0
LINE
  5
2841
  8
GAIKEI
 10
98.636515493194565
 20
115.988066580687
 30
0.0
 11
100.4206229598152
 21
115.988066580687
 31
0.0
  0
ARC
  5
2842
  8
GAIKEI
 10
69.482738732929022
 20
126.49041318100601
 30
0.0
 40
1.0
 50
101.6334554888652
 51
235.00000000000071
  0
ARC
  5
2843
  8
GAIKEI
 10
129.57439972008069
 20
126.49041318100601
 30
0.0
 40
1.0
 50
304.99999999999932
 51
78.366544511131394
  0
ARC
  5
2844
  8
GAIKEI
 10
113.22791017598981
 20
104.988066580687
 30
0.0
 40
1.0
 50
270.0
 51
0.0
  0
ARC
  5
2845
  8
GAIKEI
 10
87.664021628237094
 20
104.988066580687
 30
0.0
 40
1.0
 50
180.0
 51
270.0
  0
LINE
  5
2846
  8
GAIKEI
 10
87.664021628237094
 20
103.988066580687
 30
0.0
 11
113.22791017598981
 21
103.988066580687
 31
0.0
  0
LINE
  5
2847
  8
GAIKEI
 10
86.664021628237094
 20
104.988066580687
 30
0.0
 11
86.664021628237094
 21
115.988066580687
 31
0.0
  0
LINE
  5
2848
  8
GAIKEI
 10
114.22791017598981
 20
104.988066580687
 30
0.0
 11
114.22791017598981
 21
115.988066580687
 31
0.0
  0
LINE
  5
2849
  8
CENTER
 62
     6
 10
99.528569226504587
 20
135.55122012461251
 30
0.0
 11
99.528569226504999
 21
101.9880665806871
 31
0.0
  0
LINE
  5
284A
  8
CENTER
 62
     6
 10
62.028569226504928
 20
210.5512201246124
 30
0.0
 11
137.02856922650491
 21
210.5512201246124
 31
0.0
  0
LINE
  5
284B
  8
CENTER
 62
     6
 10
99.52856922650497
 20
248.0512201246124
 30
0.0
 11
99.52856922650497
 21
173.05122012461231
 31
0.0
  0
LINE
  5
284C
  8
GAIKEI
 10
98.636515493194565
 20
124.9880665806871
 30
0.0
 11
98.636515493194565
 21
103.988066580687
 31
0.0
  0
LINE
  5
284D
  8
GAIKEI
 10
114.22791017598981
 20
115.988066580687
 30
0.0
 11
119.3131789173264
 21
115.988066580687
 31
0.0
  0
LINE
  5
284E
  8
GAIKEI
 10
85.664021628237094
 20
115.988066580687
 30
0.0
 11
86.664021628237094
 21
115.988066580687
 31
0.0
  0
LINE
  5
284F
  8
GAIKEI
 10
69.884865239989253
 20
124.9880665806871
 30
0.0
 11
129.1722732130205
 21
124.9880665806871
 31
0.0
  0
ARC
  5
2850
  8
GAIKEI
 10
119.3131789173264
 20
116.9880665806871
 30
0.0
 40
1.0
 50
270.0
 51
0.0
  0
LINE
  5
2851
  8
GAIKEI
 10
120.3131789173264
 20
116.9880665806871
 30
0.0
 11
120.3131789173264
 21
124.9880665806871
 31
0.0
  0
LINE
  5
2852
  8
GAIKEI
 10
115.22791017598981
 20
115.988066580687
 30
0.0
 11
119.3131789173264
 21
115.988066580687
 31
0.0
  0
LINE
  5
2853
  8
GAIKEI
 10
78.611019568176346
 20
124.9880665806871
 30
0.0
 11
69.884865239989253
 21
124.9880665806871
 31
0.0
  0
LINE
  5
2854
  8
GAIKEI
 10
85.664021628237094
 20
115.988066580687
 30
0.0
 11
79.74395953567614
 21
115.988066580687
 31
0.0
  0
ARC
  5
2855
  8
GAIKEI
 10
99.528569226504587
 20
-19.448779875387569
 30
0.0
 40
150.0
 50
78.366544511131394
 51
101.63345548886861
  0
LINE
  5
2856
  8
GAIKEI
 10
69.884865239989253
 20
124.9880665806871
 30
0.0
 11
68.909162296577989
 21
125.67126113671701
 31
0.0
  0
LINE
  5
2857
  8
GAIKEI
 10
130.1479761564317
 20
125.67126113671689
 30
0.0
 11
129.1722732130205
 21
124.9880665806871
 31
0.0
  0
LINE
  5
2858
  8
GAIKEI
 10
68.615362751139173
 20
126.9880665806871
 30
0.0
 11
130.4417757018704
 21
126.9880665806871
 31
0.0
  0
ARC
  5
2859
  8
GAIKEI
  6
DASHED2
 62
     0
 10
83.528569226504885
 20
219.7888244316465
 30
0.0
 40
15.0
 50
300.00000000000023
 51
0.0
  0
ARC
  5
285A
  8
GAIKEI
  6
DASHED2
 62
     0
 10
115.5285692265049
 20
219.7888244316417
 30
0.0
 40
15.0
 50
180.0
 51
239.99999999997181
  0
ARC
  5
285B
  8
GAIKEI
  6
DASHED2
 62
     0
 10
99.528569226505184
 20
192.076011510542
 30
0.0
 40
15.0
 50
59.999999999971791
 51
120.000000000002
  0
ARC
  5
285C
  8
GAIKEI
  6
DASHED2
 62
     0
 10
119.44715351354149
 20
199.05122012460279
 30
0.0
 40
1.0
 50
239.99999999997181
 51
59.999999999971791
  0
ARC
  5
285D
  8
GAIKEI
  6
DASHED2
 62
     0
 10
79.609984939462763
 20
199.05122012461251
 30
0.0
 40
1.0
 50
120.000000000002
 51
300.00000000000023
  0
ARC
  5
285E
  8
GAIKEI
  6
DASHED2
 62
     0
 10
99.52856922650497
 20
233.5512201246124
 30
0.0
 40
1.0
 50
0.0
 51
180.0
  0
LINE
  5
285F
  8
GAIKEI
  6
DASHED2
 62
     0
 10
118.9471535135411
 20
198.18519472081871
 30
0.0
 11
107.02856922651161
 21
205.06639256730489
 31
0.0
  0
LINE
  5
2860
  8
GAIKEI
  6
DASHED2
 62
     0
 10
119.94715351354201
 20
199.91724552838701
 30
0.0
 11
108.0285692264984
 21
206.7984433748789
 31
0.0
  0
LINE
  5
2861
  8
GAIKEI
  6
DASHED2
 62
     0
 10
80.109984939462805
 20
198.18519472082789
 30
0.0
 11
92.028569226505127
 21
205.06639256730861
 31
0.0
  0
LINE
  5
2862
  8
GAIKEI
  6
DASHED2
 62
     0
 10
79.109984939462834
 20
199.91724552839679
 30
0.0
 11
91.028569226504914
 21
206.79844337487989
 31
0.0
  0
LINE
  5
2863
  8
GAIKEI
  6
DASHED2
 62
     0
 10
98.528569226504885
 20
219.7888244316465
 30
0.0
 11
98.528569226504885
 21
233.5512201246124
 31
0.0
  0
LINE
  5
2864
  8
GAIKEI
  6
DASHED2
 62
     0
 10
100.5285692265049
 20
219.7888244316417
 30
0.0
 11
100.5285692265049
 21
233.5512201246124
 31
0.0
  0
CIRCLE
  5
2865
  8
GAIKEI
 10
99.52856922650497
 20
210.5512201246124
 30
0.0
 40
32.5
  0
CIRCLE
  5
2866
  8
GAIKEI
 10
99.52856922650497
 20
210.5512201246124
 30
0.0
 40
32.5
  0
LINE
  5
2867
  8
GAIKEI
 10
100.4206229598152
 20
124.9880665806871
 30
0.0
 11
100.42062295981511
 21
103.988066580687
 31
0.0
  0
LINE
  5
2868
  8
GAIKEI
 10
78.74395953567614
 20
124.988066580687
 30
0.0
 11
78.74395953567614
 21
116.9880665806856
 31
0.0
  0
ARC
  5
2869
  8
GAIKEI
 10
79.74395953567614
 20
116.9880665806856
 30
0.0
 40
1.0
 50
180.0
 51
270.0
  0
DIMENSION
  5
2890
  8
SCALE
  2
*D3
 10
130.57439972008069
 20
147.11708555109601
 30
0.0
 11
99.528569226504857
 21
152.11708555109601
 31
0.0
 70
     0
 13
68.482738732929022
 23
126.49041318100601
 33
0.0
 14
130.57439972008069
 24
126.49041318100601
 34
0.0
1001
ACAD
1000
DSTYLE
1002
{
1070
   287
1070
     1
1070
     3
1000
%%c<>
1070
    41
1040
3.0
1070
    42
1040
1.0
1070
    77
1070
     0
1070
    79
1070
     2
1070
   140
1040
5.0
1070
   172
1070
     0
1070
   179
1070
     2
1070
   271
1070
     0
1070
   289
1070
     1
1002
}
  0
DIMENSION
  5
28DD
  8
SCALE
  2
*D4
 10
150.57439972008069
 20
103.988066580687
 30
0.0
 11
145.57439972008061
 21
117.26964335264969
 31
0.0
 70
     0
 13
99.528569226504587
 23
130.5512201246124
 33
0.0
 14
113.22791017598981
 24
103.988066580687
 34
0.0
 50
90.0
1001
ACAD
1000
DSTYLE
1002
{
1070
   287
1070
     1
1070
     3
1000
<>
1070
    41
1040
3.0
1070
    42
1040
1.0
1070
    77
1070
     0
1070
    79
1070
     2
1070
   140
1040
5.0
1070
   172
1070
     0
1070
   179
1070
     2
1070
   271
1070
     0
1070
   289
1070
     1
1002
}
  0
TEXT
  5
2979
  8
SCALE
 10
127.89897023063661
 20
9.6937499999999996
 30
0.0
 40
5.0
  1
グローエジャパン(株)
 41
0.7
 72
     1
 11
149.14897023063659
 21
12.19375
 31
0.0
 73
     2
  0
VIEWPORT
  5
295F
 67
     1
  8
0
 10
5.2499996395561652
 20
3.9999998836066779
 30
0.0
 40
21.058215373268421
 41
8.9929997457669497
 68
     1
 69
     1
1001
ACAD
1000
MVIEW
1002
{
1070
    16
1010
0.0
1020
0.0
1030
0.0
1010
0.0
1020
0.0
1030
1.0
1040
0.0
1040
8.9929997457669497
1040
5.2499996395561652
1040
3.9999998836066779
1040
50.0
1040
0.0
1040
0.0
1070
     0
1070
  1000
1070
     1
1070
     1
1070
     0
1070
     0
1070
     0
1070
     0
1040
0.0
1040
0.0
1040
0.0
1040
10.0
1040
10.0
1040
10.0
1040
10.0
1070
     0
1002
{
1002
}
1002
}
  0
VIEWPORT
  5
2963
 67
     1
  8
0
 10
5.2499997615814209
 20
3.9999997615814209
 30
0.0
 40
8.3999996185302752
 41
6.3999996185302743
 68
     2
 69
     2
1001
ACAD
1000
MVIEW
1002
{
1070
    16
1010
0.0
1020
0.0
1030
0.0
1010
0.0
1020
0.0
1030
1.0
1040
0.0
1040
300.28176795580112
1040
106.1680753497433
1040
148.20882815730201
1040
50.0
1040
0.0
1040
0.0
1070
     0
1070
  1000
1070
     1
1070
     1
1070
     0
1070
     0
1070
     0
1070
     0
1040
0.0
1040
0.0
1040
0.0
1040
1.0
1040
1.0
1040
0.0
1040
0.0
1070
     0
1002
{
1002
}
1002
}
  0
ENDSEC
  0
EOF
