  0
SECTION
  2
HEADER
  9
$ACADVER
  1
AC1021
  9
$ACADMAINTVER
 70
    50
  9
$DWGCODEPAGE
  3
ANSI_932
  9
$LASTSAVEDBY
  1
yamadak36
  9
$INSBASE
 10
0.0
 20
0.0
 30
0.0
  9
$EXTMIN
 10
-1720.197743782572
 20
-1228.021705028929
 30
-0.0000000349181948
  9
$EXTMAX
 10
1720.197775448409
 20
1228.021727530931
 30
0.0000000814935747
  9
$LIMMIN
 10
-1680.0
 20
-1188.0
  9
$LIMMAX
 10
1680.0
 20
1188.0
  9
$ORTHOMODE
 70
     0
  9
$REGENMODE
 70
     1
  9
$FILLMODE
 70
     1
  9
$QTEXTMODE
 70
     0
  9
$MIRRTEXT
 70
     1
  9
$LTSCALE
 40
2.0
  9
$ATTMODE
 70
     1
  9
$TEXTSIZE
 40
0.2
  9
$TRACEWID
 40
0.05
  9
$TEXTSTYLE
  7
STANDARD
  9
$CLAYER
  8
0
  9
$CELTYPE
  6
ByLayer
  9
$CECOLOR
 62
   256
  9
$CELTSCALE
 40
1.0
  9
$DISPSILH
 70
     0
  9
$DIMSCALE
 40
1.0
  9
$DIMASZ
 40
24.00001525878906
  9
$DIMEXO
 40
1.0
  9
$DIMDLI
 40
10.0
  9
$DIMRND
 40
0.0
  9
$DIMDLE
 40
0.0
  9
$DIMEXE
 40
1.0
  9
$DIMTP
 40
0.0
  9
$DIMTM
 40
0.0
  9
$DIMTXT
 40
32.0
  9
$DIMCEN
 40
0.0
  9
$DIMTSZ
 40
0.0
  9
$DIMTOL
 70
     0
  9
$DIMLIM
 70
     0
  9
$DIMTIH
 70
     0
  9
$DIMTOH
 70
     0
  9
$DIMSE1
 70
     0
  9
$DIMSE2
 70
     0
  9
$DIMTAD
 70
     1
  9
$DIMZIN
 70
     8
  9
$DIMBLK
  1

  9
$DIMASO
 70
     1
  9
$DIMSHO
 70
     1
  9
$DIMPOST
  1

  9
$DIMAPOST
  1

  9
$DIMALT
 70
     0
  9
$DIMALTD
 70
     2
  9
$DIMALTF
 40
25.4
  9
$DIMLFAC
 40
1.0
  9
$DIMTOFL
 70
     0
  9
$DIMTVP
 40
0.0
  9
$DIMTIX
 70
     0
  9
$DIMSOXD
 70
     0
  9
$DIMSAH
 70
     0
  9
$DIMBLK1
  1

  9
$DIMBLK2
  1

  9
$DIMSTYLE
  2
STANDARD
  9
$DIMCLRD
 70
     0
  9
$DIMCLRE
 70
     0
  9
$DIMCLRT
 70
     0
  9
$DIMTFAC
 40
0.65
  9
$DIMGAP
 40
0.09
  9
$DIMJUST
 70
     0
  9
$DIMSD1
 70
     0
  9
$DIMSD2
 70
     0
  9
$DIMTOLJ
 70
     1
  9
$DIMTZIN
 70
     0
  9
$DIMALTZ
 70
     0
  9
$DIMALTTZ
 70
     0
  9
$DIMUPT
 70
     0
  9
$DIMDEC
 70
     4
  9
$DIMTDEC
 70
     4
  9
$DIMALTU
 70
     2
  9
$DIMALTTD
 70
     2
  9
$DIMTXSTY
  7
STANDARD
  9
$DIMAUNIT
 70
     0
  9
$DIMADEC
 70
     0
  9
$DIMALTRND
 40
0.0
  9
$DIMAZIN
 70
     0
  9
$DIMDSEP
 70
    46
  9
$DIMATFIT
 70
     3
  9
$DIMFRAC
 70
     0
  9
$DIMLDRBLK
  1

  9
$DIMLUNIT
 70
     2
  9
$DIMLWD
 70
    -2
  9
$DIMLWE
 70
    -2
  9
$DIMTMOVE
 70
     0
  9
$DIMFXL
 40
1.0
  9
$DIMFXLON
 70
     0
  9
$DIMJOGANG
 40
0.7853981633974483
  9
$DIMTFILL
 70
     0
  9
$DIMTFILLCLR
 70
     0
  9
$DIMARCSYM
 70
     0
  9
$DIMLTYPE
  6

  9
$DIMLTEX1
  6

  9
$DIMLTEX2
  6

  9
$LUNITS
 70
     2
  9
$LUPREC
 70
     4
  9
$SKETCHINC
 40
0.1
  9
$FILLETRAD
 40
0.5
  9
$AUNITS
 70
     0
  9
$AUPREC
 70
     0
  9
$MENU
  1
.
  9
$ELEVATION
 40
0.0
  9
$PELEVATION
 40
0.0
  9
$THICKNESS
 40
0.0
  9
$LIMCHECK
 70
     0
  9
$CHAMFERA
 40
0.0
  9
$CHAMFERB
 40
0.0
  9
$CHAMFERC
 40
0.0
  9
$CHAMFERD
 40
0.0
  9
$SKPOLY
 70
     0
  9
$TDCREATE
 40
2457417.592306771
  9
$TDUCREATE
 40
2457417.217306771
  9
$TDUPDATE
 40
2457424.778647419
  9
$TDUUPDATE
 40
2457424.403647419
  9
$TDINDWG
 40
0.0057354167
  9
$TDUSRTIMER
 40
0.0057353356
  9
$USRTIMER
 70
     1
  9
$ANGBASE
 50
0.0
  9
$ANGDIR
 70
     0
  9
$PDMODE
 70
     0
  9
$PDSIZE
 40
1.0
  9
$PLINEWID
 40
0.0
  9
$SPLFRAME
 70
     0
  9
$SPLINETYPE
 70
     6
  9
$SPLINESEGS
 70
     8
  9
$HANDSEED
  5
F66
  9
$SURFTAB1
 70
     6
  9
$SURFTAB2
 70
     6
  9
$SURFTYPE
 70
     6
  9
$SURFU
 70
     6
  9
$SURFV
 70
     6
  9
$UCSBASE
  2

  9
$UCSNAME
  2

  9
$UCSORG
 10
0.0
 20
0.0
 30
0.0
  9
$UCSXDIR
 10
1.0
 20
0.0
 30
0.0
  9
$UCSYDIR
 10
0.0
 20
1.0
 30
0.0
  9
$UCSORTHOREF
  2

  9
$UCSORTHOVIEW
 70
     0
  9
$UCSORGTOP
 10
0.0
 20
0.0
 30
0.0
  9
$UCSORGBOTTOM
 10
0.0
 20
0.0
 30
0.0
  9
$UCSORGLEFT
 10
0.0
 20
0.0
 30
0.0
  9
$UCSORGRIGHT
 10
0.0
 20
0.0
 30
0.0
  9
$UCSORGFRONT
 10
0.0
 20
0.0
 30
0.0
  9
$UCSORGBACK
 10
0.0
 20
0.0
 30
0.0
  9
$PUCSBASE
  2

  9
$PUCSNAME
  2

  9
$PUCSORG
 10
0.0
 20
0.0
 30
0.0
  9
$PUCSXDIR
 10
1.0
 20
0.0
 30
0.0
  9
$PUCSYDIR
 10
0.0
 20
1.0
 30
0.0
  9
$PUCSORTHOREF
  2

  9
$PUCSORTHOVIEW
 70
     0
  9
$PUCSORGTOP
 10
0.0
 20
0.0
 30
0.0
  9
$PUCSORGBOTTOM
 10
0.0
 20
0.0
 30
0.0
  9
$PUCSORGLEFT
 10
0.0
 20
0.0
 30
0.0
  9
$PUCSORGRIGHT
 10
0.0
 20
0.0
 30
0.0
  9
$PUCSORGFRONT
 10
0.0
 20
0.0
 30
0.0
  9
$PUCSORGBACK
 10
0.0
 20
0.0
 30
0.0
  9
$USERI1
 70
     0
  9
$USERI2
 70
     0
  9
$USERI3
 70
     0
  9
$USERI4
 70
     0
  9
$USERI5
 70
     0
  9
$USERR1
 40
0.0
  9
$USERR2
 40
0.0
  9
$USERR3
 40
0.0
  9
$USERR4
 40
0.0
  9
$USERR5
 40
0.0
  9
$WORLDVIEW
 70
     1
  9
$SHADEDGE
 70
     3
  9
$SHADEDIF
 70
    70
  9
$TILEMODE
 70
     1
  9
$MAXACTVP
 70
    64
  9
$PINSBASE
 10
0.0
 20
0.0
 30
0.0
  9
$PLIMCHECK
 70
     0
  9
$PEXTMIN
 10
1.000000000000000E+20
 20
1.000000000000000E+20
 30
1.000000000000000E+20
  9
$PEXTMAX
 10
-1.000000000000000E+20
 20
-1.000000000000000E+20
 30
-1.000000000000000E+20
  9
$PLIMMIN
 10
0.0
 20
0.0
  9
$PLIMMAX
 10
12.0
 20
9.0
  9
$UNITMODE
 70
     0
  9
$VISRETAIN
 70
     0
  9
$PLINEGEN
 70
     1
  9
$PSLTSCALE
 70
     0
  9
$TREEDEPTH
 70
  3020
  9
$CMLSTYLE
  2
Standard
  9
$CMLJUST
 70
     0
  9
$CMLSCALE
 40
1.0
  9
$PROXYGRAPHICS
 70
     1
  9
$MEASUREMENT
 70
     0
  9
$CELWEIGHT
370
    -1
  9
$ENDCAPS
280
     0
  9
$JOINSTYLE
280
     0
  9
$LWDISPLAY
290
     0
  9
$INSUNITS
 70
     0
  9
$HYPERLINKBASE
  1

  9
$STYLESHEET
  1

  9
$XEDIT
290
     1
  9
$CEPSNTYPE
380
     0
  9
$PSTYLEMODE
290
     1
  9
$FINGERPRINTGUID
  2
{6A93D8A6-7F47-4111-BBDA-95A63D3D1604}
  9
$VERSIONGUID
  2
{6ED120A9-C0EF-4228-A4DE-67012ECC2617}
  9
$EXTNAMES
290
     1
  9
$PSVPSCALE
 40
0.0
  9
$OLESTARTUP
290
     0
  9
$SORTENTS
280
   127
  9
$INDEXCTL
280
     0
  9
$HIDETEXT
280
     0
  9
$XCLIPFRAME
290
     0
  9
$HALOGAP
280
     0
  9
$OBSCOLOR
 70
   257
  9
$OBSLTYPE
280
     0
  9
$INTERSECTIONDISPLAY
280
     0
  9
$INTERSECTIONCOLOR
 70
   257
  9
$DIMASSOC
280
     1
  9
$PROJECTNAME
  1

  9
$CAMERADISPLAY
290
     0
  9
$LENSLENGTH
 40
50.0
  9
$CAMERAHEIGHT
 40
0.0
  9
$STEPSPERSEC
 40
2.0
  9
$STEPSIZE
 40
6.0
  9
$3DDWFPREC
 40
2.0
  9
$PSOLWIDTH
 40
0.25
  9
$PSOLHEIGHT
 40
4.0
  9
$LOFTANG1
 40
1.570796326794896
  9
$LOFTANG2
 40
1.570796326794896
  9
$LOFTMAG1
 40
0.0
  9
$LOFTMAG2
 40
0.0
  9
$LOFTPARAM
 70
     7
  9
$LOFTNORMALS
280
     1
  9
$LATITUDE
 40
37.795
  9
$LONGITUDE
 40
-122.394
  9
$NORTHDIRECTION
 40
0.0
  9
$TIMEZONE
 70
 -8000
  9
$LIGHTGLYPHDISPLAY
280
     1
  9
$TILEMODELIGHTSYNCH
280
     1
  9
$CMATERIAL
347
D65
  9
$SOLIDHIST
280
     1
  9
$SHOWHIST
280
     1
  9
$DWFFRAME
280
     2
  9
$DGNFRAME
280
     0
  9
$REALWORLDSCALE
290
     1
  9
$INTERFERECOLOR
 62
     1
  9
$INTERFEREOBJVS
345
D87
  9
$INTERFEREVPVS
346
D84
  9
$CSHADOW
280
     0
  9
$SHADOWPLANELOCATION
 40
0.0
  0
ENDSEC
  0
SECTION
  2
CLASSES
  0
CLASS
  1
ACDBDICTIONARYWDFLT
  2
AcDbDictionaryWithDefault
  3
ObjectDBX Classes
 90
        0
 91
        1
280
     0
281
     0
  0
CLASS
  1
MATERIAL
  2
AcDbMaterial
  3
ObjectDBX Classes
 90
     1153
 91
        3
280
     0
281
     0
  0
CLASS
  1
VISUALSTYLE
  2
AcDbVisualStyle
  3
ObjectDBX Classes
 90
     4095
 91
       24
280
     0
281
     0
  0
CLASS
  1
SCALE
  2
AcDbScale
  3
ObjectDBX Classes
 90
     1153
 91
       17
280
     0
281
     0
  0
CLASS
  1
TABLESTYLE
  2
AcDbTableStyle
  3
ObjectDBX Classes
 90
     4095
 91
        1
280
     0
281
     0
  0
CLASS
  1
MLEADERSTYLE
  2
AcDbMLeaderStyle
  3
ACDB_MLEADERSTYLE_CLASS
 90
     4095
 91
        1
280
     0
281
     0
  0
CLASS
  1
ACAD_EVALUATION_GRAPH
  2
AcDbEvalGraph
  3
ObjectDBX Classes
 90
     1153
 91
        0
280
     0
281
     0
  0
CLASS
  1
ACAECUSTOBJ
  2
AcAeEditorObj
  3
AcAeEditorObj
 90
     1024
 91
        0
280
     0
281
     0
  0
CLASS
  1
ACDB_DYNAMICBLOCKPURGEPREVENTER_VERSION
  2
AcDbDynamicBlockPurgePreventer
  3
ObjectDBX Classes
 90
     1153
 91
        0
280
     0
281
     0
  0
CLASS
  1
CELLSTYLEMAP
  2
AcDbCellStyleMap
  3
ObjectDBX Classes
 90
     1152
 91
        2
280
     0
281
     0
  0
CLASS
  1
DICTIONARYVAR
  2
AcDbDictionaryVar
  3
ObjectDBX Classes
 90
        0
 91
        9
280
     0
281
     0
  0
ENDSEC
  0
SECTION
  2
TABLES
  0
TABLE
  2
VPORT
  5
D5C
330
0
100
AcDbSymbolTable
 70
     1
  0
VPORT
  5
DC3
330
D5C
100
AcDbSymbolTableRecord
100
AcDbViewportTableRecord
  2
*ACTIVE
 70
     0
 10
0.0
 20
0.0
 11
1.0
 21
1.0
 12
0.0000158329180522
 22
0.0000112510008421
 13
0.0
 23
0.0
 14
0.5
 24
0.5
 15
0.5
 25
0.5
 16
0.0
 26
0.0
 36
1.0
 17
0.0000000000001101
 27
0.0000000000002274
 37
0.0
 40
2475.231271876735
 41
2.079530638852672
 42
50.0
 43
0.0
 44
0.0
 50
0.0
 51
0.0
 71
     0
 72
  1000
 73
     1
 74
     1
 75
     0
 76
     0
 77
     0
 78
     0
281
     0
 65
     1
110
0.0
120
0.0
130
0.0
111
1.0
121
0.0
131
0.0
112
0.0
122
1.0
132
0.0
 79
     0
146
0.0
348
D83
 60
     3
 61
     5
292
     1
282
     0
141
0.0
142
0.0
 63
   250
421
  3355443
  0
ENDTAB
  0
TABLE
  2
LTYPE
  5
D59
330
0
100
AcDbSymbolTable
 70
    67
  0
LTYPE
  5
DAE
330
D59
100
AcDbSymbolTableRecord
100
AcDbLinetypeTableRecord
  2
ByBlock
 70
     0
  3

 72
    65
 73
     0
 40
0.0
  0
LTYPE
  5
DAF
330
D59
100
AcDbSymbolTableRecord
100
AcDbLinetypeTableRecord
  2
ByLayer
 70
     0
  3

 72
    65
 73
     0
 40
0.0
  0
LTYPE
  5
DB0
330
D59
100
AcDbSymbolTableRecord
100
AcDbLinetypeTableRecord
  2
CONTINUOUS
 70
     0
  3
Solid line
 72
    65
 73
     0
 40
0.0
  0
LTYPE
  5
DC4
330
D59
100
AcDbSymbolTableRecord
100
AcDbLinetypeTableRecord
  2
HIDDENX2
 70
     0
  3
Hidden (2x) ____ ____ ____ ____ ____ ____ ____ 
 72
    65
 73
     2
 40
19.05
 49
12.7
 74
     0
 49
-6.349999999999998
 74
     0
  0
LTYPE
  5
DC5
330
D59
100
AcDbSymbolTableRecord
100
AcDbLinetypeTableRecord
  2
HIDDEN
 70
     0
  3
Hidden __ __ __ __ __ __ __ __ __ __ __ __ __ __
 72
    65
 73
     2
 40
9.525
 49
6.349999999999998
 74
     0
 49
-3.174999999999998
 74
     0
  0
LTYPE
  5
DC6
330
D59
100
AcDbSymbolTableRecord
100
AcDbLinetypeTableRecord
  2
HIDDEN2
 70
     0
  3
Hidden (.5x) _ _ _ _ _ _ _ _ _ _ _ _ _ _ _ _ _ 
 72
    65
 73
     2
 40
4.762499999999998
 49
3.174999999999998
 74
     0
 49
-1.587499999999999
 74
     0
  0
LTYPE
  5
DC7
330
D59
100
AcDbSymbolTableRecord
100
AcDbLinetypeTableRecord
  2
DASHED
 70
     0
  3
Dashed __ __ __ __ __ __ __ __ __ __ __ __ __ _
 72
    65
 73
     2
 40
19.05
 49
12.7
 74
     0
 49
-6.349999999999998
 74
     0
  0
LTYPE
  5
DC8
330
D59
100
AcDbSymbolTableRecord
100
AcDbLinetypeTableRecord
  2
DASHED2
 70
     0
  3
Dashed (.5x) _ _ _ _ _ _ _ _ _ _ _ _ _ _ _ _ _ 
 72
    65
 73
     2
 40
9.525
 49
6.349999999999998
 74
     0
 49
-3.174999999999998
 74
     0
  0
LTYPE
  5
DC9
330
D59
100
AcDbSymbolTableRecord
100
AcDbLinetypeTableRecord
  2
DASHEDX2
 70
     0
  3
Dashed (2x) ____  ____  ____  ____  ____  ___
 72
    65
 73
     2
 40
38.09999999999999
 49
25.4
 74
     0
 49
-12.7
 74
     0
  0
LTYPE
  5
DCA
330
D59
100
AcDbSymbolTableRecord
100
AcDbLinetypeTableRecord
  2
DOTX2
 70
     0
  3
Dot (2x) .  .  .  .  .  .  .  .  .  .  .  .  .  .
 72
    65
 73
     2
 40
12.7
 49
0.0
 74
     0
 49
-12.7
 74
     0
  0
LTYPE
  5
DCB
330
D59
100
AcDbSymbolTableRecord
100
AcDbLinetypeTableRecord
  2
DOT
 70
     0
  3
Dot . . . . . . . . . . . . . . . . . . . . . . . .
 72
    65
 73
     2
 40
6.349999999999998
 49
0.0
 74
     0
 49
-6.349999999999998
 74
     0
  0
LTYPE
  5
DCC
330
D59
100
AcDbSymbolTableRecord
100
AcDbLinetypeTableRecord
  2
DOT2
 70
     0
  3
Dot (.5x) ........................................
 72
    65
 73
     2
 40
3.174999999999998
 49
0.0
 74
     0
 49
-3.174999999999998
 74
     0
  0
LTYPE
  5
DCD
330
D59
100
AcDbSymbolTableRecord
100
AcDbLinetypeTableRecord
  2
CENTERX2
 70
     0
  3
Center (2x) ________  __  ________  __  _____
 72
    65
 73
     4
 40
101.6
 49
63.5
 74
     0
 49
-12.7
 74
     0
 49
12.7
 74
     0
 49
-12.7
 74
     0
  0
LTYPE
  5
DCE
330
D59
100
AcDbSymbolTableRecord
100
AcDbLinetypeTableRecord
  2
CENTER
 70
     0
  3
Center ____ _ ____ _ ____ _ ____ _ ____ _ ____
 72
    65
 73
     4
 40
50.8
 49
31.75
 74
     0
 49
-6.349999999999998
 74
     0
 49
6.349999999999998
 74
     0
 49
-6.349999999999998
 74
     0
  0
LTYPE
  5
DCF
330
D59
100
AcDbSymbolTableRecord
100
AcDbLinetypeTableRecord
  2
CENTER2
 70
     0
  3
Center (.5x) ___ _ ___ _ ___ _ ___ _ ___ _ ___
 72
    65
 73
     4
 40
28.575
 49
19.05
 74
     0
 49
-3.174999999999998
 74
     0
 49
3.174999999999998
 74
     0
 49
-3.174999999999998
 74
     0
  0
LTYPE
  5
DD0
330
D59
100
AcDbSymbolTableRecord
100
AcDbLinetypeTableRecord
  2
DASHDOTX2
 70
     0
  3
Dash dot (2x) ____  .  ____  .  ____  .  ___
 72
    65
 73
     4
 40
50.8
 49
25.4
 74
     0
 49
-12.7
 74
     0
 49
0.0
 74
     0
 49
-12.7
 74
     0
  0
LTYPE
  5
DD1
330
D59
100
AcDbSymbolTableRecord
100
AcDbLinetypeTableRecord
  2
DASHDOT
 70
     0
  3
Dash dot __ . __ . __ . __ . __ . __ . __ . __
 72
    65
 73
     4
 40
25.4
 49
12.7
 74
     0
 49
-6.349999999999998
 74
     0
 49
0.0
 74
     0
 49
-6.349999999999998
 74
     0
  0
LTYPE
  5
DD2
330
D59
100
AcDbSymbolTableRecord
100
AcDbLinetypeTableRecord
  2
DASHDOT2
 70
     0
  3
Dash dot (.5x) _._._._._._._._._._._._._._._.
 72
    65
 73
     4
 40
12.7
 49
6.349999999999998
 74
     0
 49
-3.174999999999998
 74
     0
 49
0.0
 74
     0
 49
-3.174999999999998
 74
     0
  0
LTYPE
  5
DD3
330
D59
100
AcDbSymbolTableRecord
100
AcDbLinetypeTableRecord
  2
DIVIDEX2
 70
     0
  3
Divide (2x) ________  .  .  ________  .  .  _
 72
    65
 73
     6
 40
63.5
 49
25.4
 74
     0
 49
-12.7
 74
     0
 49
0.0
 74
     0
 49
-12.7
 74
     0
 49
0.0
 74
     0
 49
-12.7
 74
     0
  0
LTYPE
  5
DD4
330
D59
100
AcDbSymbolTableRecord
100
AcDbLinetypeTableRecord
  2
DIVIDE
 70
     0
  3
Divide ____ . . ____ . . ____ . . ____ . . ____
 72
    65
 73
     6
 40
31.75
 49
12.7
 74
     0
 49
-6.349999999999998
 74
     0
 49
0.0
 74
     0
 49
-6.349999999999998
 74
     0
 49
0.0
 74
     0
 49
-6.349999999999998
 74
     0
  0
LTYPE
  5
DD5
330
D59
100
AcDbSymbolTableRecord
100
AcDbLinetypeTableRecord
  2
DIVIDE2
 70
     0
  3
Divide (.5x) __..__..__..__..__..__..__..__.._
 72
    65
 73
     6
 40
15.875
 49
6.349999999999998
 74
     0
 49
-3.174999999999998
 74
     0
 49
0.0
 74
     0
 49
-3.174999999999998
 74
     0
 49
0.0
 74
     0
 49
-3.174999999999998
 74
     0
  0
LTYPE
  5
DD6
330
D59
100
AcDbSymbolTableRecord
100
AcDbLinetypeTableRecord
  2
BORDERX2
 70
     0
  3
Border (2x) ____  ____  .  ____  ____  .  ___
 72
    65
 73
     6
 40
88.89999999999998
 49
25.4
 74
     0
 49
-12.7
 74
     0
 49
25.4
 74
     0
 49
-12.7
 74
     0
 49
0.0
 74
     0
 49
-12.7
 74
     0
  0
LTYPE
  5
DD7
330
D59
100
AcDbSymbolTableRecord
100
AcDbLinetypeTableRecord
  2
BORDER
 70
     0
  3
Border __ __ . __ __ . __ __ . __ __ . __ __ .
 72
    65
 73
     6
 40
44.45
 49
12.7
 74
     0
 49
-6.349999999999998
 74
     0
 49
12.7
 74
     0
 49
-6.349999999999998
 74
     0
 49
0.0
 74
     0
 49
-6.349999999999998
 74
     0
  0
LTYPE
  5
DD8
330
D59
100
AcDbSymbolTableRecord
100
AcDbLinetypeTableRecord
  2
BORDER2
 70
     0
  3
Border (.5x) __.__.__.__.__.__.__.__.__.__.__.
 72
    65
 73
     6
 40
22.225
 49
6.349999999999998
 74
     0
 49
-3.174999999999998
 74
     0
 49
6.349999999999998
 74
     0
 49
-3.174999999999998
 74
     0
 49
0.0
 74
     0
 49
-3.174999999999998
 74
     0
  0
LTYPE
  5
DD9
330
D59
100
AcDbSymbolTableRecord
100
AcDbLinetypeTableRecord
  2
PHANTOMX2
 70
     0
  3
Phantom (2x) ____________    ____    ____   _
 72
    65
 73
     6
 40
127.0
 49
63.5
 74
     0
 49
-12.7
 74
     0
 49
12.7
 74
     0
 49
-12.7
 74
     0
 49
12.7
 74
     0
 49
-12.7
 74
     0
  0
LTYPE
  5
DDA
330
D59
100
AcDbSymbolTableRecord
100
AcDbLinetypeTableRecord
  2
PHANTOM
 70
     0
  3
Phantom ______  __  __  ______  __  __  ______ 
 72
    65
 73
     6
 40
63.5
 49
31.75
 74
     0
 49
-6.349999999999998
 74
     0
 49
6.349999999999998
 74
     0
 49
-6.349999999999998
 74
     0
 49
6.349999999999998
 74
     0
 49
-6.349999999999998
 74
     0
  0
LTYPE
  5
DDB
330
D59
100
AcDbSymbolTableRecord
100
AcDbLinetypeTableRecord
  2
PHANTOM2
 70
     0
  3
Phantom (.5x) ___ _ _ ___ _ _ ___ _ _ ___ _ _
 72
    65
 73
     6
 40
31.75
 49
15.875
 74
     0
 49
-3.174999999999998
 74
     0
 49
3.174999999999998
 74
     0
 49
-3.174999999999998
 74
     0
 49
3.174999999999998
 74
     0
 49
-3.174999999999998
 74
     0
  0
LTYPE
  5
DDC
330
D59
100
AcDbSymbolTableRecord
100
AcDbLinetypeTableRecord
  2
ACAD_ISO06W100
 70
     0
  3
ISO long-dash triple-dot ____ ... ____ ... ____
 72
    65
 73
     8
 40
36.0
 49
24.0
 74
     0
 49
-3.0
 74
     0
 49
0.0
 74
     0
 49
-3.0
 74
     0
 49
0.0
 74
     0
 49
-3.0
 74
     0
 49
0.0
 74
     0
 49
-3.0
 74
     0
  0
LTYPE
  5
DDD
330
D59
100
AcDbSymbolTableRecord
100
AcDbLinetypeTableRecord
  2
ACAD_ISO13W100
 70
     0
  3
ISO double-dash double-dot __ __ . . __ __ . . _
 72
    65
 73
     8
 40
36.0
 49
12.0
 74
     0
 49
-3.0
 74
     0
 49
12.0
 74
     0
 49
-3.0
 74
     0
 49
0.0
 74
     0
 49
-3.0
 74
     0
 49
0.0
 74
     0
 49
-3.0
 74
     0
  0
LTYPE
  5
DDE
330
D59
100
AcDbSymbolTableRecord
100
AcDbLinetypeTableRecord
  2
ACAD_ISO14W100
 70
     0
  3
ISO dash triple-dot __ . . . __ . . . __ . . . _
 72
    65
 73
     8
 40
24.0
 49
12.0
 74
     0
 49
-3.0
 74
     0
 49
0.0
 74
     0
 49
-3.0
 74
     0
 49
0.0
 74
     0
 49
-3.0
 74
     0
 49
0.0
 74
     0
 49
-3.0
 74
     0
  0
LTYPE
  5
DDF
330
D59
100
AcDbSymbolTableRecord
100
AcDbLinetypeTableRecord
  2
ACAD_ISO02W100
 70
     0
  3
ISO dash __ __ __ __ __ __ __ __ __ __ __ __ __
 72
    65
 73
     2
 40
15.0
 49
12.0
 74
     0
 49
-3.0
 74
     0
  0
LTYPE
  5
DE0
330
D59
100
AcDbSymbolTableRecord
100
AcDbLinetypeTableRecord
  2
ACAD_ISO03W100
 70
     0
  3
ISO dash space __    __    __    __    __    __
 72
    65
 73
     2
 40
30.0
 49
12.0
 74
     0
 49
-18.0
 74
     0
  0
LTYPE
  5
DE1
330
D59
100
AcDbSymbolTableRecord
100
AcDbLinetypeTableRecord
  2
ACAD_ISO04W100
 70
     0
  3
ISO long-dash dot ____ . ____ . ____ . ____ . _
 72
    65
 73
     4
 40
30.0
 49
24.0
 74
     0
 49
-3.0
 74
     0
 49
0.0
 74
     0
 49
-3.0
 74
     0
  0
LTYPE
  5
DE2
330
D59
100
AcDbSymbolTableRecord
100
AcDbLinetypeTableRecord
  2
ACAD_ISO05W100
 70
     0
  3
ISO long-dash double-dot ____ .. ____ .. ____ . 
 72
    65
 73
     6
 40
33.0
 49
24.0
 74
     0
 49
-3.0
 74
     0
 49
0.0
 74
     0
 49
-3.0
 74
     0
 49
0.0
 74
     0
 49
-3.0
 74
     0
  0
LTYPE
  5
DE3
330
D59
100
AcDbSymbolTableRecord
100
AcDbLinetypeTableRecord
  2
ACAD_ISO07W100
 70
     0
  3
ISO dot . . . . . . . . . . . . . . . . . . . . 
 72
    65
 73
     2
 40
3.0
 49
0.0
 74
     0
 49
-3.0
 74
     0
  0
LTYPE
  5
DE4
330
D59
100
AcDbSymbolTableRecord
100
AcDbLinetypeTableRecord
  2
ACAD_ISO08W100
 70
     0
  3
ISO long-dash short-dash ____ __ ____ __ ____ _
 72
    65
 73
     4
 40
36.0
 49
24.0
 74
     0
 49
-3.0
 74
     0
 49
6.0
 74
     0
 49
-3.0
 74
     0
  0
LTYPE
  5
DE5
330
D59
100
AcDbSymbolTableRecord
100
AcDbLinetypeTableRecord
  2
ACAD_ISO09W100
 70
     0
  3
ISO long-dash double-short-dash ____ __ __ ____
 72
    65
 73
     6
 40
45.0
 49
24.0
 74
     0
 49
-3.0
 74
     0
 49
6.0
 74
     0
 49
-3.0
 74
     0
 49
6.0
 74
     0
 49
-3.0
 74
     0
  0
LTYPE
  5
DE6
330
D59
100
AcDbSymbolTableRecord
100
AcDbLinetypeTableRecord
  2
ACAD_ISO10W100
 70
     0
  3
ISO dash dot __ . __ . __ . __ . __ . __ . __ . 
 72
    65
 73
     4
 40
18.0
 49
12.0
 74
     0
 49
-3.0
 74
     0
 49
0.0
 74
     0
 49
-3.0
 74
     0
  0
LTYPE
  5
DE7
330
D59
100
AcDbSymbolTableRecord
100
AcDbLinetypeTableRecord
  2
ACAD_ISO11W100
 70
     0
  3
ISO double-dash dot __ __ . __ __ . __ __ . __ _
 72
    65
 73
     6
 40
33.0
 49
12.0
 74
     0
 49
-3.0
 74
     0
 49
12.0
 74
     0
 49
-3.0
 74
     0
 49
0.0
 74
     0
 49
-3.0
 74
     0
  0
LTYPE
  5
DE8
330
D59
100
AcDbSymbolTableRecord
100
AcDbLinetypeTableRecord
  2
ACAD_ISO12W100
 70
     0
  3
ISO dash double-dot __ . . __ . . __ . . __ . . 
 72
    65
 73
     6
 40
21.0
 49
12.0
 74
     0
 49
-3.0
 74
     0
 49
0.0
 74
     0
 49
-3.0
 74
     0
 49
0.0
 74
     0
 49
-3.0
 74
     0
  0
LTYPE
  5
DE9
330
D59
100
AcDbSymbolTableRecord
100
AcDbLinetypeTableRecord
  2
ACAD_ISO15W100
 70
     0
  3
ISO double-dash triple-dot __ __ . . . __ __ . .
 72
    65
 73
    10
 40
39.0
 49
12.0
 74
     0
 49
-3.0
 74
     0
 49
12.0
 74
     0
 49
-3.0
 74
     0
 49
0.0
 74
     0
 49
-3.0
 74
     0
 49
0.0
 74
     0
 49
-3.0
 74
     0
 49
0.0
 74
     0
 49
-3.0
 74
     0
  0
LTYPE
  5
DEA
330
D59
100
AcDbSymbolTableRecord
100
AcDbLinetypeTableRecord
  2
JIS_02_0_7
 70
     0
  3
HIDDEN0.75 _ _ _ _ _ _ _ _ _ _ _ _ _ _ _ _ _ 
 72
    65
 73
     2
 40
1.35
 49
0.75
 74
     0
 49
-0.6
 74
     0
  0
LTYPE
  5
DEB
330
D59
100
AcDbSymbolTableRecord
100
AcDbLinetypeTableRecord
  2
JIS_02_1_0
 70
     0
  3
HIDDEN01 _ _ _ _ _ _ _ _ _ _ _ _ _ _ _ _ _ 
 72
    65
 73
     2
 40
2.0
 49
1.0
 74
     0
 49
-1.0
 74
     0
  0
LTYPE
  5
DEC
330
D59
100
AcDbSymbolTableRecord
100
AcDbLinetypeTableRecord
  2
JIS_02_1_2
 70
     0
  3
HIDDEN01.25  _ _ _ _ _ _ _ _ _ _ _ _ _ _ _ _ _ 
 72
    65
 73
     2
 40
2.5
 49
1.25
 74
     0
 49
-1.25
 74
     0
  0
LTYPE
  5
DED
330
D59
100
AcDbSymbolTableRecord
100
AcDbLinetypeTableRecord
  2
JIS_02_2_0
 70
     0
  3
HIDDEN02 __ __ __ __ __ __ __ __ __ __ __ 
 72
    65
 73
     2
 40
3.0
 49
2.0
 74
     0
 49
-1.0
 74
     0
  0
LTYPE
  5
DEE
330
D59
100
AcDbSymbolTableRecord
100
AcDbLinetypeTableRecord
  2
JIS_02_4_0
 70
     0
  3
HIDDEN04 ____ ____ ____ ____ ____ ____ ____ 
 72
    65
 73
     2
 40
5.5
 49
4.0
 74
     0
 49
-1.5
 74
     0
  0
LTYPE
  5
DEF
330
D59
100
AcDbSymbolTableRecord
100
AcDbLinetypeTableRecord
  2
JIS_08_11
 70
     0
  3
1SASEN11 ___ _ ___ _ ___ _ ___ _ ___ _ ___
 72
    65
 73
     4
 40
12.8
 49
11.0
 74
     0
 49
-0.6
 74
     0
 49
0.6
 74
     0
 49
-0.6
 74
     0
  0
LTYPE
  5
DF0
330
D59
100
AcDbSymbolTableRecord
100
AcDbLinetypeTableRecord
  2
JIS_08_15
 70
     0
  3
1SASEN15 ____ _ ____ _ ____ _ ____ _ ____ 
 72
    65
 73
     4
 40
17.25
 49
15.0
 74
     0
 49
-0.75
 74
     0
 49
0.75
 74
     0
 49
-0.75
 74
     0
  0
LTYPE
  5
DF1
330
D59
100
AcDbSymbolTableRecord
100
AcDbLinetypeTableRecord
  2
JIS_08_25
 70
     0
  3
1SASEN25 ________  __  ________  __  _____
 72
    65
 73
     4
 40
28.0
 49
25.0
 74
     0
 49
-1.125
 74
     0
 49
0.75
 74
     0
 49
-1.125
 74
     0
  0
LTYPE
  5
DF2
330
D59
100
AcDbSymbolTableRecord
100
AcDbLinetypeTableRecord
  2
JIS_08_37
 70
     0
  3
1SASEN37 ________  __  ________  __  _____
 72
    65
 73
     4
 40
40.49999999999999
 49
37.5
 74
     0
 49
-1.125
 74
     0
 49
0.75
 74
     0
 49
-1.125
 74
     0
  0
LTYPE
  5
DF3
330
D59
100
AcDbSymbolTableRecord
100
AcDbLinetypeTableRecord
  2
JIS_08_50
 70
     0
  3
1SASEN50 _______________  __  ____________
 72
    65
 73
     4
 40
53.0
 49
50.0
 74
     0
 49
-1.125
 74
     0
 49
0.75
 74
     0
 49
-1.125
 74
     0
  0
LTYPE
  5
DF4
330
D59
100
AcDbSymbolTableRecord
100
AcDbLinetypeTableRecord
  2
JIS_09_08
 70
     0
  3
2SASEN8 __ _ _ __ _ _ __ _ _ __ _ _ __ _ _ 
 72
    65
 73
     6
 40
10.75
 49
8.0
 74
     0
 49
-0.55
 74
     0
 49
0.55
 74
     0
 49
-0.55
 74
     0
 49
0.55
 74
     0
 49
-0.55
 74
     0
  0
LTYPE
  5
DF5
330
D59
100
AcDbSymbolTableRecord
100
AcDbLinetypeTableRecord
  2
JIS_09_15
 70
     0
  3
2SASEN15 ___ _ _ ___ _ _ ___ _ _ ___ _ _ ___ 
 72
    65
 73
     6
 40
18.9
 49
15.0
 74
     0
 49
-0.9
 74
     0
 49
0.6
 74
     0
 49
-0.9
 74
     0
 49
0.6
 74
     0
 49
-0.9
 74
     0
  0
LTYPE
  5
DF6
330
D59
100
AcDbSymbolTableRecord
100
AcDbLinetypeTableRecord
  2
JIS_09_29
 70
     0
  3
2SASEN29 ______　__  __  ______　__  __  ___
 72
    65
 73
     6
 40
34.0
 49
29.0
 74
     0
 49
-1.199999999999999
 74
     0
 49
0.7
 74
     0
 49
-1.199999999999999
 74
     0
 49
0.7
 74
     0
 49
-1.199999999999999
 74
     0
  0
LTYPE
  5
DF7
330
D59
100
AcDbSymbolTableRecord
100
AcDbLinetypeTableRecord
  2
JIS_09_50
 70
     0
  3
2SASEN50 ____________　__  __  _____________
 72
    65
 73
     6
 40
55.0
 49
50.0
 74
     0
 49
-1.199999999999999
 74
     0
 49
0.7
 74
     0
 49
-1.199999999999999
 74
     0
 49
0.7
 74
     0
 49
-1.199999999999999
 74
     0
  0
LTYPE
  5
DF8
330
D59
100
AcDbSymbolTableRecord
100
AcDbLinetypeTableRecord
  2
SXF_破線
 70
     0
  3
02 dashed -- -- -- -- -- --
 72
    65
 73
     2
 40
7.5
 49
6.0
 74
     0
 49
-1.5
 74
     0
  0
LTYPE
  5
DF9
330
D59
100
AcDbSymbolTableRecord
100
AcDbLinetypeTableRecord
  2
SXF_跳び破線
 70
     0
  3
03 dashed_spaced --  --  --  --
 72
    65
 73
     2
 40
12.0
 49
6.0
 74
     0
 49
-6.0
 74
     0
  0
LTYPE
  5
DFA
330
D59
100
AcDbSymbolTableRecord
100
AcDbLinetypeTableRecord
  2
SXF_一点長鎖線
 70
     0
  3
04 long_dashed_dotted ---- . ---- . ----
 72
    65
 73
     4
 40
15.25
 49
12.0
 74
     0
 49
-1.5
 74
     0
 49
0.25
 74
     0
 49
-1.5
 74
     0
  0
LTYPE
  5
DFB
330
D59
100
AcDbSymbolTableRecord
100
AcDbLinetypeTableRecord
  2
SXF_二点長鎖線
 70
     0
  3
05 long_dashed_double-dotted ---- . . ---- 
 72
    65
 73
     6
 40
17.0
 49
12.0
 74
     0
 49
-1.5
 74
     0
 49
0.25
 74
     0
 49
-1.5
 74
     0
 49
0.25
 74
     0
 49
-1.5
 74
     0
  0
LTYPE
  5
DFC
330
D59
100
AcDbSymbolTableRecord
100
AcDbLinetypeTableRecord
  2
SXF_三点長鎖線
 70
     0
  3
06 long_dashed_triplicate-dotted ---- ... ---- 
 72
    65
 73
     8
 40
18.75
 49
12.0
 74
     0
 49
-1.5
 74
     0
 49
0.25
 74
     0
 49
-1.5
 74
     0
 49
0.25
 74
     0
 49
-1.5
 74
     0
 49
0.25
 74
     0
 49
-1.5
 74
     0
  0
LTYPE
  5
DFD
330
D59
100
AcDbSymbolTableRecord
100
AcDbLinetypeTableRecord
  2
SXF_点線
 70
     0
  3
07 dotted . . . . . . . . . . . . 
 72
    65
 73
     2
 40
1.75
 49
0.25
 74
     0
 49
-1.5
 74
     0
  0
LTYPE
  5
DFE
330
D59
100
AcDbSymbolTableRecord
100
AcDbLinetypeTableRecord
  2
SXF_一点鎖線
 70
     0
  3
08 chain ---- - --- - --- - ---
 72
    65
 73
     4
 40
18.5
 49
12.0
 74
     0
 49
-1.5
 74
     0
 49
3.5
 74
     0
 49
-1.5
 74
     0
  0
LTYPE
  5
DFF
330
D59
100
AcDbSymbolTableRecord
100
AcDbLinetypeTableRecord
  2
SXF_二点鎖線
 70
     0
  3
09 chain_double_dash ---- - - ---- - - ----
 72
    65
 73
     6
 40
23.5
 49
12.0
 74
     0
 49
-1.5
 74
     0
 49
3.5
 74
     0
 49
-1.5
 74
     0
 49
3.5
 74
     0
 49
-1.5
 74
     0
  0
LTYPE
  5
E00
330
D59
100
AcDbSymbolTableRecord
100
AcDbLinetypeTableRecord
  2
SXF_一点短鎖線
 70
     0
  3
10 dashed_dotted -- . -- . -- . --
 72
    65
 73
     4
 40
9.25
 49
6.0
 74
     0
 49
-1.5
 74
     0
 49
0.25
 74
     0
 49
-1.5
 74
     0
  0
LTYPE
  5
E01
330
D59
100
AcDbSymbolTableRecord
100
AcDbLinetypeTableRecord
  2
SXF_一点二短鎖線
 70
     0
  3
11 double-dashed_dotted -- -- . -- --
 72
    65
 73
     6
 40
16.75
 49
6.0
 74
     0
 49
-1.5
 74
     0
 49
6.0
 74
     0
 49
-1.5
 74
     0
 49
0.25
 74
     0
 49
-1.5
 74
     0
  0
LTYPE
  5
E02
330
D59
100
AcDbSymbolTableRecord
100
AcDbLinetypeTableRecord
  2
SXF_二点短鎖線
 70
     0
  3
12 dashed_double_dotted -- . . -- . . --
 72
    65
 73
     6
 40
11.0
 49
6.0
 74
     0
 49
-1.5
 74
     0
 49
0.25
 74
     0
 49
-1.5
 74
     0
 49
0.25
 74
     0
 49
-1.5
 74
     0
  0
LTYPE
  5
E03
330
D59
100
AcDbSymbolTableRecord
100
AcDbLinetypeTableRecord
  2
SXF_二点二短鎖線
 70
     0
  3
13 double-dashed_double-dotted -- -- . . -- --
 72
    65
 73
     8
 40
18.5
 49
6.0
 74
     0
 49
-1.5
 74
     0
 49
6.0
 74
     0
 49
-1.5
 74
     0
 49
0.25
 74
     0
 49
-1.5
 74
     0
 49
0.25
 74
     0
 49
-1.5
 74
     0
  0
LTYPE
  5
E04
330
D59
100
AcDbSymbolTableRecord
100
AcDbLinetypeTableRecord
  2
SXF_三点短鎖線
 70
     0
  3
14 dashed triplicate-dotted -- . . . -- . . . --
 72
    65
 73
     8
 40
12.75
 49
6.0
 74
     0
 49
-1.5
 74
     0
 49
0.25
 74
     0
 49
-1.5
 74
     0
 49
0.25
 74
     0
 49
-1.5
 74
     0
 49
0.25
 74
     0
 49
-1.5
 74
     0
  0
LTYPE
  5
E05
330
D59
100
AcDbSymbolTableRecord
100
AcDbLinetypeTableRecord
  2
SXF_三点二短鎖線
 70
     0
  3
15 double-dashed triplicate-dotted -- -- . . . -- -- 
 72
    65
 73
    10
 40
20.25
 49
6.0
 74
     0
 49
-1.5
 74
     0
 49
6.0
 74
     0
 49
-1.5
 74
     0
 49
0.25
 74
     0
 49
-1.5
 74
     0
 49
0.25
 74
     0
 49
-1.5
 74
     0
 49
0.25
 74
     0
 49
-1.5
 74
     0
  0
ENDTAB
  0
TABLE
  2
LAYER
  5
D56
330
0
100
AcDbSymbolTable
 70
     4
  0
LAYER
  5
DA8
330
D56
100
AcDbSymbolTableRecord
100
AcDbLayerTableRecord
  2
0
 70
     0
 62
     7
  6
CONTINUOUS
370
    -3
390
D63
347
D75
  0
LAYER
  5
E06
330
D56
100
AcDbSymbolTableRecord
100
AcDbLayerTableRecord
  2
LAYER0016
 70
     0
 62
     7
  6
CONTINUOUS
370
    -3
390
D63
347
D75
  0
LAYER
  5
E07
330
D56
100
AcDbSymbolTableRecord
100
AcDbLayerTableRecord
  2
LAYER0240
 70
     0
 62
     7
  6
CONTINUOUS
370
    -3
390
D63
347
D75
  0
LAYER
  5
E08
330
D56
100
AcDbSymbolTableRecord
100
AcDbLayerTableRecord
  2
ZUWAKU
 70
     0
 62
     7
  6
CONTINUOUS
370
    -3
390
D63
347
D75
  0
ENDTAB
  0
TABLE
  2
STYLE
  5
D57
330
0
100
AcDbSymbolTable
 70
     3
  0
STYLE
  5
DA9
330
D57
100
AcDbSymbolTableRecord
100
AcDbTextStyleTableRecord
  2
STANDARD
 70
     0
 40
0.0
 41
1.0
 50
0.0
 71
     0
 42
0.2
  3
txt.shx
  4
bigfont.shx
  0
STYLE
  5
DAD
330
D57
100
AcDbSymbolTableRecord
100
AcDbTextStyleTableRecord
  2
Annotative
 70
     0
 40
0.0
 41
1.0
 50
0.0
 71
     0
 42
0.2
  3
txt
  4

1001
AcadAnnotative
1000
AnnotativeData
1002
{
1070
     1
1070
     1
1002
}
  0
STYLE
  5
E09
330
D57
100
AcDbSymbolTableRecord
100
AcDbTextStyleTableRecord
  2
DCSTYLE0
 70
     0
 40
0.0
 41
0.8000000000000019
 50
0.0
 71
     0
 42
0.2
  3
txt.shx
  4
bigfont
  0
ENDTAB
  0
TABLE
  2
VIEW
  5
D5A
330
0
100
AcDbSymbolTable
 70
     0
  0
ENDTAB
  0
TABLE
  2
UCS
  5
D5B
330
0
100
AcDbSymbolTable
 70
     0
  0
ENDTAB
  0
TABLE
  2
APPID
  5
D5D
330
0
100
AcDbSymbolTable
 70
     8
  0
APPID
  5
DAA
330
D5D
100
AcDbSymbolTableRecord
100
AcDbRegAppTableRecord
  2
ACAD
 70
     0
  0
APPID
  5
DB1
330
D5D
100
AcDbSymbolTableRecord
100
AcDbRegAppTableRecord
  2
AcadAnnotative
 70
     0
  0
APPID
  5
E0A
330
D5D
100
AcDbSymbolTableRecord
100
AcDbRegAppTableRecord
  2
DAFUSIONOUT
 70
     0
  0
APPID
  5
E5A
330
D5D
100
AcDbSymbolTableRecord
100
AcDbRegAppTableRecord
  2
ACAUTHENVIRON
 70
     0
  0
APPID
  5
E5E
330
D5D
100
AcDbSymbolTableRecord
100
AcDbRegAppTableRecord
  2
ACAD_EXEMPT_FROM_CAD_STANDARDS
 70
     0
  0
APPID
  5
E60
330
D5D
100
AcDbSymbolTableRecord
100
AcDbRegAppTableRecord
  2
AcDbDynamicBlockTrueName
 70
     0
  0
APPID
  5
E61
330
D5D
100
AcDbSymbolTableRecord
100
AcDbRegAppTableRecord
  2
AcDbDynamicBlockGUID
 70
     0
  0
APPID
  5
F2B
330
D5D
100
AcDbSymbolTableRecord
100
AcDbRegAppTableRecord
  2
ACAD_MLEADERVER
 70
     0
  0
ENDTAB
  0
TABLE
  2
DIMSTYLE
  5
D5E
330
0
100
AcDbSymbolTable
 70
     3
100
AcDbDimStyleTable
 71
     1
340
DAB
  0
DIMSTYLE
105
DAB
330
D5E
100
AcDbSymbolTableRecord
100
AcDbDimStyleTableRecord
  2
STANDARD
 70
     0
279
     2
284
     8
285
     8
286
     8
340
DA9
  0
DIMSTYLE
105
DAC
330
D5E
100
AcDbSymbolTableRecord
100
AcDbDimStyleTableRecord
  2
Annotative
 70
     0
340
DA9
1001
AcadAnnotative
1000
AnnotativeData
1002
{
1070
     1
1070
     1
1002
}
  0
DIMSTYLE
105
E0B
102
{ACAD_REACTORS
330
48B
330
48E
330
48F
330
490
330
491
330
492
330
494
330
498
330
49A
102
}
330
D5E
100
AcDbSymbolTableRecord
100
AcDbDimStyleTableRecord
  2
DC_ROTATED
 70
     0
 41
24.00001525878906
 42
8.0
 44
8.0
 73
     0
 74
     0
 77
     3
 78
     8
140
32.0
147
8.0
172
     1
173
     1
176
     9
177
     9
178
     7
279
     2
284
     8
285
     8
286
     8
340
DA9
  0
ENDTAB
  0
TABLE
  2
BLOCK_RECORD
  5
D55
330
0
100
AcDbSymbolTable
 70
    31
  0
BLOCK_RECORD
  5
DBF
330
D55
100
AcDbSymbolTableRecord
100
AcDbBlockTableRecord
  2
*Model_Space
340
DC2
 70
     0
280
     1
281
     0
  0
BLOCK_RECORD
  5
DBB
330
D55
100
AcDbSymbolTableRecord
100
AcDbBlockTableRecord
  2
*Paper_Space
340
DBE
 70
     0
280
     1
281
     0
  0
BLOCK_RECORD
  5
E0E
330
D55
100
AcDbSymbolTableRecord
100
AcDbBlockTableRecord
  2
$MODEL_SPACE
340
0
 70
     0
280
     1
281
     0
  0
BLOCK_RECORD
  5
E10
330
D55
100
AcDbSymbolTableRecord
100
AcDbBlockTableRecord
  2
$PAPER_SPACE
340
0
 70
     0
280
     1
281
     0
  0
BLOCK_RECORD
  5
E12
330
D55
100
AcDbSymbolTableRecord
100
AcDbBlockTableRecord
  2
DC_GROUP_1
340
0
102
{BLKREFS
331
3B6
102
}
 70
     0
280
     1
281
     0
  0
BLOCK_RECORD
  5
E14
330
D55
100
AcDbSymbolTableRecord
100
AcDbBlockTableRecord
  2
DC_GROUP_2
340
0
 70
     0
280
     1
281
     0
  0
BLOCK_RECORD
  5
E16
330
D55
100
AcDbSymbolTableRecord
100
AcDbBlockTableRecord
  2
DC_GROUP_3
340
0
102
{BLKREFS
331
10A
102
}
 70
     0
280
     1
281
     0
  0
BLOCK_RECORD
  5
E18
330
D55
100
AcDbSymbolTableRecord
100
AcDbBlockTableRecord
  2
DC_GROUP_4
340
0
 70
     0
280
     1
281
     0
  0
BLOCK_RECORD
  5
E1A
330
D55
100
AcDbSymbolTableRecord
100
AcDbBlockTableRecord
  2
DC_GROUP_5
340
0
102
{BLKREFS
331
112
102
}
 70
     0
280
     1
281
     0
  0
BLOCK_RECORD
  5
E1C
330
D55
100
AcDbSymbolTableRecord
100
AcDbBlockTableRecord
  2
DC_GROUP_6
340
0
 70
     0
280
     1
281
     0
  0
BLOCK_RECORD
  5
E1E
330
D55
100
AcDbSymbolTableRecord
100
AcDbBlockTableRecord
  2
DC_GROUP_7
340
0
102
{BLKREFS
331
119
102
}
 70
     0
280
     1
281
     0
  0
BLOCK_RECORD
  5
E20
330
D55
100
AcDbSymbolTableRecord
100
AcDbBlockTableRecord
  2
DC_GROUP_8
340
0
102
{BLKREFS
331
3BA
102
}
 70
     0
280
     1
281
     0
  0
BLOCK_RECORD
  5
E22
330
D55
100
AcDbSymbolTableRecord
100
AcDbBlockTableRecord
  2
*D10
340
0
 70
     0
280
     1
281
     0
  0
BLOCK_RECORD
  5
E24
330
D55
100
AcDbSymbolTableRecord
100
AcDbBlockTableRecord
  2
_OPEN30
340
0
102
{BLKREFS
331
12C
331
12D
331
134
331
136
331
13A
331
13B
331
140
331
141
331
146
331
147
331
14D
331
152
331
153
331
158
331
159
331
15E
331
15F
331
16D
331
16F
331
173
331
179
331
17A
331
17F
331
180
331
185
331
186
331
18B
331
18F
331
193
331
19C
331
19E
331
E93
331
E95
102
}
 70
     0
280
     1
281
     0
  0
BLOCK_RECORD
  5
E25
330
D55
100
AcDbSymbolTableRecord
100
AcDbBlockTableRecord
  2
DA_IMAGEDIMGROUP_1
340
0
 70
     0
280
     1
281
     0
  0
BLOCK_RECORD
  5
E27
330
D55
100
AcDbSymbolTableRecord
100
AcDbBlockTableRecord
  2
*D13
340
0
 70
     0
280
     1
281
     0
  0
BLOCK_RECORD
  5
E29
330
D55
100
AcDbSymbolTableRecord
100
AcDbBlockTableRecord
  2
*D14
340
0
 70
     0
280
     1
281
     0
  0
BLOCK_RECORD
  5
E2B
330
D55
100
AcDbSymbolTableRecord
100
AcDbBlockTableRecord
  2
*D15
340
0
 70
     0
280
     1
281
     0
  0
BLOCK_RECORD
  5
E2D
330
D55
100
AcDbSymbolTableRecord
100
AcDbBlockTableRecord
  2
*D16
340
0
 70
     0
280
     1
281
     0
  0
BLOCK_RECORD
  5
E2F
330
D55
100
AcDbSymbolTableRecord
100
AcDbBlockTableRecord
  2
*D17
340
0
 70
     0
280
     1
281
     0
  0
BLOCK_RECORD
  5
E31
330
D55
100
AcDbSymbolTableRecord
100
AcDbBlockTableRecord
  2
*D18
340
0
 70
     0
280
     1
281
     0
  0
BLOCK_RECORD
  5
E33
330
D55
100
AcDbSymbolTableRecord
100
AcDbBlockTableRecord
  2
*D19
340
0
 70
     0
280
     1
281
     0
  0
BLOCK_RECORD
  5
E35
102
{ACAD_XDICTIONARY
360
E97
102
}
330
D55
100
AcDbSymbolTableRecord
100
AcDbBlockTableRecord
  2
DA_IMAGEDIMGROUP_2
340
0
102
{BLKREFS
331
495
102
}
 70
     0
280
     1
281
     0
1001
AcDbDynamicBlockGUID
1000
{79EC1F70-4245-4FB4-9A5E-2E4866CA23D2}
  0
BLOCK_RECORD
  5
E37
330
D55
100
AcDbSymbolTableRecord
100
AcDbBlockTableRecord
  2
DA_IMAGEDIMGROUP_3
340
0
102
{BLKREFS
331
496
102
}
 70
     0
280
     1
281
     0
  0
BLOCK_RECORD
  5
E39
330
D55
100
AcDbSymbolTableRecord
100
AcDbBlockTableRecord
  2
DC_GROUP_9
340
0
 70
     0
280
     1
281
     0
  0
BLOCK_RECORD
  5
E3B
330
D55
100
AcDbSymbolTableRecord
100
AcDbBlockTableRecord
  2
DC_GROUP_10
340
0
 70
     0
280
     1
281
     0
  0
BLOCK_RECORD
  5
E3D
330
D55
100
AcDbSymbolTableRecord
100
AcDbBlockTableRecord
  2
*D24
340
0
 70
     0
280
     1
281
     0
  0
BLOCK_RECORD
  5
E3F
330
D55
100
AcDbSymbolTableRecord
100
AcDbBlockTableRecord
  2
*D25
340
0
 70
     0
280
     1
281
     0
  0
BLOCK_RECORD
  5
E41
330
D55
100
AcDbSymbolTableRecord
100
AcDbBlockTableRecord
  2
*D26
340
0
 70
     0
280
     1
281
     0
  0
BLOCK_RECORD
  5
E43
330
D55
100
AcDbSymbolTableRecord
100
AcDbBlockTableRecord
  2
DC_GROUP_11
340
0
 70
     0
280
     1
281
     0
  0
BLOCK_RECORD
  5
E45
330
D55
100
AcDbSymbolTableRecord
100
AcDbBlockTableRecord
  2
DC_GROUP_12
340
0
 70
     0
280
     1
281
     0
  0
BLOCK_RECORD
  5
E47
330
D55
100
AcDbSymbolTableRecord
100
AcDbBlockTableRecord
  2
DC_GROUP_13
340
0
 70
     0
280
     1
281
     0
  0
BLOCK_RECORD
  5
E49
330
D55
100
AcDbSymbolTableRecord
100
AcDbBlockTableRecord
  2
DA_IMAGEDIMGROUP_4
340
0
102
{BLKREFS
331
49E
102
}
 70
     0
280
     1
281
     0
  0
ENDTAB
  0
ENDSEC
  0
SECTION
  2
BLOCKS
  0
BLOCK
  5
DC0
330
DBF
100
AcDbEntity
  8
0
100
AcDbBlockBegin
  2
*Model_Space
 70
     0
 10
0.0
 20
0.0
 30
0.0
  3
*Model_Space
  1

  0
ENDBLK
  5
DC1
330
DBF
100
AcDbEntity
  8
0
100
AcDbBlockEnd
  0
BLOCK
  5
DBC
330
DBB
100
AcDbEntity
 67
     1
  8
0
100
AcDbBlockBegin
  2
*Paper_Space
 70
     0
 10
0.0
 20
0.0
 30
0.0
  3
*Paper_Space
  1

  0
ENDBLK
  5
DBD
330
DBB
100
AcDbEntity
 67
     1
  8
0
100
AcDbBlockEnd
  0
BLOCK
  5
E0F
330
E0E
100
AcDbEntity
  8
0
100
AcDbBlockBegin
  2
$MODEL_SPACE
 70
     0
 10
0.0
 20
0.0
 30
0.0
  3
$MODEL_SPACE
  1

  0
ENDBLK
  5
21
330
E0E
100
AcDbEntity
  8
0
100
AcDbBlockEnd
  0
BLOCK
  5
E11
330
E10
100
AcDbEntity
  8
0
100
AcDbBlockBegin
  2
$PAPER_SPACE
 70
     0
 10
0.0
 20
0.0
 30
0.0
  3
$PAPER_SPACE
  1

  0
ENDBLK
  5
1D
330
E10
100
AcDbEntity
  8
0
100
AcDbBlockEnd
  0
BLOCK
  5
E13
330
E12
100
AcDbEntity
  8
0
100
AcDbBlockBegin
  2
DC_GROUP_1
 70
     0
 10
0.0
 20
0.0
 30
0.0
  3
DC_GROUP_1
  1

  0
LINE
  5
105
330
E12
100
AcDbEntity
  8
ZUWAKU
  6
Continuous
 62
     9
100
AcDbLine
 10
-1680.0
 20
-18.47520861406747
 30
0.0
 11
-1648.0
 21
0.0000000000004547
 31
0.0
  0
LINE
  5
106
330
E12
100
AcDbEntity
  8
ZUWAKU
  6
Continuous
 62
     9
100
AcDbLine
 10
-1680.0
 20
18.47520861406838
 30
0.0
 11
-1680.0
 21
-18.47520861406747
 31
0.0
  0
LINE
  5
107
330
E12
100
AcDbEntity
  8
ZUWAKU
  6
Continuous
 62
     9
100
AcDbLine
 10
-1648.0
 20
0.0000000000004547
 30
0.0
 11
-1680.0
 21
18.47520861406838
 31
0.0
  0
ENDBLK
  5
B3
330
E12
100
AcDbEntity
  8
0
100
AcDbBlockEnd
  0
BLOCK
  5
E15
330
E14
100
AcDbEntity
  8
0
100
AcDbBlockBegin
  2
DC_GROUP_2
 70
     0
 10
0.0
 20
0.0
 30
0.0
  3
DC_GROUP_2
  1

  0
POINT
  5
108
330
E14
100
AcDbEntity
  8
ZUWAKU
  6
Continuous
 62
     7
100
AcDbPoint
 10
844.0855498612082
 20
920.317249840812
 30
0.0
  0
POINT
  5
109
330
E14
100
AcDbEntity
  8
ZUWAKU
  6
Continuous
 62
     7
100
AcDbPoint
 10
846.7278962765607
 20
939.9999999999996
 30
0.0
  0
INSERT
  5
10A
330
E14
100
AcDbEntity
  8
ZUWAKU
  6
Continuous
100
AcDbBlockReference
  2
DC_GROUP_3
 10
0.0
 20
0.0
 30
0.0
  0
ENDBLK
  5
B6
330
E14
100
AcDbEntity
  8
0
100
AcDbBlockEnd
  0
BLOCK
  5
E17
330
E16
100
AcDbEntity
  8
0
100
AcDbBlockBegin
  2
DC_GROUP_3
 70
     0
 10
0.0
 20
0.0
 30
0.0
  3
DC_GROUP_3
  1

  0
LINE
  5
10B
330
E16
100
AcDbEntity
  8
ZUWAKU
  6
Continuous
 62
     9
100
AcDbLine
 10
796.7679725085913
 20
926.4529946162072
 30
0.0
 11
816.7679725085914
 21
961.0940107675842
 31
0.0
  0
LINE
  5
10C
330
E16
100
AcDbEntity
  8
ZUWAKU
  6
Continuous
 62
     9
100
AcDbLine
 10
796.7679725085913
 20
926.4529946162072
 30
0.0
 11
836.7679725085913
 21
926.4529946162072
 31
0.0
  0
LINE
  5
10D
330
E16
100
AcDbEntity
  8
ZUWAKU
  6
Continuous
 62
     9
100
AcDbLine
 10
816.7679725085914
 20
961.0940107675842
 30
0.0
 11
836.7679725085913
 21
926.4529946162072
 31
0.0
  0
TEXT
  5
10F
330
E16
100
AcDbEntity
  8
ZUWAKU
 62
     4
100
AcDbText
 10
807.1679725085912
 20
927.9999999999997
 30
0.0
 40
24.0
  1
3
 41
1.199999999999995
  7
DCSTYLE0
 72
     5
 11
826.3679725085912
 21
927.9999999999997
 31
0.0
100
AcDbText
  0
ENDBLK
  5
B9
330
E16
100
AcDbEntity
  8
0
100
AcDbBlockEnd
  0
BLOCK
  5
E19
330
E18
100
AcDbEntity
  8
0
100
AcDbBlockBegin
  2
DC_GROUP_4
 70
     0
 10
0.0
 20
0.0
 30
0.0
  3
DC_GROUP_4
  1

  0
POINT
  5
110
330
E18
100
AcDbEntity
  8
ZUWAKU
  6
Continuous
 62
     7
100
AcDbPoint
 10
844.0855498612082
 20
1016.317249840811
 30
0.0
  0
POINT
  5
111
330
E18
100
AcDbEntity
  8
ZUWAKU
  6
Continuous
 62
     7
100
AcDbPoint
 10
846.7278962765607
 20
1035.999999999999
 30
0.0
  0
INSERT
  5
112
330
E18
100
AcDbEntity
  8
ZUWAKU
  6
Continuous
100
AcDbBlockReference
  2
DC_GROUP_5
 10
0.0
 20
0.0
 30
0.0
  0
ENDBLK
  5
BC
330
E18
100
AcDbEntity
  8
0
100
AcDbBlockEnd
  0
BLOCK
  5
E1B
330
E1A
100
AcDbEntity
  8
0
100
AcDbBlockBegin
  2
DC_GROUP_5
 70
     0
 10
0.0
 20
0.0
 30
0.0
  3
DC_GROUP_5
  1

  0
LINE
  5
113
330
E1A
100
AcDbEntity
  8
ZUWAKU
  6
Continuous
 62
     9
100
AcDbLine
 10
796.7679725085913
 20
1022.452994616207
 30
0.0
 11
816.7679725085914
 21
1057.094010767584
 31
0.0
  0
LINE
  5
114
330
E1A
100
AcDbEntity
  8
ZUWAKU
  6
Continuous
 62
     9
100
AcDbLine
 10
796.7679725085913
 20
1022.452994616207
 30
0.0
 11
836.7679725085913
 21
1022.452994616207
 31
0.0
  0
LINE
  5
115
330
E1A
100
AcDbEntity
  8
ZUWAKU
  6
Continuous
 62
     9
100
AcDbLine
 10
816.7679725085914
 20
1057.094010767584
 30
0.0
 11
836.7679725085913
 21
1022.452994616207
 31
0.0
  0
TEXT
  5
116
330
E1A
100
AcDbEntity
  8
ZUWAKU
 62
     4
100
AcDbText
 10
807.1679725085912
 20
1023.999999999999
 30
0.0
 40
24.0
  1
1
 41
2.399999999999991
  7
DCSTYLE0
 72
     5
 11
826.3679725085912
 21
1023.999999999999
 31
0.0
100
AcDbText
  0
ENDBLK
  5
BF
330
E1A
100
AcDbEntity
  8
0
100
AcDbBlockEnd
  0
BLOCK
  5
E1D
330
E1C
100
AcDbEntity
  8
0
100
AcDbBlockBegin
  2
DC_GROUP_6
 70
     0
 10
0.0
 20
0.0
 30
0.0
  3
DC_GROUP_6
  1

  0
POINT
  5
117
330
E1C
100
AcDbEntity
  8
ZUWAKU
  6
Continuous
 62
     7
100
AcDbPoint
 10
844.0855498612076
 20
968.3172498408117
 30
0.0
  0
POINT
  5
118
330
E1C
100
AcDbEntity
  8
ZUWAKU
  6
Continuous
 62
     7
100
AcDbPoint
 10
846.7278962765606
 20
987.9999999999997
 30
0.0
  0
INSERT
  5
119
330
E1C
100
AcDbEntity
  8
ZUWAKU
  6
Continuous
100
AcDbBlockReference
  2
DC_GROUP_7
 10
0.0
 20
0.0
 30
0.0
  0
ENDBLK
  5
C2
330
E1C
100
AcDbEntity
  8
0
100
AcDbBlockEnd
  0
BLOCK
  5
E1F
330
E1E
100
AcDbEntity
  8
0
100
AcDbBlockBegin
  2
DC_GROUP_7
 70
     0
 10
0.0
 20
0.0
 30
0.0
  3
DC_GROUP_7
  1

  0
LINE
  5
11A
330
E1E
100
AcDbEntity
  8
ZUWAKU
  6
Continuous
 62
     9
100
AcDbLine
 10
796.7679725085911
 20
974.4529946162069
 30
0.0
 11
816.7679725085911
 21
1009.094010767584
 31
0.0
  0
LINE
  5
11B
330
E1E
100
AcDbEntity
  8
ZUWAKU
  6
Continuous
 62
     9
100
AcDbLine
 10
796.7679725085911
 20
974.4529946162069
 30
0.0
 11
836.7679725085913
 21
974.4529946162069
 31
0.0
  0
LINE
  5
11C
330
E1E
100
AcDbEntity
  8
ZUWAKU
  6
Continuous
 62
     9
100
AcDbLine
 10
816.7679725085911
 20
1009.094010767584
 30
0.0
 11
836.7679725085913
 21
974.4529946162069
 31
0.0
  0
TEXT
  5
11D
330
E1E
100
AcDbEntity
  8
ZUWAKU
 62
     4
100
AcDbText
 10
807.167972508591
 20
975.9999999999996
 30
0.0
 40
24.0
  1
2
 41
1.200000000000017
  7
DCSTYLE0
 72
     5
 11
826.3679725085912
 21
975.9999999999996
 31
0.0
100
AcDbText
  0
ENDBLK
  5
C5
330
E1E
100
AcDbEntity
  8
0
100
AcDbBlockEnd
  0
BLOCK
  5
E21
330
E20
100
AcDbEntity
  8
0
100
AcDbBlockBegin
  2
DC_GROUP_8
 70
     0
 10
0.0
 20
0.0
 30
0.0
  3
DC_GROUP_8
  1

  0
POINT
  5
11E
330
E20
100
AcDbEntity
  8
ZUWAKU
  6
Continuous
 62
     2
100
AcDbPoint
 10
1188.767972508591
 20
-940.0
 30
0.0
  0
POINT
  5
11F
330
E20
100
AcDbEntity
  8
ZUWAKU
  6
Continuous
 62
     2
100
AcDbPoint
 10
1188.767972508591
 20
-892.0
 30
0.0
  0
POINT
  5
120
330
E20
100
AcDbEntity
  8
ZUWAKU
  6
Continuous
 62
     2
100
AcDbPoint
 10
1188.767972508591
 20
-844.0
 30
0.0
  0
POINT
  5
121
330
E20
100
AcDbEntity
  8
ZUWAKU
  6
Continuous
 62
     2
100
AcDbPoint
 10
1548.767972508591
 20
-1060.0
 30
0.0
  0
POINT
  5
122
330
E20
100
AcDbEntity
  8
ZUWAKU
  6
Continuous
 62
     2
100
AcDbPoint
 10
1444.767972508591
 20
-1060.0
 30
0.0
  0
POINT
  5
123
330
E20
100
AcDbEntity
  8
ZUWAKU
  6
Continuous
 62
     2
100
AcDbPoint
 10
1188.767972508591
 20
-796.0
 30
0.0
  0
POINT
  5
124
330
E20
100
AcDbEntity
  8
ZUWAKU
  6
Continuous
 62
     2
100
AcDbPoint
 10
1188.767972508591
 20
-748.0
 30
0.0
  0
ENDBLK
  5
C8
330
E20
100
AcDbEntity
  8
0
100
AcDbBlockEnd
  0
BLOCK
  5
E23
330
E22
100
AcDbEntity
  8
0
100
AcDbBlockBegin
  2
*D10
 70
     1
 10
0.0
 20
0.0
 30
0.0
  3
*D10
  1

  0
LINE
  5
125
330
E22
100
AcDbEntity
  8
LAYER0016
  6
Continuous
 62
     9
440
 16777216
100
AcDbLine
 10
-864.3619310624623
 20
313.0048272777012
 30
0.0
 11
-444.3619310624621
 21
313.0048272777012
 31
0.0
  0
INSERT
  5
12C
330
E22
100
AcDbEntity
  8
LAYER0016
 62
     9
440
 16777216
100
AcDbBlockReference
  2
_OPEN30
 10
-864.3619310624623
 20
313.0048272777012
 30
0.0
 41
24.00002246092228
 42
23.99991494578914
 50
180.0
  0
INSERT
  5
12D
330
E22
100
AcDbEntity
  8
LAYER0016
 62
     9
440
 16777216
100
AcDbBlockReference
  2
_OPEN30
 10
-444.3619310624621
 20
313.0048272777012
 30
0.0
 41
24.00002246092228
 42
23.99991494578914
  0
TEXT
  5
12E
330
E22
100
AcDbEntity
  8
LAYER0016
 62
     7
440
 16777216
100
AcDbText
 10
-692.7619310624622
 20
321.0048272777012
 30
0.0
 40
32.0
  1
420
 41
0.9600000000000008
  7
DCSTYLE0
 72
     5
 11
-615.9619310624622
 21
321.0048272777012
 31
0.0
100
AcDbText
  0
LINE
  5
12F
330
E22
100
AcDbEntity
  8
LAYER0016
  6
Continuous
 62
     9
440
 16777216
100
AcDbLine
 10
-864.3619310624623
 20
139.3320944338334
 30
0.0
 11
-864.3619310624623
 21
321.0048272777012
 31
0.0
  0
LINE
  5
130
330
E22
100
AcDbEntity
  8
LAYER0016
  6
Continuous
 62
     9
440
 16777216
100
AcDbLine
 10
-444.3619310624621
 20
139.3320944338334
 30
0.0
 11
-444.3619310624621
 21
321.0048272777012
 31
0.0
  0
ENDBLK
  5
CB
330
E22
100
AcDbEntity
  8
0
100
AcDbBlockEnd
  0
BLOCK
  5
E4B
330
E24
100
AcDbEntity
  8
0
100
AcDbBlockBegin
  2
_OPEN30
 70
     0
 10
0.0
 20
0.0
 30
0.0
  3
_OPEN30
  1

  0
LINE
  5
129
330
E24
100
AcDbEntity
  8
0
  6
ByBlock
 62
     0
100
AcDbLine
 10
-1.0
 20
0.267949
 30
0.0
 11
0.0
 21
0.0
 31
0.0
  0
LINE
  5
12A
330
E24
100
AcDbEntity
  8
0
  6
ByBlock
 62
     0
100
AcDbLine
 10
0.0
 20
0.0
 30
0.0
 11
-1.0
 21
-0.267949
 31
0.0
  0
LINE
  5
12B
330
E24
100
AcDbEntity
  8
0
  6
ByBlock
 62
     0
100
AcDbLine
 10
0.0
 20
0.0
 30
0.0
 11
-1.0
 21
0.0
 31
0.0
  0
ENDBLK
  5
128
330
E24
100
AcDbEntity
  8
0
100
AcDbBlockEnd
  0
BLOCK
  5
E26
330
E25
100
AcDbEntity
  8
0
100
AcDbBlockBegin
  2
DA_IMAGEDIMGROUP_1
 70
     0
 10
0.0
 20
0.0
 30
0.0
  3
DA_IMAGEDIMGROUP_1
  1

  0
LINE
  5
131
330
E25
100
AcDbEntity
  8
LAYER0016
  6
Continuous
 62
     9
100
AcDbLine
 10
-997.961931062462
 20
-726.9951727222989
 30
0.0
 11
-997.961931062462
 21
-723.9951727222988
 31
0.0
  0
LINE
  5
132
330
E25
100
AcDbEntity
  8
LAYER0016
  6
Continuous
 62
     9
100
AcDbLine
 10
-885.9619310624621
 20
-726.9951727222989
 30
0.0
 11
-1005.961931062462
 21
-726.9951727222989
 31
0.0
  0
LINE
  5
133
330
E25
100
AcDbEntity
  8
LAYER0016
  6
Continuous
 62
     9
100
AcDbLine
 10
-997.961931062462
 20
-791.7774127222988
 30
0.0
 11
-997.961931062462
 21
-726.9951727222989
 31
0.0
  0
INSERT
  5
134
330
E25
100
AcDbEntity
  8
LAYER0016
 62
     9
100
AcDbBlockReference
  2
_OPEN30
 10
-997.961931062462
 20
-726.9951727222989
 30
0.0
 41
24.00002246092228
 42
23.99991494578914
 50
90.0
  0
LINE
  5
135
330
E25
100
AcDbEntity
  8
LAYER0016
  6
Continuous
 62
     9
100
AcDbLine
 10
-997.961931062462
 20
-683.9951727222987
 30
0.0
 11
-997.961931062462
 21
-723.9951727222988
 31
0.0
  0
INSERT
  5
136
330
E25
100
AcDbEntity
  8
LAYER0016
 62
     9
100
AcDbBlockReference
  2
_OPEN30
 10
-997.961931062462
 20
-723.9951727222988
 30
0.0
 41
24.00002246092228
 42
23.99991494578914
 50
270.0
  0
TEXT
  5
137
330
E25
100
AcDbEntity
  8
LAYER0016
 62
     7
100
AcDbText
 10
-1005.961931062462
 20
-783.7774127222988
 30
0.0
 40
32.0
  1
3
 50
90.0
 41
1.200000000000001
  7
DCSTYLE0
 72
     5
 11
-1005.961931062462
 21
-758.1774127222987
 31
0.0
100
AcDbText
  0
LINE
  5
138
330
E25
100
AcDbEntity
  8
LAYER0016
  6
Continuous
 62
     9
100
AcDbLine
 10
-885.9619310624621
 20
-723.9951727222988
 30
0.0
 11
-1005.961931062462
 21
-723.9951727222988
 31
0.0
  0
ENDBLK
  5
CE
330
E25
100
AcDbEntity
  8
0
100
AcDbBlockEnd
  0
BLOCK
  5
E28
330
E27
100
AcDbEntity
  8
0
100
AcDbBlockBegin
  2
*D13
 70
     1
 10
0.0
 20
0.0
 30
0.0
  3
*D13
  1

  0
LINE
  5
139
330
E27
100
AcDbEntity
  8
LAYER0016
  6
Continuous
 62
     9
440
 16777216
100
AcDbLine
 10
-1077.961931062462
 20
-726.9951727222989
 30
0.0
 11
-1077.961931062462
 21
-296.9951727222989
 31
0.0
  0
INSERT
  5
13A
330
E27
100
AcDbEntity
  8
LAYER0016
 62
     9
440
 16777216
100
AcDbBlockReference
  2
_OPEN30
 10
-1077.961931062462
 20
-726.9951727222989
 30
0.0
 41
24.00002246092228
 42
23.99991494578914
 50
270.0
  0
INSERT
  5
13B
330
E27
100
AcDbEntity
  8
LAYER0016
 62
     9
440
 16777216
100
AcDbBlockReference
  2
_OPEN30
 10
-1077.961931062462
 20
-296.9951727222989
 30
0.0
 41
24.00002246092228
 42
23.99991494578914
 50
90.0
  0
TEXT
  5
13C
330
E27
100
AcDbEntity
  8
LAYER0016
 62
     7
440
 16777216
100
AcDbText
 10
-1085.961931062462
 20
-550.395172722299
 30
0.0
 40
32.0
  1
430
 50
90.0
 41
0.9600000000000019
  7
DCSTYLE0
 72
     5
 11
-1085.961931062462
 21
-473.5951727222988
 31
0.0
100
AcDbText
  0
LINE
  5
13D
330
E27
100
AcDbEntity
  8
LAYER0016
  6
Continuous
 62
     9
440
 16777216
100
AcDbLine
 10
-885.9619310624621
 20
-726.9951727222989
 30
0.0
 11
-1085.961931062462
 21
-726.9951727222989
 31
0.0
  0
LINE
  5
13E
330
E27
100
AcDbEntity
  8
LAYER0016
  6
Continuous
 62
     9
440
 16777216
100
AcDbLine
 10
-916.3049901875638
 20
-296.9951727222989
 30
0.0
 11
-1085.961931062462
 21
-296.9951727222989
 31
0.0
  0
ENDBLK
  5
D1
330
E27
100
AcDbEntity
  8
0
100
AcDbBlockEnd
  0
BLOCK
  5
E2A
330
E29
100
AcDbEntity
  8
0
100
AcDbBlockBegin
  2
*D14
 70
     1
 10
0.0
 20
0.0
 30
0.0
  3
*D14
  1

  0
LINE
  5
13F
330
E29
100
AcDbEntity
  8
LAYER0016
  6
Continuous
 62
     9
440
 16777216
100
AcDbLine
 10
-1077.961931062462
 20
-296.9951727222989
 30
0.0
 11
-1077.961931062462
 21
-106.9951727222988
 31
0.0
  0
INSERT
  5
140
330
E29
100
AcDbEntity
  8
LAYER0016
 62
     9
440
 16777216
100
AcDbBlockReference
  2
_OPEN30
 10
-1077.961931062462
 20
-296.9951727222989
 30
0.0
 41
24.00002246092228
 42
23.99991494578914
 50
270.0
  0
INSERT
  5
141
330
E29
100
AcDbEntity
  8
LAYER0016
 62
     9
440
 16777216
100
AcDbBlockReference
  2
_OPEN30
 10
-1077.961931062462
 20
-106.9951727222988
 30
0.0
 41
24.00002246092228
 42
23.99991494578914
 50
90.0
  0
TEXT
  5
142
330
E29
100
AcDbEntity
  8
LAYER0016
 62
     7
440
 16777216
100
AcDbText
 10
-1085.961931062462
 20
-240.395172722299
 30
0.0
 40
32.0
  1
190
 50
90.0
 41
1.10769230769231
  7
DCSTYLE0
 72
     5
 11
-1085.961931062462
 21
-163.5951727222988
 31
0.0
100
AcDbText
  0
LINE
  5
143
330
E29
100
AcDbEntity
  8
LAYER0016
  6
Continuous
 62
     9
440
 16777216
100
AcDbLine
 10
-916.3049901875638
 20
-296.9951727222989
 30
0.0
 11
-1085.961931062462
 21
-296.9951727222989
 31
0.0
  0
LINE
  5
144
330
E29
100
AcDbEntity
  8
LAYER0016
  6
Continuous
 62
     9
440
 16777216
100
AcDbLine
 10
-916.3049901875638
 20
-106.9951727222988
 30
0.0
 11
-1085.961931062462
 21
-106.9951727222988
 31
0.0
  0
ENDBLK
  5
D4
330
E29
100
AcDbEntity
  8
0
100
AcDbBlockEnd
  0
BLOCK
  5
E2C
330
E2B
100
AcDbEntity
  8
0
100
AcDbBlockBegin
  2
*D15
 70
     1
 10
0.0
 20
0.0
 30
0.0
  3
*D15
  1

  0
LINE
  5
145
330
E2B
100
AcDbEntity
  8
LAYER0016
  6
Continuous
 62
     9
440
 16777216
100
AcDbLine
 10
-1077.961931062462
 20
-106.9951727222988
 30
0.0
 11
-1077.961931062462
 21
73.00482727770118
 31
0.0
  0
INSERT
  5
146
330
E2B
100
AcDbEntity
  8
LAYER0016
 62
     9
440
 16777216
100
AcDbBlockReference
  2
_OPEN30
 10
-1077.961931062462
 20
-106.9951727222988
 30
0.0
 41
24.00002246092228
 42
23.99991494578914
 50
270.0
  0
INSERT
  5
147
330
E2B
100
AcDbEntity
  8
LAYER0016
 62
     9
440
 16777216
100
AcDbBlockReference
  2
_OPEN30
 10
-1077.961931062462
 20
73.00482727770118
 30
0.0
 41
24.00002246092228
 42
23.99991494578914
 50
90.0
  0
TEXT
  5
148
330
E2B
100
AcDbEntity
  8
LAYER0016
 62
     7
440
 16777216
100
AcDbText
 10
-1085.961931062462
 20
-55.39517272229891
 30
0.0
 40
32.0
  1
180
 50
90.0
 41
1.10769230769231
  7
DCSTYLE0
 72
     5
 11
-1085.961931062462
 21
21.40482727770127
 31
0.0
100
AcDbText
  0
LINE
  5
149
330
E2B
100
AcDbEntity
  8
LAYER0016
  6
Continuous
 62
     9
440
 16777216
100
AcDbLine
 10
-916.3049901875638
 20
-106.9951727222988
 30
0.0
 11
-1085.961931062462
 21
-106.9951727222988
 31
0.0
  0
LINE
  5
14A
330
E2B
100
AcDbEntity
  8
LAYER0016
  6
Continuous
 62
     9
440
 16777216
100
AcDbLine
 10
-916.3049901875638
 20
73.00482727770115
 30
0.0
 11
-1085.961931062462
 21
73.00482727770118
 31
0.0
  0
ENDBLK
  5
D7
330
E2B
100
AcDbEntity
  8
0
100
AcDbBlockEnd
  0
BLOCK
  5
E2E
330
E2D
100
AcDbEntity
  8
0
100
AcDbBlockBegin
  2
*D16
 70
     1
 10
0.0
 20
0.0
 30
0.0
  3
*D16
  1

  0
LINE
  5
14B
330
E2D
100
AcDbEntity
  8
LAYER0016
  6
Continuous
 62
     9
440
 16777216
100
AcDbLine
 10
-1077.961931062462
 20
73.00482727770118
 30
0.0
 11
-1077.961931062462
 21
113.0048272777012
 31
0.0
  0
LINE
  5
14C
330
E2D
100
AcDbEntity
  8
LAYER0016
  6
Continuous
 62
     9
440
 16777216
100
AcDbLine
 10
-1077.961931062462
 20
203.3870672777012
 30
0.0
 11
-1077.961931062462
 21
113.0048272777012
 31
0.0
  0
INSERT
  5
14D
330
E2D
100
AcDbEntity
  8
LAYER0016
 62
     9
440
 16777216
100
AcDbBlockReference
  2
_OPEN30
 10
-1077.961931062462
 20
113.0048272777012
 30
0.0
 41
24.00002246092228
 42
23.99991494578914
 50
270.0
  0
TEXT
  5
14E
330
E2D
100
AcDbEntity
  8
LAYER0016
 62
     7
440
 16777216
100
AcDbText
 10
-1085.961931062462
 20
144.1870672777012
 30
0.0
 40
32.0
  1
40
 50
90.0
 41
1.066666666666667
  7
DCSTYLE0
 72
     5
 11
-1085.961931062462
 21
195.3870672777012
 31
0.0
100
AcDbText
  0
LINE
  5
14F
330
E2D
100
AcDbEntity
  8
LAYER0016
  6
Continuous
 62
     9
440
 16777216
100
AcDbLine
 10
-916.3049901875638
 20
73.00482727770115
 30
0.0
 11
-1085.961931062462
 21
73.00482727770118
 31
0.0
  0
LINE
  5
150
330
E2D
100
AcDbEntity
  8
LAYER0016
  6
Continuous
 62
     9
440
 16777216
100
AcDbLine
 10
-885.9619310624621
 20
113.0048272777012
 30
0.0
 11
-1085.961931062462
 21
113.0048272777012
 31
0.0
  0
ENDBLK
  5
DA
330
E2D
100
AcDbEntity
  8
0
100
AcDbBlockEnd
  0
BLOCK
  5
E30
330
E2F
100
AcDbEntity
  8
0
100
AcDbBlockBegin
  2
*D17
 70
     1
 10
0.0
 20
0.0
 30
0.0
  3
*D17
  1

  0
LINE
  5
151
330
E2F
100
AcDbEntity
  8
LAYER0016
  6
Continuous
 62
     9
440
 16777216
100
AcDbLine
 10
-1157.961931062462
 20
-726.9951727222989
 30
0.0
 11
-1157.961931062462
 21
113.0048272777012
 31
0.0
  0
INSERT
  5
152
330
E2F
100
AcDbEntity
  8
LAYER0016
 62
     9
440
 16777216
100
AcDbBlockReference
  2
_OPEN30
 10
-1157.961931062462
 20
-726.9951727222989
 30
0.0
 41
24.00002246092228
 42
23.99991494578914
 50
270.0
  0
INSERT
  5
153
330
E2F
100
AcDbEntity
  8
LAYER0016
 62
     9
440
 16777216
100
AcDbBlockReference
  2
_OPEN30
 10
-1157.961931062462
 20
113.0048272777012
 30
0.0
 41
24.00002246092228
 42
23.99991494578914
 50
90.0
  0
TEXT
  5
154
330
E2F
100
AcDbEntity
  8
LAYER0016
 62
     7
440
 16777216
100
AcDbText
 10
-1165.961931062462
 20
-345.3951727222989
 30
0.0
 40
32.0
  1
840
 50
90.0
 41
0.9600000000000022
  7
DCSTYLE0
 72
     5
 11
-1165.961931062462
 21
-268.5951727222987
 31
0.0
100
AcDbText
  0
LINE
  5
155
330
E2F
100
AcDbEntity
  8
LAYER0016
  6
Continuous
 62
     9
440
 16777216
100
AcDbLine
 10
-885.9619310624621
 20
-726.9951727222989
 30
0.0
 11
-1165.961931062462
 21
-726.9951727222989
 31
0.0
  0
LINE
  5
156
330
E2F
100
AcDbEntity
  8
LAYER0016
  6
Continuous
 62
     9
440
 16777216
100
AcDbLine
 10
-885.9619310624621
 20
113.0048272777012
 30
0.0
 11
-1165.961931062462
 21
113.0048272777012
 31
0.0
  0
ENDBLK
  5
DD
330
E2F
100
AcDbEntity
  8
0
100
AcDbBlockEnd
  0
BLOCK
  5
E32
330
E31
100
AcDbEntity
  8
0
100
AcDbBlockBegin
  2
*D18
 70
     1
 10
0.0
 20
0.0
 30
0.0
  3
*D18
  1

  0
LINE
  5
157
330
E31
100
AcDbEntity
  8
LAYER0016
  6
Continuous
 62
     9
100
AcDbLine
 10
-850.7619310624622
 20
233.0048272777012
 30
0.0
 11
-457.9619310624621
 21
233.0048272777012
 31
0.0
  0
INSERT
  5
158
330
E31
100
AcDbEntity
  8
LAYER0016
 62
     9
100
AcDbBlockReference
  2
_OPEN30
 10
-850.7619310624622
 20
233.0048272777012
 30
0.0
 41
24.00002246092228
 42
23.99991494578914
 50
180.0
  0
INSERT
  5
159
330
E31
100
AcDbEntity
  8
LAYER0016
 62
     9
100
AcDbBlockReference
  2
_OPEN30
 10
-457.9619310624621
 20
233.0048272777012
 30
0.0
 41
24.00002246092228
 42
23.99991494578914
  0
LINE
  5
15A
330
E31
100
AcDbEntity
  8
LAYER0016
  6
Continuous
 62
     9
100
AcDbLine
 10
-850.7619310624622
 20
121.0048272777012
 30
0.0
 11
-850.7619310624622
 21
241.0048272777012
 31
0.0
  0
TEXT
  5
15B
330
E31
100
AcDbEntity
  8
LAYER0016
 62
     7
100
AcDbText
 10
-743.9619310624623
 20
241.0048272777012
 30
0.0
 40
32.0
  1
(392.8)
 41
1.05
  7
DCSTYLE0
 72
     5
 11
-564.7619310624622
 21
241.0048272777012
 31
0.0
100
AcDbText
  0
LINE
  5
15C
330
E31
100
AcDbEntity
  8
LAYER0016
  6
Continuous
 62
     9
100
AcDbLine
 10
-457.9619310624621
 20
121.0048272777012
 30
0.0
 11
-457.9619310624621
 21
241.0048272777012
 31
0.0
  0
ENDBLK
  5
E0
330
E31
100
AcDbEntity
  8
0
100
AcDbBlockEnd
  0
BLOCK
  5
E34
330
E33
100
AcDbEntity
  8
0
100
AcDbBlockBegin
  2
*D19
 70
     1
 10
0.0
 20
0.0
 30
0.0
  3
*D19
  1

  0
LINE
  5
15D
330
E33
100
AcDbEntity
  8
LAYER0016
  6
Continuous
 62
     9
440
 16777216
100
AcDbLine
 10
-877.9619310624623
 20
393.0048272777012
 30
0.0
 11
-430.7619310624623
 21
393.0048272777012
 31
0.0
  0
INSERT
  5
15E
330
E33
100
AcDbEntity
  8
LAYER0016
 62
     9
440
 16777216
100
AcDbBlockReference
  2
_OPEN30
 10
-877.9619310624623
 20
393.0048272777012
 30
0.0
 41
24.00002246092228
 42
23.99991494578914
 50
180.0
  0
INSERT
  5
15F
330
E33
100
AcDbEntity
  8
LAYER0016
 62
     9
440
 16777216
100
AcDbBlockReference
  2
_OPEN30
 10
-430.7619310624623
 20
393.0048272777012
 30
0.0
 41
24.00002246092228
 42
23.99991494578914
  0
TEXT
  5
160
330
E33
100
AcDbEntity
  8
LAYER0016
 62
     7
440
 16777216
100
AcDbText
 10
-743.9619310624623
 20
401.0048272777011
 30
0.0
 40
32.0
  1
(447.2)
 41
1.05
  7
DCSTYLE0
 72
     5
 11
-564.7619310624622
 21
401.0048272777011
 31
0.0
100
AcDbText
  0
LINE
  5
161
330
E33
100
AcDbEntity
  8
LAYER0016
  6
Continuous
 62
     9
440
 16777216
100
AcDbLine
 10
-877.9619310624623
 20
121.0048272777012
 30
0.0
 11
-877.9619310624623
 21
401.0048272777011
 31
0.0
  0
LINE
  5
162
330
E33
100
AcDbEntity
  8
LAYER0016
  6
Continuous
 62
     9
440
 16777216
100
AcDbLine
 10
-430.7619310624623
 20
121.0048272777012
 30
0.0
 11
-430.7619310624623
 21
401.0048272777011
 31
0.0
  0
ENDBLK
  5
E3
330
E33
100
AcDbEntity
  8
0
100
AcDbBlockEnd
  0
BLOCK
  5
E36
330
E35
100
AcDbEntity
  8
0
100
AcDbBlockBegin
  2
DA_IMAGEDIMGROUP_2
 70
     0
 10
0.0
 20
0.0
 30
0.0
  3
DA_IMAGEDIMGROUP_2
  1

  0
LINE
  5
E8F
330
E35
100
AcDbEntity
  8
LAYER0016
  6
Continuous
 62
     9
100
AcDbLine
 10
-877.9619310624623
 20
-82.93853844833472
 30
0.0
 11
-850.7619310624622
 21
-82.93853844833472
 31
0.0
  0
LINE
  5
E90
330
E35
100
AcDbEntity
  8
LAYER0016
  6
Continuous
 62
     9
100
AcDbLine
 10
-787.4918599906266
 20
-185.150560326523
 30
0.0
 11
-864.3619310624623
 21
-82.93853844833472
 31
0.0
  0
LINE
  5
E91
330
E35
100
AcDbEntity
  8
LAYER0016
  6
Continuous
 62
     9
100
AcDbLine
 10
-603.1051291581255
 20
-185.150560326523
 30
0.0
 11
-787.4918599906266
 21
-185.150560326523
 31
0.0
  0
LINE
  5
E92
330
E35
100
AcDbEntity
  8
LAYER0016
  6
Continuous
 62
     9
100
AcDbLine
 10
-810.7619310624622
 20
-82.93853844833472
 30
0.0
 11
-850.7619310624622
 21
-82.93853844833472
 31
0.0
  0
INSERT
  5
E93
330
E35
100
AcDbEntity
  8
LAYER0016
 62
     9
100
AcDbBlockReference
  2
_OPEN30
 10
-850.7619310624622
 20
-82.93853844833472
 30
0.0
 41
24.00002246092228
 42
23.99991494578914
 50
180.0
  0
LINE
  5
E94
330
E35
100
AcDbEntity
  8
LAYER0016
  6
Continuous
 62
     9
100
AcDbLine
 10
-917.9619310624619
 20
-82.93853844833472
 30
0.0
 11
-877.9619310624623
 21
-82.93853844833472
 31
0.0
  0
INSERT
  5
E95
330
E35
100
AcDbEntity
  8
LAYER0016
 62
     9
100
AcDbBlockReference
  2
_OPEN30
 10
-877.9619310624623
 20
-82.93853844833472
 30
0.0
 41
24.00002246092228
 42
23.99991494578914
  0
TEXT
  5
E96
330
E35
100
AcDbEntity
  8
LAYER0016
 62
     7
100
AcDbText
 10
-779.4918599906267
 20
-177.150560326523
 30
0.0
 40
32.0
  1
φ27.2
  7
DCSTYLE0
100
AcDbText
  0
ENDBLK
  5
E6
330
E35
100
AcDbEntity
  8
0
100
AcDbBlockEnd
  0
BLOCK
  5
E38
330
E37
100
AcDbEntity
  8
0
100
AcDbBlockBegin
  2
DA_IMAGEDIMGROUP_3
 70
     0
 10
0.0
 20
0.0
 30
0.0
  3
DA_IMAGEDIMGROUP_3
  1

  0
LINE
  5
16B
330
E37
100
AcDbEntity
  8
LAYER0016
  6
Continuous
 62
     9
100
AcDbLine
 10
-763.0157545595671
 20
63.50482727770117
 30
0.0
 11
-763.0157545595671
 21
82.50482727770128
 31
0.0
  0
LINE
  5
16C
330
E37
100
AcDbEntity
  8
LAYER0016
  6
Continuous
 62
     9
100
AcDbLine
 10
-763.0157545595671
 20
-52.47741272229879
 30
0.0
 11
-763.0157545595671
 21
63.50482727770117
 31
0.0
  0
INSERT
  5
16D
330
E37
100
AcDbEntity
  8
LAYER0016
 62
     9
100
AcDbBlockReference
  2
_OPEN30
 10
-763.0157545595671
 20
63.50482727770117
 30
0.0
 41
24.00002246092228
 42
23.99991494578914
 50
90.0
  0
LINE
  5
16E
330
E37
100
AcDbEntity
  8
LAYER0016
  6
Continuous
 62
     9
100
AcDbLine
 10
-763.0157545595671
 20
122.5048272777013
 30
0.0
 11
-763.0157545595671
 21
82.50482727770128
 31
0.0
  0
INSERT
  5
16F
330
E37
100
AcDbEntity
  8
LAYER0016
 62
     9
100
AcDbBlockReference
  2
_OPEN30
 10
-763.0157545595671
 20
82.50482727770128
 30
0.0
 41
24.00002246092228
 42
23.99991494578914
 50
270.0
  0
TEXT
  5
170
330
E37
100
AcDbEntity
  8
LAYER0016
 62
     7
100
AcDbText
 10
-771.0157545595671
 20
-44.47741272229879
 30
0.0
 40
32.0
  1
φ19
 50
90.0
 41
0.9473684210526309
  7
DCSTYLE0
 72
     5
 11
-771.0157545595671
 21
32.32258727770118
 31
0.0
100
AcDbText
  0
ENDBLK
  5
E9
330
E37
100
AcDbEntity
  8
0
100
AcDbBlockEnd
  0
BLOCK
  5
E3A
330
E39
100
AcDbEntity
  8
0
100
AcDbBlockBegin
  2
DC_GROUP_9
 70
     0
 10
0.0
 20
0.0
 30
0.0
  3
DC_GROUP_9
  1

  0
TEXT
  5
171
330
E39
100
AcDbEntity
  8
LAYER0240
 62
     4
100
AcDbText
 10
-378.9722991234257
 20
-804.8612420189508
 30
0.0
 40
32.0
  1
Oリングを8の字にひねって留める
 41
0.5217391304347825
  7
DCSTYLE0
 72
     5
 11
-71.77229912342572
 21
-804.8612420189508
 31
0.0
100
AcDbText
  0
ENDBLK
  5
EC
330
E39
100
AcDbEntity
  8
0
100
AcDbBlockEnd
  0
BLOCK
  5
E3C
330
E3B
100
AcDbEntity
  8
0
100
AcDbBlockBegin
  2
DC_GROUP_10
 70
     0
 10
0.0
 20
0.0
 30
0.0
  3
DC_GROUP_10
  1

  0
LINE
  5
172
330
E3B
100
AcDbEntity
  8
LAYER0016
  6
Continuous
 62
     4
100
AcDbLine
 10
-457.9619310624621
 20
63.50482727770128
 30
0.0
 11
-497.9488875842012
 21
20.34782244678348
 31
0.0
  0
INSERT
  5
173
330
E3B
100
AcDbEntity
  8
LAYER0016
 62
     4
100
AcDbBlockReference
  2
_OPEN30
 10
-457.9619310624621
 20
63.50482727770128
 30
0.0
 41
24.00002246092228
 42
23.99991494578914
 50
47.18347131373321
  0
LINE
  5
174
330
E3B
100
AcDbEntity
  8
LAYER0016
  6
Continuous
 62
     4
100
AcDbLine
 10
-497.9488875842012
 20
20.34782244678348
 30
0.0
 11
-577.9488875842012
 21
20.34782244678348
 31
0.0
  0
LINE
  5
175
330
E3B
100
AcDbEntity
  8
LAYER0016
  6
Continuous
 62
     4
100
AcDbLine
 10
-547.9488875842012
 20
20.34782244678348
 30
0.0
 11
-547.9488875842012
 21
45.34782244678346
 31
0.0
  0
LINE
  5
176
330
E3B
100
AcDbEntity
  8
LAYER0016
  6
Continuous
 62
     4
100
AcDbLine
 10
-547.9488875842012
 20
20.34782244678348
 30
0.0
 11
-522.9488875842012
 21
20.34782244678348
 31
0.0
  0
LINE
  5
177
330
E3B
100
AcDbEntity
  8
LAYER0016
  6
Continuous
 62
     4
100
AcDbLine
 10
-547.9488875842012
 20
45.34782244678346
 30
0.0
 11
-522.9488875842012
 21
20.34782244678348
 31
0.0
  0
ENDBLK
  5
EF
330
E3B
100
AcDbEntity
  8
0
100
AcDbBlockEnd
  0
BLOCK
  5
E3E
330
E3D
100
AcDbEntity
  8
0
100
AcDbBlockBegin
  2
*D24
 70
     1
 10
0.0
 20
0.0
 30
0.0
  3
*D24
  1

  0
LINE
  5
178
330
E3D
100
AcDbEntity
  8
LAYER0016
  6
Continuous
 62
     9
440
 16777216
100
AcDbLine
 10
228.6307439407671
 20
313.0048272777012
 30
0.0
 11
648.6307439407672
 21
313.0048272777012
 31
0.0
  0
INSERT
  5
179
330
E3D
100
AcDbEntity
  8
LAYER0016
 62
     9
440
 16777216
100
AcDbBlockReference
  2
_OPEN30
 10
228.6307439407671
 20
313.0048272777012
 30
0.0
 41
24.00002246092228
 42
23.99991494578914
 50
180.0
  0
INSERT
  5
17A
330
E3D
100
AcDbEntity
  8
LAYER0016
 62
     9
440
 16777216
100
AcDbBlockReference
  2
_OPEN30
 10
648.6307439407672
 20
313.0048272777012
 30
0.0
 41
24.00002246092228
 42
23.99991494578914
  0
LINE
  5
17B
330
E3D
100
AcDbEntity
  8
LAYER0016
  6
Continuous
 62
     9
440
 16777216
100
AcDbLine
 10
228.6307439407671
 20
139.3320944338334
 30
0.0
 11
228.6307439407671
 21
321.0048272777012
 31
0.0
  0
TEXT
  5
17C
330
E3D
100
AcDbEntity
  8
LAYER0016
 62
     7
440
 16777216
100
AcDbText
 10
400.2307439407672
 20
321.0048272777012
 30
0.0
 40
32.0
  1
420
 41
0.959999999999999
  7
DCSTYLE0
 72
     5
 11
477.0307439407671
 21
321.0048272777012
 31
0.0
100
AcDbText
  0
LINE
  5
17D
330
E3D
100
AcDbEntity
  8
LAYER0016
  6
Continuous
 62
     9
440
 16777216
100
AcDbLine
 10
648.6307439407672
 20
139.3320944338334
 30
0.0
 11
648.6307439407672
 21
321.0048272777012
 31
0.0
  0
ENDBLK
  5
F2
330
E3D
100
AcDbEntity
  8
0
100
AcDbBlockEnd
  0
BLOCK
  5
E40
330
E3F
100
AcDbEntity
  8
0
100
AcDbBlockBegin
  2
*D25
 70
     1
 10
0.0
 20
0.0
 30
0.0
  3
*D25
  1

  0
LINE
  5
17E
330
E3F
100
AcDbEntity
  8
LAYER0016
  6
Continuous
 62
     9
100
AcDbLine
 10
242.2307439407675
 20
233.0048272777012
 30
0.0
 11
635.0307439407672
 21
233.0048272777012
 31
0.0
  0
INSERT
  5
17F
330
E3F
100
AcDbEntity
  8
LAYER0016
 62
     9
100
AcDbBlockReference
  2
_OPEN30
 10
242.2307439407675
 20
233.0048272777012
 30
0.0
 41
24.00002246092228
 42
23.99991494578914
 50
180.0
  0
INSERT
  5
180
330
E3F
100
AcDbEntity
  8
LAYER0016
 62
     9
100
AcDbBlockReference
  2
_OPEN30
 10
635.0307439407672
 20
233.0048272777012
 30
0.0
 41
24.00002246092228
 42
23.99991494578914
  0
LINE
  5
181
330
E3F
100
AcDbEntity
  8
LAYER0016
  6
Continuous
 62
     9
100
AcDbLine
 10
242.2307439407675
 20
121.0048272777012
 30
0.0
 11
242.2307439407675
 21
241.0048272777012
 31
0.0
  0
TEXT
  5
182
330
E3F
100
AcDbEntity
  8
LAYER0016
 62
     7
100
AcDbText
 10
349.0307439407674
 20
241.0048272777012
 30
0.0
 40
32.0
  1
(392.8)
 41
1.05
  7
DCSTYLE0
 72
     5
 11
528.2307439407674
 21
241.0048272777012
 31
0.0
100
AcDbText
  0
LINE
  5
183
330
E3F
100
AcDbEntity
  8
LAYER0016
  6
Continuous
 62
     9
100
AcDbLine
 10
635.0307439407672
 20
121.0048272777012
 30
0.0
 11
635.0307439407672
 21
241.0048272777012
 31
0.0
  0
ENDBLK
  5
F5
330
E3F
100
AcDbEntity
  8
0
100
AcDbBlockEnd
  0
BLOCK
  5
E42
330
E41
100
AcDbEntity
  8
0
100
AcDbBlockBegin
  2
*D26
 70
     1
 10
0.0
 20
0.0
 30
0.0
  3
*D26
  1

  0
LINE
  5
184
330
E41
100
AcDbEntity
  8
LAYER0016
  6
Continuous
 62
     9
440
 16777216
100
AcDbLine
 10
215.0307439407673
 20
393.0048272777012
 30
0.0
 11
662.2307439407675
 21
393.0048272777012
 31
0.0
  0
INSERT
  5
185
330
E41
100
AcDbEntity
  8
LAYER0016
 62
     9
440
 16777216
100
AcDbBlockReference
  2
_OPEN30
 10
215.0307439407673
 20
393.0048272777012
 30
0.0
 41
24.00002246092228
 42
23.99991494578914
 50
180.0
  0
INSERT
  5
186
330
E41
100
AcDbEntity
  8
LAYER0016
 62
     9
440
 16777216
100
AcDbBlockReference
  2
_OPEN30
 10
662.2307439407675
 20
393.0048272777012
 30
0.0
 41
24.00002246092228
 42
23.99991494578914
  0
LINE
  5
187
330
E41
100
AcDbEntity
  8
LAYER0016
  6
Continuous
 62
     9
440
 16777216
100
AcDbLine
 10
215.0307439407673
 20
121.0048272777012
 30
0.0
 11
215.0307439407673
 21
401.0048272777011
 31
0.0
  0
TEXT
  5
188
330
E41
100
AcDbEntity
  8
LAYER0016
 62
     7
440
 16777216
100
AcDbText
 10
349.0307439407674
 20
401.0048272777011
 30
0.0
 40
32.0
  1
(447.2)
 41
1.05
  7
DCSTYLE0
 72
     5
 11
528.2307439407674
 21
401.0048272777011
 31
0.0
100
AcDbText
  0
LINE
  5
189
330
E41
100
AcDbEntity
  8
LAYER0016
  6
Continuous
 62
     9
440
 16777216
100
AcDbLine
 10
662.2307439407675
 20
121.0048272777012
 30
0.0
 11
662.2307439407675
 21
401.0048272777011
 31
0.0
  0
ENDBLK
  5
F8
330
E41
100
AcDbEntity
  8
0
100
AcDbBlockEnd
  0
BLOCK
  5
E44
330
E43
100
AcDbEntity
  8
0
100
AcDbBlockBegin
  2
DC_GROUP_11
 70
     0
 10
0.0
 20
0.0
 30
0.0
  3
DC_GROUP_11
  1

  0
LINE
  5
18A
330
E43
100
AcDbEntity
  8
LAYER0016
  6
Continuous
 62
     9
100
AcDbLine
 10
-404.966563812749
 20
-695.8123297768402
 30
0.0
 11
-343.3955737315681
 21
-594.8869513449649
 31
0.0
  0
INSERT
  5
18B
330
E43
100
AcDbEntity
  8
LAYER0016
 62
     9
100
AcDbBlockReference
  2
_OPEN30
 10
-404.966563812749
 20
-695.8123297768402
 30
0.0
 41
24.00002246092228
 42
23.99991494578914
 50
238.6141158332075
  0
CIRCLE
  5
18C
330
E43
100
AcDbEntity
  8
LAYER0016
  6
Continuous
 62
     9
100
AcDbCircle
 10
-324.646797900974
 20
-564.1545026163957
 30
0.0
 40
36.0
  0
TEXT
  5
18D
330
E43
100
AcDbEntity
  8
LAYER0016
 62
     4
100
AcDbText
 10
-337.446797900974
 20
-580.1545026163957
 30
0.0
 40
32.0
  1
3
 41
1.199999999999998
  7
DCSTYLE0
 72
     5
 11
-311.846797900974
 21
-580.1545026163957
 31
0.0
100
AcDbText
  0
ENDBLK
  5
FB
330
E43
100
AcDbEntity
  8
0
100
AcDbBlockEnd
  0
BLOCK
  5
E46
330
E45
100
AcDbEntity
  8
0
100
AcDbBlockBegin
  2
DC_GROUP_12
 70
     0
 10
0.0
 20
0.0
 30
0.0
  3
DC_GROUP_12
  1

  0
LINE
  5
18E
330
E45
100
AcDbEntity
  8
LAYER0016
  6
Continuous
 62
     9
100
AcDbLine
 10
-458.7592529473052
 20
-655.9375984918285
 30
0.0
 11
-508.4251126090499
 21
-595.6120338314963
 31
0.0
  0
INSERT
  5
18F
330
E45
100
AcDbEntity
  8
LAYER0016
 62
     9
100
AcDbBlockReference
  2
_OPEN30
 10
-458.7592529473052
 20
-655.9375984918285
 30
0.0
 41
24.00002246092228
 42
23.99991494578914
 50
309.4645259693976
  0
CIRCLE
  5
190
330
E45
100
AcDbEntity
  8
LAYER0016
  6
Continuous
 62
     9
100
AcDbCircle
 10
-531.3067254179864
 20
-567.8193766130525
 30
0.0
 40
36.0
  0
TEXT
  5
191
330
E45
100
AcDbEntity
  8
LAYER0016
 62
     4
100
AcDbText
 10
-544.1067254179863
 20
-583.8193766130525
 30
0.0
 40
32.0
  1
1
 41
2.400000000000002
  7
DCSTYLE0
 72
     5
 11
-518.5067254179863
 21
-583.8193766130525
 31
0.0
100
AcDbText
  0
ENDBLK
  5
FE
330
E45
100
AcDbEntity
  8
0
100
AcDbBlockEnd
  0
BLOCK
  5
E48
330
E47
100
AcDbEntity
  8
0
100
AcDbBlockBegin
  2
DC_GROUP_13
 70
     0
 10
0.0
 20
0.0
 30
0.0
  3
DC_GROUP_13
  1

  0
LINE
  5
192
330
E47
100
AcDbEntity
  8
LAYER0016
  6
Continuous
 62
     9
100
AcDbLine
 10
-458.262674007201
 20
-725.4917553691057
 30
0.0
 11
-527.0060065029602
 21
-713.9734959615894
 31
0.0
  0
INSERT
  5
193
330
E47
100
AcDbEntity
  8
LAYER0016
 62
     9
100
AcDbBlockReference
  2
_OPEN30
 10
-458.262674007201
 20
-725.4917553691057
 30
0.0
 41
24.00002246092228
 42
23.99991494578914
 50
350.4881868541297
  0
CIRCLE
  5
194
330
E47
100
AcDbEntity
  8
LAYER0016
  6
Continuous
 62
     9
100
AcDbCircle
 10
-562.5110623512362
 20
-708.0244616524942
 30
0.0
 40
36.0
  0
TEXT
  5
195
330
E47
100
AcDbEntity
  8
LAYER0016
 62
     4
100
AcDbText
 10
-575.3110623512363
 20
-724.0244616524941
 30
0.0
 40
32.0
  1
2
 41
1.199999999999995
  7
DCSTYLE0
 72
     5
 11
-549.7110623512363
 21
-724.0244616524941
 31
0.0
100
AcDbText
  0
ENDBLK
  5
101
330
E47
100
AcDbEntity
  8
0
100
AcDbBlockEnd
  0
BLOCK
  5
E4A
330
E49
100
AcDbEntity
  8
0
100
AcDbBlockBegin
  2
DA_IMAGEDIMGROUP_4
 70
     0
 10
0.0
 20
0.0
 30
0.0
  3
DA_IMAGEDIMGROUP_4
  1

  0
LINE
  5
196
330
E49
100
AcDbEntity
  8
LAYER0016
  6
Continuous
 62
     9
100
AcDbLine
 10
-403.7001994894415
 20
-726.9951727222989
 30
0.0
 11
-359.0875138569495
 21
-726.9951727222989
 31
0.0
  0
LINE
  5
197
330
E49
100
AcDbEntity
  8
LAYER0016
  6
Continuous
 62
     9
100
AcDbLine
 10
-394.0062919232446
 20
-696.9951727222989
 30
0.0
 11
-359.0875138569495
 21
-696.9951727222989
 31
0.0
  0
LINE
  5
198
330
E49
100
AcDbEntity
  8
LAYER0016
  6
Continuous
 62
     9
100
AcDbLine
 10
-364.0875138569494
 20
-726.9951727222989
 30
0.0
 11
-364.0875138569494
 21
-696.9951727222989
 31
0.0
  0
LINE
  5
199
330
E49
100
AcDbEntity
  8
LAYER0016
  6
Continuous
 62
     9
100
AcDbLine
 10
-226.0552979939644
 20
-646.2872787662951
 30
0.0
 11
-364.0875138569494
 21
-711.9951727222987
 31
0.0
  0
LINE
  5
19A
330
E49
100
AcDbEntity
  8
LAYER0016
  6
Continuous
 62
     9
100
AcDbLine
 10
-226.0552979939644
 20
-527.8872787662954
 30
0.0
 11
-226.0552979939644
 21
-646.2872787662951
 31
0.0
  0
LINE
  5
19B
330
E49
100
AcDbEntity
  8
LAYER0016
  6
Continuous
 62
     9
100
AcDbLine
 10
-364.0875138569494
 20
-766.9951727222987
 30
0.0
 11
-364.0875138569494
 21
-726.9951727222989
 31
0.0
  0
INSERT
  5
19C
330
E49
100
AcDbEntity
  8
LAYER0016
 62
     9
100
AcDbBlockReference
  2
_OPEN30
 10
-364.0875138569494
 20
-726.9951727222989
 30
0.0
 41
24.00002246092228
 42
23.99991494578914
 50
90.0
  0
LINE
  5
19D
330
E49
100
AcDbEntity
  8
LAYER0016
  6
Continuous
 62
     9
100
AcDbLine
 10
-364.0875138569494
 20
-656.9951727222989
 30
0.0
 11
-364.0875138569494
 21
-696.9951727222989
 31
0.0
  0
INSERT
  5
19E
330
E49
100
AcDbEntity
  8
LAYER0016
 62
     9
100
AcDbBlockReference
  2
_OPEN30
 10
-364.0875138569494
 20
-696.9951727222989
 30
0.0
 41
24.00002246092228
 42
23.99991494578914
 50
270.0
  0
TEXT
  5
19F
330
E49
100
AcDbEntity
  8
LAYER0016
 62
     7
100
AcDbText
 10
-234.0552979939644
 20
-638.2872787662951
 30
0.0
 40
32.0
  1
(30)
 50
90.0
 41
1.129411764705882
  7
DCSTYLE0
 72
     5
 11
-234.0552979939644
 21
-535.8872787662951
 31
0.0
100
AcDbText
  0
ENDBLK
  5
104
330
E49
100
AcDbEntity
  8
0
100
AcDbBlockEnd
  0
ENDSEC
  0
SECTION
  2
ENTITIES
  0
LINE
  5
1A0
330
DBF
100
AcDbEntity
  8
ZUWAKU
  6
Continuous
 62
    56
100
AcDbLine
 10
975.4935910659876
 20
-1060.0
 30
0.0
 11
1184.767972508591
 21
-1060.0
 31
0.0
  0
LINE
  5
1A1
330
DBF
100
AcDbEntity
  8
ZUWAKU
  6
Continuous
 62
    56
100
AcDbLine
 10
975.4935910659876
 20
-1012.0
 30
0.0
 11
1600.767972508591
 21
-1012.0
 31
0.0
  0
LINE
  5
1A2
330
DBF
100
AcDbEntity
  8
ZUWAKU
  6
Continuous
 62
    56
100
AcDbLine
 10
975.4935910659876
 20
-964.0
 30
0.0
 11
1600.767972508591
 21
-964.0
 31
0.0
  0
LINE
  5
1A3
330
DBF
100
AcDbEntity
  8
ZUWAKU
  6
Continuous
 62
    56
100
AcDbLine
 10
975.4935910659876
 20
-916.0
 30
0.0
 11
1600.767972508591
 21
-916.0
 31
0.0
  0
LINE
  5
1A4
330
DBF
100
AcDbEntity
  8
ZUWAKU
  6
Continuous
 62
    56
100
AcDbLine
 10
975.4935910659876
 20
-868.0
 30
0.0
 11
1600.767972508591
 21
-868.0
 31
0.0
  0
LINE
  5
1A5
330
DBF
100
AcDbEntity
  8
ZUWAKU
  6
Continuous
 62
    56
100
AcDbLine
 10
1288.767972508591
 20
-964.0
 30
0.0
 11
1288.767972508591
 21
-1108.0
 31
0.0
  0
LINE
  5
1A6
330
DBF
100
AcDbEntity
  8
ZUWAKU
  6
Continuous
 62
    56
100
AcDbLine
 10
1392.767972508591
 20
-964.0
 30
0.0
 11
1392.767972508591
 21
-1108.0
 31
0.0
  0
LINE
  5
1A7
330
DBF
100
AcDbEntity
  8
ZUWAKU
  6
Continuous
 62
    56
100
AcDbLine
 10
1496.767972508591
 20
-964.0
 30
0.0
 11
1496.767972508591
 21
-1108.0
 31
0.0
  0
LINE
  5
1A8
330
DBF
100
AcDbEntity
  8
ZUWAKU
  6
Continuous
 62
    56
100
AcDbLine
 10
1068.136424395145
 20
-964.0
 30
0.0
 11
1068.136424395145
 21
-1012.0
 31
0.0
  0
LINE
  5
1B2
330
DBF
100
AcDbEntity
  8
ZUWAKU
  6
Continuous
 62
    56
100
AcDbLine
 10
975.4935910659876
 20
-820.0
 30
0.0
 11
1600.767972508591
 21
-820.0
 31
0.0
  0
LINE
  5
1B3
330
DBF
100
AcDbEntity
  8
ZUWAKU
  6
Continuous
 62
    56
100
AcDbLine
 10
1184.767972508591
 20
-772.0
 30
0.0
 11
1184.767972508591
 21
-1108.0
 31
0.0
  0
LINE
  5
1B9
330
DBF
100
AcDbEntity
  8
ZUWAKU
  6
Continuous
 62
    56
100
AcDbLine
 10
975.4935910659876
 20
-772.0
 30
0.0
 11
975.4935910659876
 21
-1108.0
 31
0.0
  0
LINE
  5
1BA
330
DBF
100
AcDbEntity
  8
ZUWAKU
  6
Continuous
 62
    56
100
AcDbLine
 10
975.4935910659876
 20
-772.0
 30
0.0
 11
1600.767972508591
 21
-772.0
 31
0.0
  0
TEXT
  5
1C7
330
DBF
100
AcDbEntity
  8
ZUWAKU
 62
    30
100
AcDbText
 10
987.9598231028188
 20
-1009.799660441426
 30
0.0
 40
40.0
  1
尺度
 41
0.7500000000000027
  7
DCSTYLE0
 72
     5
 11
1051.959823102819
 21
-1009.799660441426
 31
0.0
100
AcDbText
  0
TEXT
  5
1C8
330
DBF
100
AcDbEntity
  8
ZUWAKU
 62
    30
100
AcDbText
 10
1050.462635734706
 20
-911.0877645213323
 30
0.0
 40
40.0
  1
名称
 41
0.7500000000000001
  7
DCSTYLE0
 72
     5
 11
1114.462635734706
 21
-911.0877645213323
 31
0.0
100
AcDbText
  0
TEXT
  5
1C9
330
DBF
100
AcDbEntity
  8
ZUWAKU
 62
    30
100
AcDbText
 10
1516.767972508591
 20
-1005.6
 30
0.0
 40
40.0
  1
製図
 41
0.7741935483870968
  7
DCSTYLE0
 72
     5
 11
1580.767972508591
 21
-1005.6
 31
0.0
100
AcDbText
  0
TEXT
  5
1CA
330
DBF
100
AcDbEntity
  8
ZUWAKU
 62
    30
100
AcDbText
 10
1412.767972508591
 20
-1005.6
 30
0.0
 40
40.0
  1
改訂
 41
0.75
  7
DCSTYLE0
 72
     5
 11
1476.767972508591
 21
-1005.6
 31
0.0
100
AcDbText
  0
TEXT
  5
1CB
330
DBF
100
AcDbEntity
  8
ZUWAKU
 62
    30
100
AcDbText
 10
1308.767972508591
 20
-1005.6
 30
0.0
 40
40.0
  1
検図
 41
0.7741935483870968
  7
DCSTYLE0
 72
     5
 11
1372.767972508591
 21
-1005.6
 31
0.0
100
AcDbText
  0
TEXT
  5
1CC
330
DBF
100
AcDbEntity
  8
ZUWAKU
 62
    30
100
AcDbText
 10
1204.767972508591
 20
-1005.6
 30
0.0
 40
40.0
  1
検図
 41
0.7741935483870968
  7
DCSTYLE0
 72
     5
 11
1268.767972508591
 21
-1005.6
 31
0.0
100
AcDbText
  0
TEXT
  5
1CD
330
DBF
100
AcDbEntity
  8
ZUWAKU
 62
    30
100
AcDbText
 10
1010.784472511482
 20
-955.9683890624366
 30
0.0
 40
40.0
  1
図面番号
 41
0.7058823529411766
  7
DCSTYLE0
 72
     5
 11
1138.784472511482
 21
-955.9683890624366
 31
0.0
100
AcDbText
  0
TEXT
  5
1CE
330
DBF
100
AcDbEntity
  8
ZUWAKU
 62
    30
100
AcDbText
 10
1000.130781787289
 20
-1055.2
 30
0.0
 40
40.0
  1
作成年月日
 41
0.7142857142857144
  7
DCSTYLE0
 72
     5
 11
1160.130781787289
 21
-1055.2
 31
0.0
100
AcDbText
  0
LINE
  5
33F
330
DBF
100
AcDbEntity
  8
ZUWAKU
  6
Continuous
 62
     8
100
AcDbLine
 10
1600.767972508591
 20
1108.0
 30
0.0
 11
-1517.250859106529
 21
1108.0
 31
0.0
  0
LINE
  5
340
330
DBF
100
AcDbEntity
  8
ZUWAKU
  6
Continuous
 62
     8
100
AcDbLine
 10
1600.767972508591
 20
-1108.0
 30
0.0
 11
1600.767972508591
 21
1108.0
 31
0.0
  0
LINE
  5
341
330
DBF
100
AcDbEntity
  8
ZUWAKU
  6
Continuous
 62
     8
100
AcDbLine
 10
-1517.250859106529
 20
-1108.0
 30
0.0
 11
1600.767972508591
 21
-1108.0
 31
0.0
  0
LINE
  5
342
330
DBF
100
AcDbEntity
  8
ZUWAKU
  6
Continuous
 62
     8
100
AcDbLine
 10
-1517.250859106529
 20
1108.0
 30
0.0
 11
-1517.250859106529
 21
-1108.0
 31
0.0
  0
POINT
  5
347
330
DBF
100
AcDbEntity
  8
ZUWAKU
  6
Continuous
 62
     9
100
AcDbPoint
 10
1080.130781787289
 20
-1084.0
 30
0.0
  0
POINT
  5
348
330
DBF
100
AcDbEntity
  8
ZUWAKU
  6
Continuous
 62
     9
100
AcDbPoint
 10
1126.452198451868
 20
-988.0
 30
0.0
  0
POINT
  5
349
330
DBF
100
AcDbEntity
  8
ZUWAKU
  6
Continuous
 62
     9
100
AcDbPoint
 10
1188.767972508591
 20
-940.0
 30
0.0
  0
POINT
  5
34A
330
DBF
100
AcDbEntity
  8
ZUWAKU
  6
Continuous
 62
     9
100
AcDbPoint
 10
1188.767972508591
 20
-892.0
 30
0.0
  0
POINT
  5
34B
330
DBF
100
AcDbEntity
  8
ZUWAKU
  6
Continuous
 62
     9
100
AcDbPoint
 10
1188.767972508591
 20
-844.0
 30
0.0
  0
POINT
  5
34C
330
DBF
100
AcDbEntity
  8
ZUWAKU
  6
Continuous
 62
     9
100
AcDbPoint
 10
1548.767972508591
 20
-1060.0
 30
0.0
  0
LINE
  5
34D
330
DBF
100
AcDbEntity
  8
ZUWAKU
  6
Continuous
 62
     9
100
AcDbLine
 10
-1680.0
 20
1228.0
 30
0.0
 11
-1680.0
 21
1188.0
 31
0.0
  0
LINE
  5
34E
330
DBF
100
AcDbEntity
  8
ZUWAKU
  6
Continuous
 62
     9
100
AcDbLine
 10
-1680.0
 20
1188.0
 30
0.0
 11
-1720.0
 21
1188.0
 31
0.0
  0
LINE
  5
34F
330
DBF
100
AcDbEntity
  8
ZUWAKU
  6
Continuous
 62
     9
100
AcDbLine
 10
1680.0
 20
-1228.0
 30
0.0
 11
1680.0
 21
-1188.0
 31
0.0
  0
LINE
  5
350
330
DBF
100
AcDbEntity
  8
ZUWAKU
  6
Continuous
 62
     9
100
AcDbLine
 10
-1720.0
 20
-1188.0
 30
0.0
 11
-1679.815015248028
 21
-1188.0
 31
0.0
  0
POINT
  5
351
330
DBF
100
AcDbEntity
  8
ZUWAKU
  6
Continuous
 62
     9
100
AcDbPoint
 10
-1680.0
 20
0.0
 30
0.0
  0
LINE
  5
352
330
DBF
100
AcDbEntity
  8
ZUWAKU
  6
Continuous
 62
     9
100
AcDbLine
 10
-1679.111781965897
 20
-17.96239569297876
 30
0.0
 11
-1680.0
 21
-17.96239569297876
 31
0.0
  0
LINE
  5
353
330
DBF
100
AcDbEntity
  8
ZUWAKU
  6
Continuous
 62
     9
100
AcDbLine
 10
-1677.726141319842
 20
-17.16239569297881
 30
0.0
 11
-1680.0
 21
-17.16239569297881
 31
0.0
  0
LINE
  5
354
330
DBF
100
AcDbEntity
  8
ZUWAKU
  6
Continuous
 62
     9
100
AcDbLine
 10
-1676.340500673787
 20
-16.36239569297879
 30
0.0
 11
-1680.0
 21
-16.36239569297879
 31
0.0
  0
LINE
  5
355
330
DBF
100
AcDbEntity
  8
ZUWAKU
  6
Continuous
 62
     9
100
AcDbLine
 10
-1674.954860027732
 20
-15.56239569297878
 30
0.0
 11
-1680.0
 21
-15.56239569297878
 31
0.0
  0
LINE
  5
356
330
DBF
100
AcDbEntity
  8
ZUWAKU
  6
Continuous
 62
     9
100
AcDbLine
 10
-1673.569219381677
 20
-14.76239569297877
 30
0.0
 11
-1680.0
 21
-14.76239569297877
 31
0.0
  0
LINE
  5
357
330
DBF
100
AcDbEntity
  8
ZUWAKU
  6
Continuous
 62
     9
100
AcDbLine
 10
-1672.183578735622
 20
-13.96239569297876
 30
0.0
 11
-1680.0
 21
-13.96239569297876
 31
0.0
  0
LINE
  5
358
330
DBF
100
AcDbEntity
  8
ZUWAKU
  6
Continuous
 62
     9
100
AcDbLine
 10
-1670.797938089567
 20
-13.16239569297875
 30
0.0
 11
-1680.0
 21
-13.16239569297875
 31
0.0
  0
LINE
  5
359
330
DBF
100
AcDbEntity
  8
ZUWAKU
  6
Continuous
 62
     9
100
AcDbLine
 10
-1669.412297443511
 20
-12.36239569297879
 30
0.0
 11
-1680.0
 21
-12.36239569297879
 31
0.0
  0
LINE
  5
35A
330
DBF
100
AcDbEntity
  8
ZUWAKU
  6
Continuous
 62
     9
100
AcDbLine
 10
-1668.026656797456
 20
-11.56239569297878
 30
0.0
 11
-1680.0
 21
-11.56239569297878
 31
0.0
  0
LINE
  5
35B
330
DBF
100
AcDbEntity
  8
ZUWAKU
  6
Continuous
 62
     9
100
AcDbLine
 10
-1666.641016151401
 20
-10.76239569297877
 30
0.0
 11
-1680.0
 21
-10.76239569297877
 31
0.0
  0
LINE
  5
35C
330
DBF
100
AcDbEntity
  8
ZUWAKU
  6
Continuous
 62
     9
100
AcDbLine
 10
-1665.255375505346
 20
-9.962395692978759
 30
0.0
 11
-1680.0
 21
-9.962395692978759
 31
0.0
  0
LINE
  5
35D
330
DBF
100
AcDbEntity
  8
ZUWAKU
  6
Continuous
 62
     9
100
AcDbLine
 10
-1663.869734859291
 20
-9.162395692978748
 30
0.0
 11
-1680.0
 21
-9.162395692978748
 31
0.0
  0
LINE
  5
35E
330
DBF
100
AcDbEntity
  8
ZUWAKU
  6
Continuous
 62
     9
100
AcDbLine
 10
-1662.484094213235
 20
-8.362395692978793
 30
0.0
 11
-1680.0
 21
-8.362395692978793
 31
0.0
  0
LINE
  5
35F
330
DBF
100
AcDbEntity
  8
ZUWAKU
  6
Continuous
 62
     9
100
AcDbLine
 10
-1661.098453567181
 20
-7.562395692978782
 30
0.0
 11
-1680.0
 21
-7.562395692978782
 31
0.0
  0
LINE
  5
360
330
DBF
100
AcDbEntity
  8
ZUWAKU
  6
Continuous
 62
     9
100
AcDbLine
 10
-1659.712812921126
 20
-6.762395692978771
 30
0.0
 11
-1680.0
 21
-6.762395692978771
 31
0.0
  0
LINE
  5
361
330
DBF
100
AcDbEntity
  8
ZUWAKU
  6
Continuous
 62
     9
100
AcDbLine
 10
-1658.327172275071
 20
-5.962395692978758
 30
0.0
 11
-1680.0
 21
-5.962395692978758
 31
0.0
  0
LINE
  5
362
330
DBF
100
AcDbEntity
  8
ZUWAKU
  6
Continuous
 62
     9
100
AcDbLine
 10
-1656.941531629016
 20
-5.162395692978748
 30
0.0
 11
-1680.0
 21
-5.162395692978748
 31
0.0
  0
LINE
  5
363
330
DBF
100
AcDbEntity
  8
ZUWAKU
  6
Continuous
 62
     9
100
AcDbLine
 10
-1655.55589098296
 20
-4.362395692978792
 30
0.0
 11
-1680.0
 21
-4.362395692978792
 31
0.0
  0
LINE
  5
364
330
DBF
100
AcDbEntity
  8
ZUWAKU
  6
Continuous
 62
     9
100
AcDbLine
 10
-1654.170250336905
 20
-3.562395692978781
 30
0.0
 11
-1680.0
 21
-3.562395692978781
 31
0.0
  0
LINE
  5
365
330
DBF
100
AcDbEntity
  8
ZUWAKU
  6
Continuous
 62
     9
100
AcDbLine
 10
-1652.78460969085
 20
-2.76239569297877
 30
0.0
 11
-1680.0
 21
-2.76239569297877
 31
0.0
  0
LINE
  5
366
330
DBF
100
AcDbEntity
  8
ZUWAKU
  6
Continuous
 62
     9
100
AcDbLine
 10
-1651.398969044795
 20
-1.962395692978759
 30
0.0
 11
-1680.0
 21
-1.962395692978759
 31
0.0
  0
LINE
  5
367
330
DBF
100
AcDbEntity
  8
ZUWAKU
  6
Continuous
 62
     9
100
AcDbLine
 10
-1650.01332839874
 20
-1.162395692978748
 30
0.0
 11
-1680.0
 21
-1.162395692978748
 31
0.0
  0
LINE
  5
368
330
DBF
100
AcDbEntity
  8
ZUWAKU
  6
Continuous
 62
     9
100
AcDbLine
 10
-1648.627687752685
 20
-0.3623956929787937
 30
0.0
 11
-1680.0
 21
-0.3623956929787937
 31
0.0
  0
LINE
  5
369
330
DBF
100
AcDbEntity
  8
ZUWAKU
  6
Continuous
 62
     9
100
AcDbLine
 10
-1648.757952893371
 20
0.4376043070212178
 30
0.0
 11
-1680.0
 21
0.4376043070212178
 31
0.0
  0
LINE
  5
36A
330
DBF
100
AcDbEntity
  8
ZUWAKU
  6
Continuous
 62
     9
100
AcDbLine
 10
-1650.143593539427
 20
1.237604307021229
 30
0.0
 11
-1680.0
 21
1.237604307021229
 31
0.0
  0
LINE
  5
36B
330
DBF
100
AcDbEntity
  8
ZUWAKU
  6
Continuous
 62
     9
100
AcDbLine
 10
-1651.529234185482
 20
2.037604307021239
 30
0.0
 11
-1680.0
 21
2.037604307021239
 31
0.0
  0
LINE
  5
36C
330
DBF
100
AcDbEntity
  8
ZUWAKU
  6
Continuous
 62
     9
100
AcDbLine
 10
-1652.914874831537
 20
2.837604307021251
 30
0.0
 11
-1680.0
 21
2.837604307021251
 31
0.0
  0
LINE
  5
36D
330
DBF
100
AcDbEntity
  8
ZUWAKU
  6
Continuous
 62
     9
100
AcDbLine
 10
-1654.300515477592
 20
3.637604307021204
 30
0.0
 11
-1680.0
 21
3.637604307021204
 31
0.0
  0
LINE
  5
36E
330
DBF
100
AcDbEntity
  8
ZUWAKU
  6
Continuous
 62
     9
100
AcDbLine
 10
-1655.686156123647
 20
4.437604307021216
 30
0.0
 11
-1680.0
 21
4.437604307021216
 31
0.0
  0
LINE
  5
36F
330
DBF
100
AcDbEntity
  8
ZUWAKU
  6
Continuous
 62
     9
100
AcDbLine
 10
-1657.071796769702
 20
5.237604307021229
 30
0.0
 11
-1680.0
 21
5.237604307021229
 31
0.0
  0
LINE
  5
370
330
DBF
100
AcDbEntity
  8
ZUWAKU
  6
Continuous
 62
     9
100
AcDbLine
 10
-1658.457437415757
 20
6.03760430702124
 30
0.0
 11
-1680.0
 21
6.03760430702124
 31
0.0
  0
LINE
  5
371
330
DBF
100
AcDbEntity
  8
ZUWAKU
  6
Continuous
 62
     9
100
AcDbLine
 10
-1659.843078061812
 20
6.837604307021253
 30
0.0
 11
-1680.0
 21
6.837604307021253
 31
0.0
  0
LINE
  5
372
330
DBF
100
AcDbEntity
  8
ZUWAKU
  6
Continuous
 62
     9
100
AcDbLine
 10
-1661.228718707867
 20
7.637604307021206
 30
0.0
 11
-1680.0
 21
7.637604307021206
 31
0.0
  0
LINE
  5
373
330
DBF
100
AcDbEntity
  8
ZUWAKU
  6
Continuous
 62
     9
100
AcDbLine
 10
-1662.614359353922
 20
8.437604307021217
 30
0.0
 11
-1680.0
 21
8.437604307021217
 31
0.0
  0
LINE
  5
374
330
DBF
100
AcDbEntity
  8
ZUWAKU
  6
Continuous
 62
     9
100
AcDbLine
 10
-1663.999999999977
 20
9.237604307021227
 30
0.0
 11
-1680.0
 21
9.237604307021227
 31
0.0
  0
LINE
  5
375
330
DBF
100
AcDbEntity
  8
ZUWAKU
  6
Continuous
 62
     9
100
AcDbLine
 10
-1665.385640646032
 20
10.03760430702124
 30
0.0
 11
-1680.0
 21
10.03760430702124
 31
0.0
  0
LINE
  5
376
330
DBF
100
AcDbEntity
  8
ZUWAKU
  6
Continuous
 62
     9
100
AcDbLine
 10
-1666.771281292088
 20
10.83760430702125
 30
0.0
 11
-1680.0
 21
10.83760430702125
 31
0.0
  0
LINE
  5
377
330
DBF
100
AcDbEntity
  8
ZUWAKU
  6
Continuous
 62
     9
100
AcDbLine
 10
-1668.156921938143
 20
11.63760430702121
 30
0.0
 11
-1680.0
 21
11.63760430702121
 31
0.0
  0
LINE
  5
378
330
DBF
100
AcDbEntity
  8
ZUWAKU
  6
Continuous
 62
     9
100
AcDbLine
 10
-1669.542562584198
 20
12.43760430702122
 30
0.0
 11
-1680.0
 21
12.43760430702122
 31
0.0
  0
LINE
  5
379
330
DBF
100
AcDbEntity
  8
ZUWAKU
  6
Continuous
 62
     9
100
AcDbLine
 10
-1670.928203230253
 20
13.23760430702123
 30
0.0
 11
-1680.0
 21
13.23760430702123
 31
0.0
  0
LINE
  5
37A
330
DBF
100
AcDbEntity
  8
ZUWAKU
  6
Continuous
 62
     9
100
AcDbLine
 10
-1672.313843876308
 20
14.03760430702124
 30
0.0
 11
-1680.0
 21
14.03760430702124
 31
0.0
  0
LINE
  5
37B
330
DBF
100
AcDbEntity
  8
ZUWAKU
  6
Continuous
 62
     9
100
AcDbLine
 10
-1673.699484522363
 20
14.83760430702125
 30
0.0
 11
-1680.0
 21
14.83760430702125
 31
0.0
  0
LINE
  5
37C
330
DBF
100
AcDbEntity
  8
ZUWAKU
  6
Continuous
 62
     9
100
AcDbLine
 10
-1675.085125168418
 20
15.63760430702121
 30
0.0
 11
-1680.0
 21
15.63760430702121
 31
0.0
  0
LINE
  5
37D
330
DBF
100
AcDbEntity
  8
ZUWAKU
  6
Continuous
 62
     9
100
AcDbLine
 10
-1676.470765814473
 20
16.43760430702122
 30
0.0
 11
-1680.0
 21
16.43760430702122
 31
0.0
  0
LINE
  5
37E
330
DBF
100
AcDbEntity
  8
ZUWAKU
  6
Continuous
 62
     9
100
AcDbLine
 10
-1677.856406460528
 20
17.23760430702123
 30
0.0
 11
-1680.0
 21
17.23760430702123
 31
0.0
  0
LINE
  5
37F
330
DBF
100
AcDbEntity
  8
ZUWAKU
  6
Continuous
 62
     9
100
AcDbLine
 10
-1679.242047106583
 20
18.03760430702124
 30
0.0
 11
-1680.0
 21
18.03760430702124
 31
0.0
  0
LINE
  5
380
330
DBF
100
AcDbEntity
  8
ZUWAKU
  6
Continuous
 62
     9
100
AcDbLine
 10
-1679.815015248028
 20
-1188.276085205212
 30
0.0
 11
-1679.815015248028
 21
-1227.999572255732
 31
0.0
  0
LINE
  5
381
330
DBF
100
AcDbEntity
  8
ZUWAKU
  6
Continuous
 62
     9
100
AcDbLine
 10
1680.0
 20
-1188.0
 30
0.0
 11
1720.0
 21
-1188.0
 31
0.0
  0
LINE
  5
382
330
DBF
100
AcDbEntity
  8
ZUWAKU
  6
Continuous
 62
     9
100
AcDbLine
 10
1680.0
 20
1188.0
 30
0.0
 11
1720.0
 21
1188.0
 31
0.0
  0
LINE
  5
383
330
DBF
100
AcDbEntity
  8
ZUWAKU
  6
Continuous
 62
     9
100
AcDbLine
 10
1680.0
 20
1188.0
 30
0.0
 11
1680.0
 21
1228.0
 31
0.0
  0
POINT
  5
384
330
DBF
100
AcDbEntity
  8
ZUWAKU
  6
Continuous
 62
     9
100
AcDbPoint
 10
1548.767972508591
 20
-1038.465692383218
 30
0.0
  0
POINT
  5
385
330
DBF
100
AcDbEntity
  8
ZUWAKU
  6
Continuous
 62
     9
100
AcDbPoint
 10
1548.767972508591
 20
-1084.0
 30
0.0
  0
POINT
  5
386
330
DBF
100
AcDbEntity
  8
ZUWAKU
  6
Continuous
 62
     9
100
AcDbPoint
 10
1444.767972508591
 20
-1060.0
 30
0.0
  0
POINT
  5
387
330
DBF
100
AcDbEntity
  8
ZUWAKU
  6
Continuous
 62
     9
100
AcDbPoint
 10
1444.767972508591
 20
-1038.465692383218
 30
0.0
  0
POINT
  5
388
330
DBF
100
AcDbEntity
  8
ZUWAKU
  6
Continuous
 62
     9
100
AcDbPoint
 10
1444.767972508591
 20
-1084.0
 30
0.0
  0
POINT
  5
389
330
DBF
100
AcDbEntity
  8
ZUWAKU
  6
Continuous
 62
     9
100
AcDbPoint
 10
1340.767972508591
 20
-1060.0
 30
0.0
  0
POINT
  5
38A
330
DBF
100
AcDbEntity
  8
ZUWAKU
  6
Continuous
 62
     9
100
AcDbPoint
 10
1340.767972508591
 20
-1038.465692383218
 30
0.0
  0
POINT
  5
38B
330
DBF
100
AcDbEntity
  8
ZUWAKU
  6
Continuous
 62
     9
100
AcDbPoint
 10
1340.767972508591
 20
-1084.0
 30
0.0
  0
POINT
  5
38C
330
DBF
100
AcDbEntity
  8
ZUWAKU
  6
Continuous
 62
     9
100
AcDbPoint
 10
1236.767972508591
 20
-1060.0
 30
0.0
  0
POINT
  5
38D
330
DBF
100
AcDbEntity
  8
ZUWAKU
  6
Continuous
 62
     9
100
AcDbPoint
 10
1236.767972508591
 20
-1038.465692383218
 30
0.0
  0
POINT
  5
38E
330
DBF
100
AcDbEntity
  8
ZUWAKU
  6
Continuous
 62
     9
100
AcDbPoint
 10
1236.767972508591
 20
-1084.0
 30
0.0
  0
POINT
  5
3A6
330
DBF
100
AcDbEntity
  8
ZUWAKU
  6
Continuous
 62
     9
100
AcDbPoint
 10
1188.767972508591
 20
-796.0
 30
0.0
  0
POINT
  5
3A7
330
DBF
100
AcDbEntity
  8
ZUWAKU
  6
Continuous
 62
     9
100
AcDbPoint
 10
1188.767972508591
 20
-748.0
 30
0.0
  0
POINT
  5
3A8
330
DBF
100
AcDbEntity
  8
ZUWAKU
  6
Continuous
 62
     3
100
AcDbPoint
 10
-1517.250859106529
 20
1108.0
 30
0.0
  0
POINT
  5
3A9
330
DBF
100
AcDbEntity
  8
ZUWAKU
  6
Continuous
 62
     3
100
AcDbPoint
 10
-1095.926664470463
 20
-461.8699276007468
 30
0.0
  0
POINT
  5
3AA
330
DBF
100
AcDbEntity
  8
ZUWAKU
  6
Continuous
 62
     3
100
AcDbPoint
 10
-1095.926664470463
 20
178.1300723992533
 30
0.0
  0
INSERT
  5
3B6
330
DBF
100
AcDbEntity
  8
ZUWAKU
  6
Continuous
100
AcDbBlockReference
  2
DC_GROUP_1
 10
0.0
 20
0.0
 30
0.0
  0
INSERT
  5
3BA
330
DBF
100
AcDbEntity
  8
ZUWAKU
  6
Continuous
100
AcDbBlockReference
  2
DC_GROUP_8
 10
0.0
 20
0.0
 30
0.0
  0
TEXT
  5
3BC
330
DBF
100
AcDbEntity
  8
LAYER0240
 62
     4
100
AcDbText
 10
1188.767972508591
 20
-908.0
 30
0.0
 40
32.0
  1
タオルパーテーション
 41
0.6857142857142859
  7
DCSTYLE0
 72
     5
 11
1444.767972508591
 21
-908.0
 31
0.0
100
AcDbText
  0
TEXT
  5
3BE
330
DBF
100
AcDbEntity
  8
LAYER0240
 62
     4
100
AcDbText
 10
1188.767972508591
 20
-860.0
 30
0.0
 40
32.0
  1
JPK50600
 41
0.893023255813954
  7
DCSTYLE0
 72
     5
 11
1393.567972508591
 21
-860.0
 31
0.0
100
AcDbText
  0
TEXT
  5
3BF
330
DBF
100
AcDbEntity
  8
LAYER0240
 62
     4
100
AcDbText
 10
1088.052198451868
 20
-1004.0
 30
0.0
 40
32.0
  1
1/8
 41
1.028571428571428
  7
DCSTYLE0
 72
     5
 11
1164.852198451868
 21
-1004.0
 31
0.0
100
AcDbText
  0
TEXT
  5
3C0
330
DBF
100
AcDbEntity
  8
LAYER0240
 62
     4
100
AcDbText
 10
977.7307817872893
 20
-1100.0
 30
0.0
 40
32.0
  1
16.04.01
 41
1.199999999999998
  7
DCSTYLE0
 72
     5
 11
1182.530781787289
 21
-1100.0
 31
0.0
100
AcDbText
  0
LINE
  5
3CF
330
DBF
100
AcDbEntity
  8
LAYER0016
  6
Continuous
 62
     3
100
AcDbLine
 10
200.428531710588
 20
-299.3118065529543
 30
0.0
 11
200.428531710588
 21
-296.3118065529544
 31
0.0
  0
LINE
  5
3D0
330
DBF
100
AcDbEntity
  8
LAYER0016
  6
Continuous
 62
     3
100
AcDbLine
 10
-877.9619310624623
 20
113.0048272777012
 30
0.0
 11
-877.9619310624623
 21
-726.9951727222989
 31
0.0
  0
LINE
  5
3D1
330
DBF
100
AcDbEntity
  8
LAYER0016
  6
Continuous
 62
     3
100
AcDbLine
 10
-850.7619310624622
 20
82.50482727770128
 30
0.0
 11
-457.9619310624621
 21
82.50482727770128
 31
0.0
  0
LINE
  5
3D2
330
DBF
100
AcDbEntity
  8
LAYER0016
  6
Continuous
 62
     3
100
AcDbLine
 10
-850.7619310624622
 20
63.50482727770117
 30
0.0
 11
-457.9619310624621
 21
63.50482727770128
 31
0.0
  0
LINE
  5
3D3
330
DBF
100
AcDbEntity
  8
LAYER0016
  6
Continuous
 62
     3
100
AcDbLine
 10
-850.7619310624622
 20
-97.49517272229885
 30
0.0
 11
-457.9619310624621
 21
-97.49517272229887
 31
0.0
  0
LINE
  5
3D4
330
DBF
100
AcDbEntity
  8
LAYER0016
  6
Continuous
 62
     3
100
AcDbLine
 10
-850.7619310624622
 20
-116.4951727222989
 30
0.0
 11
-457.9619310624621
 21
-116.495172722299
 31
0.0
  0
LINE
  5
3D5
330
DBF
100
AcDbEntity
  8
LAYER0016
  6
Continuous
 62
     3
100
AcDbLine
 10
-850.7619310624622
 20
-287.4951727222989
 30
0.0
 11
-457.9619310624621
 21
-287.495172722299
 31
0.0
  0
LINE
  5
3D6
330
DBF
100
AcDbEntity
  8
LAYER0016
  6
Continuous
 62
     3
100
AcDbLine
 10
-850.7619310624622
 20
-306.495172722299
 30
0.0
 11
-457.9619310624621
 21
-306.4951727222991
 31
0.0
  0
LWPOLYLINE
  5
3D8
330
DBF
100
AcDbEntity
  8
LAYER0016
  6
Continuous
 62
     3
100
AcDbPolyline
 90
      151
 70
   128
 43
0.0
 10
-849.3619310624623
 20
82.50482727770121
 10
-849.4457007419956
 20
82.50274377071226
 10
-849.529433677379
 20
82.49649416364039
 10
-849.6130931405794
 20
82.4860811977698
 10
-849.6966424357912
 20
82.47150944057151
 10
-849.7800449155327
 20
82.45278528369981
 10
-849.8632639967194
 20
82.42991694018877
 10
-849.9462631767116
 20
82.40291444084961
 10
-850.0290060493266
 20
82.37178962987103
 10
-850.111456320805
 20
82.33655615962376
 10
-850.1935778257331
 20
82.29722948467239
 10
-850.2753345429049
 20
82.25382685499623
 10
-850.3566906111215
 20
82.20636730842322
 10
-850.4376103449232
 20
82.154871662279
 10
-850.5180582502401
 20
82.09936250425585
 10
-850.597999039962
 20
82.03986418250519
 10
-850.6773976494166
 20
81.97640279495729
 10
-850.7562192517495
 20
81.90900617787418
 10
-850.834429273201
 20
81.83770389363962
 10
-850.9119934082704
 20
81.76252721779198
 10
-850.9888776347652
 20
81.68350912530593
 10
-851.0650482287225
 20
81.6006842761284
 10
-851.1404717792018
 20
81.51408899997564
 10
-851.2151152029417
 20
81.42376128039776
 10
-851.2889457588691
 20
81.32974073811793
 10
-851.3619310624623
 20
81.23206861365337
 10
-851.4340390999546
 20
81.13078774922604
 10
-851.5052382423778
 20
81.02594256997035
 10
-851.5754972594356
 20
80.91757906444716
 10
-851.6447853332
 20
80.80574476447141
 10
-851.713072071632
 20
80.6904887242632
 10
-851.7803275219117
 20
80.57186149893107
 10
-851.8465221835754
 20
80.44991512229669
 10
-851.9116270214571
 20
80.3247030840712
 10
-851.9756134784227
 20
80.19628030639291
 10
-852.0384534878976
 20
80.06470311973645
 10
-852.1001194861769
 20
79.93002923820461
 10
-852.1605844245156
 20
79.79231773421282
 10
-852.2198217809933
 20
79.65162901257817
 10
-852.2778055721477
 20
79.50802478402373
 10
-852.3345103643718
 20
79.36156803811035
 10
-852.3899112850692
 20
79.21232301560718
 10
-852.4439840335654
 20
79.06035518031373
 10
-852.4967048917655
 20
78.90573119034515
 10
-852.5480507345591
 20
78.74851886889373
 10
-852.5979990399619
 20
78.58878717447969
 10
-852.646527898997
 20
78.42660617070328
 10
-852.6936160253026
 20
78.26204699551293
 10
-852.7392427644702
 20
78.09518183000164
 10
-852.7833881031043
 20
77.92608386674591
 10
-852.8260326775999
 20
77.75482727770117
 10
-852.8671577826376
 20
77.58148718166745
 10
-852.9067453793871
 20
77.40613961133984
 10
-852.9447781034198
 20
77.22886147995797
 10
-852.9812392723261
 20
77.04973054756933
 10
-853.0161128930327
 20
76.86882538692126
 10
-853.0493836688162
 20
76.6862253489961
 10
-853.0810370060153
 20
76.50201052820559
 10
-853.1110590204297
 20
76.31626172725841
 10
-853.1394365434122
 20
76.12906042171769
 10
-853.1661571276428
 20
75.94048872426315
 10
-853.1912090525905
 20
75.75062934867361
 10
-853.2145813296525
 20
75.55956557354615
 10
-853.2362637069766
 20
75.36738120576727
 10
-853.2562466739548
 20
75.17416054375235
 10
-853.2745214653973
 20
74.97998834046985
 10
-853.291080065377
 20
74.78494976626551
 10
-853.3059152107442
 20
74.58913037150409
 10
-853.3190203943142
 20
74.39261604904405
 10
-853.3303898677202
 20
74.19549299656201
 10
-853.3400186439351
 20
73.99784767874381
 10
-853.3479024994603
 20
73.79976678935808
 10
-853.3540379761753
 20
73.60133721322958
 10
-853.3584223828576
 20
73.4026459881285
 10
-853.3610537963618
 20
73.203780266593
 10
-853.3619310624622
 20
73.00482727770109
 10
-853.3610537963618
 20
72.8058742888092
 10
-853.3584223828576
 20
72.60700856727371
 10
-853.3540379761753
 20
72.40831734217261
 10
-853.3479024994603
 20
72.20988776604409
 10
-853.3400186439351
 20
72.01180687665837
 10
-853.3303898677202
 20
71.81416155884019
 10
-853.3190203943142
 20
71.61703850635817
 10
-853.3059152107442
 20
71.42052418389811
 10
-853.291080065377
 20
71.22470478913671
 10
-853.2745214653973
 20
71.02966621493236
 10
-853.2562466739548
 20
70.83549401164984
 10
-853.2362637069766
 20
70.64227334963494
 10
-853.2145813296525
 20
70.45008898185606
 10
-853.1912090525905
 20
70.25902520672858
 10
-853.1661571276428
 20
70.06916583113905
 10
-853.1394365434122
 20
69.88059413368451
 10
-853.1110590204297
 20
69.69339282814381
 10
-853.0810370060153
 20
69.50764402719662
 10
-853.0493836688162
 20
69.32342920640607
 10
-853.0161128930327
 20
69.14082916848093
 10
-852.9812392723261
 20
68.95992400783285
 10
-852.9447781034198
 20
68.78079307544424
 10
-852.9067453793871
 20
68.60351494406235
 10
-852.8671577826376
 20
68.42816737373475
 10
-852.8260326775999
 20
68.25482727770104
 10
-852.7833881031043
 20
68.08357068865629
 10
-852.7392427644702
 20
67.91447272540057
 10
-852.6936160253026
 20
67.74760755988926
 10
-852.646527898997
 20
67.58304838469893
 10
-852.5979990399619
 20
67.42086738092253
 10
-852.5480507345591
 20
67.26113568650847
 10
-852.4967048917655
 20
67.10392336505707
 10
-852.4439840335654
 20
66.94929937508847
 10
-852.3899112850692
 20
66.79733153979502
 10
-852.3345103643718
 20
66.64808651729186
 10
-852.2778055721477
 20
66.50162977137847
 10
-852.2198217809933
 20
66.35802554282403
 10
-852.1605844245156
 20
66.21733682118938
 10
-852.1001194861769
 20
66.0796253171976
 10
-852.0384534878976
 20
65.94495143566575
 10
-851.9756134784227
 20
65.81337424900933
 10
-851.9116270214571
 20
65.68495147133099
 10
-851.8465221835754
 20
65.55973943310553
 10
-851.7803275219117
 20
65.43779305647112
 10
-851.713072071632
 20
65.319165831139
 10
-851.6447853332
 20
65.20390979093081
 10
-851.5754972594356
 20
65.09207549095505
 10
-851.5052382423778
 20
64.98371198543186
 10
-851.4340390999546
 20
64.87886680617617
 10
-851.3619310624623
 20
64.77758594174883
 10
-851.2889457588691
 20
64.67991381728428
 10
-851.2151152029417
 20
64.58589327500445
 10
-851.1404717792018
 20
64.49556555542656
 10
-851.0650482287225
 20
64.4089702792738
 10
-850.9888776347652
 20
64.32614543009629
 10
-850.9119934082704
 20
64.24712733761025
 10
-850.8344292732006
 20
64.17195066176261
 10
-850.7562192517495
 20
64.10064837752802
 10
-850.6773976494166
 20
64.03325176044493
 10
-850.597999039962
 20
63.96979037289703
 10
-850.5180582502401
 20
63.91029205114636
 10
-850.4376103449232
 20
63.85478289312324
 10
-850.3566906111215
 20
63.803287246979
 10
-850.2753345429049
 20
63.75582770040597
 10
-850.1935778257331
 20
63.71242507072985
 10
-850.111456320805
 20
63.67309839577846
 10
-850.0290060493265
 20
63.63786492553119
 10
-849.9462631767116
 20
63.6067401145526
 10
-849.8632639967194
 20
63.57973761521345
 10
-849.7800449155327
 20
63.55686927170239
 10
-849.6966424357912
 20
63.5381451148307
 10
-849.6130931405794
 20
63.5235733576324
 10
-849.529433677379
 20
63.51316039176184
 10
-849.4457007419956
 20
63.50691078468996
 10
-849.3619310624623
 20
63.50482727770099
  0
LWPOLYLINE
  5
3DA
330
DBF
100
AcDbEntity
  8
LAYER0016
  6
Continuous
 62
     3
100
AcDbPolyline
 90
      151
 70
   128
 43
0.0
 10
-849.3619310624623
 20
-97.49517272229873
 10
-849.4457007419956
 20
-97.49725622928769
 10
-849.529433677379
 20
-97.50350583635956
 10
-849.6130931405794
 20
-97.51391880223016
 10
-849.6966424357912
 20
-97.52849055942842
 10
-849.7800449155327
 20
-97.54721471630013
 10
-849.8632639967194
 20
-97.57008305981116
 10
-849.9462631767116
 20
-97.59708555915032
 10
-850.0290060493266
 20
-97.62821037012891
 10
-850.111456320805
 20
-97.66344384037616
 10
-850.1935778257331
 20
-97.70277051532758
 10
-850.2753345429049
 20
-97.74617314500368
 10
-850.3566906111215
 20
-97.7936326915767
 10
-850.4376103449232
 20
-97.84512833772096
 10
-850.5180582502401
 20
-97.90063749574407
 10
-850.597999039962
 20
-97.96013581749477
 10
-850.6773976494166
 20
-98.02359720504265
 10
-850.7562192517495
 20
-98.09099382212576
 10
-850.834429273201
 20
-98.16229610636032
 10
-850.9119934082704
 20
-98.23747278220794
 10
-850.9888776347652
 20
-98.31649087469401
 10
-851.0650482287225
 20
-98.39931572387156
 10
-851.1404717792018
 20
-98.4859110000243
 10
-851.2151152029417
 20
-98.57623871960221
 10
-851.2889457588691
 20
-98.67025926188205
 10
-851.3619310624623
 20
-98.76793138634658
 10
-851.4340390999546
 20
-98.86921225077394
 10
-851.5052382423778
 20
-98.97405743002961
 10
-851.5754972594356
 20
-99.0824209355528
 10
-851.6447853332
 20
-99.19425523552854
 10
-851.713072071632
 20
-99.30951127573674
 10
-851.7803275219117
 20
-99.42813850106887
 10
-851.8465221835754
 20
-99.55008487770328
 10
-851.9116270214571
 20
-99.67529691592872
 10
-851.9756134784227
 20
-99.80371969360705
 10
-852.0384534878976
 20
-99.93529688026349
 10
-852.1001194861769
 20
-100.0699707617953
 10
-852.1605844245156
 20
-100.2076822657871
 10
-852.2198217809933
 20
-100.3483709874218
 10
-852.2778055721477
 20
-100.4919752159762
 10
-852.3345103643718
 20
-100.6384319618896
 10
-852.3899112850692
 20
-100.7876769843928
 10
-852.4439840335654
 20
-100.9396448196862
 10
-852.4967048917655
 20
-101.0942688096548
 10
-852.5480507345591
 20
-101.2514811311062
 10
-852.5979990399619
 20
-101.4112128255203
 10
-852.646527898997
 20
-101.5733938292967
 10
-852.6936160253026
 20
-101.737953004487
 10
-852.7392427644702
 20
-101.9048181699983
 10
-852.7833881031043
 20
-102.073916133254
 10
-852.8260326775999
 20
-102.2451727222988
 10
-852.8671577826376
 20
-102.4185128183325
 10
-852.9067453793871
 20
-102.5938603886601
 10
-852.9447781034198
 20
-102.771138520042
 10
-852.9812392723261
 20
-102.9502694524306
 10
-853.0161128930327
 20
-103.1311746130787
 10
-853.0493836688162
 20
-103.3137746510038
 10
-853.0810370060153
 20
-103.4979894717944
 10
-853.1110590204297
 20
-103.6837382727415
 10
-853.1394365434122
 20
-103.8709395782823
 10
-853.1661571276428
 20
-104.0595112757368
 10
-853.1912090525905
 20
-104.2493706513263
 10
-853.2145813296525
 20
-104.4404344264538
 10
-853.2362637069766
 20
-104.6326187942327
 10
-853.2562466739548
 20
-104.8258394562476
 10
-853.2745214653973
 20
-105.02001165953
 10
-853.291080065377
 20
-105.2150502337344
 10
-853.3059152107442
 20
-105.4108696284958
 10
-853.3190203943142
 20
-105.6073839509559
 10
-853.3303898677202
 20
-105.8045070034379
 10
-853.3400186439351
 20
-106.0021523212561
 10
-853.3479024994603
 20
-106.2002332106418
 10
-853.3540379761753
 20
-106.3986627867704
 10
-853.3584223828576
 20
-106.5973540118714
 10
-853.3610537963618
 20
-106.7962197334069
 10
-853.3619310624622
 20
-106.9951727222988
 10
-853.3610537963618
 20
-107.1941257111907
 10
-853.3584223828576
 20
-107.3929914327262
 10
-853.3540379761753
 20
-107.5916826578273
 10
-853.3479024994603
 20
-107.7901122339559
 10
-853.3400186439351
 20
-107.9881931233416
 10
-853.3303898677202
 20
-108.1858384411597
 10
-853.3190203943142
 20
-108.3829614936418
 10
-853.3059152107442
 20
-108.5794758161018
 10
-853.291080065377
 20
-108.7752952108632
 10
-853.2745214653973
 20
-108.9703337850676
 10
-853.2562466739548
 20
-109.1645059883501
 10
-853.2362637069766
 20
-109.357726650365
 10
-853.2145813296525
 20
-109.5499110181439
 10
-853.1912090525905
 20
-109.7409747932714
 10
-853.1661571276428
 20
-109.9308341688609
 10
-853.1394365434122
 20
-110.1194058663154
 10
-853.1110590204297
 20
-110.3066071718561
 10
-853.0810370060153
 20
-110.4923559728033
 10
-853.0493836688162
 20
-110.6765707935939
 10
-853.0161128930327
 20
-110.859170831519
 10
-852.9812392723261
 20
-111.0400759921671
 10
-852.9447781034198
 20
-111.2192069245557
 10
-852.9067453793871
 20
-111.3964850559376
 10
-852.8671577826376
 20
-111.5718326262652
 10
-852.8260326775999
 20
-111.7451727222989
 10
-852.7833881031043
 20
-111.9164293113436
 10
-852.7392427644702
 20
-112.0855272745994
 10
-852.6936160253026
 20
-112.2523924401107
 10
-852.646527898997
 20
-112.416951615301
 10
-852.5979990399619
 20
-112.5791326190774
 10
-852.5480507345591
 20
-112.7388643134915
 10
-852.4967048917655
 20
-112.8960766349429
 10
-852.4439840335654
 20
-113.0507006249115
 10
-852.3899112850692
 20
-113.2026684602049
 10
-852.3345103643718
 20
-113.351913482708
 10
-852.2778055721477
 20
-113.4983702286215
 10
-852.2198217809933
 20
-113.6419744571759
 10
-852.1605844245156
 20
-113.7826631788106
 10
-852.1001194861769
 20
-113.9203746828023
 10
-852.0384534878976
 20
-114.0550485643342
 10
-851.9756134784227
 20
-114.1866257509906
 10
-851.9116270214571
 20
-114.3150485286689
 10
-851.8465221835754
 20
-114.4402605668944
 10
-851.7803275219117
 20
-114.5622069435288
 10
-851.713072071632
 20
-114.6808341688609
 10
-851.6447853332
 20
-114.7960902090691
 10
-851.5754972594356
 20
-114.9079245090449
 10
-851.5052382423778
 20
-115.0162880145681
 10
-851.4340390999546
 20
-115.1211331938238
 10
-851.3619310624623
 20
-115.2224140582511
 10
-851.2889457588691
 20
-115.3200861827157
 10
-851.2151152029417
 20
-115.4141067249955
 10
-851.1404717792018
 20
-115.5044344445734
 10
-851.0650482287225
 20
-115.5910297207261
 10
-850.9888776347652
 20
-115.6738545699037
 10
-850.9119934082704
 20
-115.7528726623897
 10
-850.8344292732006
 20
-115.8280493382373
 10
-850.7562192517495
 20
-115.8993516224719
 10
-850.6773976494166
 20
-115.966748239555
 10
-850.597999039962
 20
-116.0302096271029
 10
-850.5180582502401
 20
-116.0897079488536
 10
-850.4376103449232
 20
-116.1452171068767
 10
-850.3566906111215
 20
-116.1967127530209
 10
-850.2753345429049
 20
-116.244172299594
 10
-850.1935778257331
 20
-116.2875749292701
 10
-850.111456320805
 20
-116.3269016042215
 10
-850.0290060493265
 20
-116.3621350744688
 10
-849.9462631767116
 20
-116.3932598854473
 10
-849.8632639967194
 20
-116.4202623847865
 10
-849.7800449155327
 20
-116.4431307282975
 10
-849.6966424357912
 20
-116.4618548851692
 10
-849.6130931405794
 20
-116.4764266423675
 10
-849.529433677379
 20
-116.4868396082381
 10
-849.4457007419956
 20
-116.49308921531
 10
-849.3619310624623
 20
-116.4951727222989
  0
LWPOLYLINE
  5
3DC
330
DBF
100
AcDbEntity
  8
LAYER0016
  6
Continuous
 62
     3
100
AcDbPolyline
 90
      151
 70
   128
 43
0.0
 10
-849.3619310624623
 20
-287.4951727222988
 10
-849.4457007419956
 20
-287.4972562292878
 10
-849.529433677379
 20
-287.5035058363597
 10
-849.6130931405794
 20
-287.5139188022302
 10
-849.6966424357912
 20
-287.5284905594284
 10
-849.7800449155327
 20
-287.5472147163002
 10
-849.8632639967194
 20
-287.5700830598112
 10
-849.9462631767116
 20
-287.5970855591504
 10
-850.0290060493266
 20
-287.628210370129
 10
-850.111456320805
 20
-287.6634438403762
 10
-850.1935778257331
 20
-287.7027705153276
 10
-850.2753345429049
 20
-287.7461731450038
 10
-850.3566906111215
 20
-287.7936326915768
 10
-850.4376103449232
 20
-287.845128337721
 10
-850.5180582502401
 20
-287.9006374957441
 10
-850.597999039962
 20
-287.9601358174948
 10
-850.6773976494166
 20
-288.0235972050427
 10
-850.7562192517495
 20
-288.0909938221258
 10
-850.834429273201
 20
-288.1622961063604
 10
-850.9119934082704
 20
-288.237472782208
 10
-850.9888776347652
 20
-288.3164908746941
 10
-851.0650482287225
 20
-288.3993157238716
 10
-851.1404717792018
 20
-288.4859110000244
 10
-851.2151152029417
 20
-288.5762387196023
 10
-851.2889457588691
 20
-288.6702592618821
 10
-851.3619310624623
 20
-288.7679313863466
 10
-851.4340390999546
 20
-288.869212250774
 10
-851.5052382423778
 20
-288.9740574300296
 10
-851.5754972594356
 20
-289.0824209355528
 10
-851.6447853332
 20
-289.1942552355287
 10
-851.713072071632
 20
-289.3095112757368
 10
-851.7803275219117
 20
-289.4281385010689
 10
-851.8465221835754
 20
-289.5500848777033
 10
-851.9116270214571
 20
-289.6752969159288
 10
-851.9756134784227
 20
-289.8037196936071
 10
-852.0384534878976
 20
-289.9352968802635
 10
-852.1001194861769
 20
-290.0699707617954
 10
-852.1605844245156
 20
-290.2076822657872
 10
-852.2198217809933
 20
-290.3483709874218
 10
-852.2778055721477
 20
-290.4919752159763
 10
-852.3345103643718
 20
-290.6384319618896
 10
-852.3899112850692
 20
-290.7876769843928
 10
-852.4439840335654
 20
-290.9396448196862
 10
-852.4967048917655
 20
-291.0942688096548
 10
-852.5480507345591
 20
-291.2514811311062
 10
-852.5979990399619
 20
-291.4112128255204
 10
-852.646527898997
 20
-291.5733938292967
 10
-852.6936160253026
 20
-291.7379530044871
 10
-852.7392427644702
 20
-291.9048181699984
 10
-852.7833881031043
 20
-292.0739161332541
 10
-852.8260326775999
 20
-292.2451727222988
 10
-852.8671577826376
 20
-292.4185128183325
 10
-852.9067453793871
 20
-292.5938603886602
 10
-852.9447781034198
 20
-292.771138520042
 10
-852.9812392723261
 20
-292.9502694524306
 10
-853.0161128930327
 20
-293.1311746130788
 10
-853.0493836688162
 20
-293.3137746510039
 10
-853.0810370060153
 20
-293.4979894717944
 10
-853.1110590204297
 20
-293.6837382727416
 10
-853.1394365434122
 20
-293.8709395782823
 10
-853.1661571276428
 20
-294.0595112757368
 10
-853.1912090525905
 20
-294.2493706513264
 10
-853.2145813296525
 20
-294.4404344264539
 10
-853.2362637069766
 20
-294.6326187942328
 10
-853.2562466739548
 20
-294.8258394562476
 10
-853.2745214653973
 20
-295.0200116595302
 10
-853.291080065377
 20
-295.2150502337346
 10
-853.3059152107442
 20
-295.4108696284958
 10
-853.3190203943142
 20
-295.607383950956
 10
-853.3303898677202
 20
-295.804507003438
 10
-853.3400186439351
 20
-296.0021523212562
 10
-853.3479024994603
 20
-296.2002332106418
 10
-853.3540379761753
 20
-296.3986627867704
 10
-853.3584223828576
 20
-296.5973540118715
 10
-853.3610537963618
 20
-296.796219733407
 10
-853.3619310624622
 20
-296.9951727222989
 10
-853.3610537963618
 20
-297.1941257111908
 10
-853.3584223828576
 20
-297.3929914327263
 10
-853.3540379761753
 20
-297.5916826578274
 10
-853.3479024994603
 20
-297.7901122339559
 10
-853.3400186439351
 20
-297.9881931233417
 10
-853.3303898677202
 20
-298.1858384411598
 10
-853.3190203943142
 20
-298.3829614936418
 10
-853.3059152107442
 20
-298.5794758161019
 10
-853.291080065377
 20
-298.7752952108633
 10
-853.2745214653973
 20
-298.9703337850676
 10
-853.2562466739548
 20
-299.1645059883502
 10
-853.2362637069766
 20
-299.3577266503651
 10
-853.2145813296525
 20
-299.549911018144
 10
-853.1912090525905
 20
-299.7409747932714
 10
-853.1661571276428
 20
-299.9308341688609
 10
-853.1394365434122
 20
-300.1194058663155
 10
-853.1110590204297
 20
-300.3066071718562
 10
-853.0810370060153
 20
-300.4923559728034
 10
-853.0493836688162
 20
-300.676570793594
 10
-853.0161128930327
 20
-300.8591708315191
 10
-852.9812392723261
 20
-301.0400759921671
 10
-852.9447781034198
 20
-301.2192069245557
 10
-852.9067453793871
 20
-301.3964850559377
 10
-852.8671577826376
 20
-301.5718326262652
 10
-852.8260326775999
 20
-301.7451727222989
 10
-852.7833881031043
 20
-301.9164293113437
 10
-852.7392427644702
 20
-302.0855272745994
 10
-852.6936160253026
 20
-302.2523924401107
 10
-852.646527898997
 20
-302.4169516153011
 10
-852.5979990399619
 20
-302.5791326190775
 10
-852.5480507345591
 20
-302.7388643134915
 10
-852.4967048917655
 20
-302.8960766349429
 10
-852.4439840335654
 20
-303.0507006249115
 10
-852.3899112850692
 20
-303.202668460205
 10
-852.3345103643718
 20
-303.3519134827082
 10
-852.2778055721477
 20
-303.4983702286215
 10
-852.2198217809933
 20
-303.6419744571759
 10
-852.1605844245156
 20
-303.7826631788106
 10
-852.1001194861769
 20
-303.9203746828024
 10
-852.0384534878976
 20
-304.0550485643342
 10
-851.9756134784227
 20
-304.1866257509907
 10
-851.9116270214571
 20
-304.315048528669
 10
-851.8465221835754
 20
-304.4402605668945
 10
-851.7803275219117
 20
-304.5622069435288
 10
-851.713072071632
 20
-304.680834168861
 10
-851.6447853332
 20
-304.7960902090692
 10
-851.5754972594356
 20
-304.907924509045
 10
-851.5052382423778
 20
-305.0162880145681
 10
-851.4340390999546
 20
-305.1211331938238
 10
-851.3619310624623
 20
-305.2224140582512
 10
-851.2889457588691
 20
-305.3200861827157
 10
-851.2151152029417
 20
-305.4141067249955
 10
-851.1404717792018
 20
-305.5044344445733
 10
-851.0650482287225
 20
-305.5910297207262
 10
-850.9888776347652
 20
-305.6738545699037
 10
-850.9119934082704
 20
-305.7528726623898
 10
-850.8344292732006
 20
-305.8280493382374
 10
-850.7562192517495
 20
-305.899351622472
 10
-850.6773976494166
 20
-305.9667482395551
 10
-850.597999039962
 20
-306.030209627103
 10
-850.5180582502401
 20
-306.0897079488536
 10
-850.4376103449232
 20
-306.1452171068768
 10
-850.3566906111215
 20
-306.196712753021
 10
-850.2753345429049
 20
-306.244172299594
 10
-850.1935778257331
 20
-306.2875749292702
 10
-850.111456320805
 20
-306.3269016042216
 10
-850.0290060493265
 20
-306.3621350744688
 10
-849.9462631767116
 20
-306.3932598854474
 10
-849.8632639967194
 20
-306.4202623847867
 10
-849.7800449155327
 20
-306.4431307282976
 10
-849.6966424357912
 20
-306.4618548851693
 10
-849.6130931405794
 20
-306.4764266423676
 10
-849.529433677379
 20
-306.4868396082382
 10
-849.4457007419956
 20
-306.49308921531
 10
-849.3619310624623
 20
-306.495172722299
  0
LWPOLYLINE
  5
3DE
330
DBF
100
AcDbEntity
  8
LAYER0016
  6
Continuous
 62
     3
100
AcDbPolyline
 90
      151
 70
   128
 43
0.0
 10
-457.9619310624621
 20
-306.4951727222989
 10
-457.8781613829287
 20
-306.49308921531
 10
-457.7944284475453
 20
-306.4868396082382
 10
-457.7107689843447
 20
-306.4764266423675
 10
-457.6272196891328
 20
-306.4618548851693
 10
-457.5438172093915
 20
-306.4431307282975
 10
-457.4605981282048
 20
-306.4202623847865
 10
-457.3775989482124
 20
-306.3932598854473
 10
-457.2948560755976
 20
-306.3621350744688
 10
-457.2124058041191
 20
-306.3269016042215
 10
-457.1302842991911
 20
-306.2875749292701
 10
-457.0485275820195
 20
-306.244172299594
 10
-456.9671715138027
 20
-306.196712753021
 10
-456.886251780001
 20
-306.1452171068767
 10
-456.8058038746841
 20
-306.0897079488536
 10
-456.7258630849623
 20
-306.0302096271029
 10
-456.6464644755076
 20
-305.966748239555
 10
-456.5676428731749
 20
-305.8993516224719
 10
-456.4894328517233
 20
-305.8280493382373
 10
-456.4118687166535
 20
-305.7528726623897
 10
-456.3349844901588
 20
-305.6738545699037
 10
-456.2588138962017
 20
-305.5910297207261
 10
-456.1833903457222
 20
-305.5044344445733
 10
-456.1087469219826
 20
-305.4141067249955
 10
-456.0349163660553
 20
-305.3200861827157
 10
-455.9619310624621
 20
-305.2224140582511
 10
-455.8898230249696
 20
-305.1211331938238
 10
-455.8186238825461
 20
-305.0162880145681
 10
-455.7483648654886
 20
-304.9079245090448
 10
-455.6790767917243
 20
-304.7960902090691
 10
-455.6107900532921
 20
-304.6808341688609
 10
-455.5435346030126
 20
-304.5622069435288
 10
-455.4773399413488
 20
-304.4402605668944
 10
-455.4122351034674
 20
-304.3150485286688
 10
-455.3482486465017
 20
-304.1866257509906
 10
-455.2854086370266
 20
-304.0550485643342
 10
-455.2237426387474
 20
-303.9203746828023
 10
-455.1632777004086
 20
-303.7826631788105
 10
-455.1040403439309
 20
-303.6419744571759
 10
-455.0460565527764
 20
-303.4983702286215
 10
-454.9893517605523
 20
-303.351913482708
 10
-454.9339508398551
 20
-303.2026684602049
 10
-454.8798780913588
 20
-303.0507006249114
 10
-454.8271572331587
 20
-302.8960766349429
 10
-454.7758113903652
 20
-302.7388643134914
 10
-454.7258630849623
 20
-302.5791326190774
 10
-454.6773342259272
 20
-302.416951615301
 10
-454.6302460996217
 20
-302.2523924401107
 10
-454.584619360454
 20
-302.0855272745993
 10
-454.54047402182
 20
-301.9164293113436
 10
-454.4978294473243
 20
-301.7451727222989
 10
-454.4567043422865
 20
-301.5718326262652
 10
-454.417116745537
 20
-301.3964850559375
 10
-454.3790840215045
 20
-301.2192069245557
 10
-454.342622852598
 20
-301.040075992167
 10
-454.3077492318917
 20
-300.859170831519
 10
-454.2744784561079
 20
-300.6765707935938
 10
-454.2428251189091
 20
-300.4923559728033
 10
-454.2128031044945
 20
-300.3066071718561
 10
-454.1844255815122
 20
-300.1194058663154
 10
-454.1577049972813
 20
-299.9308341688608
 10
-454.1326530723337
 20
-299.7409747932713
 10
-454.1092807952714
 20
-299.5499110181439
 10
-454.0875984179476
 20
-299.357726650365
 10
-454.0676154509695
 20
-299.16450598835
 10
-454.0493406595269
 20
-298.9703337850675
 10
-454.0327820595473
 20
-298.7752952108632
 10
-454.0179469141801
 20
-298.5794758161018
 10
-454.0048417306102
 20
-298.3829614936417
 10
-453.9934722572041
 20
-298.1858384411597
 10
-453.9838434809889
 20
-297.9881931233415
 10
-453.9759596254641
 20
-297.7901122339558
 10
-453.969824148749
 20
-297.5916826578273
 10
-453.9654397420666
 20
-297.3929914327261
 10
-453.9628083285626
 20
-297.1941257111907
 10
-453.9619310624622
 20
-296.9951727222989
 10
-453.9628083285626
 20
-296.7962197334069
 10
-453.9654397420666
 20
-296.5973540118713
 10
-453.969824148749
 20
-296.3986627867703
 10
-453.9759596254641
 20
-296.2002332106417
 10
-453.9838434809889
 20
-296.0021523212561
 10
-453.9934722572041
 20
-295.8045070034378
 10
-454.0048417306102
 20
-295.6073839509558
 10
-454.0179469141801
 20
-295.4108696284958
 10
-454.0327820595473
 20
-295.2150502337344
 10
-454.0493406595269
 20
-295.02001165953
 10
-454.0676154509695
 20
-294.8258394562475
 10
-454.0875984179476
 20
-294.6326187942327
 10
-454.1092807952714
 20
-294.4404344264537
 10
-454.1326530723337
 20
-294.2493706513261
 10
-454.1577049972813
 20
-294.0595112757367
 10
-454.1844255815122
 20
-293.8709395782822
 10
-454.2128031044945
 20
-293.6837382727414
 10
-454.2428251189091
 20
-293.4979894717943
 10
-454.2744784561079
 20
-293.3137746510037
 10
-454.3077492318917
 20
-293.1311746130786
 10
-454.342622852598
 20
-292.9502694524305
 10
-454.3790840215045
 20
-292.7711385200419
 10
-454.417116745537
 20
-292.59386038866
 10
-454.4567043422865
 20
-292.4185128183324
 10
-454.4978294473243
 20
-292.2451727222987
 10
-454.5404740218201
 20
-292.0739161332539
 10
-454.584619360454
 20
-291.9048181699982
 10
-454.6302460996217
 20
-291.7379530044869
 10
-454.6773342259272
 20
-291.5733938292965
 10
-454.7258630849623
 20
-291.4112128255202
 10
-454.7758113903652
 20
-291.2514811311061
 10
-454.8271572331587
 20
-291.0942688096547
 10
-454.8798780913588
 20
-290.9396448196861
 10
-454.9339508398551
 20
-290.7876769843927
 10
-454.9893517605526
 20
-290.6384319618895
 10
-455.0460565527764
 20
-290.4919752159761
 10
-455.1040403439309
 20
-290.3483709874217
 10
-455.1632777004086
 20
-290.207682265787
 10
-455.2237426387474
 20
-290.0699707617952
 10
-455.2854086370266
 20
-289.9352968802634
 10
-455.3482486465017
 20
-289.8037196936069
 10
-455.4122351034674
 20
-289.6752969159286
 10
-455.4773399413488
 20
-289.5500848777031
 10
-455.5435346030126
 20
-289.4281385010688
 10
-455.6107900532921
 20
-289.3095112757366
 10
-455.6790767917243
 20
-289.1942552355284
 10
-455.7483648654886
 20
-289.0824209355526
 10
-455.8186238825461
 20
-288.9740574300295
 10
-455.8898230249696
 20
-288.8692122507738
 10
-455.9619310624621
 20
-288.7679313863463
 10
-456.0349163660553
 20
-288.6702592618819
 10
-456.1087469219826
 20
-288.5762387196022
 10
-456.1833903457222
 20
-288.4859110000242
 10
-456.2588138962017
 20
-288.3993157238714
 10
-456.3349844901588
 20
-288.3164908746939
 10
-456.4118687166535
 20
-288.2374727822078
 10
-456.4894328517233
 20
-288.1622961063602
 10
-456.5676428731749
 20
-288.0909938221257
 10
-456.6464644755078
 20
-288.0235972050425
 10
-456.7258630849623
 20
-287.9601358174946
 10
-456.8058038746841
 20
-287.9006374957441
 10
-456.886251780001
 20
-287.8451283377208
 10
-456.9671715138027
 20
-287.7936326915766
 10
-457.0485275820195
 20
-287.7461731450036
 10
-457.1302842991911
 20
-287.7027705153274
 10
-457.2124058041191
 20
-287.663443840376
 10
-457.2948560755976
 20
-287.6282103701289
 10
-457.3775989482124
 20
-287.5970855591502
 10
-457.4605981282048
 20
-287.5700830598111
 10
-457.5438172093915
 20
-287.5472147163
 10
-457.6272196891328
 20
-287.5284905594284
 10
-457.7107689843447
 20
-287.51391880223
 10
-457.7944284475453
 20
-287.5035058363593
 10
-457.8781613829287
 20
-287.4972562292876
 10
-457.9619310624621
 20
-287.4951727222986
  0
LWPOLYLINE
  5
3E0
330
DBF
100
AcDbEntity
  8
LAYER0016
  6
Continuous
 62
     3
100
AcDbPolyline
 90
      151
 70
   128
 43
0.0
 10
-457.9619310624621
 20
-116.4951727222989
 10
-457.8781613829287
 20
-116.4930892153099
 10
-457.7944284475453
 20
-116.4868396082381
 10
-457.7107689843447
 20
-116.4764266423675
 10
-457.6272196891328
 20
-116.4618548851692
 10
-457.5438172093915
 20
-116.4431307282975
 10
-457.4605981282048
 20
-116.4202623847864
 10
-457.3775989482124
 20
-116.3932598854473
 10
-457.2948560755976
 20
-116.3621350744687
 10
-457.2124058041191
 20
-116.3269016042214
 10
-457.1302842991911
 20
-116.2875749292701
 10
-457.0485275820195
 20
-116.2441722995939
 10
-456.9671715138027
 20
-116.1967127530209
 10
-456.886251780001
 20
-116.1452171068767
 10
-456.8058038746841
 20
-116.0897079488535
 10
-456.7258630849623
 20
-116.0302096271028
 10
-456.6464644755076
 20
-115.966748239555
 10
-456.5676428731749
 20
-115.8993516224719
 10
-456.4894328517233
 20
-115.8280493382373
 10
-456.4118687166535
 20
-115.7528726623896
 10
-456.3349844901588
 20
-115.6738545699036
 10
-456.2588138962017
 20
-115.5910297207261
 10
-456.1833903457222
 20
-115.5044344445733
 10
-456.1087469219826
 20
-115.4141067249954
 10
-456.0349163660553
 20
-115.3200861827156
 10
-455.9619310624621
 20
-115.222414058251
 10
-455.8898230249696
 20
-115.1211331938237
 10
-455.8186238825461
 20
-115.016288014568
 10
-455.7483648654886
 20
-114.9079245090448
 10
-455.6790767917243
 20
-114.7960902090691
 10
-455.6107900532921
 20
-114.6808341688609
 10
-455.5435346030126
 20
-114.5622069435287
 10
-455.4773399413488
 20
-114.4402605668943
 10
-455.4122351034674
 20
-114.3150485286689
 10
-455.3482486465017
 20
-114.1866257509905
 10
-455.2854086370266
 20
-114.0550485643341
 10
-455.2237426387474
 20
-113.9203746828023
 10
-455.1632777004086
 20
-113.7826631788105
 10
-455.1040403439309
 20
-113.6419744571758
 10
-455.0460565527764
 20
-113.4983702286214
 10
-454.9893517605523
 20
-113.351913482708
 10
-454.9339508398551
 20
-113.2026684602048
 10
-454.8798780913588
 20
-113.0507006249114
 10
-454.8271572331587
 20
-112.8960766349428
 10
-454.7758113903652
 20
-112.7388643134914
 10
-454.7258630849623
 20
-112.5791326190773
 10
-454.6773342259272
 20
-112.4169516153009
 10
-454.6302460996217
 20
-112.2523924401106
 10
-454.584619360454
 20
-112.0855272745993
 10
-454.54047402182
 20
-111.9164293113435
 10
-454.4978294473243
 20
-111.7451727222988
 10
-454.4567043422865
 20
-111.5718326262651
 10
-454.417116745537
 20
-111.3964850559375
 10
-454.3790840215045
 20
-111.2192069245556
 10
-454.342622852598
 20
-111.040075992167
 10
-454.3077492318917
 20
-110.8591708315189
 10
-454.2744784561079
 20
-110.6765707935938
 10
-454.2428251189091
 20
-110.4923559728032
 10
-454.2128031044945
 20
-110.306607171856
 10
-454.1844255815122
 20
-110.1194058663153
 10
-454.1577049972813
 20
-109.9308341688608
 10
-454.1326530723337
 20
-109.7409747932712
 10
-454.1092807952714
 20
-109.5499110181438
 10
-454.0875984179476
 20
-109.3577266503649
 10
-454.0676154509695
 20
-109.16450598835
 10
-454.0493406595269
 20
-108.9703337850675
 10
-454.0327820595473
 20
-108.7752952108631
 10
-454.0179469141801
 20
-108.5794758161017
 10
-454.0048417306102
 20
-108.3829614936416
 10
-453.9934722572041
 20
-108.1858384411596
 10
-453.9838434809889
 20
-107.9881931233414
 10
-453.9759596254641
 20
-107.7901122339557
 10
-453.969824148749
 20
-107.5916826578272
 10
-453.9654397420666
 20
-107.3929914327261
 10
-453.9628083285626
 20
-107.1941257111906
 10
-453.9619310624622
 20
-106.9951727222987
 10
-453.9628083285626
 20
-106.7962197334068
 10
-453.9654397420666
 20
-106.5973540118713
 10
-453.969824148749
 20
-106.3986627867702
 10
-453.9759596254641
 20
-106.2002332106417
 10
-453.9838434809889
 20
-106.002152321256
 10
-453.9934722572041
 20
-105.8045070034378
 10
-454.0048417306102
 20
-105.6073839509558
 10
-454.0179469141801
 20
-105.4108696284957
 10
-454.0327820595473
 20
-105.2150502337343
 10
-454.0493406595269
 20
-105.02001165953
 10
-454.0676154509695
 20
-104.8258394562474
 10
-454.0875984179476
 20
-104.6326187942325
 10
-454.1092807952714
 20
-104.4404344264536
 10
-454.1326530723337
 20
-104.2493706513262
 10
-454.1577049972813
 20
-104.0595112757367
 10
-454.1844255815122
 20
-103.8709395782821
 10
-454.2128031044945
 20
-103.6837382727414
 10
-454.2428251189091
 20
-103.4979894717942
 10
-454.2744784561079
 20
-103.3137746510037
 10
-454.3077492318917
 20
-103.1311746130785
 10
-454.342622852598
 20
-102.9502694524304
 10
-454.3790840215045
 20
-102.7711385200418
 10
-454.417116745537
 20
-102.5938603886599
 10
-454.4567043422865
 20
-102.4185128183323
 10
-454.4978294473243
 20
-102.2451727222986
 10
-454.5404740218201
 20
-102.0739161332539
 10
-454.584619360454
 20
-101.9048181699981
 10
-454.6302460996217
 20
-101.7379530044868
 10
-454.6773342259272
 20
-101.5733938292965
 10
-454.7258630849623
 20
-101.4112128255201
 10
-454.7758113903652
 20
-101.251481131106
 10
-454.8271572331587
 20
-101.0942688096546
 10
-454.8798780913588
 20
-100.939644819686
 10
-454.9339508398551
 20
-100.7876769843926
 10
-454.9893517605526
 20
-100.6384319618894
 10
-455.0460565527764
 20
-100.491975215976
 10
-455.1040403439309
 20
-100.3483709874216
 10
-455.1632777004086
 20
-100.2076822657869
 10
-455.2237426387474
 20
-100.0699707617952
 10
-455.2854086370266
 20
-99.93529688026331
 10
-455.3482486465017
 20
-99.80371969360689
 10
-455.4122351034674
 20
-99.67529691592856
 10
-455.4773399413488
 20
-99.55008487770307
 10
-455.5435346030126
 20
-99.42813850106873
 10
-455.6107900532921
 20
-99.30951127573656
 10
-455.6790767917243
 20
-99.19425523552837
 10
-455.7483648654886
 20
-99.08242093555259
 10
-455.8186238825461
 20
-98.97405743002941
 10
-455.8898230249696
 20
-98.86921225077372
 10
-455.9619310624621
 20
-98.76793138634639
 10
-456.0349163660553
 20
-98.67025926188185
 10
-456.1087469219826
 20
-98.576238719602
 10
-456.1833903457222
 20
-98.48591100002415
 10
-456.2588138962017
 20
-98.39931572387136
 10
-456.3349844901588
 20
-98.31649087469386
 10
-456.4118687166535
 20
-98.23747278220778
 10
-456.4894328517233
 20
-98.16229610636014
 10
-456.5676428731749
 20
-98.09099382212558
 10
-456.6464644755078
 20
-98.02359720504249
 10
-456.7258630849623
 20
-97.96013581749456
 10
-456.8058038746841
 20
-97.90063749574393
 10
-456.886251780001
 20
-97.84512833772078
 10
-456.9671715138027
 20
-97.79363269157652
 10
-457.0485275820195
 20
-97.74617314500352
 10
-457.1302842991911
 20
-97.70277051532737
 10
-457.2124058041191
 20
-97.663443840376
 10
-457.2948560755976
 20
-97.62821037012873
 10
-457.3775989482124
 20
-97.59708555915016
 10
-457.4605981282048
 20
-97.570083059811
 10
-457.5438172093915
 20
-97.54721471629991
 10
-457.6272196891328
 20
-97.52849055942824
 10
-457.7107689843447
 20
-97.51391880222996
 10
-457.7944284475453
 20
-97.50350583635936
 10
-457.8781613829287
 20
-97.4972562292875
 10
-457.9619310624621
 20
-97.49517272229851
  0
LWPOLYLINE
  5
3E2
330
DBF
100
AcDbEntity
  8
LAYER0016
  6
Continuous
 62
     3
100
AcDbPolyline
 90
      151
 70
   128
 43
0.0
 10
-457.9619310624621
 20
63.50482727770103
 10
-457.8781613829287
 20
63.50691078469001
 10
-457.7944284475453
 20
63.5131603917619
 10
-457.7107689843447
 20
63.52357335763247
 10
-457.6272196891328
 20
63.53814511483076
 10
-457.5438172093915
 20
63.55686927170245
 10
-457.4605981282048
 20
63.5797376152135
 10
-457.3775989482124
 20
63.60674011455265
 10
-457.2948560755976
 20
63.63786492553125
 10
-457.2124058041191
 20
63.6730983957785
 10
-457.1302842991911
 20
63.71242507072989
 10
-457.0485275820195
 20
63.75582770040603
 10
-456.9671715138027
 20
63.80328724697903
 10
-456.886251780001
 20
63.85478289312329
 10
-456.8058038746841
 20
63.9102920511464
 10
-456.7258630849623
 20
63.96979037289709
 10
-456.6464644755076
 20
64.03325176044496
 10
-456.5676428731749
 20
64.10064837752805
 10
-456.4894328517233
 20
64.17195066176265
 10
-456.4118687166535
 20
64.2471273376103
 10
-456.3349844901588
 20
64.32614543009634
 10
-456.2588138962017
 20
64.40897027927386
 10
-456.1833903457222
 20
64.49556555542665
 10
-456.1087469219826
 20
64.58589327500452
 10
-456.0349163660553
 20
64.67991381728436
 10
-455.9619310624621
 20
64.7775859417489
 10
-455.8898230249696
 20
64.87886680617624
 10
-455.8186238825461
 20
64.98371198543193
 10
-455.7483648654886
 20
65.09207549095511
 10
-455.6790767917243
 20
65.20390979093088
 10
-455.6107900532921
 20
65.31916583113908
 10
-455.5435346030126
 20
65.4377930564712
 10
-455.4773399413488
 20
65.55973943310561
 10
-455.4122351034674
 20
65.68495147133109
 10
-455.3482486465017
 20
65.8133742490094
 10
-455.2854086370266
 20
65.94495143566584
 10
-455.2237426387474
 20
66.07962531719768
 10
-455.1632777004086
 20
66.21733682118946
 10
-455.1040403439309
 20
66.35802554282411
 10
-455.0460565527764
 20
66.50162977137856
 10
-454.9893517605523
 20
66.64808651729194
 10
-454.9339508398551
 20
66.79733153979511
 10
-454.8798780913588
 20
66.94929937508856
 10
-454.8271572331587
 20
67.10392336505716
 10
-454.7758113903652
 20
67.26113568650855
 10
-454.7258630849623
 20
67.42086738092261
 10
-454.6773342259272
 20
67.58304838469903
 10
-454.6302460996217
 20
67.74760755988936
 10
-454.584619360454
 20
67.91447272540064
 10
-454.54047402182
 20
68.08357068865639
 10
-454.4978294473243
 20
68.25482727770114
 10
-454.4567043422865
 20
68.42816737373485
 10
-454.417116745537
 20
68.60351494406245
 10
-454.3790840215045
 20
68.78079307544435
 10
-454.342622852598
 20
68.95992400783296
 10
-454.3077492318917
 20
69.14082916848105
 10
-454.2744784561079
 20
69.32342920640619
 10
-454.2428251189091
 20
69.50764402719672
 10
-454.2128031044945
 20
69.6933928281439
 10
-454.1844255815122
 20
69.88059413368461
 10
-454.1577049972813
 20
70.06916583113917
 10
-454.1326530723337
 20
70.25902520672871
 10
-454.1092807952714
 20
70.45008898185615
 10
-454.0875984179476
 20
70.64227334963506
 10
-454.0676154509695
 20
70.83549401164995
 10
-454.0493406595269
 20
71.02966621493248
 10
-454.0327820595473
 20
71.22470478913681
 10
-454.0179469141801
 20
71.42052418389822
 10
-454.0048417306102
 20
71.6170385063583
 10
-453.9934722572041
 20
71.81416155884033
 10
-453.9838434809889
 20
72.01180687665851
 10
-453.9759596254641
 20
72.2098877660442
 10
-453.969824148749
 20
72.40831734217275
 10
-453.9654397420666
 20
72.60700856727382
 10
-453.9628083285626
 20
72.80587428880934
 10
-453.9619310624622
 20
73.00482727770123
 10
-453.9628083285626
 20
73.20378026659312
 10
-453.9654397420666
 20
73.40264598812864
 10
-453.969824148749
 20
73.60133721322973
 10
-453.9759596254641
 20
73.79976678935823
 10
-453.9838434809889
 20
73.99784767874397
 10
-453.9934722572041
 20
74.19549299656215
 10
-454.0048417306102
 20
74.3926160490442
 10
-454.0179469141801
 20
74.58913037150423
 10
-454.0327820595473
 20
74.78494976626565
 10
-454.0493406595269
 20
74.97998834046999
 10
-454.0676154509695
 20
75.17416054375249
 10
-454.0875984179476
 20
75.3673812057674
 10
-454.1092807952714
 20
75.55956557354631
 10
-454.1326530723337
 20
75.75062934867377
 10
-454.1577049972813
 20
75.94048872426329
 10
-454.1844255815122
 20
76.12906042171784
 10
-454.2128031044945
 20
76.31626172725855
 10
-454.2428251189091
 20
76.50201052820574
 10
-454.2744784561079
 20
76.6862253489963
 10
-454.3077492318917
 20
76.86882538692143
 10
-454.342622852598
 20
77.04973054756951
 10
-454.3790840215045
 20
77.22886147995812
 10
-454.417116745537
 20
77.40613961134002
 10
-454.4567043422865
 20
77.58148718166762
 10
-454.4978294473243
 20
77.75482727770131
 10
-454.5404740218201
 20
77.92608386674607
 10
-454.584619360454
 20
78.09518183000179
 10
-454.6302460996217
 20
78.2620469955131
 10
-454.6773342259272
 20
78.42660617070343
 10
-454.7258630849623
 20
78.58878717447983
 10
-454.7758113903652
 20
78.74851886889391
 10
-454.8271572331587
 20
78.90573119034529
 10
-454.8798780913588
 20
79.06035518031391
 10
-454.9339508398551
 20
79.21232301560735
 10
-454.9893517605526
 20
79.36156803811051
 10
-455.0460565527764
 20
79.5080247840239
 10
-455.1040403439309
 20
79.65162901257833
 10
-455.1632777004086
 20
79.792317734213
 10
-455.2237426387474
 20
79.93002923820478
 10
-455.2854086370266
 20
80.06470311973663
 10
-455.3482486465017
 20
80.19628030639307
 10
-455.4122351034674
 20
80.32470308407138
 10
-455.4773399413488
 20
80.44991512229684
 10
-455.5435346030126
 20
80.57186149893125
 10
-455.6107900532921
 20
80.69048872426339
 10
-455.6790767917243
 20
80.80574476447155
 10
-455.7483648654886
 20
80.91757906444735
 10
-455.8186238825461
 20
81.02594256997056
 10
-455.8898230249696
 20
81.1307877492262
 10
-455.9619310624621
 20
81.23206861365357
 10
-456.0349163660553
 20
81.32974073811809
 10
-456.1087469219826
 20
81.42376128039794
 10
-456.1833903457222
 20
81.51408899997582
 10
-456.2588138962017
 20
81.60068427612861
 10
-456.3349844901588
 20
81.68350912530613
 10
-456.4118687166535
 20
81.76252721779215
 10
-456.4894328517233
 20
81.8377038936398
 10
-456.5676428731749
 20
81.90900617787438
 10
-456.6464644755078
 20
81.97640279495749
 10
-456.7258630849623
 20
82.03986418250538
 10
-456.8058038746841
 20
82.09936250425604
 10
-456.886251780001
 20
82.15487166227916
 10
-456.9671715138027
 20
82.20636730842342
 10
-457.0485275820195
 20
82.25382685499644
 10
-457.1302842991911
 20
82.29722948467257
 10
-457.2124058041191
 20
82.33655615962396
 10
-457.2948560755976
 20
82.37178962987121
 10
-457.3775989482124
 20
82.40291444084979
 10
-457.4605981282048
 20
82.42991694018895
 10
-457.5438172093915
 20
82.45278528370002
 10
-457.6272196891328
 20
82.47150944057169
 10
-457.7107689843447
 20
82.48608119776999
 10
-457.7944284475453
 20
82.49649416364055
 10
-457.8781613829287
 20
82.50274377071242
 10
-457.9619310624621
 20
82.5048272777014
  0
LINE
  5
3E3
330
DBF
100
AcDbEntity
  8
LAYER0016
  6
Continuous
 62
     3
100
AcDbLine
 10
-877.9619310624623
 20
113.0048272777012
 30
0.0
 11
-850.7619310624622
 21
113.0048272777012
 31
0.0
  0
LINE
  5
3E4
330
DBF
100
AcDbEntity
  8
LAYER0016
  6
Continuous
 62
     3
100
AcDbLine
 10
-457.9619310624621
 20
113.0048272777012
 30
0.0
 11
-430.7619310624623
 21
113.0048272777012
 31
0.0
  0
LINE
  5
3E5
330
DBF
100
AcDbEntity
  8
LAYER0016
  6
Continuous
 62
     3
100
AcDbLine
 10
-850.7619310624622
 20
113.0048272777012
 30
0.0
 11
-850.7619310624622
 21
82.50482727770128
 31
0.0
  0
LINE
  5
3E6
330
DBF
100
AcDbEntity
  8
LAYER0016
  6
Continuous
 62
     3
100
AcDbLine
 10
-850.7619310624622
 20
63.50482727770117
 30
0.0
 11
-850.7619310624622
 21
-97.49517272229873
 31
0.0
  0
LINE
  5
3E7
330
DBF
100
AcDbEntity
  8
LAYER0016
  6
Continuous
 62
     3
100
AcDbLine
 10
-850.7619310624622
 20
-116.4951727222989
 30
0.0
 11
-850.7619310624622
 21
-287.4951727222988
 31
0.0
  0
LINE
  5
3E8
330
DBF
100
AcDbEntity
  8
LAYER0016
  6
Continuous
 62
     3
100
AcDbLine
 10
-850.7619310624622
 20
-306.495172722299
 30
0.0
 11
-850.7619310624622
 21
-726.9951727222989
 31
0.0
  0
LINE
  5
3E9
330
DBF
100
AcDbEntity
  8
LAYER0016
  6
Continuous
 62
     3
100
AcDbLine
 10
-457.9619310624621
 20
-116.4951727222987
 30
0.0
 11
-457.9619310624621
 21
-287.4951727222988
 31
0.0
  0
LINE
  5
3EA
330
DBF
100
AcDbEntity
  8
LAYER0016
  6
Continuous
 62
     3
100
AcDbLine
 10
-457.9619310624621
 20
63.50482727770134
 30
0.0
 11
-457.9619310624621
 21
-97.49517272229873
 31
0.0
  0
LINE
  5
3EB
330
DBF
100
AcDbEntity
  8
LAYER0016
  6
Continuous
 62
     3
100
AcDbLine
 10
-877.9619310624623
 20
-726.9951727222989
 30
0.0
 11
-850.7619310624622
 21
-726.9951727222989
 31
0.0
  0
LINE
  5
3EC
330
DBF
100
AcDbEntity
  8
LAYER0016
  6
Continuous
 62
     3
100
AcDbLine
 10
-457.9619310624621
 20
-726.9951727222989
 30
0.0
 11
-430.7619310624623
 21
-726.9951727222989
 31
0.0
  0
LINE
  5
3ED
330
DBF
100
AcDbEntity
  8
LAYER0016
  6
Continuous
 62
     3
100
AcDbLine
 10
-435.900199489442
 20
113.0048272777012
 30
0.0
 11
-408.7001994894416
 21
113.0048272777012
 31
0.0
  0
LINE
  5
3EE
330
DBF
100
AcDbEntity
  8
LAYER0016
  6
Continuous
 62
     3
100
AcDbLine
 10
-435.900199489442
 20
-726.9951727222989
 30
0.0
 11
-408.7001994894416
 21
-726.9951727222989
 31
0.0
  0
LINE
  5
3EF
330
DBF
100
AcDbEntity
  8
LAYER0016
  6
Continuous
 62
     3
100
AcDbLine
 10
-435.900199489442
 20
-723.9951727222988
 30
0.0
 11
-408.7001994894416
 21
-723.9951727222988
 31
0.0
  0
LINE
  5
3F0
330
DBF
100
AcDbEntity
  8
LAYER0016
  6
Continuous
 62
     3
100
AcDbLine
 10
-457.9619310624621
 20
-723.9951727222988
 30
0.0
 11
-430.7619310624623
 21
-723.9951727222988
 31
0.0
  0
LINE
  5
3F1
330
DBF
100
AcDbEntity
  8
LAYER0016
  6
Continuous
 62
     3
100
AcDbLine
 10
-877.9619310624623
 20
-723.9951727222988
 30
0.0
 11
-850.7619310624622
 21
-723.9951727222988
 31
0.0
  0
CIRCLE
  5
3F2
330
DBF
100
AcDbEntity
  8
LAYER0016
  6
Continuous
 62
     3
100
AcDbCircle
 10
-422.3001994894415
 20
626.708166397239
 30
0.0
 40
13.6
  0
LINE
  5
3F3
330
DBF
100
AcDbEntity
  8
LAYER0016
  6
Continuous
 62
     3
100
AcDbLine
 10
-412.8001994894415
 20
1036.976260109158
 30
0.0
 11
-412.8001994894415
 21
641.5240362670783
 31
0.0
  0
LINE
  5
3F4
330
DBF
100
AcDbEntity
  8
LAYER0016
  6
Continuous
 62
     3
100
AcDbLine
 10
-431.8001994894421
 20
1036.976260109158
 30
0.0
 11
-431.8001994894421
 21
641.5240362670783
 31
0.0
  0
CIRCLE
  5
3F5
330
DBF
100
AcDbEntity
  8
LAYER0016
  6
Continuous
 62
     3
100
AcDbCircle
 10
-444.3619310624621
 20
604.6464348242189
 30
0.0
 40
13.6
  0
CIRCLE
  5
3F6
330
DBF
100
AcDbEntity
  8
LAYER0016
  6
Continuous
 62
     3
100
AcDbCircle
 10
-864.3619310624623
 20
604.6464348242189
 30
0.0
 40
13.6
  0
LINE
  5
3F7
330
DBF
100
AcDbEntity
  8
LAYER0016
  6
Continuous
 62
     3
100
AcDbLine
 10
-854.6300247743808
 20
614.1464348242188
 30
0.0
 11
-459.1778009323011
 21
614.1464348242188
 31
0.0
  0
LINE
  5
3F8
330
DBF
100
AcDbEntity
  8
LAYER0016
  6
Continuous
 62
     3
100
AcDbLine
 10
-854.6300247743808
 20
595.1464348242189
 30
0.0
 11
-459.1778009323011
 21
595.1464348242189
 31
0.0
  0
CIRCLE
  5
3F9
330
DBF
100
AcDbEntity
  8
LAYER0016
  6
Continuous
 62
     3
100
AcDbCircle
 10
-444.3619310624621
 20
604.6464348242189
 30
0.0
 40
17.60000000000012
  0
ARC
  5
3FA
330
DBF
100
AcDbEntity
  8
LAYER0016
  6
Continuous
 62
     3
100
AcDbCircle
 10
-459.9619310624621
 20
84.50482727770134
 30
0.0
 40
2.0
100
AcDbArc
 50
93.66778805553169
 51
273.6677880555314
  0
ARC
  5
3FB
330
DBF
100
AcDbEntity
  8
LAYER0016
  6
Continuous
 62
     3
100
AcDbCircle
 10
-406.7001994894416
 20
84.50482727770134
 30
0.0
 40
2.0
100
AcDbArc
 50
273.6677880555312
 51
93.66778805553151
  0
LINE
  5
3FC
330
DBF
100
AcDbEntity
  8
LAYER0016
  6
Continuous
 62
     3
100
AcDbLine
 10
-459.8339885315754
 20
82.50892379586902
 30
0.0
 11
-428.6339885315754
 21
84.50892379586901
 31
0.0
  0
LINE
  5
3FD
330
DBF
100
AcDbEntity
  8
LAYER0016
  6
Continuous
 62
     3
100
AcDbLine
 10
-428.889873593349
 20
88.50073075953366
 30
0.0
 11
-460.0898735933488
 21
86.50073075953354
 31
0.0
  0
ARC
  5
3FE
330
DBF
100
AcDbEntity
  8
LAYER0016
  6
Continuous
 62
     3
100
AcDbCircle
 10
-428.7619310624623
 20
86.50482727770134
 30
0.0
 40
2.0
100
AcDbArc
 50
268.4798660029425
 51
93.66778805553158
  0
ARC
  5
3FF
330
DBF
100
AcDbEntity
  8
LAYER0016
  6
Continuous
 62
     3
100
AcDbCircle
 10
-459.9619310624621
 20
-696.9951727222989
 30
0.0
 40
2.0
100
AcDbArc
 50
93.66778805553169
 51
273.6677880555314
  0
ARC
  5
400
330
DBF
100
AcDbEntity
  8
LAYER0016
  6
Continuous
 62
     3
100
AcDbCircle
 10
-406.7001994894416
 20
-696.9951727222989
 30
0.0
 40
2.0
100
AcDbArc
 50
273.6677880555312
 51
93.66778805553151
  0
LINE
  5
401
330
DBF
100
AcDbEntity
  8
LAYER0016
  6
Continuous
 62
     3
100
AcDbLine
 10
-459.8339885315754
 20
-698.9910762041313
 30
0.0
 11
-428.6339885315754
 21
-696.9910762041313
 31
0.0
  0
LINE
  5
402
330
DBF
100
AcDbEntity
  8
LAYER0016
  6
Continuous
 62
     3
100
AcDbLine
 10
-428.889873593349
 20
-692.9992692404664
 30
0.0
 11
-460.0898735933488
 21
-694.9992692404664
 31
0.0
  0
ARC
  5
403
330
DBF
100
AcDbEntity
  8
LAYER0016
  6
Continuous
 62
     3
100
AcDbCircle
 10
-428.7619310624623
 20
-694.9951727222988
 30
0.0
 40
2.0
100
AcDbArc
 50
268.4798660029425
 51
93.66778805553158
  0
LINE
  5
404
330
DBF
100
AcDbEntity
  8
LAYER0016
  6
Continuous
 62
     3
100
AcDbLine
 10
-427.2536479787318
 20
85.19140345450779
 30
0.0
 11
-406.8281420203282
 21
86.50073075953354
 31
0.0
  0
LINE
  5
405
330
DBF
100
AcDbEntity
  8
LAYER0016
  6
Continuous
 62
     3
100
AcDbLine
 10
-430.7619310624623
 20
80.95830366100324
 30
0.0
 11
-406.572256958555
 21
82.50892379586895
 31
0.0
  0
LINE
  5
406
330
DBF
100
AcDbEntity
  8
LAYER0016
  6
Continuous
 62
     3
100
AcDbLine
 10
-427.2536479787314
 20
-696.3085965454922
 30
0.0
 11
-406.8281420203282
 21
-694.9992692404664
 31
0.0
  0
LINE
  5
407
330
DBF
100
AcDbEntity
  8
LAYER0016
  6
Continuous
 62
     3
100
AcDbLine
 10
-430.7619310624623
 20
-700.5416963389968
 30
0.0
 11
-406.572256958555
 21
-698.9910762041313
 31
0.0
  0
ARC
  5
408
330
DBF
100
AcDbEntity
  8
LAYER0016
  6
Continuous
 62
     3
100
AcDbCircle
 10
-422.3001994894415
 20
626.708166397239
 30
0.0
 40
17.60000000000012
100
AcDbArc
 50
252.5801992035882
 51
197.4198007964117
  0
LINE
  5
409
330
DBF
100
AcDbEntity
  8
LAYER0016
  6
Continuous
 62
     3
100
AcDbLine
 10
-457.9619310624621
 20
113.0048272777012
 30
0.0
 11
-457.9619310624621
 21
86.63713733202627
 31
0.0
  0
LINE
  5
40A
330
DBF
100
AcDbEntity
  8
LAYER0016
  6
Continuous
 62
     3
100
AcDbLine
 10
-408.7001994894416
 20
113.0048272777012
 30
0.0
 11
-408.7001994894416
 21
86.38072707561605
 31
0.0
  0
LINE
  5
40B
330
DBF
100
AcDbEntity
  8
LAYER0016
  6
Continuous
 62
     3
100
AcDbLine
 10
-430.7619310624623
 20
113.0048272777012
 30
0.0
 11
-430.7619310624623
 21
88.38072707561611
 31
0.0
  0
LINE
  5
40C
330
DBF
100
AcDbEntity
  8
LAYER0016
  6
Continuous
 62
     3
100
AcDbLine
 10
-457.9619310624621
 20
-306.4951727222988
 30
0.0
 11
-457.9619310624621
 21
-694.8628626679739
 31
0.0
  0
LINE
  5
40D
330
DBF
100
AcDbEntity
  8
LAYER0016
  6
Continuous
 62
     3
100
AcDbLine
 10
-457.9619310624621
 20
-698.8710725202138
 30
0.0
 11
-457.9619310624621
 21
-726.9951727222989
 31
0.0
  0
LINE
  5
40E
330
DBF
100
AcDbEntity
  8
LAYER0016
  6
Continuous
 62
     3
100
AcDbLine
 10
-430.7619310624623
 20
84.37251722337629
 30
0.0
 11
-430.7619310624623
 21
-693.1192729243841
 31
0.0
  0
LINE
  5
40F
330
DBF
100
AcDbEntity
  8
LAYER0016
  6
Continuous
 62
     3
100
AcDbLine
 10
-430.7619310624623
 20
-697.1274827766237
 30
0.0
 11
-430.7619310624623
 21
-726.9951727222989
 31
0.0
  0
LINE
  5
410
330
DBF
100
AcDbEntity
  8
LAYER0016
  6
Continuous
 62
     3
100
AcDbLine
 10
-408.7001994894416
 20
-699.1274827766241
 30
0.0
 11
-408.7001994894416
 21
-726.9951727222989
 31
0.0
  0
LINE
  5
411
330
DBF
100
AcDbEntity
  8
LAYER0016
  6
Continuous
 62
     3
100
AcDbLine
 10
-408.7001994894416
 20
82.3725172233763
 30
0.0
 11
-408.7001994894416
 21
-695.1192729243842
 31
0.0
  0
LINE
  5
412
330
DBF
100
AcDbEntity
  8
LAYER0016
  6
Continuous
 62
     3
100
AcDbLine
 10
662.2307439407675
 20
113.0048272777012
 30
0.0
 11
662.2307439407675
 21
-726.9951727222989
 31
0.0
  0
LINE
  5
413
330
DBF
100
AcDbEntity
  8
LAYER0016
  6
Continuous
 62
     3
100
AcDbLine
 10
635.0307439407672
 20
82.50482727770128
 30
0.0
 11
242.2307439407675
 21
82.50482727770128
 31
0.0
  0
LINE
  5
414
330
DBF
100
AcDbEntity
  8
LAYER0016
  6
Continuous
 62
     3
100
AcDbLine
 10
635.0307439407672
 20
63.50482727770117
 30
0.0
 11
242.2307439407675
 21
63.50482727770128
 31
0.0
  0
LINE
  5
415
330
DBF
100
AcDbEntity
  8
LAYER0016
  6
Continuous
 62
     3
100
AcDbLine
 10
635.0307439407672
 20
-97.49517272229885
 30
0.0
 11
242.2307439407675
 21
-97.49517272229887
 31
0.0
  0
LINE
  5
416
330
DBF
100
AcDbEntity
  8
LAYER0016
  6
Continuous
 62
     3
100
AcDbLine
 10
635.0307439407672
 20
-116.4951727222989
 30
0.0
 11
242.2307439407675
 21
-116.495172722299
 31
0.0
  0
LINE
  5
417
330
DBF
100
AcDbEntity
  8
LAYER0016
  6
Continuous
 62
     3
100
AcDbLine
 10
635.0307439407672
 20
-287.4951727222989
 30
0.0
 11
242.2307439407675
 21
-287.495172722299
 31
0.0
  0
LINE
  5
418
330
DBF
100
AcDbEntity
  8
LAYER0016
  6
Continuous
 62
     3
100
AcDbLine
 10
635.0307439407672
 20
-306.495172722299
 30
0.0
 11
242.2307439407675
 21
-306.4951727222991
 31
0.0
  0
LWPOLYLINE
  5
41A
330
DBF
100
AcDbEntity
  8
LAYER0016
  6
Continuous
 62
     3
100
AcDbPolyline
 90
      151
 70
   128
 43
0.0
 10
633.6307439407671
 20
63.50482727770099
 10
633.7145136203006
 20
63.50691078468996
 10
633.7982465556839
 20
63.51316039176184
 10
633.8819060188844
 20
63.5235733576324
 10
633.9654553140964
 20
63.5381451148307
 10
634.0488577938377
 20
63.55686927170239
 10
634.1320768750242
 20
63.57973761521345
 10
634.2150760550167
 20
63.60674011455262
 10
634.2978189276315
 20
63.63786492553122
 10
634.3802691991101
 20
63.67309839577846
 10
634.4623907040382
 20
63.71242507072985
 10
634.5441474212097
 20
63.75582770040597
 10
634.6255034894267
 20
63.803287246979
 10
634.7064232232281
 20
63.85478289312324
 10
634.786871128545
 20
63.91029205114636
 10
634.8668119182669
 20
63.96979037289704
 10
634.9462105277215
 20
64.03325176044493
 10
635.0250321300543
 20
64.10064837752803
 10
635.1032421515059
 20
64.17195066176261
 10
635.1808062865756
 20
64.24712733761025
 10
635.2576905130701
 20
64.32614543009629
 10
635.3338611070275
 20
64.40897027927383
 10
635.4092846575069
 20
64.49556555542658
 10
635.4839280812466
 20
64.58589327500447
 10
635.5577586371741
 20
64.6799138172843
 10
635.6307439407672
 20
64.77758594174885
 10
635.7028519782597
 20
64.87886680617619
 10
635.7740511206831
 20
64.98371198543186
 10
635.8443101377404
 20
65.09207549095506
 10
635.9135982115049
 20
65.20390979093082
 10
635.981884949937
 20
65.31916583113901
 10
636.0491404002166
 20
65.43779305647115
 10
636.1153350618804
 20
65.55973943310553
 10
636.180439899762
 20
65.68495147133102
 10
636.2444263567275
 20
65.81337424900933
 10
636.3072663662026
 20
65.94495143566577
 10
636.3689323644819
 20
66.07962531719761
 10
636.4293973028204
 20
66.21733682118939
 10
636.4886346592982
 20
66.35802554282405
 10
636.5466184504526
 20
66.50162977137849
 10
636.6033232426767
 20
66.64808651729187
 10
636.6587241633741
 20
66.79733153979504
 10
636.7127969118702
 20
66.94929937508849
 10
636.7655177700706
 20
67.10392336505707
 10
636.8168636128638
 20
67.26113568650847
 10
636.866811918267
 20
67.42086738092253
 10
636.9153407773016
 20
67.58304838469894
 10
636.9624289036075
 20
67.74760755988928
 10
637.0080556427752
 20
67.91447272540058
 10
637.0522009814092
 20
68.08357068865631
 10
637.0948455559048
 20
68.25482727770104
 10
637.1359706609426
 20
68.42816737373476
 10
637.175558257692
 20
68.60351494406237
 10
637.2135909817248
 20
68.78079307544425
 10
637.2500521506313
 20
68.95992400783287
 10
637.2849257713376
 20
69.14082916848096
 10
637.3181965471211
 20
69.32342920640611
 10
637.3498498843201
 20
69.50764402719663
 10
637.3798718987347
 20
69.69339282814383
 10
637.4082494217171
 20
69.88059413368453
 10
637.4349700059477
 20
70.06916583113907
 10
637.4600219308954
 20
70.25902520672859
 10
637.4833942079577
 20
70.45008898185606
 10
637.5050765852817
 20
70.64227334963494
 10
637.5250595522597
 20
70.83549401164986
 10
637.5433343437022
 20
71.02966621493237
 10
637.5598929436819
 20
71.22470478913671
 10
637.5747280890491
 20
71.42052418389813
 10
637.5878332726192
 20
71.61703850635818
 10
637.5992027460251
 20
71.81416155884019
 10
637.6088315222402
 20
72.01180687665839
 10
637.6167153777652
 20
72.20988776604409
 10
637.6228508544802
 20
72.40831734217263
 10
637.6272352611627
 20
72.60700856727372
 10
637.6298666746666
 20
72.80587428880922
 10
637.6307439407671
 20
73.00482727770113
 10
637.6298666746666
 20
73.20378026659302
 10
637.6272352611627
 20
73.40264598812851
 10
637.6228508544802
 20
73.60133721322958
 10
637.6167153777652
 20
73.79976678935813
 10
637.6088315222402
 20
73.99784767874383
 10
637.5992027460251
 20
74.19549299656201
 10
637.5878332726192
 20
74.39261604904405
 10
637.5747280890491
 20
74.58913037150411
 10
637.5598929436819
 20
74.78494976626554
 10
637.5433343437022
 20
74.97998834046986
 10
637.5250595522597
 20
75.17416054375238
 10
637.5050765852817
 20
75.36738120576727
 10
637.4833942079577
 20
75.55956557354619
 10
637.4600219308954
 20
75.75062934867364
 10
637.4349700059477
 20
75.94048872426315
 10
637.4082494217171
 20
76.12906042171769
 10
637.3798718987347
 20
76.31626172725841
 10
637.3498498843201
 20
76.50201052820559
 10
637.3181965471211
 20
76.68622534899615
 10
637.2849257713376
 20
76.86882538692126
 10
637.2500521506313
 20
77.04973054756937
 10
637.2135909817248
 20
77.22886147995798
 10
637.175558257692
 20
77.40613961133987
 10
637.1359706609426
 20
77.58148718166747
 10
637.0948455559048
 20
77.75482727770118
 10
637.0522009814092
 20
77.92608386674594
 10
637.0080556427752
 20
78.09518183000166
 10
636.9624289036075
 20
78.26204699551293
 10
636.9153407773016
 20
78.42660617070329
 10
636.866811918267
 20
78.58878717447969
 10
636.8168636128638
 20
78.74851886889375
 10
636.7655177700706
 20
78.90573119034515
 10
636.7127969118702
 20
79.06035518031375
 10
636.6587241633741
 20
79.21232301560721
 10
636.6033232426767
 20
79.36156803811035
 10
636.5466184504526
 20
79.50802478402373
 10
636.4886346592982
 20
79.65162901257819
 10
636.4293973028204
 20
79.79231773421284
 10
636.3689323644819
 20
79.93002923820462
 10
636.3072663662026
 20
80.06470311973645
 10
636.2444263567275
 20
80.19628030639291
 10
636.180439899762
 20
80.32470308407122
 10
636.1153350618804
 20
80.44991512229669
 10
636.0491404002166
 20
80.5718614989311
 10
635.981884949937
 20
80.6904887242632
 10
635.9135982115049
 20
80.80574476447141
 10
635.8443101377404
 20
80.91757906444717
 10
635.7740511206831
 20
81.02594256997038
 10
635.7028519782597
 20
81.13078774922604
 10
635.6307439407672
 20
81.23206861365339
 10
635.5577586371741
 20
81.32974073811793
 10
635.4839280812466
 20
81.42376128039776
 10
635.4092846575069
 20
81.51408899997566
 10
635.3338611070275
 20
81.6006842761284
 10
635.2576905130701
 20
81.68350912530593
 10
635.1808062865756
 20
81.76252721779198
 10
635.1032421515057
 20
81.83770389363962
 10
635.0250321300543
 20
81.9090061778742
 10
634.9462105277215
 20
81.97640279495729
 10
634.8668119182669
 20
82.03986418250519
 10
634.786871128545
 20
82.09936250425585
 10
634.7064232232281
 20
82.154871662279
 10
634.6255034894267
 20
82.20636730842322
 10
634.5441474212097
 20
82.25382685499623
 10
634.4623907040382
 20
82.29722948467239
 10
634.3802691991101
 20
82.33655615962376
 10
634.2978189276315
 20
82.37178962987103
 10
634.2150760550167
 20
82.40291444084963
 10
634.1320768750242
 20
82.42991694018877
 10
634.0488577938377
 20
82.45278528369981
 10
633.9654553140964
 20
82.47150944057151
 10
633.8819060188844
 20
82.4860811977698
 10
633.7982465556839
 20
82.49649416364039
 10
633.7145136203005
 20
82.50274377071226
 10
633.6307439407671
 20
82.50482727770121
  0
LWPOLYLINE
  5
41C
330
DBF
100
AcDbEntity
  8
LAYER0016
  6
Continuous
 62
     3
100
AcDbPolyline
 90
      151
 70
   128
 43
0.0
 10
633.6307439407671
 20
-116.4951727222989
 10
633.7145136203006
 20
-116.49308921531
 10
633.7982465556839
 20
-116.4868396082381
 10
633.8819060188844
 20
-116.4764266423675
 10
633.9654553140964
 20
-116.4618548851692
 10
634.0488577938377
 20
-116.4431307282975
 10
634.1320768750242
 20
-116.4202623847865
 10
634.2150760550167
 20
-116.3932598854473
 10
634.2978189276315
 20
-116.3621350744688
 10
634.3802691991101
 20
-116.3269016042215
 10
634.4623907040382
 20
-116.2875749292701
 10
634.5441474212097
 20
-116.244172299594
 10
634.6255034894267
 20
-116.1967127530209
 10
634.7064232232281
 20
-116.1452171068767
 10
634.786871128545
 20
-116.0897079488536
 10
634.8668119182669
 20
-116.0302096271029
 10
634.9462105277215
 20
-115.966748239555
 10
635.0250321300543
 20
-115.8993516224719
 10
635.1032421515059
 20
-115.8280493382373
 10
635.1808062865756
 20
-115.7528726623897
 10
635.2576905130701
 20
-115.6738545699037
 10
635.3338611070275
 20
-115.5910297207261
 10
635.4092846575069
 20
-115.5044344445734
 10
635.4839280812466
 20
-115.4141067249955
 10
635.5577586371741
 20
-115.3200861827156
 10
635.6307439407672
 20
-115.2224140582511
 10
635.7028519782597
 20
-115.1211331938238
 10
635.7740511206831
 20
-115.0162880145681
 10
635.8443101377404
 20
-114.9079245090449
 10
635.9135982115049
 20
-114.7960902090691
 10
635.981884949937
 20
-114.6808341688609
 10
636.0491404002166
 20
-114.5622069435288
 10
636.1153350618804
 20
-114.4402605668944
 10
636.180439899762
 20
-114.3150485286689
 10
636.2444263567275
 20
-114.1866257509906
 10
636.3072663662026
 20
-114.0550485643342
 10
636.3689323644819
 20
-113.9203746828023
 10
636.4293973028204
 20
-113.7826631788106
 10
636.4886346592982
 20
-113.6419744571759
 10
636.5466184504526
 20
-113.4983702286215
 10
636.6033232426767
 20
-113.351913482708
 10
636.6587241633741
 20
-113.2026684602049
 10
636.7127969118702
 20
-113.0507006249115
 10
636.7655177700706
 20
-112.8960766349429
 10
636.8168636128638
 20
-112.7388643134915
 10
636.866811918267
 20
-112.5791326190774
 10
636.9153407773016
 20
-112.416951615301
 10
636.9624289036075
 20
-112.2523924401107
 10
637.0080556427752
 20
-112.0855272745994
 10
637.0522009814092
 20
-111.9164293113436
 10
637.0948455559048
 20
-111.7451727222989
 10
637.1359706609426
 20
-111.5718326262652
 10
637.175558257692
 20
-111.3964850559376
 10
637.2135909817248
 20
-111.2192069245557
 10
637.2500521506313
 20
-111.0400759921671
 10
637.2849257713376
 20
-110.859170831519
 10
637.3181965471211
 20
-110.6765707935939
 10
637.3498498843201
 20
-110.4923559728033
 10
637.3798718987347
 20
-110.3066071718561
 10
637.4082494217171
 20
-110.1194058663154
 10
637.4349700059477
 20
-109.9308341688609
 10
637.4600219308954
 20
-109.7409747932713
 10
637.4833942079577
 20
-109.5499110181439
 10
637.5050765852817
 20
-109.357726650365
 10
637.5250595522597
 20
-109.1645059883501
 10
637.5433343437022
 20
-108.9703337850676
 10
637.5598929436819
 20
-108.7752952108632
 10
637.5747280890491
 20
-108.5794758161018
 10
637.5878332726192
 20
-108.3829614936418
 10
637.5992027460251
 20
-108.1858384411597
 10
637.6088315222402
 20
-107.9881931233415
 10
637.6167153777652
 20
-107.7901122339558
 10
637.6228508544802
 20
-107.5916826578273
 10
637.6272352611627
 20
-107.3929914327262
 10
637.6298666746666
 20
-107.1941257111907
 10
637.6307439407671
 20
-106.9951727222988
 10
637.6298666746666
 20
-106.7962197334069
 10
637.6272352611627
 20
-106.5973540118714
 10
637.6228508544802
 20
-106.3986627867703
 10
637.6167153777652
 20
-106.2002332106418
 10
637.6088315222402
 20
-106.0021523212561
 10
637.5992027460251
 20
-105.8045070034379
 10
637.5878332726192
 20
-105.6073839509559
 10
637.5747280890491
 20
-105.4108696284958
 10
637.5598929436819
 20
-105.2150502337344
 10
637.5433343437022
 20
-105.02001165953
 10
637.5250595522597
 20
-104.8258394562476
 10
637.5050765852817
 20
-104.6326187942327
 10
637.4833942079577
 20
-104.4404344264538
 10
637.4600219308954
 20
-104.2493706513263
 10
637.4349700059477
 20
-104.0595112757368
 10
637.4082494217171
 20
-103.8709395782822
 10
637.3798718987347
 20
-103.6837382727415
 10
637.3498498843201
 20
-103.4979894717943
 10
637.3181965471211
 20
-103.3137746510038
 10
637.2849257713376
 20
-103.1311746130787
 10
637.2500521506313
 20
-102.9502694524306
 10
637.2135909817248
 20
-102.771138520042
 10
637.175558257692
 20
-102.5938603886601
 10
637.1359706609426
 20
-102.4185128183325
 10
637.0948455559048
 20
-102.2451727222988
 10
637.0522009814092
 20
-102.073916133254
 10
637.0080556427752
 20
-101.9048181699983
 10
636.9624289036075
 20
-101.737953004487
 10
636.9153407773016
 20
-101.5733938292966
 10
636.866811918267
 20
-101.4112128255203
 10
636.8168636128638
 20
-101.2514811311062
 10
636.7655177700706
 20
-101.0942688096548
 10
636.7127969118702
 20
-100.9396448196862
 10
636.6587241633741
 20
-100.7876769843927
 10
636.6033232426767
 20
-100.6384319618896
 10
636.5466184504526
 20
-100.4919752159762
 10
636.4886346592982
 20
-100.3483709874218
 10
636.4293973028204
 20
-100.2076822657871
 10
636.3689323644819
 20
-100.0699707617953
 10
636.3072663662026
 20
-99.93529688026349
 10
636.2444263567275
 20
-99.80371969360705
 10
636.180439899762
 20
-99.67529691592872
 10
636.1153350618804
 20
-99.55008487770328
 10
636.0491404002166
 20
-99.42813850106887
 10
635.981884949937
 20
-99.30951127573671
 10
635.9135982115049
 20
-99.19425523552851
 10
635.8443101377404
 20
-99.0824209355528
 10
635.7740511206831
 20
-98.97405743002956
 10
635.7028519782597
 20
-98.86921225077394
 10
635.6307439407672
 20
-98.76793138634658
 10
635.5577586371741
 20
-98.67025926188199
 10
635.4839280812466
 20
-98.57623871960216
 10
635.4092846575069
 20
-98.48591100002428
 10
635.3338611070275
 20
-98.39931572387152
 10
635.2576905130701
 20
-98.31649087469401
 10
635.1808062865756
 20
-98.23747278220794
 10
635.1032421515057
 20
-98.16229610636032
 10
635.0250321300543
 20
-98.09099382212574
 10
634.9462105277215
 20
-98.02359720504265
 10
634.8668119182669
 20
-97.96013581749477
 10
634.786871128545
 20
-97.90063749574407
 10
634.7064232232281
 20
-97.84512833772096
 10
634.6255034894267
 20
-97.7936326915767
 10
634.5441474212097
 20
-97.74617314500368
 10
634.4623907040382
 20
-97.70277051532758
 10
634.3802691991101
 20
-97.66344384037616
 10
634.2978189276315
 20
-97.62821037012891
 10
634.2150760550167
 20
-97.59708555915032
 10
634.1320768750242
 20
-97.57008305981116
 10
634.0488577938377
 20
-97.54721471630013
 10
633.9654553140964
 20
-97.52849055942842
 10
633.8819060188844
 20
-97.51391880223016
 10
633.7982465556839
 20
-97.50350583635956
 10
633.7145136203005
 20
-97.49725622928769
 10
633.6307439407671
 20
-97.49517272229873
  0
LWPOLYLINE
  5
41E
330
DBF
100
AcDbEntity
  8
LAYER0016
  6
Continuous
 62
     3
100
AcDbPolyline
 90
      151
 70
   128
 43
0.0
 10
633.6307439407671
 20
-306.495172722299
 10
633.7145136203006
 20
-306.49308921531
 10
633.7982465556839
 20
-306.4868396082382
 10
633.8819060188844
 20
-306.4764266423676
 10
633.9654553140964
 20
-306.4618548851693
 10
634.0488577938377
 20
-306.4431307282976
 10
634.1320768750242
 20
-306.4202623847867
 10
634.2150760550167
 20
-306.3932598854474
 10
634.2978189276315
 20
-306.3621350744688
 10
634.3802691991101
 20
-306.3269016042216
 10
634.4623907040382
 20
-306.2875749292701
 10
634.5441474212097
 20
-306.244172299594
 10
634.6255034894267
 20
-306.196712753021
 10
634.7064232232281
 20
-306.1452171068768
 10
634.786871128545
 20
-306.0897079488536
 10
634.8668119182669
 20
-306.030209627103
 10
634.9462105277215
 20
-305.966748239555
 10
635.0250321300543
 20
-305.899351622472
 10
635.1032421515059
 20
-305.8280493382374
 10
635.1808062865756
 20
-305.7528726623897
 10
635.2576905130701
 20
-305.6738545699037
 10
635.3338611070275
 20
-305.5910297207262
 10
635.4092846575069
 20
-305.5044344445733
 10
635.4839280812466
 20
-305.4141067249955
 10
635.5577586371741
 20
-305.3200861827157
 10
635.6307439407672
 20
-305.2224140582512
 10
635.7028519782597
 20
-305.1211331938238
 10
635.7740511206831
 20
-305.0162880145681
 10
635.8443101377404
 20
-304.907924509045
 10
635.9135982115049
 20
-304.7960902090692
 10
635.981884949937
 20
-304.680834168861
 10
636.0491404002166
 20
-304.5622069435288
 10
636.1153350618804
 20
-304.4402605668944
 10
636.180439899762
 20
-304.315048528669
 10
636.2444263567275
 20
-304.1866257509907
 10
636.3072663662026
 20
-304.0550485643342
 10
636.3689323644819
 20
-303.9203746828024
 10
636.4293973028204
 20
-303.7826631788106
 10
636.4886346592982
 20
-303.6419744571759
 10
636.5466184504526
 20
-303.4983702286215
 10
636.6033232426767
 20
-303.3519134827082
 10
636.6587241633741
 20
-303.202668460205
 10
636.7127969118702
 20
-303.0507006249115
 10
636.7655177700706
 20
-302.8960766349429
 10
636.8168636128638
 20
-302.7388643134915
 10
636.866811918267
 20
-302.5791326190774
 10
636.9153407773016
 20
-302.4169516153011
 10
636.9624289036075
 20
-302.2523924401107
 10
637.0080556427752
 20
-302.0855272745994
 10
637.0522009814092
 20
-301.9164293113437
 10
637.0948455559048
 20
-301.7451727222989
 10
637.1359706609426
 20
-301.5718326262652
 10
637.175558257692
 20
-301.3964850559376
 10
637.2135909817248
 20
-301.2192069245557
 10
637.2500521506313
 20
-301.0400759921671
 10
637.2849257713376
 20
-300.859170831519
 10
637.3181965471211
 20
-300.6765707935938
 10
637.3498498843201
 20
-300.4923559728034
 10
637.3798718987347
 20
-300.3066071718562
 10
637.4082494217171
 20
-300.1194058663154
 10
637.4349700059477
 20
-299.9308341688609
 10
637.4600219308954
 20
-299.7409747932714
 10
637.4833942079577
 20
-299.5499110181439
 10
637.5050765852817
 20
-299.357726650365
 10
637.5250595522597
 20
-299.1645059883501
 10
637.5433343437022
 20
-298.9703337850676
 10
637.5598929436819
 20
-298.7752952108633
 10
637.5747280890491
 20
-298.5794758161019
 10
637.5878332726192
 20
-298.3829614936418
 10
637.5992027460251
 20
-298.1858384411598
 10
637.6088315222402
 20
-297.9881931233417
 10
637.6167153777652
 20
-297.7901122339559
 10
637.6228508544802
 20
-297.5916826578274
 10
637.6272352611627
 20
-297.3929914327263
 10
637.6298666746666
 20
-297.1941257111908
 10
637.6307439407671
 20
-296.9951727222989
 10
637.6298666746666
 20
-296.796219733407
 10
637.6272352611627
 20
-296.5973540118715
 10
637.6228508544802
 20
-296.3986627867704
 10
637.6167153777652
 20
-296.2002332106418
 10
637.6088315222402
 20
-296.0021523212562
 10
637.5992027460251
 20
-295.8045070034379
 10
637.5878332726192
 20
-295.607383950956
 10
637.5747280890491
 20
-295.4108696284958
 10
637.5598929436819
 20
-295.2150502337346
 10
637.5433343437022
 20
-295.0200116595302
 10
637.5250595522597
 20
-294.8258394562476
 10
637.5050765852817
 20
-294.6326187942327
 10
637.4833942079577
 20
-294.4404344264538
 10
637.4600219308954
 20
-294.2493706513264
 10
637.4349700059477
 20
-294.0595112757368
 10
637.4082494217171
 20
-293.8709395782823
 10
637.3798718987347
 20
-293.6837382727416
 10
637.3498498843201
 20
-293.4979894717944
 10
637.3181965471211
 20
-293.3137746510038
 10
637.2849257713376
 20
-293.1311746130787
 10
637.2500521506313
 20
-292.9502694524306
 10
637.2135909817248
 20
-292.771138520042
 10
637.175558257692
 20
-292.5938603886601
 10
637.1359706609426
 20
-292.4185128183325
 10
637.0948455559048
 20
-292.2451727222988
 10
637.0522009814092
 20
-292.0739161332541
 10
637.0080556427752
 20
-291.9048181699984
 10
636.9624289036075
 20
-291.7379530044871
 10
636.9153407773016
 20
-291.5733938292967
 10
636.866811918267
 20
-291.4112128255204
 10
636.8168636128638
 20
-291.2514811311062
 10
636.7655177700706
 20
-291.0942688096548
 10
636.7127969118702
 20
-290.9396448196862
 10
636.6587241633741
 20
-290.7876769843928
 10
636.6033232426767
 20
-290.6384319618896
 10
636.5466184504526
 20
-290.4919752159763
 10
636.4886346592982
 20
-290.3483709874218
 10
636.4293973028204
 20
-290.2076822657872
 10
636.3689323644819
 20
-290.0699707617954
 10
636.3072663662026
 20
-289.9352968802635
 10
636.2444263567275
 20
-289.8037196936071
 10
636.180439899762
 20
-289.6752969159288
 10
636.1153350618804
 20
-289.5500848777033
 10
636.0491404002166
 20
-289.4281385010689
 10
635.981884949937
 20
-289.3095112757368
 10
635.9135982115049
 20
-289.1942552355287
 10
635.8443101377404
 20
-289.0824209355528
 10
635.7740511206831
 20
-288.9740574300296
 10
635.7028519782597
 20
-288.869212250774
 10
635.6307439407672
 20
-288.7679313863466
 10
635.5577586371741
 20
-288.6702592618821
 10
635.4839280812466
 20
-288.5762387196023
 10
635.4092846575069
 20
-288.4859110000244
 10
635.3338611070275
 20
-288.3993157238716
 10
635.2576905130701
 20
-288.3164908746941
 10
635.1808062865756
 20
-288.237472782208
 10
635.1032421515057
 20
-288.1622961063604
 10
635.0250321300543
 20
-288.0909938221258
 10
634.9462105277215
 20
-288.0235972050427
 10
634.8668119182669
 20
-287.9601358174948
 10
634.786871128545
 20
-287.9006374957441
 10
634.7064232232281
 20
-287.845128337721
 10
634.6255034894267
 20
-287.7936326915768
 10
634.5441474212097
 20
-287.7461731450038
 10
634.4623907040382
 20
-287.7027705153276
 10
634.3802691991101
 20
-287.6634438403762
 10
634.2978189276315
 20
-287.628210370129
 10
634.2150760550167
 20
-287.5970855591504
 10
634.1320768750242
 20
-287.5700830598112
 10
634.0488577938377
 20
-287.5472147163002
 10
633.9654553140964
 20
-287.5284905594284
 10
633.8819060188844
 20
-287.5139188022302
 10
633.7982465556839
 20
-287.5035058363597
 10
633.7145136203005
 20
-287.4972562292878
 10
633.6307439407671
 20
-287.4951727222988
  0
LWPOLYLINE
  5
420
330
DBF
100
AcDbEntity
  8
LAYER0016
  6
Continuous
 62
     3
100
AcDbPolyline
 90
      151
 70
   128
 43
0.0
 10
242.2307439407675
 20
-287.4951727222997
 10
242.1469742612341
 20
-287.4972562292886
 10
242.0632413258509
 20
-287.5035058363605
 10
241.9795818626503
 20
-287.5139188022312
 10
241.8960325674383
 20
-287.5284905594294
 10
241.812630087697
 20
-287.5472147163011
 10
241.7294110065104
 20
-287.5700830598121
 10
241.6464118265179
 20
-287.5970855591513
 10
241.5636689539032
 20
-287.6282103701299
 10
241.4812186824247
 20
-287.6634438403771
 10
241.3990971774966
 20
-287.7027705153285
 10
241.317340460325
 20
-287.7461731450046
 10
241.2359843921082
 20
-287.7936326915777
 10
241.1550646583066
 20
-287.8451283377219
 10
241.0746167529898
 20
-287.900637495745
 10
240.9946759632679
 20
-287.9601358174957
 10
240.9152773538133
 20
-288.0235972050435
 10
240.8364557514804
 20
-288.0909938221266
 10
240.758245730029
 20
-288.1622961063612
 10
240.6806815949593
 20
-288.2374727822088
 10
240.6037973684645
 20
-288.3164908746948
 10
240.5276267745074
 20
-288.3993157238723
 10
240.452203224028
 20
-288.4859110000252
 10
240.3775598002883
 20
-288.5762387196031
 10
240.303729244361
 20
-288.6702592618828
 10
240.2307439407678
 20
-288.7679313863474
 10
240.1586359032752
 20
-288.8692122507748
 10
240.0874367608518
 20
-288.9740574300304
 10
240.0171777437944
 20
-289.0824209355536
 10
239.9478896700301
 20
-289.1942552355293
 10
239.8796029315979
 20
-289.3095112757375
 10
239.8123474813183
 20
-289.4281385010696
 10
239.7461528196546
 20
-289.550084877704
 10
239.681047981773
 20
-289.6752969159295
 10
239.6170615248074
 20
-289.8037196936078
 10
239.5542215153324
 20
-289.9352968802642
 10
239.4925555170531
 20
-290.069970761796
 10
239.4320905787144
 20
-290.2076822657878
 10
239.3728532222366
 20
-290.3483709874223
 10
239.3148694310822
 20
-290.4919752159768
 10
239.2581646388583
 20
-290.6384319618902
 10
239.2027637181608
 20
-290.7876769843934
 10
239.1486909696647
 20
-290.9396448196868
 10
239.0959701114645
 20
-291.0942688096554
 10
239.0446242686711
 20
-291.2514811311067
 10
238.9946759632681
 20
-291.4112128255208
 10
238.9461471042331
 20
-291.5733938292972
 10
238.8990589779275
 20
-291.7379530044875
 10
238.8534322387598
 20
-291.9048181699988
 10
238.8092869001259
 20
-292.0739161332545
 10
238.7666423256302
 20
-292.2451727222992
 10
238.7255172205925
 20
-292.4185128183329
 10
238.685929623843
 20
-292.5938603886605
 10
238.6478968998103
 20
-292.7711385200424
 10
238.6114357309038
 20
-292.950269452431
 10
238.5765621101975
 20
-293.1311746130791
 10
238.5432913344139
 20
-293.3137746510042
 10
238.5116379972149
 20
-293.4979894717947
 10
238.4816159828004
 20
-293.6837382727418
 10
238.453238459818
 20
-293.8709395782826
 10
238.4265178755873
 20
-294.0595112757371
 10
238.4014659506397
 20
-294.2493706513266
 10
238.3780936735773
 20
-294.440434426454
 10
238.3564112962534
 20
-294.6326187942329
 10
238.3364283292753
 20
-294.8258394562478
 10
238.3181535378328
 20
-295.0200116595303
 10
238.3015949378532
 20
-295.2150502337346
 10
238.286759792486
 20
-295.410869628496
 10
238.273654608916
 20
-295.607383950956
 10
238.2622851355101
 20
-295.804507003438
 10
238.2526563592949
 20
-296.0021523212562
 10
238.24477250377
 20
-296.2002332106418
 10
238.2386370270549
 20
-296.3986627867704
 10
238.2342526203726
 20
-296.5973540118715
 10
238.2316212068686
 20
-296.7962197334069
 10
238.230743940768
 20
-296.9951727222989
 10
238.2316212068686
 20
-297.1941257111907
 10
238.2342526203726
 20
-297.3929914327261
 10
238.2386370270549
 20
-297.5916826578272
 10
238.24477250377
 20
-297.7901122339557
 10
238.2526563592949
 20
-297.9881931233414
 10
238.2622851355101
 20
-298.1858384411595
 10
238.273654608916
 20
-298.3829614936416
 10
238.286759792486
 20
-298.5794758161016
 10
238.3015949378532
 20
-298.775295210863
 10
238.3181535378328
 20
-298.9703337850674
 10
238.3364283292753
 20
-299.1645059883498
 10
238.3564112962534
 20
-299.3577266503647
 10
238.3780936735773
 20
-299.5499110181436
 10
238.4014659506397
 20
-299.740974793271
 10
238.4265178755873
 20
-299.9308341688605
 10
238.453238459818
 20
-300.119405866315
 10
238.4816159828004
 20
-300.3066071718557
 10
238.5116379972149
 20
-300.4923559728029
 10
238.5432913344139
 20
-300.6765707935934
 10
238.5765621101975
 20
-300.8591708315186
 10
238.6114357309038
 20
-301.0400759921666
 10
238.6478968998103
 20
-301.2192069245552
 10
238.685929623843
 20
-301.3964850559371
 10
238.7255172205925
 20
-301.5718326262647
 10
238.7666423256302
 20
-301.7451727222983
 10
238.8092869001259
 20
-301.9164293113431
 10
238.8534322387599
 20
-302.0855272745988
 10
238.8990589779275
 20
-302.2523924401101
 10
238.9461471042331
 20
-302.4169516153004
 10
238.9946759632681
 20
-302.5791326190767
 10
239.0446242686711
 20
-302.7388643134908
 10
239.0959701114645
 20
-302.8960766349422
 10
239.1486909696647
 20
-303.0507006249108
 10
239.2027637181608
 20
-303.2026684602042
 10
239.2581646388583
 20
-303.3519134827074
 10
239.3148694310822
 20
-303.4983702286207
 10
239.3728532222366
 20
-303.6419744571751
 10
239.4320905787144
 20
-303.7826631788098
 10
239.4925555170531
 20
-303.9203746828015
 10
239.5542215153324
 20
-304.0550485643334
 10
239.6170615248074
 20
-304.1866257509898
 10
239.6810479817731
 20
-304.3150485286681
 10
239.7461528196546
 20
-304.4402605668937
 10
239.8123474813183
 20
-304.5622069435279
 10
239.8796029315979
 20
-304.6808341688601
 10
239.9478896700301
 20
-304.7960902090683
 10
240.0171777437944
 20
-304.907924509044
 10
240.0874367608518
 20
-305.0162880145672
 10
240.1586359032752
 20
-305.1211331938229
 10
240.2307439407678
 20
-305.2224140582502
 10
240.303729244361
 20
-305.3200861827147
 10
240.3775598002883
 20
-305.4141067249946
 10
240.452203224028
 20
-305.5044344445724
 10
240.5276267745074
 20
-305.5910297207252
 10
240.6037973684645
 20
-305.6738545699027
 10
240.6806815949593
 20
-305.7528726623887
 10
240.758245730029
 20
-305.8280493382363
 10
240.8364557514804
 20
-305.8993516224709
 10
240.9152773538134
 20
-305.966748239554
 10
240.9946759632679
 20
-306.0302096271018
 10
241.0746167529898
 20
-306.0897079488525
 10
241.1550646583066
 20
-306.1452171068757
 10
241.2359843921082
 20
-306.1967127530199
 10
241.317340460325
 20
-306.2441722995928
 10
241.3990971774966
 20
-306.2875749292692
 10
241.4812186824247
 20
-306.3269016042204
 10
241.5636689539032
 20
-306.3621350744677
 10
241.6464118265179
 20
-306.3932598854463
 10
241.7294110065104
 20
-306.4202623847854
 10
241.812630087697
 20
-306.4431307282965
 10
241.8960325674383
 20
-306.4618548851682
 10
241.9795818626503
 20
-306.4764266423664
 10
242.0632413258509
 20
-306.4868396082371
 10
242.1469742612341
 20
-306.4930892153089
 10
242.2307439407676
 20
-306.4951727222979
  0
LWPOLYLINE
  5
422
330
DBF
100
AcDbEntity
  8
LAYER0016
  6
Continuous
 62
     3
100
AcDbPolyline
 90
      151
 70
   128
 43
0.0
 10
242.2307439407675
 20
-97.4951727222996
 10
242.1469742612341
 20
-97.49725622928858
 10
242.0632413258509
 20
-97.50350583636048
 10
241.9795818626503
 20
-97.51391880223104
 10
241.8960325674383
 20
-97.52849055942931
 10
241.812630087697
 20
-97.547214716301
 10
241.7294110065104
 20
-97.57008305981207
 10
241.6464118265179
 20
-97.59708555915121
 10
241.5636689539032
 20
-97.62821037012979
 10
241.4812186824247
 20
-97.66344384037708
 10
241.3990971774966
 20
-97.70277051532843
 10
241.317340460325
 20
-97.74617314500458
 10
241.2359843921082
 20
-97.79363269157759
 10
241.1550646583066
 20
-97.84512833772184
 10
241.0746167529898
 20
-97.90063749574496
 10
240.9946759632679
 20
-97.9601358174956
 10
240.9152773538133
 20
-98.0235972050435
 10
240.8364557514804
 20
-98.09099382212659
 10
240.758245730029
 20
-98.16229610636115
 10
240.6806815949593
 20
-98.23747278220878
 10
240.6037973684645
 20
-98.31649087469486
 10
240.5276267745074
 20
-98.39931572387236
 10
240.452203224028
 20
-98.4859110000251
 10
240.3775598002883
 20
-98.57623871960292
 10
240.303729244361
 20
-98.67025926188281
 10
240.2307439407678
 20
-98.76793138634731
 10
240.1586359032752
 20
-98.86921225077472
 10
240.0874367608518
 20
-98.97405743003032
 10
240.0171777437944
 20
-99.08242093555351
 10
239.9478896700301
 20
-99.19425523552929
 10
239.8796029315979
 20
-99.30951127573743
 10
239.8123474813183
 20
-99.42813850106958
 10
239.7461528196546
 20
-99.55008487770394
 10
239.681047981773
 20
-99.67529691592941
 10
239.6170615248074
 20
-99.80371969360772
 10
239.5542215153324
 20
-99.93529688026415
 10
239.4925555170531
 20
-100.069970761796
 10
239.4320905787144
 20
-100.2076822657877
 10
239.3728532222366
 20
-100.3483709874224
 10
239.3148694310822
 20
-100.4919752159768
 10
239.2581646388583
 20
-100.6384319618902
 10
239.2027637181608
 20
-100.7876769843933
 10
239.1486909696647
 20
-100.9396448196867
 10
239.0959701114645
 20
-101.0942688096553
 10
239.0446242686711
 20
-101.2514811311067
 10
238.9946759632681
 20
-101.4112128255207
 10
238.9461471042331
 20
-101.5733938292971
 10
238.8990589779275
 20
-101.7379530044875
 10
238.8534322387598
 20
-101.9048181699987
 10
238.8092869001259
 20
-102.0739161332545
 10
238.7666423256302
 20
-102.2451727222992
 10
238.7255172205925
 20
-102.4185128183329
 10
238.685929623843
 20
-102.5938603886605
 10
238.6478968998103
 20
-102.7711385200423
 10
238.6114357309038
 20
-102.9502694524309
 10
238.5765621101975
 20
-103.131174613079
 10
238.5432913344139
 20
-103.3137746510041
 10
238.5116379972149
 20
-103.4979894717946
 10
238.4816159828004
 20
-103.6837382727418
 10
238.453238459818
 20
-103.8709395782825
 10
238.4265178755873
 20
-104.059511275737
 10
238.4014659506397
 20
-104.2493706513265
 10
238.3780936735773
 20
-104.4404344264539
 10
238.3564112962534
 20
-104.6326187942328
 10
238.3364283292753
 20
-104.8258394562477
 10
238.3181535378328
 20
-105.0200116595302
 10
238.3015949378532
 20
-105.2150502337345
 10
238.286759792486
 20
-105.4108696284959
 10
238.273654608916
 20
-105.6073839509559
 10
238.2622851355101
 20
-105.804507003438
 10
238.2526563592949
 20
-106.0021523212561
 10
238.24477250377
 20
-106.2002332106418
 10
238.2386370270549
 20
-106.3986627867703
 10
238.2342526203726
 20
-106.5973540118714
 10
238.2316212068686
 20
-106.7962197334069
 10
238.230743940768
 20
-106.9951727222987
 10
238.2316212068686
 20
-107.1941257111906
 10
238.2342526203726
 20
-107.3929914327261
 10
238.2386370270549
 20
-107.5916826578271
 10
238.24477250377
 20
-107.7901122339557
 10
238.2526563592949
 20
-107.9881931233413
 10
238.2622851355101
 20
-108.1858384411595
 10
238.273654608916
 20
-108.3829614936415
 10
238.286759792486
 20
-108.5794758161016
 10
238.3015949378532
 20
-108.775295210863
 10
238.3181535378328
 20
-108.9703337850673
 10
238.3364283292753
 20
-109.1645059883498
 10
238.3564112962534
 20
-109.3577266503646
 10
238.3780936735773
 20
-109.5499110181435
 10
238.4014659506397
 20
-109.740974793271
 10
238.4265178755873
 20
-109.9308341688605
 10
238.453238459818
 20
-110.119405866315
 10
238.4816159828004
 20
-110.3066071718557
 10
238.5116379972149
 20
-110.4923559728029
 10
238.5432913344139
 20
-110.6765707935934
 10
238.5765621101975
 20
-110.8591708315185
 10
238.6114357309038
 20
-111.0400759921665
 10
238.6478968998103
 20
-111.2192069245552
 10
238.685929623843
 20
-111.396485055937
 10
238.7255172205925
 20
-111.5718326262646
 10
238.7666423256302
 20
-111.7451727222983
 10
238.8092869001259
 20
-111.916429311343
 10
238.8534322387599
 20
-112.0855272745987
 10
238.8990589779275
 20
-112.25239244011
 10
238.9461471042331
 20
-112.4169516153003
 10
238.9946759632681
 20
-112.5791326190767
 10
239.0446242686711
 20
-112.7388643134908
 10
239.0959701114645
 20
-112.8960766349421
 10
239.1486909696647
 20
-113.0507006249107
 10
239.2027637181608
 20
-113.2026684602042
 10
239.2581646388583
 20
-113.3519134827073
 10
239.3148694310822
 20
-113.4983702286207
 10
239.3728532222366
 20
-113.6419744571751
 10
239.4320905787144
 20
-113.7826631788097
 10
239.4925555170531
 20
-113.9203746828015
 10
239.5542215153324
 20
-114.0550485643333
 10
239.6170615248074
 20
-114.1866257509897
 10
239.6810479817731
 20
-114.315048528668
 10
239.7461528196546
 20
-114.4402605668935
 10
239.8123474813183
 20
-114.5622069435279
 10
239.8796029315979
 20
-114.68083416886
 10
239.9478896700301
 20
-114.7960902090682
 10
240.0171777437944
 20
-114.9079245090439
 10
240.0874367608518
 20
-115.0162880145671
 10
240.1586359032752
 20
-115.1211331938228
 10
240.2307439407678
 20
-115.2224140582501
 10
240.303729244361
 20
-115.3200861827146
 10
240.3775598002883
 20
-115.4141067249945
 10
240.452203224028
 20
-115.5044344445724
 10
240.5276267745074
 20
-115.5910297207251
 10
240.6037973684645
 20
-115.6738545699026
 10
240.6806815949593
 20
-115.7528726623887
 10
240.758245730029
 20
-115.8280493382363
 10
240.8364557514804
 20
-115.8993516224709
 10
240.9152773538134
 20
-115.966748239554
 10
240.9946759632679
 20
-116.0302096271018
 10
241.0746167529898
 20
-116.0897079488525
 10
241.1550646583066
 20
-116.1452171068756
 10
241.2359843921082
 20
-116.1967127530199
 10
241.317340460325
 20
-116.2441722995929
 10
241.3990971774966
 20
-116.287574929269
 10
241.4812186824247
 20
-116.3269016042204
 10
241.5636689539032
 20
-116.3621350744676
 10
241.6464118265179
 20
-116.3932598854462
 10
241.7294110065104
 20
-116.4202623847854
 10
241.812630087697
 20
-116.4431307282964
 10
241.8960325674383
 20
-116.4618548851681
 10
241.9795818626503
 20
-116.4764266423664
 10
242.0632413258509
 20
-116.486839608237
 10
242.1469742612341
 20
-116.4930892153089
 10
242.2307439407676
 20
-116.4951727222978
  0
LWPOLYLINE
  5
424
330
DBF
100
AcDbEntity
  8
LAYER0016
  6
Continuous
 62
     3
100
AcDbPolyline
 90
      151
 70
   128
 43
0.0
 10
242.2307439407675
 20
82.50482727770032
 10
242.1469742612341
 20
82.50274377071136
 10
242.0632413258509
 20
82.49649416363949
 10
241.9795818626503
 20
82.48608119776891
 10
241.8960325674383
 20
82.47150944057063
 10
241.812630087697
 20
82.45278528369894
 10
241.7294110065104
 20
82.42991694018789
 10
241.6464118265179
 20
82.40291444084872
 10
241.5636689539032
 20
82.37178962987014
 10
241.4812186824247
 20
82.33655615962289
 10
241.3990971774966
 20
82.29722948467149
 10
241.317340460325
 20
82.25382685499537
 10
241.2359843921082
 20
82.20636730842235
 10
241.1550646583066
 20
82.15487166227811
 10
241.0746167529898
 20
82.09936250425498
 10
240.9946759632679
 20
82.03986418250433
 10
240.9152773538133
 20
81.97640279495644
 10
240.8364557514804
 20
81.90900617787335
 10
240.758245730029
 20
81.83770389363877
 10
240.6806815949593
 20
81.76252721779116
 10
240.6037973684645
 20
81.68350912530511
 10
240.5276267745074
 20
81.6006842761276
 10
240.452203224028
 20
81.51408899997484
 10
240.3775598002883
 20
81.42376128039698
 10
240.303729244361
 20
81.32974073811714
 10
240.2307439407678
 20
81.23206861365261
 10
240.1586359032752
 20
81.13078774922525
 10
240.0874367608518
 20
81.02594256996964
 10
240.0171777437944
 20
80.91757906444644
 10
239.9478896700301
 20
80.80574476447067
 10
239.8796029315979
 20
80.6904887242625
 10
239.8123474813183
 20
80.57186149893038
 10
239.7461528196546
 20
80.449915122296
 10
239.681047981773
 20
80.32470308407054
 10
239.6170615248074
 20
80.19628030639223
 10
239.5542215153324
 20
80.06470311973579
 10
239.4925555170531
 20
79.93002923820395
 10
239.4320905787144
 20
79.79231773421222
 10
239.3728532222366
 20
79.65162901257754
 10
239.3148694310822
 20
79.50802478402316
 10
239.2581646388583
 20
79.36156803810977
 10
239.2027637181608
 20
79.21232301560664
 10
239.1486909696647
 20
79.06035518031321
 10
239.0959701114645
 20
78.90573119034461
 10
239.0446242686711
 20
78.74851886889323
 10
238.9946759632681
 20
78.58878717447919
 10
238.9461471042331
 20
78.42660617070281
 10
238.8990589779275
 20
78.26204699551249
 10
238.8534322387598
 20
78.09518183000119
 10
238.8092869001259
 20
77.92608386674548
 10
238.7666423256302
 20
77.75482727770077
 10
238.7255172205925
 20
77.58148718166708
 10
238.685929623843
 20
77.40613961133949
 10
238.6478968998103
 20
77.22886147995763
 10
238.6114357309038
 20
77.04973054756901
 10
238.5765621101975
 20
76.86882538692096
 10
238.5432913344139
 20
76.68622534899585
 10
238.5116379972149
 20
76.50201052820533
 10
238.4816159828004
 20
76.31626172725815
 10
238.453238459818
 20
76.12906042171745
 10
238.4265178755873
 20
75.94048872426293
 10
238.4014659506397
 20
75.75062934867344
 10
238.3780936735773
 20
75.55956557354598
 10
238.3564112962534
 20
75.36738120576713
 10
238.3364283292753
 20
75.17416054375224
 10
238.3181535378328
 20
74.97998834046973
 10
238.3015949378532
 20
74.78494976626544
 10
238.286759792486
 20
74.58913037150401
 10
238.273654608916
 20
74.39261604904398
 10
238.2622851355101
 20
74.19549299656198
 10
238.2526563592949
 20
73.99784767874381
 10
238.24477250377
 20
73.79976678935813
 10
238.2386370270549
 20
73.60133721322963
 10
238.2342526203726
 20
73.40264598812857
 10
238.2316212068686
 20
73.2037802665931
 10
238.230743940768
 20
73.00482727770121
 10
238.2316212068686
 20
72.80587428880934
 10
238.2342526203726
 20
72.60700856727385
 10
238.2386370270549
 20
72.40831734217279
 10
238.24477250377
 20
72.20988776604428
 10
238.2526563592949
 20
72.0118068766586
 10
238.2622851355101
 20
71.81416155884043
 10
238.273654608916
 20
71.61703850635842
 10
238.286759792486
 20
71.42052418389837
 10
238.3015949378532
 20
71.22470478913702
 10
238.3181535378328
 20
71.02966621493267
 10
238.3364283292753
 20
70.83549401165019
 10
238.3564112962534
 20
70.64227334963529
 10
238.3780936735773
 20
70.45008898185642
 10
238.4014659506397
 20
70.25902520672897
 10
238.4265178755873
 20
70.06916583113947
 10
238.453238459818
 20
69.88059413368496
 10
238.4816159828004
 20
69.69339282814427
 10
238.5116379972149
 20
69.50764402719709
 10
238.5432913344139
 20
69.32342920640657
 10
238.5765621101975
 20
69.14082916848146
 10
238.6114357309038
 20
68.95992400783339
 10
238.6478968998103
 20
68.78079307544479
 10
238.685929623843
 20
68.60351494406294
 10
238.7255172205925
 20
68.42816737373533
 10
238.7666423256302
 20
68.25482727770165
 10
238.8092869001259
 20
68.08357068865693
 10
238.8534322387599
 20
67.91447272540121
 10
238.8990589779275
 20
67.74760755988991
 10
238.9461471042331
 20
67.5830483846996
 10
238.9946759632681
 20
67.42086738092324
 10
239.0446242686711
 20
67.26113568650919
 10
239.0959701114645
 20
67.10392336505781
 10
239.1486909696647
 20
66.94929937508923
 10
239.2027637181608
 20
66.79733153979579
 10
239.2581646388583
 20
66.64808651729265
 10
239.3148694310822
 20
66.50162977137927
 10
239.3728532222366
 20
66.35802554282486
 10
239.4320905787144
 20
66.21733682119021
 10
239.4925555170531
 20
66.07962531719846
 10
239.5542215153324
 20
65.94495143566662
 10
239.6170615248074
 20
65.81337424901019
 10
239.6810479817731
 20
65.6849514713319
 10
239.7461528196546
 20
65.55973943310643
 10
239.8123474813183
 20
65.43779305647206
 10
239.8796029315979
 20
65.31916583113993
 10
239.9478896700301
 20
65.20390979093176
 10
240.0171777437944
 20
65.092075490956
 10
240.0874367608518
 20
64.98371198543281
 10
240.1586359032752
 20
64.87886680617716
 10
240.2307439407678
 20
64.77758594174982
 10
240.303729244361
 20
64.6799138172853
 10
240.3775598002883
 20
64.58589327500546
 10
240.452203224028
 20
64.49556555542759
 10
240.5276267745074
 20
64.40897027927483
 10
240.6037973684645
 20
64.32614543009733
 10
240.6806815949593
 20
64.24712733761129
 10
240.758245730029
 20
64.17195066176366
 10
240.8364557514804
 20
64.10064837752909
 10
240.9152773538134
 20
64.03325176044599
 10
240.9946759632679
 20
63.9697903728981
 10
241.0746167529898
 20
63.91029205114744
 10
241.1550646583066
 20
63.85478289312432
 10
241.2359843921082
 20
63.8032872469801
 10
241.317340460325
 20
63.75582770040707
 10
241.3990971774966
 20
63.71242507073094
 10
241.4812186824247
 20
63.67309839577954
 10
241.5636689539032
 20
63.63786492553231
 10
241.6464118265179
 20
63.60674011455372
 10
241.7294110065104
 20
63.57973761521456
 10
241.812630087697
 20
63.55686927170351
 10
241.8960325674383
 20
63.53814511483182
 10
241.9795818626503
 20
63.52357335763354
 10
242.0632413258509
 20
63.51316039176297
 10
242.1469742612341
 20
63.50691078469109
 10
242.2307439407676
 20
63.50482727770212
  0
LINE
  5
425
330
DBF
100
AcDbEntity
  8
LAYER0016
  6
Continuous
 62
     3
100
AcDbLine
 10
662.2307439407675
 20
113.0048272777012
 30
0.0
 11
635.0307439407672
 21
113.0048272777012
 31
0.0
  0
LINE
  5
426
330
DBF
100
AcDbEntity
  8
LAYER0016
  6
Continuous
 62
     3
100
AcDbLine
 10
242.2307439407675
 20
113.0048272777012
 30
0.0
 11
215.0307439407673
 21
113.0048272777012
 31
0.0
  0
LINE
  5
427
330
DBF
100
AcDbEntity
  8
LAYER0016
  6
Continuous
 62
     3
100
AcDbLine
 10
635.0307439407672
 20
113.0048272777012
 30
0.0
 11
635.0307439407672
 21
82.50482727770128
 31
0.0
  0
LINE
  5
428
330
DBF
100
AcDbEntity
  8
LAYER0016
  6
Continuous
 62
     3
100
AcDbLine
 10
635.0307439407672
 20
63.50482727770117
 30
0.0
 11
635.0307439407672
 21
-97.49517272229873
 31
0.0
  0
LINE
  5
429
330
DBF
100
AcDbEntity
  8
LAYER0016
  6
Continuous
 62
     3
100
AcDbLine
 10
635.0307439407672
 20
-116.4951727222989
 30
0.0
 11
635.0307439407672
 21
-287.4951727222988
 31
0.0
  0
LINE
  5
42A
330
DBF
100
AcDbEntity
  8
LAYER0016
  6
Continuous
 62
     3
100
AcDbLine
 10
635.0307439407672
 20
-306.495172722299
 30
0.0
 11
635.0307439407672
 21
-726.9951727222989
 31
0.0
  0
LINE
  5
42B
330
DBF
100
AcDbEntity
  8
LAYER0016
  6
Continuous
 62
     3
100
AcDbLine
 10
242.2307439407675
 20
-116.4951727222987
 30
0.0
 11
242.2307439407675
 21
-287.4951727222988
 31
0.0
  0
LINE
  5
42C
330
DBF
100
AcDbEntity
  8
LAYER0016
  6
Continuous
 62
     3
100
AcDbLine
 10
242.2307439407675
 20
63.50482727770134
 30
0.0
 11
242.2307439407675
 21
-97.49517272229873
 31
0.0
  0
LINE
  5
42D
330
DBF
100
AcDbEntity
  8
LAYER0016
  6
Continuous
 62
     3
100
AcDbLine
 10
662.2307439407675
 20
-726.9951727222989
 30
0.0
 11
635.0307439407672
 21
-726.9951727222989
 31
0.0
  0
LINE
  5
42E
330
DBF
100
AcDbEntity
  8
LAYER0016
  6
Continuous
 62
     3
100
AcDbLine
 10
242.2307439407675
 20
-726.9951727222989
 30
0.0
 11
215.0307439407673
 21
-726.9951727222989
 31
0.0
  0
LINE
  5
42F
330
DBF
100
AcDbEntity
  8
LAYER0016
  6
Continuous
 62
     3
100
AcDbLine
 10
220.169012367747
 20
113.0048272777012
 30
0.0
 11
192.9690123677472
 21
113.0048272777012
 31
0.0
  0
LINE
  5
430
330
DBF
100
AcDbEntity
  8
LAYER0016
  6
Continuous
 62
     3
100
AcDbLine
 10
220.169012367747
 20
-726.9951727222989
 30
0.0
 11
192.9690123677472
 21
-726.9951727222989
 31
0.0
  0
LINE
  5
431
330
DBF
100
AcDbEntity
  8
LAYER0016
  6
Continuous
 62
     3
100
AcDbLine
 10
220.169012367747
 20
-723.9951727222988
 30
0.0
 11
192.9690123677472
 21
-723.9951727222988
 31
0.0
  0
LINE
  5
432
330
DBF
100
AcDbEntity
  8
LAYER0016
  6
Continuous
 62
     3
100
AcDbLine
 10
242.2307439407675
 20
-723.9951727222988
 30
0.0
 11
215.0307439407673
 21
-723.9951727222988
 31
0.0
  0
LINE
  5
433
330
DBF
100
AcDbEntity
  8
LAYER0016
  6
Continuous
 62
     3
100
AcDbLine
 10
662.2307439407675
 20
-723.9951727222988
 30
0.0
 11
635.0307439407672
 21
-723.9951727222988
 31
0.0
  0
LINE
  5
434
330
DBF
100
AcDbEntity
  8
LAYER0016
  6
Continuous
 62
     3
100
AcDbLine
 10
242.2307439407675
 20
113.0048272777012
 30
0.0
 11
242.2307439407675
 21
86.63713733202627
 31
0.0
  0
LINE
  5
435
330
DBF
100
AcDbEntity
  8
LAYER0016
  6
Continuous
 62
     3
100
AcDbLine
 10
192.9690123677472
 20
113.0048272777012
 30
0.0
 11
192.9690123677472
 21
86.38072707561605
 31
0.0
  0
LINE
  5
436
330
DBF
100
AcDbEntity
  8
LAYER0016
  6
Continuous
 62
     3
100
AcDbLine
 10
215.0307439407673
 20
113.0048272777012
 30
0.0
 11
215.0307439407673
 21
84.63713733202643
 31
0.0
  0
LINE
  5
437
330
DBF
100
AcDbEntity
  8
LAYER0016
  6
Continuous
 62
     3
100
AcDbLine
 10
242.2307439407675
 20
-306.4951727222988
 30
0.0
 11
242.2307439407675
 21
-694.8628626679739
 31
0.0
  0
LINE
  5
438
330
DBF
100
AcDbEntity
  8
LAYER0016
  6
Continuous
 62
     3
100
AcDbLine
 10
242.2307439407675
 20
-698.8710725202138
 30
0.0
 11
242.2307439407675
 21
-726.9951727222989
 31
0.0
  0
LINE
  5
439
330
DBF
100
AcDbEntity
  8
LAYER0016
  6
Continuous
 62
     3
100
AcDbLine
 10
215.0307439407673
 20
80.62892747978672
 30
0.0
 11
215.0307439407673
 21
-696.8628626679738
 31
0.0
  0
LINE
  5
43A
330
DBF
100
AcDbEntity
  8
LAYER0016
  6
Continuous
 62
     3
100
AcDbLine
 10
215.0307439407673
 20
-700.8710725202135
 30
0.0
 11
215.0307439407673
 21
-726.9951727222989
 31
0.0
  0
LINE
  5
43B
330
DBF
100
AcDbEntity
  8
LAYER0016
  6
Continuous
 62
     3
100
AcDbLine
 10
192.9690123677472
 20
-699.1274827766241
 30
0.0
 11
192.9690123677472
 21
-726.9951727222989
 31
0.0
  0
LINE
  5
43C
330
DBF
100
AcDbEntity
  8
LAYER0016
  6
Continuous
 62
     3
100
AcDbLine
 10
192.9690123677472
 20
82.3725172233763
 30
0.0
 11
192.9690123677472
 21
-695.1192729243842
 31
0.0
  0
ARC
  5
43D
330
DBF
100
AcDbEntity
  8
LAYER0016
  6
Continuous
 62
     3
100
AcDbCircle
 10
190.9690123677472
 20
-696.9951727222989
 30
0.0
 40
2.0
100
AcDbArc
 50
93.66778805553169
 51
273.6677880555314
  0
LINE
  5
43E
330
DBF
100
AcDbEntity
  8
LAYER0016
  6
Continuous
 62
     3
100
AcDbLine
 10
212.9028014098806
 20
-696.9992692404664
 30
0.0
 11
223.6772954514774
 21
-696.3085965454922
 31
0.0
  0
LINE
  5
43F
330
DBF
100
AcDbEntity
  8
LAYER0016
  6
Continuous
 62
     3
100
AcDbLine
 10
223.6772954514774
 20
-696.3085965454922
 30
0.0
 11
244.1028014098808
 21
-694.9992692404664
 31
0.0
  0
ARC
  5
440
330
DBF
100
AcDbEntity
  8
LAYER0016
  6
Continuous
 62
     3
100
AcDbCircle
 10
244.2307439407675
 20
-696.9951727222989
 30
0.0
 40
2.0
100
AcDbArc
 50
273.6677880555312
 51
93.66778805553151
  0
LINE
  5
441
330
DBF
100
AcDbEntity
  8
LAYER0016
  6
Continuous
 62
     3
100
AcDbLine
 10
220.169012367747
 20
-700.5416963389968
 30
0.0
 11
244.3586864716542
 21
-698.9910762041313
 31
0.0
  0
LINE
  5
442
330
DBF
100
AcDbEntity
  8
LAYER0016
  6
Continuous
 62
     3
100
AcDbLine
 10
213.1586864716539
 20
-700.9910762041308
 30
0.0
 11
220.169012367747
 21
-700.5416963389968
 31
0.0
  0
ARC
  5
443
330
DBF
100
AcDbEntity
  8
LAYER0016
  6
Continuous
 62
     3
100
AcDbCircle
 10
213.0307439407673
 20
-698.9951727222988
 30
0.0
 40
2.0
100
AcDbArc
 50
88.47986600294273
 51
273.6677880555313
  0
LINE
  5
444
330
DBF
100
AcDbEntity
  8
LAYER0016
  6
Continuous
 62
     3
100
AcDbLine
 10
215.0307439407673
 20
-693.4486491056008
 30
0.0
 11
190.8410698368605
 21
-694.9992692404664
 31
0.0
  0
LINE
  5
445
330
DBF
100
AcDbEntity
  8
LAYER0016
  6
Continuous
 62
     3
100
AcDbLine
 10
191.0969548986338
 20
-698.9910762041313
 30
0.0
 11
211.5224608570368
 21
-697.6817488991054
 31
0.0
  0
ARC
  5
446
330
DBF
100
AcDbEntity
  8
LAYER0016
  6
Continuous
 62
     3
100
AcDbCircle
 10
190.9690123677472
 20
84.50482727770127
 30
0.0
 40
2.0
100
AcDbArc
 50
93.66778805553169
 51
273.6677880555314
  0
LINE
  5
447
330
DBF
100
AcDbEntity
  8
LAYER0016
  6
Continuous
 62
     3
100
AcDbLine
 10
215.0307439407673
 20
88.05135089439948
 30
0.0
 11
190.8410698368605
 21
86.50073075953361
 31
0.0
  0
LINE
  5
448
330
DBF
100
AcDbEntity
  8
LAYER0016
  6
Continuous
 62
     3
100
AcDbLine
 10
191.0969548986338
 20
82.50892379586895
 30
0.0
 11
211.5224608570368
 21
83.81825110089478
 31
0.0
  0
LINE
  5
449
330
DBF
100
AcDbEntity
  8
LAYER0016
  6
Continuous
 62
     3
100
AcDbLine
 10
212.9028014098806
 20
84.50073075953374
 30
0.0
 11
223.6772954514774
 21
85.19140345450791
 31
0.0
  0
ARC
  5
44A
330
DBF
100
AcDbEntity
  8
LAYER0016
  6
Continuous
 62
     3
100
AcDbCircle
 10
213.0307439407673
 20
82.50482727770151
 30
0.0
 40
2.0
100
AcDbArc
 50
88.47986600294273
 51
273.6677880555313
  0
LINE
  5
44B
330
DBF
100
AcDbEntity
  8
LAYER0016
  6
Continuous
 62
     3
100
AcDbLine
 10
213.1586864716539
 20
80.5089237958693
 30
0.0
 11
220.169012367747
 21
80.95830366100329
 31
0.0
  0
LINE
  5
44C
330
DBF
100
AcDbEntity
  8
LAYER0016
  6
Continuous
 62
     3
100
AcDbLine
 10
220.169012367747
 20
80.95830366100329
 30
0.0
 11
244.3586864716542
 21
82.50892379586895
 31
0.0
  0
LINE
  5
44D
330
DBF
100
AcDbEntity
  8
LAYER0016
  6
Continuous
 62
     3
100
AcDbLine
 10
223.6772954514774
 20
85.19140345450791
 30
0.0
 11
244.1028014098808
 21
86.50073075953361
 31
0.0
  0
ARC
  5
44E
330
DBF
100
AcDbEntity
  8
LAYER0016
  6
Continuous
 62
     3
100
AcDbCircle
 10
244.2307439407675
 20
84.50482727770127
 30
0.0
 40
2.0
100
AcDbArc
 50
273.6677880555312
 51
93.66778805553151
  0
CIRCLE
  5
44F
330
DBF
100
AcDbEntity
  8
LAYER0016
  6
Continuous
 62
     3
100
AcDbCircle
 10
-422.3001994894415
 20
1046.708166397239
 30
0.0
 40
13.6
  0
LINE
  5
450
330
DBF
100
AcDbEntity
  8
LAYER0016
  6
CENTER
 62
     9
100
AcDbLine
 10
-864.3619310624623
 20
131.3320944338334
 30
0.0
 11
-864.3619310624623
 21
-760.0866669264616
 31
0.0
  0
LINE
  5
451
330
DBF
100
AcDbEntity
  8
LAYER0016
  6
CENTER
 62
     9
100
AcDbLine
 10
-444.3619310624621
 20
131.3320944338334
 30
0.0
 11
-444.3619310624621
 21
-760.0866669264616
 31
0.0
  0
LINE
  5
452
330
DBF
100
AcDbEntity
  8
LAYER0016
  6
CENTER
 62
     9
100
AcDbLine
 10
-908.3049901875638
 20
-296.9951727222989
 30
0.0
 11
-378.2169874833972
 21
-296.9951727222989
 31
0.0
  0
LINE
  5
453
330
DBF
100
AcDbEntity
  8
LAYER0016
  6
CENTER
 62
     9
100
AcDbLine
 10
-908.3049901875638
 20
-106.9951727222988
 30
0.0
 11
-378.2169874833972
 21
-106.9951727222988
 31
0.0
  0
LINE
  5
454
330
DBF
100
AcDbEntity
  8
LAYER0016
  6
CENTER
 62
     9
100
AcDbLine
 10
-908.3049901875638
 20
73.00482727770115
 30
0.0
 11
-378.2169874833972
 21
73.00482727770115
 31
0.0
  0
LINE
  5
455
330
DBF
100
AcDbEntity
  8
LAYER0016
  6
CENTER
 62
     9
100
AcDbLine
 10
-422.3001994894415
 20
131.3320944338336
 30
0.0
 11
-422.3001994894415
 21
-760.0866669264616
 31
0.0
  0
LINE
  5
456
330
DBF
100
AcDbEntity
  8
LAYER0016
  6
CENTER
 62
     9
100
AcDbLine
 10
-449.4018663125753
 20
626.708166397239
 30
0.0
 11
-398.417375339131
 21
626.708166397239
 31
0.0
  0
LINE
  5
457
330
DBF
100
AcDbEntity
  8
LAYER0016
  6
CENTER
 62
     9
100
AcDbLine
 10
-449.4018663125753
 20
1046.708166397239
 30
0.0
 11
-398.417375339131
 21
1046.708166397239
 31
0.0
  0
LINE
  5
458
330
DBF
100
AcDbEntity
  8
LAYER0016
  6
CENTER
 62
     9
100
AcDbLine
 10
-898.0589337619713
 20
604.6464348242189
 30
0.0
 11
-411.0691406707969
 21
604.6464348242189
 31
0.0
  0
LINE
  5
459
330
DBF
100
AcDbEntity
  8
LAYER0016
  6
CENTER
 62
     9
100
AcDbLine
 10
-444.3619310624621
 20
577.5447680010857
 30
0.0
 11
-444.3619310624621
 21
628.5292589745297
 31
0.0
  0
LINE
  5
45A
330
DBF
100
AcDbEntity
  8
LAYER0016
  6
CENTER
 62
     9
100
AcDbLine
 10
-864.3619310624623
 20
577.5447680010857
 30
0.0
 11
-864.3619310624623
 21
628.5292589745297
 31
0.0
  0
LINE
  5
45B
330
DBF
100
AcDbEntity
  8
LAYER0016
  6
CENTER
 62
     9
100
AcDbLine
 10
-464.9519010741204
 20
84.50482727770145
 30
0.0
 11
-389.8680234962649
 21
84.50482727770145
 31
0.0
  0
LINE
  5
45C
330
DBF
100
AcDbEntity
  8
LAYER0016
  6
CENTER
 62
     9
100
AcDbLine
 10
-464.9519010741204
 20
-696.9951727222987
 30
0.0
 11
-389.8680234962649
 21
-696.9951727222987
 31
0.0
  0
LINE
  5
45D
330
DBF
100
AcDbEntity
  8
LAYER0016
  6
CENTER
 62
     9
100
AcDbLine
 10
648.6307439407672
 20
131.3320944338334
 30
0.0
 11
648.6307439407672
 21
-760.0866669264616
 31
0.0
  0
LINE
  5
45E
330
DBF
100
AcDbEntity
  8
LAYER0016
  6
CENTER
 62
     9
100
AcDbLine
 10
228.6307439407671
 20
131.3320944338334
 30
0.0
 11
228.6307439407671
 21
-760.0866669264616
 31
0.0
  0
LINE
  5
45F
330
DBF
100
AcDbEntity
  8
LAYER0016
  6
CENTER
 62
     9
100
AcDbLine
 10
692.5738030658687
 20
-296.9951727222989
 30
0.0
 11
162.4858003617026
 21
-296.9951727222989
 31
0.0
  0
LINE
  5
460
330
DBF
100
AcDbEntity
  8
LAYER0016
  6
CENTER
 62
     9
100
AcDbLine
 10
692.5738030658687
 20
-106.9951727222988
 30
0.0
 11
162.4858003617026
 21
-106.9951727222988
 31
0.0
  0
LINE
  5
461
330
DBF
100
AcDbEntity
  8
LAYER0016
  6
CENTER
 62
     9
100
AcDbLine
 10
692.5738030658687
 20
73.00482727770115
 30
0.0
 11
162.4858003617026
 21
73.00482727770115
 31
0.0
  0
LINE
  5
462
330
DBF
100
AcDbEntity
  8
LAYER0016
  6
CENTER
 62
     9
100
AcDbLine
 10
206.569012367747
 20
131.3320944338336
 30
0.0
 11
206.569012367747
 21
-760.0866669264616
 31
0.0
  0
LINE
  5
463
330
DBF
100
AcDbEntity
  8
LAYER0016
  6
CENTER
 62
     9
100
AcDbLine
 10
249.2207139524255
 20
84.50482727770145
 30
0.0
 11
174.1368363745698
 21
84.50482727770145
 31
0.0
  0
LINE
  5
464
330
DBF
100
AcDbEntity
  8
LAYER0016
  6
CENTER
 62
     9
100
AcDbLine
 10
249.2207139524255
 20
-696.9951727222987
 30
0.0
 11
174.1368363745698
 21
-696.9951727222987
 31
0.0
  0
LINE
  5
465
330
DBF
100
AcDbEntity
  8
LAYER0016
  6
CENTER
 62
     9
100
AcDbLine
 10
-422.3001994894415
 20
1080.405169096748
 30
0.0
 11
-422.3001994894415
 21
593.4153760055742
 31
0.0
  0
LINE
  5
466
330
DBF
100
AcDbEntity
  8
LAYER0016
  6
DASHED2
 62
     2
100
AcDbLine
 10
-435.9001994894415
 20
113.0048272777012
 30
0.0
 11
-435.9001994894415
 21
-726.9951727222989
 31
0.0
  0
CIRCLE
  5
467
330
DBF
100
AcDbEntity
  8
LAYER0016
  6
DASHED2
 62
     2
100
AcDbCircle
 10
-422.3001994894415
 20
73.00482727770115
 30
0.0
 40
9.5
  0
CIRCLE
  5
468
330
DBF
100
AcDbEntity
  8
LAYER0016
  6
DASHED2
 62
     2
100
AcDbCircle
 10
-422.3001994894415
 20
-106.9951727222988
 30
0.0
 40
9.5
  0
CIRCLE
  5
469
330
DBF
100
AcDbEntity
  8
LAYER0016
  6
DASHED2
 62
     2
100
AcDbCircle
 10
-422.3001994894415
 20
-296.9951727222989
 30
0.0
 40
9.5
  0
ARC
  5
46A
330
DBF
100
AcDbEntity
  8
LAYER0016
  6
DASHED2
 62
     2
100
AcDbCircle
 10
-437.9001994894418
 20
82.50482727770146
 30
0.0
 40
2.0
100
AcDbArc
 50
88.47986600294273
 51
273.6677880555313
  0
ARC
  5
46B
330
DBF
100
AcDbEntity
  8
LAYER0016
  6
DASHED2
 62
     2
100
AcDbCircle
 10
-437.9001994894418
 20
-698.9951727222988
 30
0.0
 40
2.0
100
AcDbArc
 50
88.47986600294273
 51
273.6677880555313
  0
LINE
  5
46C
330
DBF
100
AcDbEntity
  8
LAYER0016
  6
DASHED2
 62
     2
100
AcDbLine
 10
-438.0281420203282
 20
84.50073075953367
 30
0.0
 11
-427.2536479787318
 21
85.19140345450779
 31
0.0
  0
LINE
  5
46D
330
DBF
100
AcDbEntity
  8
LAYER0016
  6
DASHED2
 62
     2
100
AcDbLine
 10
-437.7722569585553
 20
80.50892379586906
 30
0.0
 11
-430.7619310624623
 21
80.95830366100324
 31
0.0
  0
LINE
  5
46E
330
DBF
100
AcDbEntity
  8
LAYER0016
  6
DASHED2
 62
     2
100
AcDbLine
 10
-438.0281420203282
 20
-696.9992692404664
 30
0.0
 11
-427.2536479787314
 21
-696.3085965454922
 31
0.0
  0
LINE
  5
46F
330
DBF
100
AcDbEntity
  8
LAYER0016
  6
DASHED2
 62
     2
100
AcDbLine
 10
-437.7722569585553
 20
-700.9910762041308
 30
0.0
 11
-430.7619310624623
 21
-700.5416963389968
 31
0.0
  0
ARC
  5
470
330
DBF
100
AcDbEntity
  8
LAYER0016
  6
DASHED2
 62
     2
100
AcDbCircle
 10
-422.3001994894415
 20
626.708166397239
 30
0.0
 40
17.60000000000014
100
AcDbArc
 50
197.4198007964118
 51
252.5801992035882
  0
LINE
  5
471
330
DBF
100
AcDbEntity
  8
LAYER0016
  6
DASHED2
 62
     2
100
AcDbLine
 10
-459.1778009323011
 20
614.1464348242188
 30
0.0
 11
-454.0938373505433
 21
614.1464348242188
 31
0.0
  0
LINE
  5
472
330
DBF
100
AcDbEntity
  8
LAYER0016
  6
DASHED2
 62
     2
100
AcDbLine
 10
-459.1778009323011
 20
595.1464348242189
 30
0.0
 11
-454.0938373505433
 21
595.1464348242189
 31
0.0
  0
LINE
  5
473
330
DBF
100
AcDbEntity
  8
LAYER0016
  6
DASHED2
 62
     2
100
AcDbLine
 10
-431.8001994894421
 20
641.5240362670792
 30
0.0
 11
-431.8001994894421
 21
636.4400726853217
 31
0.0
  0
LINE
  5
474
330
DBF
100
AcDbEntity
  8
LAYER0016
  6
DASHED2
 62
     2
100
AcDbLine
 10
-412.8001994894415
 20
641.5240362670792
 30
0.0
 11
-412.8001994894415
 21
636.4400726853217
 31
0.0
  0
LINE
  5
475
330
DBF
100
AcDbEntity
  8
LAYER0016
  6
DASHED2
 62
     2
100
AcDbLine
 10
-457.9619310624621
 20
86.63713733202627
 30
0.0
 11
-457.9619310624621
 21
82.50482727770128
 31
0.0
  0
LINE
  5
476
330
DBF
100
AcDbEntity
  8
LAYER0016
  6
DASHED2
 62
     2
100
AcDbLine
 10
-408.7001994894416
 20
86.38072707561605
 30
0.0
 11
-408.7001994894416
 21
82.3725172233763
 31
0.0
  0
LINE
  5
477
330
DBF
100
AcDbEntity
  8
LAYER0016
  6
DASHED2
 62
     2
100
AcDbLine
 10
-430.7619310624623
 20
88.38072707561611
 30
0.0
 11
-430.7619310624623
 21
84.37251722337629
 31
0.0
  0
LINE
  5
478
330
DBF
100
AcDbEntity
  8
LAYER0016
  6
DASHED2
 62
     2
100
AcDbLine
 10
-457.9619310624621
 20
-694.8628626679739
 30
0.0
 11
-457.9619310624621
 21
-698.8710725202138
 31
0.0
  0
LINE
  5
479
330
DBF
100
AcDbEntity
  8
LAYER0016
  6
DASHED2
 62
     2
100
AcDbLine
 10
-430.7619310624623
 20
-693.1192729243841
 30
0.0
 11
-430.7619310624623
 21
-697.1274827766237
 31
0.0
  0
LINE
  5
47A
330
DBF
100
AcDbEntity
  8
LAYER0016
  6
DASHED2
 62
     2
100
AcDbLine
 10
-408.7001994894416
 20
-695.1192729243842
 30
0.0
 11
-408.7001994894416
 21
-699.1274827766241
 31
0.0
  0
LINE
  5
47B
330
DBF
100
AcDbEntity
  8
LAYER0016
  6
DASHED2
 62
     2
100
AcDbLine
 10
220.169012367747
 20
113.0048272777012
 30
0.0
 11
220.169012367747
 21
-726.9951727222989
 31
0.0
  0
CIRCLE
  5
47C
330
DBF
100
AcDbEntity
  8
LAYER0016
  6
DASHED2
 62
     2
100
AcDbCircle
 10
206.569012367747
 20
73.00482727770115
 30
0.0
 40
9.5
  0
CIRCLE
  5
47D
330
DBF
100
AcDbEntity
  8
LAYER0016
  6
DASHED2
 62
     2
100
AcDbCircle
 10
206.569012367747
 20
-106.9951727222988
 30
0.0
 40
9.5
  0
CIRCLE
  5
47E
330
DBF
100
AcDbEntity
  8
LAYER0016
  6
DASHED2
 62
     2
100
AcDbCircle
 10
206.569012367747
 20
-296.9951727222989
 30
0.0
 40
9.5
  0
LINE
  5
47F
330
DBF
100
AcDbEntity
  8
LAYER0016
  6
DASHED2
 62
     2
100
AcDbLine
 10
242.2307439407675
 20
86.63713733202627
 30
0.0
 11
242.2307439407675
 21
82.50482727770128
 31
0.0
  0
LINE
  5
480
330
DBF
100
AcDbEntity
  8
LAYER0016
  6
DASHED2
 62
     2
100
AcDbLine
 10
192.9690123677472
 20
86.38072707561605
 30
0.0
 11
192.9690123677472
 21
82.3725172233763
 31
0.0
  0
LINE
  5
481
330
DBF
100
AcDbEntity
  8
LAYER0016
  6
DASHED2
 62
     2
100
AcDbLine
 10
215.0307439407673
 20
84.63713733202643
 30
0.0
 11
215.0307439407673
 21
80.62892747978672
 31
0.0
  0
LINE
  5
482
330
DBF
100
AcDbEntity
  8
LAYER0016
  6
DASHED2
 62
     2
100
AcDbLine
 10
242.2307439407675
 20
-694.8628626679739
 30
0.0
 11
242.2307439407675
 21
-698.8710725202138
 31
0.0
  0
LINE
  5
483
330
DBF
100
AcDbEntity
  8
LAYER0016
  6
DASHED2
 62
     2
100
AcDbLine
 10
215.0307439407673
 20
-696.8628626679738
 30
0.0
 11
215.0307439407673
 21
-700.8710725202135
 31
0.0
  0
LINE
  5
484
330
DBF
100
AcDbEntity
  8
LAYER0016
  6
DASHED2
 62
     2
100
AcDbLine
 10
192.9690123677472
 20
-695.1192729243842
 30
0.0
 11
192.9690123677472
 21
-699.1274827766241
 31
0.0
  0
ARC
  5
485
330
DBF
100
AcDbEntity
  8
LAYER0016
  6
DASHED2
 62
     2
100
AcDbCircle
 10
222.169012367747
 20
-694.9951727222988
 30
0.0
 40
2.0
100
AcDbArc
 50
268.4798660029425
 51
93.66778805553158
  0
LINE
  5
486
330
DBF
100
AcDbEntity
  8
LAYER0016
  6
DASHED2
 62
     2
100
AcDbLine
 10
222.0410698368603
 20
-692.9992692404664
 30
0.0
 11
215.0307439407673
 21
-693.4486491056008
 31
0.0
  0
LINE
  5
487
330
DBF
100
AcDbEntity
  8
LAYER0016
  6
DASHED2
 62
     2
100
AcDbLine
 10
211.5224608570368
 20
-697.6817488991054
 30
0.0
 11
222.2969548986337
 21
-696.9910762041313
 31
0.0
  0
LINE
  5
488
330
DBF
100
AcDbEntity
  8
LAYER0016
  6
DASHED2
 62
     2
100
AcDbLine
 10
222.0410698368603
 20
88.50073075953361
 30
0.0
 11
215.0307439407673
 21
88.05135089439948
 31
0.0
  0
ARC
  5
489
330
DBF
100
AcDbEntity
  8
LAYER0016
  6
DASHED2
 62
     2
100
AcDbCircle
 10
222.169012367747
 20
86.50482727770128
 30
0.0
 40
2.0
100
AcDbArc
 50
268.4798660029425
 51
93.66778805553158
  0
LINE
  5
48A
330
DBF
100
AcDbEntity
  8
LAYER0016
  6
DASHED2
 62
     2
100
AcDbLine
 10
211.5224608570368
 20
83.81825110089478
 30
0.0
 11
222.2969548986337
 21
84.50892379586894
 31
0.0
  0
DIMENSION
  5
48B
330
DBF
100
AcDbEntity
  8
LAYER0016
  6
Continuous
100
AcDbDimension
  2
*D10
 10
-444.3619310624621
 20
313.0048272777012
 30
0.0
 11
-654.3619310624621
 21
313.0048272777012
 31
0.0
 70
   160
 71
     5
 42
-1.0
 73
     0
 74
     0
 75
     0
  3
DC_ROTATED
100
AcDbAlignedDimension
 13
-864.3619310624623
 23
131.3320944338334
 33
0.0
 14
-444.3619310624621
 24
131.3320944338334
 34
0.0
100
AcDbRotatedDimension
1001
ACAD
1000
DSTYLE
1002
{
1070
     7
1000
OPEN30
1070
     6
1000
OPEN30
1070
   274
1070
     4
1070
    41
1040
24.00001525878906
1070
    79
1070
     2
1070
   176
1070
     9
1070
   177
1070
     9
1070
   178
1070
     7
1070
    44
1040
8.0
1070
    42
1040
8.0
1070
   147
1040
8.0
1070
   173
1070
     1
1070
    77
1070
     3
1070
    73
1070
     0
1070
   172
1070
     1
1070
    74
1070
     0
1070
   283
1070
     0
1070
   340
1005
10E
1070
   140
1040
32.0
1070
   284
1070
     8
1070
   288
1070
     1
1070
    78
1070
     8
1070
    90
1070
     1
1002
}
  0
DIMENSION
  5
48E
330
DBF
100
AcDbEntity
  8
LAYER0016
  6
Continuous
100
AcDbDimension
  2
*D13
 10
-1077.961931062462
 20
-296.9951727222989
 30
0.0
 11
-1077.961931062462
 21
-511.9951727222988
 31
0.0
 70
   160
 71
     5
 42
-1.0
 73
     0
 74
     0
 75
     0
  3
DC_ROTATED
100
AcDbAlignedDimension
 13
-877.9619310624623
 23
-726.9951727222989
 33
0.0
 14
-908.3049901875638
 24
-296.9951727222989
 34
0.0
 50
90.0
100
AcDbRotatedDimension
1001
ACAD
1000
DSTYLE
1002
{
1070
     7
1000
OPEN30
1070
     6
1000
OPEN30
1070
   274
1070
     4
1070
    41
1040
24.00001525878906
1070
    79
1070
     2
1070
   176
1070
     9
1070
   177
1070
     9
1070
   178
1070
     7
1070
    44
1040
8.0
1070
    42
1040
8.0
1070
   147
1040
8.0
1070
   173
1070
     1
1070
    77
1070
     3
1070
    73
1070
     0
1070
   172
1070
     1
1070
    74
1070
     0
1070
   283
1070
     0
1070
   340
1005
10E
1070
   140
1040
32.0
1070
   284
1070
     8
1070
   288
1070
     1
1070
    78
1070
     8
1070
    90
1070
     1
1002
}
  0
DIMENSION
  5
48F
330
DBF
100
AcDbEntity
  8
LAYER0016
  6
Continuous
100
AcDbDimension
  2
*D14
 10
-1077.961931062462
 20
-106.9951727222988
 30
0.0
 11
-1077.961931062462
 21
-201.9951727222989
 31
0.0
 70
   160
 71
     5
 42
-1.0
 73
     0
 74
     0
 75
     0
  3
DC_ROTATED
100
AcDbAlignedDimension
 13
-908.3049901875638
 23
-296.9951727222989
 33
0.0
 14
-908.3049901875638
 24
-106.9951727222988
 34
0.0
 50
90.0
100
AcDbRotatedDimension
1001
ACAD
1000
DSTYLE
1002
{
1070
     7
1000
OPEN30
1070
     6
1000
OPEN30
1070
   274
1070
     4
1070
    41
1040
24.00001525878906
1070
    79
1070
     2
1070
   176
1070
     9
1070
   177
1070
     9
1070
   178
1070
     7
1070
    44
1040
8.0
1070
    42
1040
8.0
1070
   147
1040
8.0
1070
   173
1070
     1
1070
    77
1070
     3
1070
    73
1070
     0
1070
   172
1070
     1
1070
    74
1070
     0
1070
   283
1070
     0
1070
   340
1005
10E
1070
   140
1040
32.0
1070
   284
1070
     8
1070
   288
1070
     1
1070
    78
1070
     8
1070
    90
1070
     1
1002
}
  0
DIMENSION
  5
490
330
DBF
100
AcDbEntity
  8
LAYER0016
  6
Continuous
100
AcDbDimension
  2
*D15
 10
-1077.961931062462
 20
73.00482727770118
 30
0.0
 11
-1077.961931062462
 21
-16.99517272229882
 31
0.0
 70
   160
 71
     5
 42
-1.0
 73
     0
 74
     0
 75
     0
  3
DC_ROTATED
100
AcDbAlignedDimension
 13
-908.3049901875638
 23
-106.9951727222988
 33
0.0
 14
-908.3049901875638
 24
73.00482727770115
 34
0.0
 50
90.0
100
AcDbRotatedDimension
1001
ACAD
1000
DSTYLE
1002
{
1070
     7
1000
OPEN30
1070
     6
1000
OPEN30
1070
   274
1070
     4
1070
    41
1040
24.00001525878906
1070
    79
1070
     2
1070
   176
1070
     9
1070
   177
1070
     9
1070
   178
1070
     7
1070
    44
1040
8.0
1070
    42
1040
8.0
1070
   147
1040
8.0
1070
   173
1070
     1
1070
    77
1070
     3
1070
    73
1070
     0
1070
   172
1070
     1
1070
    74
1070
     0
1070
   283
1070
     0
1070
   340
1005
10E
1070
   140
1040
32.0
1070
   284
1070
     8
1070
   288
1070
     1
1070
    78
1070
     8
1070
    90
1070
     1
1002
}
  0
DIMENSION
  5
491
330
DBF
100
AcDbEntity
  8
LAYER0016
  6
Continuous
100
AcDbDimension
  2
*D16
 10
-1077.961931062462
 20
113.0048272777012
 30
0.0
 11
-1077.961931062462
 21
169.7870672777012
 31
0.0
 70
   160
 71
     5
 42
-1.0
 73
     0
 74
     0
 75
     0
  3
DC_ROTATED
100
AcDbAlignedDimension
 13
-908.3049901875638
 23
73.00482727770115
 33
0.0
 14
-877.9619310624623
 24
113.0048272777012
 34
0.0
 50
90.0
100
AcDbRotatedDimension
1001
ACAD
1000
DSTYLE
1002
{
1070
     7
1000
OPEN30
1070
     6
1000
OPEN30
1070
   274
1070
     4
1070
    41
1040
24.00001525878906
1070
    79
1070
     2
1070
   176
1070
     9
1070
   177
1070
     9
1070
   178
1070
     7
1070
    44
1040
8.0
1070
    42
1040
8.0
1070
   147
1040
8.0
1070
   173
1070
     1
1070
    77
1070
     3
1070
    73
1070
     0
1070
   172
1070
     1
1070
    74
1070
     0
1070
   283
1070
     0
1070
   340
1005
10E
1070
   140
1040
32.0
1070
   284
1070
     8
1070
   288
1070
     1
1070
    78
1070
     8
1070
    90
1070
     1
1002
}
  0
DIMENSION
  5
492
330
DBF
100
AcDbEntity
  8
LAYER0016
  6
Continuous
100
AcDbDimension
  2
*D17
 10
-1157.961931062462
 20
113.0048272777012
 30
0.0
 11
-1157.961931062462
 21
-306.9951727222989
 31
0.0
 70
   160
 71
     5
 42
-1.0
 73
     0
 74
     0
 75
     0
  3
DC_ROTATED
100
AcDbAlignedDimension
 13
-877.9619310624623
 23
-726.9951727222989
 33
0.0
 14
-877.9619310624623
 24
113.0048272777012
 34
0.0
 50
90.0
100
AcDbRotatedDimension
1001
ACAD
1000
DSTYLE
1002
{
1070
     7
1000
OPEN30
1070
     6
1000
OPEN30
1070
   274
1070
     4
1070
    41
1040
24.00001525878906
1070
    79
1070
     2
1070
   176
1070
     9
1070
   177
1070
     9
1070
   178
1070
     7
1070
    44
1040
8.0
1070
    42
1040
8.0
1070
   147
1040
8.0
1070
   173
1070
     1
1070
    77
1070
     3
1070
    73
1070
     0
1070
   172
1070
     1
1070
    74
1070
     0
1070
   283
1070
     0
1070
   340
1005
10E
1070
   140
1040
32.0
1070
   284
1070
     8
1070
   288
1070
     1
1070
    78
1070
     8
1070
    90
1070
     1
1002
}
  0
DIMENSION
  5
494
330
DBF
100
AcDbEntity
  8
LAYER0016
  6
Continuous
100
AcDbDimension
  2
*D19
 10
-430.7619310624623
 20
393.0048272777012
 30
0.0
 11
-654.3619310624621
 21
393.0048272777012
 31
0.0
 70
   160
  1
(<>)
 71
     5
 42
-1.0
 73
     0
 74
     0
 75
     0
  3
DC_ROTATED
100
AcDbAlignedDimension
 13
-877.9619310624623
 23
113.0048272777012
 33
0.0
 14
-430.7619310624623
 24
113.0048272777012
 34
0.0
100
AcDbRotatedDimension
1001
ACAD
1000
DSTYLE
1002
{
1070
     7
1000
OPEN30
1070
     6
1000
OPEN30
1070
   274
1070
     4
1070
    41
1040
24.00001525878906
1070
    79
1070
     2
1070
   176
1070
     9
1070
   177
1070
     9
1070
   178
1070
     7
1070
    44
1040
8.0
1070
    42
1040
8.0
1070
   147
1040
8.0
1070
   173
1070
     1
1070
    77
1070
     3
1070
    73
1070
     0
1070
   172
1070
     1
1070
    74
1070
     0
1070
   283
1070
     0
1070
   340
1005
10E
1070
   140
1040
32.0
1070
   284
1070
     8
1070
   288
1070
     1
1070
    78
1070
     8
1070
    90
1070
     1
1002
}
  0
INSERT
  5
495
330
DBF
100
AcDbEntity
  8
LAYER0016
  6
Continuous
100
AcDbBlockReference
  2
DA_IMAGEDIMGROUP_2
 10
0.0
 20
0.0
 30
0.0
  0
INSERT
  5
496
330
DBF
100
AcDbEntity
  8
LAYER0016
  6
Continuous
100
AcDbBlockReference
  2
DA_IMAGEDIMGROUP_3
 10
0.0
 20
0.0
 30
0.0
  0
DIMENSION
  5
498
330
DBF
100
AcDbEntity
  8
LAYER0016
  6
Continuous
100
AcDbDimension
  2
*D24
 10
648.6307439407672
 20
313.0048272777012
 30
0.0
 11
438.6307439407672
 21
313.0048272777012
 31
0.0
 70
   160
 71
     5
 42
-1.0
 73
     0
 74
     0
 75
     0
  3
DC_ROTATED
100
AcDbAlignedDimension
 13
228.6307439407671
 23
131.3320944338334
 33
0.0
 14
648.6307439407672
 24
131.3320944338334
 34
0.0
100
AcDbRotatedDimension
1001
ACAD
1000
DSTYLE
1002
{
1070
     7
1000
OPEN30
1070
     6
1000
OPEN30
1070
   274
1070
     4
1070
    41
1040
24.00001525878906
1070
    79
1070
     2
1070
   176
1070
     9
1070
   177
1070
     9
1070
   178
1070
     7
1070
    44
1040
8.0
1070
    42
1040
8.0
1070
   147
1040
8.0
1070
   173
1070
     1
1070
    77
1070
     3
1070
    73
1070
     0
1070
   172
1070
     1
1070
    74
1070
     0
1070
   283
1070
     0
1070
   340
1005
10E
1070
   140
1040
32.0
1070
   284
1070
     8
1070
   288
1070
     1
1070
    78
1070
     8
1070
    90
1070
     1
1002
}
  0
DIMENSION
  5
49A
330
DBF
100
AcDbEntity
  8
LAYER0016
  6
Continuous
100
AcDbDimension
  2
*D26
 10
662.2307439407675
 20
393.0048272777012
 30
0.0
 11
438.6307439407674
 21
393.0048272777012
 31
0.0
 70
   160
  1
(<>)
 71
     5
 42
-1.0
 73
     0
 74
     0
 75
     0
  3
DC_ROTATED
100
AcDbAlignedDimension
 13
215.0307439407673
 23
113.0048272777012
 33
0.0
 14
662.2307439407675
 24
113.0048272777012
 34
0.0
100
AcDbRotatedDimension
1001
ACAD
1000
DSTYLE
1002
{
1070
     7
1000
OPEN30
1070
     6
1000
OPEN30
1070
   274
1070
     4
1070
    41
1040
24.00001525878906
1070
    79
1070
     2
1070
   176
1070
     9
1070
   177
1070
     9
1070
   178
1070
     7
1070
    44
1040
8.0
1070
    42
1040
8.0
1070
   147
1040
8.0
1070
   173
1070
     1
1070
    77
1070
     3
1070
    73
1070
     0
1070
   172
1070
     1
1070
    74
1070
     0
1070
   283
1070
     0
1070
   340
1005
10E
1070
   140
1040
32.0
1070
   284
1070
     8
1070
   288
1070
     1
1070
    78
1070
     8
1070
    90
1070
     1
1002
}
  0
INSERT
  5
49E
330
DBF
100
AcDbEntity
  8
LAYER0016
  6
Continuous
100
AcDbBlockReference
  2
DA_IMAGEDIMGROUP_4
 10
0.0
 20
0.0
 30
0.0
  0
TEXT
  5
EAE
330
DBF
100
AcDbEntity
  8
ZUWAKU
 62
    30
100
AcDbText
 10
1050.462635734706
 20
-815.0877645213324
 30
0.0
 40
40.0
  1
社名
 41
0.7741935483870968
  7
DCSTYLE0
 72
     5
 11
1114.462635734706
 21
-815.0877645213324
 31
0.0
100
AcDbText
  0
TEXT
  5
EAF
330
DBF
100
AcDbEntity
  8
LAYER0240
 62
     4
100
AcDbText
 10
1188.767972508591
 20
-812.0
 30
0.0
 40
32.0
  1
グローエジャパン(株)
 41
0.5423728813559328
  7
DCSTYLE0
 72
     5
 11
1393.567972508591
 21
-812.0
 31
0.0
100
AcDbText
  0
TEXT
  5
EB0
330
DBF
100
AcDbEntity
  8
ZUWAKU
 62
    30
100
AcDbText
 10
1050.462635734706
 20
-863.0877645213324
 30
0.0
 40
40.0
  1
品番
 41
0.75
  7
DCSTYLE0
 72
     5
 11
1114.462635734706
 21
-863.0877645213324
 31
0.0
100
AcDbText
  0
TEXT
  5
EB1
330
DBF
100
AcDbEntity
  8
LAYER0240
 62
     4
100
AcDbText
 10
1188.767972508591
 20
-956.0
 30
0.0
 40
32.0
  1
JPK50600
 41
0.893023255813954
  7
DCSTYLE0
 72
     5
 11
1393.567972508591
 21
-956.0
 31
0.0
100
AcDbText
  0
VIEWPORT
  5
B0
330
DBB
100
AcDbEntity
 67
     1
  8
0
100
AcDbViewport
 10
0.0
 20
0.0000000000002274
 30
0.0
 40
10320.0
 41
7368.000000000003
 68
     1
 69
     1
 12
0.0
 22
0.0000000000002274
 13
0.0
 23
0.0
 14
0.5
 24
0.5
 15
0.0
 25
0.0
 16
0.0
 26
0.0
 36
1.0
 17
0.0
 27
0.0
 37
0.0
 42
50.0
 43
0.0
 44
0.0
 45
7368.000000000003
 50
0.0
 51
0.0
 72
   100
 90
   819296
  1

281
     0
 71
     0
 74
     0
110
0.0
120
0.0
130
0.0
111
1.0
121
0.0
131
0.0
112
0.0
122
1.0
132
0.0
 79
     0
146
0.0
170
     0
 61
     5
292
     1
282
     1
141
0.0
142
0.0
 63
   250
421
  3355443
  0
ENDSEC
  0
SECTION
  2
OBJECTS
  0
DICTIONARY
  5
D60
330
0
100
AcDbDictionary
281
     1
  3
ACAD_COLOR
350
DB6
  3
ACAD_GROUP
350
D61
  3
ACAD_LAYOUT
350
DB5
  3
ACAD_MATERIAL
350
D64
  3
ACAD_MLEADERSTYLE
350
DB9
  3
ACAD_MLINESTYLE
350
DB2
  3
ACAD_PLOTSETTINGS
350
DB4
  3
ACAD_PLOTSTYLENAME
350
D62
  3
ACAD_SCALELIST
350
D96
  3
ACAD_TABLESTYLE
350
DB7
  3
ACAD_VISUALSTYLE
350
D7D
  3
ACDB_RECOMPOSE_DATA
350
F35
  3
AcDbVariableDictionary
350
EEF
  0
DICTIONARY
  5
E97
330
E35
100
AcDbDictionary
280
     1
281
     1
  0
DICTIONARY
  5
DB6
102
{ACAD_REACTORS
330
D60
102
}
330
D60
100
AcDbDictionary
281
     1
  0
DICTIONARY
  5
D61
102
{ACAD_REACTORS
330
D60
102
}
330
D60
100
AcDbDictionary
281
     1
  0
DICTIONARY
  5
DB5
102
{ACAD_REACTORS
330
D60
102
}
330
D60
100
AcDbDictionary
281
     1
  3
Model
350
DC2
  3
レイアウト1
350
DBE
  0
DICTIONARY
  5
D64
102
{ACAD_REACTORS
330
D60
102
}
330
D60
100
AcDbDictionary
281
     1
  3
ByBlock
350
D6D
  3
ByLayer
350
D65
  3
Global
350
D75
  0
DICTIONARY
  5
DB9
102
{ACAD_REACTORS
330
D60
102
}
330
D60
100
AcDbDictionary
281
     1
  3
Standard
350
DBA
  0
DICTIONARY
  5
DB2
102
{ACAD_REACTORS
330
D60
102
}
330
D60
100
AcDbDictionary
281
     1
  3
Standard
350
DB3
  0
DICTIONARY
  5
DB4
102
{ACAD_REACTORS
330
D60
102
}
330
D60
100
AcDbDictionary
281
     1
  0
ACDBDICTIONARYWDFLT
  5
D62
102
{ACAD_REACTORS
330
D60
102
}
330
D60
100
AcDbDictionary
281
     1
  3
Normal
350
D63
100
AcDbDictionaryWithDefault
340
D63
  0
DICTIONARY
  5
D96
102
{ACAD_REACTORS
330
D60
102
}
330
D60
100
AcDbDictionary
281
     1
  3
A0
350
D97
  3
A1
350
D98
  3
A2
350
D99
  3
A3
350
D9A
  3
A4
350
D9B
  3
A5
350
D9C
  3
A6
350
D9D
  3
A7
350
D9E
  3
A8
350
D9F
  3
A9
350
DA0
  3
B0
350
DA1
  3
B1
350
DA2
  3
B2
350
DA3
  3
B3
350
DA4
  3
B4
350
DA5
  3
B5
350
DA6
  3
B6
350
DA7
  0
DICTIONARY
  5
DB7
102
{ACAD_REACTORS
330
D60
102
}
330
D60
100
AcDbDictionary
281
     1
  3
Standard
350
DB8
  0
DICTIONARY
  5
D7D
102
{ACAD_REACTORS
330
D60
102
}
330
D60
100
AcDbDictionary
281
     1
  3
2dWireframe
350
D83
  3
Basic
350
D82
  3
Brighten
350
D89
  3
ColorChange
350
D8D
  3
Conceptual
350
D86
  3
Dim
350
D88
  3
EdgeColorOff
350
D95
  3
Facepattern
350
D8C
  3
Flat
350
D7E
  3
FlatWithEdges
350
D7F
  3
Gouraud
350
D80
  3
GouraudWithEdges
350
D81
  3
Hidden
350
D85
  3
JitterOff
350
D93
  3
Linepattern
350
D8B
  3
OverhangOff
350
D94
  3
Realistic
350
D87
  3
Shaded
350
D92
  3
Shaded with edges
350
D91
  3
Shades of Gray
350
D8E
  3
Sketchy
350
D8F
  3
Thicken
350
D8A
  3
Wireframe
350
D84
  3
X-Ray
350
D90
  0
XRECORD
  5
F35
102
{ACAD_REACTORS
330
D60
102
}
330
D60
100
AcDbXrecord
280
     1
 90
        1
330
DB8
  0
DICTIONARY
  5
EEF
102
{ACAD_REACTORS
330
D60
102
}
330
D60
100
AcDbDictionary
281
     1
  3
CANNOSCALE
350
EF3
  3
CMLEADERSTYLE
350
EF1
  3
CTABLESTYLE
350
EF0
  3
LAYEREVAL
350
EF5
  3
LAYERNOTIFY
350
EF6
  3
LIGHTINGUNITS
350
EF4
  3
MSLTSCALE
350
EF2
  3
XCLIPFRAME
350
F33
  0
LAYOUT
  5
DC2
102
{ACAD_REACTORS
330
DB5
102
}
330
DB5
100
AcDbPlotSettings
  1

  2
EPSON LP-8900
  4

  6

 40
0.0
 41
0.0
 42
0.0
 43
0.0
 44
0.0
 45
0.0
 46
0.0
 47
0.0
 48
0.0
 49
0.0
140
0.0
141
0.0
142
1.0
143
1.0
 70
  1712
 72
     0
 73
     0
 74
     0
  7

 75
     0
147
1.0
 76
     0
 77
     2
 78
   300
148
0.0
149
0.0
100
AcDbLayout
  1
Model
 70
     1
 71
     0
 10
0.0
 20
0.0
 11
12.0
 21
9.0
 12
0.0
 22
0.0
 32
0.0
 14
0.0
 24
0.0
 34
0.0
 15
0.0
 25
0.0
 35
0.0
146
0.0
 13
0.0
 23
0.0
 33
0.0
 16
1.0
 26
0.0
 36
0.0
 17
0.0
 27
1.0
 37
0.0
 76
     0
330
DBF
331
DC3
  0
LAYOUT
  5
DBE
102
{ACAD_REACTORS
330
DB5
102
}
330
DB5
100
AcDbPlotSettings
  1

  2
EPSON LP-8900
  4

  6

 40
0.0
 41
0.0
 42
0.0
 43
0.0
 44
0.0
 45
0.0
 46
0.0
 47
0.0
 48
0.0
 49
0.0
140
0.0
141
0.0
142
1.0
143
1.0
 70
   688
 72
     0
 73
     0
 74
     5
  7

 75
    16
147
1.0
 76
     0
 77
     2
 78
   300
148
0.0
149
0.0
100
AcDbLayout
  1
レイアウト1
 70
     0
 71
     1
 10
0.0
 20
0.0
 11
12.0
 21
9.0
 12
0.0
 22
0.0
 32
0.0
 14
1.000000000000000E+20
 24
1.000000000000000E+20
 34
1.000000000000000E+20
 15
-1.000000000000000E+20
 25
-1.000000000000000E+20
 35
-1.000000000000000E+20
146
0.0
 13
0.0
 23
0.0
 33
0.0
 16
1.0
 26
0.0
 36
0.0
 17
0.0
 27
1.0
 37
0.0
 76
     0
330
DBB
331
B0
  0
MATERIAL
  5
D6D
102
{ACAD_XDICTIONARY
360
D6E
102
}
102
{ACAD_REACTORS
330
D64
102
}
330
D64
100
AcDbMaterial
  1
ByBlock
 72
     0
 43
0.0208333333333333
 43
0.0
 43
0.0
 43
0.0
 43
0.0
 43
0.0208333333333333
 43
0.0
 43
0.0
 43
0.0
 43
0.0
 43
1.0
 43
0.0
 43
0.0
 43
0.0
 43
0.0
 43
1.0
 77
     0
 47
0.0208333333333333
 47
0.0
 47
0.0
 47
0.0
 47
0.0
 47
0.0208333333333333
 47
0.0
 47
0.0
 47
0.0
 47
0.0
 47
1.0
 47
0.0
 47
0.0
 47
0.0
 47
0.0
 47
1.0
171
     0
 49
0.0208333333333333
 49
0.0
 49
0.0
 49
0.0
 49
0.0
 49
0.0208333333333333
 49
0.0
 49
0.0
 49
0.0
 49
0.0
 49
1.0
 49
0.0
 49
0.0
 49
0.0
 49
0.0
 49
1.0
175
     0
142
0.0208333333333333
142
0.0
142
0.0
142
0.0
142
0.0
142
0.0208333333333333
142
0.0
142
0.0
142
0.0
142
0.0
142
1.0
142
0.0
142
0.0
142
0.0
142
0.0
142
1.0
179
     0
144
0.0208333333333333
144
0.0
144
0.0
144
0.0
144
0.0
144
0.0208333333333333
144
0.0
144
0.0
144
0.0
144
0.0
144
1.0
144
0.0
144
0.0
144
0.0
144
0.0
144
1.0
147
0.0208333333333333
147
0.0
147
0.0
147
0.0
147
0.0
147
0.0208333333333333
147
0.0
147
0.0
147
0.0
147
0.0
147
1.0
147
0.0
147
0.0
147
0.0
147
0.0
147
1.0
  0
MATERIAL
  5
D65
102
{ACAD_XDICTIONARY
360
D66
102
}
102
{ACAD_REACTORS
330
D64
102
}
330
D64
100
AcDbMaterial
  1
ByLayer
 72
     0
 43
0.0208333333333333
 43
0.0
 43
0.0
 43
0.0
 43
0.0
 43
0.0208333333333333
 43
0.0
 43
0.0
 43
0.0
 43
0.0
 43
1.0
 43
0.0
 43
0.0
 43
0.0
 43
0.0
 43
1.0
 77
     0
 47
0.0208333333333333
 47
0.0
 47
0.0
 47
0.0
 47
0.0
 47
0.0208333333333333
 47
0.0
 47
0.0
 47
0.0
 47
0.0
 47
1.0
 47
0.0
 47
0.0
 47
0.0
 47
0.0
 47
1.0
171
     0
 49
0.0208333333333333
 49
0.0
 49
0.0
 49
0.0
 49
0.0
 49
0.0208333333333333
 49
0.0
 49
0.0
 49
0.0
 49
0.0
 49
1.0
 49
0.0
 49
0.0
 49
0.0
 49
0.0
 49
1.0
175
     0
142
0.0208333333333333
142
0.0
142
0.0
142
0.0
142
0.0
142
0.0208333333333333
142
0.0
142
0.0
142
0.0
142
0.0
142
1.0
142
0.0
142
0.0
142
0.0
142
0.0
142
1.0
179
     0
144
0.0208333333333333
144
0.0
144
0.0
144
0.0
144
0.0
144
0.0208333333333333
144
0.0
144
0.0
144
0.0
144
0.0
144
1.0
144
0.0
144
0.0
144
0.0
144
0.0
144
1.0
147
0.0208333333333333
147
0.0
147
0.0
147
0.0
147
0.0
147
0.0208333333333333
147
0.0
147
0.0
147
0.0
147
0.0
147
1.0
147
0.0
147
0.0
147
0.0
147
0.0
147
1.0
  0
MATERIAL
  5
D75
102
{ACAD_XDICTIONARY
360
D76
102
}
102
{ACAD_REACTORS
330
D64
102
}
330
D64
100
AcDbMaterial
  1
Global
 72
     0
 43
0.0208333333333333
 43
0.0
 43
0.0
 43
0.0
 43
0.0
 43
0.0208333333333333
 43
0.0
 43
0.0
 43
0.0
 43
0.0
 43
1.0
 43
0.0
 43
0.0
 43
0.0
 43
0.0
 43
1.0
 77
     0
 47
0.0208333333333333
 47
0.0
 47
0.0
 47
0.0
 47
0.0
 47
0.0208333333333333
 47
0.0
 47
0.0
 47
0.0
 47
0.0
 47
1.0
 47
0.0
 47
0.0
 47
0.0
 47
0.0
 47
1.0
171
     0
 49
0.0208333333333333
 49
0.0
 49
0.0
 49
0.0
 49
0.0
 49
0.0208333333333333
 49
0.0
 49
0.0
 49
0.0
 49
0.0
 49
1.0
 49
0.0
 49
0.0
 49
0.0
 49
0.0
 49
1.0
175
     0
142
0.0208333333333333
142
0.0
142
0.0
142
0.0
142
0.0
142
0.0208333333333333
142
0.0
142
0.0
142
0.0
142
0.0
142
1.0
142
0.0
142
0.0
142
0.0
142
0.0
142
1.0
179
     0
144
0.0208333333333333
144
0.0
144
0.0
144
0.0
144
0.0
144
0.0208333333333333
144
0.0
144
0.0
144
0.0
144
0.0
144
1.0
144
0.0
144
0.0
144
0.0
144
0.0
144
1.0
147
0.0208333333333333
147
0.0
147
0.0
147
0.0
147
0.0
147
0.0208333333333333
147
0.0
147
0.0
147
0.0
147
0.0
147
1.0
147
0.0
147
0.0
147
0.0
147
0.0
147
1.0
  0
MLEADERSTYLE
  5
DBA
102
{ACAD_REACTORS
330
DB9
102
}
330
DB9
100
AcDbMLeaderStyle
170
     2
171
     1
172
     0
 90
        2
 40
0.0
 41
0.0
173
     1
 91
-1056964608
340
DAE
 92
       -2
290
     1
 42
0.09
291
     1
 43
0.36
  3
Standard
 44
0.18
300

342
DA9
174
     1
178
     6
175
     1
176
     0
 93
-1056964608
 45
0.18
292
     0
297
     0
 46
0.18
 94
-1056964608
 47
1.0
 49
1.0
140
1.0
293
     1
141
0.0
294
     1
177
     0
142
1.0
295
     0
296
     0
143
0.125
1001
ACAD_MLEADERVER
1070
     2
  0
MLINESTYLE
  5
DB3
102
{ACAD_REACTORS
330
DB2
102
}
330
DB2
100
AcDbMlineStyle
  2
STANDARD
 70
     0
  3

 62
   256
 51
90.0
 52
90.0
 71
     2
 49
0.5
 62
   256
  6
BYLAYER
 49
-0.5
 62
   256
  6
BYLAYER
  0
ACDBPLACEHOLDER
  5
D63
102
{ACAD_REACTORS
330
D62
102
}
330
D62
  0
SCALE
  5
D97
102
{ACAD_REACTORS
330
D96
102
}
330
D96
100
AcDbScale
 70
     0
300
1:1
140
1.0
141
1.0
290
     1
  0
SCALE
  5
D98
102
{ACAD_REACTORS
330
D96
102
}
330
D96
100
AcDbScale
 70
     0
300
1/128" = 1'-0"
140
0.0078125
141
12.0
290
     0
  0
SCALE
  5
D99
102
{ACAD_REACTORS
330
D96
102
}
330
D96
100
AcDbScale
 70
     0
300
1/64" = 1'-0"
140
0.015625
141
12.0
290
     0
  0
SCALE
  5
D9A
102
{ACAD_REACTORS
330
D96
102
}
330
D96
100
AcDbScale
 70
     0
300
1/32" = 1'-0"
140
0.03125
141
12.0
290
     0
  0
SCALE
  5
D9B
102
{ACAD_REACTORS
330
D96
102
}
330
D96
100
AcDbScale
 70
     0
300
1/16" = 1'-0"
140
0.0625
141
12.0
290
     0
  0
SCALE
  5
D9C
102
{ACAD_REACTORS
330
D96
102
}
330
D96
100
AcDbScale
 70
     0
300
3/32" = 1'-0"
140
0.09375
141
12.0
290
     0
  0
SCALE
  5
D9D
102
{ACAD_REACTORS
330
D96
102
}
330
D96
100
AcDbScale
 70
     0
300
1/8" = 1'-0"
140
0.125
141
12.0
290
     0
  0
SCALE
  5
D9E
102
{ACAD_REACTORS
330
D96
102
}
330
D96
100
AcDbScale
 70
     0
300
3/16" = 1'-0"
140
0.1875
141
12.0
290
     0
  0
SCALE
  5
D9F
102
{ACAD_REACTORS
330
D96
102
}
330
D96
100
AcDbScale
 70
     0
300
1/4" = 1'-0"
140
0.25
141
12.0
290
     0
  0
SCALE
  5
DA0
102
{ACAD_REACTORS
330
D96
102
}
330
D96
100
AcDbScale
 70
     0
300
3/8" = 1'-0"
140
0.375
141
12.0
290
     0
  0
SCALE
  5
DA1
102
{ACAD_REACTORS
330
D96
102
}
330
D96
100
AcDbScale
 70
     0
300
1/2" = 1'-0"
140
0.5
141
12.0
290
     0
  0
SCALE
  5
DA2
102
{ACAD_REACTORS
330
D96
102
}
330
D96
100
AcDbScale
 70
     0
300
3/4" = 1'-0"
140
0.75
141
12.0
290
     0
  0
SCALE
  5
DA3
102
{ACAD_REACTORS
330
D96
102
}
330
D96
100
AcDbScale
 70
     0
300
1" = 1'-0"
140
1.0
141
12.0
290
     0
  0
SCALE
  5
DA4
102
{ACAD_REACTORS
330
D96
102
}
330
D96
100
AcDbScale
 70
     0
300
1-1/2" = 1'-0"
140
1.5
141
12.0
290
     0
  0
SCALE
  5
DA5
102
{ACAD_REACTORS
330
D96
102
}
330
D96
100
AcDbScale
 70
     0
300
3" = 1'-0"
140
3.0
141
12.0
290
     0
  0
SCALE
  5
DA6
102
{ACAD_REACTORS
330
D96
102
}
330
D96
100
AcDbScale
 70
     0
300
6" = 1'-0"
140
6.0
141
12.0
290
     0
  0
SCALE
  5
DA7
102
{ACAD_REACTORS
330
D96
102
}
330
D96
100
AcDbScale
 70
     0
300
1'-0" = 1'-0"
140
12.0
141
12.0
290
     0
  0
TABLESTYLE
  5
DB8
102
{ACAD_XDICTIONARY
360
EF8
102
}
102
{ACAD_REACTORS
330
DB7
102
}
330
DB7
100
AcDbTableStyle
  3
Standard
 70
     0
 71
     0
 40
0.06
 41
0.06
280
     0
281
     0
  7
STANDARD
140
0.18
170
     2
 62
     0
 63
     7
283
     0
 90
      512
 91
        0
  1

274
    -2
284
     1
 64
     0
275
    -2
285
     1
 65
     0
276
    -2
286
     1
 66
     0
277
    -2
287
     1
 67
     0
278
    -2
288
     1
 68
     0
279
    -2
289
     1
 69
     0
  7
STANDARD
140
0.25
170
     5
 62
     0
 63
     7
283
     0
 90
      512
 91
        0
  1

274
    -2
284
     1
 64
     0
275
    -2
285
     1
 65
     0
276
    -2
286
     1
 66
     0
277
    -2
287
     1
 67
     0
278
    -2
288
     1
 68
     0
279
    -2
289
     1
 69
     0
  7
STANDARD
140
0.18
170
     5
 62
     0
 63
     7
283
     0
 90
      512
 91
        0
  1

274
    -2
284
     1
 64
     0
275
    -2
285
     1
 65
     0
276
    -2
286
     1
 66
     0
277
    -2
287
     1
 67
     0
278
    -2
288
     1
 68
     0
279
    -2
289
     1
 69
     0
  0
VISUALSTYLE
  5
D83
102
{ACAD_XDICTIONARY
360
F40
102
}
102
{ACAD_REACTORS
330
D7D
102
}
330
D7D
100
AcDbVisualStyle
  2

 70
     4
 71
     0
 72
     2
 73
     0
 90
        0
 40
-0.6
 41
-30.0
 62
     5
 63
     7
421
 16777215
 74
     1
 91
        4
 64
     7
 65
   257
 75
     1
175
     1
 42
1.0
 92
        0
 66
   257
 43
1.0
 76
     1
 77
     6
 78
     2
 67
     7
 79
     5
170
     0
171
     0
290
     0
174
     0
 93
        1
 44
0.0
173
     0
291
     0
 45
0.0
1001
ACAD
1000
AcDbSavedByObjectVersion
1070
     0
  0
VISUALSTYLE
  5
D82
102
{ACAD_XDICTIONARY
360
F3E
102
}
102
{ACAD_REACTORS
330
D7D
102
}
330
D7D
100
AcDbVisualStyle
  2

 70
     7
 71
     1
 72
     0
 73
     1
 90
        0
 40
-0.6
 41
-30.0
 62
     5
 63
     7
421
 16777215
 74
     0
 91
        4
 64
     7
 65
   257
 75
     1
175
     1
 42
1.0
 92
        8
 66
     7
 43
1.0
 76
     1
 77
     6
 78
     2
 67
     7
 79
     5
170
     0
171
     0
290
     0
174
     0
 93
        1
 44
0.0
173
     0
291
     1
 45
0.0
1001
ACAD
1000
AcDbSavedByObjectVersion
1070
     0
  0
VISUALSTYLE
  5
D89
102
{ACAD_XDICTIONARY
360
F4C
102
}
102
{ACAD_REACTORS
330
D7D
102
}
330
D7D
100
AcDbVisualStyle
  2

 70
    12
 71
     2
 72
     2
 73
     0
 90
        0
 40
-0.6
 41
-30.0
 62
     5
 63
     7
421
 16777215
 74
     1
 91
        4
 64
     7
 65
   257
 75
     1
175
     1
 42
1.0
 92
        8
 66
     7
 43
1.0
 76
     1
 77
     6
 78
     2
 67
     7
 79
     5
170
     0
171
     0
290
     0
174
     0
 93
        1
 44
50.0
173
     0
291
     1
 45
0.0
1001
ACAD
1000
AcDbSavedByObjectVersion
1070
     0
  0
VISUALSTYLE
  5
D8D
102
{ACAD_XDICTIONARY
360
F54
102
}
102
{ACAD_REACTORS
330
D7D
102
}
330
D7D
100
AcDbVisualStyle
  2

 70
    16
 71
     2
 72
     2
 73
     3
 90
        0
 40
-0.6
 41
-30.0
 62
     5
 63
     8
421
  8421504
 74
     1
 91
        4
 64
     7
 65
   257
 75
     1
175
     1
 42
1.0
 92
        8
 66
     8
424
  8421504
 43
1.0
 76
     1
 77
     6
 78
     2
 67
     7
 79
     5
170
     0
171
     0
290
     0
174
     0
 93
        1
 44
0.0
173
     0
291
     1
 45
0.0
1001
ACAD
1000
AcDbSavedByObjectVersion
1070
     0
  0
VISUALSTYLE
  5
D86
102
{ACAD_XDICTIONARY
360
F46
102
}
102
{ACAD_REACTORS
330
D7D
102
}
330
D7D
100
AcDbVisualStyle
  2

 70
     9
 71
     3
 72
     2
 73
     0
 90
        0
 40
-0.6
 41
-30.0
 62
     5
 63
     7
421
 16777215
 74
     2
 91
        2
 64
     7
 65
   257
 75
     1
175
     1
 42
179.0
 92
        8
 66
     7
 43
1.0
 76
     1
 77
     6
 78
     2
 67
     7
 79
     3
170
     0
171
     0
290
     0
174
     0
 93
        1
 44
0.0
173
     0
291
     0
 45
0.0
1001
ACAD
1000
AcDbSavedByObjectVersion
1070
     0
  0
VISUALSTYLE
  5
D88
102
{ACAD_XDICTIONARY
360
F4A
102
}
102
{ACAD_REACTORS
330
D7D
102
}
330
D7D
100
AcDbVisualStyle
  2

 70
    11
 71
     2
 72
     2
 73
     0
 90
        0
 40
-0.6
 41
-30.0
 62
     5
 63
     7
421
 16777215
 74
     1
 91
        4
 64
     7
 65
   257
 75
     1
175
     1
 42
1.0
 92
        8
 66
     7
 43
1.0
 76
     1
 77
     6
 78
     2
 67
     7
 79
     5
170
     0
171
     0
290
     0
174
     0
 93
        1
 44
-50.0
173
     0
291
     1
 45
0.0
1001
ACAD
1000
AcDbSavedByObjectVersion
1070
     0
  0
VISUALSTYLE
  5
D95
102
{ACAD_XDICTIONARY
360
F64
102
}
102
{ACAD_REACTORS
330
D7D
102
}
330
D7D
100
AcDbVisualStyle
  2

 70
    22
 71
     2
 72
     2
 73
     0
 90
        0
 40
-0.6
 41
-30.0
 62
     5
 63
     7
421
 16777215
 74
     1
 91
        4
 64
     7
 65
   257
 75
     1
175
     1
 42
1.0
 92
        8
 66
     7
 43
1.0
 76
     1
 77
     6
 78
     2
 67
     7
 79
     5
170
     0
171
     0
290
     0
174
     0
 93
        1
 44
0.0
173
     0
291
     1
 45
0.0
1001
ACAD
1000
AcDbSavedByObjectVersion
1070
     0
  0
VISUALSTYLE
  5
D8C
102
{ACAD_XDICTIONARY
360
F52
102
}
102
{ACAD_REACTORS
330
D7D
102
}
330
D7D
100
AcDbVisualStyle
  2

 70
    15
 71
     2
 72
     2
 73
     0
 90
        0
 40
-0.6
 41
-30.0
 62
     5
 63
     7
421
 16777215
 74
     1
 91
        4
 64
     7
 65
   257
 75
     1
175
     1
 42
1.0
 92
        8
 66
     7
 43
1.0
 76
     1
 77
     6
 78
     2
 67
     7
 79
     5
170
     0
171
     0
290
     0
174
     0
 93
        1
 44
0.0
173
     0
291
     1
 45
0.0
1001
ACAD
1000
AcDbSavedByObjectVersion
1070
     0
  0
VISUALSTYLE
  5
D7E
102
{ACAD_XDICTIONARY
360
F36
102
}
102
{ACAD_REACTORS
330
D7D
102
}
330
D7D
100
AcDbVisualStyle
  2

 70
     0
 71
     2
 72
     1
 73
     1
 90
        2
 40
-0.6
 41
30.0
 62
     5
 63
     7
421
 16777215
 74
     0
 91
        0
 64
     7
 65
   257
 75
     1
175
     1
 42
1.0
 92
        8
 66
     7
 43
1.0
 76
     1
 77
     6
 78
     2
 67
     7
 79
     5
170
     0
171
     0
290
     0
174
     0
 93
       13
 44
0.0
173
     0
291
     1
 45
0.0
1001
ACAD
1000
AcDbSavedByObjectVersion
1070
     0
  0
VISUALSTYLE
  5
D7F
102
{ACAD_XDICTIONARY
360
F38
102
}
102
{ACAD_REACTORS
330
D7D
102
}
330
D7D
100
AcDbVisualStyle
  2

 70
     1
 71
     2
 72
     1
 73
     1
 90
        2
 40
-0.6
 41
30.0
 62
     5
 63
     7
421
 16777215
 74
     1
 91
        0
 64
     7
 65
   257
 75
     1
175
     1
 42
1.0
 92
        0
 66
   257
 43
1.0
 76
     1
 77
     6
 78
     2
 67
     7
 79
     5
170
     0
171
     0
290
     0
174
     0
 93
       13
 44
0.0
173
     0
291
     1
 45
0.0
1001
ACAD
1000
AcDbSavedByObjectVersion
1070
     0
  0
VISUALSTYLE
  5
D80
102
{ACAD_XDICTIONARY
360
F3A
102
}
102
{ACAD_REACTORS
330
D7D
102
}
330
D7D
100
AcDbVisualStyle
  2

 70
     2
 71
     2
 72
     2
 73
     1
 90
        2
 40
-0.6
 41
30.0
 62
     5
 63
     7
421
 16777215
 74
     0
 91
        0
 64
     7
 65
   257
 75
     1
175
     1
 42
1.0
 92
        0
 66
     7
 43
1.0
 76
     1
 77
     6
 78
     2
 67
     7
 79
     5
170
     0
171
     0
290
     0
174
     0
 93
       13
 44
0.0
173
     0
291
     1
 45
0.0
1001
ACAD
1000
AcDbSavedByObjectVersion
1070
     0
  0
VISUALSTYLE
  5
D81
102
{ACAD_XDICTIONARY
360
F3C
102
}
102
{ACAD_REACTORS
330
D7D
102
}
330
D7D
100
AcDbVisualStyle
  2

 70
     3
 71
     2
 72
     2
 73
     1
 90
        2
 40
-0.6
 41
30.0
 62
     5
 63
     7
421
 16777215
 74
     1
 91
        0
 64
     7
 65
   257
 75
     1
175
     1
 42
1.0
 92
        0
 66
   257
 43
1.0
 76
     1
 77
     6
 78
     2
 67
     7
 79
     5
170
     0
171
     0
290
     0
174
     0
 93
       13
 44
0.0
173
     0
291
     1
 45
0.0
1001
ACAD
1000
AcDbSavedByObjectVersion
1070
     0
  0
VISUALSTYLE
  5
D85
102
{ACAD_XDICTIONARY
360
F44
102
}
102
{ACAD_REACTORS
330
D7D
102
}
330
D7D
100
AcDbVisualStyle
  2

 70
     6
 71
     1
 72
     2
 73
     2
 90
        0
 40
-0.6
 41
-30.0
 62
     5
 63
     7
421
 16777215
 74
     2
 91
        2
 64
     7
 65
   257
 75
     2
175
     1
 42
40.0
 92
        0
 66
   257
 43
1.0
 76
     1
 77
     6
 78
     2
 67
     7
 79
     3
170
     0
171
     0
290
     0
174
     0
 93
        1
 44
0.0
173
     0
291
     0
 45
0.0
1001
ACAD
1000
AcDbSavedByObjectVersion
1070
     0
  0
VISUALSTYLE
  5
D93
102
{ACAD_XDICTIONARY
360
F60
102
}
102
{ACAD_REACTORS
330
D7D
102
}
330
D7D
100
AcDbVisualStyle
  2

 70
    20
 71
     2
 72
     2
 73
     0
 90
        0
 40
-0.6
 41
-30.0
 62
     5
 63
     7
421
 16777215
 74
     1
 91
        4
 64
     7
 65
   257
 75
     1
175
     1
 42
1.0
 92
       10
 66
     7
 43
1.0
 76
     1
 77
     6
 78
     2
 67
     7
 79
     5
170
     0
171
     0
290
     0
174
     0
 93
        1
 44
0.0
173
     0
291
     1
 45
0.0
1001
ACAD
1000
AcDbSavedByObjectVersion
1070
     0
  0
VISUALSTYLE
  5
D8B
102
{ACAD_XDICTIONARY
360
F50
102
}
102
{ACAD_REACTORS
330
D7D
102
}
330
D7D
100
AcDbVisualStyle
  2

 70
    14
 71
     2
 72
     2
 73
     0
 90
        0
 40
-0.6
 41
-30.0
 62
     5
 63
     7
421
 16777215
 74
     1
 91
        4
 64
     7
 65
   257
 75
     7
175
     7
 42
1.0
 92
        8
 66
     7
 43
1.0
 76
     1
 77
     6
 78
     2
 67
     7
 79
     5
170
     0
171
     0
290
     0
174
     0
 93
        1
 44
0.0
173
     0
291
     1
 45
0.0
1001
ACAD
1000
AcDbSavedByObjectVersion
1070
     0
  0
VISUALSTYLE
  5
D94
102
{ACAD_XDICTIONARY
360
F62
102
}
102
{ACAD_REACTORS
330
D7D
102
}
330
D7D
100
AcDbVisualStyle
  2

 70
    21
 71
     2
 72
     2
 73
     0
 90
        0
 40
-0.6
 41
-30.0
 62
     5
 63
     7
421
 16777215
 74
     1
 91
        4
 64
     7
 65
   257
 75
     1
175
     1
 42
1.0
 92
        9
 66
     7
 43
1.0
 76
     1
 77
     6
 78
     2
 67
     7
 79
     5
170
     0
171
     0
290
     0
174
     0
 93
        1
 44
0.0
173
     0
291
     1
 45
0.0
1001
ACAD
1000
AcDbSavedByObjectVersion
1070
     0
  0
VISUALSTYLE
  5
D87
102
{ACAD_XDICTIONARY
360
F48
102
}
102
{ACAD_REACTORS
330
D7D
102
}
330
D7D
100
AcDbVisualStyle
  2

 70
     8
 71
     2
 72
     3
 73
     0
 90
        2
 40
-0.6
 41
30.0
 62
     5
 63
     7
421
 16777215
 74
     0
 91
        0
 64
     7
 65
   257
 75
     1
175
     1
 42
1.0
 92
        8
 66
   257
 43
1.0
 76
     1
 77
     6
 78
     2
 67
     7
 79
     3
170
     0
171
     0
290
     0
174
     0
 93
       13
 44
0.0
173
     0
291
     0
 45
0.0
1001
ACAD
1000
AcDbSavedByObjectVersion
1070
     0
  0
VISUALSTYLE
  5
D92
102
{ACAD_XDICTIONARY
360
F5E
102
}
102
{ACAD_REACTORS
330
D7D
102
}
330
D7D
100
AcDbVisualStyle
  2

 70
    27
 71
     2
 72
     2
 73
     1
 90
        2
 40
-0.6
 41
30.0
 62
     5
 63
     7
421
 16777215
 74
     0
 91
        4
 64
     7
 65
   257
 75
     1
175
     1
 42
1.0
 92
        8
 66
   257
 43
1.0
 76
     1
 77
     6
 78
     2
 67
     8
425
  7895160
 79
     3
170
     0
171
     0
290
     0
174
     0
 93
        5
 44
0.0
173
     0
291
     0
 45
0.0
1001
ACAD
1000
AcDbSavedByObjectVersion
1070
     0
  0
VISUALSTYLE
  5
D91
102
{ACAD_XDICTIONARY
360
F5C
102
}
102
{ACAD_REACTORS
330
D7D
102
}
330
D7D
100
AcDbVisualStyle
  2

 70
    26
 71
     2
 72
     2
 73
     1
 90
        2
 40
-0.6
 41
30.0
 62
     5
 63
     7
421
 16777215
 74
     1
 91
       10
 64
     7
 65
   257
 75
     2
175
     1
 42
1.0
 92
        8
 66
   257
 43
1.0
 76
     1
 77
     6
 78
     2
 67
     7
 79
     3
170
     0
171
     0
290
     0
174
     0
 93
        5
 44
0.0
173
     0
291
     0
 45
0.0
1001
ACAD
1000
AcDbSavedByObjectVersion
1070
     0
  0
VISUALSTYLE
  5
D8E
102
{ACAD_XDICTIONARY
360
F56
102
}
102
{ACAD_REACTORS
330
D7D
102
}
330
D7D
100
AcDbVisualStyle
  2

 70
    23
 71
     2
 72
     2
 73
     3
 90
        0
 40
-0.6
 41
-30.0
 62
     5
 63
     7
421
 16777215
 74
     2
 91
        2
 64
     7
 65
     7
 75
     1
175
     1
 42
40.0
 92
        8
 66
     7
 43
1.0
 76
     1
 77
     6
 78
     2
 67
     7
 79
     3
170
     0
171
     0
290
     0
174
     0
 93
        1
 44
0.0
173
     0
291
     0
 45
0.0
1001
ACAD
1000
AcDbSavedByObjectVersion
1070
     0
  0
VISUALSTYLE
  5
D8F
102
{ACAD_XDICTIONARY
360
F58
102
}
102
{ACAD_REACTORS
330
D7D
102
}
330
D7D
100
AcDbVisualStyle
  2

 70
    24
 71
     1
 72
     2
 73
     2
 90
        0
 40
-0.6
 41
-30.0
 62
     5
 63
     7
421
 16777215
 74
     2
 91
        2
 64
     7
 65
     7
 75
     1
175
     1
 42
40.0
 92
       11
 66
     7
 43
1.0
 76
     1
 77
     6
 78
     2
 67
     7
 79
     6
170
     0
171
     0
290
     0
174
     0
 93
        1
 44
0.0
173
     0
291
     0
 45
0.0
1001
ACAD
1000
AcDbSavedByObjectVersion
1070
     0
  0
VISUALSTYLE
  5
D8A
102
{ACAD_XDICTIONARY
360
F4E
102
}
102
{ACAD_REACTORS
330
D7D
102
}
330
D7D
100
AcDbVisualStyle
  2

 70
    13
 71
     2
 72
     2
 73
     0
 90
        0
 40
-0.6
 41
-30.0
 62
     5
 63
     7
421
 16777215
 74
     1
 91
        4
 64
     7
 65
   257
 75
     1
175
     1
 42
1.0
 92
       12
 66
     7
 43
1.0
 76
     1
 77
     6
 78
     2
 67
     7
 79
     5
170
     0
171
     0
290
     0
174
     0
 93
        1
 44
0.0
173
     0
291
     1
 45
0.0
1001
ACAD
1000
AcDbSavedByObjectVersion
1070
     0
  0
VISUALSTYLE
  5
D84
102
{ACAD_XDICTIONARY
360
F42
102
}
102
{ACAD_REACTORS
330
D7D
102
}
330
D7D
100
AcDbVisualStyle
  2

 70
     5
 71
     0
 72
     2
 73
     0
 90
        0
 40
-0.6
 41
-30.0
 62
     5
 63
     7
421
 16777215
 74
     1
 91
        4
 64
     7
 65
   257
 75
     1
175
     1
 42
1.0
 92
        0
 66
   257
 43
1.0
 76
     1
 77
     6
 78
     2
 67
     7
 79
     3
170
     0
171
     0
290
     0
174
     0
 93
        1
 44
0.0
173
     0
291
     0
 45
0.0
1001
ACAD
1000
AcDbSavedByObjectVersion
1070
     0
  0
VISUALSTYLE
  5
D90
102
{ACAD_XDICTIONARY
360
F5A
102
}
102
{ACAD_REACTORS
330
D7D
102
}
330
D7D
100
AcDbVisualStyle
  2

 70
    25
 71
     2
 72
     2
 73
     1
 90
        1
 40
0.5
 41
-30.0
 62
     5
 63
     7
421
 16777215
 74
     1
 91
        0
 64
     7
 65
   257
 75
     1
175
     1
 42
1.0
 92
        8
 66
     7
 43
1.0
 76
     1
 77
     6
 78
     2
 67
     7
 79
     3
170
     0
171
     0
290
     0
174
     0
 93
       13
 44
0.0
173
     0
291
     0
 45
0.0
1001
ACAD
1000
AcDbSavedByObjectVersion
1070
     0
  0
DICTIONARYVAR
  5
EF3
102
{ACAD_REACTORS
330
EEF
102
}
330
EEF
100
DictionaryVariables
280
     0
  1
1:1
  0
DICTIONARYVAR
  5
EF1
102
{ACAD_REACTORS
330
EEF
102
}
330
EEF
100
DictionaryVariables
280
     0
  1
STANDARD
  0
DICTIONARYVAR
  5
EF0
102
{ACAD_REACTORS
330
EEF
102
}
330
EEF
100
DictionaryVariables
280
     0
  1
STANDARD
  0
DICTIONARYVAR
  5
EF5
102
{ACAD_REACTORS
330
EEF
102
}
330
EEF
100
DictionaryVariables
280
     0
  1
1
  0
DICTIONARYVAR
  5
EF6
102
{ACAD_REACTORS
330
EEF
102
}
330
EEF
100
DictionaryVariables
280
     0
  1
15
  0
DICTIONARYVAR
  5
EF4
102
{ACAD_REACTORS
330
EEF
102
}
330
EEF
100
DictionaryVariables
280
     0
  1
0
  0
DICTIONARYVAR
  5
EF2
102
{ACAD_REACTORS
330
EEF
102
}
330
EEF
100
DictionaryVariables
280
     0
  1
0
  0
DICTIONARYVAR
  5
F33
102
{ACAD_REACTORS
330
EEF
102
}
330
EEF
100
DictionaryVariables
280
     0
  1
2
  0
DICTIONARY
  5
D6E
330
D6D
100
AcDbDictionary
280
     1
281
     1
  3
BUMPTILE
360
D70
  3
DIFFUSETILE
360
D6F
  3
OPACITYTILE
360
D73
  3
REFLECTIONTILE
360
D72
  3
REFRACTIONTILE
360
D74
  3
SPECULARTILE
360
D71
  0
DICTIONARY
  5
D66
330
D65
100
AcDbDictionary
280
     1
281
     1
  3
BUMPTILE
360
D68
  3
DIFFUSETILE
360
D67
  3
OPACITYTILE
360
D6B
  3
REFLECTIONTILE
360
D6A
  3
REFRACTIONTILE
360
D6C
  3
SPECULARTILE
360
D69
  0
DICTIONARY
  5
D76
330
D75
100
AcDbDictionary
280
     1
281
     1
  3
BUMPTILE
360
D78
  3
DIFFUSETILE
360
D77
  3
OPACITYTILE
360
D7B
  3
REFLECTIONTILE
360
D7A
  3
REFRACTIONTILE
360
D7C
  3
SPECULARTILE
360
D79
  0
DICTIONARY
  5
EF8
330
DB8
100
AcDbDictionary
280
     1
281
     1
  3
ACAD_ROUNDTRIP_2008_TABLESTYLE_CELLSTYLEMAP
360
F34
  0
DICTIONARY
  5
F40
330
D83
100
AcDbDictionary
280
     1
281
     1
  3
ACAD_XREC_ROUNDTRIP
360
F41
  0
DICTIONARY
  5
F3E
330
D82
100
AcDbDictionary
280
     1
281
     1
  3
ACAD_XREC_ROUNDTRIP
360
F3F
  0
DICTIONARY
  5
F4C
330
D89
100
AcDbDictionary
280
     1
281
     1
  3
ACAD_XREC_ROUNDTRIP
360
F4D
  0
DICTIONARY
  5
F54
330
D8D
100
AcDbDictionary
280
     1
281
     1
  3
ACAD_XREC_ROUNDTRIP
360
F55
  0
DICTIONARY
  5
F46
330
D86
100
AcDbDictionary
280
     1
281
     1
  3
ACAD_XREC_ROUNDTRIP
360
F47
  0
DICTIONARY
  5
F4A
330
D88
100
AcDbDictionary
280
     1
281
     1
  3
ACAD_XREC_ROUNDTRIP
360
F4B
  0
DICTIONARY
  5
F64
330
D95
100
AcDbDictionary
280
     1
281
     1
  3
ACAD_XREC_ROUNDTRIP
360
F65
  0
DICTIONARY
  5
F52
330
D8C
100
AcDbDictionary
280
     1
281
     1
  3
ACAD_XREC_ROUNDTRIP
360
F53
  0
DICTIONARY
  5
F36
330
D7E
100
AcDbDictionary
280
     1
281
     1
  3
ACAD_XREC_ROUNDTRIP
360
F37
  0
DICTIONARY
  5
F38
330
D7F
100
AcDbDictionary
280
     1
281
     1
  3
ACAD_XREC_ROUNDTRIP
360
F39
  0
DICTIONARY
  5
F3A
330
D80
100
AcDbDictionary
280
     1
281
     1
  3
ACAD_XREC_ROUNDTRIP
360
F3B
  0
DICTIONARY
  5
F3C
330
D81
100
AcDbDictionary
280
     1
281
     1
  3
ACAD_XREC_ROUNDTRIP
360
F3D
  0
DICTIONARY
  5
F44
330
D85
100
AcDbDictionary
280
     1
281
     1
  3
ACAD_XREC_ROUNDTRIP
360
F45
  0
DICTIONARY
  5
F60
330
D93
100
AcDbDictionary
280
     1
281
     1
  3
ACAD_XREC_ROUNDTRIP
360
F61
  0
DICTIONARY
  5
F50
330
D8B
100
AcDbDictionary
280
     1
281
     1
  3
ACAD_XREC_ROUNDTRIP
360
F51
  0
DICTIONARY
  5
F62
330
D94
100
AcDbDictionary
280
     1
281
     1
  3
ACAD_XREC_ROUNDTRIP
360
F63
  0
DICTIONARY
  5
F48
330
D87
100
AcDbDictionary
280
     1
281
     1
  3
ACAD_XREC_ROUNDTRIP
360
F49
  0
DICTIONARY
  5
F5E
330
D92
100
AcDbDictionary
280
     1
281
     1
  3
ACAD_XREC_ROUNDTRIP
360
F5F
  0
DICTIONARY
  5
F5C
330
D91
100
AcDbDictionary
280
     1
281
     1
  3
ACAD_XREC_ROUNDTRIP
360
F5D
  0
DICTIONARY
  5
F56
330
D8E
100
AcDbDictionary
280
     1
281
     1
  3
ACAD_XREC_ROUNDTRIP
360
F57
  0
DICTIONARY
  5
F58
330
D8F
100
AcDbDictionary
280
     1
281
     1
  3
ACAD_XREC_ROUNDTRIP
360
F59
  0
DICTIONARY
  5
F4E
330
D8A
100
AcDbDictionary
280
     1
281
     1
  3
ACAD_XREC_ROUNDTRIP
360
F4F
  0
DICTIONARY
  5
F42
330
D84
100
AcDbDictionary
280
     1
281
     1
  3
ACAD_XREC_ROUNDTRIP
360
F43
  0
DICTIONARY
  5
F5A
330
D90
100
AcDbDictionary
280
     1
281
     1
  3
ACAD_XREC_ROUNDTRIP
360
F5B
  0
XRECORD
  5
D70
102
{ACAD_REACTORS
330
D6E
102
}
330
D6E
100
AcDbXrecord
280
     1
270
     1
271
     1
  0
XRECORD
  5
D6F
102
{ACAD_REACTORS
330
D6E
102
}
330
D6E
100
AcDbXrecord
280
     1
270
     1
271
     1
  0
XRECORD
  5
D73
102
{ACAD_REACTORS
330
D6E
102
}
330
D6E
100
AcDbXrecord
280
     1
270
     1
271
     1
  0
XRECORD
  5
D72
102
{ACAD_REACTORS
330
D6E
102
}
330
D6E
100
AcDbXrecord
280
     1
270
     1
271
     1
  0
XRECORD
  5
D74
102
{ACAD_REACTORS
330
D6E
102
}
330
D6E
100
AcDbXrecord
280
     1
270
     1
271
     1
  0
XRECORD
  5
D71
102
{ACAD_REACTORS
330
D6E
102
}
330
D6E
100
AcDbXrecord
280
     1
270
     1
271
     1
  0
XRECORD
  5
D68
102
{ACAD_REACTORS
330
D66
102
}
330
D66
100
AcDbXrecord
280
     1
270
     1
271
     1
  0
XRECORD
  5
D67
102
{ACAD_REACTORS
330
D66
102
}
330
D66
100
AcDbXrecord
280
     1
270
     1
271
     1
  0
XRECORD
  5
D6B
102
{ACAD_REACTORS
330
D66
102
}
330
D66
100
AcDbXrecord
280
     1
270
     1
271
     1
  0
XRECORD
  5
D6A
102
{ACAD_REACTORS
330
D66
102
}
330
D66
100
AcDbXrecord
280
     1
270
     1
271
     1
  0
XRECORD
  5
D6C
102
{ACAD_REACTORS
330
D66
102
}
330
D66
100
AcDbXrecord
280
     1
270
     1
271
     1
  0
XRECORD
  5
D69
102
{ACAD_REACTORS
330
D66
102
}
330
D66
100
AcDbXrecord
280
     1
270
     1
271
     1
  0
XRECORD
  5
D78
102
{ACAD_REACTORS
330
D76
102
}
330
D76
100
AcDbXrecord
280
     1
270
     1
271
     1
  0
XRECORD
  5
D77
102
{ACAD_REACTORS
330
D76
102
}
330
D76
100
AcDbXrecord
280
     1
270
     1
271
     1
  0
XRECORD
  5
D7B
102
{ACAD_REACTORS
330
D76
102
}
330
D76
100
AcDbXrecord
280
     1
270
     1
271
     1
  0
XRECORD
  5
D7A
102
{ACAD_REACTORS
330
D76
102
}
330
D76
100
AcDbXrecord
280
     1
270
     1
271
     1
  0
XRECORD
  5
D7C
102
{ACAD_REACTORS
330
D76
102
}
330
D76
100
AcDbXrecord
280
     1
270
     1
271
     1
  0
XRECORD
  5
D79
102
{ACAD_REACTORS
330
D76
102
}
330
D76
100
AcDbXrecord
280
     1
270
     1
271
     1
  0
CELLSTYLEMAP
  5
F34
102
{ACAD_REACTORS
330
EF8
102
}
330
EF8
100
AcDbCellStyleMap
 90
        3
300
CELLSTYLE
  1
TABLEFORMAT_BEGIN
 90
        5
170
     1
 91
        0
 92
    32768
 62
   257
 93
        1
300
CONTENTFORMAT
  1
CONTENTFORMAT_BEGIN
 90
        0
 91
        0
 92
      512
 93
        0
300

 40
0.0
140
1.0
 94
        5
 62
     0
340
DA9
144
0.25
309
CONTENTFORMAT_END
171
     1
301
MARGIN
  1
CELLMARGIN_BEGIN
 40
0.06
 40
0.06
 40
0.06
 40
0.06
 40
0.18
 40
0.18
309
CELLMARGIN_END
 94
        6
 95
        1
302
GRIDFORMAT
  1
GRIDFORMAT_BEGIN
 90
        0
 91
        1
 62
     0
 92
       -2
340
0
 93
        0
 40
0.045
309
GRIDFORMAT_END
 95
        2
302
GRIDFORMAT
  1
GRIDFORMAT_BEGIN
 90
        0
 91
        1
 62
     0
 92
       -2
340
0
 93
        0
 40
0.045
309
GRIDFORMAT_END
 95
        4
302
GRIDFORMAT
  1
GRIDFORMAT_BEGIN
 90
        0
 91
        1
 62
     0
 92
       -2
340
0
 93
        0
 40
0.045
309
GRIDFORMAT_END
 95
        8
302
GRIDFORMAT
  1
GRIDFORMAT_BEGIN
 90
        0
 91
        1
 62
     0
 92
       -2
340
0
 93
        0
 40
0.045
309
GRIDFORMAT_END
 95
       16
302
GRIDFORMAT
  1
GRIDFORMAT_BEGIN
 90
        0
 91
        1
 62
     0
 92
       -2
340
0
 93
        0
 40
0.045
309
GRIDFORMAT_END
 95
       32
302
GRIDFORMAT
  1
GRIDFORMAT_BEGIN
 90
        0
 91
        1
 62
     0
 92
       -2
340
0
 93
        0
 40
0.045
309
GRIDFORMAT_END
309
TABLEFORMAT_END
  1
CELLSTYLE_BEGIN
 90
        1
 91
        1
300
_TITLE
309
CELLSTYLE_END
300
CELLSTYLE
  1
TABLEFORMAT_BEGIN
 90
        5
170
     1
 91
        0
 92
        0
 62
   257
 93
        1
300
CONTENTFORMAT
  1
CONTENTFORMAT_BEGIN
 90
        0
 91
        0
 92
      512
 93
        0
300

 40
0.0
140
1.0
 94
        5
 62
     0
340
DA9
144
0.18
309
CONTENTFORMAT_END
171
     1
301
MARGIN
  1
CELLMARGIN_BEGIN
 40
0.06
 40
0.06
 40
0.06
 40
0.06
 40
0.18
 40
0.18
309
CELLMARGIN_END
 94
        6
 95
        1
302
GRIDFORMAT
  1
GRIDFORMAT_BEGIN
 90
        0
 91
        1
 62
     0
 92
       -2
340
0
 93
        0
 40
0.045
309
GRIDFORMAT_END
 95
        2
302
GRIDFORMAT
  1
GRIDFORMAT_BEGIN
 90
        0
 91
        1
 62
     0
 92
       -2
340
0
 93
        0
 40
0.045
309
GRIDFORMAT_END
 95
        4
302
GRIDFORMAT
  1
GRIDFORMAT_BEGIN
 90
        0
 91
        1
 62
     0
 92
       -2
340
0
 93
        0
 40
0.045
309
GRIDFORMAT_END
 95
        8
302
GRIDFORMAT
  1
GRIDFORMAT_BEGIN
 90
        0
 91
        1
 62
     0
 92
       -2
340
0
 93
        0
 40
0.045
309
GRIDFORMAT_END
 95
       16
302
GRIDFORMAT
  1
GRIDFORMAT_BEGIN
 90
        0
 91
        1
 62
     0
 92
       -2
340
0
 93
        0
 40
0.045
309
GRIDFORMAT_END
 95
       32
302
GRIDFORMAT
  1
GRIDFORMAT_BEGIN
 90
        0
 91
        1
 62
     0
 92
       -2
340
0
 93
        0
 40
0.045
309
GRIDFORMAT_END
309
TABLEFORMAT_END
  1
CELLSTYLE_BEGIN
 90
        2
 91
        1
300
_HEADER
309
CELLSTYLE_END
300
CELLSTYLE
  1
TABLEFORMAT_BEGIN
 90
        5
170
     1
 91
        0
 92
        0
 62
   257
 93
        1
300
CONTENTFORMAT
  1
CONTENTFORMAT_BEGIN
 90
        0
 91
        0
 92
      512
 93
        0
300

 40
0.0
140
1.0
 94
        2
 62
     0
340
DA9
144
0.18
309
CONTENTFORMAT_END
171
     1
301
MARGIN
  1
CELLMARGIN_BEGIN
 40
0.06
 40
0.06
 40
0.06
 40
0.06
 40
0.18
 40
0.18
309
CELLMARGIN_END
 94
        6
 95
        1
302
GRIDFORMAT
  1
GRIDFORMAT_BEGIN
 90
        0
 91
        1
 62
     0
 92
       -2
340
0
 93
        0
 40
0.045
309
GRIDFORMAT_END
 95
        2
302
GRIDFORMAT
  1
GRIDFORMAT_BEGIN
 90
        0
 91
        1
 62
     0
 92
       -2
340
0
 93
        0
 40
0.045
309
GRIDFORMAT_END
 95
        4
302
GRIDFORMAT
  1
GRIDFORMAT_BEGIN
 90
        0
 91
        1
 62
     0
 92
       -2
340
0
 93
        0
 40
0.045
309
GRIDFORMAT_END
 95
        8
302
GRIDFORMAT
  1
GRIDFORMAT_BEGIN
 90
        0
 91
        1
 62
     0
 92
       -2
340
0
 93
        0
 40
0.045
309
GRIDFORMAT_END
 95
       16
302
GRIDFORMAT
  1
GRIDFORMAT_BEGIN
 90
        0
 91
        1
 62
     0
 92
       -2
340
0
 93
        0
 40
0.045
309
GRIDFORMAT_END
 95
       32
302
GRIDFORMAT
  1
GRIDFORMAT_BEGIN
 90
        0
 91
        1
 62
     0
 92
       -2
340
0
 93
        0
 40
0.045
309
GRIDFORMAT_END
309
TABLEFORMAT_END
  1
CELLSTYLE_BEGIN
 90
        3
 91
        2
300
_DATA
309
CELLSTYLE_END
  0
XRECORD
  5
F41
102
{ACAD_REACTORS
330
F40
102
}
330
F40
100
AcDbXrecord
280
     1
102
RTVSPropertyOp0
 70
     1
102
RTVSPropertyOp1
 70
     1
102
RTVSPropertyOp2
 70
     1
102
RTVSPropertyOp3
 70
     1
102
RTVSPropertyOp4
 70
     1
102
RTVSPropertyOp5
 70
     1
102
RTVSPropertyOp6
 70
     1
102
RTVSPropertyOp7
 70
     1
102
RTVSPropertyOp8
 70
     1
102
RTVSPropertyOp9
 70
     1
102
RTVSPropertyOp10
 70
     1
102
RTVSPropertyOp11
 70
     1
102
RTVSPropertyOp12
 70
     1
102
RTVSPropertyOp13
 70
     1
102
RTVSPropertyOp14
 70
     1
102
RTVSPropertyOp15
 70
     1
102
RTVSPropertyOp16
 70
     1
102
RTVSPropertyOp17
 70
     1
102
RTVSPropertyOp18
 70
     1
102
RTVSPropertyOp19
 70
     1
102
RTVSPropertyOp20
 70
     1
102
RTVSPropertyOp21
 70
     1
102
RTVSPropertyOp22
 70
     1
102
RTVSPropertyOp23
 70
     1
102
RTVSPropertyOp24
 70
     1
102
RTVSPropertyOp25
 70
     1
102
RTVSPropertyOp26
 70
     1
102
RTVSPropertyOp27
 70
     1
102
RTVSPropertyOp28
 70
     1
102
RTVSPropertyOp29
 70
     1
102
RTVSPropertyOp30
 70
     1
102
RTVSPropertyOp31
 70
     1
102
RTVSPropertyOp32
 70
     1
  0
XRECORD
  5
F3F
102
{ACAD_REACTORS
330
F3E
102
}
330
F3E
100
AcDbXrecord
280
     1
102
RTVSPropertyOp0
 70
     1
102
RTVSPropertyOp1
 70
     1
102
RTVSPropertyOp2
 70
     1
102
RTVSPropertyOp3
 70
     1
102
RTVSPropertyOp4
 70
     1
102
RTVSPropertyOp5
 70
     1
102
RTVSPropertyOp6
 70
     1
102
RTVSPropertyOp7
 70
     1
102
RTVSPropertyOp8
 70
     1
102
RTVSPropertyOp9
 70
     1
102
RTVSPropertyOp10
 70
     1
102
RTVSPropertyOp11
 70
     1
102
RTVSPropertyOp12
 70
     1
102
RTVSPropertyOp13
 70
     1
102
RTVSPropertyOp14
 70
     1
102
RTVSPropertyOp15
 70
     1
102
RTVSPropertyOp16
 70
     1
102
RTVSPropertyOp17
 70
     1
102
RTVSPropertyOp18
 70
     1
102
RTVSPropertyOp19
 70
     1
102
RTVSPropertyOp20
 70
     1
102
RTVSPropertyOp21
 70
     1
102
RTVSPropertyOp22
 70
     1
102
RTVSPropertyOp23
 70
     1
102
RTVSPropertyOp24
 70
     1
102
RTVSPropertyOp25
 70
     1
102
RTVSPropertyOp26
 70
     1
102
RTVSPropertyOp27
 70
     1
102
RTVSPropertyOp28
 70
     1
102
RTVSPropertyOp29
 70
     1
102
RTVSPropertyOp30
 70
     1
102
RTVSPropertyOp31
 70
     1
102
RTVSPropertyOp32
 70
     1
  0
XRECORD
  5
F4D
102
{ACAD_REACTORS
330
F4C
102
}
330
F4C
100
AcDbXrecord
280
     1
102
RTVSPropertyOp0
 70
     1
102
RTVSPropertyOp1
 70
     1
102
RTVSPropertyOp2
 70
     1
102
RTVSPropertyOp3
 70
     1
102
RTVSPropertyOp4
 70
     1
102
RTVSPropertyOp5
 70
     1
102
RTVSPropertyOp6
 70
     1
102
RTVSPropertyOp7
 70
     1
102
RTVSPropertyOp8
 70
     1
102
RTVSPropertyOp9
 70
     1
102
RTVSPropertyOp10
 70
     1
102
RTVSPropertyOp11
 70
     1
102
RTVSPropertyOp12
 70
     1
102
RTVSPropertyOp13
 70
     1
102
RTVSPropertyOp14
 70
     1
102
RTVSPropertyOp15
 70
     1
102
RTVSPropertyOp16
 70
     1
102
RTVSPropertyOp17
 70
     1
102
RTVSPropertyOp18
 70
     1
102
RTVSPropertyOp19
 70
     1
102
RTVSPropertyOp20
 70
     1
102
RTVSPropertyOp21
 70
     1
102
RTVSPropertyOp22
 70
     1
102
RTVSPropertyOp23
 70
     1
102
RTVSPropertyOp24
 70
     1
102
RTVSPropertyOp25
 70
     1
102
RTVSPropertyOp26
 70
     1
102
RTVSPropertyOp27
 70
     1
102
RTVSPropertyOp28
 70
     1
102
RTVSPropertyOp29
 70
     1
102
RTVSPropertyOp30
 70
     1
102
RTVSPropertyOp31
 70
     1
102
RTVSPropertyOp32
 70
     1
  0
XRECORD
  5
F55
102
{ACAD_REACTORS
330
F54
102
}
330
F54
100
AcDbXrecord
280
     1
102
RTVSPropertyOp0
 70
     1
102
RTVSPropertyOp1
 70
     1
102
RTVSPropertyOp2
 70
     1
102
RTVSPropertyOp3
 70
     1
102
RTVSPropertyOp4
 70
     1
102
RTVSPropertyOp5
 70
     1
102
RTVSPropertyOp6
 70
     1
102
RTVSPropertyOp7
 70
     1
102
RTVSPropertyOp8
 70
     1
102
RTVSPropertyOp9
 70
     1
102
RTVSPropertyOp10
 70
     1
102
RTVSPropertyOp11
 70
     1
102
RTVSPropertyOp12
 70
     1
102
RTVSPropertyOp13
 70
     1
102
RTVSPropertyOp14
 70
     1
102
RTVSPropertyOp15
 70
     1
102
RTVSPropertyOp16
 70
     1
102
RTVSPropertyOp17
 70
     1
102
RTVSPropertyOp18
 70
     1
102
RTVSPropertyOp19
 70
     1
102
RTVSPropertyOp20
 70
     1
102
RTVSPropertyOp21
 70
     1
102
RTVSPropertyOp22
 70
     1
102
RTVSPropertyOp23
 70
     1
102
RTVSPropertyOp24
 70
     1
102
RTVSPropertyOp25
 70
     1
102
RTVSPropertyOp26
 70
     1
102
RTVSPropertyOp27
 70
     1
102
RTVSPropertyOp28
 70
     1
102
RTVSPropertyOp29
 70
     1
102
RTVSPropertyOp30
 70
     1
102
RTVSPropertyOp31
 70
     1
102
RTVSPropertyOp32
 70
     1
  0
XRECORD
  5
F47
102
{ACAD_REACTORS
330
F46
102
}
330
F46
100
AcDbXrecord
280
     1
102
RTVSPropertyOp0
 70
     1
102
RTVSPropertyOp1
 70
     1
102
RTVSPropertyOp2
 70
     1
102
RTVSPropertyOp3
 70
     1
102
RTVSPropertyOp4
 70
     1
102
RTVSPropertyOp5
 70
     1
102
RTVSPropertyOp6
 70
     1
102
RTVSPropertyOp7
 70
     1
102
RTVSPropertyOp8
 70
     1
102
RTVSPropertyOp9
 70
     1
102
RTVSPropertyOp10
 70
     1
102
RTVSPropertyOp11
 70
     1
102
RTVSPropertyOp12
 70
     1
102
RTVSPropertyOp13
 70
     1
102
RTVSPropertyOp14
 70
     1
102
RTVSPropertyOp15
 70
     1
102
RTVSPropertyOp16
 70
     1
102
RTVSPropertyOp17
 70
     1
102
RTVSPropertyOp18
 70
     1
102
RTVSPropertyOp19
 70
     1
102
RTVSPropertyOp20
 70
     1
102
RTVSPropertyOp21
 70
     1
102
RTVSPropertyOp22
 70
     1
102
RTVSPropertyOp23
 70
     1
102
RTVSPropertyOp24
 70
     1
102
RTVSPropertyOp25
 70
     1
102
RTVSPropertyOp26
 70
     1
102
RTVSPropertyOp27
 70
     1
102
RTVSPropertyOp28
 70
     1
102
RTVSPropertyOp29
 70
     1
102
RTVSPropertyOp30
 70
     1
102
RTVSPropertyOp31
 70
     1
102
RTVSPropertyOp32
 70
     1
  0
XRECORD
  5
F4B
102
{ACAD_REACTORS
330
F4A
102
}
330
F4A
100
AcDbXrecord
280
     1
102
RTVSPropertyOp0
 70
     1
102
RTVSPropertyOp1
 70
     1
102
RTVSPropertyOp2
 70
     1
102
RTVSPropertyOp3
 70
     1
102
RTVSPropertyOp4
 70
     1
102
RTVSPropertyOp5
 70
     1
102
RTVSPropertyOp6
 70
     1
102
RTVSPropertyOp7
 70
     1
102
RTVSPropertyOp8
 70
     1
102
RTVSPropertyOp9
 70
     1
102
RTVSPropertyOp10
 70
     1
102
RTVSPropertyOp11
 70
     1
102
RTVSPropertyOp12
 70
     1
102
RTVSPropertyOp13
 70
     1
102
RTVSPropertyOp14
 70
     1
102
RTVSPropertyOp15
 70
     1
102
RTVSPropertyOp16
 70
     1
102
RTVSPropertyOp17
 70
     1
102
RTVSPropertyOp18
 70
     1
102
RTVSPropertyOp19
 70
     1
102
RTVSPropertyOp20
 70
     1
102
RTVSPropertyOp21
 70
     1
102
RTVSPropertyOp22
 70
     1
102
RTVSPropertyOp23
 70
     1
102
RTVSPropertyOp24
 70
     1
102
RTVSPropertyOp25
 70
     1
102
RTVSPropertyOp26
 70
     1
102
RTVSPropertyOp27
 70
     1
102
RTVSPropertyOp28
 70
     1
102
RTVSPropertyOp29
 70
     1
102
RTVSPropertyOp30
 70
     1
102
RTVSPropertyOp31
 70
     1
102
RTVSPropertyOp32
 70
     1
  0
XRECORD
  5
F65
102
{ACAD_REACTORS
330
F64
102
}
330
F64
100
AcDbXrecord
280
     1
102
RTVSPropertyOp0
 70
     0
102
RTVSPropertyOp1
 70
     0
102
RTVSPropertyOp2
 70
     0
102
RTVSPropertyOp3
 70
     0
102
RTVSPropertyOp4
 70
     0
102
RTVSPropertyOp5
 70
     0
102
RTVSPropertyOp6
 70
     0
102
RTVSPropertyOp7
 70
     0
102
RTVSPropertyOp8
 70
     0
102
RTVSPropertyOp9
 70
     0
102
RTVSPropertyOp10
 70
     0
102
RTVSPropertyOp11
 70
     0
102
RTVSPropertyOp12
 70
     0
102
RTVSPropertyOp13
 70
     0
102
RTVSPropertyOp14
 70
     2
102
RTVSPropertyOp15
 70
     0
102
RTVSPropertyOp16
 70
     0
102
RTVSPropertyOp17
 70
     0
102
RTVSPropertyOp18
 70
     0
102
RTVSPropertyOp19
 70
     0
102
RTVSPropertyOp20
 70
     0
102
RTVSPropertyOp21
 70
     0
102
RTVSPropertyOp22
 70
     0
102
RTVSPropertyOp23
 70
     0
102
RTVSPropertyOp24
 70
     0
102
RTVSPropertyOp25
 70
     0
102
RTVSPropertyOp26
 70
     0
102
RTVSPropertyOp27
 70
     0
102
RTVSPropertyOp28
 70
     0
102
RTVSPropertyOp29
 70
     0
102
RTVSPropertyOp30
 70
     0
102
RTVSPropertyOp31
 70
     0
102
RTVSPropertyOp32
 70
     0
  0
XRECORD
  5
F53
102
{ACAD_REACTORS
330
F52
102
}
330
F52
100
AcDbXrecord
280
     1
102
RTVSPropertyOp0
 70
     1
102
RTVSPropertyOp1
 70
     1
102
RTVSPropertyOp2
 70
     1
102
RTVSPropertyOp3
 70
     1
102
RTVSPropertyOp4
 70
     1
102
RTVSPropertyOp5
 70
     1
102
RTVSPropertyOp6
 70
     1
102
RTVSPropertyOp7
 70
     1
102
RTVSPropertyOp8
 70
     1
102
RTVSPropertyOp9
 70
     1
102
RTVSPropertyOp10
 70
     1
102
RTVSPropertyOp11
 70
     1
102
RTVSPropertyOp12
 70
     1
102
RTVSPropertyOp13
 70
     1
102
RTVSPropertyOp14
 70
     1
102
RTVSPropertyOp15
 70
     1
102
RTVSPropertyOp16
 70
     1
102
RTVSPropertyOp17
 70
     1
102
RTVSPropertyOp18
 70
     1
102
RTVSPropertyOp19
 70
     1
102
RTVSPropertyOp20
 70
     1
102
RTVSPropertyOp21
 70
     1
102
RTVSPropertyOp22
 70
     1
102
RTVSPropertyOp23
 70
     1
102
RTVSPropertyOp24
 70
     1
102
RTVSPropertyOp25
 70
     1
102
RTVSPropertyOp26
 70
     1
102
RTVSPropertyOp27
 70
     1
102
RTVSPropertyOp28
 70
     1
102
RTVSPropertyOp29
 70
     1
102
RTVSPropertyOp30
 70
     1
102
RTVSPropertyOp31
 70
     1
102
RTVSPropertyOp32
 70
     1
  0
XRECORD
  5
F37
102
{ACAD_REACTORS
330
F36
102
}
330
F36
100
AcDbXrecord
280
     1
102
RTVSPropertyOp0
 70
     1
102
RTVSPropertyOp1
 70
     1
102
RTVSPropertyOp2
 70
     1
102
RTVSPropertyOp3
 70
     1
102
RTVSPropertyOp4
 70
     1
102
RTVSPropertyOp5
 70
     1
102
RTVSPropertyOp6
 70
     1
102
RTVSPropertyOp7
 70
     1
102
RTVSPropertyOp8
 70
     1
102
RTVSPropertyOp9
 70
     1
102
RTVSPropertyOp10
 70
     1
102
RTVSPropertyOp11
 70
     1
102
RTVSPropertyOp12
 70
     1
102
RTVSPropertyOp13
 70
     1
102
RTVSPropertyOp14
 70
     1
102
RTVSPropertyOp15
 70
     1
102
RTVSPropertyOp16
 70
     1
102
RTVSPropertyOp17
 70
     1
102
RTVSPropertyOp18
 70
     1
102
RTVSPropertyOp19
 70
     1
102
RTVSPropertyOp20
 70
     1
102
RTVSPropertyOp21
 70
     1
102
RTVSPropertyOp22
 70
     1
102
RTVSPropertyOp23
 70
     1
102
RTVSPropertyOp24
 70
     1
102
RTVSPropertyOp25
 70
     1
102
RTVSPropertyOp26
 70
     1
102
RTVSPropertyOp27
 70
     1
102
RTVSPropertyOp28
 70
     1
102
RTVSPropertyOp29
 70
     1
102
RTVSPropertyOp30
 70
     1
102
RTVSPropertyOp31
 70
     1
102
RTVSPropertyOp32
 70
     1
  0
XRECORD
  5
F39
102
{ACAD_REACTORS
330
F38
102
}
330
F38
100
AcDbXrecord
280
     1
102
RTVSPropertyOp0
 70
     1
102
RTVSPropertyOp1
 70
     1
102
RTVSPropertyOp2
 70
     1
102
RTVSPropertyOp3
 70
     1
102
RTVSPropertyOp4
 70
     1
102
RTVSPropertyOp5
 70
     1
102
RTVSPropertyOp6
 70
     1
102
RTVSPropertyOp7
 70
     1
102
RTVSPropertyOp8
 70
     1
102
RTVSPropertyOp9
 70
     1
102
RTVSPropertyOp10
 70
     1
102
RTVSPropertyOp11
 70
     1
102
RTVSPropertyOp12
 70
     1
102
RTVSPropertyOp13
 70
     1
102
RTVSPropertyOp14
 70
     1
102
RTVSPropertyOp15
 70
     1
102
RTVSPropertyOp16
 70
     1
102
RTVSPropertyOp17
 70
     1
102
RTVSPropertyOp18
 70
     1
102
RTVSPropertyOp19
 70
     1
102
RTVSPropertyOp20
 70
     1
102
RTVSPropertyOp21
 70
     1
102
RTVSPropertyOp22
 70
     1
102
RTVSPropertyOp23
 70
     1
102
RTVSPropertyOp24
 70
     1
102
RTVSPropertyOp25
 70
     1
102
RTVSPropertyOp26
 70
     1
102
RTVSPropertyOp27
 70
     1
102
RTVSPropertyOp28
 70
     1
102
RTVSPropertyOp29
 70
     1
102
RTVSPropertyOp30
 70
     1
102
RTVSPropertyOp31
 70
     1
102
RTVSPropertyOp32
 70
     1
  0
XRECORD
  5
F3B
102
{ACAD_REACTORS
330
F3A
102
}
330
F3A
100
AcDbXrecord
280
     1
102
RTVSPropertyOp0
 70
     1
102
RTVSPropertyOp1
 70
     1
102
RTVSPropertyOp2
 70
     1
102
RTVSPropertyOp3
 70
     1
102
RTVSPropertyOp4
 70
     1
102
RTVSPropertyOp5
 70
     1
102
RTVSPropertyOp6
 70
     1
102
RTVSPropertyOp7
 70
     1
102
RTVSPropertyOp8
 70
     1
102
RTVSPropertyOp9
 70
     1
102
RTVSPropertyOp10
 70
     1
102
RTVSPropertyOp11
 70
     1
102
RTVSPropertyOp12
 70
     1
102
RTVSPropertyOp13
 70
     1
102
RTVSPropertyOp14
 70
     1
102
RTVSPropertyOp15
 70
     1
102
RTVSPropertyOp16
 70
     1
102
RTVSPropertyOp17
 70
     1
102
RTVSPropertyOp18
 70
     1
102
RTVSPropertyOp19
 70
     1
102
RTVSPropertyOp20
 70
     1
102
RTVSPropertyOp21
 70
     1
102
RTVSPropertyOp22
 70
     1
102
RTVSPropertyOp23
 70
     1
102
RTVSPropertyOp24
 70
     1
102
RTVSPropertyOp25
 70
     1
102
RTVSPropertyOp26
 70
     1
102
RTVSPropertyOp27
 70
     1
102
RTVSPropertyOp28
 70
     1
102
RTVSPropertyOp29
 70
     1
102
RTVSPropertyOp30
 70
     1
102
RTVSPropertyOp31
 70
     1
102
RTVSPropertyOp32
 70
     1
  0
XRECORD
  5
F3D
102
{ACAD_REACTORS
330
F3C
102
}
330
F3C
100
AcDbXrecord
280
     1
102
RTVSPropertyOp0
 70
     1
102
RTVSPropertyOp1
 70
     1
102
RTVSPropertyOp2
 70
     1
102
RTVSPropertyOp3
 70
     1
102
RTVSPropertyOp4
 70
     1
102
RTVSPropertyOp5
 70
     1
102
RTVSPropertyOp6
 70
     1
102
RTVSPropertyOp7
 70
     1
102
RTVSPropertyOp8
 70
     1
102
RTVSPropertyOp9
 70
     1
102
RTVSPropertyOp10
 70
     1
102
RTVSPropertyOp11
 70
     1
102
RTVSPropertyOp12
 70
     1
102
RTVSPropertyOp13
 70
     1
102
RTVSPropertyOp14
 70
     1
102
RTVSPropertyOp15
 70
     1
102
RTVSPropertyOp16
 70
     1
102
RTVSPropertyOp17
 70
     1
102
RTVSPropertyOp18
 70
     1
102
RTVSPropertyOp19
 70
     1
102
RTVSPropertyOp20
 70
     1
102
RTVSPropertyOp21
 70
     1
102
RTVSPropertyOp22
 70
     1
102
RTVSPropertyOp23
 70
     1
102
RTVSPropertyOp24
 70
     1
102
RTVSPropertyOp25
 70
     1
102
RTVSPropertyOp26
 70
     1
102
RTVSPropertyOp27
 70
     1
102
RTVSPropertyOp28
 70
     1
102
RTVSPropertyOp29
 70
     1
102
RTVSPropertyOp30
 70
     1
102
RTVSPropertyOp31
 70
     1
102
RTVSPropertyOp32
 70
     1
  0
XRECORD
  5
F45
102
{ACAD_REACTORS
330
F44
102
}
330
F44
100
AcDbXrecord
280
     1
102
RTVSPropertyOp0
 70
     1
102
RTVSPropertyOp1
 70
     1
102
RTVSPropertyOp2
 70
     1
102
RTVSPropertyOp3
 70
     1
102
RTVSPropertyOp4
 70
     1
102
RTVSPropertyOp5
 70
     1
102
RTVSPropertyOp6
 70
     1
102
RTVSPropertyOp7
 70
     1
102
RTVSPropertyOp8
 70
     1
102
RTVSPropertyOp9
 70
     1
102
RTVSPropertyOp10
 70
     1
102
RTVSPropertyOp11
 70
     1
102
RTVSPropertyOp12
 70
     1
102
RTVSPropertyOp13
 70
     1
102
RTVSPropertyOp14
 70
     1
102
RTVSPropertyOp15
 70
     1
102
RTVSPropertyOp16
 70
     1
102
RTVSPropertyOp17
 70
     1
102
RTVSPropertyOp18
 70
     1
102
RTVSPropertyOp19
 70
     1
102
RTVSPropertyOp20
 70
     1
102
RTVSPropertyOp21
 70
     1
102
RTVSPropertyOp22
 70
     1
102
RTVSPropertyOp23
 70
     1
102
RTVSPropertyOp24
 70
     1
102
RTVSPropertyOp25
 70
     1
102
RTVSPropertyOp26
 70
     1
102
RTVSPropertyOp27
 70
     1
102
RTVSPropertyOp28
 70
     1
102
RTVSPropertyOp29
 70
     1
102
RTVSPropertyOp30
 70
     1
102
RTVSPropertyOp31
 70
     1
102
RTVSPropertyOp32
 70
     1
  0
XRECORD
  5
F61
102
{ACAD_REACTORS
330
F60
102
}
330
F60
100
AcDbXrecord
280
     1
102
RTVSPropertyOp0
 70
     0
102
RTVSPropertyOp1
 70
     0
102
RTVSPropertyOp2
 70
     0
102
RTVSPropertyOp3
 70
     0
102
RTVSPropertyOp4
 70
     0
102
RTVSPropertyOp5
 70
     0
102
RTVSPropertyOp6
 70
     0
102
RTVSPropertyOp7
 70
     0
102
RTVSPropertyOp8
 70
     0
102
RTVSPropertyOp9
 70
     0
102
RTVSPropertyOp10
 70
     0
102
RTVSPropertyOp11
 70
     0
102
RTVSPropertyOp12
 70
     0
102
RTVSPropertyOp13
 70
     0
102
RTVSPropertyOp14
 70
     2
102
RTVSPropertyOp15
 70
     0
102
RTVSPropertyOp16
 70
     0
102
RTVSPropertyOp17
 70
     0
102
RTVSPropertyOp18
 70
     0
102
RTVSPropertyOp19
 70
     0
102
RTVSPropertyOp20
 70
     0
102
RTVSPropertyOp21
 70
     0
102
RTVSPropertyOp22
 70
     0
102
RTVSPropertyOp23
 70
     0
102
RTVSPropertyOp24
 70
     0
102
RTVSPropertyOp25
 70
     0
102
RTVSPropertyOp26
 70
     0
102
RTVSPropertyOp27
 70
     0
102
RTVSPropertyOp28
 70
     0
102
RTVSPropertyOp29
 70
     0
102
RTVSPropertyOp30
 70
     0
102
RTVSPropertyOp31
 70
     0
102
RTVSPropertyOp32
 70
     0
  0
XRECORD
  5
F51
102
{ACAD_REACTORS
330
F50
102
}
330
F50
100
AcDbXrecord
280
     1
102
RTVSPropertyOp0
 70
     1
102
RTVSPropertyOp1
 70
     1
102
RTVSPropertyOp2
 70
     1
102
RTVSPropertyOp3
 70
     1
102
RTVSPropertyOp4
 70
     1
102
RTVSPropertyOp5
 70
     1
102
RTVSPropertyOp6
 70
     1
102
RTVSPropertyOp7
 70
     1
102
RTVSPropertyOp8
 70
     1
102
RTVSPropertyOp9
 70
     1
102
RTVSPropertyOp10
 70
     1
102
RTVSPropertyOp11
 70
     1
102
RTVSPropertyOp12
 70
     1
102
RTVSPropertyOp13
 70
     1
102
RTVSPropertyOp14
 70
     1
102
RTVSPropertyOp15
 70
     1
102
RTVSPropertyOp16
 70
     1
102
RTVSPropertyOp17
 70
     1
102
RTVSPropertyOp18
 70
     1
102
RTVSPropertyOp19
 70
     1
102
RTVSPropertyOp20
 70
     1
102
RTVSPropertyOp21
 70
     1
102
RTVSPropertyOp22
 70
     1
102
RTVSPropertyOp23
 70
     1
102
RTVSPropertyOp24
 70
     1
102
RTVSPropertyOp25
 70
     1
102
RTVSPropertyOp26
 70
     1
102
RTVSPropertyOp27
 70
     1
102
RTVSPropertyOp28
 70
     1
102
RTVSPropertyOp29
 70
     1
102
RTVSPropertyOp30
 70
     1
102
RTVSPropertyOp31
 70
     1
102
RTVSPropertyOp32
 70
     1
  0
XRECORD
  5
F63
102
{ACAD_REACTORS
330
F62
102
}
330
F62
100
AcDbXrecord
280
     1
102
RTVSPropertyOp0
 70
     0
102
RTVSPropertyOp1
 70
     0
102
RTVSPropertyOp2
 70
     0
102
RTVSPropertyOp3
 70
     0
102
RTVSPropertyOp4
 70
     0
102
RTVSPropertyOp5
 70
     0
102
RTVSPropertyOp6
 70
     0
102
RTVSPropertyOp7
 70
     0
102
RTVSPropertyOp8
 70
     0
102
RTVSPropertyOp9
 70
     0
102
RTVSPropertyOp10
 70
     0
102
RTVSPropertyOp11
 70
     0
102
RTVSPropertyOp12
 70
     0
102
RTVSPropertyOp13
 70
     0
102
RTVSPropertyOp14
 70
     2
102
RTVSPropertyOp15
 70
     0
102
RTVSPropertyOp16
 70
     0
102
RTVSPropertyOp17
 70
     0
102
RTVSPropertyOp18
 70
     0
102
RTVSPropertyOp19
 70
     0
102
RTVSPropertyOp20
 70
     0
102
RTVSPropertyOp21
 70
     0
102
RTVSPropertyOp22
 70
     0
102
RTVSPropertyOp23
 70
     0
102
RTVSPropertyOp24
 70
     0
102
RTVSPropertyOp25
 70
     0
102
RTVSPropertyOp26
 70
     0
102
RTVSPropertyOp27
 70
     0
102
RTVSPropertyOp28
 70
     0
102
RTVSPropertyOp29
 70
     0
102
RTVSPropertyOp30
 70
     0
102
RTVSPropertyOp31
 70
     0
102
RTVSPropertyOp32
 70
     0
  0
XRECORD
  5
F49
102
{ACAD_REACTORS
330
F48
102
}
330
F48
100
AcDbXrecord
280
     1
102
RTVSPropertyOp0
 70
     1
102
RTVSPropertyOp1
 70
     1
102
RTVSPropertyOp2
 70
     1
102
RTVSPropertyOp3
 70
     1
102
RTVSPropertyOp4
 70
     1
102
RTVSPropertyOp5
 70
     1
102
RTVSPropertyOp6
 70
     1
102
RTVSPropertyOp7
 70
     1
102
RTVSPropertyOp8
 70
     1
102
RTVSPropertyOp9
 70
     1
102
RTVSPropertyOp10
 70
     1
102
RTVSPropertyOp11
 70
     1
102
RTVSPropertyOp12
 70
     1
102
RTVSPropertyOp13
 70
     1
102
RTVSPropertyOp14
 70
     1
102
RTVSPropertyOp15
 70
     1
102
RTVSPropertyOp16
 70
     1
102
RTVSPropertyOp17
 70
     1
102
RTVSPropertyOp18
 70
     1
102
RTVSPropertyOp19
 70
     1
102
RTVSPropertyOp20
 70
     1
102
RTVSPropertyOp21
 70
     1
102
RTVSPropertyOp22
 70
     1
102
RTVSPropertyOp23
 70
     1
102
RTVSPropertyOp24
 70
     1
102
RTVSPropertyOp25
 70
     1
102
RTVSPropertyOp26
 70
     1
102
RTVSPropertyOp27
 70
     1
102
RTVSPropertyOp28
 70
     1
102
RTVSPropertyOp29
 70
     1
102
RTVSPropertyOp30
 70
     1
102
RTVSPropertyOp31
 70
     1
102
RTVSPropertyOp32
 70
     1
  0
XRECORD
  5
F5F
102
{ACAD_REACTORS
330
F5E
102
}
330
F5E
100
AcDbXrecord
280
     1
102
RTVSPropertyOp0
 70
     1
102
RTVSPropertyOp1
 70
     1
102
RTVSPropertyOp2
 70
     1
102
RTVSPropertyOp3
 70
     1
102
RTVSPropertyOp4
 70
     1
102
RTVSPropertyOp5
 70
     1
102
RTVSPropertyOp6
 70
     1
102
RTVSPropertyOp7
 70
     1
102
RTVSPropertyOp8
 70
     1
102
RTVSPropertyOp9
 70
     1
102
RTVSPropertyOp10
 70
     1
102
RTVSPropertyOp11
 70
     1
102
RTVSPropertyOp12
 70
     1
102
RTVSPropertyOp13
 70
     1
102
RTVSPropertyOp14
 70
     1
102
RTVSPropertyOp15
 70
     1
102
RTVSPropertyOp16
 70
     1
102
RTVSPropertyOp17
 70
     1
102
RTVSPropertyOp18
 70
     1
102
RTVSPropertyOp19
 70
     1
102
RTVSPropertyOp20
 70
     1
102
RTVSPropertyOp21
 70
     1
102
RTVSPropertyOp22
 70
     1
102
RTVSPropertyOp23
 70
     1
102
RTVSPropertyOp24
 70
     1
102
RTVSPropertyOp25
 70
     1
102
RTVSPropertyOp26
 70
     1
102
RTVSPropertyOp27
 70
     1
102
RTVSPropertyOp28
 70
     1
102
RTVSPropertyOp29
 70
     1
102
RTVSPropertyOp30
 70
     1
102
RTVSPropertyOp31
 70
     1
102
RTVSPropertyOp32
 70
     1
  0
XRECORD
  5
F5D
102
{ACAD_REACTORS
330
F5C
102
}
330
F5C
100
AcDbXrecord
280
     1
102
RTVSPropertyOp0
 70
     1
102
RTVSPropertyOp1
 70
     1
102
RTVSPropertyOp2
 70
     1
102
RTVSPropertyOp3
 70
     1
102
RTVSPropertyOp4
 70
     1
102
RTVSPropertyOp5
 70
     1
102
RTVSPropertyOp6
 70
     1
102
RTVSPropertyOp7
 70
     1
102
RTVSPropertyOp8
 70
     1
102
RTVSPropertyOp9
 70
     1
102
RTVSPropertyOp10
 70
     1
102
RTVSPropertyOp11
 70
     1
102
RTVSPropertyOp12
 70
     1
102
RTVSPropertyOp13
 70
     1
102
RTVSPropertyOp14
 70
     1
102
RTVSPropertyOp15
 70
     1
102
RTVSPropertyOp16
 70
     1
102
RTVSPropertyOp17
 70
     1
102
RTVSPropertyOp18
 70
     1
102
RTVSPropertyOp19
 70
     1
102
RTVSPropertyOp20
 70
     1
102
RTVSPropertyOp21
 70
     1
102
RTVSPropertyOp22
 70
     1
102
RTVSPropertyOp23
 70
     1
102
RTVSPropertyOp24
 70
     1
102
RTVSPropertyOp25
 70
     1
102
RTVSPropertyOp26
 70
     1
102
RTVSPropertyOp27
 70
     1
102
RTVSPropertyOp28
 70
     1
102
RTVSPropertyOp29
 70
     1
102
RTVSPropertyOp30
 70
     1
102
RTVSPropertyOp31
 70
     1
102
RTVSPropertyOp32
 70
     1
  0
XRECORD
  5
F57
102
{ACAD_REACTORS
330
F56
102
}
330
F56
100
AcDbXrecord
280
     1
102
RTVSPropertyOp0
 70
     1
102
RTVSPropertyOp1
 70
     1
102
RTVSPropertyOp2
 70
     1
102
RTVSPropertyOp3
 70
     1
102
RTVSPropertyOp4
 70
     1
102
RTVSPropertyOp5
 70
     1
102
RTVSPropertyOp6
 70
     1
102
RTVSPropertyOp7
 70
     1
102
RTVSPropertyOp8
 70
     1
102
RTVSPropertyOp9
 70
     1
102
RTVSPropertyOp10
 70
     1
102
RTVSPropertyOp11
 70
     1
102
RTVSPropertyOp12
 70
     1
102
RTVSPropertyOp13
 70
     1
102
RTVSPropertyOp14
 70
     1
102
RTVSPropertyOp15
 70
     1
102
RTVSPropertyOp16
 70
     1
102
RTVSPropertyOp17
 70
     1
102
RTVSPropertyOp18
 70
     1
102
RTVSPropertyOp19
 70
     1
102
RTVSPropertyOp20
 70
     1
102
RTVSPropertyOp21
 70
     1
102
RTVSPropertyOp22
 70
     1
102
RTVSPropertyOp23
 70
     1
102
RTVSPropertyOp24
 70
     1
102
RTVSPropertyOp25
 70
     1
102
RTVSPropertyOp26
 70
     1
102
RTVSPropertyOp27
 70
     1
102
RTVSPropertyOp28
 70
     1
102
RTVSPropertyOp29
 70
     1
102
RTVSPropertyOp30
 70
     1
102
RTVSPropertyOp31
 70
     1
102
RTVSPropertyOp32
 70
     1
  0
XRECORD
  5
F59
102
{ACAD_REACTORS
330
F58
102
}
330
F58
100
AcDbXrecord
280
     1
102
RTVSPropertyOp0
 70
     1
102
RTVSPropertyOp1
 70
     1
102
RTVSPropertyOp2
 70
     1
102
RTVSPropertyOp3
 70
     1
102
RTVSPropertyOp4
 70
     1
102
RTVSPropertyOp5
 70
     1
102
RTVSPropertyOp6
 70
     1
102
RTVSPropertyOp7
 70
     1
102
RTVSPropertyOp8
 70
     1
102
RTVSPropertyOp9
 70
     1
102
RTVSPropertyOp10
 70
     1
102
RTVSPropertyOp11
 70
     1
102
RTVSPropertyOp12
 70
     1
102
RTVSPropertyOp13
 70
     1
102
RTVSPropertyOp14
 70
     1
102
RTVSPropertyOp15
 70
     1
102
RTVSPropertyOp16
 70
     1
102
RTVSPropertyOp17
 70
     1
102
RTVSPropertyOp18
 70
     1
102
RTVSPropertyOp19
 70
     1
102
RTVSPropertyOp20
 70
     1
102
RTVSPropertyOp21
 70
     1
102
RTVSPropertyOp22
 70
     1
102
RTVSPropertyOp23
 70
     1
102
RTVSPropertyOp24
 70
     1
102
RTVSPropertyOp25
 70
     1
102
RTVSPropertyOp26
 70
     1
102
RTVSPropertyOp27
 70
     1
102
RTVSPropertyOp28
 70
     1
102
RTVSPropertyOp29
 70
     1
102
RTVSPropertyOp30
 70
     1
102
RTVSPropertyOp31
 70
     1
102
RTVSPropertyOp32
 70
     1
  0
XRECORD
  5
F4F
102
{ACAD_REACTORS
330
F4E
102
}
330
F4E
100
AcDbXrecord
280
     1
102
RTVSPropertyOp0
 70
     1
102
RTVSPropertyOp1
 70
     1
102
RTVSPropertyOp2
 70
     1
102
RTVSPropertyOp3
 70
     1
102
RTVSPropertyOp4
 70
     1
102
RTVSPropertyOp5
 70
     1
102
RTVSPropertyOp6
 70
     1
102
RTVSPropertyOp7
 70
     1
102
RTVSPropertyOp8
 70
     1
102
RTVSPropertyOp9
 70
     1
102
RTVSPropertyOp10
 70
     1
102
RTVSPropertyOp11
 70
     1
102
RTVSPropertyOp12
 70
     1
102
RTVSPropertyOp13
 70
     1
102
RTVSPropertyOp14
 70
     1
102
RTVSPropertyOp15
 70
     1
102
RTVSPropertyOp16
 70
     1
102
RTVSPropertyOp17
 70
     1
102
RTVSPropertyOp18
 70
     1
102
RTVSPropertyOp19
 70
     1
102
RTVSPropertyOp20
 70
     1
102
RTVSPropertyOp21
 70
     1
102
RTVSPropertyOp22
 70
     1
102
RTVSPropertyOp23
 70
     1
102
RTVSPropertyOp24
 70
     1
102
RTVSPropertyOp25
 70
     1
102
RTVSPropertyOp26
 70
     1
102
RTVSPropertyOp27
 70
     1
102
RTVSPropertyOp28
 70
     1
102
RTVSPropertyOp29
 70
     1
102
RTVSPropertyOp30
 70
     1
102
RTVSPropertyOp31
 70
     1
102
RTVSPropertyOp32
 70
     1
  0
XRECORD
  5
F43
102
{ACAD_REACTORS
330
F42
102
}
330
F42
100
AcDbXrecord
280
     1
102
RTVSPropertyOp0
 70
     1
102
RTVSPropertyOp1
 70
     1
102
RTVSPropertyOp2
 70
     1
102
RTVSPropertyOp3
 70
     1
102
RTVSPropertyOp4
 70
     1
102
RTVSPropertyOp5
 70
     1
102
RTVSPropertyOp6
 70
     1
102
RTVSPropertyOp7
 70
     1
102
RTVSPropertyOp8
 70
     1
102
RTVSPropertyOp9
 70
     1
102
RTVSPropertyOp10
 70
     1
102
RTVSPropertyOp11
 70
     1
102
RTVSPropertyOp12
 70
     1
102
RTVSPropertyOp13
 70
     1
102
RTVSPropertyOp14
 70
     1
102
RTVSPropertyOp15
 70
     1
102
RTVSPropertyOp16
 70
     1
102
RTVSPropertyOp17
 70
     1
102
RTVSPropertyOp18
 70
     1
102
RTVSPropertyOp19
 70
     1
102
RTVSPropertyOp20
 70
     1
102
RTVSPropertyOp21
 70
     1
102
RTVSPropertyOp22
 70
     1
102
RTVSPropertyOp23
 70
     1
102
RTVSPropertyOp24
 70
     1
102
RTVSPropertyOp25
 70
     1
102
RTVSPropertyOp26
 70
     1
102
RTVSPropertyOp27
 70
     1
102
RTVSPropertyOp28
 70
     1
102
RTVSPropertyOp29
 70
     1
102
RTVSPropertyOp30
 70
     1
102
RTVSPropertyOp31
 70
     1
102
RTVSPropertyOp32
 70
     1
  0
XRECORD
  5
F5B
102
{ACAD_REACTORS
330
F5A
102
}
330
F5A
100
AcDbXrecord
280
     1
102
RTVSPropertyOp0
 70
     1
102
RTVSPropertyOp1
 70
     1
102
RTVSPropertyOp2
 70
     1
102
RTVSPropertyOp3
 70
     1
102
RTVSPropertyOp4
 70
     1
102
RTVSPropertyOp5
 70
     1
102
RTVSPropertyOp6
 70
     1
102
RTVSPropertyOp7
 70
     1
102
RTVSPropertyOp8
 70
     1
102
RTVSPropertyOp9
 70
     1
102
RTVSPropertyOp10
 70
     1
102
RTVSPropertyOp11
 70
     1
102
RTVSPropertyOp12
 70
     1
102
RTVSPropertyOp13
 70
     1
102
RTVSPropertyOp14
 70
     1
102
RTVSPropertyOp15
 70
     1
102
RTVSPropertyOp16
 70
     1
102
RTVSPropertyOp17
 70
     1
102
RTVSPropertyOp18
 70
     1
102
RTVSPropertyOp19
 70
     1
102
RTVSPropertyOp20
 70
     1
102
RTVSPropertyOp21
 70
     1
102
RTVSPropertyOp22
 70
     1
102
RTVSPropertyOp23
 70
     1
102
RTVSPropertyOp24
 70
     1
102
RTVSPropertyOp25
 70
     1
102
RTVSPropertyOp26
 70
     1
102
RTVSPropertyOp27
 70
     1
102
RTVSPropertyOp28
 70
     1
102
RTVSPropertyOp29
 70
     1
102
RTVSPropertyOp30
 70
     1
102
RTVSPropertyOp31
 70
     1
102
RTVSPropertyOp32
 70
     1
  0
ENDSEC
  0
EOF
