  0
SECTION
  2
HEADER
  9
$ACADVER
  1
AC1021
  9
$ACADMAINTVER
 70
    50
  9
$DWGCODEPAGE
  3
ANSI_932
  9
$LASTSAVEDBY
  1
yamadak36
  9
$INSBASE
 10
0.0
 20
0.0
 30
0.0
  9
$EXTMIN
 10
-1290.148307836931
 20
-921.0162787716964
 30
-0.0000000349181948
  9
$EXTMAX
 10
1290.148331586303
 20
921.0162956481982
 30
0.0000000814935747
  9
$LIMMIN
 10
-1260.0
 20
-891.0
  9
$LIMMAX
 10
1260.0
 20
891.0
  9
$ORTHOMODE
 70
     0
  9
$REGENMODE
 70
     1
  9
$FILLMODE
 70
     1
  9
$QTEXTMODE
 70
     0
  9
$MIRRTEXT
 70
     1
  9
$LTSCALE
 40
1.5
  9
$ATTMODE
 70
     1
  9
$TEXTSIZE
 40
0.2
  9
$TRACEWID
 40
0.05
  9
$TEXTSTYLE
  7
STANDARD
  9
$CLAYER
  8
0
  9
$CELTYPE
  6
ByLayer
  9
$CECOLOR
 62
   256
  9
$CELTSCALE
 40
1.0
  9
$DISPSILH
 70
     0
  9
$DIMSCALE
 40
1.0
  9
$DIMASZ
 40
18.0000114440918
  9
$DIMEXO
 40
1.0
  9
$DIMDLI
 40
10.0
  9
$DIMRND
 40
0.0
  9
$DIMDLE
 40
0.0
  9
$DIMEXE
 40
1.0
  9
$DIMTP
 40
0.0
  9
$DIMTM
 40
0.0
  9
$DIMTXT
 40
24.0
  9
$DIMCEN
 40
0.0
  9
$DIMTSZ
 40
0.0
  9
$DIMTOL
 70
     0
  9
$DIMLIM
 70
     0
  9
$DIMTIH
 70
     0
  9
$DIMTOH
 70
     0
  9
$DIMSE1
 70
     0
  9
$DIMSE2
 70
     0
  9
$DIMTAD
 70
     1
  9
$DIMZIN
 70
     8
  9
$DIMBLK
  1

  9
$DIMASO
 70
     1
  9
$DIMSHO
 70
     1
  9
$DIMPOST
  1

  9
$DIMAPOST
  1

  9
$DIMALT
 70
     0
  9
$DIMALTD
 70
     2
  9
$DIMALTF
 40
25.4
  9
$DIMLFAC
 40
1.0
  9
$DIMTOFL
 70
     0
  9
$DIMTVP
 40
0.0
  9
$DIMTIX
 70
     0
  9
$DIMSOXD
 70
     0
  9
$DIMSAH
 70
     0
  9
$DIMBLK1
  1

  9
$DIMBLK2
  1

  9
$DIMSTYLE
  2
STANDARD
  9
$DIMCLRD
 70
     0
  9
$DIMCLRE
 70
     0
  9
$DIMCLRT
 70
     0
  9
$DIMTFAC
 40
0.65
  9
$DIMGAP
 40
0.09
  9
$DIMJUST
 70
     0
  9
$DIMSD1
 70
     0
  9
$DIMSD2
 70
     0
  9
$DIMTOLJ
 70
     1
  9
$DIMTZIN
 70
     0
  9
$DIMALTZ
 70
     0
  9
$DIMALTTZ
 70
     0
  9
$DIMUPT
 70
     0
  9
$DIMDEC
 70
     4
  9
$DIMTDEC
 70
     4
  9
$DIMALTU
 70
     2
  9
$DIMALTTD
 70
     2
  9
$DIMTXSTY
  7
STANDARD
  9
$DIMAUNIT
 70
     0
  9
$DIMADEC
 70
     0
  9
$DIMALTRND
 40
0.0
  9
$DIMAZIN
 70
     0
  9
$DIMDSEP
 70
    46
  9
$DIMATFIT
 70
     3
  9
$DIMFRAC
 70
     0
  9
$DIMLDRBLK
  1

  9
$DIMLUNIT
 70
     2
  9
$DIMLWD
 70
    -2
  9
$DIMLWE
 70
    -2
  9
$DIMTMOVE
 70
     0
  9
$DIMFXL
 40
1.0
  9
$DIMFXLON
 70
     0
  9
$DIMJOGANG
 40
0.7853981633974483
  9
$DIMTFILL
 70
     0
  9
$DIMTFILLCLR
 70
     0
  9
$DIMARCSYM
 70
     0
  9
$DIMLTYPE
  6

  9
$DIMLTEX1
  6

  9
$DIMLTEX2
  6

  9
$LUNITS
 70
     2
  9
$LUPREC
 70
     4
  9
$SKETCHINC
 40
0.1
  9
$FILLETRAD
 40
0.5
  9
$AUNITS
 70
     0
  9
$AUPREC
 70
     0
  9
$MENU
  1
.
  9
$ELEVATION
 40
0.0
  9
$PELEVATION
 40
0.0
  9
$THICKNESS
 40
0.0
  9
$LIMCHECK
 70
     0
  9
$CHAMFERA
 40
0.0
  9
$CHAMFERB
 40
0.0
  9
$CHAMFERC
 40
0.0
  9
$CHAMFERD
 40
0.0
  9
$SKPOLY
 70
     0
  9
$TDCREATE
 40
2457417.592071146
  9
$TDUCREATE
 40
2457417.217071146
  9
$TDUPDATE
 40
2457424.778952523
  9
$TDUUPDATE
 40
2457424.403952523
  9
$TDINDWG
 40
0.0035763194
  9
$TDUSRTIMER
 40
0.0035761806
  9
$USRTIMER
 70
     1
  9
$ANGBASE
 50
0.0
  9
$ANGDIR
 70
     0
  9
$PDMODE
 70
     0
  9
$PDSIZE
 40
1.0
  9
$PLINEWID
 40
0.0
  9
$SPLFRAME
 70
     0
  9
$SPLINETYPE
 70
     6
  9
$SPLINESEGS
 70
     8
  9
$HANDSEED
  5
8EB
  9
$SURFTAB1
 70
     6
  9
$SURFTAB2
 70
     6
  9
$SURFTYPE
 70
     6
  9
$SURFU
 70
     6
  9
$SURFV
 70
     6
  9
$UCSBASE
  2

  9
$UCSNAME
  2

  9
$UCSORG
 10
0.0
 20
0.0
 30
0.0
  9
$UCSXDIR
 10
1.0
 20
0.0
 30
0.0
  9
$UCSYDIR
 10
0.0
 20
1.0
 30
0.0
  9
$UCSORTHOREF
  2

  9
$UCSORTHOVIEW
 70
     0
  9
$UCSORGTOP
 10
0.0
 20
0.0
 30
0.0
  9
$UCSORGBOTTOM
 10
0.0
 20
0.0
 30
0.0
  9
$UCSORGLEFT
 10
0.0
 20
0.0
 30
0.0
  9
$UCSORGRIGHT
 10
0.0
 20
0.0
 30
0.0
  9
$UCSORGFRONT
 10
0.0
 20
0.0
 30
0.0
  9
$UCSORGBACK
 10
0.0
 20
0.0
 30
0.0
  9
$PUCSBASE
  2

  9
$PUCSNAME
  2

  9
$PUCSORG
 10
0.0
 20
0.0
 30
0.0
  9
$PUCSXDIR
 10
1.0
 20
0.0
 30
0.0
  9
$PUCSYDIR
 10
0.0
 20
1.0
 30
0.0
  9
$PUCSORTHOREF
  2

  9
$PUCSORTHOVIEW
 70
     0
  9
$PUCSORGTOP
 10
0.0
 20
0.0
 30
0.0
  9
$PUCSORGBOTTOM
 10
0.0
 20
0.0
 30
0.0
  9
$PUCSORGLEFT
 10
0.0
 20
0.0
 30
0.0
  9
$PUCSORGRIGHT
 10
0.0
 20
0.0
 30
0.0
  9
$PUCSORGFRONT
 10
0.0
 20
0.0
 30
0.0
  9
$PUCSORGBACK
 10
0.0
 20
0.0
 30
0.0
  9
$USERI1
 70
     0
  9
$USERI2
 70
     0
  9
$USERI3
 70
     0
  9
$USERI4
 70
     0
  9
$USERI5
 70
     0
  9
$USERR1
 40
0.0
  9
$USERR2
 40
0.0
  9
$USERR3
 40
0.0
  9
$USERR4
 40
0.0
  9
$USERR5
 40
0.0
  9
$WORLDVIEW
 70
     1
  9
$SHADEDGE
 70
     3
  9
$SHADEDIF
 70
    70
  9
$TILEMODE
 70
     1
  9
$MAXACTVP
 70
    64
  9
$PINSBASE
 10
0.0
 20
0.0
 30
0.0
  9
$PLIMCHECK
 70
     0
  9
$PEXTMIN
 10
1.000000000000000E+20
 20
1.000000000000000E+20
 30
1.000000000000000E+20
  9
$PEXTMAX
 10
-1.000000000000000E+20
 20
-1.000000000000000E+20
 30
-1.000000000000000E+20
  9
$PLIMMIN
 10
0.0
 20
0.0
  9
$PLIMMAX
 10
12.0
 20
9.0
  9
$UNITMODE
 70
     0
  9
$VISRETAIN
 70
     0
  9
$PLINEGEN
 70
     1
  9
$PSLTSCALE
 70
     0
  9
$TREEDEPTH
 70
  3020
  9
$CMLSTYLE
  2
Standard
  9
$CMLJUST
 70
     0
  9
$CMLSCALE
 40
1.0
  9
$PROXYGRAPHICS
 70
     1
  9
$MEASUREMENT
 70
     0
  9
$CELWEIGHT
370
    -1
  9
$ENDCAPS
280
     0
  9
$JOINSTYLE
280
     0
  9
$LWDISPLAY
290
     0
  9
$INSUNITS
 70
     0
  9
$HYPERLINKBASE
  1

  9
$STYLESHEET
  1

  9
$XEDIT
290
     1
  9
$CEPSNTYPE
380
     0
  9
$PSTYLEMODE
290
     1
  9
$FINGERPRINTGUID
  2
{4C2C7F49-44AB-43BA-BC91-66056EBA9779}
  9
$VERSIONGUID
  2
{E872D9E4-0ECF-4239-82F0-AC36186BA8F3}
  9
$EXTNAMES
290
     1
  9
$PSVPSCALE
 40
0.0
  9
$OLESTARTUP
290
     0
  9
$SORTENTS
280
   127
  9
$INDEXCTL
280
     0
  9
$HIDETEXT
280
     0
  9
$XCLIPFRAME
290
     0
  9
$HALOGAP
280
     0
  9
$OBSCOLOR
 70
   257
  9
$OBSLTYPE
280
     0
  9
$INTERSECTIONDISPLAY
280
     0
  9
$INTERSECTIONCOLOR
 70
   257
  9
$DIMASSOC
280
     1
  9
$PROJECTNAME
  1

  9
$CAMERADISPLAY
290
     0
  9
$LENSLENGTH
 40
50.0
  9
$CAMERAHEIGHT
 40
0.0
  9
$STEPSPERSEC
 40
2.0
  9
$STEPSIZE
 40
6.0
  9
$3DDWFPREC
 40
2.0
  9
$PSOLWIDTH
 40
0.25
  9
$PSOLHEIGHT
 40
4.0
  9
$LOFTANG1
 40
1.570796326794896
  9
$LOFTANG2
 40
1.570796326794896
  9
$LOFTMAG1
 40
0.0
  9
$LOFTMAG2
 40
0.0
  9
$LOFTPARAM
 70
     7
  9
$LOFTNORMALS
280
     1
  9
$LATITUDE
 40
37.795
  9
$LONGITUDE
 40
-122.394
  9
$NORTHDIRECTION
 40
0.0
  9
$TIMEZONE
 70
 -8000
  9
$LIGHTGLYPHDISPLAY
280
     1
  9
$TILEMODELIGHTSYNCH
280
     1
  9
$CMATERIAL
347
724
  9
$SOLIDHIST
280
     1
  9
$SHOWHIST
280
     1
  9
$DWFFRAME
280
     2
  9
$DGNFRAME
280
     0
  9
$REALWORLDSCALE
290
     1
  9
$INTERFERECOLOR
 62
     1
  9
$INTERFEREOBJVS
345
746
  9
$INTERFEREVPVS
346
743
  9
$CSHADOW
280
     0
  9
$SHADOWPLANELOCATION
 40
0.0
  0
ENDSEC
  0
SECTION
  2
CLASSES
  0
CLASS
  1
ACDBDICTIONARYWDFLT
  2
AcDbDictionaryWithDefault
  3
ObjectDBX Classes
 90
        0
 91
        1
280
     0
281
     0
  0
CLASS
  1
MATERIAL
  2
AcDbMaterial
  3
ObjectDBX Classes
 90
     1153
 91
        3
280
     0
281
     0
  0
CLASS
  1
VISUALSTYLE
  2
AcDbVisualStyle
  3
ObjectDBX Classes
 90
     4095
 91
       24
280
     0
281
     0
  0
CLASS
  1
SCALE
  2
AcDbScale
  3
ObjectDBX Classes
 90
     1153
 91
       17
280
     0
281
     0
  0
CLASS
  1
TABLESTYLE
  2
AcDbTableStyle
  3
ObjectDBX Classes
 90
     4095
 91
        1
280
     0
281
     0
  0
CLASS
  1
MLEADERSTYLE
  2
AcDbMLeaderStyle
  3
ACDB_MLEADERSTYLE_CLASS
 90
     4095
 91
        1
280
     0
281
     0
  0
CLASS
  1
ACAD_EVALUATION_GRAPH
  2
AcDbEvalGraph
  3
ObjectDBX Classes
 90
     1153
 91
        0
280
     0
281
     0
  0
CLASS
  1
ACAECUSTOBJ
  2
AcAeEditorObj
  3
AcAeEditorObj
 90
     1024
 91
        0
280
     0
281
     0
  0
CLASS
  1
ACDB_DYNAMICBLOCKPURGEPREVENTER_VERSION
  2
AcDbDynamicBlockPurgePreventer
  3
ObjectDBX Classes
 90
     1153
 91
        0
280
     0
281
     0
  0
CLASS
  1
CELLSTYLEMAP
  2
AcDbCellStyleMap
  3
ObjectDBX Classes
 90
     1152
 91
        2
280
     0
281
     0
  0
CLASS
  1
DICTIONARYVAR
  2
AcDbDictionaryVar
  3
ObjectDBX Classes
 90
        0
 91
        9
280
     0
281
     0
  0
ENDSEC
  0
SECTION
  2
TABLES
  0
TABLE
  2
VPORT
  5
71B
330
0
100
AcDbSymbolTable
 70
     1
  0
VPORT
  5
782
330
71B
100
AcDbSymbolTableRecord
100
AcDbViewportTableRecord
  2
*ACTIVE
 70
     0
 10
0.0
 20
0.0
 11
1.0
 21
1.0
 12
0.0000118746861517
 22
0.0000084382506884
 13
0.0
 23
0.0
 14
0.5
 24
0.5
 15
0.5
 25
0.5
 16
0.0
 26
0.0
 36
1.0
 17
0.0000000000001101
 27
0.0000000000002274
 37
0.0
 40
1856.42345390755
 41
2.079530638852672
 42
50.0
 43
0.0
 44
0.0
 50
0.0
 51
0.0
 71
     0
 72
  1000
 73
     1
 74
     1
 75
     0
 76
     0
 77
     0
 78
     0
281
     0
 65
     1
110
0.0
120
0.0
130
0.0
111
1.0
121
0.0
131
0.0
112
0.0
122
1.0
132
0.0
 79
     0
146
0.0
348
742
 60
     3
 61
     5
292
     1
282
     0
141
0.0
142
0.0
 63
   250
421
  3355443
  0
ENDTAB
  0
TABLE
  2
LTYPE
  5
718
330
0
100
AcDbSymbolTable
 70
    67
  0
LTYPE
  5
76D
330
718
100
AcDbSymbolTableRecord
100
AcDbLinetypeTableRecord
  2
ByBlock
 70
     0
  3

 72
    65
 73
     0
 40
0.0
  0
LTYPE
  5
76E
330
718
100
AcDbSymbolTableRecord
100
AcDbLinetypeTableRecord
  2
ByLayer
 70
     0
  3

 72
    65
 73
     0
 40
0.0
  0
LTYPE
  5
76F
330
718
100
AcDbSymbolTableRecord
100
AcDbLinetypeTableRecord
  2
CONTINUOUS
 70
     0
  3
Solid line
 72
    65
 73
     0
 40
0.0
  0
LTYPE
  5
783
330
718
100
AcDbSymbolTableRecord
100
AcDbLinetypeTableRecord
  2
HIDDENX2
 70
     0
  3
Hidden (2x) ____ ____ ____ ____ ____ ____ ____ 
 72
    65
 73
     2
 40
19.05
 49
12.7
 74
     0
 49
-6.349999999999998
 74
     0
  0
LTYPE
  5
784
330
718
100
AcDbSymbolTableRecord
100
AcDbLinetypeTableRecord
  2
HIDDEN
 70
     0
  3
Hidden __ __ __ __ __ __ __ __ __ __ __ __ __ __
 72
    65
 73
     2
 40
9.525
 49
6.349999999999998
 74
     0
 49
-3.174999999999998
 74
     0
  0
LTYPE
  5
785
330
718
100
AcDbSymbolTableRecord
100
AcDbLinetypeTableRecord
  2
HIDDEN2
 70
     0
  3
Hidden (.5x) _ _ _ _ _ _ _ _ _ _ _ _ _ _ _ _ _ 
 72
    65
 73
     2
 40
4.762499999999998
 49
3.174999999999998
 74
     0
 49
-1.587499999999999
 74
     0
  0
LTYPE
  5
786
330
718
100
AcDbSymbolTableRecord
100
AcDbLinetypeTableRecord
  2
DASHED
 70
     0
  3
Dashed __ __ __ __ __ __ __ __ __ __ __ __ __ _
 72
    65
 73
     2
 40
19.05
 49
12.7
 74
     0
 49
-6.349999999999998
 74
     0
  0
LTYPE
  5
787
330
718
100
AcDbSymbolTableRecord
100
AcDbLinetypeTableRecord
  2
DASHED2
 70
     0
  3
Dashed (.5x) _ _ _ _ _ _ _ _ _ _ _ _ _ _ _ _ _ 
 72
    65
 73
     2
 40
9.525
 49
6.349999999999998
 74
     0
 49
-3.174999999999998
 74
     0
  0
LTYPE
  5
788
330
718
100
AcDbSymbolTableRecord
100
AcDbLinetypeTableRecord
  2
DASHEDX2
 70
     0
  3
Dashed (2x) ____  ____  ____  ____  ____  ___
 72
    65
 73
     2
 40
38.09999999999999
 49
25.4
 74
     0
 49
-12.7
 74
     0
  0
LTYPE
  5
789
330
718
100
AcDbSymbolTableRecord
100
AcDbLinetypeTableRecord
  2
DOTX2
 70
     0
  3
Dot (2x) .  .  .  .  .  .  .  .  .  .  .  .  .  .
 72
    65
 73
     2
 40
12.7
 49
0.0
 74
     0
 49
-12.7
 74
     0
  0
LTYPE
  5
78A
330
718
100
AcDbSymbolTableRecord
100
AcDbLinetypeTableRecord
  2
DOT
 70
     0
  3
Dot . . . . . . . . . . . . . . . . . . . . . . . .
 72
    65
 73
     2
 40
6.349999999999998
 49
0.0
 74
     0
 49
-6.349999999999998
 74
     0
  0
LTYPE
  5
78B
330
718
100
AcDbSymbolTableRecord
100
AcDbLinetypeTableRecord
  2
DOT2
 70
     0
  3
Dot (.5x) ........................................
 72
    65
 73
     2
 40
3.174999999999998
 49
0.0
 74
     0
 49
-3.174999999999998
 74
     0
  0
LTYPE
  5
78C
330
718
100
AcDbSymbolTableRecord
100
AcDbLinetypeTableRecord
  2
CENTERX2
 70
     0
  3
Center (2x) ________  __  ________  __  _____
 72
    65
 73
     4
 40
101.6
 49
63.5
 74
     0
 49
-12.7
 74
     0
 49
12.7
 74
     0
 49
-12.7
 74
     0
  0
LTYPE
  5
78D
330
718
100
AcDbSymbolTableRecord
100
AcDbLinetypeTableRecord
  2
CENTER
 70
     0
  3
Center ____ _ ____ _ ____ _ ____ _ ____ _ ____
 72
    65
 73
     4
 40
50.8
 49
31.75
 74
     0
 49
-6.349999999999998
 74
     0
 49
6.349999999999998
 74
     0
 49
-6.349999999999998
 74
     0
  0
LTYPE
  5
78E
330
718
100
AcDbSymbolTableRecord
100
AcDbLinetypeTableRecord
  2
CENTER2
 70
     0
  3
Center (.5x) ___ _ ___ _ ___ _ ___ _ ___ _ ___
 72
    65
 73
     4
 40
28.575
 49
19.05
 74
     0
 49
-3.174999999999998
 74
     0
 49
3.174999999999998
 74
     0
 49
-3.174999999999998
 74
     0
  0
LTYPE
  5
78F
330
718
100
AcDbSymbolTableRecord
100
AcDbLinetypeTableRecord
  2
DASHDOTX2
 70
     0
  3
Dash dot (2x) ____  .  ____  .  ____  .  ___
 72
    65
 73
     4
 40
50.8
 49
25.4
 74
     0
 49
-12.7
 74
     0
 49
0.0
 74
     0
 49
-12.7
 74
     0
  0
LTYPE
  5
790
330
718
100
AcDbSymbolTableRecord
100
AcDbLinetypeTableRecord
  2
DASHDOT
 70
     0
  3
Dash dot __ . __ . __ . __ . __ . __ . __ . __
 72
    65
 73
     4
 40
25.4
 49
12.7
 74
     0
 49
-6.349999999999998
 74
     0
 49
0.0
 74
     0
 49
-6.349999999999998
 74
     0
  0
LTYPE
  5
791
330
718
100
AcDbSymbolTableRecord
100
AcDbLinetypeTableRecord
  2
DASHDOT2
 70
     0
  3
Dash dot (.5x) _._._._._._._._._._._._._._._.
 72
    65
 73
     4
 40
12.7
 49
6.349999999999998
 74
     0
 49
-3.174999999999998
 74
     0
 49
0.0
 74
     0
 49
-3.174999999999998
 74
     0
  0
LTYPE
  5
792
330
718
100
AcDbSymbolTableRecord
100
AcDbLinetypeTableRecord
  2
DIVIDEX2
 70
     0
  3
Divide (2x) ________  .  .  ________  .  .  _
 72
    65
 73
     6
 40
63.5
 49
25.4
 74
     0
 49
-12.7
 74
     0
 49
0.0
 74
     0
 49
-12.7
 74
     0
 49
0.0
 74
     0
 49
-12.7
 74
     0
  0
LTYPE
  5
793
330
718
100
AcDbSymbolTableRecord
100
AcDbLinetypeTableRecord
  2
DIVIDE
 70
     0
  3
Divide ____ . . ____ . . ____ . . ____ . . ____
 72
    65
 73
     6
 40
31.75
 49
12.7
 74
     0
 49
-6.349999999999998
 74
     0
 49
0.0
 74
     0
 49
-6.349999999999998
 74
     0
 49
0.0
 74
     0
 49
-6.349999999999998
 74
     0
  0
LTYPE
  5
794
330
718
100
AcDbSymbolTableRecord
100
AcDbLinetypeTableRecord
  2
DIVIDE2
 70
     0
  3
Divide (.5x) __..__..__..__..__..__..__..__.._
 72
    65
 73
     6
 40
15.875
 49
6.349999999999998
 74
     0
 49
-3.174999999999998
 74
     0
 49
0.0
 74
     0
 49
-3.174999999999998
 74
     0
 49
0.0
 74
     0
 49
-3.174999999999998
 74
     0
  0
LTYPE
  5
795
330
718
100
AcDbSymbolTableRecord
100
AcDbLinetypeTableRecord
  2
BORDERX2
 70
     0
  3
Border (2x) ____  ____  .  ____  ____  .  ___
 72
    65
 73
     6
 40
88.89999999999998
 49
25.4
 74
     0
 49
-12.7
 74
     0
 49
25.4
 74
     0
 49
-12.7
 74
     0
 49
0.0
 74
     0
 49
-12.7
 74
     0
  0
LTYPE
  5
796
330
718
100
AcDbSymbolTableRecord
100
AcDbLinetypeTableRecord
  2
BORDER
 70
     0
  3
Border __ __ . __ __ . __ __ . __ __ . __ __ .
 72
    65
 73
     6
 40
44.45
 49
12.7
 74
     0
 49
-6.349999999999998
 74
     0
 49
12.7
 74
     0
 49
-6.349999999999998
 74
     0
 49
0.0
 74
     0
 49
-6.349999999999998
 74
     0
  0
LTYPE
  5
797
330
718
100
AcDbSymbolTableRecord
100
AcDbLinetypeTableRecord
  2
BORDER2
 70
     0
  3
Border (.5x) __.__.__.__.__.__.__.__.__.__.__.
 72
    65
 73
     6
 40
22.225
 49
6.349999999999998
 74
     0
 49
-3.174999999999998
 74
     0
 49
6.349999999999998
 74
     0
 49
-3.174999999999998
 74
     0
 49
0.0
 74
     0
 49
-3.174999999999998
 74
     0
  0
LTYPE
  5
798
330
718
100
AcDbSymbolTableRecord
100
AcDbLinetypeTableRecord
  2
PHANTOMX2
 70
     0
  3
Phantom (2x) ____________    ____    ____   _
 72
    65
 73
     6
 40
127.0
 49
63.5
 74
     0
 49
-12.7
 74
     0
 49
12.7
 74
     0
 49
-12.7
 74
     0
 49
12.7
 74
     0
 49
-12.7
 74
     0
  0
LTYPE
  5
799
330
718
100
AcDbSymbolTableRecord
100
AcDbLinetypeTableRecord
  2
PHANTOM
 70
     0
  3
Phantom ______  __  __  ______  __  __  ______ 
 72
    65
 73
     6
 40
63.5
 49
31.75
 74
     0
 49
-6.349999999999998
 74
     0
 49
6.349999999999998
 74
     0
 49
-6.349999999999998
 74
     0
 49
6.349999999999998
 74
     0
 49
-6.349999999999998
 74
     0
  0
LTYPE
  5
79A
330
718
100
AcDbSymbolTableRecord
100
AcDbLinetypeTableRecord
  2
PHANTOM2
 70
     0
  3
Phantom (.5x) ___ _ _ ___ _ _ ___ _ _ ___ _ _
 72
    65
 73
     6
 40
31.75
 49
15.875
 74
     0
 49
-3.174999999999998
 74
     0
 49
3.174999999999998
 74
     0
 49
-3.174999999999998
 74
     0
 49
3.174999999999998
 74
     0
 49
-3.174999999999998
 74
     0
  0
LTYPE
  5
79B
330
718
100
AcDbSymbolTableRecord
100
AcDbLinetypeTableRecord
  2
ACAD_ISO06W100
 70
     0
  3
ISO long-dash triple-dot ____ ... ____ ... ____
 72
    65
 73
     8
 40
36.0
 49
24.0
 74
     0
 49
-3.0
 74
     0
 49
0.0
 74
     0
 49
-3.0
 74
     0
 49
0.0
 74
     0
 49
-3.0
 74
     0
 49
0.0
 74
     0
 49
-3.0
 74
     0
  0
LTYPE
  5
79C
330
718
100
AcDbSymbolTableRecord
100
AcDbLinetypeTableRecord
  2
ACAD_ISO13W100
 70
     0
  3
ISO double-dash double-dot __ __ . . __ __ . . _
 72
    65
 73
     8
 40
36.0
 49
12.0
 74
     0
 49
-3.0
 74
     0
 49
12.0
 74
     0
 49
-3.0
 74
     0
 49
0.0
 74
     0
 49
-3.0
 74
     0
 49
0.0
 74
     0
 49
-3.0
 74
     0
  0
LTYPE
  5
79D
330
718
100
AcDbSymbolTableRecord
100
AcDbLinetypeTableRecord
  2
ACAD_ISO14W100
 70
     0
  3
ISO dash triple-dot __ . . . __ . . . __ . . . _
 72
    65
 73
     8
 40
24.0
 49
12.0
 74
     0
 49
-3.0
 74
     0
 49
0.0
 74
     0
 49
-3.0
 74
     0
 49
0.0
 74
     0
 49
-3.0
 74
     0
 49
0.0
 74
     0
 49
-3.0
 74
     0
  0
LTYPE
  5
79E
330
718
100
AcDbSymbolTableRecord
100
AcDbLinetypeTableRecord
  2
ACAD_ISO02W100
 70
     0
  3
ISO dash __ __ __ __ __ __ __ __ __ __ __ __ __
 72
    65
 73
     2
 40
15.0
 49
12.0
 74
     0
 49
-3.0
 74
     0
  0
LTYPE
  5
79F
330
718
100
AcDbSymbolTableRecord
100
AcDbLinetypeTableRecord
  2
ACAD_ISO03W100
 70
     0
  3
ISO dash space __    __    __    __    __    __
 72
    65
 73
     2
 40
30.0
 49
12.0
 74
     0
 49
-18.0
 74
     0
  0
LTYPE
  5
7A0
330
718
100
AcDbSymbolTableRecord
100
AcDbLinetypeTableRecord
  2
ACAD_ISO04W100
 70
     0
  3
ISO long-dash dot ____ . ____ . ____ . ____ . _
 72
    65
 73
     4
 40
30.0
 49
24.0
 74
     0
 49
-3.0
 74
     0
 49
0.0
 74
     0
 49
-3.0
 74
     0
  0
LTYPE
  5
7A1
330
718
100
AcDbSymbolTableRecord
100
AcDbLinetypeTableRecord
  2
ACAD_ISO05W100
 70
     0
  3
ISO long-dash double-dot ____ .. ____ .. ____ . 
 72
    65
 73
     6
 40
33.0
 49
24.0
 74
     0
 49
-3.0
 74
     0
 49
0.0
 74
     0
 49
-3.0
 74
     0
 49
0.0
 74
     0
 49
-3.0
 74
     0
  0
LTYPE
  5
7A2
330
718
100
AcDbSymbolTableRecord
100
AcDbLinetypeTableRecord
  2
ACAD_ISO07W100
 70
     0
  3
ISO dot . . . . . . . . . . . . . . . . . . . . 
 72
    65
 73
     2
 40
3.0
 49
0.0
 74
     0
 49
-3.0
 74
     0
  0
LTYPE
  5
7A3
330
718
100
AcDbSymbolTableRecord
100
AcDbLinetypeTableRecord
  2
ACAD_ISO08W100
 70
     0
  3
ISO long-dash short-dash ____ __ ____ __ ____ _
 72
    65
 73
     4
 40
36.0
 49
24.0
 74
     0
 49
-3.0
 74
     0
 49
6.0
 74
     0
 49
-3.0
 74
     0
  0
LTYPE
  5
7A4
330
718
100
AcDbSymbolTableRecord
100
AcDbLinetypeTableRecord
  2
ACAD_ISO09W100
 70
     0
  3
ISO long-dash double-short-dash ____ __ __ ____
 72
    65
 73
     6
 40
45.0
 49
24.0
 74
     0
 49
-3.0
 74
     0
 49
6.0
 74
     0
 49
-3.0
 74
     0
 49
6.0
 74
     0
 49
-3.0
 74
     0
  0
LTYPE
  5
7A5
330
718
100
AcDbSymbolTableRecord
100
AcDbLinetypeTableRecord
  2
ACAD_ISO10W100
 70
     0
  3
ISO dash dot __ . __ . __ . __ . __ . __ . __ . 
 72
    65
 73
     4
 40
18.0
 49
12.0
 74
     0
 49
-3.0
 74
     0
 49
0.0
 74
     0
 49
-3.0
 74
     0
  0
LTYPE
  5
7A6
330
718
100
AcDbSymbolTableRecord
100
AcDbLinetypeTableRecord
  2
ACAD_ISO11W100
 70
     0
  3
ISO double-dash dot __ __ . __ __ . __ __ . __ _
 72
    65
 73
     6
 40
33.0
 49
12.0
 74
     0
 49
-3.0
 74
     0
 49
12.0
 74
     0
 49
-3.0
 74
     0
 49
0.0
 74
     0
 49
-3.0
 74
     0
  0
LTYPE
  5
7A7
330
718
100
AcDbSymbolTableRecord
100
AcDbLinetypeTableRecord
  2
ACAD_ISO12W100
 70
     0
  3
ISO dash double-dot __ . . __ . . __ . . __ . . 
 72
    65
 73
     6
 40
21.0
 49
12.0
 74
     0
 49
-3.0
 74
     0
 49
0.0
 74
     0
 49
-3.0
 74
     0
 49
0.0
 74
     0
 49
-3.0
 74
     0
  0
LTYPE
  5
7A8
330
718
100
AcDbSymbolTableRecord
100
AcDbLinetypeTableRecord
  2
ACAD_ISO15W100
 70
     0
  3
ISO double-dash triple-dot __ __ . . . __ __ . .
 72
    65
 73
    10
 40
39.0
 49
12.0
 74
     0
 49
-3.0
 74
     0
 49
12.0
 74
     0
 49
-3.0
 74
     0
 49
0.0
 74
     0
 49
-3.0
 74
     0
 49
0.0
 74
     0
 49
-3.0
 74
     0
 49
0.0
 74
     0
 49
-3.0
 74
     0
  0
LTYPE
  5
7A9
330
718
100
AcDbSymbolTableRecord
100
AcDbLinetypeTableRecord
  2
JIS_02_0_7
 70
     0
  3
HIDDEN0.75 _ _ _ _ _ _ _ _ _ _ _ _ _ _ _ _ _ 
 72
    65
 73
     2
 40
1.35
 49
0.75
 74
     0
 49
-0.6
 74
     0
  0
LTYPE
  5
7AA
330
718
100
AcDbSymbolTableRecord
100
AcDbLinetypeTableRecord
  2
JIS_02_1_0
 70
     0
  3
HIDDEN01 _ _ _ _ _ _ _ _ _ _ _ _ _ _ _ _ _ 
 72
    65
 73
     2
 40
2.0
 49
1.0
 74
     0
 49
-1.0
 74
     0
  0
LTYPE
  5
7AB
330
718
100
AcDbSymbolTableRecord
100
AcDbLinetypeTableRecord
  2
JIS_02_1_2
 70
     0
  3
HIDDEN01.25  _ _ _ _ _ _ _ _ _ _ _ _ _ _ _ _ _ 
 72
    65
 73
     2
 40
2.5
 49
1.25
 74
     0
 49
-1.25
 74
     0
  0
LTYPE
  5
7AC
330
718
100
AcDbSymbolTableRecord
100
AcDbLinetypeTableRecord
  2
JIS_02_2_0
 70
     0
  3
HIDDEN02 __ __ __ __ __ __ __ __ __ __ __ 
 72
    65
 73
     2
 40
3.0
 49
2.0
 74
     0
 49
-1.0
 74
     0
  0
LTYPE
  5
7AD
330
718
100
AcDbSymbolTableRecord
100
AcDbLinetypeTableRecord
  2
JIS_02_4_0
 70
     0
  3
HIDDEN04 ____ ____ ____ ____ ____ ____ ____ 
 72
    65
 73
     2
 40
5.5
 49
4.0
 74
     0
 49
-1.5
 74
     0
  0
LTYPE
  5
7AE
330
718
100
AcDbSymbolTableRecord
100
AcDbLinetypeTableRecord
  2
JIS_08_11
 70
     0
  3
1SASEN11 ___ _ ___ _ ___ _ ___ _ ___ _ ___
 72
    65
 73
     4
 40
12.8
 49
11.0
 74
     0
 49
-0.6
 74
     0
 49
0.6
 74
     0
 49
-0.6
 74
     0
  0
LTYPE
  5
7AF
330
718
100
AcDbSymbolTableRecord
100
AcDbLinetypeTableRecord
  2
JIS_08_15
 70
     0
  3
1SASEN15 ____ _ ____ _ ____ _ ____ _ ____ 
 72
    65
 73
     4
 40
17.25
 49
15.0
 74
     0
 49
-0.75
 74
     0
 49
0.75
 74
     0
 49
-0.75
 74
     0
  0
LTYPE
  5
7B0
330
718
100
AcDbSymbolTableRecord
100
AcDbLinetypeTableRecord
  2
JIS_08_25
 70
     0
  3
1SASEN25 ________  __  ________  __  _____
 72
    65
 73
     4
 40
28.0
 49
25.0
 74
     0
 49
-1.125
 74
     0
 49
0.75
 74
     0
 49
-1.125
 74
     0
  0
LTYPE
  5
7B1
330
718
100
AcDbSymbolTableRecord
100
AcDbLinetypeTableRecord
  2
JIS_08_37
 70
     0
  3
1SASEN37 ________  __  ________  __  _____
 72
    65
 73
     4
 40
40.49999999999999
 49
37.5
 74
     0
 49
-1.125
 74
     0
 49
0.75
 74
     0
 49
-1.125
 74
     0
  0
LTYPE
  5
7B2
330
718
100
AcDbSymbolTableRecord
100
AcDbLinetypeTableRecord
  2
JIS_08_50
 70
     0
  3
1SASEN50 _______________  __  ____________
 72
    65
 73
     4
 40
53.0
 49
50.0
 74
     0
 49
-1.125
 74
     0
 49
0.75
 74
     0
 49
-1.125
 74
     0
  0
LTYPE
  5
7B3
330
718
100
AcDbSymbolTableRecord
100
AcDbLinetypeTableRecord
  2
JIS_09_08
 70
     0
  3
2SASEN8 __ _ _ __ _ _ __ _ _ __ _ _ __ _ _ 
 72
    65
 73
     6
 40
10.75
 49
8.0
 74
     0
 49
-0.55
 74
     0
 49
0.55
 74
     0
 49
-0.55
 74
     0
 49
0.55
 74
     0
 49
-0.55
 74
     0
  0
LTYPE
  5
7B4
330
718
100
AcDbSymbolTableRecord
100
AcDbLinetypeTableRecord
  2
JIS_09_15
 70
     0
  3
2SASEN15 ___ _ _ ___ _ _ ___ _ _ ___ _ _ ___ 
 72
    65
 73
     6
 40
18.9
 49
15.0
 74
     0
 49
-0.9
 74
     0
 49
0.6
 74
     0
 49
-0.9
 74
     0
 49
0.6
 74
     0
 49
-0.9
 74
     0
  0
LTYPE
  5
7B5
330
718
100
AcDbSymbolTableRecord
100
AcDbLinetypeTableRecord
  2
JIS_09_29
 70
     0
  3
2SASEN29 ______　__  __  ______　__  __  ___
 72
    65
 73
     6
 40
34.0
 49
29.0
 74
     0
 49
-1.199999999999999
 74
     0
 49
0.7
 74
     0
 49
-1.199999999999999
 74
     0
 49
0.7
 74
     0
 49
-1.199999999999999
 74
     0
  0
LTYPE
  5
7B6
330
718
100
AcDbSymbolTableRecord
100
AcDbLinetypeTableRecord
  2
JIS_09_50
 70
     0
  3
2SASEN50 ____________　__  __  _____________
 72
    65
 73
     6
 40
55.0
 49
50.0
 74
     0
 49
-1.199999999999999
 74
     0
 49
0.7
 74
     0
 49
-1.199999999999999
 74
     0
 49
0.7
 74
     0
 49
-1.199999999999999
 74
     0
  0
LTYPE
  5
7B7
330
718
100
AcDbSymbolTableRecord
100
AcDbLinetypeTableRecord
  2
SXF_破線
 70
     0
  3
02 dashed -- -- -- -- -- --
 72
    65
 73
     2
 40
7.5
 49
6.0
 74
     0
 49
-1.5
 74
     0
  0
LTYPE
  5
7B8
330
718
100
AcDbSymbolTableRecord
100
AcDbLinetypeTableRecord
  2
SXF_跳び破線
 70
     0
  3
03 dashed_spaced --  --  --  --
 72
    65
 73
     2
 40
12.0
 49
6.0
 74
     0
 49
-6.0
 74
     0
  0
LTYPE
  5
7B9
330
718
100
AcDbSymbolTableRecord
100
AcDbLinetypeTableRecord
  2
SXF_一点長鎖線
 70
     0
  3
04 long_dashed_dotted ---- . ---- . ----
 72
    65
 73
     4
 40
15.25
 49
12.0
 74
     0
 49
-1.5
 74
     0
 49
0.25
 74
     0
 49
-1.5
 74
     0
  0
LTYPE
  5
7BA
330
718
100
AcDbSymbolTableRecord
100
AcDbLinetypeTableRecord
  2
SXF_二点長鎖線
 70
     0
  3
05 long_dashed_double-dotted ---- . . ---- 
 72
    65
 73
     6
 40
17.0
 49
12.0
 74
     0
 49
-1.5
 74
     0
 49
0.25
 74
     0
 49
-1.5
 74
     0
 49
0.25
 74
     0
 49
-1.5
 74
     0
  0
LTYPE
  5
7BB
330
718
100
AcDbSymbolTableRecord
100
AcDbLinetypeTableRecord
  2
SXF_三点長鎖線
 70
     0
  3
06 long_dashed_triplicate-dotted ---- ... ---- 
 72
    65
 73
     8
 40
18.75
 49
12.0
 74
     0
 49
-1.5
 74
     0
 49
0.25
 74
     0
 49
-1.5
 74
     0
 49
0.25
 74
     0
 49
-1.5
 74
     0
 49
0.25
 74
     0
 49
-1.5
 74
     0
  0
LTYPE
  5
7BC
330
718
100
AcDbSymbolTableRecord
100
AcDbLinetypeTableRecord
  2
SXF_点線
 70
     0
  3
07 dotted . . . . . . . . . . . . 
 72
    65
 73
     2
 40
1.75
 49
0.25
 74
     0
 49
-1.5
 74
     0
  0
LTYPE
  5
7BD
330
718
100
AcDbSymbolTableRecord
100
AcDbLinetypeTableRecord
  2
SXF_一点鎖線
 70
     0
  3
08 chain ---- - --- - --- - ---
 72
    65
 73
     4
 40
18.5
 49
12.0
 74
     0
 49
-1.5
 74
     0
 49
3.5
 74
     0
 49
-1.5
 74
     0
  0
LTYPE
  5
7BE
330
718
100
AcDbSymbolTableRecord
100
AcDbLinetypeTableRecord
  2
SXF_二点鎖線
 70
     0
  3
09 chain_double_dash ---- - - ---- - - ----
 72
    65
 73
     6
 40
23.5
 49
12.0
 74
     0
 49
-1.5
 74
     0
 49
3.5
 74
     0
 49
-1.5
 74
     0
 49
3.5
 74
     0
 49
-1.5
 74
     0
  0
LTYPE
  5
7BF
330
718
100
AcDbSymbolTableRecord
100
AcDbLinetypeTableRecord
  2
SXF_一点短鎖線
 70
     0
  3
10 dashed_dotted -- . -- . -- . --
 72
    65
 73
     4
 40
9.25
 49
6.0
 74
     0
 49
-1.5
 74
     0
 49
0.25
 74
     0
 49
-1.5
 74
     0
  0
LTYPE
  5
7C0
330
718
100
AcDbSymbolTableRecord
100
AcDbLinetypeTableRecord
  2
SXF_一点二短鎖線
 70
     0
  3
11 double-dashed_dotted -- -- . -- --
 72
    65
 73
     6
 40
16.75
 49
6.0
 74
     0
 49
-1.5
 74
     0
 49
6.0
 74
     0
 49
-1.5
 74
     0
 49
0.25
 74
     0
 49
-1.5
 74
     0
  0
LTYPE
  5
7C1
330
718
100
AcDbSymbolTableRecord
100
AcDbLinetypeTableRecord
  2
SXF_二点短鎖線
 70
     0
  3
12 dashed_double_dotted -- . . -- . . --
 72
    65
 73
     6
 40
11.0
 49
6.0
 74
     0
 49
-1.5
 74
     0
 49
0.25
 74
     0
 49
-1.5
 74
     0
 49
0.25
 74
     0
 49
-1.5
 74
     0
  0
LTYPE
  5
7C2
330
718
100
AcDbSymbolTableRecord
100
AcDbLinetypeTableRecord
  2
SXF_二点二短鎖線
 70
     0
  3
13 double-dashed_double-dotted -- -- . . -- --
 72
    65
 73
     8
 40
18.5
 49
6.0
 74
     0
 49
-1.5
 74
     0
 49
6.0
 74
     0
 49
-1.5
 74
     0
 49
0.25
 74
     0
 49
-1.5
 74
     0
 49
0.25
 74
     0
 49
-1.5
 74
     0
  0
LTYPE
  5
7C3
330
718
100
AcDbSymbolTableRecord
100
AcDbLinetypeTableRecord
  2
SXF_三点短鎖線
 70
     0
  3
14 dashed triplicate-dotted -- . . . -- . . . --
 72
    65
 73
     8
 40
12.75
 49
6.0
 74
     0
 49
-1.5
 74
     0
 49
0.25
 74
     0
 49
-1.5
 74
     0
 49
0.25
 74
     0
 49
-1.5
 74
     0
 49
0.25
 74
     0
 49
-1.5
 74
     0
  0
LTYPE
  5
7C4
330
718
100
AcDbSymbolTableRecord
100
AcDbLinetypeTableRecord
  2
SXF_三点二短鎖線
 70
     0
  3
15 double-dashed triplicate-dotted -- -- . . . -- -- 
 72
    65
 73
    10
 40
20.25
 49
6.0
 74
     0
 49
-1.5
 74
     0
 49
6.0
 74
     0
 49
-1.5
 74
     0
 49
0.25
 74
     0
 49
-1.5
 74
     0
 49
0.25
 74
     0
 49
-1.5
 74
     0
 49
0.25
 74
     0
 49
-1.5
 74
     0
  0
ENDTAB
  0
TABLE
  2
LAYER
  5
715
330
0
100
AcDbSymbolTable
 70
     4
  0
LAYER
  5
767
330
715
100
AcDbSymbolTableRecord
100
AcDbLayerTableRecord
  2
0
 70
     0
 62
     7
  6
CONTINUOUS
370
    -3
390
722
347
734
  0
LAYER
  5
7C5
330
715
100
AcDbSymbolTableRecord
100
AcDbLayerTableRecord
  2
LAYER0016
 70
     0
 62
     7
  6
CONTINUOUS
370
    -3
390
722
347
734
  0
LAYER
  5
7C6
330
715
100
AcDbSymbolTableRecord
100
AcDbLayerTableRecord
  2
LAYER0240
 70
     0
 62
     7
  6
CONTINUOUS
370
    -3
390
722
347
734
  0
LAYER
  5
7C7
330
715
100
AcDbSymbolTableRecord
100
AcDbLayerTableRecord
  2
ZUWAKU
 70
     0
 62
     7
  6
CONTINUOUS
370
    -3
390
722
347
734
  0
ENDTAB
  0
TABLE
  2
STYLE
  5
716
330
0
100
AcDbSymbolTable
 70
     3
  0
STYLE
  5
768
330
716
100
AcDbSymbolTableRecord
100
AcDbTextStyleTableRecord
  2
STANDARD
 70
     0
 40
0.0
 41
1.0
 50
0.0
 71
     0
 42
0.2
  3
txt.shx
  4
bigfont.shx
  0
STYLE
  5
76C
330
716
100
AcDbSymbolTableRecord
100
AcDbTextStyleTableRecord
  2
Annotative
 70
     0
 40
0.0
 41
1.0
 50
0.0
 71
     0
 42
0.2
  3
txt
  4

1001
AcadAnnotative
1000
AnnotativeData
1002
{
1070
     1
1070
     1
1002
}
  0
STYLE
  5
7C8
330
716
100
AcDbSymbolTableRecord
100
AcDbTextStyleTableRecord
  2
DCSTYLE0
 70
     0
 40
0.0
 41
0.8000000000000049
 50
0.0
 71
     0
 42
0.2
  3
txt.shx
  4
bigfont
  0
ENDTAB
  0
TABLE
  2
VIEW
  5
719
330
0
100
AcDbSymbolTable
 70
     0
  0
ENDTAB
  0
TABLE
  2
UCS
  5
71A
330
0
100
AcDbSymbolTable
 70
     0
  0
ENDTAB
  0
TABLE
  2
APPID
  5
71C
330
0
100
AcDbSymbolTable
 70
     8
  0
APPID
  5
769
330
71C
100
AcDbSymbolTableRecord
100
AcDbRegAppTableRecord
  2
ACAD
 70
     0
  0
APPID
  5
770
330
71C
100
AcDbSymbolTableRecord
100
AcDbRegAppTableRecord
  2
AcadAnnotative
 70
     0
  0
APPID
  5
7C9
330
71C
100
AcDbSymbolTableRecord
100
AcDbRegAppTableRecord
  2
DAFUSIONOUT
 70
     0
  0
APPID
  5
811
330
71C
100
AcDbSymbolTableRecord
100
AcDbRegAppTableRecord
  2
ACAD_EXEMPT_FROM_CAD_STANDARDS
 70
     0
  0
APPID
  5
81F
330
71C
100
AcDbSymbolTableRecord
100
AcDbRegAppTableRecord
  2
ACAUTHENVIRON
 70
     0
  0
APPID
  5
829
330
71C
100
AcDbSymbolTableRecord
100
AcDbRegAppTableRecord
  2
AcDbDynamicBlockTrueName
 70
     0
  0
APPID
  5
82A
330
71C
100
AcDbSymbolTableRecord
100
AcDbRegAppTableRecord
  2
AcDbDynamicBlockGUID
 70
     0
  0
APPID
  5
8B0
330
71C
100
AcDbSymbolTableRecord
100
AcDbRegAppTableRecord
  2
ACAD_MLEADERVER
 70
     0
  0
ENDTAB
  0
TABLE
  2
DIMSTYLE
  5
71D
330
0
100
AcDbSymbolTable
 70
     3
100
AcDbDimStyleTable
 71
     1
340
76A
  0
DIMSTYLE
105
76A
330
71D
100
AcDbSymbolTableRecord
100
AcDbDimStyleTableRecord
  2
STANDARD
 70
     0
279
     2
284
     8
285
     8
286
     8
340
768
  0
DIMSTYLE
105
76B
330
71D
100
AcDbSymbolTableRecord
100
AcDbDimStyleTableRecord
  2
Annotative
 70
     0
340
768
1001
AcadAnnotative
1000
AnnotativeData
1002
{
1070
     1
1070
     1
1002
}
  0
DIMSTYLE
105
7CA
102
{ACAD_REACTORS
330
41B
330
41C
330
41D
330
41E
330
41F
330
420
330
423
102
}
330
71D
100
AcDbSymbolTableRecord
100
AcDbDimStyleTableRecord
  2
DC_ROTATED
 70
     0
 41
18.0000114440918
 42
6.0
 44
6.0
 73
     0
 74
     0
 77
     3
 78
     8
140
24.0
147
6.0
172
     1
173
     1
176
     9
177
     9
178
     7
279
     2
284
     8
285
     8
286
     8
340
768
  0
ENDTAB
  0
TABLE
  2
BLOCK_RECORD
  5
714
330
0
100
AcDbSymbolTable
 70
    32
  0
BLOCK_RECORD
  5
77E
330
714
100
AcDbSymbolTableRecord
100
AcDbBlockTableRecord
  2
*Model_Space
340
781
 70
     0
280
     1
281
     0
  0
BLOCK_RECORD
  5
77A
330
714
100
AcDbSymbolTableRecord
100
AcDbBlockTableRecord
  2
*Paper_Space
340
77D
 70
     0
280
     1
281
     0
  0
BLOCK_RECORD
  5
7CD
330
714
100
AcDbSymbolTableRecord
100
AcDbBlockTableRecord
  2
$MODEL_SPACE
340
0
 70
     0
280
     1
281
     0
  0
BLOCK_RECORD
  5
7CF
330
714
100
AcDbSymbolTableRecord
100
AcDbBlockTableRecord
  2
$PAPER_SPACE
340
0
 70
     0
280
     1
281
     0
  0
BLOCK_RECORD
  5
7D1
330
714
100
AcDbSymbolTableRecord
100
AcDbBlockTableRecord
  2
DC_GROUP_1
340
0
102
{BLKREFS
331
3B7
102
}
 70
     0
280
     1
281
     0
  0
BLOCK_RECORD
  5
7D3
330
714
100
AcDbSymbolTableRecord
100
AcDbBlockTableRecord
  2
DC_GROUP_2
340
0
 70
     0
280
     1
281
     0
  0
BLOCK_RECORD
  5
7D5
330
714
100
AcDbSymbolTableRecord
100
AcDbBlockTableRecord
  2
DC_GROUP_3
340
0
102
{BLKREFS
331
10D
102
}
 70
     0
280
     1
281
     0
  0
BLOCK_RECORD
  5
7D7
330
714
100
AcDbSymbolTableRecord
100
AcDbBlockTableRecord
  2
DC_GROUP_4
340
0
 70
     0
280
     1
281
     0
  0
BLOCK_RECORD
  5
7D9
330
714
100
AcDbSymbolTableRecord
100
AcDbBlockTableRecord
  2
DC_GROUP_5
340
0
102
{BLKREFS
331
115
102
}
 70
     0
280
     1
281
     0
  0
BLOCK_RECORD
  5
7DB
330
714
100
AcDbSymbolTableRecord
100
AcDbBlockTableRecord
  2
DC_GROUP_6
340
0
 70
     0
280
     1
281
     0
  0
BLOCK_RECORD
  5
7DD
330
714
100
AcDbSymbolTableRecord
100
AcDbBlockTableRecord
  2
DC_GROUP_7
340
0
102
{BLKREFS
331
11C
102
}
 70
     0
280
     1
281
     0
  0
BLOCK_RECORD
  5
7DF
330
714
100
AcDbSymbolTableRecord
100
AcDbBlockTableRecord
  2
DC_GROUP_8
340
0
102
{BLKREFS
331
3BB
102
}
 70
     0
280
     1
281
     0
  0
BLOCK_RECORD
  5
7E1
330
714
100
AcDbSymbolTableRecord
100
AcDbBlockTableRecord
  2
DA_IMAGEDIMGROUP_1
340
0
102
{BLKREFS
331
411
102
}
 70
     0
280
     1
281
     0
  0
BLOCK_RECORD
  5
7E3
330
714
100
AcDbSymbolTableRecord
100
AcDbBlockTableRecord
  2
_OPEN30
340
0
102
{BLKREFS
331
130
331
132
331
136
331
138
331
13C
331
13E
331
15B
331
15C
331
161
331
162
331
167
331
168
331
16D
331
16E
331
173
331
174
331
179
331
17A
331
17F
331
180
331
186
331
18B
331
18C
331
191
331
192
331
197
331
19B
331
81B
331
81D
102
}
 70
     0
280
     1
281
     0
  0
BLOCK_RECORD
  5
7E4
330
714
100
AcDbSymbolTableRecord
100
AcDbBlockTableRecord
  2
DA_IMAGEDIMGROUP_2
340
0
102
{BLKREFS
331
412
102
}
 70
     0
280
     1
281
     0
  0
BLOCK_RECORD
  5
7E6
330
714
100
AcDbSymbolTableRecord
100
AcDbBlockTableRecord
  2
DA_IMAGEDIMGROUP_3
340
0
102
{BLKREFS
331
413
102
}
 70
     0
280
     1
281
     0
  0
BLOCK_RECORD
  5
7E8
330
714
100
AcDbSymbolTableRecord
100
AcDbBlockTableRecord
  2
DC_GROUP_9
340
0
102
{BLKREFS
331
414
102
}
 70
     0
280
     1
281
     0
  0
BLOCK_RECORD
  5
7EA
330
714
100
AcDbSymbolTableRecord
100
AcDbBlockTableRecord
  2
DC_GROUP_10
340
0
102
{BLKREFS
331
415
102
}
 70
     0
280
     1
281
     0
  0
BLOCK_RECORD
  5
7EC
330
714
100
AcDbSymbolTableRecord
100
AcDbBlockTableRecord
  2
DC_GROUP_11
340
0
102
{BLKREFS
331
416
102
}
 70
     0
280
     1
281
     0
  0
BLOCK_RECORD
  5
7EE
330
714
100
AcDbSymbolTableRecord
100
AcDbBlockTableRecord
  2
DC_GROUP_12
340
0
102
{BLKREFS
331
417
102
}
 70
     0
280
     1
281
     0
  0
BLOCK_RECORD
  5
7F0
102
{ACAD_XDICTIONARY
360
820
102
}
330
714
100
AcDbSymbolTableRecord
100
AcDbBlockTableRecord
  2
DA_IMAGEDIMGROUP_4
340
0
102
{BLKREFS
331
418
102
}
 70
     0
280
     1
281
     0
1001
AcDbDynamicBlockGUID
1000
{0C350E2A-12DB-4E4E-9DFB-6097942A4067}
  0
BLOCK_RECORD
  5
7F2
330
714
100
AcDbSymbolTableRecord
100
AcDbBlockTableRecord
  2
*D19
340
0
 70
     0
280
     1
281
     0
  0
BLOCK_RECORD
  5
7F4
330
714
100
AcDbSymbolTableRecord
100
AcDbBlockTableRecord
  2
*D20
340
0
 70
     0
280
     1
281
     0
  0
BLOCK_RECORD
  5
7F6
330
714
100
AcDbSymbolTableRecord
100
AcDbBlockTableRecord
  2
*D21
340
0
 70
     0
280
     1
281
     0
  0
BLOCK_RECORD
  5
7F8
330
714
100
AcDbSymbolTableRecord
100
AcDbBlockTableRecord
  2
*D22
340
0
 70
     0
280
     1
281
     0
  0
BLOCK_RECORD
  5
7FA
330
714
100
AcDbSymbolTableRecord
100
AcDbBlockTableRecord
  2
*D23
340
0
 70
     0
280
     1
281
     0
  0
BLOCK_RECORD
  5
7FC
330
714
100
AcDbSymbolTableRecord
100
AcDbBlockTableRecord
  2
*D24
340
0
 70
     0
280
     1
281
     0
  0
BLOCK_RECORD
  5
7FE
330
714
100
AcDbSymbolTableRecord
100
AcDbBlockTableRecord
  2
*D25
340
0
 70
     0
280
     1
281
     0
  0
BLOCK_RECORD
  5
800
330
714
100
AcDbSymbolTableRecord
100
AcDbBlockTableRecord
  2
*D26
340
0
 70
     0
280
     1
281
     0
  0
BLOCK_RECORD
  5
802
330
714
100
AcDbSymbolTableRecord
100
AcDbBlockTableRecord
  2
*D27
340
0
 70
     0
280
     1
281
     0
  0
BLOCK_RECORD
  5
804
330
714
100
AcDbSymbolTableRecord
100
AcDbBlockTableRecord
  2
*D28
340
0
 70
     0
280
     1
281
     0
  0
BLOCK_RECORD
  5
806
330
714
100
AcDbSymbolTableRecord
100
AcDbBlockTableRecord
  2
DC_GROUP_13
340
0
 70
     0
280
     1
281
     0
  0
BLOCK_RECORD
  5
808
330
714
100
AcDbSymbolTableRecord
100
AcDbBlockTableRecord
  2
DC_GROUP_14
340
0
 70
     0
280
     1
281
     0
  0
BLOCK_RECORD
  5
80A
330
714
100
AcDbSymbolTableRecord
100
AcDbBlockTableRecord
  2
DC_GROUP_15
340
0
 70
     0
280
     1
281
     0
  0
ENDTAB
  0
ENDSEC
  0
SECTION
  2
BLOCKS
  0
BLOCK
  5
77F
330
77E
100
AcDbEntity
  8
0
100
AcDbBlockBegin
  2
*Model_Space
 70
     0
 10
0.0
 20
0.0
 30
0.0
  3
*Model_Space
  1

  0
ENDBLK
  5
780
330
77E
100
AcDbEntity
  8
0
100
AcDbBlockEnd
  0
BLOCK
  5
77B
330
77A
100
AcDbEntity
 67
     1
  8
0
100
AcDbBlockBegin
  2
*Paper_Space
 70
     0
 10
0.0
 20
0.0
 30
0.0
  3
*Paper_Space
  1

  0
ENDBLK
  5
77C
330
77A
100
AcDbEntity
 67
     1
  8
0
100
AcDbBlockEnd
  0
BLOCK
  5
7CE
330
7CD
100
AcDbEntity
  8
0
100
AcDbBlockBegin
  2
$MODEL_SPACE
 70
     0
 10
0.0
 20
0.0
 30
0.0
  3
$MODEL_SPACE
  1

  0
ENDBLK
  5
21
330
7CD
100
AcDbEntity
  8
0
100
AcDbBlockEnd
  0
BLOCK
  5
7D0
330
7CF
100
AcDbEntity
  8
0
100
AcDbBlockBegin
  2
$PAPER_SPACE
 70
     0
 10
0.0
 20
0.0
 30
0.0
  3
$PAPER_SPACE
  1

  0
ENDBLK
  5
1D
330
7CF
100
AcDbEntity
  8
0
100
AcDbBlockEnd
  0
BLOCK
  5
7D2
330
7D1
100
AcDbEntity
  8
0
100
AcDbBlockBegin
  2
DC_GROUP_1
 70
     0
 10
0.0
 20
0.0
 30
0.0
  3
DC_GROUP_1
  1

  0
LINE
  5
108
330
7D1
100
AcDbEntity
  8
ZUWAKU
  6
Continuous
 62
     9
100
AcDbLine
 10
-1260.0
 20
-13.8564064605506
 30
0.0
 11
-1236.0
 21
0.0000000000003411
 31
0.0
  0
LINE
  5
109
330
7D1
100
AcDbEntity
  8
ZUWAKU
  6
Continuous
 62
     9
100
AcDbLine
 10
-1260.0
 20
13.85640646055128
 30
0.0
 11
-1260.0
 21
-13.8564064605506
 31
0.0
  0
LINE
  5
10A
330
7D1
100
AcDbEntity
  8
ZUWAKU
  6
Continuous
 62
     9
100
AcDbLine
 10
-1236.0
 20
0.0000000000003411
 30
0.0
 11
-1260.0
 21
13.85640646055128
 31
0.0
  0
ENDBLK
  5
B3
330
7D1
100
AcDbEntity
  8
0
100
AcDbBlockEnd
  0
BLOCK
  5
7D4
330
7D3
100
AcDbEntity
  8
0
100
AcDbBlockBegin
  2
DC_GROUP_2
 70
     0
 10
0.0
 20
0.0
 30
0.0
  3
DC_GROUP_2
  1

  0
POINT
  5
10B
330
7D3
100
AcDbEntity
  8
ZUWAKU
  6
Continuous
 62
     7
100
AcDbPoint
 10
633.0641623959061
 20
690.2379373806089
 30
0.0
  0
POINT
  5
10C
330
7D3
100
AcDbEntity
  8
ZUWAKU
  6
Continuous
 62
     7
100
AcDbPoint
 10
635.0459222074206
 20
704.9999999999997
 30
0.0
  0
INSERT
  5
10D
330
7D3
100
AcDbEntity
  8
ZUWAKU
  6
Continuous
100
AcDbBlockReference
  2
DC_GROUP_3
 10
0.0
 20
0.0
 30
0.0
  0
ENDBLK
  5
B6
330
7D3
100
AcDbEntity
  8
0
100
AcDbBlockEnd
  0
BLOCK
  5
7D6
330
7D5
100
AcDbEntity
  8
0
100
AcDbBlockBegin
  2
DC_GROUP_3
 70
     0
 10
0.0
 20
0.0
 30
0.0
  3
DC_GROUP_3
  1

  0
LINE
  5
10E
330
7D5
100
AcDbEntity
  8
ZUWAKU
  6
Continuous
 62
     9
100
AcDbLine
 10
597.5759793814435
 20
694.8397459621553
 30
0.0
 11
612.5759793814435
 21
720.8205080756883
 31
0.0
  0
LINE
  5
10F
330
7D5
100
AcDbEntity
  8
ZUWAKU
  6
Continuous
 62
     9
100
AcDbLine
 10
597.5759793814435
 20
694.8397459621553
 30
0.0
 11
627.5759793814435
 21
694.8397459621553
 31
0.0
  0
LINE
  5
110
330
7D5
100
AcDbEntity
  8
ZUWAKU
  6
Continuous
 62
     9
100
AcDbLine
 10
612.5759793814435
 20
720.8205080756883
 30
0.0
 11
627.5759793814435
 21
694.8397459621553
 31
0.0
  0
TEXT
  5
112
330
7D5
100
AcDbEntity
  8
ZUWAKU
 62
     4
100
AcDbText
 10
605.3759793814434
 20
695.9999999999996
 30
0.0
 40
18.0
  1
3
 41
1.200000000000026
  7
DCSTYLE0
 72
     5
 11
619.7759793814436
 21
695.9999999999996
 31
0.0
100
AcDbText
  0
ENDBLK
  5
B9
330
7D5
100
AcDbEntity
  8
0
100
AcDbBlockEnd
  0
BLOCK
  5
7D8
330
7D7
100
AcDbEntity
  8
0
100
AcDbBlockBegin
  2
DC_GROUP_4
 70
     0
 10
0.0
 20
0.0
 30
0.0
  3
DC_GROUP_4
  1

  0
POINT
  5
113
330
7D7
100
AcDbEntity
  8
ZUWAKU
  6
Continuous
 62
     7
100
AcDbPoint
 10
633.0641623959061
 20
762.2379373806086
 30
0.0
  0
POINT
  5
114
330
7D7
100
AcDbEntity
  8
ZUWAKU
  6
Continuous
 62
     7
100
AcDbPoint
 10
635.0459222074206
 20
776.9999999999996
 30
0.0
  0
INSERT
  5
115
330
7D7
100
AcDbEntity
  8
ZUWAKU
  6
Continuous
100
AcDbBlockReference
  2
DC_GROUP_5
 10
0.0
 20
0.0
 30
0.0
  0
ENDBLK
  5
BC
330
7D7
100
AcDbEntity
  8
0
100
AcDbBlockEnd
  0
BLOCK
  5
7DA
330
7D9
100
AcDbEntity
  8
0
100
AcDbBlockBegin
  2
DC_GROUP_5
 70
     0
 10
0.0
 20
0.0
 30
0.0
  3
DC_GROUP_5
  1

  0
LINE
  5
116
330
7D9
100
AcDbEntity
  8
ZUWAKU
  6
Continuous
 62
     9
100
AcDbLine
 10
597.5759793814435
 20
766.8397459621551
 30
0.0
 11
612.5759793814435
 21
792.8205080756876
 31
0.0
  0
LINE
  5
117
330
7D9
100
AcDbEntity
  8
ZUWAKU
  6
Continuous
 62
     9
100
AcDbLine
 10
597.5759793814435
 20
766.8397459621551
 30
0.0
 11
627.5759793814435
 21
766.8397459621551
 31
0.0
  0
LINE
  5
118
330
7D9
100
AcDbEntity
  8
ZUWAKU
  6
Continuous
 62
     9
100
AcDbLine
 10
612.5759793814435
 20
792.8205080756876
 30
0.0
 11
627.5759793814435
 21
766.8397459621551
 31
0.0
  0
TEXT
  5
119
330
7D9
100
AcDbEntity
  8
ZUWAKU
 62
     4
100
AcDbText
 10
605.3759793814434
 20
767.9999999999995
 30
0.0
 40
18.0
  1
1
 41
2.400000000000053
  7
DCSTYLE0
 72
     5
 11
619.7759793814436
 21
767.9999999999995
 31
0.0
100
AcDbText
  0
ENDBLK
  5
BF
330
7D9
100
AcDbEntity
  8
0
100
AcDbBlockEnd
  0
BLOCK
  5
7DC
330
7DB
100
AcDbEntity
  8
0
100
AcDbBlockBegin
  2
DC_GROUP_6
 70
     0
 10
0.0
 20
0.0
 30
0.0
  3
DC_GROUP_6
  1

  0
POINT
  5
11A
330
7DB
100
AcDbEntity
  8
ZUWAKU
  6
Continuous
 62
     7
100
AcDbPoint
 10
633.0641623959057
 20
726.2379373806088
 30
0.0
  0
POINT
  5
11B
330
7DB
100
AcDbEntity
  8
ZUWAKU
  6
Continuous
 62
     7
100
AcDbPoint
 10
635.0459222074205
 20
740.9999999999996
 30
0.0
  0
INSERT
  5
11C
330
7DB
100
AcDbEntity
  8
ZUWAKU
  6
Continuous
100
AcDbBlockReference
  2
DC_GROUP_7
 10
0.0
 20
0.0
 30
0.0
  0
ENDBLK
  5
C2
330
7DB
100
AcDbEntity
  8
0
100
AcDbBlockEnd
  0
BLOCK
  5
7DE
330
7DD
100
AcDbEntity
  8
0
100
AcDbBlockBegin
  2
DC_GROUP_7
 70
     0
 10
0.0
 20
0.0
 30
0.0
  3
DC_GROUP_7
  1

  0
LINE
  5
11D
330
7DD
100
AcDbEntity
  8
ZUWAKU
  6
Continuous
 62
     9
100
AcDbLine
 10
597.5759793814432
 20
730.8397459621553
 30
0.0
 11
612.5759793814434
 21
756.8205080756882
 31
0.0
  0
LINE
  5
11E
330
7DD
100
AcDbEntity
  8
ZUWAKU
  6
Continuous
 62
     9
100
AcDbLine
 10
597.5759793814432
 20
730.8397459621553
 30
0.0
 11
627.5759793814434
 21
730.8397459621553
 31
0.0
  0
LINE
  5
11F
330
7DD
100
AcDbEntity
  8
ZUWAKU
  6
Continuous
 62
     9
100
AcDbLine
 10
612.5759793814434
 20
756.8205080756882
 30
0.0
 11
627.5759793814434
 21
730.8397459621553
 31
0.0
  0
TEXT
  5
120
330
7DD
100
AcDbEntity
  8
ZUWAKU
 62
     4
100
AcDbText
 10
605.3759793814434
 20
731.9999999999996
 30
0.0
 40
18.0
  1
2
 41
1.200000000000007
  7
DCSTYLE0
 72
     5
 11
619.7759793814434
 21
731.9999999999996
 31
0.0
100
AcDbText
  0
ENDBLK
  5
C5
330
7DD
100
AcDbEntity
  8
0
100
AcDbBlockEnd
  0
BLOCK
  5
7E0
330
7DF
100
AcDbEntity
  8
0
100
AcDbBlockBegin
  2
DC_GROUP_8
 70
     0
 10
0.0
 20
0.0
 30
0.0
  3
DC_GROUP_8
  1

  0
POINT
  5
121
330
7DF
100
AcDbEntity
  8
ZUWAKU
  6
Continuous
 62
     2
100
AcDbPoint
 10
891.5759793814432
 20
-705.0
 30
0.0
  0
POINT
  5
122
330
7DF
100
AcDbEntity
  8
ZUWAKU
  6
Continuous
 62
     2
100
AcDbPoint
 10
891.5759793814432
 20
-669.0
 30
0.0
  0
POINT
  5
123
330
7DF
100
AcDbEntity
  8
ZUWAKU
  6
Continuous
 62
     2
100
AcDbPoint
 10
891.5759793814432
 20
-633.0
 30
0.0
  0
POINT
  5
124
330
7DF
100
AcDbEntity
  8
ZUWAKU
  6
Continuous
 62
     2
100
AcDbPoint
 10
1161.575979381443
 20
-795.0
 30
0.0
  0
POINT
  5
125
330
7DF
100
AcDbEntity
  8
ZUWAKU
  6
Continuous
 62
     2
100
AcDbPoint
 10
1083.575979381443
 20
-795.0
 30
0.0
  0
POINT
  5
126
330
7DF
100
AcDbEntity
  8
ZUWAKU
  6
Continuous
 62
     2
100
AcDbPoint
 10
891.5759793814432
 20
-597.0
 30
0.0
  0
POINT
  5
127
330
7DF
100
AcDbEntity
  8
ZUWAKU
  6
Continuous
 62
     2
100
AcDbPoint
 10
891.5759793814432
 20
-561.0
 30
0.0
  0
ENDBLK
  5
C8
330
7DF
100
AcDbEntity
  8
0
100
AcDbBlockEnd
  0
BLOCK
  5
7E2
330
7E1
100
AcDbEntity
  8
0
100
AcDbBlockBegin
  2
DA_IMAGEDIMGROUP_1
 70
     0
 10
0.0
 20
0.0
 30
0.0
  3
DA_IMAGEDIMGROUP_1
  1

  0
LINE
  5
128
330
7E1
100
AcDbEntity
  8
LAYER0016
  6
Continuous
 62
     9
100
AcDbLine
 10
-432.070686898664
 20
383.8773579350339
 30
0.0
 11
-432.070686898664
 21
399.8773579350338
 31
0.0
  0
LINE
  5
129
330
7E1
100
AcDbEntity
  8
LAYER0016
  6
Continuous
 62
     9
100
AcDbLine
 10
-432.070686898664
 20
296.8906779350338
 30
0.0
 11
-432.070686898664
 21
383.8773579350338
 31
0.0
  0
INSERT
  5
130
330
7E1
100
AcDbEntity
  8
LAYER0016
 62
     9
100
AcDbBlockReference
  2
_OPEN30
 10
-432.070686898664
 20
383.8773579350338
 30
0.0
 41
18.00001684569172
 42
17.99993620934186
 50
90.0
  0
LINE
  5
131
330
7E1
100
AcDbEntity
  8
LAYER0016
  6
Continuous
 62
     9
100
AcDbLine
 10
-432.070686898664
 20
429.8773579350338
 30
0.0
 11
-432.070686898664
 21
399.8773579350338
 31
0.0
  0
INSERT
  5
132
330
7E1
100
AcDbEntity
  8
LAYER0016
 62
     9
100
AcDbBlockReference
  2
_OPEN30
 10
-432.070686898664
 20
399.8773579350338
 30
0.0
 41
18.00001684569172
 42
17.99993620934186
 50
270.0
  0
TEXT
  5
133
330
7E1
100
AcDbEntity
  8
LAYER0016
 62
     7
100
AcDbText
 10
-438.0706868986638
 20
302.8906779350338
 30
0.0
 40
24.0
  1
φ16
 50
90.0
 41
0.9473684210526309
  7
DCSTYLE0
 72
     5
 11
-438.0706868986638
 21
360.4906779350338
 31
0.0
100
AcDbText
  0
ENDBLK
  5
CB
330
7E1
100
AcDbEntity
  8
0
100
AcDbBlockEnd
  0
BLOCK
  5
80C
330
7E3
100
AcDbEntity
  8
0
100
AcDbBlockBegin
  2
_OPEN30
 70
     0
 10
0.0
 20
0.0
 30
0.0
  3
_OPEN30
  1

  0
LINE
  5
12D
330
7E3
100
AcDbEntity
  8
0
  6
ByBlock
 62
     0
100
AcDbLine
 10
-1.0
 20
0.267949
 30
0.0
 11
0.0
 21
0.0
 31
0.0
  0
LINE
  5
12E
330
7E3
100
AcDbEntity
  8
0
  6
ByBlock
 62
     0
100
AcDbLine
 10
0.0
 20
0.0
 30
0.0
 11
-1.0
 21
-0.267949
 31
0.0
  0
LINE
  5
12F
330
7E3
100
AcDbEntity
  8
0
  6
ByBlock
 62
     0
100
AcDbLine
 10
0.0
 20
0.0
 30
0.0
 11
-1.0
 21
0.0
 31
0.0
  0
ENDBLK
  5
12C
330
7E3
100
AcDbEntity
  8
0
100
AcDbBlockEnd
  0
BLOCK
  5
7E5
330
7E4
100
AcDbEntity
  8
0
100
AcDbBlockBegin
  2
DA_IMAGEDIMGROUP_2
 70
     0
 10
0.0
 20
0.0
 30
0.0
  3
DA_IMAGEDIMGROUP_2
  1

  0
LINE
  5
134
330
7E4
100
AcDbEntity
  8
LAYER0016
  6
Continuous
 62
     9
100
AcDbLine
 10
-432.070686898664
 20
-233.1226420649662
 30
0.0
 11
-432.070686898664
 21
-223.1226420649662
 31
0.0
  0
LINE
  5
135
330
7E4
100
AcDbEntity
  8
LAYER0016
  6
Continuous
 62
     9
100
AcDbLine
 10
-432.070686898664
 20
-136.1359620649662
 30
0.0
 11
-432.070686898664
 21
-223.1226420649662
 31
0.0
  0
INSERT
  5
136
330
7E4
100
AcDbEntity
  8
LAYER0016
 62
     9
100
AcDbBlockReference
  2
_OPEN30
 10
-432.070686898664
 20
-223.1226420649662
 30
0.0
 41
18.00001684569172
 42
17.99993620934186
 50
270.0
  0
LINE
  5
137
330
7E4
100
AcDbEntity
  8
LAYER0016
  6
Continuous
 62
     9
100
AcDbLine
 10
-432.070686898664
 20
-263.1226420649662
 30
0.0
 11
-432.070686898664
 21
-233.1226420649662
 31
0.0
  0
INSERT
  5
138
330
7E4
100
AcDbEntity
  8
LAYER0016
 62
     9
100
AcDbBlockReference
  2
_OPEN30
 10
-432.070686898664
 20
-233.1226420649662
 30
0.0
 41
18.00001684569172
 42
17.99993620934186
 50
90.0
  0
TEXT
  5
139
330
7E4
100
AcDbEntity
  8
LAYER0016
 62
     7
100
AcDbText
 10
-438.0706868986638
 20
-199.7359620649662
 30
0.0
 40
24.0
  1
φ10
 50
90.0
 41
1.014084507042254
  7
DCSTYLE0
 72
     5
 11
-438.0706868986638
 21
-142.1359620649662
 31
0.0
100
AcDbText
  0
ENDBLK
  5
CE
330
7E4
100
AcDbEntity
  8
0
100
AcDbBlockEnd
  0
BLOCK
  5
7E7
330
7E6
100
AcDbEntity
  8
0
100
AcDbBlockBegin
  2
DA_IMAGEDIMGROUP_3
 70
     0
 10
0.0
 20
0.0
 30
0.0
  3
DA_IMAGEDIMGROUP_3
  1

  0
LINE
  5
13A
330
7E6
100
AcDbEntity
  8
LAYER0016
  6
Continuous
 62
     9
100
AcDbLine
 10
384.950843488406
 20
-236.1226420649663
 30
0.0
 11
384.950843488406
 21
-220.1226420649663
 31
0.0
  0
LINE
  5
13B
330
7E6
100
AcDbEntity
  8
LAYER0016
  6
Continuous
 62
     9
100
AcDbLine
 10
384.950843488406
 20
-133.1359620649662
 30
0.0
 11
384.950843488406
 21
-220.1226420649663
 31
0.0
  0
INSERT
  5
13C
330
7E6
100
AcDbEntity
  8
LAYER0016
 62
     9
100
AcDbBlockReference
  2
_OPEN30
 10
384.950843488406
 20
-220.1226420649663
 30
0.0
 41
18.00001684569172
 42
17.99993620934186
 50
270.0
  0
LINE
  5
13D
330
7E6
100
AcDbEntity
  8
LAYER0016
  6
Continuous
 62
     9
100
AcDbLine
 10
384.950843488406
 20
-266.1226420649663
 30
0.0
 11
384.950843488406
 21
-236.1226420649663
 31
0.0
  0
INSERT
  5
13E
330
7E6
100
AcDbEntity
  8
LAYER0016
 62
     9
100
AcDbBlockReference
  2
_OPEN30
 10
384.950843488406
 20
-236.1226420649663
 30
0.0
 41
18.00001684569172
 42
17.99993620934186
 50
90.0
  0
TEXT
  5
13F
330
7E6
100
AcDbEntity
  8
LAYER0016
 62
     7
100
AcDbText
 10
378.950843488406
 20
-196.7359620649663
 30
0.0
 40
24.0
  1
φ16
 50
90.0
 41
0.9473684210526334
  7
DCSTYLE0
 72
     5
 11
378.950843488406
 21
-139.1359620649662
 31
0.0
100
AcDbText
  0
ENDBLK
  5
D1
330
7E6
100
AcDbEntity
  8
0
100
AcDbBlockEnd
  0
BLOCK
  5
7E9
330
7E8
100
AcDbEntity
  8
0
100
AcDbBlockBegin
  2
DC_GROUP_9
 70
     0
 10
0.0
 20
0.0
 30
0.0
  3
DC_GROUP_9
  1

  0
ARC
  5
140
330
7E8
100
AcDbEntity
  8
LAYER0016
  6
Continuous
 62
     3
100
AcDbCircle
 10
321.2194902349916
 20
-366.8226420649661
 30
0.0
 40
1.3
100
AcDbArc
 50
180.0
 51
270.0
  0
ARC
  5
141
330
7E8
100
AcDbEntity
  8
LAYER0016
  6
Continuous
 62
     3
100
AcDbCircle
 10
340.3194902349915
 20
-366.8226420649661
 30
0.0
 40
1.3
100
AcDbArc
 50
270.0
 51
0.0
  0
LINE
  5
142
330
7E8
100
AcDbEntity
  8
LAYER0016
  6
Continuous
 62
     3
100
AcDbLine
 10
321.2194902349916
 20
-368.1226420649661
 30
0.0
 11
340.3194902349915
 21
-368.1226420649661
 31
0.0
  0
LINE
  5
143
330
7E8
100
AcDbEntity
  8
LAYER0016
  6
Continuous
 62
     3
100
AcDbLine
 10
319.9194902349914
 20
-363.7226420649661
 30
0.0
 11
319.9194902349914
 21
-366.8226420649661
 31
0.0
  0
LINE
  5
144
330
7E8
100
AcDbEntity
  8
LAYER0016
  6
Continuous
 62
     3
100
AcDbLine
 10
341.6194902349916
 20
-366.8226420649661
 30
0.0
 11
341.6194902349916
 21
-363.7226420649661
 31
0.0
  0
ENDBLK
  5
D4
330
7E8
100
AcDbEntity
  8
0
100
AcDbBlockEnd
  0
BLOCK
  5
7EB
330
7EA
100
AcDbEntity
  8
0
100
AcDbBlockBegin
  2
DC_GROUP_10
 70
     0
 10
0.0
 20
0.0
 30
0.0
  3
DC_GROUP_10
  1

  0
ARC
  5
145
330
7EA
100
AcDbEntity
  8
LAYER0016
  6
Continuous
 62
     3
100
AcDbCircle
 10
501.2194902349916
 20
-366.8226420649661
 30
0.0
 40
1.3
100
AcDbArc
 50
180.0
 51
270.0
  0
ARC
  5
146
330
7EA
100
AcDbEntity
  8
LAYER0016
  6
Continuous
 62
     3
100
AcDbCircle
 10
520.3194902349919
 20
-366.8226420649661
 30
0.0
 40
1.3
100
AcDbArc
 50
270.0
 51
0.0
  0
LINE
  5
147
330
7EA
100
AcDbEntity
  8
LAYER0016
  6
Continuous
 62
     3
100
AcDbLine
 10
501.2194902349916
 20
-368.1226420649661
 30
0.0
 11
520.3194902349919
 21
-368.1226420649661
 31
0.0
  0
LINE
  5
148
330
7EA
100
AcDbEntity
  8
LAYER0016
  6
Continuous
 62
     3
100
AcDbLine
 10
499.9194902349914
 20
-363.7226420649661
 30
0.0
 11
499.9194902349914
 21
-366.8226420649661
 31
0.0
  0
LINE
  5
149
330
7EA
100
AcDbEntity
  8
LAYER0016
  6
Continuous
 62
     3
100
AcDbLine
 10
521.6194902349916
 20
-366.8226420649661
 30
0.0
 11
521.6194902349916
 21
-363.7226420649661
 31
0.0
  0
ENDBLK
  5
D7
330
7EA
100
AcDbEntity
  8
0
100
AcDbBlockEnd
  0
BLOCK
  5
7ED
330
7EC
100
AcDbEntity
  8
0
100
AcDbBlockBegin
  2
DC_GROUP_11
 70
     0
 10
0.0
 20
0.0
 30
0.0
  3
DC_GROUP_11
  1

  0
ARC
  5
14A
330
7EC
100
AcDbEntity
  8
LAYER0016
  6
Continuous
 62
     3
100
AcDbCircle
 10
171.5999250176005
 20
-366.8226420649661
 30
0.0
 40
1.3
100
AcDbArc
 50
180.0
 51
270.0
  0
ARC
  5
14B
330
7EC
100
AcDbEntity
  8
LAYER0016
  6
Continuous
 62
     3
100
AcDbCircle
 10
190.6999250176004
 20
-366.8226420649661
 30
0.0
 40
1.3
100
AcDbArc
 50
270.0
 51
0.0
  0
LINE
  5
14C
330
7EC
100
AcDbEntity
  8
LAYER0016
  6
Continuous
 62
     3
100
AcDbLine
 10
171.5999250176005
 20
-368.1226420649661
 30
0.0
 11
190.6999250176004
 21
-368.1226420649661
 31
0.0
  0
LINE
  5
14D
330
7EC
100
AcDbEntity
  8
LAYER0016
  6
Continuous
 62
     3
100
AcDbLine
 10
170.2999250176003
 20
-363.7226420649661
 30
0.0
 11
170.2999250176003
 21
-366.8226420649661
 31
0.0
  0
LINE
  5
14E
330
7EC
100
AcDbEntity
  8
LAYER0016
  6
Continuous
 62
     3
100
AcDbLine
 10
191.9999250176001
 20
-366.8226420649661
 30
0.0
 11
191.9999250176001
 21
-363.7226420649661
 31
0.0
  0
ENDBLK
  5
DA
330
7EC
100
AcDbEntity
  8
0
100
AcDbBlockEnd
  0
BLOCK
  5
7EF
330
7EE
100
AcDbEntity
  8
0
100
AcDbBlockBegin
  2
DC_GROUP_12
 70
     0
 10
0.0
 20
0.0
 30
0.0
  3
DC_GROUP_12
  1

  0
ARC
  5
14F
330
7EE
100
AcDbEntity
  8
LAYER0016
  6
Continuous
 62
     3
100
AcDbCircle
 10
-578.4000749823993
 20
-366.8226420649661
 30
0.0
 40
1.3
100
AcDbArc
 50
180.0
 51
270.0
  0
ARC
  5
150
330
7EE
100
AcDbEntity
  8
LAYER0016
  6
Continuous
 62
     3
100
AcDbCircle
 10
-559.3000749823995
 20
-366.8226420649661
 30
0.0
 40
1.3
100
AcDbArc
 50
270.0
 51
0.0
  0
LINE
  5
151
330
7EE
100
AcDbEntity
  8
LAYER0016
  6
Continuous
 62
     3
100
AcDbLine
 10
-578.4000749823993
 20
-368.1226420649661
 30
0.0
 11
-559.3000749823995
 21
-368.1226420649661
 31
0.0
  0
LINE
  5
152
330
7EE
100
AcDbEntity
  8
LAYER0016
  6
Continuous
 62
     3
100
AcDbLine
 10
-579.7000749823998
 20
-363.7226420649661
 30
0.0
 11
-579.7000749823998
 21
-366.8226420649661
 31
0.0
  0
LINE
  5
153
330
7EE
100
AcDbEntity
  8
LAYER0016
  6
Continuous
 62
     3
100
AcDbLine
 10
-558.0000749823998
 20
-366.8226420649661
 30
0.0
 11
-558.0000749823998
 21
-363.7226420649661
 31
0.0
  0
ENDBLK
  5
DD
330
7EE
100
AcDbEntity
  8
0
100
AcDbBlockEnd
  0
BLOCK
  5
7F1
330
7F0
100
AcDbEntity
  8
0
100
AcDbBlockBegin
  2
DA_IMAGEDIMGROUP_4
 70
     0
 10
0.0
 20
0.0
 30
0.0
  3
DA_IMAGEDIMGROUP_4
  1

  0
LINE
  5
819
330
7F0
100
AcDbEntity
  8
LAYER0016
  6
Continuous
 62
     9
100
AcDbLine
 10
-579.7000749823998
 20
232.8502693416991
 30
0.0
 11
-558.0000749823998
 21
232.8502693416991
 31
0.0
  0
LINE
  5
81A
330
7F0
100
AcDbEntity
  8
LAYER0016
  6
Continuous
 62
     9
100
AcDbLine
 10
-429.8412103007906
 20
232.8502693416991
 30
0.0
 11
-558.0000749823998
 21
232.8502693416991
 31
0.0
  0
INSERT
  5
81B
330
7F0
100
AcDbEntity
  8
LAYER0016
 62
     9
100
AcDbBlockReference
  2
_OPEN30
 10
-558.0000749823998
 20
232.8502693416991
 30
0.0
 41
18.00001684569172
 42
17.99993620934186
 50
180.0
  0
LINE
  5
81C
330
7F0
100
AcDbEntity
  8
LAYER0016
  6
Continuous
 62
     9
100
AcDbLine
 10
-609.7000749823997
 20
232.8502693416991
 30
0.0
 11
-579.7000749823998
 21
232.8502693416991
 31
0.0
  0
INSERT
  5
81D
330
7F0
100
AcDbEntity
  8
LAYER0016
 62
     9
100
AcDbBlockReference
  2
_OPEN30
 10
-579.7000749823998
 20
232.8502693416991
 30
0.0
 41
18.00001684569172
 42
17.99993620934186
  0
TEXT
  5
81E
330
7F0
100
AcDbEntity
  8
LAYER0016
 62
     7
100
AcDbText
 10
-534.6133949823999
 20
238.8502693416991
 30
0.0
 40
24.0
  1
φ21.7
  7
DCSTYLE0
100
AcDbText
  0
ENDBLK
  5
E0
330
7F0
100
AcDbEntity
  8
0
100
AcDbBlockEnd
  0
BLOCK
  5
7F3
330
7F2
100
AcDbEntity
  8
0
100
AcDbBlockBegin
  2
*D19
 70
     1
 10
0.0
 20
0.0
 30
0.0
  3
*D19
  1

  0
LINE
  5
15A
330
7F2
100
AcDbEntity
  8
LAYER0016
  6
Continuous
 62
     9
100
AcDbLine
 10
-558.0000749823998
 20
561.8773579350337
 30
0.0
 11
170.2999250176003
 21
561.8773579350337
 31
0.0
  0
INSERT
  5
15B
330
7F2
100
AcDbEntity
  8
LAYER0016
 62
     9
100
AcDbBlockReference
  2
_OPEN30
 10
-558.0000749823998
 20
561.8773579350337
 30
0.0
 41
18.00001684569172
 42
17.99993620934186
 50
180.0
  0
INSERT
  5
15C
330
7F2
100
AcDbEntity
  8
LAYER0016
 62
     9
100
AcDbBlockReference
  2
_OPEN30
 10
170.2999250176003
 20
561.8773579350337
 30
0.0
 41
18.00001684569172
 42
17.99993620934186
  0
TEXT
  5
15D
330
7F2
100
AcDbEntity
  8
LAYER0016
 62
     7
100
AcDbText
 10
-261.0500749823998
 20
567.8773579350337
 30
0.0
 40
24.0
  1
(728.3)
 41
1.050000000000001
  7
DCSTYLE0
 72
     5
 11
-126.6500749823997
 21
567.8773579350337
 31
0.0
100
AcDbText
  0
LINE
  5
15E
330
7F2
100
AcDbEntity
  8
LAYER0016
  6
Continuous
 62
     9
100
AcDbLine
 10
-558.0000749823998
 20
467.0273579350338
 30
0.0
 11
-558.0000749823998
 21
567.8773579350337
 31
0.0
  0
LINE
  5
15F
330
7F2
100
AcDbEntity
  8
LAYER0016
  6
Continuous
 62
     9
100
AcDbLine
 10
170.2999250176003
 20
467.0273579350338
 30
0.0
 11
170.2999250176003
 21
567.8773579350337
 31
0.0
  0
ENDBLK
  5
E3
330
7F2
100
AcDbEntity
  8
0
100
AcDbBlockEnd
  0
BLOCK
  5
7F5
330
7F4
100
AcDbEntity
  8
0
100
AcDbBlockBegin
  2
*D20
 70
     1
 10
0.0
 20
0.0
 30
0.0
  3
*D20
  1

  0
LINE
  5
160
330
7F4
100
AcDbEntity
  8
LAYER0016
  6
Continuous
 62
     9
440
 16777216
100
AcDbLine
 10
-568.8500749823997
 20
621.8773579350337
 30
0.0
 11
181.1499250176003
 21
621.8773579350337
 31
0.0
  0
INSERT
  5
161
330
7F4
100
AcDbEntity
  8
LAYER0016
 62
     9
440
 16777216
100
AcDbBlockReference
  2
_OPEN30
 10
-568.8500749823997
 20
621.8773579350337
 30
0.0
 41
18.00001684569172
 42
17.99993620934186
 50
180.0
  0
INSERT
  5
162
330
7F4
100
AcDbEntity
  8
LAYER0016
 62
     9
440
 16777216
100
AcDbBlockReference
  2
_OPEN30
 10
181.1499250176003
 20
621.8773579350337
 30
0.0
 41
18.00001684569172
 42
17.99993620934186
  0
TEXT
  5
163
330
7F4
100
AcDbEntity
  8
LAYER0016
 62
     7
440
 16777216
100
AcDbText
 10
-222.6500749823998
 20
627.8773579350337
 30
0.0
 40
24.0
  1
750
 41
0.9600000000000036
  7
DCSTYLE0
 72
     5
 11
-165.0500749823996
 21
627.8773579350337
 31
0.0
100
AcDbText
  0
LINE
  5
164
330
7F4
100
AcDbEntity
  8
LAYER0016
  6
Continuous
 62
     9
440
 16777216
100
AcDbLine
 10
-568.8500749823997
 20
495.2882275002511
 30
0.0
 11
-568.8500749823997
 21
627.8773579350337
 31
0.0
  0
LINE
  5
165
330
7F4
100
AcDbEntity
  8
LAYER0016
  6
Continuous
 62
     9
440
 16777216
100
AcDbLine
 10
181.1499250176003
 20
495.2882275002511
 30
0.0
 11
181.1499250176003
 21
627.8773579350337
 31
0.0
  0
ENDBLK
  5
E6
330
7F4
100
AcDbEntity
  8
0
100
AcDbBlockEnd
  0
BLOCK
  5
7F7
330
7F6
100
AcDbEntity
  8
0
100
AcDbBlockBegin
  2
*D21
 70
     1
 10
0.0
 20
0.0
 30
0.0
  3
*D21
  1

  0
LINE
  5
166
330
7F6
100
AcDbEntity
  8
LAYER0016
  6
Continuous
 62
     9
440
 16777216
100
AcDbLine
 10
-579.7000749823998
 20
681.8773579350337
 30
0.0
 11
191.9999250176001
 21
681.8773579350337
 31
0.0
  0
INSERT
  5
167
330
7F6
100
AcDbEntity
  8
LAYER0016
 62
     9
440
 16777216
100
AcDbBlockReference
  2
_OPEN30
 10
-579.7000749823998
 20
681.8773579350337
 30
0.0
 41
18.00001684569172
 42
17.99993620934186
 50
180.0
  0
INSERT
  5
168
330
7F6
100
AcDbEntity
  8
LAYER0016
 62
     9
440
 16777216
100
AcDbBlockReference
  2
_OPEN30
 10
191.9999250176001
 20
681.8773579350337
 30
0.0
 41
18.00001684569172
 42
17.99993620934186
  0
TEXT
  5
169
330
7F6
100
AcDbEntity
  8
LAYER0016
 62
     7
440
 16777216
100
AcDbText
 10
-261.0500749823998
 20
687.8773579350337
 30
0.0
 40
24.0
  1
(771.7)
 41
1.120000000000001
  7
DCSTYLE0
 72
     5
 11
-126.6500749823997
 21
687.8773579350337
 31
0.0
100
AcDbText
  0
LINE
  5
16A
330
7F6
100
AcDbEntity
  8
LAYER0016
  6
Continuous
 62
     9
440
 16777216
100
AcDbLine
 10
-579.7000749823998
 20
467.0273579350338
 30
0.0
 11
-579.7000749823998
 21
687.8773579350337
 31
0.0
  0
LINE
  5
16B
330
7F6
100
AcDbEntity
  8
LAYER0016
  6
Continuous
 62
     9
440
 16777216
100
AcDbLine
 10
191.9999250176001
 20
467.0273579350338
 30
0.0
 11
191.9999250176001
 21
687.8773579350337
 31
0.0
  0
ENDBLK
  5
E9
330
7F6
100
AcDbEntity
  8
0
100
AcDbBlockEnd
  0
BLOCK
  5
7F9
330
7F8
100
AcDbEntity
  8
0
100
AcDbBlockBegin
  2
*D22
 70
     1
 10
0.0
 20
0.0
 30
0.0
  3
*D22
  1

  0
LINE
  5
16C
330
7F8
100
AcDbEntity
  8
LAYER0016
  6
Continuous
 62
     9
440
 16777216
100
AcDbLine
 10
330.7694902349917
 20
561.8773579350337
 30
0.0
 11
510.7694902349916
 21
561.8773579350337
 31
0.0
  0
INSERT
  5
16D
330
7F8
100
AcDbEntity
  8
LAYER0016
 62
     9
440
 16777216
100
AcDbBlockReference
  2
_OPEN30
 10
330.7694902349917
 20
561.8773579350337
 30
0.0
 41
18.00001684569172
 42
17.99993620934186
 50
180.0
  0
INSERT
  5
16E
330
7F8
100
AcDbEntity
  8
LAYER0016
 62
     9
440
 16777216
100
AcDbBlockReference
  2
_OPEN30
 10
510.7694902349916
 20
561.8773579350337
 30
0.0
 41
18.00001684569172
 42
17.99993620934186
  0
LINE
  5
16F
330
7F8
100
AcDbEntity
  8
LAYER0016
  6
Continuous
 62
     9
440
 16777216
100
AcDbLine
 10
330.7694902349917
 20
495.2882275002511
 30
0.0
 11
330.7694902349917
 21
567.8773579350337
 31
0.0
  0
TEXT
  5
170
330
7F8
100
AcDbEntity
  8
LAYER0016
 62
     7
440
 16777216
100
AcDbText
 10
391.9694902349917
 20
567.8773579350337
 30
0.0
 40
24.0
  1
180
 41
1.107692307692307
  7
DCSTYLE0
 72
     5
 11
449.5694902349916
 21
567.8773579350337
 31
0.0
100
AcDbText
  0
LINE
  5
171
330
7F8
100
AcDbEntity
  8
LAYER0016
  6
Continuous
 62
     9
440
 16777216
100
AcDbLine
 10
510.7694902349916
 20
495.2882275002511
 30
0.0
 11
510.7694902349916
 21
567.8773579350337
 31
0.0
  0
ENDBLK
  5
EC
330
7F8
100
AcDbEntity
  8
0
100
AcDbBlockEnd
  0
BLOCK
  5
7FB
330
7FA
100
AcDbEntity
  8
0
100
AcDbBlockBegin
  2
*D23
 70
     1
 10
0.0
 20
0.0
 30
0.0
  3
*D23
  1

  0
LINE
  5
172
330
7FA
100
AcDbEntity
  8
LAYER0016
  6
Continuous
 62
     9
440
 16777216
100
AcDbLine
 10
319.9194902349914
 20
621.8773579350337
 30
0.0
 11
521.6194902349916
 21
621.8773579350337
 31
0.0
  0
INSERT
  5
173
330
7FA
100
AcDbEntity
  8
LAYER0016
 62
     9
440
 16777216
100
AcDbBlockReference
  2
_OPEN30
 10
319.9194902349914
 20
621.8773579350337
 30
0.0
 41
18.00001684569172
 42
17.99993620934186
 50
180.0
  0
INSERT
  5
174
330
7FA
100
AcDbEntity
  8
LAYER0016
 62
     9
440
 16777216
100
AcDbBlockReference
  2
_OPEN30
 10
521.6194902349916
 20
621.8773579350337
 30
0.0
 41
18.00001684569172
 42
17.99993620934186
  0
LINE
  5
175
330
7FA
100
AcDbEntity
  8
LAYER0016
  6
Continuous
 62
     9
440
 16777216
100
AcDbLine
 10
319.9194902349914
 20
477.877357935034
 30
0.0
 11
319.9194902349914
 21
627.8773579350337
 31
0.0
  0
TEXT
  5
176
330
7FA
100
AcDbEntity
  8
LAYER0016
 62
     7
440
 16777216
100
AcDbText
 10
353.5694902349915
 20
627.8773579350337
 30
0.0
 40
24.0
  1
(201.7)
 41
1.158620689655173
  7
DCSTYLE0
 72
     5
 11
487.9694902349916
 21
627.8773579350337
 31
0.0
100
AcDbText
  0
LINE
  5
177
330
7FA
100
AcDbEntity
  8
LAYER0016
  6
Continuous
 62
     9
440
 16777216
100
AcDbLine
 10
521.6194902349916
 20
477.877357935034
 30
0.0
 11
521.6194902349916
 21
627.8773579350337
 31
0.0
  0
ENDBLK
  5
EF
330
7FA
100
AcDbEntity
  8
0
100
AcDbBlockEnd
  0
BLOCK
  5
7FD
330
7FC
100
AcDbEntity
  8
0
100
AcDbBlockBegin
  2
*D24
 70
     1
 10
0.0
 20
0.0
 30
0.0
  3
*D24
  1

  0
LINE
  5
178
330
7FC
100
AcDbEntity
  8
LAYER0016
  6
Continuous
 62
     9
440
 16777216
100
AcDbLine
 10
-669.7000749823997
 20
-368.1226420649662
 30
0.0
 11
-669.7000749823997
 21
-228.1226420649662
 31
0.0
  0
INSERT
  5
179
330
7FC
100
AcDbEntity
  8
LAYER0016
 62
     9
440
 16777216
100
AcDbBlockReference
  2
_OPEN30
 10
-669.7000749823997
 20
-368.1226420649662
 30
0.0
 41
18.00001684569172
 42
17.99993620934186
 50
270.0
  0
INSERT
  5
17A
330
7FC
100
AcDbEntity
  8
LAYER0016
 62
     9
440
 16777216
100
AcDbBlockReference
  2
_OPEN30
 10
-669.7000749823997
 20
-228.1226420649662
 30
0.0
 41
18.00001684569172
 42
17.99993620934186
 50
90.0
  0
LINE
  5
17B
330
7FC
100
AcDbEntity
  8
LAYER0016
  6
Continuous
 62
     9
440
 16777216
100
AcDbLine
 10
-583.4000749823993
 20
-368.1226420649662
 30
0.0
 11
-675.7000749823998
 21
-368.1226420649662
 31
0.0
  0
TEXT
  5
17C
330
7FC
100
AcDbEntity
  8
LAYER0016
 62
     7
440
 16777216
100
AcDbText
 10
-675.7000749823998
 20
-326.9226420649661
 30
0.0
 40
24.0
  1
140
 50
90.0
 41
1.107692307692305
  7
DCSTYLE0
 72
     5
 11
-675.7000749823998
 21
-269.3226420649662
 31
0.0
100
AcDbText
  0
LINE
  5
17D
330
7FC
100
AcDbEntity
  8
LAYER0016
  6
Continuous
 62
     9
440
 16777216
100
AcDbLine
 10
-613.7631184606607
 20
-228.1226420649662
 30
0.0
 11
-675.7000749823998
 21
-228.1226420649662
 31
0.0
  0
ENDBLK
  5
F2
330
7FC
100
AcDbEntity
  8
0
100
AcDbBlockEnd
  0
BLOCK
  5
7FF
330
7FE
100
AcDbEntity
  8
0
100
AcDbBlockBegin
  2
*D25
 70
     1
 10
0.0
 20
0.0
 30
0.0
  3
*D25
  1

  0
LINE
  5
17E
330
7FE
100
AcDbEntity
  8
LAYER0016
  6
Continuous
 62
     9
440
 16777216
100
AcDbLine
 10
-789.7000749823997
 20
-368.1226420649662
 30
0.0
 11
-789.7000749823997
 21
391.8773579350338
 31
0.0
  0
INSERT
  5
17F
330
7FE
100
AcDbEntity
  8
LAYER0016
 62
     9
440
 16777216
100
AcDbBlockReference
  2
_OPEN30
 10
-789.7000749823997
 20
-368.1226420649662
 30
0.0
 41
18.00001684569172
 42
17.99993620934186
 50
270.0
  0
INSERT
  5
180
330
7FE
100
AcDbEntity
  8
LAYER0016
 62
     9
440
 16777216
100
AcDbBlockReference
  2
_OPEN30
 10
-789.7000749823997
 20
391.8773579350338
 30
0.0
 41
18.00001684569172
 42
17.99993620934186
 50
90.0
  0
TEXT
  5
181
330
7FE
100
AcDbEntity
  8
LAYER0016
 62
     7
440
 16777216
100
AcDbText
 10
-795.7000749823998
 20
-16.92264206496611
 30
0.0
 40
24.0
  1
760
 50
90.0
 41
0.9599999999999985
  7
DCSTYLE0
 72
     5
 11
-795.7000749823998
 21
40.6773579350338
 31
0.0
100
AcDbText
  0
LINE
  5
182
330
7FE
100
AcDbEntity
  8
LAYER0016
  6
Continuous
 62
     9
440
 16777216
100
AcDbLine
 10
-583.4000749823993
 20
-368.1226420649662
 30
0.0
 11
-795.7000749823998
 21
-368.1226420649662
 31
0.0
  0
LINE
  5
183
330
7FE
100
AcDbEntity
  8
LAYER0016
  6
Continuous
 62
     9
440
 16777216
100
AcDbLine
 10
-613.7631184606607
 20
391.8773579350338
 30
0.0
 11
-795.7000749823998
 21
391.8773579350338
 31
0.0
  0
ENDBLK
  5
F5
330
7FE
100
AcDbEntity
  8
0
100
AcDbBlockEnd
  0
BLOCK
  5
801
330
800
100
AcDbEntity
  8
0
100
AcDbBlockBegin
  2
*D26
 70
     1
 10
0.0
 20
0.0
 30
0.0
  3
*D26
  1

  0
LINE
  5
184
330
800
100
AcDbEntity
  8
LAYER0016
  6
Continuous
 62
     9
100
AcDbLine
 10
-729.7000749823998
 20
-368.1226420649662
 30
0.0
 11
-729.7000749823998
 21
-363.7226420649662
 31
0.0
  0
LINE
  5
185
330
800
100
AcDbEntity
  8
LAYER0016
  6
Continuous
 62
     9
100
AcDbLine
 10
-729.7000749823998
 20
-455.1093220649661
 30
0.0
 11
-729.7000749823998
 21
-368.1226420649662
 31
0.0
  0
INSERT
  5
186
330
800
100
AcDbEntity
  8
LAYER0016
 62
     9
100
AcDbBlockReference
  2
_OPEN30
 10
-729.7000749823998
 20
-368.1226420649662
 30
0.0
 41
18.00001684569172
 42
17.99993620934186
 50
90.0
  0
TEXT
  5
187
330
800
100
AcDbEntity
  8
LAYER0016
 62
     7
100
AcDbText
 10
-735.7000749823997
 20
-449.1093220649662
 30
0.0
 40
24.0
  1
4.4
 50
90.0
 41
1.199999999999999
  7
DCSTYLE0
 72
     5
 11
-735.7000749823997
 21
-391.5093220649662
 31
0.0
100
AcDbText
  0
LINE
  5
188
330
800
100
AcDbEntity
  8
LAYER0016
  6
Continuous
 62
     9
100
AcDbLine
 10
-583.4000749823993
 20
-368.1226420649662
 30
0.0
 11
-735.7000749823997
 21
-368.1226420649662
 31
0.0
  0
LINE
  5
189
330
800
100
AcDbEntity
  8
LAYER0016
  6
Continuous
 62
     9
100
AcDbLine
 10
-585.7000749823997
 20
-363.7226420649661
 30
0.0
 11
-735.7000749823997
 21
-363.7226420649662
 31
0.0
  0
ENDBLK
  5
F8
330
800
100
AcDbEntity
  8
0
100
AcDbBlockEnd
  0
BLOCK
  5
803
330
802
100
AcDbEntity
  8
0
100
AcDbBlockBegin
  2
*D27
 70
     1
 10
0.0
 20
0.0
 30
0.0
  3
*D27
  1

  0
LINE
  5
18A
330
802
100
AcDbEntity
  8
LAYER0016
  6
Continuous
 62
     9
100
AcDbLine
 10
-729.7000749823998
 20
-363.7226420649662
 30
0.0
 11
-729.7000749823998
 21
461.0273579350338
 31
0.0
  0
INSERT
  5
18B
330
802
100
AcDbEntity
  8
LAYER0016
 62
     9
100
AcDbBlockReference
  2
_OPEN30
 10
-729.7000749823998
 20
-363.7226420649662
 30
0.0
 41
18.00001684569172
 42
17.99993620934186
 50
270.0
  0
INSERT
  5
18C
330
802
100
AcDbEntity
  8
LAYER0016
 62
     9
100
AcDbBlockReference
  2
_OPEN30
 10
-729.7000749823998
 20
461.0273579350338
 30
0.0
 41
18.00001684569172
 42
17.99993620934186
 50
90.0
  0
TEXT
  5
18D
330
802
100
AcDbEntity
  8
LAYER0016
 62
     7
100
AcDbText
 10
-735.7000749823997
 20
-8.947642064966146
 30
0.0
 40
24.0
  1
824.75
 50
90.0
 41
0.9600000000000004
  7
DCSTYLE0
 72
     5
 11
-735.7000749823997
 21
106.2523579350339
 31
0.0
100
AcDbText
  0
LINE
  5
18E
330
802
100
AcDbEntity
  8
LAYER0016
  6
Continuous
 62
     9
100
AcDbLine
 10
-585.7000749823997
 20
-363.7226420649661
 30
0.0
 11
-735.7000749823997
 21
-363.7226420649662
 31
0.0
  0
LINE
  5
18F
330
802
100
AcDbEntity
  8
LAYER0016
  6
Continuous
 62
     9
100
AcDbLine
 10
-590.2114765387614
 20
461.0273579350338
 30
0.0
 11
-735.7000749823997
 21
461.0273579350338
 31
0.0
  0
ENDBLK
  5
FB
330
802
100
AcDbEntity
  8
0
100
AcDbBlockEnd
  0
BLOCK
  5
805
330
804
100
AcDbEntity
  8
0
100
AcDbBlockBegin
  2
*D28
 70
     1
 10
0.0
 20
0.0
 30
0.0
  3
*D28
  1

  0
LINE
  5
190
330
804
100
AcDbEntity
  8
LAYER0016
  6
Continuous
 62
     9
440
 16777216
100
AcDbLine
 10
-849.7000749823998
 20
-368.1226420649662
 30
0.0
 11
-849.7000749823998
 21
471.8773579350338
 31
0.0
  0
INSERT
  5
191
330
804
100
AcDbEntity
  8
LAYER0016
 62
     9
440
 16777216
100
AcDbBlockReference
  2
_OPEN30
 10
-849.7000749823998
 20
-368.1226420649662
 30
0.0
 41
18.00001684569172
 42
17.99993620934186
 50
270.0
  0
INSERT
  5
192
330
804
100
AcDbEntity
  8
LAYER0016
 62
     9
440
 16777216
100
AcDbBlockReference
  2
_OPEN30
 10
-849.7000749823998
 20
471.8773579350338
 30
0.0
 41
18.00001684569172
 42
17.99993620934186
 50
90.0
  0
TEXT
  5
193
330
804
100
AcDbEntity
  8
LAYER0016
 62
     7
440
 16777216
100
AcDbText
 10
-855.7000749823997
 20
23.07735793503389
 30
0.0
 40
24.0
  1
840
 50
90.0
 41
0.9599999999999983
  7
DCSTYLE0
 72
     5
 11
-855.7000749823997
 21
80.67735793503379
 31
0.0
100
AcDbText
  0
LINE
  5
194
330
804
100
AcDbEntity
  8
LAYER0016
  6
Continuous
 62
     9
440
 16777216
100
AcDbLine
 10
-583.4000749823993
 20
-368.1226420649662
 30
0.0
 11
-855.7000749823997
 21
-368.1226420649662
 31
0.0
  0
LINE
  5
195
330
804
100
AcDbEntity
  8
LAYER0016
  6
Continuous
 62
     9
440
 16777216
100
AcDbLine
 10
-573.8500749823997
 20
471.8773579350337
 30
0.0
 11
-855.7000749823997
 21
471.8773579350338
 31
0.0
  0
ENDBLK
  5
FE
330
804
100
AcDbEntity
  8
0
100
AcDbBlockEnd
  0
BLOCK
  5
807
330
806
100
AcDbEntity
  8
0
100
AcDbBlockBegin
  2
DC_GROUP_13
 70
     0
 10
0.0
 20
0.0
 30
0.0
  3
DC_GROUP_13
  1

  0
LINE
  5
196
330
806
100
AcDbEntity
  8
LAYER0240
  6
Continuous
 62
     9
100
AcDbLine
 10
-558.0000749823998
 20
-328.9340758228495
 30
0.0
 11
-449.846440695987
 21
-438.6056843935862
 31
0.0
  0
INSERT
  5
197
330
806
100
AcDbEntity
  8
LAYER0240
 62
     9
100
AcDbBlockReference
  2
_OPEN30
 10
-558.0000749823998
 20
-328.9340758228495
 30
0.0
 41
18.00001684569172
 42
17.99993620934186
 50
134.6007252838072
  0
CIRCLE
  5
198
330
806
100
AcDbEntity
  8
LAYER0240
  6
Continuous
 62
     9
100
AcDbCircle
 10
-430.8880649089917
 20
-457.8301476505687
 30
0.0
 40
27.0
  0
TEXT
  5
199
330
806
100
AcDbEntity
  8
LAYER0240
 62
     4
100
AcDbText
 10
-440.4880649089917
 20
-469.8301476505687
 30
0.0
 40
24.0
  1
1
 41
2.399999999999998
  7
DCSTYLE0
 72
     5
 11
-421.2880649089917
 21
-469.8301476505687
 31
0.0
100
AcDbText
  0
ENDBLK
  5
101
330
806
100
AcDbEntity
  8
0
100
AcDbBlockEnd
  0
BLOCK
  5
809
330
808
100
AcDbEntity
  8
0
100
AcDbBlockBegin
  2
DC_GROUP_14
 70
     0
 10
0.0
 20
0.0
 30
0.0
  3
DC_GROUP_14
  1

  0
LINE
  5
19A
330
808
100
AcDbEntity
  8
LAYER0240
  6
Continuous
 62
     9
100
AcDbLine
 10
-566.0159716576345
 20
-368.122642064966
 30
0.0
 11
-510.260381533531
 21
-436.1138094627513
 31
0.0
  0
INSERT
  5
19B
330
808
100
AcDbEntity
  8
LAYER0240
 62
     9
100
AcDbBlockReference
  2
_OPEN30
 10
-566.0159716576345
 20
-368.122642064966
 30
0.0
 41
18.00001684569172
 42
17.99993620934186
 50
129.3531800269358
  0
CIRCLE
  5
19C
330
808
100
AcDbEntity
  8
LAYER0240
  6
Continuous
 62
     9
100
AcDbCircle
 10
-493.1397125212111
 20
-456.9916132881203
 30
0.0
 40
27.0
  0
TEXT
  5
19D
330
808
100
AcDbEntity
  8
LAYER0240
 62
     4
100
AcDbText
 10
-502.7397125212111
 20
-468.9916132881203
 30
0.0
 40
24.0
  1
2
 41
1.199999999999995
  7
DCSTYLE0
 72
     5
 11
-483.5397125212112
 21
-468.9916132881203
 31
0.0
100
AcDbText
  0
ENDBLK
  5
104
330
808
100
AcDbEntity
  8
0
100
AcDbBlockEnd
  0
BLOCK
  5
80B
330
80A
100
AcDbEntity
  8
0
100
AcDbBlockBegin
  2
DC_GROUP_15
 70
     0
 10
0.0
 20
0.0
 30
0.0
  3
DC_GROUP_15
  1

  0
CIRCLE
  5
19E
330
80A
100
AcDbEntity
  8
LAYER0240
  6
Continuous
 62
     9
100
AcDbCircle
 10
-536.8601977534247
 20
-582.1600422506739
 30
0.0
 40
27.0
  0
TEXT
  5
19F
330
80A
100
AcDbEntity
  8
LAYER0240
 62
     4
100
AcDbText
 10
-546.4601977534247
 20
-594.1600422506739
 30
0.0
 40
24.0
  1
3
 41
1.200000000000002
  7
DCSTYLE0
 72
     5
 11
-527.2601977534247
 21
-594.1600422506739
 31
0.0
100
AcDbText
  0
ENDBLK
  5
107
330
80A
100
AcDbEntity
  8
0
100
AcDbBlockEnd
  0
ENDSEC
  0
SECTION
  2
ENTITIES
  0
LINE
  5
1A0
330
77E
100
AcDbEntity
  8
ZUWAKU
  6
Continuous
 62
    56
100
AcDbLine
 10
731.6201932994907
 20
-795.0
 30
0.0
 11
888.5759793814431
 21
-795.0
 31
0.0
  0
LINE
  5
1A1
330
77E
100
AcDbEntity
  8
ZUWAKU
  6
Continuous
 62
    56
100
AcDbLine
 10
731.6201932994907
 20
-759.0
 30
0.0
 11
1200.575979381443
 21
-759.0
 31
0.0
  0
LINE
  5
1A2
330
77E
100
AcDbEntity
  8
ZUWAKU
  6
Continuous
 62
    56
100
AcDbLine
 10
731.6201932994907
 20
-723.0
 30
0.0
 11
1200.575979381443
 21
-723.0
 31
0.0
  0
LINE
  5
1A3
330
77E
100
AcDbEntity
  8
ZUWAKU
  6
Continuous
 62
    56
100
AcDbLine
 10
731.6201932994907
 20
-687.0
 30
0.0
 11
1200.575979381443
 21
-687.0
 31
0.0
  0
LINE
  5
1A4
330
77E
100
AcDbEntity
  8
ZUWAKU
  6
Continuous
 62
    56
100
AcDbLine
 10
731.6201932994907
 20
-651.0
 30
0.0
 11
1200.575979381443
 21
-651.0
 31
0.0
  0
LINE
  5
1A5
330
77E
100
AcDbEntity
  8
ZUWAKU
  6
Continuous
 62
    56
100
AcDbLine
 10
966.5759793814432
 20
-723.0
 30
0.0
 11
966.5759793814432
 21
-831.0
 31
0.0
  0
LINE
  5
1A6
330
77E
100
AcDbEntity
  8
ZUWAKU
  6
Continuous
 62
    56
100
AcDbLine
 10
1044.575979381443
 20
-723.0
 30
0.0
 11
1044.575979381443
 21
-831.0
 31
0.0
  0
LINE
  5
1A7
330
77E
100
AcDbEntity
  8
ZUWAKU
  6
Continuous
 62
    56
100
AcDbLine
 10
1122.575979381443
 20
-723.0
 30
0.0
 11
1122.575979381443
 21
-831.0
 31
0.0
  0
LINE
  5
1A8
330
77E
100
AcDbEntity
  8
ZUWAKU
  6
Continuous
 62
    56
100
AcDbLine
 10
801.1023182963588
 20
-723.0
 30
0.0
 11
801.1023182963588
 21
-759.0
 31
0.0
  0
LINE
  5
1B2
330
77E
100
AcDbEntity
  8
ZUWAKU
  6
Continuous
 62
    56
100
AcDbLine
 10
731.6201932994907
 20
-615.0
 30
0.0
 11
1200.575979381443
 21
-615.0
 31
0.0
  0
LINE
  5
1B3
330
77E
100
AcDbEntity
  8
ZUWAKU
  6
Continuous
 62
    56
100
AcDbLine
 10
888.5759793814431
 20
-578.9999999999999
 30
0.0
 11
888.5759793814431
 21
-831.0
 31
0.0
  0
LINE
  5
1B9
330
77E
100
AcDbEntity
  8
ZUWAKU
  6
Continuous
 62
    56
100
AcDbLine
 10
731.6201932994907
 20
-578.9999999999999
 30
0.0
 11
731.6201932994907
 21
-831.0
 31
0.0
  0
LINE
  5
1BA
330
77E
100
AcDbEntity
  8
ZUWAKU
  6
Continuous
 62
    56
100
AcDbLine
 10
731.6201932994907
 20
-579.0
 30
0.0
 11
1200.575979381443
 21
-579.0
 31
0.0
  0
TEXT
  5
1C7
330
77E
100
AcDbEntity
  8
ZUWAKU
 62
    30
100
AcDbText
 10
740.9698673271141
 20
-757.3497453310696
 30
0.0
 40
30.0
  1
尺度
 41
0.75
  7
DCSTYLE0
 72
     5
 11
788.9698673271141
 21
-757.3497453310696
 31
0.0
100
AcDbText
  0
TEXT
  5
1C8
330
77E
100
AcDbEntity
  8
ZUWAKU
 62
    30
100
AcDbText
 10
787.846976801029
 20
-683.3158233909994
 30
0.0
 40
30.0
  1
名称
 41
0.75
  7
DCSTYLE0
 72
     5
 11
835.8469768010291
 21
-683.3158233909994
 31
0.0
100
AcDbText
  0
TEXT
  5
1C9
330
77E
100
AcDbEntity
  8
ZUWAKU
 62
    30
100
AcDbText
 10
1137.575979381443
 20
-754.1999999999997
 30
0.0
 40
30.0
  1
製図
 41
0.7741935483870968
  7
DCSTYLE0
 72
     5
 11
1185.575979381443
 21
-754.1999999999997
 31
0.0
100
AcDbText
  0
TEXT
  5
1CA
330
77E
100
AcDbEntity
  8
ZUWAKU
 62
    30
100
AcDbText
 10
1059.575979381443
 20
-754.1999999999997
 30
0.0
 40
30.0
  1
改訂
 41
0.75
  7
DCSTYLE0
 72
     5
 11
1107.575979381443
 21
-754.1999999999997
 31
0.0
100
AcDbText
  0
TEXT
  5
1CB
330
77E
100
AcDbEntity
  8
ZUWAKU
 62
    30
100
AcDbText
 10
981.5759793814432
 20
-754.1999999999997
 30
0.0
 40
30.0
  1
検図
 41
0.7741935483870931
  7
DCSTYLE0
 72
     5
 11
1029.575979381443
 21
-754.1999999999997
 31
0.0
100
AcDbText
  0
TEXT
  5
1CC
330
77E
100
AcDbEntity
  8
ZUWAKU
 62
    30
100
AcDbText
 10
903.5759793814431
 20
-754.1999999999997
 30
0.0
 40
30.0
  1
検図
 41
0.7741935483870968
  7
DCSTYLE0
 72
     5
 11
951.5759793814432
 21
-754.1999999999997
 31
0.0
100
AcDbText
  0
TEXT
  5
1CD
330
77E
100
AcDbEntity
  8
ZUWAKU
 62
    30
100
AcDbText
 10
758.0883543836117
 20
-716.9762917968276
 30
0.0
 40
30.0
  1
図面番号
 41
0.7058823529411762
  7
DCSTYLE0
 72
     5
 11
854.0883543836118
 21
-716.9762917968276
 31
0.0
100
AcDbText
  0
TEXT
  5
1CE
330
77E
100
AcDbEntity
  8
ZUWAKU
 62
    30
100
AcDbText
 10
750.0980863404667
 20
-791.4000000000003
 30
0.0
 40
30.0
  1
作成年月日
 41
0.7142857142857143
  7
DCSTYLE0
 72
     5
 11
870.0980863404668
 21
-791.4000000000003
 31
0.0
100
AcDbText
  0
LINE
  5
33F
330
77E
100
AcDbEntity
  8
ZUWAKU
  6
Continuous
 62
     8
100
AcDbLine
 10
1200.575979381443
 20
830.9999999999996
 30
0.0
 11
-1137.938144329897
 21
831.0
 31
0.0
  0
LINE
  5
340
330
77E
100
AcDbEntity
  8
ZUWAKU
  6
Continuous
 62
     8
100
AcDbLine
 10
1200.575979381443
 20
-831.0
 30
0.0
 11
1200.575979381443
 21
830.9999999999996
 31
0.0
  0
LINE
  5
341
330
77E
100
AcDbEntity
  8
ZUWAKU
  6
Continuous
 62
     8
100
AcDbLine
 10
-1137.938144329897
 20
-831.0
 30
0.0
 11
1200.575979381443
 21
-831.0
 31
0.0
  0
LINE
  5
342
330
77E
100
AcDbEntity
  8
ZUWAKU
  6
Continuous
 62
     8
100
AcDbLine
 10
-1137.938144329897
 20
831.0
 30
0.0
 11
-1137.938144329897
 21
-831.0
 31
0.0
  0
POINT
  5
347
330
77E
100
AcDbEntity
  8
ZUWAKU
  6
Continuous
 62
     9
100
AcDbPoint
 10
810.098086340467
 20
-813.0
 30
0.0
  0
POINT
  5
348
330
77E
100
AcDbEntity
  8
ZUWAKU
  6
Continuous
 62
     9
100
AcDbPoint
 10
844.8391488389011
 20
-741.0
 30
0.0
  0
POINT
  5
349
330
77E
100
AcDbEntity
  8
ZUWAKU
  6
Continuous
 62
     9
100
AcDbPoint
 10
891.5759793814432
 20
-705.0
 30
0.0
  0
POINT
  5
34A
330
77E
100
AcDbEntity
  8
ZUWAKU
  6
Continuous
 62
     9
100
AcDbPoint
 10
891.5759793814432
 20
-669.0
 30
0.0
  0
POINT
  5
34B
330
77E
100
AcDbEntity
  8
ZUWAKU
  6
Continuous
 62
     9
100
AcDbPoint
 10
891.5759793814432
 20
-633.0
 30
0.0
  0
POINT
  5
34C
330
77E
100
AcDbEntity
  8
ZUWAKU
  6
Continuous
 62
     9
100
AcDbPoint
 10
1161.575979381443
 20
-795.0
 30
0.0
  0
LINE
  5
34D
330
77E
100
AcDbEntity
  8
ZUWAKU
  6
Continuous
 62
     9
100
AcDbLine
 10
-1260.0
 20
921.0000000000004
 30
0.0
 11
-1260.0
 21
891.0
 31
0.0
  0
LINE
  5
34E
330
77E
100
AcDbEntity
  8
ZUWAKU
  6
Continuous
 62
     9
100
AcDbLine
 10
-1260.0
 20
891.0
 30
0.0
 11
-1290.0
 21
891.0
 31
0.0
  0
LINE
  5
34F
330
77E
100
AcDbEntity
  8
ZUWAKU
  6
Continuous
 62
     9
100
AcDbLine
 10
1260.0
 20
-921.0
 30
0.0
 11
1260.0
 21
-891.0
 31
0.0
  0
LINE
  5
350
330
77E
100
AcDbEntity
  8
ZUWAKU
  6
Continuous
 62
     9
100
AcDbLine
 10
-1290.0
 20
-890.9999999999996
 30
0.0
 11
-1259.861261436021
 21
-890.9999999999996
 31
0.0
  0
POINT
  5
351
330
77E
100
AcDbEntity
  8
ZUWAKU
  6
Continuous
 62
     9
100
AcDbPoint
 10
-1260.0
 20
0.0
 30
0.0
  0
LINE
  5
352
330
77E
100
AcDbEntity
  8
ZUWAKU
  6
Continuous
 62
     9
100
AcDbLine
 10
-1259.333836474423
 20
-13.47179676973407
 30
0.0
 11
-1260.0
 21
-13.47179676973407
 31
0.0
  0
LINE
  5
353
330
77E
100
AcDbEntity
  8
ZUWAKU
  6
Continuous
 62
     9
100
AcDbLine
 10
-1258.294605989882
 20
-12.8717967697341
 30
0.0
 11
-1260.0
 21
-12.8717967697341
 31
0.0
  0
LINE
  5
354
330
77E
100
AcDbEntity
  8
ZUWAKU
  6
Continuous
 62
     9
100
AcDbLine
 10
-1257.25537550534
 20
-12.2717967697341
 30
0.0
 11
-1260.0
 21
-12.2717967697341
 31
0.0
  0
LINE
  5
355
330
77E
100
AcDbEntity
  8
ZUWAKU
  6
Continuous
 62
     9
100
AcDbLine
 10
-1256.216145020799
 20
-11.67179676973409
 30
0.0
 11
-1260.0
 21
-11.67179676973409
 31
0.0
  0
LINE
  5
356
330
77E
100
AcDbEntity
  8
ZUWAKU
  6
Continuous
 62
     9
100
AcDbLine
 10
-1255.176914536258
 20
-11.07179676973408
 30
0.0
 11
-1260.0
 21
-11.07179676973408
 31
0.0
  0
LINE
  5
357
330
77E
100
AcDbEntity
  8
ZUWAKU
  6
Continuous
 62
     9
100
AcDbLine
 10
-1254.137684051716
 20
-10.47179676973407
 30
0.0
 11
-1260.0
 21
-10.47179676973407
 31
0.0
  0
LINE
  5
358
330
77E
100
AcDbEntity
  8
ZUWAKU
  6
Continuous
 62
     9
100
AcDbLine
 10
-1253.098453567175
 20
-9.871796769734061
 30
0.0
 11
-1260.0
 21
-9.871796769734061
 31
0.0
  0
LINE
  5
359
330
77E
100
AcDbEntity
  8
ZUWAKU
  6
Continuous
 62
     9
100
AcDbLine
 10
-1252.059223082633
 20
-9.271796769734095
 30
0.0
 11
-1260.0
 21
-9.271796769734095
 31
0.0
  0
LINE
  5
35A
330
77E
100
AcDbEntity
  8
ZUWAKU
  6
Continuous
 62
     9
100
AcDbLine
 10
-1251.019992598092
 20
-8.671796769734088
 30
0.0
 11
-1260.0
 21
-8.671796769734088
 31
0.0
  0
LINE
  5
35B
330
77E
100
AcDbEntity
  8
ZUWAKU
  6
Continuous
 62
     9
100
AcDbLine
 10
-1249.980762113551
 20
-8.071796769734078
 30
0.0
 11
-1260.0
 21
-8.071796769734078
 31
0.0
  0
LINE
  5
35C
330
77E
100
AcDbEntity
  8
ZUWAKU
  6
Continuous
 62
     9
100
AcDbLine
 10
-1248.941531629009
 20
-7.47179676973407
 30
0.0
 11
-1260.0
 21
-7.47179676973407
 31
0.0
  0
LINE
  5
35D
330
77E
100
AcDbEntity
  8
ZUWAKU
  6
Continuous
 62
     9
100
AcDbLine
 10
-1247.902301144468
 20
-6.871796769734062
 30
0.0
 11
-1260.0
 21
-6.871796769734062
 31
0.0
  0
LINE
  5
35E
330
77E
100
AcDbEntity
  8
ZUWAKU
  6
Continuous
 62
     9
100
AcDbLine
 10
-1246.863070659927
 20
-6.271796769734094
 30
0.0
 11
-1260.0
 21
-6.271796769734094
 31
0.0
  0
LINE
  5
35F
330
77E
100
AcDbEntity
  8
ZUWAKU
  6
Continuous
 62
     9
100
AcDbLine
 10
-1245.823840175385
 20
-5.671796769734088
 30
0.0
 11
-1260.0
 21
-5.671796769734088
 31
0.0
  0
LINE
  5
360
330
77E
100
AcDbEntity
  8
ZUWAKU
  6
Continuous
 62
     9
100
AcDbLine
 10
-1244.784609690844
 20
-5.071796769734078
 30
0.0
 11
-1260.0
 21
-5.071796769734078
 31
0.0
  0
LINE
  5
361
330
77E
100
AcDbEntity
  8
ZUWAKU
  6
Continuous
 62
     9
100
AcDbLine
 10
-1243.745379206303
 20
-4.47179676973407
 30
0.0
 11
-1260.0
 21
-4.47179676973407
 31
0.0
  0
LINE
  5
362
330
77E
100
AcDbEntity
  8
ZUWAKU
  6
Continuous
 62
     9
100
AcDbLine
 10
-1242.706148721762
 20
-3.87179676973406
 30
0.0
 11
-1260.0
 21
-3.87179676973406
 31
0.0
  0
LINE
  5
363
330
77E
100
AcDbEntity
  8
ZUWAKU
  6
Continuous
 62
     9
100
AcDbLine
 10
-1241.66691823722
 20
-3.271796769734095
 30
0.0
 11
-1260.0
 21
-3.271796769734095
 31
0.0
  0
LINE
  5
364
330
77E
100
AcDbEntity
  8
ZUWAKU
  6
Continuous
 62
     9
100
AcDbLine
 10
-1240.627687752679
 20
-2.671796769734087
 30
0.0
 11
-1260.0
 21
-2.671796769734087
 31
0.0
  0
LINE
  5
365
330
77E
100
AcDbEntity
  8
ZUWAKU
  6
Continuous
 62
     9
100
AcDbLine
 10
-1239.588457268138
 20
-2.071796769734078
 30
0.0
 11
-1260.0
 21
-2.071796769734078
 31
0.0
  0
LINE
  5
366
330
77E
100
AcDbEntity
  8
ZUWAKU
  6
Continuous
 62
     9
100
AcDbLine
 10
-1238.549226783596
 20
-1.471796769734068
 30
0.0
 11
-1260.0
 21
-1.471796769734068
 31
0.0
  0
LINE
  5
367
330
77E
100
AcDbEntity
  8
ZUWAKU
  6
Continuous
 62
     9
100
AcDbLine
 10
-1237.509996299055
 20
-0.8717967697340609
 30
0.0
 11
-1260.0
 21
-0.8717967697340609
 31
0.0
  0
LINE
  5
368
330
77E
100
AcDbEntity
  8
ZUWAKU
  6
Continuous
 62
     9
100
AcDbLine
 10
-1236.470765814513
 20
-0.2717967697340953
 30
0.0
 11
-1260.0
 21
-0.2717967697340953
 31
0.0
  0
LINE
  5
369
330
77E
100
AcDbEntity
  8
ZUWAKU
  6
Continuous
 62
     9
100
AcDbLine
 10
-1236.568464670028
 20
0.3282032302659132
 30
0.0
 11
-1260.0
 21
0.3282032302659132
 31
0.0
  0
LINE
  5
36A
330
77E
100
AcDbEntity
  8
ZUWAKU
  6
Continuous
 62
     9
100
AcDbLine
 10
-1237.60769515457
 20
0.9282032302659215
 30
0.0
 11
-1260.0
 21
0.9282032302659215
 31
0.0
  0
LINE
  5
36B
330
77E
100
AcDbEntity
  8
ZUWAKU
  6
Continuous
 62
     9
100
AcDbLine
 10
-1238.646925639111
 20
1.52820323026593
 30
0.0
 11
-1260.0
 21
1.52820323026593
 31
0.0
  0
LINE
  5
36C
330
77E
100
AcDbEntity
  8
ZUWAKU
  6
Continuous
 62
     9
100
AcDbLine
 10
-1239.686156123652
 20
2.128203230265938
 30
0.0
 11
-1260.0
 21
2.128203230265938
 31
0.0
  0
LINE
  5
36D
330
77E
100
AcDbEntity
  8
ZUWAKU
  6
Continuous
 62
     9
100
AcDbLine
 10
-1240.725386608194
 20
2.728203230265904
 30
0.0
 11
-1260.0
 21
2.728203230265904
 31
0.0
  0
LINE
  5
36E
330
77E
100
AcDbEntity
  8
ZUWAKU
  6
Continuous
 62
     9
100
AcDbLine
 10
-1241.764617092735
 20
3.328203230265911
 30
0.0
 11
-1260.0
 21
3.328203230265911
 31
0.0
  0
LINE
  5
36F
330
77E
100
AcDbEntity
  8
ZUWAKU
  6
Continuous
 62
     9
100
AcDbLine
 10
-1242.803847577276
 20
3.928203230265921
 30
0.0
 11
-1260.0
 21
3.928203230265921
 31
0.0
  0
LINE
  5
370
330
77E
100
AcDbEntity
  8
ZUWAKU
  6
Continuous
 62
     9
100
AcDbLine
 10
-1243.843078061818
 20
4.528203230265928
 30
0.0
 11
-1260.0
 21
4.528203230265928
 31
0.0
  0
LINE
  5
371
330
77E
100
AcDbEntity
  8
ZUWAKU
  6
Continuous
 62
     9
100
AcDbLine
 10
-1244.882308546359
 20
5.128203230265938
 30
0.0
 11
-1260.0
 21
5.128203230265938
 31
0.0
  0
LINE
  5
372
330
77E
100
AcDbEntity
  8
ZUWAKU
  6
Continuous
 62
     9
100
AcDbLine
 10
-1245.9215390309
 20
5.728203230265905
 30
0.0
 11
-1260.0
 21
5.728203230265905
 31
0.0
  0
LINE
  5
373
330
77E
100
AcDbEntity
  8
ZUWAKU
  6
Continuous
 62
     9
100
AcDbLine
 10
-1246.960769515442
 20
6.32820323026591
 30
0.0
 11
-1260.0
 21
6.32820323026591
 31
0.0
  0
LINE
  5
374
330
77E
100
AcDbEntity
  8
ZUWAKU
  6
Continuous
 62
     9
100
AcDbLine
 10
-1247.999999999983
 20
6.928203230265922
 30
0.0
 11
-1260.0
 21
6.928203230265922
 31
0.0
  0
LINE
  5
375
330
77E
100
AcDbEntity
  8
ZUWAKU
  6
Continuous
 62
     9
100
AcDbLine
 10
-1249.039230484524
 20
7.528203230265928
 30
0.0
 11
-1260.0
 21
7.528203230265928
 31
0.0
  0
LINE
  5
376
330
77E
100
AcDbEntity
  8
ZUWAKU
  6
Continuous
 62
     9
100
AcDbLine
 10
-1250.078460969066
 20
8.128203230265938
 30
0.0
 11
-1260.0
 21
8.128203230265938
 31
0.0
  0
LINE
  5
377
330
77E
100
AcDbEntity
  8
ZUWAKU
  6
Continuous
 62
     9
100
AcDbLine
 10
-1251.117691453607
 20
8.728203230265906
 30
0.0
 11
-1260.0
 21
8.728203230265906
 31
0.0
  0
LINE
  5
378
330
77E
100
AcDbEntity
  8
ZUWAKU
  6
Continuous
 62
     9
100
AcDbLine
 10
-1252.156921938149
 20
9.328203230265911
 30
0.0
 11
-1260.0
 21
9.328203230265911
 31
0.0
  0
LINE
  5
379
330
77E
100
AcDbEntity
  8
ZUWAKU
  6
Continuous
 62
     9
100
AcDbLine
 10
-1253.19615242269
 20
9.928203230265919
 30
0.0
 11
-1260.0
 21
9.928203230265919
 31
0.0
  0
LINE
  5
37A
330
77E
100
AcDbEntity
  8
ZUWAKU
  6
Continuous
 62
     9
100
AcDbLine
 10
-1254.235382907231
 20
10.52820323026593
 30
0.0
 11
-1260.0
 21
10.52820323026593
 31
0.0
  0
LINE
  5
37B
330
77E
100
AcDbEntity
  8
ZUWAKU
  6
Continuous
 62
     9
100
AcDbLine
 10
-1255.274613391772
 20
11.12820323026594
 30
0.0
 11
-1260.0
 21
11.12820323026594
 31
0.0
  0
LINE
  5
37C
330
77E
100
AcDbEntity
  8
ZUWAKU
  6
Continuous
 62
     9
100
AcDbLine
 10
-1256.313843876314
 20
11.7282032302659
 30
0.0
 11
-1260.0
 21
11.7282032302659
 31
0.0
  0
LINE
  5
37D
330
77E
100
AcDbEntity
  8
ZUWAKU
  6
Continuous
 62
     9
100
AcDbLine
 10
-1257.353074360855
 20
12.32820323026591
 30
0.0
 11
-1260.0
 21
12.32820323026591
 31
0.0
  0
LINE
  5
37E
330
77E
100
AcDbEntity
  8
ZUWAKU
  6
Continuous
 62
     9
100
AcDbLine
 10
-1258.392304845396
 20
12.92820323026592
 30
0.0
 11
-1260.0
 21
12.92820323026592
 31
0.0
  0
LINE
  5
37F
330
77E
100
AcDbEntity
  8
ZUWAKU
  6
Continuous
 62
     9
100
AcDbLine
 10
-1259.431535329938
 20
13.52820323026593
 30
0.0
 11
-1260.0
 21
13.52820323026593
 31
0.0
  0
LINE
  5
380
330
77E
100
AcDbEntity
  8
ZUWAKU
  6
Continuous
 62
     9
100
AcDbLine
 10
-1259.861261436021
 20
-891.2070639039086
 30
0.0
 11
-1259.861261436021
 21
-920.9996791917992
 31
0.0
  0
LINE
  5
381
330
77E
100
AcDbEntity
  8
ZUWAKU
  6
Continuous
 62
     9
100
AcDbLine
 10
1260.0
 20
-891.0
 30
0.0
 11
1290.0
 21
-891.0
 31
0.0
  0
LINE
  5
382
330
77E
100
AcDbEntity
  8
ZUWAKU
  6
Continuous
 62
     9
100
AcDbLine
 10
1260.0
 20
891.0
 30
0.0
 11
1290.0
 21
891.0
 31
0.0
  0
LINE
  5
383
330
77E
100
AcDbEntity
  8
ZUWAKU
  6
Continuous
 62
     9
100
AcDbLine
 10
1260.0
 20
891.0
 30
0.0
 11
1260.0
 21
921.0
 31
0.0
  0
POINT
  5
384
330
77E
100
AcDbEntity
  8
ZUWAKU
  6
Continuous
 62
     9
100
AcDbPoint
 10
1161.575979381443
 20
-778.8492692874138
 30
0.0
  0
POINT
  5
385
330
77E
100
AcDbEntity
  8
ZUWAKU
  6
Continuous
 62
     9
100
AcDbPoint
 10
1161.575979381443
 20
-813.0
 30
0.0
  0
POINT
  5
386
330
77E
100
AcDbEntity
  8
ZUWAKU
  6
Continuous
 62
     9
100
AcDbPoint
 10
1083.575979381443
 20
-795.0
 30
0.0
  0
POINT
  5
387
330
77E
100
AcDbEntity
  8
ZUWAKU
  6
Continuous
 62
     9
100
AcDbPoint
 10
1083.575979381443
 20
-778.8492692874138
 30
0.0
  0
POINT
  5
388
330
77E
100
AcDbEntity
  8
ZUWAKU
  6
Continuous
 62
     9
100
AcDbPoint
 10
1083.575979381443
 20
-813.0
 30
0.0
  0
POINT
  5
389
330
77E
100
AcDbEntity
  8
ZUWAKU
  6
Continuous
 62
     9
100
AcDbPoint
 10
1005.575979381443
 20
-795.0
 30
0.0
  0
POINT
  5
38A
330
77E
100
AcDbEntity
  8
ZUWAKU
  6
Continuous
 62
     9
100
AcDbPoint
 10
1005.575979381443
 20
-778.8492692874138
 30
0.0
  0
POINT
  5
38B
330
77E
100
AcDbEntity
  8
ZUWAKU
  6
Continuous
 62
     9
100
AcDbPoint
 10
1005.575979381443
 20
-813.0
 30
0.0
  0
POINT
  5
38C
330
77E
100
AcDbEntity
  8
ZUWAKU
  6
Continuous
 62
     9
100
AcDbPoint
 10
927.5759793814431
 20
-795.0
 30
0.0
  0
POINT
  5
38D
330
77E
100
AcDbEntity
  8
ZUWAKU
  6
Continuous
 62
     9
100
AcDbPoint
 10
927.5759793814431
 20
-778.8492692874138
 30
0.0
  0
POINT
  5
38E
330
77E
100
AcDbEntity
  8
ZUWAKU
  6
Continuous
 62
     9
100
AcDbPoint
 10
927.5759793814431
 20
-813.0
 30
0.0
  0
POINT
  5
3A6
330
77E
100
AcDbEntity
  8
ZUWAKU
  6
Continuous
 62
     9
100
AcDbPoint
 10
891.5759793814432
 20
-597.0
 30
0.0
  0
POINT
  5
3A7
330
77E
100
AcDbEntity
  8
ZUWAKU
  6
Continuous
 62
     9
100
AcDbPoint
 10
891.5759793814432
 20
-561.0
 30
0.0
  0
POINT
  5
3A8
330
77E
100
AcDbEntity
  8
ZUWAKU
  6
Continuous
 62
     3
100
AcDbPoint
 10
-1137.938144329897
 20
831.0
 30
0.0
  0
INSERT
  5
3B7
330
77E
100
AcDbEntity
  8
ZUWAKU
  6
Continuous
100
AcDbBlockReference
  2
DC_GROUP_1
 10
0.0
 20
0.0
 30
0.0
  0
INSERT
  5
3BB
330
77E
100
AcDbEntity
  8
ZUWAKU
  6
Continuous
100
AcDbBlockReference
  2
DC_GROUP_8
 10
0.0
 20
0.0
 30
0.0
  0
TEXT
  5
3BD
330
77E
100
AcDbEntity
  8
LAYER0240
 62
     4
100
AcDbText
 10
891.5759793814432
 20
-681.0
 30
0.0
 40
24.0
  1
タオルスタンド
 41
0.6999999999999993
  7
DCSTYLE0
 72
     5
 11
1025.975979381443
 21
-681.0
 31
0.0
100
AcDbText
  0
TEXT
  5
3BF
330
77E
100
AcDbEntity
  8
LAYER0240
 62
     4
100
AcDbText
 10
891.5759793814432
 20
-645.0
 30
0.0
 40
24.0
  1
JPK50700
 41
0.893023255813958
  7
DCSTYLE0
 72
     5
 11
1045.175979381444
 21
-645.0
 31
0.0
100
AcDbText
  0
TEXT
  5
3C0
330
77E
100
AcDbEntity
  8
LAYER0240
 62
     4
100
AcDbText
 10
816.0391488389013
 20
-753.0
 30
0.0
 40
24.0
  1
1/6
 41
1.028571428571427
  7
DCSTYLE0
 72
     5
 11
873.6391488389012
 21
-753.0
 31
0.0
100
AcDbText
  0
TEXT
  5
3C1
330
77E
100
AcDbEntity
  8
LAYER0240
 62
     4
100
AcDbText
 10
733.2980863404671
 20
-825.0
 30
0.0
 40
24.0
  1
16.04.01
 41
1.2
  7
DCSTYLE0
 72
     5
 11
886.898086340467
 21
-825.0
 31
0.0
100
AcDbText
  0
LINE
  5
3CF
330
77E
100
AcDbEntity
  8
LAYER0016
  6
Continuous
 62
     3
100
AcDbLine
 10
-558.0000749823998
 20
399.8773579350338
 30
0.0
 11
170.2999250176003
 21
399.8773579350338
 31
0.0
  0
LINE
  5
3D0
330
77E
100
AcDbEntity
  8
LAYER0016
  6
Continuous
 62
     3
100
AcDbLine
 10
-558.0000749823998
 20
383.8773579350338
 30
0.0
 11
170.2999250176003
 21
383.8773579350338
 31
0.0
  0
LINE
  5
3D1
330
77E
100
AcDbEntity
  8
LAYER0016
  6
Continuous
 62
     3
100
AcDbLine
 10
341.6194902349916
 20
-236.1226420649662
 30
0.0
 11
499.9194902349914
 21
-236.1226420649662
 31
0.0
  0
LINE
  5
3D2
330
77E
100
AcDbEntity
  8
LAYER0016
  6
Continuous
 62
     3
100
AcDbLine
 10
171.1499250176003
 20
-223.1226420649662
 30
0.0
 11
-558.8500749823996
 21
-223.1226420649662
 31
0.0
  0
LINE
  5
3D3
330
77E
100
AcDbEntity
  8
LAYER0016
  6
Continuous
 62
     3
100
AcDbLine
 10
171.1499250176003
 20
-233.1226420649662
 30
0.0
 11
-558.8500749823996
 21
-233.1226420649662
 31
0.0
  0
LINE
  5
3D4
330
77E
100
AcDbEntity
  8
LAYER0016
  6
Continuous
 62
     3
100
AcDbLine
 10
341.6194902349916
 20
-220.1226420649663
 30
0.0
 11
499.9194902349914
 21
-220.1226420649663
 31
0.0
  0
LINE
  5
3D5
330
77E
100
AcDbEntity
  8
LAYER0016
  6
Continuous
 62
     3
100
AcDbLine
 10
319.9194902349914
 20
-363.7226420649662
 30
0.0
 11
319.9194902349914
 21
471.8773579350338
 31
0.0
  0
LINE
  5
3D6
330
77E
100
AcDbEntity
  8
LAYER0016
  6
Continuous
 62
     3
100
AcDbLine
 10
521.6194902349916
 20
-363.7226420649662
 30
0.0
 11
521.6194902349916
 21
471.8773579350338
 31
0.0
  0
LINE
  5
3D7
330
77E
100
AcDbEntity
  8
LAYER0016
  6
Continuous
 62
     3
100
AcDbLine
 10
319.9194902349914
 20
471.8773579350338
 30
0.0
 11
521.6194902349916
 21
471.8773579350338
 31
0.0
  0
LINE
  5
3D8
330
77E
100
AcDbEntity
  8
LAYER0016
  6
Continuous
 62
     3
100
AcDbLine
 10
341.6194902349916
 20
450.1773579350338
 30
0.0
 11
499.9194902349914
 21
450.1773579350338
 31
0.0
  0
LINE
  5
3D9
330
77E
100
AcDbEntity
  8
LAYER0016
  6
Continuous
 62
     3
100
AcDbLine
 10
319.9194902349914
 20
471.8773579350338
 30
0.0
 11
341.6194902349916
 21
450.1773579350338
 31
0.0
  0
LINE
  5
3DA
330
77E
100
AcDbEntity
  8
LAYER0016
  6
Continuous
 62
     3
100
AcDbLine
 10
521.6194902349916
 20
471.8773579350338
 30
0.0
 11
499.9194902349914
 21
450.1773579350338
 31
0.0
  0
LINE
  5
3DB
330
77E
100
AcDbEntity
  8
LAYER0016
  6
Continuous
 62
     3
100
AcDbLine
 10
319.9194902349914
 20
-363.7226420649661
 30
0.0
 11
341.6194902349916
 21
-363.7226420649661
 31
0.0
  0
LINE
  5
3DC
330
77E
100
AcDbEntity
  8
LAYER0016
  6
Continuous
 62
     3
100
AcDbLine
 10
499.9194902349914
 20
-363.7226420649661
 30
0.0
 11
521.6194902349916
 21
-363.7226420649661
 31
0.0
  0
LINE
  5
3DD
330
77E
100
AcDbEntity
  8
LAYER0016
  6
Continuous
 62
     3
100
AcDbLine
 10
191.9999250176001
 20
-363.7226420649662
 30
0.0
 11
191.9999250176001
 21
461.0273579350338
 31
0.0
  0
LINE
  5
3DE
330
77E
100
AcDbEntity
  8
LAYER0016
  6
Continuous
 62
     3
100
AcDbLine
 10
-579.7000749823998
 20
-363.7226420649662
 30
0.0
 11
-579.7000749823998
 21
461.0273579350338
 31
0.0
  0
ARC
  5
3DF
330
77E
100
AcDbEntity
  8
LAYER0016
  6
Continuous
 62
     3
100
AcDbCircle
 10
181.1499250176003
 20
461.0273579350338
 30
0.0
 40
10.85000000000001
100
AcDbArc
 50
0.0
 51
180.0
  0
ARC
  5
3E0
330
77E
100
AcDbEntity
  8
LAYER0016
  6
Continuous
 62
     3
100
AcDbCircle
 10
-568.8500749823997
 20
461.0273579350338
 30
0.0
 40
10.84999999999994
100
AcDbArc
 50
0.0
 51
180.0
  0
LINE
  5
3E1
330
77E
100
AcDbEntity
  8
LAYER0016
  6
Continuous
 62
     3
100
AcDbLine
 10
170.2999250176003
 20
399.8773579350338
 30
0.0
 11
170.2999250176003
 21
461.0273579350338
 31
0.0
  0
LINE
  5
3E2
330
77E
100
AcDbEntity
  8
LAYER0016
  6
Continuous
 62
     3
100
AcDbLine
 10
170.2999250176003
 20
-363.7226420649661
 30
0.0
 11
170.2999250176003
 21
383.8773579350337
 31
0.0
  0
LWPOLYLINE
  5
3E4
330
77E
100
AcDbEntity
  8
LAYER0016
  6
Continuous
 62
     3
100
AcDbPolyline
 90
      151
 70
   128
 43
0.0
 10
170.2999250176003
 20
383.8773579350337
 10
170.3736514785282
 20
383.879112467235
 10
170.4473456005937
 20
383.8843752942428
 10
170.5209750591193
 20
383.8931441076077
 10
170.5945075577908
 20
383.9054150610376
 10
170.6679108428241
 20
383.9211827720875
 10
170.7411527171125
 20
383.9404403245179
 10
170.8142010543491
 20
383.9631792713298
 10
170.8870238131191
 20
383.9893896384697
 10
170.9595890509535
 20
384.0190599292041
 10
171.0318649383408
 20
384.0521771291633
 10
171.103819772688
 20
384.0887267120483
 10
171.1754219922267
 20
384.1286926460047
 10
171.2466401898569
 20
384.1720574006524
 10
171.3174431269233
 20
384.2188019547772
 10
171.3877997469175
 20
384.2689058046724
 10
171.4576791891011
 20
384.3223469731339
 10
171.5270508020408
 20
384.3791020190986
 10
171.5958841570545
 20
384.4391460479277
 10
171.6641490615579
 20
384.5024527223257
 10
171.7318155723076
 20
384.5689942738929
 10
171.7988540085355
 20
384.6387415153056
 10
171.8652349649679
 20
384.7116638531184
 10
171.9309293247235
 20
384.787729301184
 10
171.9959082720847
 20
384.8669044946829
 10
172.0601433051378
 20
384.9491547047582
 10
172.1236062482742
 20
385.0344438537497
 10
172.1862692645496
 20
385.1227345310176
 10
172.2481048678939
 20
385.2139880093529
 10
172.309085935168
 20
385.3081642619642
 10
172.3691857180604
 20
385.4052219800341
 10
172.4283778548198
 20
385.5051185908402
 10
172.4866363818187
 20
385.607810276427
 10
172.5439357449418
 20
385.7132519928275
 10
172.6002508107946
 20
385.8213974898197
 10
172.6555568777281
 20
385.9321993312146
 10
172.7098296866734
 20
386.0456089156625
 10
172.7630454317826
 20
386.1615764979713
 10
172.8151807708715
 20
386.2800512109268
 10
172.8662128356569
 20
386.4009810876043
 10
172.9161192417886
 20
386.5243130841629
 10
172.9648780986677
 20
386.6499931031129
 10
173.0124680190478
 20
386.7779660170443
 10
173.0588681284171
 20
386.9081756928073
 10
173.1040580741542
 20
387.0405650161348
 10
173.1480180344551
 20
387.175075916694
 10
173.1907287270285
 20
387.3116493935583
 10
173.232171417553
 20
387.450225541087
 10
173.2723279278948
 20
387.5907435752018
 10
173.3111806440813
 20
387.7331418600488
 10
173.3487125240271
 20
387.8773579350338
 10
173.3849071050092
 20
388.0233285422201
 10
173.4197485108882
 20
388.1709896540749
 10
173.4532214590719
 20
388.3202765015544
 10
173.4853112672189
 20
388.4711236025133
 10
173.5160038596789
 20
388.6234647904274
 10
173.5452857736663
 20
388.7772332434169
 10
173.573144165166
 20
388.9323615135564
 10
173.5995668145666
 20
389.0887815564594
 10
173.6245421320209
 20
389.2464247611252
 10
173.6480591625291
 20
389.4052219800343
 10
173.6701075907445
 20
389.5651035594781
 10
173.6906777454979
 20
389.7259993701118
 10
173.7097606040393
 20
389.887838837715
 10
173.7273477959963
 20
390.0505509741486
 10
173.7434316070454
 20
390.2140644084918
 10
173.7580049822954
 20
390.3783074183482
 10
173.7710615293823
 20
390.5432079613051
 10
173.782595521273
 20
390.7086937065346
 10
173.7926018987773
 20
390.8746920665194
 10
173.8010762727676
 20
391.0411302288927
 10
173.8080149261033
 20
391.2079351883754
 10
173.8134148152616
 20
391.3750337787994
 10
173.8172735716726
 20
391.5423527052004
 10
173.8195895027586
 20
391.7098185759671
 10
173.8203615926753
 20
391.877357935034
 10
173.8195895027586
 20
392.0448972941008
 10
173.8172735716726
 20
392.2123631648676
 10
173.8134148152616
 20
392.3796820912685
 10
173.8080149261033
 20
392.5467806816925
 10
173.8010762727676
 20
392.7135856411752
 10
173.7926018987773
 20
392.8800238035483
 10
173.7825955212729
 20
393.0460221635333
 10
173.7710615293823
 20
393.2115079087628
 10
173.7580049822954
 20
393.3764084517198
 10
173.7434316070454
 20
393.540651461576
 10
173.7273477959963
 20
393.7041648959192
 10
173.7097606040392
 20
393.8668770323528
 10
173.6906777454978
 20
394.0287164999562
 10
173.6701075907445
 20
394.1896123105899
 10
173.6480591625291
 20
394.3494938900337
 10
173.6245421320208
 20
394.5082911089427
 10
173.5995668145665
 20
394.6659343136085
 10
173.5731441651659
 20
394.8223543565114
 10
173.5452857736663
 20
394.9774826266509
 10
173.5160038596789
 20
395.1312510796404
 10
173.4853112672189
 20
395.2835922675546
 10
173.4532214590719
 20
395.4344393685135
 10
173.4197485108882
 20
395.5837262159929
 10
173.3849071050092
 20
395.7313873278478
 10
173.348712524027
 20
395.877357935034
 10
173.3111806440812
 20
396.0215740100192
 10
173.2723279278947
 20
396.163972294866
 10
173.2321714175529
 20
396.3044903289808
 10
173.1907287270284
 20
396.4430664765095
 10
173.148018034455
 20
396.5796399533738
 10
173.1040580741541
 20
396.714150853933
 10
173.0588681284171
 20
396.8465401772605
 10
173.0124680190477
 20
396.9767498530235
 10
172.9648780986676
 20
397.1047227669549
 10
172.9161192417886
 20
397.2304027859049
 10
172.8662128356567
 20
397.3537347824636
 10
172.8151807708714
 20
397.474664659141
 10
172.7630454317826
 20
397.5931393720965
 10
172.7098296866733
 20
397.7091069544053
 10
172.655556877728
 20
397.8225165388532
 10
172.6002508107945
 20
397.9333183802481
 10
172.5439357449417
 20
398.0414638772403
 10
172.4866363818185
 20
398.1469055936407
 10
172.4283778548196
 20
398.2495972792276
 10
172.3691857180603
 20
398.3494938900337
 10
172.309085935168
 20
398.4465516081037
 10
172.2481048678939
 20
398.5407278607148
 10
172.1862692645494
 20
398.6319813390501
 10
172.1236062482741
 20
398.7202720163181
 10
172.0601433051377
 20
398.8055611653095
 10
171.9959082720846
 20
398.8878113753849
 10
171.9309293247234
 20
398.9669865688837
 10
171.8652349649678
 20
399.0430520169494
 10
171.7988540085354
 20
399.1159743547622
 10
171.7318155723074
 20
399.1857215961749
 10
171.6641490615578
 20
399.252263147742
 10
171.5958841570544
 20
399.31556982214
 10
171.5270508020407
 20
399.3756138509692
 10
171.4576791891009
 20
399.4323688969338
 10
171.3877997469175
 20
399.4858100653952
 10
171.317443126923
 20
399.5359139152905
 10
171.2466401898567
 20
399.5826584694152
 10
171.1754219922266
 20
399.626023224063
 10
171.1038197726879
 20
399.6659891580192
 10
171.0318649383407
 20
399.7025387409043
 10
170.9595890509534
 20
399.7356559408633
 10
170.8870238131189
 20
399.765326231598
 10
170.814201054349
 20
399.7915365987378
 10
170.7411527171124
 20
399.8142755455497
 10
170.667910842824
 20
399.8335330979801
 10
170.5945075577906
 20
399.8493008090298
 10
170.5209750591191
 20
399.86157176246
 10
170.4473456005936
 20
399.8703405758247
 10
170.3736514785281
 20
399.8756034028327
 10
170.2999250176001
 20
399.8773579350338
  0
LWPOLYLINE
  5
3E6
330
77E
100
AcDbEntity
  8
LAYER0016
  6
Continuous
 62
     3
100
AcDbPolyline
 90
      151
 70
   128
 43
0.0
 10
-558.0000749823998
 20
399.8773579350344
 10
-558.0738014433277
 20
399.8756034028331
 10
-558.1474955653933
 20
399.8703405758254
 10
-558.2211250239188
 20
399.8615717624605
 10
-558.2946575225903
 20
399.8493008090304
 10
-558.3680608076235
 20
399.8335330979805
 10
-558.4413026819118
 20
399.8142755455502
 10
-558.5143510191486
 20
399.7915365987383
 10
-558.5871737779187
 20
399.7653262315984
 10
-558.659739015753
 20
399.7356559408639
 10
-558.7320149031403
 20
399.7025387409049
 10
-558.8039697374876
 20
399.6659891580197
 10
-558.8755719570261
 20
399.6260232240633
 10
-558.9467901546563
 20
399.5826584694156
 10
-559.0175930917228
 20
399.5359139152909
 10
-559.0879497117172
 20
399.4858100653956
 10
-559.1578291539007
 20
399.4323688969342
 10
-559.2272007668404
 20
399.3756138509694
 10
-559.2960341218542
 20
399.3155698221404
 10
-559.3642990263573
 20
399.2522631477423
 10
-559.4319655371072
 20
399.1857215961752
 10
-559.499003973335
 20
399.1159743547625
 10
-559.5653849297675
 20
399.0430520169496
 10
-559.6310792895232
 20
398.9669865688839
 10
-559.6960582368843
 20
398.8878113753852
 10
-559.7602932699373
 20
398.8055611653098
 10
-559.8237562130738
 20
398.7202720163183
 10
-559.8864192293491
 20
398.6319813390504
 10
-559.9482548326935
 20
398.5407278607151
 10
-560.0092358999676
 20
398.4465516081039
 10
-560.0693356828599
 20
398.3494938900338
 10
-560.1285278196193
 20
398.2495972792278
 10
-560.1867863466183
 20
398.1469055936409
 10
-560.2440857097414
 20
398.0414638772406
 10
-560.3004007755941
 20
397.9333183802483
 10
-560.3557068425279
 20
397.8225165388534
 10
-560.409979651473
 20
397.7091069544055
 10
-560.4631953965824
 20
397.5931393720967
 10
-560.5153307356711
 20
397.4746646591412
 10
-560.5663628004564
 20
397.3537347824637
 10
-560.6162692065883
 20
397.230402785905
 10
-560.6650280634672
 20
397.104722766955
 10
-560.7126179838473
 20
396.9767498530237
 10
-560.7590180932167
 20
396.8465401772606
 10
-560.8042080389536
 20
396.7141508539331
 10
-560.8481679992548
 20
396.5796399533739
 10
-560.8908786918281
 20
396.4430664765096
 10
-560.9323213823524
 20
396.3044903289809
 10
-560.9724778926944
 20
396.1639722948661
 10
-561.0113306088808
 20
396.0215740100192
 10
-561.0488624888268
 20
395.8773579350341
 10
-561.0850570698088
 20
395.7313873278478
 10
-561.1198984756878
 20
395.583726215993
 10
-561.1533714238715
 20
395.4344393685135
 10
-561.1854612320184
 20
395.2835922675546
 10
-561.2161538244786
 20
395.1312510796404
 10
-561.2454357384661
 20
394.9774826266509
 10
-561.2732941299656
 20
394.8223543565114
 10
-561.2997167793661
 20
394.6659343136085
 10
-561.3246920968204
 20
394.5082911089426
 10
-561.3482091273287
 20
394.3494938900337
 10
-561.3702575555443
 20
394.1896123105897
 10
-561.3908277102974
 20
394.0287164999562
 10
-561.4099105688389
 20
393.8668770323528
 10
-561.4274977607959
 20
393.7041648959192
 10
-561.4435815718451
 20
393.540651461576
 10
-561.458154947095
 20
393.3764084517197
 10
-561.4712114941819
 20
393.2115079087627
 10
-561.4827454860726
 20
393.0460221635332
 10
-561.4927518635769
 20
392.8800238035483
 10
-561.5012262375674
 20
392.7135856411752
 10
-561.508164890903
 20
392.5467806816923
 10
-561.5135647800611
 20
392.3796820912683
 10
-561.5174235364722
 20
392.2123631648674
 10
-561.5197394675582
 20
392.0448972941006
 10
-561.5205115574749
 20
391.8773579350338
 10
-561.5197394675582
 20
391.7098185759669
 10
-561.5174235364722
 20
391.5423527052001
 10
-561.5135647800611
 20
391.3750337787992
 10
-561.508164890903
 20
391.2079351883752
 10
-561.5012262375674
 20
391.0411302288925
 10
-561.4927518635769
 20
390.8746920665194
 10
-561.4827454860726
 20
390.7086937065344
 10
-561.4712114941819
 20
390.5432079613049
 10
-561.458154947095
 20
390.3783074183478
 10
-561.4435815718451
 20
390.2140644084916
 10
-561.4274977607959
 20
390.0505509741484
 10
-561.4099105688389
 20
389.8878388377149
 10
-561.3908277102974
 20
389.7259993701115
 10
-561.3702575555443
 20
389.5651035594779
 10
-561.3482091273287
 20
389.405221980034
 10
-561.3246920968204
 20
389.2464247611249
 10
-561.2997167793661
 20
389.088781556459
 10
-561.2732941299656
 20
388.9323615135562
 10
-561.2454357384661
 20
388.7772332434167
 10
-561.2161538244786
 20
388.6234647904271
 10
-561.1854612320184
 20
388.4711236025129
 10
-561.1533714238715
 20
388.3202765015541
 10
-561.1198984756878
 20
388.1709896540746
 10
-561.0850570698088
 20
388.0233285422199
 10
-561.0488624888268
 20
387.8773579350335
 10
-561.0113306088808
 20
387.7331418600484
 10
-560.9724778926944
 20
387.5907435752015
 10
-560.9323213823524
 20
387.4502255410866
 10
-560.8908786918281
 20
387.3116493935579
 10
-560.8481679992548
 20
387.1750759166936
 10
-560.8042080389536
 20
387.0405650161343
 10
-560.7590180932167
 20
386.9081756928069
 10
-560.7126179838473
 20
386.7779660170439
 10
-560.6650280634672
 20
386.6499931031125
 10
-560.6162692065883
 20
386.5243130841625
 10
-560.5663628004564
 20
386.4009810876039
 10
-560.5153307356711
 20
386.2800512109264
 10
-560.4631953965824
 20
386.1615764979709
 10
-560.409979651473
 20
386.0456089156622
 10
-560.3557068425279
 20
385.9321993312142
 10
-560.3004007755941
 20
385.8213974898193
 10
-560.2440857097414
 20
385.713251992827
 10
-560.1867863466183
 20
385.6078102764266
 10
-560.1285278196193
 20
385.5051185908397
 10
-560.0693356828599
 20
385.4052219800337
 10
-560.0092358999676
 20
385.3081642619637
 10
-559.9482548326935
 20
385.2139880093525
 10
-559.8864192293491
 20
385.1227345310172
 10
-559.8237562130738
 20
385.0344438537492
 10
-559.7602932699373
 20
384.9491547047577
 10
-559.6960582368843
 20
384.8669044946823
 10
-559.6310792895232
 20
384.7877293011836
 10
-559.5653849297675
 20
384.711663853118
 10
-559.499003973335
 20
384.6387415153051
 10
-559.4319655371072
 20
384.5689942738924
 10
-559.3642990263573
 20
384.5024527223252
 10
-559.2960341218542
 20
384.4391460479272
 10
-559.2272007668404
 20
384.3791020190981
 10
-559.1578291539006
 20
384.3223469731334
 10
-559.0879497117172
 20
384.268905804672
 10
-559.0175930917228
 20
384.2188019547767
 10
-558.9467901546563
 20
384.172057400652
 10
-558.8755719570261
 20
384.1286926460041
 10
-558.8039697374876
 20
384.0887267120479
 10
-558.7320149031403
 20
384.0521771291628
 10
-558.659739015753
 20
384.0190599292037
 10
-558.5871737779187
 20
383.9893896384692
 10
-558.5143510191486
 20
383.9631792713293
 10
-558.4413026819118
 20
383.9404403245173
 10
-558.3680608076235
 20
383.921182772087
 10
-558.2946575225903
 20
383.9054150610372
 10
-558.2211250239188
 20
383.893144107607
 10
-558.1474955653932
 20
383.8843752942423
 10
-558.0738014433277
 20
383.8791124672344
 10
-558.0000749823998
 20
383.8773579350331
  0
LINE
  5
3E7
330
77E
100
AcDbEntity
  8
LAYER0016
  6
Continuous
 62
     3
100
AcDbLine
 10
-558.0000749823998
 20
399.8773579350337
 30
0.0
 11
-558.0000749823998
 21
461.0273579350338
 31
0.0
  0
LINE
  5
3E8
330
77E
100
AcDbEntity
  8
LAYER0016
  6
Continuous
 62
     3
100
AcDbLine
 10
-558.0000749823998
 20
-363.7226420649661
 30
0.0
 11
-558.0000749823998
 21
383.877357935034
 31
0.0
  0
LINE
  5
3E9
330
77E
100
AcDbEntity
  8
LAYER0016
  6
Continuous
 62
     3
100
AcDbLine
 10
191.9999250176001
 20
-363.7226420649661
 30
0.0
 11
170.2999250176003
 21
-363.7226420649661
 31
0.0
  0
LINE
  5
3EA
330
77E
100
AcDbEntity
  8
LAYER0016
  6
Continuous
 62
     3
100
AcDbLine
 10
-558.0000749823998
 20
-363.7226420649661
 30
0.0
 11
-579.7000749823998
 21
-363.7226420649661
 31
0.0
  0
LWPOLYLINE
  5
3EC
330
77E
100
AcDbEntity
  8
LAYER0016
  6
Continuous
 62
     3
100
AcDbPolyline
 90
      151
 70
   128
 43
0.0
 10
341.6194902349916
 20
-220.1226420649663
 10
341.5457637740637
 20
-220.1243965971675
 10
341.4720696519982
 20
-220.1296594241754
 10
341.3984401934726
 20
-220.1384282375401
 10
341.3249076948012
 20
-220.1506991909702
 10
341.2515044097678
 20
-220.1664669020201
 10
341.1782625354795
 20
-220.1857244544505
 10
341.1052141982428
 20
-220.2084634012623
 10
341.0323914394729
 20
-220.2346737684022
 10
340.9598262016384
 20
-220.2643440591368
 10
340.8875503142511
 20
-220.2974612590958
 10
340.8155954799039
 20
-220.334010841981
 10
340.7439932603652
 20
-220.3739767759372
 10
340.6727750627351
 20
-220.417341530585
 10
340.6019721256687
 20
-220.4640860847097
 10
340.5316155056744
 20
-220.514189934605
 10
340.4617360634909
 20
-220.5676311030664
 10
340.3923644505512
 20
-220.6243861490311
 10
340.3235310955374
 20
-220.6844301778603
 10
340.255266191034
 20
-220.7477368522583
 10
340.1875996802844
 20
-220.8142784038255
 10
340.1205612440565
 20
-220.8840256452381
 10
340.0541802876241
 20
-220.956947983051
 10
339.9884859278685
 20
-221.0330134311165
 10
339.9235069805072
 20
-221.1121886246154
 10
339.8592719474542
 20
-221.1944388346907
 10
339.7958090043179
 20
-221.2797279836822
 10
339.7331459880424
 20
-221.3680186609501
 10
339.671310384698
 20
-221.4592721392854
 10
339.6103293174239
 20
-221.5534483918966
 10
339.5502295345317
 20
-221.6505061099667
 10
339.4910373977722
 20
-221.7504027207727
 10
339.4327788707733
 20
-221.8530944063595
 10
339.3754795076502
 20
-221.9585361227599
 10
339.3191644417973
 20
-222.0666816197522
 10
339.2638583748638
 20
-222.1774834611471
 10
339.2095855659186
 20
-222.2908930455949
 10
339.1563698208094
 20
-222.4068606279038
 10
339.1042344817205
 20
-222.5253353408593
 10
339.0532024169352
 20
-222.6462652175367
 10
339.0032960108034
 20
-222.7695972140954
 10
338.9545371539243
 20
-222.8952772330454
 10
338.9069472335441
 20
-223.0232501469767
 10
338.8605471241748
 20
-223.1534598227397
 10
338.8153571784378
 20
-223.2858491460672
 10
338.7713972181369
 20
-223.4203600466264
 10
338.7286865255635
 20
-223.5569335234909
 10
338.687243835039
 20
-223.6955096710195
 10
338.6470873246972
 20
-223.8360277051343
 10
338.6082346085107
 20
-223.9784259899812
 10
338.5707027285649
 20
-224.1226420649662
 10
338.5345081475828
 20
-224.2686126721525
 10
338.4996667417038
 20
-224.4162737840073
 10
338.4661937935201
 20
-224.5655606314868
 10
338.434103985373
 20
-224.7164077324456
 10
338.4034113929132
 20
-224.8687489203598
 10
338.3741294789256
 20
-225.0225173733494
 10
338.346271087426
 20
-225.1776456434888
 10
338.3198484380254
 20
-225.3340656863917
 10
338.2948731205711
 20
-225.4917088910576
 10
338.2713560900628
 20
-225.6505061099666
 10
338.2493076618473
 20
-225.8103876894104
 10
338.2287375070941
 20
-225.9712835000441
 10
338.2096546485527
 20
-226.1331229676474
 10
338.1920674565956
 20
-226.295835104081
 10
338.1759836455466
 20
-226.4593485384241
 10
338.1614102702966
 20
-226.6235915482804
 10
338.1483537232097
 20
-226.7884920912374
 10
338.136819731319
 20
-226.9539778364669
 10
338.1268133538146
 20
-227.1199761964518
 10
338.1183389798243
 20
-227.286414358825
 10
338.1114003264887
 20
-227.4532193183077
 10
338.1060004373304
 20
-227.6203179087317
 10
338.1021416809193
 20
-227.7876368351326
 10
338.0998257498334
 20
-227.9551027058993
 10
338.0990536599167
 20
-228.1226420649662
 10
338.0998257498334
 20
-228.2901814240331
 10
338.1021416809193
 20
-228.4576472947998
 10
338.1060004373304
 20
-228.6249662212007
 10
338.1114003264887
 20
-228.7920648116247
 10
338.1183389798243
 20
-228.9588697711074
 10
338.1268133538146
 20
-229.1253079334806
 10
338.136819731319
 20
-229.2913062934655
 10
338.1483537232097
 20
-229.456792038695
 10
338.1614102702966
 20
-229.621692581652
 10
338.1759836455466
 20
-229.7859355915083
 10
338.1920674565956
 20
-229.9494490258514
 10
338.2096546485527
 20
-230.112161162285
 10
338.2287375070941
 20
-230.2740006298883
 10
338.2493076618473
 20
-230.434896440522
 10
338.2713560900628
 20
-230.5947780199658
 10
338.2948731205711
 20
-230.7535752388748
 10
338.3198484380254
 20
-230.9112184435407
 10
338.346271087426
 20
-231.0676384864436
 10
338.3741294789256
 20
-231.222766756583
 10
338.403411392913
 20
-231.3765352095726
 10
338.434103985373
 20
-231.5288763974868
 10
338.4661937935201
 20
-231.6797234984456
 10
338.4996667417037
 20
-231.8290103459251
 10
338.5345081475828
 20
-231.9766714577799
 10
338.5707027285649
 20
-232.1226420649662
 10
338.6082346085107
 20
-232.2668581399512
 10
338.6470873246972
 20
-232.4092564247981
 10
338.687243835039
 20
-232.5497744589129
 10
338.7286865255635
 20
-232.6883506064416
 10
338.7713972181369
 20
-232.8249240833059
 10
338.8153571784378
 20
-232.9594349838652
 10
338.8605471241748
 20
-233.0918243071926
 10
338.9069472335441
 20
-233.2220339829557
 10
338.9545371539243
 20
-233.350006896887
 10
339.0032960108034
 20
-233.475686915837
 10
339.0532024169351
 20
-233.5990189123957
 10
339.1042344817205
 20
-233.7199487890731
 10
339.1563698208094
 20
-233.8384235020286
 10
339.2095855659186
 20
-233.9543910843375
 10
339.2638583748638
 20
-234.0678006687853
 10
339.3191644417973
 20
-234.1786025101802
 10
339.3754795076501
 20
-234.2867480071725
 10
339.4327788707732
 20
-234.3921897235729
 10
339.4910373977722
 20
-234.4948814091597
 10
339.5502295345317
 20
-234.5947780199657
 10
339.6103293174239
 20
-234.6918357380358
 10
339.671310384698
 20
-234.786011990647
 10
339.7331459880424
 20
-234.8772654689823
 10
339.7958090043179
 20
-234.9655561462502
 10
339.8592719474541
 20
-235.0508452952417
 10
339.9235069805072
 20
-235.1330955053171
 10
339.9884859278685
 20
-235.2122706988159
 10
340.0541802876241
 20
-235.2883361468814
 10
340.1205612440564
 20
-235.3612584846943
 10
340.1875996802844
 20
-235.431005726107
 10
340.255266191034
 20
-235.4975472776742
 10
340.3235310955374
 20
-235.5608539520722
 10
340.3923644505512
 20
-235.6208979809013
 10
340.4617360634909
 20
-235.677653026866
 10
340.5316155056743
 20
-235.7310941953274
 10
340.6019721256687
 20
-235.7811980452227
 10
340.6727750627351
 20
-235.8279425993474
 10
340.7439932603652
 20
-235.8713073539952
 10
340.8155954799039
 20
-235.9112732879514
 10
340.8875503142511
 20
-235.9478228708366
 10
340.9598262016384
 20
-235.9809400707957
 10
341.0323914394729
 20
-236.0106103615302
 10
341.1052141982428
 20
-236.0368207286701
 10
341.1782625354795
 20
-236.059559675482
 10
341.2515044097678
 20
-236.0788172279123
 10
341.3249076948011
 20
-236.0945849389622
 10
341.3984401934726
 20
-236.1068558923923
 10
341.4720696519982
 20
-236.115624705757
 10
341.5457637740637
 20
-236.1208875327649
 10
341.6194902349916
 20
-236.1226420649662
  0
LINE
  5
3ED
330
77E
100
AcDbEntity
  8
LAYER0016
  6
Continuous
 62
     3
100
AcDbLine
 10
341.6194902349916
 20
-220.1226420649663
 30
0.0
 11
341.6194902349916
 21
450.1773579350338
 31
0.0
  0
LINE
  5
3EE
330
77E
100
AcDbEntity
  8
LAYER0016
  6
Continuous
 62
     3
100
AcDbLine
 10
341.6194902349916
 20
-363.7226420649661
 30
0.0
 11
341.6194902349916
 21
-236.1226420649662
 31
0.0
  0
LWPOLYLINE
  5
3F0
330
77E
100
AcDbEntity
  8
LAYER0016
  6
Continuous
 62
     3
100
AcDbPolyline
 90
      151
 70
   128
 43
0.0
 10
499.9194902349914
 20
-236.1226420649662
 10
499.9932166959193
 20
-236.1208875327649
 10
500.0669108179848
 20
-236.115624705757
 10
500.1405402765103
 20
-236.1068558923923
 10
500.2140727751818
 20
-236.0945849389622
 10
500.2874760602152
 20
-236.0788172279123
 10
500.3607179345036
 20
-236.059559675482
 10
500.4337662717402
 20
-236.0368207286701
 10
500.50658903051
 20
-236.0106103615302
 10
500.5791542683446
 20
-235.9809400707957
 10
500.6514301557317
 20
-235.9478228708366
 10
500.7233849900791
 20
-235.9112732879514
 10
500.7949872096178
 20
-235.8713073539952
 10
500.8662054072478
 20
-235.8279425993474
 10
500.9370083443143
 20
-235.7811980452227
 10
501.0073649643086
 20
-235.7310941953274
 10
501.0772444064921
 20
-235.677653026866
 10
501.1466160194318
 20
-235.6208979809013
 10
501.2154493744456
 20
-235.5608539520722
 10
501.2837142789487
 20
-235.4975472776742
 10
501.3513807896986
 20
-235.431005726107
 10
501.4184192259265
 20
-235.3612584846943
 10
501.4848001823589
 20
-235.2883361468815
 10
501.5504945421144
 20
-235.2122706988159
 10
501.6154734894757
 20
-235.1330955053171
 10
501.6797085225288
 20
-235.0508452952417
 10
501.7431714656652
 20
-234.9655561462502
 10
501.8058344819406
 20
-234.8772654689823
 10
501.867670085285
 20
-234.786011990647
 10
501.9286511525591
 20
-234.6918357380358
 10
501.9887509354512
 20
-234.5947780199658
 10
502.0479430722108
 20
-234.4948814091597
 10
502.1062015992097
 20
-234.3921897235729
 10
502.1635009623328
 20
-234.2867480071725
 10
502.2198160281856
 20
-234.1786025101802
 10
502.2751220951191
 20
-234.0678006687853
 10
502.3293949040644
 20
-233.9543910843375
 10
502.3826106491736
 20
-233.8384235020286
 10
502.4347459882624
 20
-233.7199487890731
 10
502.4857780530478
 20
-233.5990189123957
 10
502.5356844591795
 20
-233.475686915837
 10
502.5844433160586
 20
-233.350006896887
 10
502.6320332364388
 20
-233.2220339829557
 10
502.6784333458079
 20
-233.0918243071927
 10
502.7236232915452
 20
-232.9594349838652
 10
502.7675832518461
 20
-232.824924083306
 10
502.8102939444194
 20
-232.6883506064416
 10
502.851736634944
 20
-232.5497744589129
 10
502.8918931452857
 20
-232.4092564247981
 10
502.9307458614723
 20
-232.2668581399512
 10
502.9682777414181
 20
-232.1226420649662
 10
503.0044723224001
 20
-231.9766714577799
 10
503.0393137282792
 20
-231.8290103459251
 10
503.0727866764627
 20
-231.6797234984456
 10
503.1048764846099
 20
-231.5288763974868
 10
503.1355690770697
 20
-231.3765352095726
 10
503.1648509910572
 20
-231.222766756583
 10
503.192709382557
 20
-231.0676384864436
 10
503.2191320319575
 20
-230.9112184435407
 10
503.2441073494118
 20
-230.7535752388748
 10
503.26762437992
 20
-230.5947780199658
 10
503.2896728081355
 20
-230.434896440522
 10
503.3102429628888
 20
-230.2740006298883
 10
503.3293258214301
 20
-230.112161162285
 10
503.3469130133872
 20
-229.9494490258514
 10
503.3629968244363
 20
-229.7859355915083
 10
503.3775701996862
 20
-229.621692581652
 10
503.3906267467733
 20
-229.456792038695
 10
503.4021607386637
 20
-229.2913062934655
 10
503.4121671161683
 20
-229.1253079334806
 10
503.4206414901586
 20
-228.9588697711074
 10
503.4275801434943
 20
-228.7920648116247
 10
503.4329800326526
 20
-228.6249662212007
 10
503.4368387890636
 20
-228.4576472947998
 10
503.4391547201495
 20
-228.2901814240331
 10
503.4399268100663
 20
-228.1226420649662
 10
503.4391547201495
 20
-227.9551027058993
 10
503.4368387890636
 20
-227.7876368351326
 10
503.4329800326526
 20
-227.6203179087317
 10
503.4275801434943
 20
-227.4532193183077
 10
503.4206414901586
 20
-227.286414358825
 10
503.4121671161683
 20
-227.1199761964518
 10
503.4021607386637
 20
-226.9539778364669
 10
503.3906267467733
 20
-226.7884920912374
 10
503.3775701996862
 20
-226.6235915482804
 10
503.3629968244363
 20
-226.4593485384241
 10
503.3469130133872
 20
-226.295835104081
 10
503.3293258214301
 20
-226.1331229676474
 10
503.3102429628888
 20
-225.9712835000441
 10
503.2896728081355
 20
-225.8103876894104
 10
503.26762437992
 20
-225.6505061099666
 10
503.2441073494118
 20
-225.4917088910576
 10
503.2191320319575
 20
-225.3340656863917
 10
503.1927093825568
 20
-225.1776456434888
 10
503.1648509910572
 20
-225.0225173733494
 10
503.1355690770697
 20
-224.8687489203598
 10
503.1048764846099
 20
-224.7164077324456
 10
503.0727866764627
 20
-224.5655606314868
 10
503.0393137282792
 20
-224.4162737840073
 10
503.0044723224001
 20
-224.2686126721525
 10
502.9682777414181
 20
-224.1226420649662
 10
502.9307458614722
 20
-223.9784259899812
 10
502.8918931452857
 20
-223.8360277051343
 10
502.851736634944
 20
-223.6955096710195
 10
502.8102939444194
 20
-223.5569335234909
 10
502.7675832518461
 20
-223.4203600466265
 10
502.7236232915452
 20
-223.2858491460672
 10
502.6784333458079
 20
-223.1534598227398
 10
502.6320332364388
 20
-223.0232501469767
 10
502.5844433160586
 20
-222.8952772330454
 10
502.5356844591795
 20
-222.7695972140954
 10
502.4857780530478
 20
-222.6462652175367
 10
502.4347459882624
 20
-222.5253353408593
 10
502.3826106491736
 20
-222.4068606279038
 10
502.3293949040644
 20
-222.2908930455949
 10
502.2751220951191
 20
-222.1774834611471
 10
502.2198160281856
 20
-222.0666816197522
 10
502.1635009623328
 20
-221.9585361227599
 10
502.1062015992097
 20
-221.8530944063595
 10
502.0479430722108
 20
-221.7504027207727
 10
501.9887509354512
 20
-221.6505061099667
 10
501.9286511525591
 20
-221.5534483918966
 10
501.867670085285
 20
-221.4592721392854
 10
501.8058344819406
 20
-221.3680186609501
 10
501.7431714656652
 20
-221.2797279836822
 10
501.6797085225288
 20
-221.1944388346907
 10
501.6154734894757
 20
-221.1121886246154
 10
501.5504945421144
 20
-221.0330134311165
 10
501.4848001823589
 20
-220.956947983051
 10
501.4184192259265
 20
-220.8840256452381
 10
501.3513807896986
 20
-220.8142784038255
 10
501.2837142789487
 20
-220.7477368522582
 10
501.2154493744456
 20
-220.6844301778602
 10
501.1466160194318
 20
-220.6243861490311
 10
501.0772444064921
 20
-220.5676311030664
 10
501.0073649643086
 20
-220.514189934605
 10
500.9370083443143
 20
-220.4640860847097
 10
500.8662054072478
 20
-220.417341530585
 10
500.7949872096178
 20
-220.3739767759372
 10
500.7233849900791
 20
-220.334010841981
 10
500.6514301557317
 20
-220.2974612590958
 10
500.5791542683446
 20
-220.2643440591368
 10
500.5065890305099
 20
-220.2346737684022
 10
500.4337662717402
 20
-220.2084634012623
 10
500.3607179345036
 20
-220.1857244544505
 10
500.2874760602152
 20
-220.1664669020201
 10
500.2140727751818
 20
-220.1506991909702
 10
500.1405402765103
 20
-220.1384282375401
 10
500.0669108179848
 20
-220.1296594241754
 10
499.9932166959193
 20
-220.1243965971675
 10
499.9194902349914
 20
-220.1226420649663
  0
LINE
  5
3F1
330
77E
100
AcDbEntity
  8
LAYER0016
  6
Continuous
 62
     3
100
AcDbLine
 10
499.9194902349914
 20
-363.7226420649661
 30
0.0
 11
499.9194902349914
 21
-236.1226420649662
 31
0.0
  0
LINE
  5
3F2
330
77E
100
AcDbEntity
  8
LAYER0016
  6
Continuous
 62
     3
100
AcDbLine
 10
499.9194902349914
 20
-220.1226420649663
 30
0.0
 11
499.9194902349914
 21
450.1773579350338
 31
0.0
  0
CIRCLE
  5
3F3
330
77E
100
AcDbEntity
  8
LAYER0016
  6
Continuous
 62
     3
100
AcDbCircle
 10
-471.4438096019501
 20
-613.0937462420251
 30
0.0
 40
10.0
  0
LINE
  5
3F4
330
77E
100
AcDbEntity
  8
LAYER0016
  6
Continuous
 62
     3
100
AcDbLine
 10
-445.6629445658464
 20
-603.0937462420252
 30
0.0
 11
-445.6629445658464
 21
-623.0937462420252
 31
0.0
  0
LINE
  5
3F5
330
77E
100
AcDbEntity
  8
LAYER0016
  6
Continuous
 62
     3
100
AcDbLine
 10
-444.862944565846
 20
-603.0937462420252
 30
0.0
 11
-444.862944565846
 21
-623.0937462420252
 31
0.0
  0
LINE
  5
3F6
330
77E
100
AcDbEntity
  8
LAYER0016
  6
Continuous
 62
     3
100
AcDbLine
 10
-444.862944565846
 20
-603.0937462420252
 30
0.0
 11
-445.6629445658464
 21
-603.0937462420252
 31
0.0
  0
LINE
  5
3F7
330
77E
100
AcDbEntity
  8
LAYER0016
  6
Continuous
 62
     3
100
AcDbLine
 10
-444.862944565846
 20
-623.0937462420252
 30
0.0
 11
-445.6629445658464
 21
-623.0937462420252
 31
0.0
  0
LINE
  5
3F8
330
77E
100
AcDbEntity
  8
LAYER0016
  6
CENTER
 62
     9
100
AcDbLine
 10
-568.8500749823997
 20
-377.0847193596523
 30
0.0
 11
-568.8500749823997
 21
489.2882275002511
 31
0.0
  0
LINE
  5
3F9
330
77E
100
AcDbEntity
  8
LAYER0016
  6
CENTER
 62
     9
100
AcDbLine
 10
181.1499250176003
 20
-377.0847193596523
 30
0.0
 11
181.1499250176003
 21
489.2882275002511
 31
0.0
  0
LINE
  5
3FA
330
77E
100
AcDbEntity
  8
LAYER0016
  6
CENTER
 62
     9
100
AcDbLine
 10
-607.7631184606607
 20
391.8773579350338
 30
0.0
 11
211.1499250176003
 21
391.8773579350338
 31
0.0
  0
LINE
  5
3FB
330
77E
100
AcDbEntity
  8
LAYER0016
  6
CENTER
 62
     9
100
AcDbLine
 10
211.1499250176003
 20
-228.1226420649662
 30
0.0
 11
-607.7631184606607
 21
-228.1226420649662
 31
0.0
  0
LINE
  5
3FC
330
77E
100
AcDbEntity
  8
LAYER0016
  6
CENTER
 62
     9
100
AcDbLine
 10
330.7694902349917
 20
-377.0847193596523
 30
0.0
 11
330.7694902349917
 21
489.2882275002513
 31
0.0
  0
LINE
  5
3FD
330
77E
100
AcDbEntity
  8
LAYER0016
  6
CENTER
 62
     9
100
AcDbLine
 10
510.7694902349916
 20
-377.0847193596523
 30
0.0
 11
510.7694902349916
 21
489.2882275002513
 31
0.0
  0
LINE
  5
3FE
330
77E
100
AcDbEntity
  8
LAYER0016
  6
CENTER
 62
     9
100
AcDbLine
 10
-584.2114765387614
 20
461.0273579350338
 30
0.0
 11
-550.5678553467401
 21
461.0273579350338
 31
0.0
  0
LINE
  5
3FF
330
77E
100
AcDbEntity
  8
LAYER0016
  6
CENTER
 62
     9
100
AcDbLine
 10
164.6571716773601
 20
461.0273579350338
 30
0.0
 11
198.2122269508222
 21
461.0273579350338
 31
0.0
  0
LINE
  5
400
330
77E
100
AcDbEntity
  8
LAYER0016
  6
CENTER
 62
     9
100
AcDbLine
 10
313.6753062141206
 20
461.0273579350338
 30
0.0
 11
529.4401573239752
 21
461.0273579350338
 31
0.0
  0
LINE
  5
401
330
77E
100
AcDbEntity
  8
LAYER0016
  6
CENTER
 62
     9
100
AcDbLine
 10
308.9680093796223
 20
391.8773579350338
 30
0.0
 11
357.2308519541371
 21
391.8773579350338
 31
0.0
  0
LINE
  5
402
330
77E
100
AcDbEntity
  8
LAYER0016
  6
CENTER
 62
     9
100
AcDbLine
 10
420.7694902349916
 20
-260.7065017411755
 30
0.0
 11
420.7694902349916
 21
-191.6673001154533
 31
0.0
  0
LINE
  5
403
330
77E
100
AcDbEntity
  8
LAYER0016
  6
CENTER
 62
     9
100
AcDbLine
 10
-488.5895142705448
 20
-613.0937462420251
 30
0.0
 11
-455.0458013319007
 21
-613.0937462420251
 31
0.0
  0
LINE
  5
404
330
77E
100
AcDbEntity
  8
LAYER0016
  6
CENTER
 62
     9
100
AcDbLine
 10
-471.4438096019501
 20
-629.9242455661352
 30
0.0
 11
-471.4438096019501
 21
-596.6151040466423
 31
0.0
  0
LINE
  5
405
330
77E
100
AcDbEntity
  8
LAYER0016
  6
CENTER
 62
     9
100
AcDbLine
 10
-450.1198015297222
 20
-613.0937462420251
 30
0.0
 11
-439.9897913545191
 21
-613.0937462420251
 31
0.0
  0
LINE
  5
406
330
77E
100
AcDbEntity
  8
LAYER0016
  6
CENTER
 62
     9
100
AcDbLine
 10
489.1492883244771
 20
391.8773579350338
 30
0.0
 11
540.0933999309095
 21
391.8773579350338
 31
0.0
  0
LINE
  5
407
330
77E
100
AcDbEntity
  8
LAYER0016
  6
CENTER
 62
     9
100
AcDbLine
 10
302.5329637030204
 20
-228.1226420649662
 30
0.0
 11
547.6009532202783
 21
-228.1226420649662
 31
0.0
  0
CIRCLE
  5
408
330
77E
100
AcDbEntity
  8
LAYER0016
  6
DASHED2
 62
     2
100
AcDbCircle
 10
330.7694902349917
 20
391.8773579350338
 30
0.0
 40
8.0
  0
CIRCLE
  5
409
330
77E
100
AcDbEntity
  8
LAYER0016
  6
DASHED2
 62
     2
100
AcDbCircle
 10
510.7694902349916
 20
391.8773579350338
 30
0.0
 40
8.0
  0
CIRCLE
  5
40A
330
77E
100
AcDbEntity
  8
LAYER0016
  6
DASHED2
 62
     2
100
AcDbCircle
 10
181.1499250176003
 20
-228.1226420649662
 30
0.0
 40
8.0
  0
CIRCLE
  5
40B
330
77E
100
AcDbEntity
  8
LAYER0016
  6
DASHED2
 62
     2
100
AcDbCircle
 10
-568.8500749823997
 20
-228.1226420649662
 30
0.0
 40
8.0
  0
CIRCLE
  5
40C
330
77E
100
AcDbEntity
  8
LAYER0016
  6
DASHED2
 62
     2
100
AcDbCircle
 10
420.7694902349916
 20
-228.1226420649662
 30
0.0
 40
5.0
  0
LINE
  5
40D
330
77E
100
AcDbEntity
  8
LAYER0016
  6
DASHED2
 62
     2
100
AcDbLine
 10
174.9049270192018
 20
-223.1226420649662
 30
0.0
 11
171.1499250176003
 21
-223.1226420649662
 31
0.0
  0
LINE
  5
40E
330
77E
100
AcDbEntity
  8
LAYER0016
  6
DASHED2
 62
     2
100
AcDbLine
 10
174.9049270192018
 20
-233.1226420649662
 30
0.0
 11
171.1499250176003
 21
-233.1226420649662
 31
0.0
  0
LINE
  5
40F
330
77E
100
AcDbEntity
  8
LAYER0016
  6
DASHED2
 62
     2
100
AcDbLine
 10
-558.8500749823996
 20
-223.1226420649662
 30
0.0
 11
-562.6050769840015
 21
-223.1226420649662
 31
0.0
  0
LINE
  5
410
330
77E
100
AcDbEntity
  8
LAYER0016
  6
DASHED2
 62
     2
100
AcDbLine
 10
-558.8500749823996
 20
-233.1226420649662
 30
0.0
 11
-562.6050769840015
 21
-233.1226420649662
 31
0.0
  0
INSERT
  5
411
330
77E
100
AcDbEntity
  8
LAYER0016
  6
Continuous
100
AcDbBlockReference
  2
DA_IMAGEDIMGROUP_1
 10
0.0
 20
0.0
 30
0.0
  0
INSERT
  5
412
330
77E
100
AcDbEntity
  8
LAYER0016
  6
Continuous
100
AcDbBlockReference
  2
DA_IMAGEDIMGROUP_2
 10
0.0
 20
0.0
 30
0.0
  0
INSERT
  5
413
330
77E
100
AcDbEntity
  8
LAYER0016
  6
Continuous
100
AcDbBlockReference
  2
DA_IMAGEDIMGROUP_3
 10
0.0
 20
0.0
 30
0.0
  0
INSERT
  5
414
330
77E
100
AcDbEntity
  8
LAYER0016
  6
Continuous
100
AcDbBlockReference
  2
DC_GROUP_9
 10
0.0
 20
0.0
 30
0.0
  0
INSERT
  5
415
330
77E
100
AcDbEntity
  8
LAYER0016
  6
Continuous
100
AcDbBlockReference
  2
DC_GROUP_10
 10
0.0
 20
0.0
 30
0.0
  0
INSERT
  5
416
330
77E
100
AcDbEntity
  8
LAYER0016
  6
Continuous
100
AcDbBlockReference
  2
DC_GROUP_11
 10
0.0
 20
0.0
 30
0.0
  0
INSERT
  5
417
330
77E
100
AcDbEntity
  8
LAYER0016
  6
Continuous
100
AcDbBlockReference
  2
DC_GROUP_12
 10
0.0
 20
0.0
 30
0.0
  0
INSERT
  5
418
330
77E
100
AcDbEntity
  8
LAYER0016
  6
Continuous
100
AcDbBlockReference
  2
DA_IMAGEDIMGROUP_4
 10
0.0
 20
0.0
 30
0.0
  0
DIMENSION
  5
41B
330
77E
100
AcDbEntity
  8
LAYER0016
  6
Continuous
100
AcDbDimension
  2
*D20
 10
181.1499250176003
 20
621.8773579350337
 30
0.0
 11
-193.8500749823996
 21
621.8773579350337
 31
0.0
 70
   160
 71
     5
 42
-1.0
 73
     0
 74
     0
 75
     0
  3
DC_ROTATED
100
AcDbAlignedDimension
 13
-568.8500749823997
 23
489.2882275002511
 33
0.0
 14
181.1499250176003
 24
489.2882275002511
 34
0.0
100
AcDbRotatedDimension
1001
ACAD
1000
DSTYLE
1002
{
1070
     7
1000
OPEN30
1070
     6
1000
OPEN30
1070
   274
1070
     4
1070
    41
1040
18.0000114440918
1070
    79
1070
     2
1070
   176
1070
     9
1070
   177
1070
     9
1070
   178
1070
     7
1070
    44
1040
6.0
1070
    42
1040
6.0
1070
   147
1040
6.0
1070
   173
1070
     1
1070
    77
1070
     3
1070
    73
1070
     0
1070
   172
1070
     1
1070
    74
1070
     0
1070
   283
1070
     0
1070
   340
1005
111
1070
   140
1040
24.0
1070
   284
1070
     8
1070
   288
1070
     1
1070
    78
1070
     8
1070
    90
1070
     1
1002
}
  0
DIMENSION
  5
41C
330
77E
100
AcDbEntity
  8
LAYER0016
  6
Continuous
100
AcDbDimension
  2
*D21
 10
191.9999250176001
 20
681.8773579350337
 30
0.0
 11
-193.8500749823996
 21
681.8773579350337
 31
0.0
 70
   160
  1
(<>)
 71
     5
 42
-1.0
 73
     0
 74
     0
 75
     0
  3
DC_ROTATED
100
AcDbAlignedDimension
 13
-579.7000749823998
 23
461.0273579350338
 33
0.0
 14
191.9999250176001
 24
461.0273579350338
 34
0.0
100
AcDbRotatedDimension
1001
ACAD
1000
DSTYLE
1002
{
1070
     7
1000
OPEN30
1070
     6
1000
OPEN30
1070
   274
1070
     4
1070
    41
1040
18.0000114440918
1070
    79
1070
     2
1070
   176
1070
     9
1070
   177
1070
     9
1070
   178
1070
     7
1070
    44
1040
6.0
1070
    42
1040
6.0
1070
   147
1040
6.0
1070
   173
1070
     1
1070
    77
1070
     3
1070
    73
1070
     0
1070
   172
1070
     1
1070
    74
1070
     0
1070
   283
1070
     0
1070
   340
1005
111
1070
   140
1040
24.0
1070
   284
1070
     8
1070
   288
1070
     1
1070
    78
1070
     8
1070
    90
1070
     1
1002
}
  0
DIMENSION
  5
41D
330
77E
100
AcDbEntity
  8
LAYER0016
  6
Continuous
100
AcDbDimension
  2
*D22
 10
510.7694902349916
 20
561.8773579350337
 30
0.0
 11
420.7694902349916
 21
561.8773579350337
 31
0.0
 70
   160
 71
     5
 42
-1.0
 73
     0
 74
     0
 75
     0
  3
DC_ROTATED
100
AcDbAlignedDimension
 13
330.7694902349917
 23
489.2882275002513
 33
0.0
 14
510.7694902349916
 24
489.2882275002513
 34
0.0
100
AcDbRotatedDimension
1001
ACAD
1000
DSTYLE
1002
{
1070
     7
1000
OPEN30
1070
     6
1000
OPEN30
1070
   274
1070
     4
1070
    41
1040
18.0000114440918
1070
    79
1070
     2
1070
   176
1070
     9
1070
   177
1070
     9
1070
   178
1070
     7
1070
    44
1040
6.0
1070
    42
1040
6.0
1070
   147
1040
6.0
1070
   173
1070
     1
1070
    77
1070
     3
1070
    73
1070
     0
1070
   172
1070
     1
1070
    74
1070
     0
1070
   283
1070
     0
1070
   340
1005
111
1070
   140
1040
24.0
1070
   284
1070
     8
1070
   288
1070
     1
1070
    78
1070
     8
1070
    90
1070
     1
1002
}
  0
DIMENSION
  5
41E
330
77E
100
AcDbEntity
  8
LAYER0016
  6
Continuous
100
AcDbDimension
  2
*D23
 10
521.6194902349916
 20
621.8773579350337
 30
0.0
 11
420.7694902349913
 21
621.8773579350337
 31
0.0
 70
   160
  1
(<>)
 71
     5
 42
-1.0
 73
     0
 74
     0
 75
     0
  3
DC_ROTATED
100
AcDbAlignedDimension
 13
319.9194902349914
 23
471.8773579350338
 33
0.0
 14
521.6194902349916
 24
471.8773579350338
 34
0.0
100
AcDbRotatedDimension
1001
ACAD
1000
DSTYLE
1002
{
1070
     7
1000
OPEN30
1070
     6
1000
OPEN30
1070
   274
1070
     4
1070
    41
1040
18.0000114440918
1070
    79
1070
     2
1070
   176
1070
     9
1070
   177
1070
     9
1070
   178
1070
     7
1070
    44
1040
6.0
1070
    42
1040
6.0
1070
   147
1040
6.0
1070
   173
1070
     1
1070
    77
1070
     3
1070
    73
1070
     0
1070
   172
1070
     1
1070
    74
1070
     0
1070
   283
1070
     0
1070
   340
1005
111
1070
   140
1040
24.0
1070
   284
1070
     8
1070
   288
1070
     1
1070
    78
1070
     8
1070
    90
1070
     1
1002
}
  0
DIMENSION
  5
41F
330
77E
100
AcDbEntity
  8
LAYER0016
  6
Continuous
100
AcDbDimension
  2
*D24
 10
-669.7000749823997
 20
-228.1226420649662
 30
0.0
 11
-669.7000749823997
 21
-298.1226420649662
 31
0.0
 70
   160
 71
     5
 42
-1.0
 73
     0
 74
     0
 75
     0
  3
DC_ROTATED
100
AcDbAlignedDimension
 13
-577.4000749823994
 23
-368.1226420649662
 33
0.0
 14
-607.7631184606607
 24
-228.1226420649662
 34
0.0
 50
90.0
100
AcDbRotatedDimension
1001
ACAD
1000
DSTYLE
1002
{
1070
     7
1000
OPEN30
1070
     6
1000
OPEN30
1070
   274
1070
     4
1070
    41
1040
18.0000114440918
1070
    79
1070
     2
1070
   176
1070
     9
1070
   177
1070
     9
1070
   178
1070
     7
1070
    44
1040
6.0
1070
    42
1040
6.0
1070
   147
1040
6.0
1070
   173
1070
     1
1070
    77
1070
     3
1070
    73
1070
     0
1070
   172
1070
     1
1070
    74
1070
     0
1070
   283
1070
     0
1070
   340
1005
111
1070
   140
1040
24.0
1070
   284
1070
     8
1070
   288
1070
     1
1070
    78
1070
     8
1070
    90
1070
     1
1002
}
  0
DIMENSION
  5
420
330
77E
100
AcDbEntity
  8
LAYER0016
  6
Continuous
100
AcDbDimension
  2
*D25
 10
-789.7000749823997
 20
391.8773579350338
 30
0.0
 11
-789.7000749823997
 21
11.87735793503384
 31
0.0
 70
   160
 71
     5
 42
-1.0
 73
     0
 74
     0
 75
     0
  3
DC_ROTATED
100
AcDbAlignedDimension
 13
-577.4000749823994
 23
-368.1226420649662
 33
0.0
 14
-607.7631184606607
 24
391.8773579350338
 34
0.0
 50
90.0
100
AcDbRotatedDimension
1001
ACAD
1000
DSTYLE
1002
{
1070
     7
1000
OPEN30
1070
     6
1000
OPEN30
1070
   274
1070
     4
1070
    41
1040
18.0000114440918
1070
    79
1070
     2
1070
   176
1070
     9
1070
   177
1070
     9
1070
   178
1070
     7
1070
    44
1040
6.0
1070
    42
1040
6.0
1070
   147
1040
6.0
1070
   173
1070
     1
1070
    77
1070
     3
1070
    73
1070
     0
1070
   172
1070
     1
1070
    74
1070
     0
1070
   283
1070
     0
1070
   340
1005
111
1070
   140
1040
24.0
1070
   284
1070
     8
1070
   288
1070
     1
1070
    78
1070
     8
1070
    90
1070
     1
1002
}
  0
DIMENSION
  5
423
330
77E
100
AcDbEntity
  8
LAYER0016
  6
Continuous
100
AcDbDimension
  2
*D28
 10
-849.7000749823998
 20
471.8773579350338
 30
0.0
 11
-849.7000749823998
 21
51.87735793503385
 31
0.0
 70
   160
 71
     5
 42
-1.0
 73
     0
 74
     0
 75
     0
  3
DC_ROTATED
100
AcDbAlignedDimension
 13
-577.4000749823994
 23
-368.1226420649662
 33
0.0
 14
-567.8500749823997
 24
471.8773579350337
 34
0.0
 50
90.0
100
AcDbRotatedDimension
1001
ACAD
1000
DSTYLE
1002
{
1070
     7
1000
OPEN30
1070
     6
1000
OPEN30
1070
   274
1070
     4
1070
    41
1040
18.0000114440918
1070
    79
1070
     2
1070
   176
1070
     9
1070
   177
1070
     9
1070
   178
1070
     7
1070
    44
1040
6.0
1070
    42
1040
6.0
1070
   147
1040
6.0
1070
   173
1070
     1
1070
    77
1070
     3
1070
    73
1070
     0
1070
   172
1070
     1
1070
    74
1070
     0
1070
   283
1070
     0
1070
   340
1005
111
1070
   140
1040
24.0
1070
   284
1070
     8
1070
   288
1070
     1
1070
    78
1070
     8
1070
    90
1070
     1
1002
}
  0
TEXT
  5
810
330
77E
100
AcDbEntity
  8
ZUWAKU
 62
    30
100
AcDbText
 10
787.846976801029
 20
-611.3158233909992
 30
0.0
 40
30.0
  1
社名
 41
0.7741935483870968
  7
DCSTYLE0
 72
     5
 11
835.8469768010291
 21
-611.3158233909992
 31
0.0
100
AcDbText
  0
TEXT
  5
813
330
77E
100
AcDbEntity
  8
LAYER0240
 62
     4
100
AcDbText
 10
891.5759793814432
 20
-609.0
 30
0.0
 40
24.0
  1
グローエジャパン(株)
 41
0.5423728813559352
  7
DCSTYLE0
 72
     5
 11
1045.175979381444
 21
-609.0
 31
0.0
100
AcDbText
  0
TEXT
  5
814
330
77E
100
AcDbEntity
  8
ZUWAKU
 62
    30
100
AcDbText
 10
787.846976801029
 20
-647.3158233909994
 30
0.0
 40
30.0
  1
品番
 41
0.75
  7
DCSTYLE0
 72
     5
 11
835.8469768010291
 21
-647.3158233909994
 31
0.0
100
AcDbText
  0
TEXT
  5
815
330
77E
100
AcDbEntity
  8
LAYER0240
 62
     4
100
AcDbText
 10
891.5759793814432
 20
-717.0
 30
0.0
 40
24.0
  1
JPK50700
 41
0.893023255813958
  7
DCSTYLE0
 72
     5
 11
1045.175979381444
 21
-717.0
 31
0.0
100
AcDbText
  0
VIEWPORT
  5
B0
330
77A
100
AcDbEntity
 67
     1
  8
0
100
AcDbViewport
 10
0.0
 20
0.0000000000002274
 30
0.0
 40
7740.0
 41
5526.000000000003
 68
     1
 69
     1
 12
0.0
 22
0.0000000000002274
 13
0.0
 23
0.0
 14
0.5
 24
0.5
 15
0.0
 25
0.0
 16
0.0
 26
0.0
 36
1.0
 17
0.0
 27
0.0
 37
0.0
 42
50.0
 43
0.0
 44
0.0
 45
5526.000000000003
 50
0.0
 51
0.0
 72
   100
 90
   819296
  1

281
     0
 71
     0
 74
     0
110
0.0
120
0.0
130
0.0
111
1.0
121
0.0
131
0.0
112
0.0
122
1.0
132
0.0
 79
     0
146
0.0
170
     0
 61
     5
292
     1
282
     1
141
0.0
142
0.0
 63
   250
421
  3355443
  0
ENDSEC
  0
SECTION
  2
OBJECTS
  0
DICTIONARY
  5
71F
330
0
100
AcDbDictionary
281
     1
  3
ACAD_COLOR
350
775
  3
ACAD_GROUP
350
720
  3
ACAD_LAYOUT
350
774
  3
ACAD_MATERIAL
350
723
  3
ACAD_MLEADERSTYLE
350
778
  3
ACAD_MLINESTYLE
350
771
  3
ACAD_PLOTSETTINGS
350
773
  3
ACAD_PLOTSTYLENAME
350
721
  3
ACAD_SCALELIST
350
755
  3
ACAD_TABLESTYLE
350
776
  3
ACAD_VISUALSTYLE
350
73C
  3
ACDB_RECOMPOSE_DATA
350
8BA
  3
AcDbVariableDictionary
350
874
  0
DICTIONARY
  5
820
330
7F0
100
AcDbDictionary
280
     1
281
     1
  0
DICTIONARY
  5
775
102
{ACAD_REACTORS
330
71F
102
}
330
71F
100
AcDbDictionary
281
     1
  0
DICTIONARY
  5
720
102
{ACAD_REACTORS
330
71F
102
}
330
71F
100
AcDbDictionary
281
     1
  0
DICTIONARY
  5
774
102
{ACAD_REACTORS
330
71F
102
}
330
71F
100
AcDbDictionary
281
     1
  3
Model
350
781
  3
レイアウト1
350
77D
  0
DICTIONARY
  5
723
102
{ACAD_REACTORS
330
71F
102
}
330
71F
100
AcDbDictionary
281
     1
  3
ByBlock
350
72C
  3
ByLayer
350
724
  3
Global
350
734
  0
DICTIONARY
  5
778
102
{ACAD_REACTORS
330
71F
102
}
330
71F
100
AcDbDictionary
281
     1
  3
Standard
350
779
  0
DICTIONARY
  5
771
102
{ACAD_REACTORS
330
71F
102
}
330
71F
100
AcDbDictionary
281
     1
  3
Standard
350
772
  0
DICTIONARY
  5
773
102
{ACAD_REACTORS
330
71F
102
}
330
71F
100
AcDbDictionary
281
     1
  0
ACDBDICTIONARYWDFLT
  5
721
102
{ACAD_REACTORS
330
71F
102
}
330
71F
100
AcDbDictionary
281
     1
  3
Normal
350
722
100
AcDbDictionaryWithDefault
340
722
  0
DICTIONARY
  5
755
102
{ACAD_REACTORS
330
71F
102
}
330
71F
100
AcDbDictionary
281
     1
  3
A0
350
756
  3
A1
350
757
  3
A2
350
758
  3
A3
350
759
  3
A4
350
75A
  3
A5
350
75B
  3
A6
350
75C
  3
A7
350
75D
  3
A8
350
75E
  3
A9
350
75F
  3
B0
350
760
  3
B1
350
761
  3
B2
350
762
  3
B3
350
763
  3
B4
350
764
  3
B5
350
765
  3
B6
350
766
  0
DICTIONARY
  5
776
102
{ACAD_REACTORS
330
71F
102
}
330
71F
100
AcDbDictionary
281
     1
  3
Standard
350
777
  0
DICTIONARY
  5
73C
102
{ACAD_REACTORS
330
71F
102
}
330
71F
100
AcDbDictionary
281
     1
  3
2dWireframe
350
742
  3
Basic
350
741
  3
Brighten
350
748
  3
ColorChange
350
74C
  3
Conceptual
350
745
  3
Dim
350
747
  3
EdgeColorOff
350
754
  3
Facepattern
350
74B
  3
Flat
350
73D
  3
FlatWithEdges
350
73E
  3
Gouraud
350
73F
  3
GouraudWithEdges
350
740
  3
Hidden
350
744
  3
JitterOff
350
752
  3
Linepattern
350
74A
  3
OverhangOff
350
753
  3
Realistic
350
746
  3
Shaded
350
751
  3
Shaded with edges
350
750
  3
Shades of Gray
350
74D
  3
Sketchy
350
74E
  3
Thicken
350
749
  3
Wireframe
350
743
  3
X-Ray
350
74F
  0
XRECORD
  5
8BA
102
{ACAD_REACTORS
330
71F
102
}
330
71F
100
AcDbXrecord
280
     1
 90
        1
330
777
  0
DICTIONARY
  5
874
102
{ACAD_REACTORS
330
71F
102
}
330
71F
100
AcDbDictionary
281
     1
  3
CANNOSCALE
350
878
  3
CMLEADERSTYLE
350
876
  3
CTABLESTYLE
350
875
  3
LAYEREVAL
350
87A
  3
LAYERNOTIFY
350
87B
  3
LIGHTINGUNITS
350
879
  3
MSLTSCALE
350
877
  3
XCLIPFRAME
350
8B8
  0
LAYOUT
  5
781
102
{ACAD_REACTORS
330
774
102
}
330
774
100
AcDbPlotSettings
  1

  2
EPSON LP-8900
  4

  6

 40
0.0
 41
0.0
 42
0.0
 43
0.0
 44
0.0
 45
0.0
 46
0.0
 47
0.0
 48
0.0
 49
0.0
140
0.0
141
0.0
142
1.0
143
1.0
 70
  1712
 72
     0
 73
     0
 74
     0
  7

 75
     0
147
1.0
 76
     0
 77
     2
 78
   300
148
0.0
149
0.0
100
AcDbLayout
  1
Model
 70
     1
 71
     0
 10
0.0
 20
0.0
 11
12.0
 21
9.0
 12
0.0
 22
0.0
 32
0.0
 14
0.0
 24
0.0
 34
0.0
 15
0.0
 25
0.0
 35
0.0
146
0.0
 13
0.0
 23
0.0
 33
0.0
 16
1.0
 26
0.0
 36
0.0
 17
0.0
 27
1.0
 37
0.0
 76
     0
330
77E
331
782
  0
LAYOUT
  5
77D
102
{ACAD_REACTORS
330
774
102
}
330
774
100
AcDbPlotSettings
  1

  2
EPSON LP-8900
  4

  6

 40
0.0
 41
0.0
 42
0.0
 43
0.0
 44
0.0
 45
0.0
 46
0.0
 47
0.0
 48
0.0
 49
0.0
140
0.0
141
0.0
142
1.0
143
1.0
 70
   688
 72
     0
 73
     0
 74
     5
  7

 75
    16
147
1.0
 76
     0
 77
     2
 78
   300
148
0.0
149
0.0
100
AcDbLayout
  1
レイアウト1
 70
     0
 71
     1
 10
0.0
 20
0.0
 11
12.0
 21
9.0
 12
0.0
 22
0.0
 32
0.0
 14
1.000000000000000E+20
 24
1.000000000000000E+20
 34
1.000000000000000E+20
 15
-1.000000000000000E+20
 25
-1.000000000000000E+20
 35
-1.000000000000000E+20
146
0.0
 13
0.0
 23
0.0
 33
0.0
 16
1.0
 26
0.0
 36
0.0
 17
0.0
 27
1.0
 37
0.0
 76
     0
330
77A
331
B0
  0
MATERIAL
  5
72C
102
{ACAD_XDICTIONARY
360
72D
102
}
102
{ACAD_REACTORS
330
723
102
}
330
723
100
AcDbMaterial
  1
ByBlock
 72
     0
 43
0.0208333333333333
 43
0.0
 43
0.0
 43
0.0
 43
0.0
 43
0.0208333333333333
 43
0.0
 43
0.0
 43
0.0
 43
0.0
 43
1.0
 43
0.0
 43
0.0
 43
0.0
 43
0.0
 43
1.0
 77
     0
 47
0.0208333333333333
 47
0.0
 47
0.0
 47
0.0
 47
0.0
 47
0.0208333333333333
 47
0.0
 47
0.0
 47
0.0
 47
0.0
 47
1.0
 47
0.0
 47
0.0
 47
0.0
 47
0.0
 47
1.0
171
     0
 49
0.0208333333333333
 49
0.0
 49
0.0
 49
0.0
 49
0.0
 49
0.0208333333333333
 49
0.0
 49
0.0
 49
0.0
 49
0.0
 49
1.0
 49
0.0
 49
0.0
 49
0.0
 49
0.0
 49
1.0
175
     0
142
0.0208333333333333
142
0.0
142
0.0
142
0.0
142
0.0
142
0.0208333333333333
142
0.0
142
0.0
142
0.0
142
0.0
142
1.0
142
0.0
142
0.0
142
0.0
142
0.0
142
1.0
179
     0
144
0.0208333333333333
144
0.0
144
0.0
144
0.0
144
0.0
144
0.0208333333333333
144
0.0
144
0.0
144
0.0
144
0.0
144
1.0
144
0.0
144
0.0
144
0.0
144
0.0
144
1.0
147
0.0208333333333333
147
0.0
147
0.0
147
0.0
147
0.0
147
0.0208333333333333
147
0.0
147
0.0
147
0.0
147
0.0
147
1.0
147
0.0
147
0.0
147
0.0
147
0.0
147
1.0
  0
MATERIAL
  5
724
102
{ACAD_XDICTIONARY
360
725
102
}
102
{ACAD_REACTORS
330
723
102
}
330
723
100
AcDbMaterial
  1
ByLayer
 72
     0
 43
0.0208333333333333
 43
0.0
 43
0.0
 43
0.0
 43
0.0
 43
0.0208333333333333
 43
0.0
 43
0.0
 43
0.0
 43
0.0
 43
1.0
 43
0.0
 43
0.0
 43
0.0
 43
0.0
 43
1.0
 77
     0
 47
0.0208333333333333
 47
0.0
 47
0.0
 47
0.0
 47
0.0
 47
0.0208333333333333
 47
0.0
 47
0.0
 47
0.0
 47
0.0
 47
1.0
 47
0.0
 47
0.0
 47
0.0
 47
0.0
 47
1.0
171
     0
 49
0.0208333333333333
 49
0.0
 49
0.0
 49
0.0
 49
0.0
 49
0.0208333333333333
 49
0.0
 49
0.0
 49
0.0
 49
0.0
 49
1.0
 49
0.0
 49
0.0
 49
0.0
 49
0.0
 49
1.0
175
     0
142
0.0208333333333333
142
0.0
142
0.0
142
0.0
142
0.0
142
0.0208333333333333
142
0.0
142
0.0
142
0.0
142
0.0
142
1.0
142
0.0
142
0.0
142
0.0
142
0.0
142
1.0
179
     0
144
0.0208333333333333
144
0.0
144
0.0
144
0.0
144
0.0
144
0.0208333333333333
144
0.0
144
0.0
144
0.0
144
0.0
144
1.0
144
0.0
144
0.0
144
0.0
144
0.0
144
1.0
147
0.0208333333333333
147
0.0
147
0.0
147
0.0
147
0.0
147
0.0208333333333333
147
0.0
147
0.0
147
0.0
147
0.0
147
1.0
147
0.0
147
0.0
147
0.0
147
0.0
147
1.0
  0
MATERIAL
  5
734
102
{ACAD_XDICTIONARY
360
735
102
}
102
{ACAD_REACTORS
330
723
102
}
330
723
100
AcDbMaterial
  1
Global
 72
     0
 43
0.0208333333333333
 43
0.0
 43
0.0
 43
0.0
 43
0.0
 43
0.0208333333333333
 43
0.0
 43
0.0
 43
0.0
 43
0.0
 43
1.0
 43
0.0
 43
0.0
 43
0.0
 43
0.0
 43
1.0
 77
     0
 47
0.0208333333333333
 47
0.0
 47
0.0
 47
0.0
 47
0.0
 47
0.0208333333333333
 47
0.0
 47
0.0
 47
0.0
 47
0.0
 47
1.0
 47
0.0
 47
0.0
 47
0.0
 47
0.0
 47
1.0
171
     0
 49
0.0208333333333333
 49
0.0
 49
0.0
 49
0.0
 49
0.0
 49
0.0208333333333333
 49
0.0
 49
0.0
 49
0.0
 49
0.0
 49
1.0
 49
0.0
 49
0.0
 49
0.0
 49
0.0
 49
1.0
175
     0
142
0.0208333333333333
142
0.0
142
0.0
142
0.0
142
0.0
142
0.0208333333333333
142
0.0
142
0.0
142
0.0
142
0.0
142
1.0
142
0.0
142
0.0
142
0.0
142
0.0
142
1.0
179
     0
144
0.0208333333333333
144
0.0
144
0.0
144
0.0
144
0.0
144
0.0208333333333333
144
0.0
144
0.0
144
0.0
144
0.0
144
1.0
144
0.0
144
0.0
144
0.0
144
0.0
144
1.0
147
0.0208333333333333
147
0.0
147
0.0
147
0.0
147
0.0
147
0.0208333333333333
147
0.0
147
0.0
147
0.0
147
0.0
147
1.0
147
0.0
147
0.0
147
0.0
147
0.0
147
1.0
  0
MLEADERSTYLE
  5
779
102
{ACAD_REACTORS
330
778
102
}
330
778
100
AcDbMLeaderStyle
170
     2
171
     1
172
     0
 90
        2
 40
0.0
 41
0.0
173
     1
 91
-1056964608
340
76D
 92
       -2
290
     1
 42
0.09
291
     1
 43
0.36
  3
Standard
 44
0.18
300

342
768
174
     1
178
     6
175
     1
176
     0
 93
-1056964608
 45
0.18
292
     0
297
     0
 46
0.18
 94
-1056964608
 47
1.0
 49
1.0
140
1.0
293
     1
141
0.0
294
     1
177
     0
142
1.0
295
     0
296
     0
143
0.125
1001
ACAD_MLEADERVER
1070
     2
  0
MLINESTYLE
  5
772
102
{ACAD_REACTORS
330
771
102
}
330
771
100
AcDbMlineStyle
  2
STANDARD
 70
     0
  3

 62
   256
 51
90.0
 52
90.0
 71
     2
 49
0.5
 62
   256
  6
BYLAYER
 49
-0.5
 62
   256
  6
BYLAYER
  0
ACDBPLACEHOLDER
  5
722
102
{ACAD_REACTORS
330
721
102
}
330
721
  0
SCALE
  5
756
102
{ACAD_REACTORS
330
755
102
}
330
755
100
AcDbScale
 70
     0
300
1:1
140
1.0
141
1.0
290
     1
  0
SCALE
  5
757
102
{ACAD_REACTORS
330
755
102
}
330
755
100
AcDbScale
 70
     0
300
1/128" = 1'-0"
140
0.0078125
141
12.0
290
     0
  0
SCALE
  5
758
102
{ACAD_REACTORS
330
755
102
}
330
755
100
AcDbScale
 70
     0
300
1/64" = 1'-0"
140
0.015625
141
12.0
290
     0
  0
SCALE
  5
759
102
{ACAD_REACTORS
330
755
102
}
330
755
100
AcDbScale
 70
     0
300
1/32" = 1'-0"
140
0.03125
141
12.0
290
     0
  0
SCALE
  5
75A
102
{ACAD_REACTORS
330
755
102
}
330
755
100
AcDbScale
 70
     0
300
1/16" = 1'-0"
140
0.0625
141
12.0
290
     0
  0
SCALE
  5
75B
102
{ACAD_REACTORS
330
755
102
}
330
755
100
AcDbScale
 70
     0
300
3/32" = 1'-0"
140
0.09375
141
12.0
290
     0
  0
SCALE
  5
75C
102
{ACAD_REACTORS
330
755
102
}
330
755
100
AcDbScale
 70
     0
300
1/8" = 1'-0"
140
0.125
141
12.0
290
     0
  0
SCALE
  5
75D
102
{ACAD_REACTORS
330
755
102
}
330
755
100
AcDbScale
 70
     0
300
3/16" = 1'-0"
140
0.1875
141
12.0
290
     0
  0
SCALE
  5
75E
102
{ACAD_REACTORS
330
755
102
}
330
755
100
AcDbScale
 70
     0
300
1/4" = 1'-0"
140
0.25
141
12.0
290
     0
  0
SCALE
  5
75F
102
{ACAD_REACTORS
330
755
102
}
330
755
100
AcDbScale
 70
     0
300
3/8" = 1'-0"
140
0.375
141
12.0
290
     0
  0
SCALE
  5
760
102
{ACAD_REACTORS
330
755
102
}
330
755
100
AcDbScale
 70
     0
300
1/2" = 1'-0"
140
0.5
141
12.0
290
     0
  0
SCALE
  5
761
102
{ACAD_REACTORS
330
755
102
}
330
755
100
AcDbScale
 70
     0
300
3/4" = 1'-0"
140
0.75
141
12.0
290
     0
  0
SCALE
  5
762
102
{ACAD_REACTORS
330
755
102
}
330
755
100
AcDbScale
 70
     0
300
1" = 1'-0"
140
1.0
141
12.0
290
     0
  0
SCALE
  5
763
102
{ACAD_REACTORS
330
755
102
}
330
755
100
AcDbScale
 70
     0
300
1-1/2" = 1'-0"
140
1.5
141
12.0
290
     0
  0
SCALE
  5
764
102
{ACAD_REACTORS
330
755
102
}
330
755
100
AcDbScale
 70
     0
300
3" = 1'-0"
140
3.0
141
12.0
290
     0
  0
SCALE
  5
765
102
{ACAD_REACTORS
330
755
102
}
330
755
100
AcDbScale
 70
     0
300
6" = 1'-0"
140
6.0
141
12.0
290
     0
  0
SCALE
  5
766
102
{ACAD_REACTORS
330
755
102
}
330
755
100
AcDbScale
 70
     0
300
1'-0" = 1'-0"
140
12.0
141
12.0
290
     0
  0
TABLESTYLE
  5
777
102
{ACAD_XDICTIONARY
360
87D
102
}
102
{ACAD_REACTORS
330
776
102
}
330
776
100
AcDbTableStyle
  3
Standard
 70
     0
 71
     0
 40
0.06
 41
0.06
280
     0
281
     0
  7
STANDARD
140
0.18
170
     2
 62
     0
 63
     7
283
     0
 90
      512
 91
        0
  1

274
    -2
284
     1
 64
     0
275
    -2
285
     1
 65
     0
276
    -2
286
     1
 66
     0
277
    -2
287
     1
 67
     0
278
    -2
288
     1
 68
     0
279
    -2
289
     1
 69
     0
  7
STANDARD
140
0.25
170
     5
 62
     0
 63
     7
283
     0
 90
      512
 91
        0
  1

274
    -2
284
     1
 64
     0
275
    -2
285
     1
 65
     0
276
    -2
286
     1
 66
     0
277
    -2
287
     1
 67
     0
278
    -2
288
     1
 68
     0
279
    -2
289
     1
 69
     0
  7
STANDARD
140
0.18
170
     5
 62
     0
 63
     7
283
     0
 90
      512
 91
        0
  1

274
    -2
284
     1
 64
     0
275
    -2
285
     1
 65
     0
276
    -2
286
     1
 66
     0
277
    -2
287
     1
 67
     0
278
    -2
288
     1
 68
     0
279
    -2
289
     1
 69
     0
  0
VISUALSTYLE
  5
742
102
{ACAD_XDICTIONARY
360
8C5
102
}
102
{ACAD_REACTORS
330
73C
102
}
330
73C
100
AcDbVisualStyle
  2

 70
     4
 71
     0
 72
     2
 73
     0
 90
        0
 40
-0.6
 41
-30.0
 62
     5
 63
     7
421
 16777215
 74
     1
 91
        4
 64
     7
 65
   257
 75
     1
175
     1
 42
1.0
 92
        0
 66
   257
 43
1.0
 76
     1
 77
     6
 78
     2
 67
     7
 79
     5
170
     0
171
     0
290
     0
174
     0
 93
        1
 44
0.0
173
     0
291
     0
 45
0.0
1001
ACAD
1000
AcDbSavedByObjectVersion
1070
     0
  0
VISUALSTYLE
  5
741
102
{ACAD_XDICTIONARY
360
8C3
102
}
102
{ACAD_REACTORS
330
73C
102
}
330
73C
100
AcDbVisualStyle
  2

 70
     7
 71
     1
 72
     0
 73
     1
 90
        0
 40
-0.6
 41
-30.0
 62
     5
 63
     7
421
 16777215
 74
     0
 91
        4
 64
     7
 65
   257
 75
     1
175
     1
 42
1.0
 92
        8
 66
     7
 43
1.0
 76
     1
 77
     6
 78
     2
 67
     7
 79
     5
170
     0
171
     0
290
     0
174
     0
 93
        1
 44
0.0
173
     0
291
     1
 45
0.0
1001
ACAD
1000
AcDbSavedByObjectVersion
1070
     0
  0
VISUALSTYLE
  5
748
102
{ACAD_XDICTIONARY
360
8D1
102
}
102
{ACAD_REACTORS
330
73C
102
}
330
73C
100
AcDbVisualStyle
  2

 70
    12
 71
     2
 72
     2
 73
     0
 90
        0
 40
-0.6
 41
-30.0
 62
     5
 63
     7
421
 16777215
 74
     1
 91
        4
 64
     7
 65
   257
 75
     1
175
     1
 42
1.0
 92
        8
 66
     7
 43
1.0
 76
     1
 77
     6
 78
     2
 67
     7
 79
     5
170
     0
171
     0
290
     0
174
     0
 93
        1
 44
50.0
173
     0
291
     1
 45
0.0
1001
ACAD
1000
AcDbSavedByObjectVersion
1070
     0
  0
VISUALSTYLE
  5
74C
102
{ACAD_XDICTIONARY
360
8D9
102
}
102
{ACAD_REACTORS
330
73C
102
}
330
73C
100
AcDbVisualStyle
  2

 70
    16
 71
     2
 72
     2
 73
     3
 90
        0
 40
-0.6
 41
-30.0
 62
     5
 63
     8
421
  8421504
 74
     1
 91
        4
 64
     7
 65
   257
 75
     1
175
     1
 42
1.0
 92
        8
 66
     8
424
  8421504
 43
1.0
 76
     1
 77
     6
 78
     2
 67
     7
 79
     5
170
     0
171
     0
290
     0
174
     0
 93
        1
 44
0.0
173
     0
291
     1
 45
0.0
1001
ACAD
1000
AcDbSavedByObjectVersion
1070
     0
  0
VISUALSTYLE
  5
745
102
{ACAD_XDICTIONARY
360
8CB
102
}
102
{ACAD_REACTORS
330
73C
102
}
330
73C
100
AcDbVisualStyle
  2

 70
     9
 71
     3
 72
     2
 73
     0
 90
        0
 40
-0.6
 41
-30.0
 62
     5
 63
     7
421
 16777215
 74
     2
 91
        2
 64
     7
 65
   257
 75
     1
175
     1
 42
179.0
 92
        8
 66
     7
 43
1.0
 76
     1
 77
     6
 78
     2
 67
     7
 79
     3
170
     0
171
     0
290
     0
174
     0
 93
        1
 44
0.0
173
     0
291
     0
 45
0.0
1001
ACAD
1000
AcDbSavedByObjectVersion
1070
     0
  0
VISUALSTYLE
  5
747
102
{ACAD_XDICTIONARY
360
8CF
102
}
102
{ACAD_REACTORS
330
73C
102
}
330
73C
100
AcDbVisualStyle
  2

 70
    11
 71
     2
 72
     2
 73
     0
 90
        0
 40
-0.6
 41
-30.0
 62
     5
 63
     7
421
 16777215
 74
     1
 91
        4
 64
     7
 65
   257
 75
     1
175
     1
 42
1.0
 92
        8
 66
     7
 43
1.0
 76
     1
 77
     6
 78
     2
 67
     7
 79
     5
170
     0
171
     0
290
     0
174
     0
 93
        1
 44
-50.0
173
     0
291
     1
 45
0.0
1001
ACAD
1000
AcDbSavedByObjectVersion
1070
     0
  0
VISUALSTYLE
  5
754
102
{ACAD_XDICTIONARY
360
8E9
102
}
102
{ACAD_REACTORS
330
73C
102
}
330
73C
100
AcDbVisualStyle
  2

 70
    22
 71
     2
 72
     2
 73
     0
 90
        0
 40
-0.6
 41
-30.0
 62
     5
 63
     7
421
 16777215
 74
     1
 91
        4
 64
     7
 65
   257
 75
     1
175
     1
 42
1.0
 92
        8
 66
     7
 43
1.0
 76
     1
 77
     6
 78
     2
 67
     7
 79
     5
170
     0
171
     0
290
     0
174
     0
 93
        1
 44
0.0
173
     0
291
     1
 45
0.0
1001
ACAD
1000
AcDbSavedByObjectVersion
1070
     0
  0
VISUALSTYLE
  5
74B
102
{ACAD_XDICTIONARY
360
8D7
102
}
102
{ACAD_REACTORS
330
73C
102
}
330
73C
100
AcDbVisualStyle
  2

 70
    15
 71
     2
 72
     2
 73
     0
 90
        0
 40
-0.6
 41
-30.0
 62
     5
 63
     7
421
 16777215
 74
     1
 91
        4
 64
     7
 65
   257
 75
     1
175
     1
 42
1.0
 92
        8
 66
     7
 43
1.0
 76
     1
 77
     6
 78
     2
 67
     7
 79
     5
170
     0
171
     0
290
     0
174
     0
 93
        1
 44
0.0
173
     0
291
     1
 45
0.0
1001
ACAD
1000
AcDbSavedByObjectVersion
1070
     0
  0
VISUALSTYLE
  5
73D
102
{ACAD_XDICTIONARY
360
8BB
102
}
102
{ACAD_REACTORS
330
73C
102
}
330
73C
100
AcDbVisualStyle
  2

 70
     0
 71
     2
 72
     1
 73
     1
 90
        2
 40
-0.6
 41
30.0
 62
     5
 63
     7
421
 16777215
 74
     0
 91
        0
 64
     7
 65
   257
 75
     1
175
     1
 42
1.0
 92
        8
 66
     7
 43
1.0
 76
     1
 77
     6
 78
     2
 67
     7
 79
     5
170
     0
171
     0
290
     0
174
     0
 93
       13
 44
0.0
173
     0
291
     1
 45
0.0
1001
ACAD
1000
AcDbSavedByObjectVersion
1070
     0
  0
VISUALSTYLE
  5
73E
102
{ACAD_XDICTIONARY
360
8BD
102
}
102
{ACAD_REACTORS
330
73C
102
}
330
73C
100
AcDbVisualStyle
  2

 70
     1
 71
     2
 72
     1
 73
     1
 90
        2
 40
-0.6
 41
30.0
 62
     5
 63
     7
421
 16777215
 74
     1
 91
        0
 64
     7
 65
   257
 75
     1
175
     1
 42
1.0
 92
        0
 66
   257
 43
1.0
 76
     1
 77
     6
 78
     2
 67
     7
 79
     5
170
     0
171
     0
290
     0
174
     0
 93
       13
 44
0.0
173
     0
291
     1
 45
0.0
1001
ACAD
1000
AcDbSavedByObjectVersion
1070
     0
  0
VISUALSTYLE
  5
73F
102
{ACAD_XDICTIONARY
360
8BF
102
}
102
{ACAD_REACTORS
330
73C
102
}
330
73C
100
AcDbVisualStyle
  2

 70
     2
 71
     2
 72
     2
 73
     1
 90
        2
 40
-0.6
 41
30.0
 62
     5
 63
     7
421
 16777215
 74
     0
 91
        0
 64
     7
 65
   257
 75
     1
175
     1
 42
1.0
 92
        0
 66
     7
 43
1.0
 76
     1
 77
     6
 78
     2
 67
     7
 79
     5
170
     0
171
     0
290
     0
174
     0
 93
       13
 44
0.0
173
     0
291
     1
 45
0.0
1001
ACAD
1000
AcDbSavedByObjectVersion
1070
     0
  0
VISUALSTYLE
  5
740
102
{ACAD_XDICTIONARY
360
8C1
102
}
102
{ACAD_REACTORS
330
73C
102
}
330
73C
100
AcDbVisualStyle
  2

 70
     3
 71
     2
 72
     2
 73
     1
 90
        2
 40
-0.6
 41
30.0
 62
     5
 63
     7
421
 16777215
 74
     1
 91
        0
 64
     7
 65
   257
 75
     1
175
     1
 42
1.0
 92
        0
 66
   257
 43
1.0
 76
     1
 77
     6
 78
     2
 67
     7
 79
     5
170
     0
171
     0
290
     0
174
     0
 93
       13
 44
0.0
173
     0
291
     1
 45
0.0
1001
ACAD
1000
AcDbSavedByObjectVersion
1070
     0
  0
VISUALSTYLE
  5
744
102
{ACAD_XDICTIONARY
360
8C9
102
}
102
{ACAD_REACTORS
330
73C
102
}
330
73C
100
AcDbVisualStyle
  2

 70
     6
 71
     1
 72
     2
 73
     2
 90
        0
 40
-0.6
 41
-30.0
 62
     5
 63
     7
421
 16777215
 74
     2
 91
        2
 64
     7
 65
   257
 75
     2
175
     1
 42
40.0
 92
        0
 66
   257
 43
1.0
 76
     1
 77
     6
 78
     2
 67
     7
 79
     3
170
     0
171
     0
290
     0
174
     0
 93
        1
 44
0.0
173
     0
291
     0
 45
0.0
1001
ACAD
1000
AcDbSavedByObjectVersion
1070
     0
  0
VISUALSTYLE
  5
752
102
{ACAD_XDICTIONARY
360
8E5
102
}
102
{ACAD_REACTORS
330
73C
102
}
330
73C
100
AcDbVisualStyle
  2

 70
    20
 71
     2
 72
     2
 73
     0
 90
        0
 40
-0.6
 41
-30.0
 62
     5
 63
     7
421
 16777215
 74
     1
 91
        4
 64
     7
 65
   257
 75
     1
175
     1
 42
1.0
 92
       10
 66
     7
 43
1.0
 76
     1
 77
     6
 78
     2
 67
     7
 79
     5
170
     0
171
     0
290
     0
174
     0
 93
        1
 44
0.0
173
     0
291
     1
 45
0.0
1001
ACAD
1000
AcDbSavedByObjectVersion
1070
     0
  0
VISUALSTYLE
  5
74A
102
{ACAD_XDICTIONARY
360
8D5
102
}
102
{ACAD_REACTORS
330
73C
102
}
330
73C
100
AcDbVisualStyle
  2

 70
    14
 71
     2
 72
     2
 73
     0
 90
        0
 40
-0.6
 41
-30.0
 62
     5
 63
     7
421
 16777215
 74
     1
 91
        4
 64
     7
 65
   257
 75
     7
175
     7
 42
1.0
 92
        8
 66
     7
 43
1.0
 76
     1
 77
     6
 78
     2
 67
     7
 79
     5
170
     0
171
     0
290
     0
174
     0
 93
        1
 44
0.0
173
     0
291
     1
 45
0.0
1001
ACAD
1000
AcDbSavedByObjectVersion
1070
     0
  0
VISUALSTYLE
  5
753
102
{ACAD_XDICTIONARY
360
8E7
102
}
102
{ACAD_REACTORS
330
73C
102
}
330
73C
100
AcDbVisualStyle
  2

 70
    21
 71
     2
 72
     2
 73
     0
 90
        0
 40
-0.6
 41
-30.0
 62
     5
 63
     7
421
 16777215
 74
     1
 91
        4
 64
     7
 65
   257
 75
     1
175
     1
 42
1.0
 92
        9
 66
     7
 43
1.0
 76
     1
 77
     6
 78
     2
 67
     7
 79
     5
170
     0
171
     0
290
     0
174
     0
 93
        1
 44
0.0
173
     0
291
     1
 45
0.0
1001
ACAD
1000
AcDbSavedByObjectVersion
1070
     0
  0
VISUALSTYLE
  5
746
102
{ACAD_XDICTIONARY
360
8CD
102
}
102
{ACAD_REACTORS
330
73C
102
}
330
73C
100
AcDbVisualStyle
  2

 70
     8
 71
     2
 72
     3
 73
     0
 90
        2
 40
-0.6
 41
30.0
 62
     5
 63
     7
421
 16777215
 74
     0
 91
        0
 64
     7
 65
   257
 75
     1
175
     1
 42
1.0
 92
        8
 66
   257
 43
1.0
 76
     1
 77
     6
 78
     2
 67
     7
 79
     3
170
     0
171
     0
290
     0
174
     0
 93
       13
 44
0.0
173
     0
291
     0
 45
0.0
1001
ACAD
1000
AcDbSavedByObjectVersion
1070
     0
  0
VISUALSTYLE
  5
751
102
{ACAD_XDICTIONARY
360
8E3
102
}
102
{ACAD_REACTORS
330
73C
102
}
330
73C
100
AcDbVisualStyle
  2

 70
    27
 71
     2
 72
     2
 73
     1
 90
        2
 40
-0.6
 41
30.0
 62
     5
 63
     7
421
 16777215
 74
     0
 91
        4
 64
     7
 65
   257
 75
     1
175
     1
 42
1.0
 92
        8
 66
   257
 43
1.0
 76
     1
 77
     6
 78
     2
 67
     8
425
  7895160
 79
     3
170
     0
171
     0
290
     0
174
     0
 93
        5
 44
0.0
173
     0
291
     0
 45
0.0
1001
ACAD
1000
AcDbSavedByObjectVersion
1070
     0
  0
VISUALSTYLE
  5
750
102
{ACAD_XDICTIONARY
360
8E1
102
}
102
{ACAD_REACTORS
330
73C
102
}
330
73C
100
AcDbVisualStyle
  2

 70
    26
 71
     2
 72
     2
 73
     1
 90
        2
 40
-0.6
 41
30.0
 62
     5
 63
     7
421
 16777215
 74
     1
 91
       10
 64
     7
 65
   257
 75
     2
175
     1
 42
1.0
 92
        8
 66
   257
 43
1.0
 76
     1
 77
     6
 78
     2
 67
     7
 79
     3
170
     0
171
     0
290
     0
174
     0
 93
        5
 44
0.0
173
     0
291
     0
 45
0.0
1001
ACAD
1000
AcDbSavedByObjectVersion
1070
     0
  0
VISUALSTYLE
  5
74D
102
{ACAD_XDICTIONARY
360
8DB
102
}
102
{ACAD_REACTORS
330
73C
102
}
330
73C
100
AcDbVisualStyle
  2

 70
    23
 71
     2
 72
     2
 73
     3
 90
        0
 40
-0.6
 41
-30.0
 62
     5
 63
     7
421
 16777215
 74
     2
 91
        2
 64
     7
 65
     7
 75
     1
175
     1
 42
40.0
 92
        8
 66
     7
 43
1.0
 76
     1
 77
     6
 78
     2
 67
     7
 79
     3
170
     0
171
     0
290
     0
174
     0
 93
        1
 44
0.0
173
     0
291
     0
 45
0.0
1001
ACAD
1000
AcDbSavedByObjectVersion
1070
     0
  0
VISUALSTYLE
  5
74E
102
{ACAD_XDICTIONARY
360
8DD
102
}
102
{ACAD_REACTORS
330
73C
102
}
330
73C
100
AcDbVisualStyle
  2

 70
    24
 71
     1
 72
     2
 73
     2
 90
        0
 40
-0.6
 41
-30.0
 62
     5
 63
     7
421
 16777215
 74
     2
 91
        2
 64
     7
 65
     7
 75
     1
175
     1
 42
40.0
 92
       11
 66
     7
 43
1.0
 76
     1
 77
     6
 78
     2
 67
     7
 79
     6
170
     0
171
     0
290
     0
174
     0
 93
        1
 44
0.0
173
     0
291
     0
 45
0.0
1001
ACAD
1000
AcDbSavedByObjectVersion
1070
     0
  0
VISUALSTYLE
  5
749
102
{ACAD_XDICTIONARY
360
8D3
102
}
102
{ACAD_REACTORS
330
73C
102
}
330
73C
100
AcDbVisualStyle
  2

 70
    13
 71
     2
 72
     2
 73
     0
 90
        0
 40
-0.6
 41
-30.0
 62
     5
 63
     7
421
 16777215
 74
     1
 91
        4
 64
     7
 65
   257
 75
     1
175
     1
 42
1.0
 92
       12
 66
     7
 43
1.0
 76
     1
 77
     6
 78
     2
 67
     7
 79
     5
170
     0
171
     0
290
     0
174
     0
 93
        1
 44
0.0
173
     0
291
     1
 45
0.0
1001
ACAD
1000
AcDbSavedByObjectVersion
1070
     0
  0
VISUALSTYLE
  5
743
102
{ACAD_XDICTIONARY
360
8C7
102
}
102
{ACAD_REACTORS
330
73C
102
}
330
73C
100
AcDbVisualStyle
  2

 70
     5
 71
     0
 72
     2
 73
     0
 90
        0
 40
-0.6
 41
-30.0
 62
     5
 63
     7
421
 16777215
 74
     1
 91
        4
 64
     7
 65
   257
 75
     1
175
     1
 42
1.0
 92
        0
 66
   257
 43
1.0
 76
     1
 77
     6
 78
     2
 67
     7
 79
     3
170
     0
171
     0
290
     0
174
     0
 93
        1
 44
0.0
173
     0
291
     0
 45
0.0
1001
ACAD
1000
AcDbSavedByObjectVersion
1070
     0
  0
VISUALSTYLE
  5
74F
102
{ACAD_XDICTIONARY
360
8DF
102
}
102
{ACAD_REACTORS
330
73C
102
}
330
73C
100
AcDbVisualStyle
  2

 70
    25
 71
     2
 72
     2
 73
     1
 90
        1
 40
0.5
 41
-30.0
 62
     5
 63
     7
421
 16777215
 74
     1
 91
        0
 64
     7
 65
   257
 75
     1
175
     1
 42
1.0
 92
        8
 66
     7
 43
1.0
 76
     1
 77
     6
 78
     2
 67
     7
 79
     3
170
     0
171
     0
290
     0
174
     0
 93
       13
 44
0.0
173
     0
291
     0
 45
0.0
1001
ACAD
1000
AcDbSavedByObjectVersion
1070
     0
  0
DICTIONARYVAR
  5
878
102
{ACAD_REACTORS
330
874
102
}
330
874
100
DictionaryVariables
280
     0
  1
1:1
  0
DICTIONARYVAR
  5
876
102
{ACAD_REACTORS
330
874
102
}
330
874
100
DictionaryVariables
280
     0
  1
STANDARD
  0
DICTIONARYVAR
  5
875
102
{ACAD_REACTORS
330
874
102
}
330
874
100
DictionaryVariables
280
     0
  1
STANDARD
  0
DICTIONARYVAR
  5
87A
102
{ACAD_REACTORS
330
874
102
}
330
874
100
DictionaryVariables
280
     0
  1
1
  0
DICTIONARYVAR
  5
87B
102
{ACAD_REACTORS
330
874
102
}
330
874
100
DictionaryVariables
280
     0
  1
15
  0
DICTIONARYVAR
  5
879
102
{ACAD_REACTORS
330
874
102
}
330
874
100
DictionaryVariables
280
     0
  1
0
  0
DICTIONARYVAR
  5
877
102
{ACAD_REACTORS
330
874
102
}
330
874
100
DictionaryVariables
280
     0
  1
0
  0
DICTIONARYVAR
  5
8B8
102
{ACAD_REACTORS
330
874
102
}
330
874
100
DictionaryVariables
280
     0
  1
2
  0
DICTIONARY
  5
72D
330
72C
100
AcDbDictionary
280
     1
281
     1
  3
BUMPTILE
360
72F
  3
DIFFUSETILE
360
72E
  3
OPACITYTILE
360
732
  3
REFLECTIONTILE
360
731
  3
REFRACTIONTILE
360
733
  3
SPECULARTILE
360
730
  0
DICTIONARY
  5
725
330
724
100
AcDbDictionary
280
     1
281
     1
  3
BUMPTILE
360
727
  3
DIFFUSETILE
360
726
  3
OPACITYTILE
360
72A
  3
REFLECTIONTILE
360
729
  3
REFRACTIONTILE
360
72B
  3
SPECULARTILE
360
728
  0
DICTIONARY
  5
735
330
734
100
AcDbDictionary
280
     1
281
     1
  3
BUMPTILE
360
737
  3
DIFFUSETILE
360
736
  3
OPACITYTILE
360
73A
  3
REFLECTIONTILE
360
739
  3
REFRACTIONTILE
360
73B
  3
SPECULARTILE
360
738
  0
DICTIONARY
  5
87D
330
777
100
AcDbDictionary
280
     1
281
     1
  3
ACAD_ROUNDTRIP_2008_TABLESTYLE_CELLSTYLEMAP
360
8B9
  0
DICTIONARY
  5
8C5
330
742
100
AcDbDictionary
280
     1
281
     1
  3
ACAD_XREC_ROUNDTRIP
360
8C6
  0
DICTIONARY
  5
8C3
330
741
100
AcDbDictionary
280
     1
281
     1
  3
ACAD_XREC_ROUNDTRIP
360
8C4
  0
DICTIONARY
  5
8D1
330
748
100
AcDbDictionary
280
     1
281
     1
  3
ACAD_XREC_ROUNDTRIP
360
8D2
  0
DICTIONARY
  5
8D9
330
74C
100
AcDbDictionary
280
     1
281
     1
  3
ACAD_XREC_ROUNDTRIP
360
8DA
  0
DICTIONARY
  5
8CB
330
745
100
AcDbDictionary
280
     1
281
     1
  3
ACAD_XREC_ROUNDTRIP
360
8CC
  0
DICTIONARY
  5
8CF
330
747
100
AcDbDictionary
280
     1
281
     1
  3
ACAD_XREC_ROUNDTRIP
360
8D0
  0
DICTIONARY
  5
8E9
330
754
100
AcDbDictionary
280
     1
281
     1
  3
ACAD_XREC_ROUNDTRIP
360
8EA
  0
DICTIONARY
  5
8D7
330
74B
100
AcDbDictionary
280
     1
281
     1
  3
ACAD_XREC_ROUNDTRIP
360
8D8
  0
DICTIONARY
  5
8BB
330
73D
100
AcDbDictionary
280
     1
281
     1
  3
ACAD_XREC_ROUNDTRIP
360
8BC
  0
DICTIONARY
  5
8BD
330
73E
100
AcDbDictionary
280
     1
281
     1
  3
ACAD_XREC_ROUNDTRIP
360
8BE
  0
DICTIONARY
  5
8BF
330
73F
100
AcDbDictionary
280
     1
281
     1
  3
ACAD_XREC_ROUNDTRIP
360
8C0
  0
DICTIONARY
  5
8C1
330
740
100
AcDbDictionary
280
     1
281
     1
  3
ACAD_XREC_ROUNDTRIP
360
8C2
  0
DICTIONARY
  5
8C9
330
744
100
AcDbDictionary
280
     1
281
     1
  3
ACAD_XREC_ROUNDTRIP
360
8CA
  0
DICTIONARY
  5
8E5
330
752
100
AcDbDictionary
280
     1
281
     1
  3
ACAD_XREC_ROUNDTRIP
360
8E6
  0
DICTIONARY
  5
8D5
330
74A
100
AcDbDictionary
280
     1
281
     1
  3
ACAD_XREC_ROUNDTRIP
360
8D6
  0
DICTIONARY
  5
8E7
330
753
100
AcDbDictionary
280
     1
281
     1
  3
ACAD_XREC_ROUNDTRIP
360
8E8
  0
DICTIONARY
  5
8CD
330
746
100
AcDbDictionary
280
     1
281
     1
  3
ACAD_XREC_ROUNDTRIP
360
8CE
  0
DICTIONARY
  5
8E3
330
751
100
AcDbDictionary
280
     1
281
     1
  3
ACAD_XREC_ROUNDTRIP
360
8E4
  0
DICTIONARY
  5
8E1
330
750
100
AcDbDictionary
280
     1
281
     1
  3
ACAD_XREC_ROUNDTRIP
360
8E2
  0
DICTIONARY
  5
8DB
330
74D
100
AcDbDictionary
280
     1
281
     1
  3
ACAD_XREC_ROUNDTRIP
360
8DC
  0
DICTIONARY
  5
8DD
330
74E
100
AcDbDictionary
280
     1
281
     1
  3
ACAD_XREC_ROUNDTRIP
360
8DE
  0
DICTIONARY
  5
8D3
330
749
100
AcDbDictionary
280
     1
281
     1
  3
ACAD_XREC_ROUNDTRIP
360
8D4
  0
DICTIONARY
  5
8C7
330
743
100
AcDbDictionary
280
     1
281
     1
  3
ACAD_XREC_ROUNDTRIP
360
8C8
  0
DICTIONARY
  5
8DF
330
74F
100
AcDbDictionary
280
     1
281
     1
  3
ACAD_XREC_ROUNDTRIP
360
8E0
  0
XRECORD
  5
72F
102
{ACAD_REACTORS
330
72D
102
}
330
72D
100
AcDbXrecord
280
     1
270
     1
271
     1
  0
XRECORD
  5
72E
102
{ACAD_REACTORS
330
72D
102
}
330
72D
100
AcDbXrecord
280
     1
270
     1
271
     1
  0
XRECORD
  5
732
102
{ACAD_REACTORS
330
72D
102
}
330
72D
100
AcDbXrecord
280
     1
270
     1
271
     1
  0
XRECORD
  5
731
102
{ACAD_REACTORS
330
72D
102
}
330
72D
100
AcDbXrecord
280
     1
270
     1
271
     1
  0
XRECORD
  5
733
102
{ACAD_REACTORS
330
72D
102
}
330
72D
100
AcDbXrecord
280
     1
270
     1
271
     1
  0
XRECORD
  5
730
102
{ACAD_REACTORS
330
72D
102
}
330
72D
100
AcDbXrecord
280
     1
270
     1
271
     1
  0
XRECORD
  5
727
102
{ACAD_REACTORS
330
725
102
}
330
725
100
AcDbXrecord
280
     1
270
     1
271
     1
  0
XRECORD
  5
726
102
{ACAD_REACTORS
330
725
102
}
330
725
100
AcDbXrecord
280
     1
270
     1
271
     1
  0
XRECORD
  5
72A
102
{ACAD_REACTORS
330
725
102
}
330
725
100
AcDbXrecord
280
     1
270
     1
271
     1
  0
XRECORD
  5
729
102
{ACAD_REACTORS
330
725
102
}
330
725
100
AcDbXrecord
280
     1
270
     1
271
     1
  0
XRECORD
  5
72B
102
{ACAD_REACTORS
330
725
102
}
330
725
100
AcDbXrecord
280
     1
270
     1
271
     1
  0
XRECORD
  5
728
102
{ACAD_REACTORS
330
725
102
}
330
725
100
AcDbXrecord
280
     1
270
     1
271
     1
  0
XRECORD
  5
737
102
{ACAD_REACTORS
330
735
102
}
330
735
100
AcDbXrecord
280
     1
270
     1
271
     1
  0
XRECORD
  5
736
102
{ACAD_REACTORS
330
735
102
}
330
735
100
AcDbXrecord
280
     1
270
     1
271
     1
  0
XRECORD
  5
73A
102
{ACAD_REACTORS
330
735
102
}
330
735
100
AcDbXrecord
280
     1
270
     1
271
     1
  0
XRECORD
  5
739
102
{ACAD_REACTORS
330
735
102
}
330
735
100
AcDbXrecord
280
     1
270
     1
271
     1
  0
XRECORD
  5
73B
102
{ACAD_REACTORS
330
735
102
}
330
735
100
AcDbXrecord
280
     1
270
     1
271
     1
  0
XRECORD
  5
738
102
{ACAD_REACTORS
330
735
102
}
330
735
100
AcDbXrecord
280
     1
270
     1
271
     1
  0
CELLSTYLEMAP
  5
8B9
102
{ACAD_REACTORS
330
87D
102
}
330
87D
100
AcDbCellStyleMap
 90
        3
300
CELLSTYLE
  1
TABLEFORMAT_BEGIN
 90
        5
170
     1
 91
        0
 92
    32768
 62
   257
 93
        1
300
CONTENTFORMAT
  1
CONTENTFORMAT_BEGIN
 90
        0
 91
        0
 92
      512
 93
        0
300

 40
0.0
140
1.0
 94
        5
 62
     0
340
768
144
0.25
309
CONTENTFORMAT_END
171
     1
301
MARGIN
  1
CELLMARGIN_BEGIN
 40
0.06
 40
0.06
 40
0.06
 40
0.06
 40
0.18
 40
0.18
309
CELLMARGIN_END
 94
        6
 95
        1
302
GRIDFORMAT
  1
GRIDFORMAT_BEGIN
 90
        0
 91
        1
 62
     0
 92
       -2
340
0
 93
        0
 40
0.045
309
GRIDFORMAT_END
 95
        2
302
GRIDFORMAT
  1
GRIDFORMAT_BEGIN
 90
        0
 91
        1
 62
     0
 92
       -2
340
0
 93
        0
 40
0.045
309
GRIDFORMAT_END
 95
        4
302
GRIDFORMAT
  1
GRIDFORMAT_BEGIN
 90
        0
 91
        1
 62
     0
 92
       -2
340
0
 93
        0
 40
0.045
309
GRIDFORMAT_END
 95
        8
302
GRIDFORMAT
  1
GRIDFORMAT_BEGIN
 90
        0
 91
        1
 62
     0
 92
       -2
340
0
 93
        0
 40
0.045
309
GRIDFORMAT_END
 95
       16
302
GRIDFORMAT
  1
GRIDFORMAT_BEGIN
 90
        0
 91
        1
 62
     0
 92
       -2
340
0
 93
        0
 40
0.045
309
GRIDFORMAT_END
 95
       32
302
GRIDFORMAT
  1
GRIDFORMAT_BEGIN
 90
        0
 91
        1
 62
     0
 92
       -2
340
0
 93
        0
 40
0.045
309
GRIDFORMAT_END
309
TABLEFORMAT_END
  1
CELLSTYLE_BEGIN
 90
        1
 91
        1
300
_TITLE
309
CELLSTYLE_END
300
CELLSTYLE
  1
TABLEFORMAT_BEGIN
 90
        5
170
     1
 91
        0
 92
        0
 62
   257
 93
        1
300
CONTENTFORMAT
  1
CONTENTFORMAT_BEGIN
 90
        0
 91
        0
 92
      512
 93
        0
300

 40
0.0
140
1.0
 94
        5
 62
     0
340
768
144
0.18
309
CONTENTFORMAT_END
171
     1
301
MARGIN
  1
CELLMARGIN_BEGIN
 40
0.06
 40
0.06
 40
0.06
 40
0.06
 40
0.18
 40
0.18
309
CELLMARGIN_END
 94
        6
 95
        1
302
GRIDFORMAT
  1
GRIDFORMAT_BEGIN
 90
        0
 91
        1
 62
     0
 92
       -2
340
0
 93
        0
 40
0.045
309
GRIDFORMAT_END
 95
        2
302
GRIDFORMAT
  1
GRIDFORMAT_BEGIN
 90
        0
 91
        1
 62
     0
 92
       -2
340
0
 93
        0
 40
0.045
309
GRIDFORMAT_END
 95
        4
302
GRIDFORMAT
  1
GRIDFORMAT_BEGIN
 90
        0
 91
        1
 62
     0
 92
       -2
340
0
 93
        0
 40
0.045
309
GRIDFORMAT_END
 95
        8
302
GRIDFORMAT
  1
GRIDFORMAT_BEGIN
 90
        0
 91
        1
 62
     0
 92
       -2
340
0
 93
        0
 40
0.045
309
GRIDFORMAT_END
 95
       16
302
GRIDFORMAT
  1
GRIDFORMAT_BEGIN
 90
        0
 91
        1
 62
     0
 92
       -2
340
0
 93
        0
 40
0.045
309
GRIDFORMAT_END
 95
       32
302
GRIDFORMAT
  1
GRIDFORMAT_BEGIN
 90
        0
 91
        1
 62
     0
 92
       -2
340
0
 93
        0
 40
0.045
309
GRIDFORMAT_END
309
TABLEFORMAT_END
  1
CELLSTYLE_BEGIN
 90
        2
 91
        1
300
_HEADER
309
CELLSTYLE_END
300
CELLSTYLE
  1
TABLEFORMAT_BEGIN
 90
        5
170
     1
 91
        0
 92
        0
 62
   257
 93
        1
300
CONTENTFORMAT
  1
CONTENTFORMAT_BEGIN
 90
        0
 91
        0
 92
      512
 93
        0
300

 40
0.0
140
1.0
 94
        2
 62
     0
340
768
144
0.18
309
CONTENTFORMAT_END
171
     1
301
MARGIN
  1
CELLMARGIN_BEGIN
 40
0.06
 40
0.06
 40
0.06
 40
0.06
 40
0.18
 40
0.18
309
CELLMARGIN_END
 94
        6
 95
        1
302
GRIDFORMAT
  1
GRIDFORMAT_BEGIN
 90
        0
 91
        1
 62
     0
 92
       -2
340
0
 93
        0
 40
0.045
309
GRIDFORMAT_END
 95
        2
302
GRIDFORMAT
  1
GRIDFORMAT_BEGIN
 90
        0
 91
        1
 62
     0
 92
       -2
340
0
 93
        0
 40
0.045
309
GRIDFORMAT_END
 95
        4
302
GRIDFORMAT
  1
GRIDFORMAT_BEGIN
 90
        0
 91
        1
 62
     0
 92
       -2
340
0
 93
        0
 40
0.045
309
GRIDFORMAT_END
 95
        8
302
GRIDFORMAT
  1
GRIDFORMAT_BEGIN
 90
        0
 91
        1
 62
     0
 92
       -2
340
0
 93
        0
 40
0.045
309
GRIDFORMAT_END
 95
       16
302
GRIDFORMAT
  1
GRIDFORMAT_BEGIN
 90
        0
 91
        1
 62
     0
 92
       -2
340
0
 93
        0
 40
0.045
309
GRIDFORMAT_END
 95
       32
302
GRIDFORMAT
  1
GRIDFORMAT_BEGIN
 90
        0
 91
        1
 62
     0
 92
       -2
340
0
 93
        0
 40
0.045
309
GRIDFORMAT_END
309
TABLEFORMAT_END
  1
CELLSTYLE_BEGIN
 90
        3
 91
        2
300
_DATA
309
CELLSTYLE_END
  0
XRECORD
  5
8C6
102
{ACAD_REACTORS
330
8C5
102
}
330
8C5
100
AcDbXrecord
280
     1
102
RTVSPropertyOp0
 70
     1
102
RTVSPropertyOp1
 70
     1
102
RTVSPropertyOp2
 70
     1
102
RTVSPropertyOp3
 70
     1
102
RTVSPropertyOp4
 70
     1
102
RTVSPropertyOp5
 70
     1
102
RTVSPropertyOp6
 70
     1
102
RTVSPropertyOp7
 70
     1
102
RTVSPropertyOp8
 70
     1
102
RTVSPropertyOp9
 70
     1
102
RTVSPropertyOp10
 70
     1
102
RTVSPropertyOp11
 70
     1
102
RTVSPropertyOp12
 70
     1
102
RTVSPropertyOp13
 70
     1
102
RTVSPropertyOp14
 70
     1
102
RTVSPropertyOp15
 70
     1
102
RTVSPropertyOp16
 70
     1
102
RTVSPropertyOp17
 70
     1
102
RTVSPropertyOp18
 70
     1
102
RTVSPropertyOp19
 70
     1
102
RTVSPropertyOp20
 70
     1
102
RTVSPropertyOp21
 70
     1
102
RTVSPropertyOp22
 70
     1
102
RTVSPropertyOp23
 70
     1
102
RTVSPropertyOp24
 70
     1
102
RTVSPropertyOp25
 70
     1
102
RTVSPropertyOp26
 70
     1
102
RTVSPropertyOp27
 70
     1
102
RTVSPropertyOp28
 70
     1
102
RTVSPropertyOp29
 70
     1
102
RTVSPropertyOp30
 70
     1
102
RTVSPropertyOp31
 70
     1
102
RTVSPropertyOp32
 70
     1
  0
XRECORD
  5
8C4
102
{ACAD_REACTORS
330
8C3
102
}
330
8C3
100
AcDbXrecord
280
     1
102
RTVSPropertyOp0
 70
     1
102
RTVSPropertyOp1
 70
     1
102
RTVSPropertyOp2
 70
     1
102
RTVSPropertyOp3
 70
     1
102
RTVSPropertyOp4
 70
     1
102
RTVSPropertyOp5
 70
     1
102
RTVSPropertyOp6
 70
     1
102
RTVSPropertyOp7
 70
     1
102
RTVSPropertyOp8
 70
     1
102
RTVSPropertyOp9
 70
     1
102
RTVSPropertyOp10
 70
     1
102
RTVSPropertyOp11
 70
     1
102
RTVSPropertyOp12
 70
     1
102
RTVSPropertyOp13
 70
     1
102
RTVSPropertyOp14
 70
     1
102
RTVSPropertyOp15
 70
     1
102
RTVSPropertyOp16
 70
     1
102
RTVSPropertyOp17
 70
     1
102
RTVSPropertyOp18
 70
     1
102
RTVSPropertyOp19
 70
     1
102
RTVSPropertyOp20
 70
     1
102
RTVSPropertyOp21
 70
     1
102
RTVSPropertyOp22
 70
     1
102
RTVSPropertyOp23
 70
     1
102
RTVSPropertyOp24
 70
     1
102
RTVSPropertyOp25
 70
     1
102
RTVSPropertyOp26
 70
     1
102
RTVSPropertyOp27
 70
     1
102
RTVSPropertyOp28
 70
     1
102
RTVSPropertyOp29
 70
     1
102
RTVSPropertyOp30
 70
     1
102
RTVSPropertyOp31
 70
     1
102
RTVSPropertyOp32
 70
     1
  0
XRECORD
  5
8D2
102
{ACAD_REACTORS
330
8D1
102
}
330
8D1
100
AcDbXrecord
280
     1
102
RTVSPropertyOp0
 70
     1
102
RTVSPropertyOp1
 70
     1
102
RTVSPropertyOp2
 70
     1
102
RTVSPropertyOp3
 70
     1
102
RTVSPropertyOp4
 70
     1
102
RTVSPropertyOp5
 70
     1
102
RTVSPropertyOp6
 70
     1
102
RTVSPropertyOp7
 70
     1
102
RTVSPropertyOp8
 70
     1
102
RTVSPropertyOp9
 70
     1
102
RTVSPropertyOp10
 70
     1
102
RTVSPropertyOp11
 70
     1
102
RTVSPropertyOp12
 70
     1
102
RTVSPropertyOp13
 70
     1
102
RTVSPropertyOp14
 70
     1
102
RTVSPropertyOp15
 70
     1
102
RTVSPropertyOp16
 70
     1
102
RTVSPropertyOp17
 70
     1
102
RTVSPropertyOp18
 70
     1
102
RTVSPropertyOp19
 70
     1
102
RTVSPropertyOp20
 70
     1
102
RTVSPropertyOp21
 70
     1
102
RTVSPropertyOp22
 70
     1
102
RTVSPropertyOp23
 70
     1
102
RTVSPropertyOp24
 70
     1
102
RTVSPropertyOp25
 70
     1
102
RTVSPropertyOp26
 70
     1
102
RTVSPropertyOp27
 70
     1
102
RTVSPropertyOp28
 70
     1
102
RTVSPropertyOp29
 70
     1
102
RTVSPropertyOp30
 70
     1
102
RTVSPropertyOp31
 70
     1
102
RTVSPropertyOp32
 70
     1
  0
XRECORD
  5
8DA
102
{ACAD_REACTORS
330
8D9
102
}
330
8D9
100
AcDbXrecord
280
     1
102
RTVSPropertyOp0
 70
     1
102
RTVSPropertyOp1
 70
     1
102
RTVSPropertyOp2
 70
     1
102
RTVSPropertyOp3
 70
     1
102
RTVSPropertyOp4
 70
     1
102
RTVSPropertyOp5
 70
     1
102
RTVSPropertyOp6
 70
     1
102
RTVSPropertyOp7
 70
     1
102
RTVSPropertyOp8
 70
     1
102
RTVSPropertyOp9
 70
     1
102
RTVSPropertyOp10
 70
     1
102
RTVSPropertyOp11
 70
     1
102
RTVSPropertyOp12
 70
     1
102
RTVSPropertyOp13
 70
     1
102
RTVSPropertyOp14
 70
     1
102
RTVSPropertyOp15
 70
     1
102
RTVSPropertyOp16
 70
     1
102
RTVSPropertyOp17
 70
     1
102
RTVSPropertyOp18
 70
     1
102
RTVSPropertyOp19
 70
     1
102
RTVSPropertyOp20
 70
     1
102
RTVSPropertyOp21
 70
     1
102
RTVSPropertyOp22
 70
     1
102
RTVSPropertyOp23
 70
     1
102
RTVSPropertyOp24
 70
     1
102
RTVSPropertyOp25
 70
     1
102
RTVSPropertyOp26
 70
     1
102
RTVSPropertyOp27
 70
     1
102
RTVSPropertyOp28
 70
     1
102
RTVSPropertyOp29
 70
     1
102
RTVSPropertyOp30
 70
     1
102
RTVSPropertyOp31
 70
     1
102
RTVSPropertyOp32
 70
     1
  0
XRECORD
  5
8CC
102
{ACAD_REACTORS
330
8CB
102
}
330
8CB
100
AcDbXrecord
280
     1
102
RTVSPropertyOp0
 70
     1
102
RTVSPropertyOp1
 70
     1
102
RTVSPropertyOp2
 70
     1
102
RTVSPropertyOp3
 70
     1
102
RTVSPropertyOp4
 70
     1
102
RTVSPropertyOp5
 70
     1
102
RTVSPropertyOp6
 70
     1
102
RTVSPropertyOp7
 70
     1
102
RTVSPropertyOp8
 70
     1
102
RTVSPropertyOp9
 70
     1
102
RTVSPropertyOp10
 70
     1
102
RTVSPropertyOp11
 70
     1
102
RTVSPropertyOp12
 70
     1
102
RTVSPropertyOp13
 70
     1
102
RTVSPropertyOp14
 70
     1
102
RTVSPropertyOp15
 70
     1
102
RTVSPropertyOp16
 70
     1
102
RTVSPropertyOp17
 70
     1
102
RTVSPropertyOp18
 70
     1
102
RTVSPropertyOp19
 70
     1
102
RTVSPropertyOp20
 70
     1
102
RTVSPropertyOp21
 70
     1
102
RTVSPropertyOp22
 70
     1
102
RTVSPropertyOp23
 70
     1
102
RTVSPropertyOp24
 70
     1
102
RTVSPropertyOp25
 70
     1
102
RTVSPropertyOp26
 70
     1
102
RTVSPropertyOp27
 70
     1
102
RTVSPropertyOp28
 70
     1
102
RTVSPropertyOp29
 70
     1
102
RTVSPropertyOp30
 70
     1
102
RTVSPropertyOp31
 70
     1
102
RTVSPropertyOp32
 70
     1
  0
XRECORD
  5
8D0
102
{ACAD_REACTORS
330
8CF
102
}
330
8CF
100
AcDbXrecord
280
     1
102
RTVSPropertyOp0
 70
     1
102
RTVSPropertyOp1
 70
     1
102
RTVSPropertyOp2
 70
     1
102
RTVSPropertyOp3
 70
     1
102
RTVSPropertyOp4
 70
     1
102
RTVSPropertyOp5
 70
     1
102
RTVSPropertyOp6
 70
     1
102
RTVSPropertyOp7
 70
     1
102
RTVSPropertyOp8
 70
     1
102
RTVSPropertyOp9
 70
     1
102
RTVSPropertyOp10
 70
     1
102
RTVSPropertyOp11
 70
     1
102
RTVSPropertyOp12
 70
     1
102
RTVSPropertyOp13
 70
     1
102
RTVSPropertyOp14
 70
     1
102
RTVSPropertyOp15
 70
     1
102
RTVSPropertyOp16
 70
     1
102
RTVSPropertyOp17
 70
     1
102
RTVSPropertyOp18
 70
     1
102
RTVSPropertyOp19
 70
     1
102
RTVSPropertyOp20
 70
     1
102
RTVSPropertyOp21
 70
     1
102
RTVSPropertyOp22
 70
     1
102
RTVSPropertyOp23
 70
     1
102
RTVSPropertyOp24
 70
     1
102
RTVSPropertyOp25
 70
     1
102
RTVSPropertyOp26
 70
     1
102
RTVSPropertyOp27
 70
     1
102
RTVSPropertyOp28
 70
     1
102
RTVSPropertyOp29
 70
     1
102
RTVSPropertyOp30
 70
     1
102
RTVSPropertyOp31
 70
     1
102
RTVSPropertyOp32
 70
     1
  0
XRECORD
  5
8EA
102
{ACAD_REACTORS
330
8E9
102
}
330
8E9
100
AcDbXrecord
280
     1
102
RTVSPropertyOp0
 70
     0
102
RTVSPropertyOp1
 70
     0
102
RTVSPropertyOp2
 70
     0
102
RTVSPropertyOp3
 70
     0
102
RTVSPropertyOp4
 70
     0
102
RTVSPropertyOp5
 70
     0
102
RTVSPropertyOp6
 70
     0
102
RTVSPropertyOp7
 70
     0
102
RTVSPropertyOp8
 70
     0
102
RTVSPropertyOp9
 70
     0
102
RTVSPropertyOp10
 70
     0
102
RTVSPropertyOp11
 70
     0
102
RTVSPropertyOp12
 70
     0
102
RTVSPropertyOp13
 70
     0
102
RTVSPropertyOp14
 70
     2
102
RTVSPropertyOp15
 70
     0
102
RTVSPropertyOp16
 70
     0
102
RTVSPropertyOp17
 70
     0
102
RTVSPropertyOp18
 70
     0
102
RTVSPropertyOp19
 70
     0
102
RTVSPropertyOp20
 70
     0
102
RTVSPropertyOp21
 70
     0
102
RTVSPropertyOp22
 70
     0
102
RTVSPropertyOp23
 70
     0
102
RTVSPropertyOp24
 70
     0
102
RTVSPropertyOp25
 70
     0
102
RTVSPropertyOp26
 70
     0
102
RTVSPropertyOp27
 70
     0
102
RTVSPropertyOp28
 70
     0
102
RTVSPropertyOp29
 70
     0
102
RTVSPropertyOp30
 70
     0
102
RTVSPropertyOp31
 70
     0
102
RTVSPropertyOp32
 70
     0
  0
XRECORD
  5
8D8
102
{ACAD_REACTORS
330
8D7
102
}
330
8D7
100
AcDbXrecord
280
     1
102
RTVSPropertyOp0
 70
     1
102
RTVSPropertyOp1
 70
     1
102
RTVSPropertyOp2
 70
     1
102
RTVSPropertyOp3
 70
     1
102
RTVSPropertyOp4
 70
     1
102
RTVSPropertyOp5
 70
     1
102
RTVSPropertyOp6
 70
     1
102
RTVSPropertyOp7
 70
     1
102
RTVSPropertyOp8
 70
     1
102
RTVSPropertyOp9
 70
     1
102
RTVSPropertyOp10
 70
     1
102
RTVSPropertyOp11
 70
     1
102
RTVSPropertyOp12
 70
     1
102
RTVSPropertyOp13
 70
     1
102
RTVSPropertyOp14
 70
     1
102
RTVSPropertyOp15
 70
     1
102
RTVSPropertyOp16
 70
     1
102
RTVSPropertyOp17
 70
     1
102
RTVSPropertyOp18
 70
     1
102
RTVSPropertyOp19
 70
     1
102
RTVSPropertyOp20
 70
     1
102
RTVSPropertyOp21
 70
     1
102
RTVSPropertyOp22
 70
     1
102
RTVSPropertyOp23
 70
     1
102
RTVSPropertyOp24
 70
     1
102
RTVSPropertyOp25
 70
     1
102
RTVSPropertyOp26
 70
     1
102
RTVSPropertyOp27
 70
     1
102
RTVSPropertyOp28
 70
     1
102
RTVSPropertyOp29
 70
     1
102
RTVSPropertyOp30
 70
     1
102
RTVSPropertyOp31
 70
     1
102
RTVSPropertyOp32
 70
     1
  0
XRECORD
  5
8BC
102
{ACAD_REACTORS
330
8BB
102
}
330
8BB
100
AcDbXrecord
280
     1
102
RTVSPropertyOp0
 70
     1
102
RTVSPropertyOp1
 70
     1
102
RTVSPropertyOp2
 70
     1
102
RTVSPropertyOp3
 70
     1
102
RTVSPropertyOp4
 70
     1
102
RTVSPropertyOp5
 70
     1
102
RTVSPropertyOp6
 70
     1
102
RTVSPropertyOp7
 70
     1
102
RTVSPropertyOp8
 70
     1
102
RTVSPropertyOp9
 70
     1
102
RTVSPropertyOp10
 70
     1
102
RTVSPropertyOp11
 70
     1
102
RTVSPropertyOp12
 70
     1
102
RTVSPropertyOp13
 70
     1
102
RTVSPropertyOp14
 70
     1
102
RTVSPropertyOp15
 70
     1
102
RTVSPropertyOp16
 70
     1
102
RTVSPropertyOp17
 70
     1
102
RTVSPropertyOp18
 70
     1
102
RTVSPropertyOp19
 70
     1
102
RTVSPropertyOp20
 70
     1
102
RTVSPropertyOp21
 70
     1
102
RTVSPropertyOp22
 70
     1
102
RTVSPropertyOp23
 70
     1
102
RTVSPropertyOp24
 70
     1
102
RTVSPropertyOp25
 70
     1
102
RTVSPropertyOp26
 70
     1
102
RTVSPropertyOp27
 70
     1
102
RTVSPropertyOp28
 70
     1
102
RTVSPropertyOp29
 70
     1
102
RTVSPropertyOp30
 70
     1
102
RTVSPropertyOp31
 70
     1
102
RTVSPropertyOp32
 70
     1
  0
XRECORD
  5
8BE
102
{ACAD_REACTORS
330
8BD
102
}
330
8BD
100
AcDbXrecord
280
     1
102
RTVSPropertyOp0
 70
     1
102
RTVSPropertyOp1
 70
     1
102
RTVSPropertyOp2
 70
     1
102
RTVSPropertyOp3
 70
     1
102
RTVSPropertyOp4
 70
     1
102
RTVSPropertyOp5
 70
     1
102
RTVSPropertyOp6
 70
     1
102
RTVSPropertyOp7
 70
     1
102
RTVSPropertyOp8
 70
     1
102
RTVSPropertyOp9
 70
     1
102
RTVSPropertyOp10
 70
     1
102
RTVSPropertyOp11
 70
     1
102
RTVSPropertyOp12
 70
     1
102
RTVSPropertyOp13
 70
     1
102
RTVSPropertyOp14
 70
     1
102
RTVSPropertyOp15
 70
     1
102
RTVSPropertyOp16
 70
     1
102
RTVSPropertyOp17
 70
     1
102
RTVSPropertyOp18
 70
     1
102
RTVSPropertyOp19
 70
     1
102
RTVSPropertyOp20
 70
     1
102
RTVSPropertyOp21
 70
     1
102
RTVSPropertyOp22
 70
     1
102
RTVSPropertyOp23
 70
     1
102
RTVSPropertyOp24
 70
     1
102
RTVSPropertyOp25
 70
     1
102
RTVSPropertyOp26
 70
     1
102
RTVSPropertyOp27
 70
     1
102
RTVSPropertyOp28
 70
     1
102
RTVSPropertyOp29
 70
     1
102
RTVSPropertyOp30
 70
     1
102
RTVSPropertyOp31
 70
     1
102
RTVSPropertyOp32
 70
     1
  0
XRECORD
  5
8C0
102
{ACAD_REACTORS
330
8BF
102
}
330
8BF
100
AcDbXrecord
280
     1
102
RTVSPropertyOp0
 70
     1
102
RTVSPropertyOp1
 70
     1
102
RTVSPropertyOp2
 70
     1
102
RTVSPropertyOp3
 70
     1
102
RTVSPropertyOp4
 70
     1
102
RTVSPropertyOp5
 70
     1
102
RTVSPropertyOp6
 70
     1
102
RTVSPropertyOp7
 70
     1
102
RTVSPropertyOp8
 70
     1
102
RTVSPropertyOp9
 70
     1
102
RTVSPropertyOp10
 70
     1
102
RTVSPropertyOp11
 70
     1
102
RTVSPropertyOp12
 70
     1
102
RTVSPropertyOp13
 70
     1
102
RTVSPropertyOp14
 70
     1
102
RTVSPropertyOp15
 70
     1
102
RTVSPropertyOp16
 70
     1
102
RTVSPropertyOp17
 70
     1
102
RTVSPropertyOp18
 70
     1
102
RTVSPropertyOp19
 70
     1
102
RTVSPropertyOp20
 70
     1
102
RTVSPropertyOp21
 70
     1
102
RTVSPropertyOp22
 70
     1
102
RTVSPropertyOp23
 70
     1
102
RTVSPropertyOp24
 70
     1
102
RTVSPropertyOp25
 70
     1
102
RTVSPropertyOp26
 70
     1
102
RTVSPropertyOp27
 70
     1
102
RTVSPropertyOp28
 70
     1
102
RTVSPropertyOp29
 70
     1
102
RTVSPropertyOp30
 70
     1
102
RTVSPropertyOp31
 70
     1
102
RTVSPropertyOp32
 70
     1
  0
XRECORD
  5
8C2
102
{ACAD_REACTORS
330
8C1
102
}
330
8C1
100
AcDbXrecord
280
     1
102
RTVSPropertyOp0
 70
     1
102
RTVSPropertyOp1
 70
     1
102
RTVSPropertyOp2
 70
     1
102
RTVSPropertyOp3
 70
     1
102
RTVSPropertyOp4
 70
     1
102
RTVSPropertyOp5
 70
     1
102
RTVSPropertyOp6
 70
     1
102
RTVSPropertyOp7
 70
     1
102
RTVSPropertyOp8
 70
     1
102
RTVSPropertyOp9
 70
     1
102
RTVSPropertyOp10
 70
     1
102
RTVSPropertyOp11
 70
     1
102
RTVSPropertyOp12
 70
     1
102
RTVSPropertyOp13
 70
     1
102
RTVSPropertyOp14
 70
     1
102
RTVSPropertyOp15
 70
     1
102
RTVSPropertyOp16
 70
     1
102
RTVSPropertyOp17
 70
     1
102
RTVSPropertyOp18
 70
     1
102
RTVSPropertyOp19
 70
     1
102
RTVSPropertyOp20
 70
     1
102
RTVSPropertyOp21
 70
     1
102
RTVSPropertyOp22
 70
     1
102
RTVSPropertyOp23
 70
     1
102
RTVSPropertyOp24
 70
     1
102
RTVSPropertyOp25
 70
     1
102
RTVSPropertyOp26
 70
     1
102
RTVSPropertyOp27
 70
     1
102
RTVSPropertyOp28
 70
     1
102
RTVSPropertyOp29
 70
     1
102
RTVSPropertyOp30
 70
     1
102
RTVSPropertyOp31
 70
     1
102
RTVSPropertyOp32
 70
     1
  0
XRECORD
  5
8CA
102
{ACAD_REACTORS
330
8C9
102
}
330
8C9
100
AcDbXrecord
280
     1
102
RTVSPropertyOp0
 70
     1
102
RTVSPropertyOp1
 70
     1
102
RTVSPropertyOp2
 70
     1
102
RTVSPropertyOp3
 70
     1
102
RTVSPropertyOp4
 70
     1
102
RTVSPropertyOp5
 70
     1
102
RTVSPropertyOp6
 70
     1
102
RTVSPropertyOp7
 70
     1
102
RTVSPropertyOp8
 70
     1
102
RTVSPropertyOp9
 70
     1
102
RTVSPropertyOp10
 70
     1
102
RTVSPropertyOp11
 70
     1
102
RTVSPropertyOp12
 70
     1
102
RTVSPropertyOp13
 70
     1
102
RTVSPropertyOp14
 70
     1
102
RTVSPropertyOp15
 70
     1
102
RTVSPropertyOp16
 70
     1
102
RTVSPropertyOp17
 70
     1
102
RTVSPropertyOp18
 70
     1
102
RTVSPropertyOp19
 70
     1
102
RTVSPropertyOp20
 70
     1
102
RTVSPropertyOp21
 70
     1
102
RTVSPropertyOp22
 70
     1
102
RTVSPropertyOp23
 70
     1
102
RTVSPropertyOp24
 70
     1
102
RTVSPropertyOp25
 70
     1
102
RTVSPropertyOp26
 70
     1
102
RTVSPropertyOp27
 70
     1
102
RTVSPropertyOp28
 70
     1
102
RTVSPropertyOp29
 70
     1
102
RTVSPropertyOp30
 70
     1
102
RTVSPropertyOp31
 70
     1
102
RTVSPropertyOp32
 70
     1
  0
XRECORD
  5
8E6
102
{ACAD_REACTORS
330
8E5
102
}
330
8E5
100
AcDbXrecord
280
     1
102
RTVSPropertyOp0
 70
     0
102
RTVSPropertyOp1
 70
     0
102
RTVSPropertyOp2
 70
     0
102
RTVSPropertyOp3
 70
     0
102
RTVSPropertyOp4
 70
     0
102
RTVSPropertyOp5
 70
     0
102
RTVSPropertyOp6
 70
     0
102
RTVSPropertyOp7
 70
     0
102
RTVSPropertyOp8
 70
     0
102
RTVSPropertyOp9
 70
     0
102
RTVSPropertyOp10
 70
     0
102
RTVSPropertyOp11
 70
     0
102
RTVSPropertyOp12
 70
     0
102
RTVSPropertyOp13
 70
     0
102
RTVSPropertyOp14
 70
     2
102
RTVSPropertyOp15
 70
     0
102
RTVSPropertyOp16
 70
     0
102
RTVSPropertyOp17
 70
     0
102
RTVSPropertyOp18
 70
     0
102
RTVSPropertyOp19
 70
     0
102
RTVSPropertyOp20
 70
     0
102
RTVSPropertyOp21
 70
     0
102
RTVSPropertyOp22
 70
     0
102
RTVSPropertyOp23
 70
     0
102
RTVSPropertyOp24
 70
     0
102
RTVSPropertyOp25
 70
     0
102
RTVSPropertyOp26
 70
     0
102
RTVSPropertyOp27
 70
     0
102
RTVSPropertyOp28
 70
     0
102
RTVSPropertyOp29
 70
     0
102
RTVSPropertyOp30
 70
     0
102
RTVSPropertyOp31
 70
     0
102
RTVSPropertyOp32
 70
     0
  0
XRECORD
  5
8D6
102
{ACAD_REACTORS
330
8D5
102
}
330
8D5
100
AcDbXrecord
280
     1
102
RTVSPropertyOp0
 70
     1
102
RTVSPropertyOp1
 70
     1
102
RTVSPropertyOp2
 70
     1
102
RTVSPropertyOp3
 70
     1
102
RTVSPropertyOp4
 70
     1
102
RTVSPropertyOp5
 70
     1
102
RTVSPropertyOp6
 70
     1
102
RTVSPropertyOp7
 70
     1
102
RTVSPropertyOp8
 70
     1
102
RTVSPropertyOp9
 70
     1
102
RTVSPropertyOp10
 70
     1
102
RTVSPropertyOp11
 70
     1
102
RTVSPropertyOp12
 70
     1
102
RTVSPropertyOp13
 70
     1
102
RTVSPropertyOp14
 70
     1
102
RTVSPropertyOp15
 70
     1
102
RTVSPropertyOp16
 70
     1
102
RTVSPropertyOp17
 70
     1
102
RTVSPropertyOp18
 70
     1
102
RTVSPropertyOp19
 70
     1
102
RTVSPropertyOp20
 70
     1
102
RTVSPropertyOp21
 70
     1
102
RTVSPropertyOp22
 70
     1
102
RTVSPropertyOp23
 70
     1
102
RTVSPropertyOp24
 70
     1
102
RTVSPropertyOp25
 70
     1
102
RTVSPropertyOp26
 70
     1
102
RTVSPropertyOp27
 70
     1
102
RTVSPropertyOp28
 70
     1
102
RTVSPropertyOp29
 70
     1
102
RTVSPropertyOp30
 70
     1
102
RTVSPropertyOp31
 70
     1
102
RTVSPropertyOp32
 70
     1
  0
XRECORD
  5
8E8
102
{ACAD_REACTORS
330
8E7
102
}
330
8E7
100
AcDbXrecord
280
     1
102
RTVSPropertyOp0
 70
     0
102
RTVSPropertyOp1
 70
     0
102
RTVSPropertyOp2
 70
     0
102
RTVSPropertyOp3
 70
     0
102
RTVSPropertyOp4
 70
     0
102
RTVSPropertyOp5
 70
     0
102
RTVSPropertyOp6
 70
     0
102
RTVSPropertyOp7
 70
     0
102
RTVSPropertyOp8
 70
     0
102
RTVSPropertyOp9
 70
     0
102
RTVSPropertyOp10
 70
     0
102
RTVSPropertyOp11
 70
     0
102
RTVSPropertyOp12
 70
     0
102
RTVSPropertyOp13
 70
     0
102
RTVSPropertyOp14
 70
     2
102
RTVSPropertyOp15
 70
     0
102
RTVSPropertyOp16
 70
     0
102
RTVSPropertyOp17
 70
     0
102
RTVSPropertyOp18
 70
     0
102
RTVSPropertyOp19
 70
     0
102
RTVSPropertyOp20
 70
     0
102
RTVSPropertyOp21
 70
     0
102
RTVSPropertyOp22
 70
     0
102
RTVSPropertyOp23
 70
     0
102
RTVSPropertyOp24
 70
     0
102
RTVSPropertyOp25
 70
     0
102
RTVSPropertyOp26
 70
     0
102
RTVSPropertyOp27
 70
     0
102
RTVSPropertyOp28
 70
     0
102
RTVSPropertyOp29
 70
     0
102
RTVSPropertyOp30
 70
     0
102
RTVSPropertyOp31
 70
     0
102
RTVSPropertyOp32
 70
     0
  0
XRECORD
  5
8CE
102
{ACAD_REACTORS
330
8CD
102
}
330
8CD
100
AcDbXrecord
280
     1
102
RTVSPropertyOp0
 70
     1
102
RTVSPropertyOp1
 70
     1
102
RTVSPropertyOp2
 70
     1
102
RTVSPropertyOp3
 70
     1
102
RTVSPropertyOp4
 70
     1
102
RTVSPropertyOp5
 70
     1
102
RTVSPropertyOp6
 70
     1
102
RTVSPropertyOp7
 70
     1
102
RTVSPropertyOp8
 70
     1
102
RTVSPropertyOp9
 70
     1
102
RTVSPropertyOp10
 70
     1
102
RTVSPropertyOp11
 70
     1
102
RTVSPropertyOp12
 70
     1
102
RTVSPropertyOp13
 70
     1
102
RTVSPropertyOp14
 70
     1
102
RTVSPropertyOp15
 70
     1
102
RTVSPropertyOp16
 70
     1
102
RTVSPropertyOp17
 70
     1
102
RTVSPropertyOp18
 70
     1
102
RTVSPropertyOp19
 70
     1
102
RTVSPropertyOp20
 70
     1
102
RTVSPropertyOp21
 70
     1
102
RTVSPropertyOp22
 70
     1
102
RTVSPropertyOp23
 70
     1
102
RTVSPropertyOp24
 70
     1
102
RTVSPropertyOp25
 70
     1
102
RTVSPropertyOp26
 70
     1
102
RTVSPropertyOp27
 70
     1
102
RTVSPropertyOp28
 70
     1
102
RTVSPropertyOp29
 70
     1
102
RTVSPropertyOp30
 70
     1
102
RTVSPropertyOp31
 70
     1
102
RTVSPropertyOp32
 70
     1
  0
XRECORD
  5
8E4
102
{ACAD_REACTORS
330
8E3
102
}
330
8E3
100
AcDbXrecord
280
     1
102
RTVSPropertyOp0
 70
     1
102
RTVSPropertyOp1
 70
     1
102
RTVSPropertyOp2
 70
     1
102
RTVSPropertyOp3
 70
     1
102
RTVSPropertyOp4
 70
     1
102
RTVSPropertyOp5
 70
     1
102
RTVSPropertyOp6
 70
     1
102
RTVSPropertyOp7
 70
     1
102
RTVSPropertyOp8
 70
     1
102
RTVSPropertyOp9
 70
     1
102
RTVSPropertyOp10
 70
     1
102
RTVSPropertyOp11
 70
     1
102
RTVSPropertyOp12
 70
     1
102
RTVSPropertyOp13
 70
     1
102
RTVSPropertyOp14
 70
     1
102
RTVSPropertyOp15
 70
     1
102
RTVSPropertyOp16
 70
     1
102
RTVSPropertyOp17
 70
     1
102
RTVSPropertyOp18
 70
     1
102
RTVSPropertyOp19
 70
     1
102
RTVSPropertyOp20
 70
     1
102
RTVSPropertyOp21
 70
     1
102
RTVSPropertyOp22
 70
     1
102
RTVSPropertyOp23
 70
     1
102
RTVSPropertyOp24
 70
     1
102
RTVSPropertyOp25
 70
     1
102
RTVSPropertyOp26
 70
     1
102
RTVSPropertyOp27
 70
     1
102
RTVSPropertyOp28
 70
     1
102
RTVSPropertyOp29
 70
     1
102
RTVSPropertyOp30
 70
     1
102
RTVSPropertyOp31
 70
     1
102
RTVSPropertyOp32
 70
     1
  0
XRECORD
  5
8E2
102
{ACAD_REACTORS
330
8E1
102
}
330
8E1
100
AcDbXrecord
280
     1
102
RTVSPropertyOp0
 70
     1
102
RTVSPropertyOp1
 70
     1
102
RTVSPropertyOp2
 70
     1
102
RTVSPropertyOp3
 70
     1
102
RTVSPropertyOp4
 70
     1
102
RTVSPropertyOp5
 70
     1
102
RTVSPropertyOp6
 70
     1
102
RTVSPropertyOp7
 70
     1
102
RTVSPropertyOp8
 70
     1
102
RTVSPropertyOp9
 70
     1
102
RTVSPropertyOp10
 70
     1
102
RTVSPropertyOp11
 70
     1
102
RTVSPropertyOp12
 70
     1
102
RTVSPropertyOp13
 70
     1
102
RTVSPropertyOp14
 70
     1
102
RTVSPropertyOp15
 70
     1
102
RTVSPropertyOp16
 70
     1
102
RTVSPropertyOp17
 70
     1
102
RTVSPropertyOp18
 70
     1
102
RTVSPropertyOp19
 70
     1
102
RTVSPropertyOp20
 70
     1
102
RTVSPropertyOp21
 70
     1
102
RTVSPropertyOp22
 70
     1
102
RTVSPropertyOp23
 70
     1
102
RTVSPropertyOp24
 70
     1
102
RTVSPropertyOp25
 70
     1
102
RTVSPropertyOp26
 70
     1
102
RTVSPropertyOp27
 70
     1
102
RTVSPropertyOp28
 70
     1
102
RTVSPropertyOp29
 70
     1
102
RTVSPropertyOp30
 70
     1
102
RTVSPropertyOp31
 70
     1
102
RTVSPropertyOp32
 70
     1
  0
XRECORD
  5
8DC
102
{ACAD_REACTORS
330
8DB
102
}
330
8DB
100
AcDbXrecord
280
     1
102
RTVSPropertyOp0
 70
     1
102
RTVSPropertyOp1
 70
     1
102
RTVSPropertyOp2
 70
     1
102
RTVSPropertyOp3
 70
     1
102
RTVSPropertyOp4
 70
     1
102
RTVSPropertyOp5
 70
     1
102
RTVSPropertyOp6
 70
     1
102
RTVSPropertyOp7
 70
     1
102
RTVSPropertyOp8
 70
     1
102
RTVSPropertyOp9
 70
     1
102
RTVSPropertyOp10
 70
     1
102
RTVSPropertyOp11
 70
     1
102
RTVSPropertyOp12
 70
     1
102
RTVSPropertyOp13
 70
     1
102
RTVSPropertyOp14
 70
     1
102
RTVSPropertyOp15
 70
     1
102
RTVSPropertyOp16
 70
     1
102
RTVSPropertyOp17
 70
     1
102
RTVSPropertyOp18
 70
     1
102
RTVSPropertyOp19
 70
     1
102
RTVSPropertyOp20
 70
     1
102
RTVSPropertyOp21
 70
     1
102
RTVSPropertyOp22
 70
     1
102
RTVSPropertyOp23
 70
     1
102
RTVSPropertyOp24
 70
     1
102
RTVSPropertyOp25
 70
     1
102
RTVSPropertyOp26
 70
     1
102
RTVSPropertyOp27
 70
     1
102
RTVSPropertyOp28
 70
     1
102
RTVSPropertyOp29
 70
     1
102
RTVSPropertyOp30
 70
     1
102
RTVSPropertyOp31
 70
     1
102
RTVSPropertyOp32
 70
     1
  0
XRECORD
  5
8DE
102
{ACAD_REACTORS
330
8DD
102
}
330
8DD
100
AcDbXrecord
280
     1
102
RTVSPropertyOp0
 70
     1
102
RTVSPropertyOp1
 70
     1
102
RTVSPropertyOp2
 70
     1
102
RTVSPropertyOp3
 70
     1
102
RTVSPropertyOp4
 70
     1
102
RTVSPropertyOp5
 70
     1
102
RTVSPropertyOp6
 70
     1
102
RTVSPropertyOp7
 70
     1
102
RTVSPropertyOp8
 70
     1
102
RTVSPropertyOp9
 70
     1
102
RTVSPropertyOp10
 70
     1
102
RTVSPropertyOp11
 70
     1
102
RTVSPropertyOp12
 70
     1
102
RTVSPropertyOp13
 70
     1
102
RTVSPropertyOp14
 70
     1
102
RTVSPropertyOp15
 70
     1
102
RTVSPropertyOp16
 70
     1
102
RTVSPropertyOp17
 70
     1
102
RTVSPropertyOp18
 70
     1
102
RTVSPropertyOp19
 70
     1
102
RTVSPropertyOp20
 70
     1
102
RTVSPropertyOp21
 70
     1
102
RTVSPropertyOp22
 70
     1
102
RTVSPropertyOp23
 70
     1
102
RTVSPropertyOp24
 70
     1
102
RTVSPropertyOp25
 70
     1
102
RTVSPropertyOp26
 70
     1
102
RTVSPropertyOp27
 70
     1
102
RTVSPropertyOp28
 70
     1
102
RTVSPropertyOp29
 70
     1
102
RTVSPropertyOp30
 70
     1
102
RTVSPropertyOp31
 70
     1
102
RTVSPropertyOp32
 70
     1
  0
XRECORD
  5
8D4
102
{ACAD_REACTORS
330
8D3
102
}
330
8D3
100
AcDbXrecord
280
     1
102
RTVSPropertyOp0
 70
     1
102
RTVSPropertyOp1
 70
     1
102
RTVSPropertyOp2
 70
     1
102
RTVSPropertyOp3
 70
     1
102
RTVSPropertyOp4
 70
     1
102
RTVSPropertyOp5
 70
     1
102
RTVSPropertyOp6
 70
     1
102
RTVSPropertyOp7
 70
     1
102
RTVSPropertyOp8
 70
     1
102
RTVSPropertyOp9
 70
     1
102
RTVSPropertyOp10
 70
     1
102
RTVSPropertyOp11
 70
     1
102
RTVSPropertyOp12
 70
     1
102
RTVSPropertyOp13
 70
     1
102
RTVSPropertyOp14
 70
     1
102
RTVSPropertyOp15
 70
     1
102
RTVSPropertyOp16
 70
     1
102
RTVSPropertyOp17
 70
     1
102
RTVSPropertyOp18
 70
     1
102
RTVSPropertyOp19
 70
     1
102
RTVSPropertyOp20
 70
     1
102
RTVSPropertyOp21
 70
     1
102
RTVSPropertyOp22
 70
     1
102
RTVSPropertyOp23
 70
     1
102
RTVSPropertyOp24
 70
     1
102
RTVSPropertyOp25
 70
     1
102
RTVSPropertyOp26
 70
     1
102
RTVSPropertyOp27
 70
     1
102
RTVSPropertyOp28
 70
     1
102
RTVSPropertyOp29
 70
     1
102
RTVSPropertyOp30
 70
     1
102
RTVSPropertyOp31
 70
     1
102
RTVSPropertyOp32
 70
     1
  0
XRECORD
  5
8C8
102
{ACAD_REACTORS
330
8C7
102
}
330
8C7
100
AcDbXrecord
280
     1
102
RTVSPropertyOp0
 70
     1
102
RTVSPropertyOp1
 70
     1
102
RTVSPropertyOp2
 70
     1
102
RTVSPropertyOp3
 70
     1
102
RTVSPropertyOp4
 70
     1
102
RTVSPropertyOp5
 70
     1
102
RTVSPropertyOp6
 70
     1
102
RTVSPropertyOp7
 70
     1
102
RTVSPropertyOp8
 70
     1
102
RTVSPropertyOp9
 70
     1
102
RTVSPropertyOp10
 70
     1
102
RTVSPropertyOp11
 70
     1
102
RTVSPropertyOp12
 70
     1
102
RTVSPropertyOp13
 70
     1
102
RTVSPropertyOp14
 70
     1
102
RTVSPropertyOp15
 70
     1
102
RTVSPropertyOp16
 70
     1
102
RTVSPropertyOp17
 70
     1
102
RTVSPropertyOp18
 70
     1
102
RTVSPropertyOp19
 70
     1
102
RTVSPropertyOp20
 70
     1
102
RTVSPropertyOp21
 70
     1
102
RTVSPropertyOp22
 70
     1
102
RTVSPropertyOp23
 70
     1
102
RTVSPropertyOp24
 70
     1
102
RTVSPropertyOp25
 70
     1
102
RTVSPropertyOp26
 70
     1
102
RTVSPropertyOp27
 70
     1
102
RTVSPropertyOp28
 70
     1
102
RTVSPropertyOp29
 70
     1
102
RTVSPropertyOp30
 70
     1
102
RTVSPropertyOp31
 70
     1
102
RTVSPropertyOp32
 70
     1
  0
XRECORD
  5
8E0
102
{ACAD_REACTORS
330
8DF
102
}
330
8DF
100
AcDbXrecord
280
     1
102
RTVSPropertyOp0
 70
     1
102
RTVSPropertyOp1
 70
     1
102
RTVSPropertyOp2
 70
     1
102
RTVSPropertyOp3
 70
     1
102
RTVSPropertyOp4
 70
     1
102
RTVSPropertyOp5
 70
     1
102
RTVSPropertyOp6
 70
     1
102
RTVSPropertyOp7
 70
     1
102
RTVSPropertyOp8
 70
     1
102
RTVSPropertyOp9
 70
     1
102
RTVSPropertyOp10
 70
     1
102
RTVSPropertyOp11
 70
     1
102
RTVSPropertyOp12
 70
     1
102
RTVSPropertyOp13
 70
     1
102
RTVSPropertyOp14
 70
     1
102
RTVSPropertyOp15
 70
     1
102
RTVSPropertyOp16
 70
     1
102
RTVSPropertyOp17
 70
     1
102
RTVSPropertyOp18
 70
     1
102
RTVSPropertyOp19
 70
     1
102
RTVSPropertyOp20
 70
     1
102
RTVSPropertyOp21
 70
     1
102
RTVSPropertyOp22
 70
     1
102
RTVSPropertyOp23
 70
     1
102
RTVSPropertyOp24
 70
     1
102
RTVSPropertyOp25
 70
     1
102
RTVSPropertyOp26
 70
     1
102
RTVSPropertyOp27
 70
     1
102
RTVSPropertyOp28
 70
     1
102
RTVSPropertyOp29
 70
     1
102
RTVSPropertyOp30
 70
     1
102
RTVSPropertyOp31
 70
     1
102
RTVSPropertyOp32
 70
     1
  0
ENDSEC
  0
EOF
