999
DXF file: 1281904_7_b.dxf
999
Pro/ENGINEER 2019030 by Parametric Technology Corporation
  0
SECTION
  2
HEADER
  9
$ACADVER
  1
AC1014
  9
$DWGCODEPAGE
  3
ANSI_1252
  9
$EXTMAX
 10
44.0
 20
34.0
 30
0.0
  9
$EXTMIN
 10
0.0
 20
0.0
 30
0.0
  9
$LIMMIN
 10
0.0
 20
0.0
  9
$LIMMAX
 10
44.0
 20
34.0
  9
$VIEWCTR
 10
22.0
 20
17.0
  9
$VIEWSIZE
 40
34.0
  9
$CLAYER
  8
0
  9
$LTSCALE
 40
2.42
  9
$CELTYPE
  6
BYLAYER
  9
$DIMSCALE
 40
1.0
  9
$DIMASZ
 40
0.1875
  9
$DIMEXO
 40
0.0625
  9
$DIMDLI
 40
1.672
  9
$DIMEXE
 40
0.125
  9
$DIMCEN
 40
0.396
  9
$DIMLFAC
 40
1.0
  9
$DIMBLK
  1
_ARROW_FILLED
  9
$DIMALT
 70
1
  9
$DIMALTD
 70
2
  9
$DIMALTTD
 70
2
  9
$DIMALTF
 40
25.4
  9
$DIMTXT
 40
0.15625
  9
$DIMTOL
 70
1
  9
$DIMLIM
 70
0
  9
$DIMTFAC
 40
1.0
  9
$DIMTP
 40
0.01
  9
$DIMTM
 40
0.01
  9
$DIMGAP
 40
0.09
  9
$AUNITS
 70
0
  9
$PDMODE
 70
3
  9
$PDSIZE
 40
0.3125
  9
$HANDSEED
  5
43E
  9
$TILEMODE
 70
1
  9
$MEASUREMENT
 70
0
  0
ENDSEC
  0
SECTION
  2
CLASSES
  0
ENDSEC
  0
SECTION
  2
TABLES
  0
TABLE
  2
VPORT
  5
8
100
AcDbSymbolTable
 70
2
  0
VPORT
  5
1F4
100
AcDbSymbolTableRecord
100
AcDbViewportTableRecord
  2
*ACTIVE
 70
0
 10
0.0
 20
0.0
 11
1.0
 21
1.0
 12
22.0
 22
17.0
 13
0.0
 23
0.0
 14
1.0
 24
1.0
 15
0.0
 25
0.0
 16
0.0
 26
0.0
 36
1.0
 17
0.0
 27
0.0
 37
0.0
 40
34.0
 41
1.2941176471
 42
50.0
 43
0.0
 44
0.0
 50
0.0
 51
0.0
 71
0
 72
100
 73
1
 74
1
 75
0
 76
0
 77
0
 78
0
  0
ENDTAB
  0
TABLE
  2
LTYPE
  5
5
100
AcDbSymbolTable
 70
6
  0
LTYPE
  5
14
100
AcDbSymbolTableRecord
100
AcDbLinetypeTableRecord
  2
BYBLOCK
 70
0
  3

 72
65
 73
0
 40
0.0
  0
LTYPE
  5
15
100
AcDbSymbolTableRecord
100
AcDbLinetypeTableRecord
  2
BYLAYER
 70
0
  3

 72
65
 73
0
 40
0.0
  0
LTYPE
  5
16
100
AcDbSymbolTableRecord
100
AcDbLinetypeTableRecord
  2
CONTINUOUS
 70
64
  3
Solid line
 72
65
 73
0
 40
0.0
  0
LTYPE
  5
1F5
100
AcDbSymbolTableRecord
100
AcDbLinetypeTableRecord
  2
CENTER
 70
64
  3
____ _ ____ _ ____ _ ____ _ ____ _ ____ _ ____
 72
65
 73
4
 40
0.6
 49
0.375
 74
0
 49
-0.075
 74
0
 49
0.075
 74
0
 49
-0.075
 74
0
  0
LTYPE
  5
1F6
100
AcDbSymbolTableRecord
100
AcDbLinetypeTableRecord
  2
HIDDEN
 70
64
  3
- - - - - - - - - - - - - - - - - - - -
 72
65
 73
2
 40
0.2
 49
0.1
 74
0
 49
-0.1
 74
0
  0
LTYPE
  5
1F7
100
AcDbSymbolTableRecord
100
AcDbLinetypeTableRecord
  2
PHANTOM
 70
64
  3
_____ _ _ _____ _ _ _____ _ _ _____
 72
65
 73
6
 40
0.8
 49
0.45
 74
0
 49
-0.05
 74
0
 49
0.1
 74
0
 49
-0.05
 74
0
 49
0.1
 74
0
 49
-0.05
 74
0
  0
LTYPE
  5
1F8
100
AcDbSymbolTableRecord
100
AcDbLinetypeTableRecord
  2
DOT
 70
64
  3
. . . . . . . . . . . . . . . . . . . .
 72
65
 73
2
 40
0.2
 49
0.1
 74
0
 49
-0.1
 74
0
  0
LTYPE
  5
1F9
100
AcDbSymbolTableRecord
100
AcDbLinetypeTableRecord
  2
DASHED
 70
64
  3
- - - - - - - - - - - - - - - - - - - -
 72
65
 73
2
 40
0.2
 49
0.1
 74
0
 49
-0.1
 74
0
  0
ENDTAB
  0
TABLE
  2
LAYER
  5
2
100
AcDbSymbolTable
 70
36
  0
LAYER
  5
10
100
AcDbSymbolTableRecord
100
AcDbLayerTableRecord
  2
0
 70
0
 62
7
  6
CONTINUOUS
  0
LAYER
  5
1FA
100
AcDbSymbolTableRecord
100
AcDbLayerTableRecord
  2
DEFAULT_1
 70
0
 62
7
  6
CENTER
  0
LAYER
  5
1FB
100
AcDbSymbolTableRecord
100
AcDbLayerTableRecord
  2
DEFAULT_2
 70
0
 62
8
  6
HIDDEN
  0
LAYER
  5
1FC
100
AcDbSymbolTableRecord
100
AcDbLayerTableRecord
  2
DEFAULT_3
 70
0
 62
7
  6
PHANTOM
  0
LAYER
  5
1FD
100
AcDbSymbolTableRecord
100
AcDbLayerTableRecord
  2
DATUMS
 70
0
 62
7
  6
CONTINUOUS
  0
LAYER
  5
1FE
100
AcDbSymbolTableRecord
100
AcDbLayerTableRecord
  2
DATUM_AXIS
 70
0
 62
7
  6
CONTINUOUS
  0
LAYER
  5
1FF
100
AcDbSymbolTableRecord
100
AcDbLayerTableRecord
  2
DATUM_CSYS
 70
0
 62
7
  6
CONTINUOUS
  0
LAYER
  5
200
100
AcDbSymbolTableRecord
100
AcDbLayerTableRecord
  2
DATUM_PLANE
 70
0
 62
7
  6
CONTINUOUS
  0
LAYER
  5
201
100
AcDbSymbolTableRecord
100
AcDbLayerTableRecord
  2
DATUM_POINT
 70
0
 62
7
  6
CONTINUOUS
  0
LAYER
  5
202
100
AcDbSymbolTableRecord
100
AcDbLayerTableRecord
  2
_CURVE
 70
0
 62
7
  6
CONTINUOUS
  0
LAYER
  5
203
100
AcDbSymbolTableRecord
100
AcDbLayerTableRecord
  2
_SURFACE
 70
0
 62
7
  6
CONTINUOUS
  0
LAYER
  5
204
100
AcDbSymbolTableRecord
100
AcDbLayerTableRecord
  2
__REF_CURVE
 70
0
 62
7
  6
CONTINUOUS
  0
LAYER
  5
205
100
AcDbSymbolTableRecord
100
AcDbLayerTableRecord
  2
__REF_SURFACE
 70
0
 62
7
  6
CONTINUOUS
  0
LAYER
  5
206
100
AcDbSymbolTableRecord
100
AcDbLayerTableRecord
  2
___NOTE
 70
0
 62
7
  6
CONTINUOUS
  0
LAYER
  5
207
100
AcDbSymbolTableRecord
100
AcDbLayerTableRecord
  2
___SYMBOL
 70
0
 62
7
  6
CONTINUOUS
  0
ENDTAB
  0
TABLE
  2
STYLE
  5
3
100
AcDbSymbolTable
 70
1
  0
STYLE
  5
11
100
AcDbSymbolTableRecord
100
AcDbTextStyleTableRecord
  2
STANDARD
 70
0
 40
0.0
 41
0.8
 50
0.0
 71
0
 42
0.2
  3
txt
  4

  0
STYLE
  5
208
100
AcDbSymbolTableRecord
100
AcDbTextStyleTableRecord
  2
TEXTSTYLE_1
 70
0
 40
0.0
 41
0.8
 50
0.0
 71
0
 42
0.2
  3
gdt
  4

  0
STYLE
  5
209
100
AcDbSymbolTableRecord
100
AcDbTextStyleTableRecord
  2
TEXTSTYLE_2
 70
0
 40
0.0
 41
1.0
 50
0.0
 71
0
 42
0.2
  3
txt
  4

  0
ENDTAB
  0
TABLE
  2
VIEW
  5
6
100
AcDbSymbolTable
 70
0
  0
ENDTAB
  0
TABLE
  2
UCS
  5
7
100
AcDbSymbolTable
 70
0
  0
ENDTAB
  0
TABLE
  2
APPID
  5
9
100
AcDbSymbolTable
 70
1
  0
APPID
  5
20A
100
AcDbSymbolTableRecord
100
AcDbRegAppTableRecord
  2
ACAD
 70
0
  0
ENDTAB
  0
TABLE
  2
BLOCK_RECORD
  5
1
100
AcDbSymbolTable
 70
0
  0
BLOCK_RECORD
  5
1F
100
AcDbSymbolTableRecord
100
AcDbBlockTableRecord
  2
*MODEL_SPACE
  0
BLOCK_RECORD
  5
1B
100
AcDbSymbolTableRecord
100
AcDbBlockTableRecord
  2
*PAPER_SPACE
  0
BLOCK_RECORD
  5
20B
100
AcDbSymbolTableRecord
100
AcDbBlockTableRecord
  2
_ARROW_FILLED
  0
BLOCK_RECORD
  5
20C
100
AcDbSymbolTableRecord
100
AcDbBlockTableRecord
  2
*D0
  0
BLOCK_RECORD
  5
20D
100
AcDbSymbolTableRecord
100
AcDbBlockTableRecord
  2
*D1
  0
BLOCK_RECORD
  5
20E
100
AcDbSymbolTableRecord
100
AcDbBlockTableRecord
  2
*D2
  0
BLOCK_RECORD
  5
20F
100
AcDbSymbolTableRecord
100
AcDbBlockTableRecord
  2
SCISSORS_BL6
  0
BLOCK_RECORD
  5
210
100
AcDbSymbolTableRecord
100
AcDbBlockTableRecord
  2
WHEN_PLOTTING_TEMPLATE_N_BL5
  0
BLOCK_RECORD
  5
211
100
AcDbSymbolTableRecord
100
AcDbBlockTableRecord
  2
TEMPLATE_NUMBER_BL4
  0
BLOCK_RECORD
  5
212
100
AcDbSymbolTableRecord
100
AcDbBlockTableRecord
  2
TEMPLATE_NUMBER_BL3
  0
BLOCK_RECORD
  5
213
100
AcDbSymbolTableRecord
100
AcDbBlockTableRecord
  2
COPYRIGHT_YEAR_BL2
  0
BLOCK_RECORD
  5
214
100
AcDbSymbolTableRecord
100
AcDbBlockTableRecord
  2
LAV_UC_INSTALLATION_BL1
  0
BLOCK_RECORD
  5
215
100
AcDbSymbolTableRecord
100
AcDbBlockTableRecord
  2
SKU_LAV_KOHLER_BL0
  0
ENDTAB
  0
TABLE
  2
DIMSTYLE
  5
A
100
AcDbSymbolTable
 70
1
  0
DIMSTYLE
105
216
100
AcDbSymbolTableRecord
100
AcDbDimStyleTableRecord
  2
STANDARD
 70
0
  3

  4

  5
_ARROW_FILLED
  6
_ARROW_FILLED
  7
_ARROW_FILLED
 40
1.0
 41
0.1875
 42
0.0625
 43
0.38
 44
0.125
 45
0.0
 46
0.0
 47
0.01
 48
0.01
140
0.15625
141
0.09
142
0.0
143
2.54
144
1.0
145
0.0
146
1.0
147
0.09
 71
1.0
 72
0.0
 73
1
 74
1
 75
0
 76
0
 77
0
 78
4
 79
1
170
1
171
2
172
0
173
0
174
0
175
0
176
0
177
0
178
0
270
2
271
3
272
3
273
2
274
2
275
0
280
0
281
0
282
0
283
1
284
4
285
0
286
0
287
3
288
0
340
11
  0
DIMSTYLE
105
217
100
AcDbSymbolTableRecord
100
AcDbDimStyleTableRecord
  2
DIMSTYLE_1
 70
0
  3
<>
  4

  5
_ARROW_FILLED
  6
_ARROW_FILLED
  7
_ARROW_FILLED
 40
1.0
 41
0.1875
 42
0.0625
 43
0.38
 44
0.125
 45
0.0
 46
0.0
 47
0.01
 48
0.01
140
0.15625
141
0.09
142
0.0
143
2.54
144
1.0
145
0.0
146
1.0
147
0.09
 71
0.0
 72
0.0
 73
1
 74
1
 75
0
 76
0
 77
0
 78
4
 79
1
170
1
171
1
172
0
173
0
174
0
175
0
176
0
177
0
178
0
270
2
271
5
272
32
273
2
274
3
275
0
280
0
281
0
282
0
283
1
284
4
285
0
286
0
287
3
288
0
340
11
  0
DIMSTYLE
105
218
100
AcDbSymbolTableRecord
100
AcDbDimStyleTableRecord
  2
DIMSTYLE_2
 70
0
  3

  4

  5
_ARROW_FILLED
  6
_ARROW_FILLED
  7
_ARROW_FILLED
 40
1.0
 41
0.1875
 42
0.0625
 43
0.38
 44
0.125
 45
0.0
 46
0.0
 47
0.03125
 48
0.03125
140
0.15625
141
0.09
142
0.0
143
2.54
144
1.0
145
0.0
146
1.0
147
0.078125
 71
0.0
 72
0.0
 73
1
 74
1
 75
0
 76
0
 77
0
 78
4
 79
1
170
1
171
0
172
0
173
0
174
0
175
0
176
0
177
0
178
0
270
2
271
5
272
32
273
2
274
0
275
0
280
0
281
0
282
0
283
1
284
4
285
0
286
0
287
3
288
0
340
11
  0
DIMSTYLE
105
219
100
AcDbSymbolTableRecord
100
AcDbDimStyleTableRecord
  2
DIMSTYLE_3
 70
0
  3

  4

  5
_ARROW_FILLED
  6
_ARROW_FILLED
  7
_ARROW_FILLED
 40
1.0
 41
0.1875
 42
0.0625
 43
0.38
 44
0.125
 45
0.0
 46
0.0
 47
0.03125
 48
0.03125
140
0.15625
141
0.09
142
0.0
143
2.54
144
1.0
145
0.0
146
1.0
147
0.078125
 71
0.0
 72
0.0
 73
1
 74
1
 75
0
 76
0
 77
0
 78
4
 79
1
170
1
171
0
172
0
173
0
174
0
175
0
176
0
177
0
178
0
270
2
271
5
272
32
273
2
274
1
275
0
280
0
281
0
282
0
283
1
284
4
285
0
286
0
287
3
288
0
340
11
  0
ENDTAB
  0
ENDSEC
  0
SECTION
  2
BLOCKS
  0
BLOCK
  5
20
100
AcDbEntity
  8
0
100
AcDbBlockBegin
  2
*MODEL_SPACE
 70
0
 10
0.0
 20
0.0
 30
0.0
  3
*MODEL_SPACE
  1

  0
ENDBLK
  5
21
100
AcDbEntity
  8
0
100
AcDbBlockEnd
  0
BLOCK
  5
1C
100
AcDbEntity
  8
0
100
AcDbBlockBegin
  2
*PAPER_SPACE
 70
0
 10
0.0
 20
0.0
 30
0.0
  3
*PAPER_SPACE
  1

  0
ENDBLK
  5
1D
100
AcDbEntity
  8
0
100
AcDbBlockEnd
  0
BLOCK
  5
21A
100
AcDbEntity
  8
___SYMBOL
100
AcDbBlockBegin
 62
2
  6
CONTINUOUS
  2
SCISSORS_BL6
 70
64
 10
30.5434350105
 20
16.0173110332
  3
SCISSORS_BL6
  1

  0
LINE
  5
21B
100
AcDbEntity
  8
___SYMBOL
100
AcDbLine
 62
7
  6
CONTINUOUS
 10
30.4857937438
 20
16.0790095541
 11
30.3737139706
 21
16.6326678558
  0
LINE
  5
21C
100
AcDbEntity
  8
___SYMBOL
100
AcDbLine
 62
7
  6
CONTINUOUS
 10
30.4374140846
 20
16.0495084786
 11
30.3737139706
 21
16.6326678558
  0
LINE
  5
21D
100
AcDbEntity
  8
___SYMBOL
100
AcDbLine
 62
7
  6
CONTINUOUS
 10
30.5130558491
 20
15.9833255621
 11
30.5114882351
 21
16.0341789689
  0
LINE
  5
21E
100
AcDbEntity
  8
___SYMBOL
100
AcDbLine
 62
7
  6
CONTINUOUS
 10
30.5278659364
 20
16.0348589583
 11
30.5294443371
 21
15.9836556276
  0
LINE
  5
21F
100
AcDbEntity
  8
___SYMBOL
100
AcDbLine
 62
7
  6
CONTINUOUS
 10
30.5219478535
 20
16.2122284082
 11
30.7096622431
 21
16.6229323747
  0
LINE
  5
220
100
AcDbEntity
  8
___SYMBOL
100
AcDbLine
 62
7
  6
CONTINUOUS
 10
30.4078390317
 20
15.9539583076
 11
30.4403681256
 21
16.0153708755
  0
LINE
  5
221
100
AcDbEntity
  8
___SYMBOL
100
AcDbLine
 62
7
  6
CONTINUOUS
 10
30.589095099
 20
16.0217770062
 11
30.7096622431
 21
16.407465619
  0
LINE
  5
222
100
AcDbEntity
  8
___SYMBOL
100
AcDbLine
 62
7
  6
CONTINUOUS
 10
30.5597264835
 20
16.1050759404
 11
30.4857937438
 21
16.0790095541
  0
LINE
  5
223
100
AcDbEntity
  8
___SYMBOL
100
AcDbLine
 62
7
  6
CONTINUOUS
 10
30.6137071229
 20
15.951969311
 11
30.5564203211
 21
15.8137047882
  0
LINE
  5
224
100
AcDbEntity
  8
___SYMBOL
100
AcDbLine
 62
7
  6
CONTINUOUS
 10
30.4616807947
 20
15.8182163979
 11
30.5057580699
 21
15.8640155998
  0
LINE
  5
225
100
AcDbEntity
  8
___SYMBOL
100
AcDbLine
 62
7
  6
CONTINUOUS
 10
30.3737139706
 20
16.6326678558
 11
30.6137071229
 21
15.951969311
  0
LINE
  5
226
100
AcDbEntity
  8
___SYMBOL
100
AcDbLine
 62
7
  6
CONTINUOUS
 10
30.4616807947
 20
15.8182163979
 11
30.4078390317
 21
15.9539583076
  0
ARC
  5
227
100
AcDbEntity
  8
___SYMBOL
100
AcDbCircle
 62
7
  6
CONTINUOUS
 10
30.3650282438
 20
16.5151989969
 40
0.3610804262
100
AcDbArc
 50
342.6406360869
 51
17.3593639131
  0
ARC
  5
228
100
AcDbEntity
  8
___SYMBOL
100
AcDbCircle
 62
7
  6
CONTINUOUS
 10
30.7500660533
 20
16.0593666863
 40
0.3128073492
100
AcDbArc
 50
181.8059909349
 51
231.752660067
  0
CIRCLE
  5
229
100
AcDbEntity
  8
___SYMBOL
100
AcDbCircle
 62
7
  6
CONTINUOUS
 10
30.5207360661
 20
16.0090131786
 40
0.0268111801
  0
ARC
  5
22A
100
AcDbEntity
  8
___SYMBOL
100
AcDbCircle
 62
7
  6
CONTINUOUS
 10
30.6801938765
 20
15.6366955812
 40
0.0146088562
100
AcDbArc
 50
185.3133793157
 51
314.0675041521
  0
ARC
  5
22B
100
AcDbEntity
  8
___SYMBOL
100
AcDbCircle
 62
7
  6
CONTINUOUS
 10
30.3455322815
 20
15.6291750119
 40
0.0146087357
100
AcDbArc
 50
233.3109272841
 51
359.4467240969
  0
SPLINE
  5
22C
100
AcDbEntity
  8
___SYMBOL
100
AcDbSpline
 62
7
  6
CONTINUOUS
 70
0
 71
3
 72
12
 73
8
 74
0
 42
0.0000001
 43
0.0000001
 44
0.0000000001
 40
0.0
 40
0.0
 40
0.0
 40
0.0
 40
0.4884256058
 40
0.6683914397
 40
0.8669439281
 40
0.9099489479
 40
1.0
 40
1.0
 40
1.0
 40
1.0
 10
30.6424497484
 20
15.4019542107
 30
0.0
 10
30.6192214001
 20
15.4699974982
 30
0.0
 10
30.614251658
 20
15.5710219647
 30
0.0
 10
30.6158429965
 20
15.6978953903
 30
0.0
 10
30.6109590062
 20
15.7607129039
 30
0.0
 10
30.5924135056
 20
15.8066049674
 30
0.0
 10
30.5694881003
 20
15.8159306705
 30
0.0
 10
30.5564203211
 20
15.8137047882
 30
0.0
  0
SPLINE
  5
22D
100
AcDbEntity
  8
___SYMBOL
100
AcDbSpline
 62
7
  6
CONTINUOUS
 70
0
 71
3
 72
14
 73
10
 74
0
 42
0.0000001
 43
0.0000001
 44
0.0000000001
 40
0.0
 40
0.0
 40
0.0
 40
0.0
 40
0.0469735811
 40
0.2606095073
 40
0.5805460666
 40
0.7382389988
 40
0.8401572415
 40
0.925087268
 40
1.0
 40
1.0
 40
1.0
 40
1.0
 10
30.665647793
 20
15.6353427558
 30
0.0
 10
30.6651733901
 20
15.6404437131
 30
0.0
 10
30.6632149031
 20
15.6688521606
 30
0.0
 10
30.6658989526
 20
15.731392855
 30
0.0
 10
30.6717412344
 20
15.8108763635
 30
0.0
 10
30.6377887109
 20
15.8652755554
 30
0.0
 10
30.6167554548
 20
15.8973364806
 30
0.0
 10
30.6150720126
 20
15.9265168298
 30
0.0
 10
30.6149387797
 20
15.9438926498
 30
0.0
 10
30.6137071229
 20
15.951969311
 30
0.0
  0
SPLINE
  5
22E
100
AcDbEntity
  8
___SYMBOL
100
AcDbSpline
 62
7
  6
CONTINUOUS
 70
0
 71
3
 72
12
 73
8
 74
0
 42
0.0000001
 43
0.0000001
 44
0.0000000001
 40
0.0
 40
0.0
 40
0.0
 40
0.0
 40
0.2870411994
 40
0.5613888029
 40
0.7613462239
 40
0.9013972407
 40
1.0
 40
1.0
 40
1.0
 40
1.0
 10
30.4030177538
 20
15.4406107941
 30
0.0
 10
30.412219243
 20
15.4772979397
 30
0.0
 10
30.4160294336
 20
15.5519924257
 30
0.0
 10
30.4097330322
 20
15.6526498693
 30
0.0
 10
30.4173166762
 20
15.7319940552
 30
0.0
 10
30.4213927064
 20
15.792875226
 30
0.0
 10
30.4491962923
 20
15.8146174213
 30
0.0
 10
30.4616807947
 20
15.8182163979
 30
0.0
  0
SPLINE
  5
22F
100
AcDbEntity
  8
___SYMBOL
100
AcDbSpline
 62
7
  6
CONTINUOUS
 70
0
 71
3
 72
13
 73
9
 74
0
 42
0.0000001
 43
0.0000001
 44
0.0000000001
 40
0.0
 40
0.0
 40
0.0
 40
0.0
 40
0.0902051637
 40
0.4170421866
 40
0.6587388922
 40
0.9356437381
 40
0.9595034934
 40
1.0
 40
1.0
 40
1.0
 40
1.0
 10
30.360140336
 20
15.6290339451
 30
0.0
 10
30.3602366814
 20
15.6390109017
 30
0.0
 10
30.3599518768
 20
15.6850714184
 30
0.0
 10
30.3578297674
 20
15.7588278904
 30
0.0
 10
30.3732177432
 20
15.8492013889
 30
0.0
 10
30.4177823358
 20
15.9075667483
 30
0.0
 10
30.4026501105
 20
15.9425313434
 30
0.0
 10
30.4045947555
 20
15.9508698974
 30
0.0
 10
30.4078390317
 20
15.9539583076
 30
0.0
  0
ELLIPSE
  5
230
100
AcDbEntity
  8
___SYMBOL
100
AcDbEllipse
 62
7
  6
CONTINUOUS
 10
30.7620806893
 20
15.4739708468
 30
0.0
 11
0.0060666775
 21
-0.1237602215
 31
0.0
 40
0.774293327
 41
0.0
 42
6.2831853072
  0
ELLIPSE
  5
231
100
AcDbEntity
  8
___SYMBOL
100
AcDbEllipse
 62
7
  6
CONTINUOUS
 10
30.7620806893
 20
15.4739708468
 30
0.0
 11
-0.0030333388
 21
-0.1844269968
 31
0.0
 40
0.700902774
 41
5.1250505418
 42
10.0362700851
  0
ELLIPSE
  5
232
100
AcDbEntity
  8
___SYMBOL
100
AcDbEllipse
 62
7
  6
CONTINUOUS
 10
30.2705804527
 20
15.4868241381
 30
0.0
 11
0.0151666938
 21
-0.1228502199
 31
0.0
 40
0.7501188416
 41
0.0
 42
6.2831853072
  0
ELLIPSE
  5
233
100
AcDbEntity
  8
___SYMBOL
100
AcDbEllipse
 62
7
  6
CONTINUOUS
 10
30.2728554568
 20
15.4663491014
 30
0.0
 11
0.0022750041
 21
-0.1736586442
 31
0.0
 40
0.7569683881
 41
2.6163261196
 42
7.6953125801
  0
LINE
  5
234
100
AcDbEntity
  8
___SYMBOL
100
AcDbLine
 62
7
  6
CONTINUOUS
 10
30.5122720421
 20
16.0087522655
 11
30.5207360661
 21
16.0090131786
  0
ENDBLK
  5
235
100
AcDbEntity
  8
0
  6
BYBLOCK
 62
0
100
AcDbBlockEnd
  0
BLOCK
  5
236
100
AcDbEntity
  8
___SYMBOL
100
AcDbBlockBegin
 62
2
  6
CONTINUOUS
  2
WHEN_PLOTTING_TEMPLATE_N_BL5
 70
64
 10
26.3535092193
 20
15.2078527594
  3
WHEN_PLOTTING_TEMPLATE_N_BL5
  1

  0
TEXT
  5
237
100
AcDbEntity
  8
___SYMBOL
100
AcDbText
 62
2
  6
CONTINUOUS
 10
23.0410089869
 20
16.4187903444
  7
STANDARD
 40
0.156250011
  1
WHEN PLOTTING TEMPLATE FULL SIZE:
 41
0.8
 72
0
100
AcDbText
  0
TEXT
  5
238
100
AcDbEntity
  8
___SYMBOL
100
AcDbText
 62
2
  6
CONTINUOUS
 10
23.0410089869
 20
16.1844153279
  7
STANDARD
 40
0.156250011
  1
Make sure horizontal and vertical dimensions
 41
0.8
 72
0
100
AcDbText
  0
TEXT
  5
239
100
AcDbEntity
  8
___SYMBOL
100
AcDbText
 62
2
  6
CONTINUOUS
 10
23.0410089869
 20
15.9500403115
  7
STANDARD
 40
0.156250011
  1
match the dimensions labeled on the template.
 41
0.8
 72
0
100
AcDbText
  0
TEXT
  5
23A
100
AcDbEntity
  8
___SYMBOL
100
AcDbText
 62
2
  6
CONTINUOUS
 10
23.0410089869
 20
15.715665295
  7
STANDARD
 40
0.156250011
  1
 
 41
0.8
 72
0
100
AcDbText
  0
TEXT
  5
23B
100
AcDbEntity
  8
___SYMBOL
100
AcDbText
 62
2
  6
CONTINUOUS
 10
23.0410089869
 20
15.4812902786
  7
STANDARD
 40
0.156250011
  1
AL TRAZAR LA PLANTILLA A ESCALA,
 41
0.8
 72
0
100
AcDbText
  0
TEXT
  5
23C
100
AcDbEntity
  8
___SYMBOL
100
AcDbText
 62
2
  6
CONTINUOUS
 10
23.0410089869
 20
15.2469152622
  7
STANDARD
 40
0.156250011
  1
asegúrese de que las dimensiones horizontales
 41
0.8
 72
0
100
AcDbText
  0
TEXT
  5
23D
100
AcDbEntity
  8
___SYMBOL
100
AcDbText
 62
2
  6
CONTINUOUS
 10
23.0410089869
 20
15.0125402457
  7
STANDARD
 40
0.156250011
  1
y verticales concuerden con las dimensiones marcadas
 41
0.8
 72
0
100
AcDbText
  0
TEXT
  5
23E
100
AcDbEntity
  8
___SYMBOL
100
AcDbText
 62
2
  6
CONTINUOUS
 10
23.0410089869
 20
14.7781652293
  7
STANDARD
 40
0.156250011
  1
en la plantilla.
 41
0.8
 72
0
100
AcDbText
  0
TEXT
  5
23F
100
AcDbEntity
  8
___SYMBOL
100
AcDbText
 62
2
  6
CONTINUOUS
 10
23.0410089869
 20
14.5437902128
  7
STANDARD
 40
0.156250011
  1
 
 41
0.8
 72
0
100
AcDbText
  0
TEXT
  5
240
100
AcDbEntity
  8
___SYMBOL
100
AcDbText
 62
2
  6
CONTINUOUS
 10
23.0410089869
 20
14.3094151964
  7
STANDARD
 40
0.156250011
  1
AU MOMENT DE TRACER LA DÉCOUPE À L'ÉCHELLE,
 41
0.8
 72
0
100
AcDbText
  0
TEXT
  5
241
100
AcDbEntity
  8
___SYMBOL
100
AcDbText
 62
2
  6
CONTINUOUS
 10
23.0410089869
 20
14.0750401799
  7
STANDARD
 40
0.156250011
  1
Assurez vos que les dimensions horizotales et
 41
0.8
 72
0
100
AcDbText
  0
TEXT
  5
242
100
AcDbEntity
  8
___SYMBOL
100
AcDbText
 62
2
  6
CONTINUOUS
 10
23.0410089869
 20
13.8406651635
  7
STANDARD
 40
0.156250011
  1
verticales correspondent avec les dimensions du plan.
 41
0.8
 72
0
100
AcDbText
  0
ENDBLK
  5
243
100
AcDbEntity
  8
0
  6
BYBLOCK
 62
0
100
AcDbBlockEnd
  0
BLOCK
  5
244
100
AcDbEntity
  8
___SYMBOL
100
AcDbBlockBegin
 62
2
  6
CONTINUOUS
  2
TEMPLATE_NUMBER_BL4
 70
64
 10
16.9980586738
 20
10.1668075668
  3
TEMPLATE_NUMBER_BL4
  1

  0
TEXT
  5
245
100
AcDbEntity
  8
___SYMBOL
100
AcDbText
 62
2
  6
CONTINUOUS
 10
16.3105586738
 20
10.0886825668
  7
STANDARD
 40
0.15625
  1
1281904-7
 41
0.8
 72
0
100
AcDbText
  0
TEXT
  5
246
100
AcDbEntity
  8
___SYMBOL
100
AcDbText
 62
2
  6
CONTINUOUS
 10
17.4355586738
 20
10.0886825668
  7
STANDARD
 40
0.15625
  1
-B
 41
0.8
 72
0
100
AcDbText
  0
ENDBLK
  5
247
100
AcDbEntity
  8
0
  6
BYBLOCK
 62
0
100
AcDbBlockEnd
  0
BLOCK
  5
248
100
AcDbEntity
  8
___SYMBOL
100
AcDbBlockBegin
 62
2
  6
CONTINUOUS
  2
TEMPLATE_NUMBER_BL3
 70
64
 10
17.0458519968
 20
13.0871182318
  3
TEMPLATE_NUMBER_BL3
  1

  0
TEXT
  5
249
100
AcDbEntity
  8
___SYMBOL
100
AcDbText
 62
2
  6
CONTINUOUS
 10
16.3583519968
 20
13.0089932318
  7
STANDARD
 40
0.15625
  1
1281904-7
 41
0.8
 72
0
100
AcDbText
  0
TEXT
  5
24A
100
AcDbEntity
  8
___SYMBOL
100
AcDbText
 62
2
  6
CONTINUOUS
 10
17.4833519968
 20
13.0089932318
  7
STANDARD
 40
0.15625
  1
-B
 41
0.8
 72
0
100
AcDbText
  0
ENDBLK
  5
24B
100
AcDbEntity
  8
0
  6
BYBLOCK
 62
0
100
AcDbBlockEnd
  0
BLOCK
  5
24C
100
AcDbEntity
  8
___SYMBOL
100
AcDbBlockBegin
 62
2
  6
CONTINUOUS
  2
COPYRIGHT_YEAR_BL2
 70
64
 10
25.6810537735
 20
13.2372576418
  3
COPYRIGHT_YEAR_BL2
  1

  0
TEXT
  5
24D
100
AcDbEntity
  8
___SYMBOL
100
AcDbText
 62
2
  6
CONTINUOUS
 10
24.9084709581
 20
13.1620309974
  7
STANDARD
 40
0.15625
  1
2020 KOHLER CO.
 41
0.8
 72
0
100
AcDbText
  0
TEXT
  5
24E
100
AcDbEntity
  8
___SYMBOL
100
AcDbText
 62
7
  6
CONTINUOUS
 10
24.6387371643
 20
13.1603000121
  7
TEXTSTYLE_2
 40
0.15625
  1
C
 41
1.0
 72
0
100
AcDbText
  0
CIRCLE
  5
24F
100
AcDbEntity
  8
___SYMBOL
100
AcDbCircle
 62
7
  6
CONTINUOUS
 10
24.7117967149
 20
13.2372576418
 40
0.133160126
  0
ENDBLK
  5
250
100
AcDbEntity
  8
0
  6
BYBLOCK
 62
0
100
AcDbBlockEnd
  0
BLOCK
  5
251
100
AcDbEntity
  8
___SYMBOL
100
AcDbBlockBegin
 62
2
  6
CONTINUOUS
  2
LAV_UC_INSTALLATION_BL1
 70
64
 10
24.6077923722
 20
22.4872478379
  3
LAV_UC_INSTALLATION_BL1
  1

  0
TEXT
  5
252
100
AcDbEntity
  8
___SYMBOL
100
AcDbText
 62
2
  6
CONTINUOUS
 10
25.3699594433
 20
21.6815564884
  7
STANDARD
 40
0.15625
  1
WOOD
 41
0.8
 72
0
100
AcDbText
  0
TEXT
  5
253
100
AcDbEntity
  8
___SYMBOL
100
AcDbText
 62
2
  6
CONTINUOUS
 10
25.3699594433
 20
21.4471814884
  7
STANDARD
 40
0.15625
  1
BOIS
 41
0.8
 72
0
100
AcDbText
  0
TEXT
  5
254
100
AcDbEntity
  8
___SYMBOL
100
AcDbText
 62
2
  6
CONTINUOUS
 10
25.2449594433
 20
21.2128064884
  7
STANDARD
 40
0.15625
  1
MADERA
 41
0.8
 72
0
100
AcDbText
  0
TEXT
  5
255
100
AcDbEntity
  8
___SYMBOL
100
AcDbText
 62
2
  6
CONTINUOUS
 10
23.0902778682
 20
22.4681781809
  7
STANDARD
 40
0.15625
  1
20/32"
 41
0.8
 72
0
100
AcDbText
  0
TEXT
  5
256
100
AcDbEntity
  8
___SYMBOL
100
AcDbText
 62
2
  6
CONTINUOUS
 10
23.0902778682
 20
22.2338031809
  7
STANDARD
 40
0.15625
  1
16mm
 41
0.8
 72
0
100
AcDbText
  0
TEXT
  5
257
100
AcDbEntity
  8
___SYMBOL
100
AcDbText
 62
2
  6
CONTINUOUS
 10
22.1544915848
 20
21.6672136412
  7
STANDARD
 40
0.15625
  1
MARBLE
 41
0.8
 72
0
100
AcDbText
  0
TEXT
  5
258
100
AcDbEntity
  8
___SYMBOL
100
AcDbText
 62
2
  6
CONTINUOUS
 10
22.1544915848
 20
21.4328386412
  7
STANDARD
 40
0.15625
  1
MARBRE 
 41
0.8
 72
0
100
AcDbText
  0
TEXT
  5
259
100
AcDbEntity
  8
___SYMBOL
100
AcDbText
 62
2
  6
CONTINUOUS
 10
22.1544915848
 20
21.1984636412
  7
STANDARD
 40
0.15625
  1
MÁRMOL
 41
0.8
 72
0
100
AcDbText
  0
TEXT
  5
25A
100
AcDbEntity
  8
___SYMBOL
100
AcDbText
 62
2
  6
CONTINUOUS
 10
23.2827834457
 20
21.1045931326
  7
STANDARD
 40
0.15625
  1
INSTALLATION
 41
0.8
 72
0
100
AcDbText
  0
TEXT
  5
25B
100
AcDbEntity
  8
___SYMBOL
100
AcDbText
 62
2
  6
CONTINUOUS
 10
23.2827834457
 20
20.8702181326
  7
STANDARD
 40
0.15625
  1
INSTALLATION
 41
0.8
 72
0
100
AcDbText
  0
TEXT
  5
25C
100
AcDbEntity
  8
___SYMBOL
100
AcDbText
 62
2
  6
CONTINUOUS
 10
23.2827834457
 20
20.6358431326
  7
STANDARD
 40
0.15625
  1
INSTALACIÓN
 41
0.8
 72
0
100
AcDbText
  0
TEXT
  5
25D
100
AcDbEntity
  8
___SYMBOL
100
AcDbText
 62
2
  6
CONTINUOUS
 10
25.5119847463
 20
24.1824025433
  7
STANDARD
 40
0.15625
  1
SEALANT
 41
0.8
 72
0
100
AcDbText
  0
TEXT
  5
25E
100
AcDbEntity
  8
___SYMBOL
100
AcDbText
 62
2
  6
CONTINUOUS
 10
25.5119847463
 20
23.9480275433
  7
STANDARD
 40
0.15625
  1
MASTIC D'ÉCHANTÉITÉ 
 41
0.8
 72
0
100
AcDbText
  0
TEXT
  5
25F
100
AcDbEntity
  8
___SYMBOL
100
AcDbText
 62
2
  6
CONTINUOUS
 10
25.5119847463
 20
23.7136525433
  7
STANDARD
 40
0.15625
  1
SELLADOR
 41
0.8
 72
0
100
AcDbText
  0
TEXT
  5
260
100
AcDbEntity
  8
___SYMBOL
100
AcDbText
 62
2
  6
CONTINUOUS
 10
21.7172627239
 20
24.172592882
  7
STANDARD
 40
0.15625
  1
SEALANT
 41
0.8
 72
0
100
AcDbText
  0
TEXT
  5
261
100
AcDbEntity
  8
___SYMBOL
100
AcDbText
 62
2
  6
CONTINUOUS
 10
21.7172627239
 20
23.938217882
  7
STANDARD
 40
0.15625
  1
MASTIC D'ÉCHANTÉITÉ
 41
0.8
 72
0
100
AcDbText
  0
TEXT
  5
262
100
AcDbEntity
  8
___SYMBOL
100
AcDbText
 62
2
  6
CONTINUOUS
 10
21.7172627239
 20
23.703842882
  7
STANDARD
 40
0.15625
  1
SELLADOR
 41
0.8
 72
0
100
AcDbText
  0
TEXT
  5
263
100
AcDbEntity
  8
___SYMBOL
100
AcDbText
 62
2
  6
CONTINUOUS
 10
23.3491685809
 20
23.1747717126
  7
TEXTSTYLE_1
 40
0.15625
  1
n
 41
1.0
 72
0
100
AcDbText
  0
TEXT
  5
264
100
AcDbEntity
  8
___SYMBOL
100
AcDbText
 62
2
  6
CONTINUOUS
 10
23.5575019143
 20
23.1747717126
  7
STANDARD
 40
0.15625
  1
12/32"
 41
0.8
 72
0
100
AcDbText
  0
TEXT
  5
265
100
AcDbEntity
  8
___SYMBOL
100
AcDbText
 62
2
  6
CONTINUOUS
 10
23.3491685809
 20
22.9403967126
  7
TEXTSTYLE_1
 40
0.15625
  1
n
 41
1.0
 72
0
100
AcDbText
  0
TEXT
  5
266
100
AcDbEntity
  8
___SYMBOL
100
AcDbText
 62
2
  6
CONTINUOUS
 10
23.5575019143
 20
22.9403967126
  7
STANDARD
 40
0.15625
  1
10mm
 41
0.8
 72
0
100
AcDbText
  0
LINE
  5
267
100
AcDbEntity
  8
___SYMBOL
100
AcDbLine
 62
2
  6
CONTINUOUS
 10
21.9334336959
 20
21.7604084942
 11
21.9417336959
 21
21.7521084942
  0
LINE
  5
268
100
AcDbEntity
  8
___SYMBOL
100
AcDbLine
 62
2
  6
CONTINUOUS
 10
21.8228240413
 20
21.8515737542
 11
21.8338840413
 21
21.8404737542
  0
LINE
  5
269
100
AcDbEntity
  8
___SYMBOL
100
AcDbLine
 62
2
  6
CONTINUOUS
 10
21.9306205231
 20
21.7713934408
 11
21.9334205231
 21
21.7604134408
  0
LINE
  5
26A
100
AcDbEntity
  8
___SYMBOL
100
AcDbLine
 62
2
  6
CONTINUOUS
 10
21.9555200932
 20
21.7465156996
 11
21.9582600932
 21
21.7355356996
  0
LINE
  5
26B
100
AcDbEntity
  8
___SYMBOL
100
AcDbLine
 62
2
  6
CONTINUOUS
 10
21.8781240413
 20
21.8377937542
 11
21.8808840413
 21
21.8266737542
  0
LINE
  5
26C
100
AcDbEntity
  8
___SYMBOL
100
AcDbLine
 62
2
  6
CONTINUOUS
 10
21.7868840413
 20
22.8228337542
 11
21.7868840413
 21
22.4147537542
  0
LINE
  5
26D
100
AcDbEntity
  8
___SYMBOL
100
AcDbLine
 62
2
  6
CONTINUOUS
 10
21.8781240413
 20
21.8156937542
 11
21.8781240413
 21
21.8045737542
  0
LINE
  5
26E
100
AcDbEntity
  8
___SYMBOL
100
AcDbLine
 62
2
  6
CONTINUOUS
 10
21.9361840413
 20
21.8017737542
 11
21.9361840413
 21
21.7824937542
  0
LINE
  5
26F
100
AcDbEntity
  8
___SYMBOL
100
AcDbLine
 62
2
  6
CONTINUOUS
 10
22.1546240413
 20
22.0672737542
 11
22.1546240413
 21
22.1280737542
  0
LINE
  5
270
100
AcDbEntity
  8
___SYMBOL
100
AcDbLine
 62
2
  6
CONTINUOUS
 10
22.4974640413
 20
23.0349337542
 11
22.4974640413
 21
22.6755537542
  0
LINE
  5
271
100
AcDbEntity
  8
___SYMBOL
100
AcDbLine
 62
2
  6
CONTINUOUS
 10
22.4974640413
 20
22.6450337542
 11
22.4974640413
 21
22.3547537542
  0
LINE
  5
272
100
AcDbEntity
  8
___SYMBOL
100
AcDbLine
 62
2
  6
CONTINUOUS
 10
22.5361440413
 20
22.1280737542
 11
22.5361440413
 21
22.0672737542
  0
LINE
  5
273
100
AcDbEntity
  8
___SYMBOL
100
AcDbLine
 62
2
  6
CONTINUOUS
 10
22.5582440413
 20
22.0672737542
 11
22.5582440413
 21
22.5980337542
  0
LINE
  5
274
100
AcDbEntity
  8
___SYMBOL
100
AcDbLine
 62
2
  6
CONTINUOUS
 10
22.5897514719
 20
22.0410524767
 11
22.5897514719
 21
22.026821438
  0
LINE
  5
275
100
AcDbEntity
  8
___SYMBOL
100
AcDbLine
 62
2
  6
CENTER
 10
22.5983440413
 20
22.6969137542
 11
22.5983440413
 21
21.8807334957
  0
LINE
  5
276
100
AcDbEntity
  8
___SYMBOL
100
AcDbLine
 62
2
  6
CONTINUOUS
 10
22.6069366108
 20
22.0269576907
 11
22.6069366108
 21
22.0410524767
  0
LINE
  5
277
100
AcDbEntity
  8
___SYMBOL
100
AcDbLine
 62
2
  6
CONTINUOUS
 10
22.6411840413
 20
22.0672737542
 11
22.6411840413
 21
22.5980337542
  0
LINE
  5
278
100
AcDbEntity
  8
___SYMBOL
100
AcDbLine
 62
2
  6
CONTINUOUS
 10
22.6632840413
 20
22.1280737542
 11
22.6632840413
 21
22.0672737542
  0
LINE
  5
279
100
AcDbEntity
  8
___SYMBOL
100
AcDbLine
 62
2
  6
CONTINUOUS
 10
22.6937440413
 20
23.0349337542
 11
22.6937440413
 21
22.6755537542
  0
LINE
  5
27A
100
AcDbEntity
  8
___SYMBOL
100
AcDbLine
 62
2
  6
CONTINUOUS
 10
22.6937440413
 20
22.3547537542
 11
22.6937440413
 21
22.6450337542
  0
LINE
  5
27B
100
AcDbEntity
  8
___SYMBOL
100
AcDbLine
 62
2
  6
CONTINUOUS
 10
21.8808840413
 20
21.8266737542
 11
21.8781240413
 21
21.8156937542
  0
LINE
  5
27C
100
AcDbEntity
  8
___SYMBOL
100
AcDbLine
 62
2
  6
CONTINUOUS
 10
21.9789807577
 20
22.283987187
 11
21.9683198652
 21
22.2546932591
  0
LINE
  5
27D
100
AcDbEntity
  8
___SYMBOL
100
AcDbLine
 62
2
  6
CONTINUOUS
 10
21.976569505
 20
22.2730745084
 11
21.8177976862
 21
21.8377937542
  0
LINE
  5
27E
100
AcDbEntity
  8
___SYMBOL
100
AcDbLine
 62
2
  6
CONTINUOUS
 10
21.8338840413
 20
21.8404737542
 11
21.8476640413
 21
21.8377937542
  0
LINE
  5
27F
100
AcDbEntity
  8
___SYMBOL
100
AcDbLine
 62
2
  6
CONTINUOUS
 10
21.9251240413
 20
21.8045737542
 11
21.9361840413
 21
21.8017737542
  0
LINE
  5
280
100
AcDbEntity
  8
___SYMBOL
100
AcDbLine
 62
2
  6
CONTINUOUS
 10
21.9417336959
 20
21.7521084942
 11
21.9555336959
 21
21.7464884942
  0
LINE
  5
281
100
AcDbEntity
  8
___SYMBOL
100
AcDbLine
 62
2
  6
CONTINUOUS
 10
21.8781240413
 20
21.8045737542
 11
21.8891840413
 21
21.7990937542
  0
LINE
  5
282
100
AcDbEntity
  8
___SYMBOL
100
AcDbLine
 62
2
  6
CONTINUOUS
 10
22.8789840413
 20
22.5123537542
 11
22.8706840413
 21
22.5206537542
  0
LINE
  5
283
100
AcDbEntity
  8
___SYMBOL
100
AcDbLine
 62
2
  6
CONTINUOUS
 10
22.9314840413
 20
22.3547537542
 11
22.9038240413
 21
22.3990737542
  0
LINE
  5
284
100
AcDbEntity
  8
___SYMBOL
100
AcDbLine
 62
2
  6
CONTINUOUS
 10
22.8872840413
 20
22.4874537542
 11
22.8817240413
 21
22.4985537542
  0
LINE
  5
285
100
AcDbEntity
  8
___SYMBOL
100
AcDbLine
 62
2
  6
CONTINUOUS
 10
22.8706840413
 20
22.5206537542
 11
22.8623840413
 21
22.5427337542
  0
LINE
  5
286
100
AcDbEntity
  8
___SYMBOL
100
AcDbLine
 62
2
  6
CONTINUOUS
 10
22.6411840413
 20
22.5980337542
 11
22.6274040413
 21
22.6450337542
  0
LINE
  5
287
100
AcDbEntity
  8
___SYMBOL
100
AcDbLine
 62
2
  6
CONTINUOUS
 10
22.9038240413
 20
22.3990737542
 11
22.8927840413
 21
22.4460537542
  0
LINE
  5
288
100
AcDbEntity
  8
___SYMBOL
100
AcDbLine
 62
2
  6
CONTINUOUS
 10
22.8817240413
 20
22.4985537542
 11
22.8789840413
 21
22.5123537542
  0
LINE
  5
289
100
AcDbEntity
  8
___SYMBOL
100
AcDbLine
 62
2
  6
CONTINUOUS
 10
22.8927840413
 20
22.4570537542
 11
22.8872840413
 21
22.4874537542
  0
LINE
  5
28A
100
AcDbEntity
  8
___SYMBOL
100
AcDbLine
 62
2
  6
CONTINUOUS
 10
22.8070840413
 20
22.1780737542
 11
22.8070840413
 21
22.3547537542
  0
LINE
  5
28B
100
AcDbEntity
  8
___SYMBOL
100
AcDbLine
 62
2
  6
CONTINUOUS
 10
22.8679440413
 20
22.3547537542
 11
22.8679440413
 21
22.1672737542
  0
LINE
  5
28C
100
AcDbEntity
  8
___SYMBOL
100
AcDbLine
 62
2
  6
CONTINUOUS
 10
22.8900240413
 20
22.6395337542
 11
22.8900240413
 21
22.6506537542
  0
LINE
  5
28D
100
AcDbEntity
  8
___SYMBOL
100
AcDbLine
 62
2
  6
CONTINUOUS
 10
22.8927840413
 20
22.4460537542
 11
22.8927840413
 21
22.4570537542
  0
LINE
  5
28E
100
AcDbEntity
  8
___SYMBOL
100
AcDbLine
 62
2
  6
CONTINUOUS
 10
22.9121240413
 20
22.7086337542
 11
22.9121240413
 21
22.8220337542
  0
LINE
  5
28F
100
AcDbEntity
  8
___SYMBOL
100
AcDbLine
 62
2
  6
CONTINUOUS
 10
22.9259840413
 20
22.8552337542
 11
22.9259840413
 21
22.8718337542
  0
LINE
  5
290
100
AcDbEntity
  8
___SYMBOL
100
AcDbLine
 62
2
  6
CONTINUOUS
 10
23.0116840413
 20
22.6478537542
 11
23.0116840413
 21
22.3575537542
  0
LINE
  5
291
100
AcDbEntity
  8
___SYMBOL
100
AcDbLine
 62
2
  6
CONTINUOUS
 10
22.8623840413
 20
22.5427337542
 11
22.8679440413
 21
22.5842537542
  0
LINE
  5
292
100
AcDbEntity
  8
___SYMBOL
100
AcDbLine
 62
2
  6
CONTINUOUS
 10
22.9121240413
 20
22.8220337542
 11
22.9149440413
 21
22.8330337542
  0
LINE
  5
293
100
AcDbEntity
  8
___SYMBOL
100
AcDbLine
 62
2
  6
CONTINUOUS
 10
22.5582440413
 20
22.5980337542
 11
22.5721040413
 21
22.6450337542
  0
LINE
  5
294
100
AcDbEntity
  8
___SYMBOL
100
AcDbLine
 62
2
  6
PHANTOM
 10
21.9582600932
 20
21.7355493023
 11
22.0862258881
 21
22.0860767718
  0
LINE
  5
295
100
AcDbEntity
  8
___SYMBOL
100
AcDbLine
 62
2
  6
CONTINUOUS
 10
22.8900240413
 20
22.6506537542
 11
22.9121240413
 21
22.7086337542
  0
LINE
  5
296
100
AcDbEntity
  8
___SYMBOL
100
AcDbLine
 62
2
  6
CONTINUOUS
 10
22.8679440413
 20
22.5842537542
 11
22.8900240413
 21
22.6395337542
  0
LINE
  5
297
100
AcDbEntity
  8
___SYMBOL
100
AcDbLine
 62
2
  6
CONTINUOUS
 10
22.9149440413
 20
22.8330337542
 11
22.9259840413
 21
22.8552337542
  0
LINE
  5
298
100
AcDbEntity
  8
___SYMBOL
100
AcDbLine
 62
2
  6
CONTINUOUS
 10
21.9361840413
 20
21.7824937542
 11
21.9306240413
 21
21.7713737542
  0
LINE
  5
299
100
AcDbEntity
  8
___SYMBOL
100
AcDbLine
 62
2
  6
CONTINUOUS
 10
22.9259840413
 20
22.8718337542
 11
22.9314840413
 21
22.8828337542
  0
LINE
  5
29A
100
AcDbEntity
  8
___SYMBOL
100
AcDbLine
 62
2
  6
PHANTOM
 10
22.4154003656
 20
22.3084708357
 11
22.341261468
 21
22.1611079172
  0
LINE
  5
29B
100
AcDbEntity
  8
___SYMBOL
100
AcDbLine
 62
2
  6
CONTINUOUS
 10
21.8891840413
 20
21.7990937542
 11
21.9140840413
 21
21.7990937542
  0
LINE
  5
29C
100
AcDbEntity
  8
___SYMBOL
100
AcDbLine
 62
2
  6
CONTINUOUS
 10
24.8278180134
 20
21.8355630461
 11
24.8526580134
 21
21.8355630461
  0
LINE
  5
29D
100
AcDbEntity
  8
___SYMBOL
100
AcDbLine
 62
2
  6
CONTINUOUS
 10
21.8476640413
 20
21.8377937542
 11
21.8781240413
 21
21.8377937542
  0
LINE
  5
29E
100
AcDbEntity
  8
___SYMBOL
100
AcDbLine
 62
2
  6
CONTINUOUS
 10
24.7863180134
 20
21.8742630461
 11
24.8167780134
 21
21.8742630461
  0
LINE
  5
29F
100
AcDbEntity
  8
___SYMBOL
100
AcDbLine
 62
2
  6
CONTINUOUS
 10
25.528405444
 20
22.0774511396
 11
25.5455905829
 21
22.0774511396
  0
LINE
  5
2A0
100
AcDbEntity
  8
___SYMBOL
100
AcDbLine
 62
2
  6
CONTINUOUS
 10
22.5897514719
 20
22.0410524767
 11
22.6069366108
 21
22.0410524767
  0
LINE
  5
2A1
100
AcDbEntity
  8
___SYMBOL
100
AcDbLine
 62
2
  6
CONTINUOUS
 10
22.7679440413
 20
22.0672737542
 11
22.1546240413
 21
22.0672737542
  0
LINE
  5
2A2
100
AcDbEntity
  8
___SYMBOL
100
AcDbLine
 62
2
  6
CONTINUOUS
 10
25.0931980134
 20
22.1037430461
 11
25.6965180134
 21
22.1037430461
  0
LINE
  5
2A3
100
AcDbEntity
  8
___SYMBOL
100
AcDbLine
 62
2
  6
CONTINUOUS
 10
22.5734440413
 20
22.0741137542
 11
22.6245840413
 21
22.0741137542
  0
LINE
  5
2A4
100
AcDbEntity
  8
___SYMBOL
100
AcDbLine
 62
2
  6
CONTINUOUS
 10
22.5582440413
 20
22.0907137542
 11
22.6411840413
 21
22.0907137542
  0
LINE
  5
2A5
100
AcDbEntity
  8
___SYMBOL
100
AcDbLine
 62
2
  6
CONTINUOUS
 10
22.5734440413
 20
22.1086537542
 11
22.6245840413
 21
22.1086537542
  0
LINE
  5
2A6
100
AcDbEntity
  8
___SYMBOL
100
AcDbLine
 62
2
  6
CONTINUOUS
 10
25.6957380134
 20
22.1645430461
 11
25.5798380134
 21
22.1645430461
  0
LINE
  5
2A7
100
AcDbEntity
  8
___SYMBOL
100
AcDbLine
 62
2
  6
CONTINUOUS
 10
22.1463489561
 20
22.1280737542
 11
22.7570840413
 21
22.1280737542
  0
LINE
  5
2A8
100
AcDbEntity
  8
___SYMBOL
100
AcDbLine
 62
2
  6
PHANTOM
 10
25.0856143603
 20
22.1645430461
 11
25.2263165256
 21
22.1645430461
  0
LINE
  5
2A9
100
AcDbEntity
  8
___SYMBOL
100
AcDbLine
 62
2
  6
CONTINUOUS
 10
22.5734440413
 20
22.1446737542
 11
22.6245840413
 21
22.1446737542
  0
LINE
  5
2AA
100
AcDbEntity
  8
___SYMBOL
100
AcDbLine
 62
2
  6
CONTINUOUS
 10
22.6411840413
 20
22.1639537542
 11
22.5582440413
 21
22.1639537542
  0
LINE
  5
2AB
100
AcDbEntity
  8
___SYMBOL
100
AcDbLine
 62
2
  6
CONTINUOUS
 10
22.5734440413
 20
22.1805537542
 11
22.6245840413
 21
22.1805537542
  0
LINE
  5
2AC
100
AcDbEntity
  8
___SYMBOL
100
AcDbLine
 62
2
  6
CONTINUOUS
 10
22.5582440413
 20
22.1984937542
 11
22.6411840413
 21
22.1984937542
  0
LINE
  5
2AD
100
AcDbEntity
  8
___SYMBOL
100
AcDbLine
 62
2
  6
CONTINUOUS
 10
22.5734440413
 20
22.2165737542
 11
22.6245840413
 21
22.2165737542
  0
LINE
  5
2AE
100
AcDbEntity
  8
___SYMBOL
100
AcDbLine
 62
2
  6
CONTINUOUS
 10
22.5582440413
 20
22.2345137542
 11
22.6411840413
 21
22.2345137542
  0
LINE
  5
2AF
100
AcDbEntity
  8
___SYMBOL
100
AcDbLine
 62
2
  6
CONTINUOUS
 10
25.4968980134
 20
22.2709830461
 11
25.5798380134
 21
22.2709830461
  0
LINE
  5
2B0
100
AcDbEntity
  8
___SYMBOL
100
AcDbLine
 62
2
  6
CONTINUOUS
 10
22.5734440413
 20
22.2511137542
 11
22.6245840413
 21
22.2511137542
  0
LINE
  5
2B1
100
AcDbEntity
  8
___SYMBOL
100
AcDbLine
 62
2
  6
CONTINUOUS
 10
25.5120780134
 20
22.2875830461
 11
25.5632380134
 21
22.2875830461
  0
LINE
  5
2B2
100
AcDbEntity
  8
___SYMBOL
100
AcDbLine
 62
2
  6
CONTINUOUS
 10
22.5582440413
 20
22.2718737542
 11
22.6411840413
 21
22.2718737542
  0
LINE
  5
2B3
100
AcDbEntity
  8
___SYMBOL
100
AcDbLine
 62
2
  6
CONTINUOUS
 10
25.4968980134
 20
22.3083430461
 11
25.5798380134
 21
22.3083430461
  0
LINE
  5
2B4
100
AcDbEntity
  8
___SYMBOL
100
AcDbLine
 62
2
  6
CONTINUOUS
 10
22.5734440413
 20
22.2884737542
 11
22.6245840413
 21
22.2884737542
  0
LINE
  5
2B5
100
AcDbEntity
  8
___SYMBOL
100
AcDbLine
 62
2
  6
CONTINUOUS
 10
25.5120780134
 20
22.3249430461
 11
25.5632380134
 21
22.3249430461
  0
LINE
  5
2B6
100
AcDbEntity
  8
___SYMBOL
100
AcDbLine
 62
2
  6
CONTINUOUS
 10
22.5582440413
 20
22.3077537542
 11
22.6411840413
 21
22.3077537542
  0
LINE
  5
2B7
100
AcDbEntity
  8
___SYMBOL
100
AcDbLine
 62
2
  6
CONTINUOUS
 10
25.4968980134
 20
22.3442230461
 11
25.5798380134
 21
22.3442230461
  0
LINE
  5
2B8
100
AcDbEntity
  8
___SYMBOL
100
AcDbLine
 62
2
  6
CONTINUOUS
 10
22.5734440413
 20
22.3243537542
 11
22.6245840413
 21
22.3243537542
  0
LINE
  5
2B9
100
AcDbEntity
  8
___SYMBOL
100
AcDbLine
 62
2
  6
CONTINUOUS
 10
25.5120780134
 20
22.3608230461
 11
25.5632380134
 21
22.3608230461
  0
LINE
  5
2BA
100
AcDbEntity
  8
___SYMBOL
100
AcDbLine
 62
2
  6
CONTINUOUS
 10
22.5582440413
 20
22.3437737542
 11
22.6411840413
 21
22.3437737542
  0
LINE
  5
2BB
100
AcDbEntity
  8
___SYMBOL
100
AcDbLine
 62
2
  6
CONTINUOUS
 10
25.4968980134
 20
22.3802430461
 11
25.5798380134
 21
22.3802430461
  0
LINE
  5
2BC
100
AcDbEntity
  8
___SYMBOL
100
AcDbLine
 62
2
  6
PHANTOM
 10
21.9168240413
 20
22.3519537542
 11
22.5582440413
 21
22.3519537542
  0
LINE
  5
2BD
100
AcDbEntity
  8
___SYMBOL
100
AcDbLine
 62
2
  6
PHANTOM
 10
24.8562580134
 20
22.3884230461
 11
25.0303980134
 21
22.3884230461
  0
LINE
  5
2BE
100
AcDbEntity
  8
___SYMBOL
100
AcDbLine
 62
2
  6
PHANTOM
 10
25.0314564981
 20
22.3884230461
 11
25.3272548805
 21
22.3884230461
  0
LINE
  5
2BF
100
AcDbEntity
  8
___SYMBOL
100
AcDbLine
 62
2
  6
CONTINUOUS
 10
22.6411840413
 20
22.3547537542
 11
22.9314840413
 21
22.3547537542
  0
LINE
  5
2C0
100
AcDbEntity
  8
___SYMBOL
100
AcDbLine
 62
2
  6
PHANTOM
 10
24.7255180134
 20
22.3912230461
 11
25.4968980134
 21
22.3912230461
  0
LINE
  5
2C1
100
AcDbEntity
  8
___SYMBOL
100
AcDbLine
 62
2
  6
PHANTOM
 10
25.5798380134
 20
22.3912230461
 11
25.7457380134
 21
22.3912230461
  0
LINE
  5
2C2
100
AcDbEntity
  8
___SYMBOL
100
AcDbLine
 62
2
  6
CONTINUOUS
 10
22.9508240413
 20
22.3575537542
 11
23.0586640413
 21
22.3575537542
  0
LINE
  5
2C3
100
AcDbEntity
  8
___SYMBOL
100
AcDbLine
 62
2
  6
CONTINUOUS
 10
22.5734440413
 20
22.3617137542
 11
22.6245840413
 21
22.3617137542
  0
LINE
  5
2C4
100
AcDbEntity
  8
___SYMBOL
100
AcDbLine
 62
2
  6
CONTINUOUS
 10
25.5120780134
 20
22.3981830461
 11
25.5632380134
 21
22.3981830461
  0
LINE
  5
2C5
100
AcDbEntity
  8
___SYMBOL
100
AcDbLine
 62
2
  6
CONTINUOUS
 10
22.5582440413
 20
22.3796537542
 11
22.6411840413
 21
22.3796537542
  0
LINE
  5
2C6
100
AcDbEntity
  8
___SYMBOL
100
AcDbLine
 62
2
  6
CONTINUOUS
 10
25.4968980134
 20
22.4161230461
 11
25.5798380134
 21
22.4161230461
  0
LINE
  5
2C7
100
AcDbEntity
  8
___SYMBOL
100
AcDbLine
 62
2
  6
CONTINUOUS
 10
22.5734440413
 20
22.3990737542
 11
22.6245840413
 21
22.3990737542
  0
LINE
  5
2C8
100
AcDbEntity
  8
___SYMBOL
100
AcDbLine
 62
2
  6
CONTINUOUS
 10
25.5120780134
 20
22.4355430461
 11
25.5632380134
 21
22.4355430461
  0
LINE
  5
2C9
100
AcDbEntity
  8
___SYMBOL
100
AcDbLine
 62
2
  6
CONTINUOUS
 10
22.5582440413
 20
22.4183537542
 11
22.6411840413
 21
22.4183537542
  0
LINE
  5
2CA
100
AcDbEntity
  8
___SYMBOL
100
AcDbLine
 62
2
  6
CONTINUOUS
 10
25.4968980134
 20
22.4548230461
 11
25.5798380134
 21
22.4548230461
  0
LINE
  5
2CB
100
AcDbEntity
  8
___SYMBOL
100
AcDbLine
 62
2
  6
CONTINUOUS
 10
22.5734440413
 20
22.4349537542
 11
22.6245840413
 21
22.4349537542
  0
LINE
  5
2CC
100
AcDbEntity
  8
___SYMBOL
100
AcDbLine
 62
2
  6
CONTINUOUS
 10
25.5120780134
 20
22.4714230461
 11
25.5632380134
 21
22.4714230461
  0
LINE
  5
2CD
100
AcDbEntity
  8
___SYMBOL
100
AcDbLine
 62
2
  6
CONTINUOUS
 10
22.5582440413
 20
22.4543537542
 11
22.6411840413
 21
22.4543537542
  0
LINE
  5
2CE
100
AcDbEntity
  8
___SYMBOL
100
AcDbLine
 62
2
  6
CONTINUOUS
 10
25.4968980134
 20
22.4908230461
 11
25.5798380134
 21
22.4908230461
  0
LINE
  5
2CF
100
AcDbEntity
  8
___SYMBOL
100
AcDbLine
 62
2
  6
CONTINUOUS
 10
22.5734440413
 20
22.4708337542
 11
22.6245840413
 21
22.4708337542
  0
LINE
  5
2D0
100
AcDbEntity
  8
___SYMBOL
100
AcDbLine
 62
2
  6
CONTINUOUS
 10
25.5120780134
 20
22.5073030461
 11
25.5632380134
 21
22.5073030461
  0
LINE
  5
2D1
100
AcDbEntity
  8
___SYMBOL
100
AcDbLine
 62
2
  6
CONTINUOUS
 10
22.5582440413
 20
22.4889137542
 11
22.6411840413
 21
22.4889137542
  0
LINE
  5
2D2
100
AcDbEntity
  8
___SYMBOL
100
AcDbLine
 62
2
  6
CONTINUOUS
 10
25.4968980134
 20
22.5253830461
 11
25.5798380134
 21
22.5253830461
  0
LINE
  5
2D3
100
AcDbEntity
  8
___SYMBOL
100
AcDbLine
 62
2
  6
CONTINUOUS
 10
22.5734440413
 20
22.5068537542
 11
22.6245840413
 21
22.5068537542
  0
LINE
  5
2D4
100
AcDbEntity
  8
___SYMBOL
100
AcDbLine
 62
2
  6
CONTINUOUS
 10
25.5120780134
 20
22.5433230461
 11
25.5632380134
 21
22.5433230461
  0
LINE
  5
2D5
100
AcDbEntity
  8
___SYMBOL
100
AcDbLine
 62
2
  6
CONTINUOUS
 10
22.5582440413
 20
22.5247937542
 11
22.6411840413
 21
22.5247937542
  0
LINE
  5
2D6
100
AcDbEntity
  8
___SYMBOL
100
AcDbLine
 62
2
  6
CONTINUOUS
 10
25.4968980134
 20
22.5612630461
 11
25.5798380134
 21
22.5612630461
  0
LINE
  5
2D7
100
AcDbEntity
  8
___SYMBOL
100
AcDbLine
 62
2
  6
CONTINUOUS
 10
22.5734440413
 20
22.5427337542
 11
22.6245840413
 21
22.5427337542
  0
LINE
  5
2D8
100
AcDbEntity
  8
___SYMBOL
100
AcDbLine
 62
2
  6
CONTINUOUS
 10
25.5120780134
 20
22.5792030461
 11
25.5632380134
 21
22.5792030461
  0
LINE
  5
2D9
100
AcDbEntity
  8
___SYMBOL
100
AcDbLine
 62
2
  6
CONTINUOUS
 10
22.5582440413
 20
22.5621537542
 11
22.6411840413
 21
22.5621537542
  0
LINE
  5
2DA
100
AcDbEntity
  8
___SYMBOL
100
AcDbLine
 62
2
  6
CONTINUOUS
 10
25.4968980134
 20
22.5986230461
 11
25.5798380134
 21
22.5986230461
  0
LINE
  5
2DB
100
AcDbEntity
  8
___SYMBOL
100
AcDbLine
 62
2
  6
CONTINUOUS
 10
22.5734440413
 20
22.5800937542
 11
22.6245840413
 21
22.5800937542
  0
LINE
  5
2DC
100
AcDbEntity
  8
___SYMBOL
100
AcDbLine
 62
2
  6
CONTINUOUS
 10
25.5120780134
 20
22.6165630461
 11
25.5632380134
 21
22.6165630461
  0
LINE
  5
2DD
100
AcDbEntity
  8
___SYMBOL
100
AcDbLine
 62
2
  6
CONTINUOUS
 10
25.5798380134
 20
22.6345030461
 11
25.4968980134
 21
22.6345030461
  0
LINE
  5
2DE
100
AcDbEntity
  8
___SYMBOL
100
AcDbLine
 62
2
  6
CONTINUOUS
 10
22.6411840413
 20
22.5980337542
 11
22.5582440413
 21
22.5980337542
  0
LINE
  5
2DF
100
AcDbEntity
  8
___SYMBOL
100
AcDbLine
 62
2
  6
CONTINUOUS
 10
22.6937440413
 20
22.6450337542
 11
22.4974640413
 21
22.6450337542
  0
LINE
  5
2E0
100
AcDbEntity
  8
___SYMBOL
100
AcDbLine
 62
2
  6
CONTINUOUS
 10
22.7268840413
 20
22.6478537542
 11
23.0642240413
 21
22.6478537542
  0
LINE
  5
2E1
100
AcDbEntity
  8
___SYMBOL
100
AcDbLine
 62
2
  6
PHANTOM
 10
25.8701180134
 20
22.9193030461
 11
24.7255180134
 21
22.9193030461
  0
LINE
  5
2E2
100
AcDbEntity
  8
___SYMBOL
100
AcDbLine
 62
2
  6
PHANTOM
 10
22.9314840413
 20
22.8828337542
 11
21.8468840413
 21
22.8828337542
  0
LINE
  5
2E3
100
AcDbEntity
  8
___SYMBOL
100
AcDbLine
 62
2
  6
CONTINUOUS
 10
24.7725180134
 20
21.8769430461
 11
24.7863180134
 21
21.8742630461
  0
LINE
  5
2E4
100
AcDbEntity
  8
___SYMBOL
100
AcDbLine
 62
2
  6
CONTINUOUS
 10
24.8637780134
 20
21.8410430461
 11
24.8748180134
 21
21.8382430461
  0
LINE
  5
2E5
100
AcDbEntity
  8
___SYMBOL
100
AcDbLine
 62
2
  6
CONTINUOUS
 10
24.8803180134
 20
21.7885630461
 11
24.8941580134
 21
21.7829430461
  0
LINE
  5
2E6
100
AcDbEntity
  8
___SYMBOL
100
AcDbLine
 62
2
  6
CONTINUOUS
 10
24.8167780134
 20
21.8410430461
 11
24.8278180134
 21
21.8355630461
  0
LINE
  5
2E7
100
AcDbEntity
  8
___SYMBOL
100
AcDbLine
 62
2
  6
CONTINUOUS
 10
24.7614780134
 20
21.8880430461
 11
24.7725180134
 21
21.8769430461
  0
LINE
  5
2E8
100
AcDbEntity
  8
___SYMBOL
100
AcDbLine
 62
2
  6
CONTINUOUS
 10
24.8720780134
 20
21.7968630461
 11
24.8803180134
 21
21.7885630461
  0
LINE
  5
2E9
100
AcDbEntity
  8
___SYMBOL
100
AcDbLine
 62
2
  6
PHANTOM
 10
24.7255180134
 20
22.9193030461
 11
24.7255180134
 21
22.3912230461
  0
LINE
  5
2EA
100
AcDbEntity
  8
___SYMBOL
100
AcDbLine
 62
2
  6
CONTINUOUS
 10
24.8167780134
 20
21.8521630461
 11
24.8167780134
 21
21.8410430461
  0
LINE
  5
2EB
100
AcDbEntity
  8
___SYMBOL
100
AcDbLine
 62
2
  6
CONTINUOUS
 10
24.8748180134
 20
21.8382430461
 11
24.8748180134
 21
21.8189630461
  0
LINE
  5
2EC
100
AcDbEntity
  8
___SYMBOL
100
AcDbLine
 62
2
  6
CONTINUOUS
 10
25.0931980134
 20
22.1645430461
 11
25.0931980134
 21
22.1037430461
  0
LINE
  5
2ED
100
AcDbEntity
  8
___SYMBOL
100
AcDbLine
 62
2
  6
CONTINUOUS
 10
22.4262240413
 20
22.0698337542
 11
22.4946440413
 21
22.1270937542
  0
LINE
  5
2EE
100
AcDbEntity
  8
___SYMBOL
100
AcDbLine
 62
2
  6
CONTINUOUS
 10
22.1981440413
 20
22.0681337542
 11
22.2686240413
 21
22.1270937542
  0
LINE
  5
2EF
100
AcDbEntity
  8
___SYMBOL
100
AcDbLine
 62
2
  6
CONTINUOUS
 10
22.6632840413
 20
22.0816737542
 11
22.7130840413
 21
22.1233137542
  0
LINE
  5
2F0
100
AcDbEntity
  8
___SYMBOL
100
AcDbLine
 62
2
  6
CONTINUOUS
 10
22.7663240413
 20
22.0726537542
 11
22.8658640413
 21
22.1558937542
  0
LINE
  5
2F1
100
AcDbEntity
  8
___SYMBOL
100
AcDbLine
 62
2
  6
CONTINUOUS
 10
22.3183840413
 20
22.0692337542
 11
22.3889240413
 21
22.1281937542
  0
LINE
  5
2F2
100
AcDbEntity
  8
___SYMBOL
100
AcDbLine
 62
2
  6
CONTINUOUS
 10
22.8070840413
 20
22.2970137542
 11
22.8679440413
 21
22.3477937542
  0
LINE
  5
2F3
100
AcDbEntity
  8
___SYMBOL
100
AcDbLine
 62
2
  6
CONTINUOUS
 10
22.8070840413
 20
22.2019137542
 11
22.8679440413
 21
22.2526937542
  0
LINE
  5
2F4
100
AcDbEntity
  8
___SYMBOL
100
AcDbLine
 62
2
  6
CONTINUOUS
 10
22.5002040413
 20
22.9934337542
 11
23.2999440413
 21
22.9934337542
  0
LINE
  5
2F5
100
AcDbEntity
  8
___SYMBOL
100
AcDbLine
 62
2
  6
CONTINUOUS
 10
25.8176380134
 20
22.5488230461
 11
25.8093180134
 21
22.5571230461
  0
LINE
  5
2F6
100
AcDbEntity
  8
___SYMBOL
100
AcDbLine
 62
2
  6
CONTINUOUS
 10
25.5377780134
 20
22.6815030461
 11
25.5798380134
 21
22.6345030461
  0
LINE
  5
2F7
100
AcDbEntity
  8
___SYMBOL
100
AcDbLine
 62
2
  6
CONTINUOUS
 10
25.8701180134
 20
22.3912230461
 11
25.8424780134
 21
22.4355430461
  0
LINE
  5
2F8
100
AcDbEntity
  8
___SYMBOL
100
AcDbLine
 62
2
  6
CONTINUOUS
 10
25.8259380134
 20
22.5239230461
 11
25.8203780134
 21
22.5350230461
  0
LINE
  5
2F9
100
AcDbEntity
  8
___SYMBOL
100
AcDbLine
 62
2
  6
CONTINUOUS
 10
24.8692580134
 20
21.8078430461
 11
24.8720780134
 21
21.7968630461
  0
LINE
  5
2FA
100
AcDbEntity
  8
___SYMBOL
100
AcDbLine
 62
2
  6
CONTINUOUS
 10
24.8941580134
 20
21.7829430461
 11
24.8969180134
 21
21.7719630461
  0
LINE
  5
2FB
100
AcDbEntity
  8
___SYMBOL
100
AcDbLine
 62
2
  6
CONTINUOUS
 10
24.8167780134
 20
21.8742630461
 11
24.8195180134
 21
21.8631430461
  0
LINE
  5
2FC
100
AcDbEntity
  8
___SYMBOL
100
AcDbLine
 62
2
  6
CONTINUOUS
 10
25.4747980134
 20
22.1645430461
 11
25.4747980134
 21
22.1037430461
  0
LINE
  5
2FD
100
AcDbEntity
  8
___SYMBOL
100
AcDbLine
 62
2
  6
CONTINUOUS
 10
25.4968980134
 20
22.1037430461
 11
25.4968980134
 21
22.6345030461
  0
LINE
  5
2FE
100
AcDbEntity
  8
___SYMBOL
100
AcDbLine
 62
2
  6
CONTINUOUS
 10
25.528405444
 20
22.0774511396
 11
25.528405444
 21
22.0632201008
  0
LINE
  5
2FF
100
AcDbEntity
  8
___SYMBOL
100
AcDbLine
 62
2
  6
CENTER
 10
25.5369980134
 20
22.8045710563
 11
25.5369980134
 21
21.9245687066
  0
LINE
  5
300
100
AcDbEntity
  8
___SYMBOL
100
AcDbLine
 62
2
  6
CONTINUOUS
 10
25.5455905829
 20
22.0633563535
 11
25.5455905829
 21
22.0774511396
  0
LINE
  5
301
100
AcDbEntity
  8
___SYMBOL
100
AcDbLine
 62
2
  6
CONTINUOUS
 10
25.5798380134
 20
22.6345030461
 11
25.5798380134
 21
22.1037430461
  0
LINE
  5
302
100
AcDbEntity
  8
___SYMBOL
100
AcDbLine
 62
2
  6
CONTINUOUS
 10
25.6019380134
 20
22.1645430461
 11
25.6019380134
 21
22.1037430461
  0
LINE
  5
303
100
AcDbEntity
  8
___SYMBOL
100
AcDbLine
 62
2
  6
CONTINUOUS
 10
25.7457380134
 20
22.3912230461
 11
25.7457380134
 21
22.2145430461
  0
LINE
  5
304
100
AcDbEntity
  8
___SYMBOL
100
AcDbLine
 62
2
  6
CONTINUOUS
 10
25.8065180134
 20
22.2137430461
 11
25.8065180134
 21
22.3912230461
  0
LINE
  5
305
100
AcDbEntity
  8
___SYMBOL
100
AcDbLine
 62
2
  6
CONTINUOUS
 10
25.8314180134
 20
22.4825230461
 11
25.8314180134
 21
22.4935230461
  0
LINE
  5
306
100
AcDbEntity
  8
___SYMBOL
100
AcDbLine
 62
2
  6
CONTINUOUS
 10
25.8507780134
 20
22.7451030461
 11
25.8507780134
 21
22.8142030461
  0
LINE
  5
307
100
AcDbEntity
  8
___SYMBOL
100
AcDbLine
 62
2
  6
CONTINUOUS
 10
25.8507780134
 20
22.8364230461
 11
25.8507780134
 21
22.8585030461
  0
LINE
  5
308
100
AcDbEntity
  8
___SYMBOL
100
AcDbLine
 62
2
  6
CONTINUOUS
 10
25.8646180134
 20
22.8917030461
 11
25.8646180134
 21
22.9083030461
  0
LINE
  5
309
100
AcDbEntity
  8
___SYMBOL
100
AcDbLine
 62
2
  6
CONTINUOUS
 10
24.8195180134
 20
21.8631430461
 11
24.8167780134
 21
21.8521630461
  0
LINE
  5
30A
100
AcDbEntity
  8
___SYMBOL
100
AcDbLine
 62
2
  6
CONTINUOUS
 10
25.8507780134
 20
22.8142030461
 11
25.8535780134
 21
22.8253030461
  0
LINE
  5
30B
100
AcDbEntity
  8
___SYMBOL
100
AcDbLine
 62
2
  6
CONTINUOUS
 10
25.8507780134
 20
22.8585030461
 11
25.8535780134
 21
22.8695030461
  0
LINE
  5
30C
100
AcDbEntity
  8
___SYMBOL
100
AcDbLine
 62
2
  6
CONTINUOUS
 10
25.8010180134
 20
22.5792030461
 11
25.8286780134
 21
22.6871230461
  0
LINE
  5
30D
100
AcDbEntity
  8
___SYMBOL
100
AcDbLine
 62
2
  6
PHANTOM
 10
24.9198580134
 20
22.3249430461
 11
24.9039980134
 21
22.2813630461
  0
LINE
  5
30E
100
AcDbEntity
  8
___SYMBOL
100
AcDbLine
 62
2
  6
PHANTOM
 10
24.914024653
 20
22.3062571651
 11
24.7614780134
 21
21.8880430461
  0
LINE
  5
30F
100
AcDbEntity
  8
___SYMBOL
100
AcDbLine
 62
2
  6
PHANTOM
 10
24.8969180134
 20
21.7719630461
 11
25.0245509298
 21
22.121819883
  0
LINE
  5
310
100
AcDbEntity
  8
___SYMBOL
100
AcDbLine
 62
2
  6
CONTINUOUS
 10
25.8286780134
 20
22.6871230461
 11
25.8507780134
 21
22.7451030461
  0
LINE
  5
311
100
AcDbEntity
  8
___SYMBOL
100
AcDbLine
 62
2
  6
CONTINUOUS
 10
25.8535780134
 20
22.8695030461
 11
25.8646180134
 21
22.8917030461
  0
LINE
  5
312
100
AcDbEntity
  8
___SYMBOL
100
AcDbLine
 62
2
  6
CONTINUOUS
 10
24.8748180134
 20
21.8189630461
 11
24.8692580134
 21
21.8078430461
  0
LINE
  5
313
100
AcDbEntity
  8
___SYMBOL
100
AcDbLine
 62
2
  6
PHANTOM
 10
25.8646180134
 20
22.9083030461
 11
25.8701180134
 21
22.9193030461
  0
LINE
  5
314
100
AcDbEntity
  8
___SYMBOL
100
AcDbLine
 62
2
  6
PHANTOM
 10
25.3540543377
 20
22.3449401276
 11
25.2799154401
 21
22.1975772091
  0
LINE
  5
315
100
AcDbEntity
  8
___SYMBOL
100
AcDbLine
 62
2
  6
CONTINUOUS
 10
25.4968980134
 20
22.6345030461
 11
25.5377780134
 21
22.6815030461
  0
LINE
  5
316
100
AcDbEntity
  8
___SYMBOL
100
AcDbLine
 62
2
  6
CONTINUOUS
 10
21.9140840413
 20
21.7990937542
 11
21.9251240413
 21
21.8045737542
  0
LINE
  5
317
100
AcDbEntity
  8
___SYMBOL
100
AcDbLine
 62
2
  6
CONTINUOUS
 10
25.8093180134
 20
22.5571230461
 11
25.8010180134
 21
22.5792030461
  0
LINE
  5
318
100
AcDbEntity
  8
___SYMBOL
100
AcDbLine
 62
2
  6
CONTINUOUS
 10
25.8535780134
 20
22.8253030461
 11
25.8507780134
 21
22.8364230461
  0
LINE
  5
319
100
AcDbEntity
  8
___SYMBOL
100
AcDbLine
 62
2
  6
CONTINUOUS
 10
25.8424780134
 20
22.4355430461
 11
25.8314180134
 21
22.4825230461
  0
LINE
  5
31A
100
AcDbEntity
  8
___SYMBOL
100
AcDbLine
 62
2
  6
CONTINUOUS
 10
25.8203780134
 20
22.5350230461
 11
25.8176380134
 21
22.5488230461
  0
LINE
  5
31B
100
AcDbEntity
  8
___SYMBOL
100
AcDbLine
 62
2
  6
CONTINUOUS
 10
25.8314180134
 20
22.4935230461
 11
25.8259380134
 21
22.5239230461
  0
LINE
  5
31C
100
AcDbEntity
  8
___SYMBOL
100
AcDbLine
 62
2
  6
CONTINUOUS
 10
25.3648780134
 20
22.1063030461
 11
25.4332980134
 21
22.1635630461
  0
LINE
  5
31D
100
AcDbEntity
  8
___SYMBOL
100
AcDbLine
 62
2
  6
CONTINUOUS
 10
25.1367780134
 20
22.1046030461
 11
25.2072780134
 21
22.1635630461
  0
LINE
  5
31E
100
AcDbEntity
  8
___SYMBOL
100
AcDbLine
 62
2
  6
CONTINUOUS
 10
25.2570180134
 20
22.1057030461
 11
25.3275180134
 21
22.1646630461
  0
LINE
  5
31F
100
AcDbEntity
  8
___SYMBOL
100
AcDbLine
 62
2
  6
CONTINUOUS
 10
25.6019380134
 20
22.1181430461
 11
25.6517380134
 21
22.1597830461
  0
LINE
  5
320
100
AcDbEntity
  8
___SYMBOL
100
AcDbLine
 62
2
  6
CONTINUOUS
 10
25.7049580134
 20
22.1091230461
 11
25.8044980134
 21
22.1923630461
  0
LINE
  5
321
100
AcDbEntity
  8
___SYMBOL
100
AcDbLine
 62
2
  6
CONTINUOUS
 10
25.7457380134
 20
22.3334830461
 11
25.8065180134
 21
22.3842630461
  0
LINE
  5
322
100
AcDbEntity
  8
___SYMBOL
100
AcDbLine
 62
2
  6
CONTINUOUS
 10
25.7457380134
 20
22.2383830461
 11
25.8065180134
 21
22.2891630461
  0
LINE
  5
323
100
AcDbEntity
  8
___SYMBOL
100
AcDbLine
 62
2
  6
CONTINUOUS
 10
24.8526580134
 20
21.8355630461
 11
24.8637780134
 21
21.8410430461
  0
ARC
  5
324
100
AcDbEntity
  8
___SYMBOL
100
AcDbCircle
 62
2
  6
CONTINUOUS
 10
25.6965180134
 20
22.2137430461
 40
0.11
100
AcDbArc
 50
270.0
 51
360.0
  0
ARC
  5
325
100
AcDbEntity
  8
___SYMBOL
100
AcDbCircle
 62
2
  6
CONTINUOUS
 10
25.6957380134
 20
22.2145430461
 40
0.05
100
AcDbArc
 50
270.0
 51
360.0
  0
ARC
  5
326
100
AcDbEntity
  8
___SYMBOL
100
AcDbCircle
 62
2
  6
CONTINUOUS
 10
25.3272548805
 20
22.3584230461
 40
0.03
100
AcDbArc
 50
333.2928412651
 51
90.0
  0
ARC
  5
327
100
AcDbEntity
  8
___SYMBOL
100
AcDbCircle
 62
2
  6
CONTINUOUS
 10
25.2263165256
 20
22.2245430461
 40
0.06
100
AcDbArc
 50
270.0
 51
333.2928412651
  0
ARC
  5
328
100
AcDbEntity
  8
___SYMBOL
100
AcDbCircle
 62
2
  6
CONTINUOUS
 10
25.0856143603
 20
22.0995430461
 40
0.065
100
AcDbArc
 50
90.0
 51
159.9572872547
  0
ARC
  5
329
100
AcDbEntity
  8
___SYMBOL
100
AcDbCircle
 62
2
  6
PHANTOM
 10
25.0314564981
 20
22.2634230461
 40
0.125
100
AcDbArc
 50
90.0
 51
159.9601913116
  0
ARC
  5
32A
100
AcDbEntity
  8
___SYMBOL
100
AcDbCircle
 62
2
  6
PHANTOM
 10
24.8390709518
 20
22.3171890209
 40
0.0741554031
100
AcDbArc
 50
331.1106122188
 51
75.728277399
  0
ARC
  5
32B
100
AcDbEntity
  8
___SYMBOL
100
AcDbCircle
 62
2
  6
CONTINUOUS
 10
21.8985431964
 20
22.280086971
 40
0.0741554031
100
AcDbArc
 50
340.0021161874
 51
75.728277399
  0
ARC
  5
32C
100
AcDbEntity
  8
___SYMBOL
100
AcDbCircle
 62
2
  6
CONTINUOUS
 10
22.1463489561
 20
22.0640737542
 40
0.064
100
AcDbArc
 50
90.0
 51
159.9445616853
  0
ARC
  5
32D
100
AcDbEntity
  8
___SYMBOL
100
AcDbCircle
 62
2
  6
CONTINUOUS
 10
22.2876625535
 20
22.1880737542
 40
0.06
100
AcDbArc
 50
270.0
 51
333.2928412651
  0
ARC
  5
32E
100
AcDbEntity
  8
___SYMBOL
100
AcDbCircle
 62
2
  6
CONTINUOUS
 10
22.3886009084
 20
22.3219537542
 40
0.03
100
AcDbArc
 50
333.2928412651
 51
90.0
  0
ARC
  5
32F
100
AcDbEntity
  8
___SYMBOL
100
AcDbCircle
 62
2
  6
CONTINUOUS
 10
22.0893040763
 20
22.2319537542
 40
0.12
100
AcDbArc
 50
90.0
 51
159.9601913116
  0
ARC
  5
330
100
AcDbEntity
  8
___SYMBOL
100
AcDbCircle
 62
2
  6
CONTINUOUS
 10
22.7679440413
 20
22.1672737542
 40
0.1
100
AcDbArc
 50
270.0
 51
360.0
  0
ARC
  5
331
100
AcDbEntity
  8
___SYMBOL
100
AcDbCircle
 62
2
  6
CONTINUOUS
 10
22.7570840413
 20
22.1780737542
 40
0.05
100
AcDbArc
 50
270.0
 51
360.0
  0
ARC
  5
332
100
AcDbEntity
  8
___SYMBOL
100
AcDbCircle
 62
2
  6
CONTINUOUS
 10
21.8468840413
 20
22.8228337542
 40
0.06
100
AcDbArc
 50
90.0
 51
180.0
  0
ARC
  5
333
100
AcDbEntity
  8
___SYMBOL
100
AcDbCircle
 62
2
  6
CONTINUOUS
 10
21.8468840413
 20
22.4147537542
 40
0.06
100
AcDbArc
 50
180.0
 51
270.0
  0
ARC
  5
334
100
AcDbEntity
  8
___SYMBOL
100
AcDbCircle
 62
2
  6
CONTINUOUS
 10
22.5976454583
 20
22.1149997081
 40
0.0885309118
100
AcDbArc
 50
212.3058638362
 51
264.8843450297
  0
ARC
  5
335
100
AcDbEntity
  8
___SYMBOL
100
AcDbCircle
 62
2
  6
CONTINUOUS
 10
22.5976454583
 20
22.1149997081
 40
0.0885309118
100
AcDbArc
 50
276.0241773206
 51
327.6941361638
  0
ARC
  5
336
100
AcDbEntity
  8
___SYMBOL
100
AcDbCircle
 62
2
  6
CONTINUOUS
 10
25.5362994304
 20
22.1513983709
 40
0.0885309118
100
AcDbArc
 50
212.3058638362
 51
264.8843450297
  0
ARC
  5
337
100
AcDbEntity
  8
___SYMBOL
100
AcDbCircle
 62
2
  6
CONTINUOUS
 10
25.5362994304
 20
22.1513983709
 40
0.0885309118
100
AcDbArc
 50
276.0241773206
 51
327.6941361638
  0
CIRCLE
  5
338
100
AcDbEntity
  8
___SYMBOL
100
AcDbCircle
 62
7
  6
CONTINUOUS
 10
22.4974640413
 20
22.9934337542
 40
0.0298681023
  0
CIRCLE
  5
339
100
AcDbEntity
  8
___SYMBOL
100
AcDbCircle
 62
7
  6
CONTINUOUS
 10
22.6937440413
 20
22.9934337542
 40
0.0298681023
  0
CIRCLE
  5
33A
100
AcDbEntity
  8
___SYMBOL
100
AcDbCircle
 62
7
  6
CONTINUOUS
 10
23.0116840413
 20
22.6478537542
 40
0.0298681023
  0
CIRCLE
  5
33B
100
AcDbEntity
  8
___SYMBOL
100
AcDbCircle
 62
7
  6
CONTINUOUS
 10
23.0116840413
 20
22.3575537542
 40
0.0298681023
  0
LINE
  5
33C
100
AcDbEntity
  8
___SYMBOL
100
AcDbLine
 62
2
  6
CONTINUOUS
 10
25.2263165256
 20
22.1645430461
 11
25.4968980134
 21
22.1645430461
  0
LINE
  5
33D
100
AcDbEntity
  8
___SYMBOL
100
AcDbLine
 62
2
  6
PHANTOM
 10
25.7457380134
 20
22.3912230461
 11
25.8065180134
 21
22.3912230461
  0
LINE
  5
33E
100
AcDbEntity
  8
___SYMBOL
100
AcDbLine
 62
2
  6
PHANTOM
 10
25.8065180134
 20
22.3912230461
 11
25.8701180134
 21
22.3912230461
  0
LINE
  5
33F
100
AcDbEntity
  8
___SYMBOL
100
AcDbLine
 62
2
  6
CONTINUOUS
 10
21.6637471523
 20
24.2530600992
 11
21.5248348039
 21
24.2530600992
  0
LINE
  5
340
100
AcDbEntity
  8
___SYMBOL
100
AcDbLine
 62
2
  6
CONTINUOUS
 10
21.5248348039
 20
24.2530600992
 11
21.2035999982
 21
23.4977242046
  0
LINE
  5
341
100
AcDbEntity
  8
___SYMBOL
100
AcDbLine
 62
2
  6
CONTINUOUS
 10
21.2035999982
 20
23.4977242046
 11
22.1238943065
 21
22.3690613737
  0
LINE
  5
342
100
AcDbEntity
  8
___SYMBOL
100
AcDbLine
 62
2
  6
CONTINUOUS
 10
25.4925187558
 20
24.2530600992
 11
25.3536064073
 21
24.2530600992
  0
LINE
  5
343
100
AcDbEntity
  8
___SYMBOL
100
AcDbLine
 62
2
  6
CONTINUOUS
 10
25.3536064073
 20
24.2530600992
 11
25.1452378847
 21
22.3864254172
  0
ENDBLK
  5
344
100
AcDbEntity
  8
0
  6
BYBLOCK
 62
0
100
AcDbBlockEnd
  0
BLOCK
  5
345
100
AcDbEntity
  8
___SYMBOL
100
AcDbBlockBegin
 62
2
  6
CONTINUOUS
  2
SKU_LAV_KOHLER_BL0
 70
64
 10
17.0306985871
 20
22.0279202777
  3
SKU_LAV_KOHLER_BL0
  1

  0
TEXT
  5
346
100
AcDbEntity
  8
___SYMBOL
100
AcDbText
 62
2
  6
CONTINUOUS
 10
14.8314410177
 20
23.2155127853
  7
STANDARD
 40
0.25
  1
CUT-OUT TEMPLATE
 41
0.8
 72
0
100
AcDbText
  0
TEXT
  5
347
100
AcDbEntity
  8
___SYMBOL
100
AcDbText
 62
2
  6
CONTINUOUS
 10
14.8314410177
 20
22.8405127853
  7
STANDARD
 40
0.25
  1
UNDERCOUNTER LAVATORY
 41
0.8
 72
0
100
AcDbText
  0
TEXT
  5
348
100
AcDbEntity
  8
___SYMBOL
100
AcDbText
 62
2
  6
CONTINUOUS
 10
14.8314410177
 20
22.4655127853
  7
STANDARD
 40
0.25
  1
PLAN DE DÉCOUPE
 41
0.8
 72
0
100
AcDbText
  0
TEXT
  5
349
100
AcDbEntity
  8
___SYMBOL
100
AcDbText
 62
2
  6
CONTINUOUS
 10
14.8314410177
 20
22.0905127853
  7
STANDARD
 40
0.25
  1
LAVABO SOUS COMPTOIR
 41
0.8
 72
0
100
AcDbText
  0
TEXT
  5
34A
100
AcDbEntity
  8
___SYMBOL
100
AcDbText
 62
2
  6
CONTINUOUS
 10
14.8314410177
 20
21.7155127853
  7
STANDARD
 40
0.25
  1
PLANTILLA DE CORTE
 41
0.8
 72
0
100
AcDbText
  0
TEXT
  5
34B
100
AcDbEntity
  8
___SYMBOL
100
AcDbText
 62
2
  6
CONTINUOUS
 10
14.8314410177
 20
21.3405127853
  7
STANDARD
 40
0.25
  1
LAVABO DE INSTALACIÓN 
 41
0.8
 72
0
100
AcDbText
  0
TEXT
  5
34C
100
AcDbEntity
  8
___SYMBOL
100
AcDbText
 62
2
  6
CONTINUOUS
 10
14.8314410177
 20
20.9655127853
  7
STANDARD
 40
0.25
  1
BAJO CUBIERTA
 41
0.8
 72
0
100
AcDbText
  0
TEXT
  5
34D
100
AcDbEntity
  8
___SYMBOL
100
AcDbText
 62
2
  6
CONTINUOUS
 10
14.8314410177
 20
20.5905127853
  7
STANDARD
 40
0.25
  1
20000
 41
0.8
 72
0
100
AcDbText
  0
TEXT
  5
34E
100
AcDbEntity
  8
___SYMBOL
100
AcDbText
 62
2
  6
CONTINUOUS
 10
14.8299561565
 20
19.8429751085
  7
STANDARD
 40
0.25
  1
29471
 41
0.8
 72
0
100
AcDbText
  0
LINE
  5
34F
100
AcDbEntity
  8
___SYMBOL
100
AcDbLine
 62
2
  6
CONTINUOUS
 10
15.338249979
 20
24.2088869324
 11
15.1249465271
 21
23.9552386595
  0
LINE
  5
350
100
AcDbEntity
  8
___SYMBOL
100
AcDbLine
 62
2
  6
CONTINUOUS
 10
15.1461881669
 20
24.2088869324
 11
15.338249979
 21
24.2088869324
  0
LINE
  5
351
100
AcDbEntity
  8
___SYMBOL
100
AcDbLine
 62
2
  6
CONTINUOUS
 10
15.1461881669
 20
24.2088869324
 11
15.0084240002
 21
24.0450657427
  0
LINE
  5
352
100
AcDbEntity
  8
___SYMBOL
100
AcDbLine
 62
2
  6
CONTINUOUS
 10
15.0084240002
 20
24.2088869324
 11
15.0084240002
 21
24.0450657427
  0
LINE
  5
353
100
AcDbEntity
  8
___SYMBOL
100
AcDbLine
 62
2
  6
CONTINUOUS
 10
14.8339237733
 20
24.2088869324
 11
15.0084240002
 21
24.2088869324
  0
LINE
  5
354
100
AcDbEntity
  8
___SYMBOL
100
AcDbLine
 62
2
  6
CONTINUOUS
 10
14.8339237733
 20
24.2088869324
 11
14.8339237733
 21
23.6229492796
  0
LINE
  5
355
100
AcDbEntity
  8
___SYMBOL
100
AcDbLine
 62
2
  6
CONTINUOUS
 10
15.0084240002
 20
23.622973283
 11
14.8339237733
 21
23.6229492796
  0
LINE
  5
356
100
AcDbEntity
  8
___SYMBOL
100
AcDbLine
 62
2
  6
CONTINUOUS
 10
15.0084240002
 20
23.824473117
 11
15.0084240002
 21
23.622973283
  0
LINE
  5
357
100
AcDbEntity
  8
___SYMBOL
100
AcDbLine
 62
2
  6
CONTINUOUS
 10
15.1621619403
 20
23.622973283
 11
15.0084240002
 21
23.824473117
  0
LINE
  5
358
100
AcDbEntity
  8
___SYMBOL
100
AcDbLine
 62
2
  6
CONTINUOUS
 10
15.1621619403
 20
23.622973283
 11
15.3784543618
 21
23.622973283
  0
LINE
  5
359
100
AcDbEntity
  8
___SYMBOL
100
AcDbLine
 62
2
  6
CONTINUOUS
 10
15.3784543618
 20
23.622973283
 11
15.1249465271
 21
23.9552386595
  0
SOLID
  5
35A
100
AcDbEntity
  8
___SYMBOL
100
AcDbTrace
 62
2
  6
CONTINUOUS
 10
15.0084240002
 20
24.0450657427
 11
15.1461881669
 21
24.2088869324
 12
15.338249979
 22
24.2088869324
 13
15.338249979
 23
24.2088869324
  0
SOLID
  5
35B
100
AcDbEntity
  8
___SYMBOL
100
AcDbTrace
 62
2
  6
CONTINUOUS
 10
15.338249979
 20
24.2088869324
 11
15.1249465271
 21
23.9552386595
 12
15.0084240002
 22
24.0450657427
 13
15.0084240002
 23
24.0450657427
  0
SOLID
  5
35C
100
AcDbEntity
  8
___SYMBOL
100
AcDbTrace
 62
2
  6
CONTINUOUS
 10
15.0084240002
 20
23.824473117
 11
15.1249465271
 21
23.9552386595
 12
15.1621619403
 22
23.622973283
 13
15.1621619403
 23
23.622973283
  0
SOLID
  5
35D
100
AcDbEntity
  8
___SYMBOL
100
AcDbTrace
 62
2
  6
CONTINUOUS
 10
15.1249465271
 20
23.9552386595
 11
15.3784543618
 21
23.622973283
 12
15.1621619403
 22
23.622973283
 13
15.1621619403
 23
23.622973283
  0
SOLID
  5
35E
100
AcDbEntity
  8
___SYMBOL
100
AcDbTrace
 62
2
  6
CONTINUOUS
 10
15.0084240002
 20
23.622973283
 11
14.8339237733
 21
23.6229492796
 12
15.0084240002
 22
23.824473117
 13
15.0084240002
 23
23.824473117
  0
SOLID
  5
35F
100
AcDbEntity
  8
___SYMBOL
100
AcDbTrace
 62
2
  6
CONTINUOUS
 10
15.1249465271
 20
23.9552386595
 11
15.0084240002
 21
23.824473117
 12
15.0084240002
 22
24.0450657427
 13
15.0084240002
 23
24.0450657427
  0
SOLID
  5
360
100
AcDbEntity
  8
___SYMBOL
100
AcDbTrace
 62
2
  6
CONTINUOUS
 10
15.0084240002
 20
23.824473117
 11
14.8339237733
 21
23.6229492796
 12
15.0084240002
 22
24.0450657427
 13
15.0084240002
 23
24.0450657427
  0
SOLID
  5
361
100
AcDbEntity
  8
___SYMBOL
100
AcDbTrace
 62
2
  6
CONTINUOUS
 10
15.0084240002
 20
24.0450657427
 11
14.8339237733
 21
23.6229492796
 12
15.0084240002
 22
24.2088869324
 13
15.0084240002
 23
24.2088869324
  0
SOLID
  5
362
100
AcDbEntity
  8
___SYMBOL
100
AcDbTrace
 62
2
  6
CONTINUOUS
 10
14.8339237733
 20
23.6229492796
 11
14.8339237733
 21
24.2088869324
 12
15.0084240002
 22
24.2088869324
 13
15.0084240002
 23
24.2088869324
  0
CIRCLE
  5
363
100
AcDbEntity
  8
___SYMBOL
100
AcDbCircle
 62
2
  6
CONTINUOUS
 10
15.5549631985
 20
23.9148088558
 40
0.298056591
  0
CIRCLE
  5
364
100
AcDbEntity
  8
___SYMBOL
100
AcDbCircle
 62
2
  6
CONTINUOUS
 10
15.5549631985
 20
23.9148088558
 40
0.1247694151
  0
SOLID
  5
365
100
AcDbEntity
  8
___SYMBOL
100
AcDbTrace
 62
2
  6
CONTINUOUS
 10
15.4628586466
 20
24.1982775189
 11
15.5238078011
 21
24.2112326616
 12
15.5861185959
 22
24.2112326616
 13
15.5861185959
 23
24.2112326616
  0
SOLID
  5
366
100
AcDbEntity
  8
___SYMBOL
100
AcDbTrace
 62
2
  6
CONTINUOUS
 10
15.5861185959
 20
24.2112326616
 11
15.6470677504
 21
24.1982775189
 12
15.4628586466
 22
24.1982775189
 13
15.4628586466
 23
24.1982775189
  0
SOLID
  5
367
100
AcDbEntity
  8
___SYMBOL
100
AcDbTrace
 62
2
  6
CONTINUOUS
 10
15.405934903
 20
24.1729334354
 11
15.4628586466
 21
24.1982775189
 12
15.6470677504
 22
24.1982775189
 13
15.6470677504
 23
24.1982775189
  0
SOLID
  5
368
100
AcDbEntity
  8
___SYMBOL
100
AcDbTrace
 62
2
  6
CONTINUOUS
 10
15.6470677504
 20
24.1982775189
 11
15.703991494
 21
24.1729334354
 12
15.405934903
 22
24.1729334354
 13
15.405934903
 23
24.1729334354
  0
SOLID
  5
369
100
AcDbEntity
  8
___SYMBOL
100
AcDbTrace
 62
2
  6
CONTINUOUS
 10
15.355524411
 20
24.1363080691
 11
15.405934903
 21
24.1729334354
 12
15.703991494
 22
24.1729334354
 13
15.703991494
 23
24.1729334354
  0
SOLID
  5
36A
100
AcDbEntity
  8
___SYMBOL
100
AcDbTrace
 62
2
  6
CONTINUOUS
 10
15.703991494
 20
24.1729334354
 11
15.7544019859
 21
24.1363080691
 12
15.355524411
 22
24.1363080691
 13
15.355524411
 23
24.1363080691
  0
SOLID
  5
36B
100
AcDbEntity
  8
___SYMBOL
100
AcDbTrace
 62
2
  6
CONTINUOUS
 10
15.3138303511
 20
24.0900021244
 11
15.355524411
 21
24.1363080691
 12
15.7544019859
 22
24.1363080691
 13
15.7544019859
 23
24.1363080691
  0
SOLID
  5
36C
100
AcDbEntity
  8
___SYMBOL
100
AcDbTrace
 62
2
  6
CONTINUOUS
 10
15.7544019859
 20
24.1363080691
 11
15.7960960459
 21
24.0900021244
 12
15.3138303511
 22
24.0900021244
 13
15.3138303511
 23
24.0900021244
  0
SOLID
  5
36D
100
AcDbEntity
  8
___SYMBOL
100
AcDbTrace
 62
2
  6
CONTINUOUS
 10
15.5549631985
 20
24.0395782709
 11
15.2826749537
 21
24.0360393931
 12
15.7960960459
 22
24.0900021244
 13
15.7960960459
 23
24.0900021244
  0
SOLID
  5
36E
100
AcDbEntity
  8
___SYMBOL
100
AcDbTrace
 62
2
  6
CONTINUOUS
 10
15.2826749537
 20
24.0360393931
 11
15.3138303511
 21
24.0900021244
 12
15.7960960459
 22
24.0900021244
 13
15.7960960459
 23
24.0900021244
  0
SOLID
  5
36F
100
AcDbEntity
  8
___SYMBOL
100
AcDbTrace
 62
2
  6
CONTINUOUS
 10
15.7960960459
 20
24.0900021244
 11
15.8272514433
 21
24.0360393931
 12
15.5549631985
 22
24.0395782709
 13
15.5549631985
 23
24.0395782709
  0
SOLID
  5
370
100
AcDbEntity
  8
___SYMBOL
100
AcDbTrace
 62
2
  6
CONTINUOUS
 10
15.5549631985
 20
24.0395782709
 11
15.5164073288
 21
24.0334716211
 12
15.2826749537
 22
24.0360393931
 13
15.2826749537
 23
24.0360393931
  0
SOLID
  5
371
100
AcDbEntity
  8
___SYMBOL
100
AcDbTrace
 62
2
  6
CONTINUOUS
 10
15.5935190681
 20
24.0334716211
 11
15.5549631985
 21
24.0395782709
 12
15.8272514433
 22
24.0360393931
 13
15.8272514433
 23
24.0360393931
  0
SOLID
  5
372
100
AcDbEntity
  8
___SYMBOL
100
AcDbTrace
 62
2
  6
CONTINUOUS
 10
15.4540226213
 20
23.988146478
 11
15.2634198591
 21
23.9767783056
 12
15.4816255764
 22
24.015749433
 13
15.4816255764
 23
24.015749433
  0
SOLID
  5
373
100
AcDbEntity
  8
___SYMBOL
100
AcDbTrace
 62
2
  6
CONTINUOUS
 10
15.4816255764
 20
24.015749433
 11
15.2634198591
 21
23.9767783056
 12
15.5164073288
 22
24.0334716211
 13
15.5164073288
 23
24.0334716211
  0
SOLID
  5
374
100
AcDbEntity
  8
___SYMBOL
100
AcDbTrace
 62
2
  6
CONTINUOUS
 10
15.2634198591
 20
23.9767783056
 11
15.2826749537
 21
24.0360393931
 12
15.5164073288
 22
24.0334716211
 13
15.5164073288
 23
24.0334716211
  0
SOLID
  5
375
100
AcDbEntity
  8
___SYMBOL
100
AcDbTrace
 62
2
  6
CONTINUOUS
 10
15.5935190681
 20
24.0334716211
 11
15.8272514433
 21
24.0360393931
 12
15.6283008206
 22
24.015749433
 13
15.6283008206
 23
24.015749433
  0
SOLID
  5
376
100
AcDbEntity
  8
___SYMBOL
100
AcDbTrace
 62
2
  6
CONTINUOUS
 10
15.6283008206
 20
24.015749433
 11
15.8272514433
 21
24.0360393931
 12
15.6559037756
 22
23.988146478
 13
15.6559037756
 23
23.988146478
  0
SOLID
  5
377
100
AcDbEntity
  8
___SYMBOL
100
AcDbTrace
 62
2
  6
CONTINUOUS
 10
15.8272514433
 20
24.0360393931
 11
15.8465065378
 21
23.9767783056
 12
15.6559037756
 22
23.988146478
 13
15.6559037756
 23
23.988146478
  0
SOLID
  5
378
100
AcDbEntity
  8
___SYMBOL
100
AcDbTrace
 62
2
  6
CONTINUOUS
 10
15.4540226213
 20
23.988146478
 11
15.4363004332
 21
23.9533647255
 12
15.2634198591
 22
23.9767783056
 13
15.2634198591
 23
23.9767783056
  0
SOLID
  5
379
100
AcDbEntity
  8
___SYMBOL
100
AcDbTrace
 62
2
  6
CONTINUOUS
 10
15.6736259637
 20
23.9533647255
 11
15.6559037756
 21
23.988146478
 12
15.8465065378
 22
23.9767783056
 13
15.8465065378
 23
23.9767783056
  0
SOLID
  5
37A
100
AcDbEntity
  8
___SYMBOL
100
AcDbTrace
 62
2
  6
CONTINUOUS
 10
15.2569066075
 20
23.9148088558
 11
15.2634198591
 21
23.9767783056
 12
15.4363004332
 22
23.9533647255
 13
15.4363004332
 23
23.9533647255
  0
SOLID
  5
37B
100
AcDbEntity
  8
___SYMBOL
100
AcDbTrace
 62
2
  6
CONTINUOUS
 10
15.4363004332
 20
23.9533647255
 11
15.4301937834
 21
23.9148088558
 12
15.2569066075
 22
23.9148088558
 13
15.2569066075
 23
23.9148088558
  0
SOLID
  5
37C
100
AcDbEntity
  8
___SYMBOL
100
AcDbTrace
 62
2
  6
CONTINUOUS
 10
15.6736259637
 20
23.9533647255
 11
15.8465065378
 21
23.9767783056
 12
15.6797326136
 22
23.9148088558
 13
15.6797326136
 23
23.9148088558
  0
SOLID
  5
37D
100
AcDbEntity
  8
___SYMBOL
100
AcDbTrace
 62
2
  6
CONTINUOUS
 10
15.8465065378
 20
23.9767783056
 11
15.8530197895
 21
23.9148088558
 12
15.6797326136
 22
23.9148088558
 13
15.6797326136
 23
23.9148088558
  0
SOLID
  5
37E
100
AcDbEntity
  8
___SYMBOL
100
AcDbTrace
 62
2
  6
CONTINUOUS
 10
15.6736259637
 20
23.8762529862
 11
15.6797326136
 21
23.9148088558
 12
15.8530197895
 22
23.9148088558
 13
15.8530197895
 23
23.9148088558
  0
SOLID
  5
37F
100
AcDbEntity
  8
___SYMBOL
100
AcDbTrace
 62
2
  6
CONTINUOUS
 10
15.4363004332
 20
23.8762529862
 11
15.2634198591
 21
23.8528394061
 12
15.4301937834
 22
23.9148088558
 13
15.4301937834
 23
23.9148088558
  0
SOLID
  5
380
100
AcDbEntity
  8
___SYMBOL
100
AcDbTrace
 62
2
  6
CONTINUOUS
 10
15.2634198591
 20
23.8528394061
 11
15.2569066075
 21
23.9148088558
 12
15.4301937834
 22
23.9148088558
 13
15.4301937834
 23
23.9148088558
  0
SOLID
  5
381
100
AcDbEntity
  8
___SYMBOL
100
AcDbTrace
 62
2
  6
CONTINUOUS
 10
15.8530197895
 20
23.9148088558
 11
15.8465065378
 21
23.8528394061
 12
15.6736259637
 22
23.8762529862
 13
15.6736259637
 23
23.8762529862
  0
SOLID
  5
382
100
AcDbEntity
  8
___SYMBOL
100
AcDbTrace
 62
2
  6
CONTINUOUS
 10
15.4363004332
 20
23.8762529862
 11
15.4540226213
 21
23.8414712337
 12
15.2634198591
 22
23.8528394061
 13
15.2634198591
 23
23.8528394061
  0
SOLID
  5
383
100
AcDbEntity
  8
___SYMBOL
100
AcDbTrace
 62
2
  6
CONTINUOUS
 10
15.6559037756
 20
23.8414712337
 11
15.6736259637
 21
23.8762529862
 12
15.8465065378
 22
23.8528394061
 13
15.8465065378
 23
23.8528394061
  0
SOLID
  5
384
100
AcDbEntity
  8
___SYMBOL
100
AcDbTrace
 62
2
  6
CONTINUOUS
 10
15.5164073288
 20
23.7961460906
 11
15.2826749537
 21
23.7935783186
 12
15.4816255764
 22
23.8138682787
 13
15.4816255764
 23
23.8138682787
  0
SOLID
  5
385
100
AcDbEntity
  8
___SYMBOL
100
AcDbTrace
 62
2
  6
CONTINUOUS
 10
15.4816255764
 20
23.8138682787
 11
15.2826749537
 21
23.7935783186
 12
15.4540226213
 22
23.8414712337
 13
15.4540226213
 23
23.8414712337
  0
SOLID
  5
386
100
AcDbEntity
  8
___SYMBOL
100
AcDbTrace
 62
2
  6
CONTINUOUS
 10
15.2826749537
 20
23.7935783186
 11
15.2634198591
 21
23.8528394061
 12
15.4540226213
 22
23.8414712337
 13
15.4540226213
 23
23.8414712337
  0
SOLID
  5
387
100
AcDbEntity
  8
___SYMBOL
100
AcDbTrace
 62
2
  6
CONTINUOUS
 10
15.6559037756
 20
23.8414712337
 11
15.8465065378
 21
23.8528394061
 12
15.6283008206
 22
23.8138682787
 13
15.6283008206
 23
23.8138682787
  0
SOLID
  5
388
100
AcDbEntity
  8
___SYMBOL
100
AcDbTrace
 62
2
  6
CONTINUOUS
 10
15.6283008206
 20
23.8138682787
 11
15.8465065378
 21
23.8528394061
 12
15.5935190681
 22
23.7961460906
 13
15.5935190681
 23
23.7961460906
  0
SOLID
  5
389
100
AcDbEntity
  8
___SYMBOL
100
AcDbTrace
 62
2
  6
CONTINUOUS
 10
15.8465065378
 20
23.8528394061
 11
15.8272514433
 21
23.7935783186
 12
15.5935190681
 22
23.7961460906
 13
15.5935190681
 23
23.7961460906
  0
SOLID
  5
38A
100
AcDbEntity
  8
___SYMBOL
100
AcDbTrace
 62
2
  6
CONTINUOUS
 10
15.5164073288
 20
23.7961460906
 11
15.5549631985
 21
23.7900394408
 12
15.2826749537
 22
23.7935783186
 13
15.2826749537
 23
23.7935783186
  0
SOLID
  5
38B
100
AcDbEntity
  8
___SYMBOL
100
AcDbTrace
 62
2
  6
CONTINUOUS
 10
15.5549631985
 20
23.7900394408
 11
15.5935190681
 21
23.7961460906
 12
15.8272514433
 22
23.7935783186
 13
15.8272514433
 23
23.7935783186
  0
SOLID
  5
38C
100
AcDbEntity
  8
___SYMBOL
100
AcDbTrace
 62
2
  6
CONTINUOUS
 10
15.3138303511
 20
23.7396155873
 11
15.2826749537
 21
23.7935783186
 12
15.5549631985
 22
23.7900394408
 13
15.5549631985
 23
23.7900394408
  0
SOLID
  5
38D
100
AcDbEntity
  8
___SYMBOL
100
AcDbTrace
 62
2
  6
CONTINUOUS
 10
15.5549631985
 20
23.7900394408
 11
15.8272514433
 21
23.7935783186
 12
15.3138303511
 22
23.7396155873
 13
15.3138303511
 23
23.7396155873
  0
SOLID
  5
38E
100
AcDbEntity
  8
___SYMBOL
100
AcDbTrace
 62
2
  6
CONTINUOUS
 10
15.8272514433
 20
23.7935783186
 11
15.7960960459
 21
23.7396155873
 12
15.3138303511
 22
23.7396155873
 13
15.3138303511
 23
23.7396155873
  0
SOLID
  5
38F
100
AcDbEntity
  8
___SYMBOL
100
AcDbTrace
 62
2
  6
CONTINUOUS
 10
15.355524411
 20
23.6933096426
 11
15.3138303511
 21
23.7396155873
 12
15.7960960459
 22
23.7396155873
 13
15.7960960459
 23
23.7396155873
  0
SOLID
  5
390
100
AcDbEntity
  8
___SYMBOL
100
AcDbTrace
 62
2
  6
CONTINUOUS
 10
15.7960960459
 20
23.7396155873
 11
15.7544019859
 21
23.6933096426
 12
15.355524411
 22
23.6933096426
 13
15.355524411
 23
23.6933096426
  0
SOLID
  5
391
100
AcDbEntity
  8
___SYMBOL
100
AcDbTrace
 62
2
  6
CONTINUOUS
 10
15.405934903
 20
23.6566842763
 11
15.355524411
 21
23.6933096426
 12
15.7544019859
 22
23.6933096426
 13
15.7544019859
 23
23.6933096426
  0
SOLID
  5
392
100
AcDbEntity
  8
___SYMBOL
100
AcDbTrace
 62
2
  6
CONTINUOUS
 10
15.7544019859
 20
23.6933096426
 11
15.703991494
 21
23.6566842763
 12
15.405934903
 22
23.6566842763
 13
15.405934903
 23
23.6566842763
  0
SOLID
  5
393
100
AcDbEntity
  8
___SYMBOL
100
AcDbTrace
 62
2
  6
CONTINUOUS
 10
15.4628586466
 20
23.6313401928
 11
15.405934903
 21
23.6566842763
 12
15.703991494
 22
23.6566842763
 13
15.703991494
 23
23.6566842763
  0
SOLID
  5
394
100
AcDbEntity
  8
___SYMBOL
100
AcDbTrace
 62
2
  6
CONTINUOUS
 10
15.703991494
 20
23.6566842763
 11
15.6470677504
 21
23.6313401928
 12
15.4628586466
 22
23.6313401928
 13
15.4628586466
 23
23.6313401928
  0
SOLID
  5
395
100
AcDbEntity
  8
___SYMBOL
100
AcDbTrace
 62
2
  6
CONTINUOUS
 10
15.5238078011
 20
23.6183850501
 11
15.4628586466
 21
23.6313401928
 12
15.6470677504
 22
23.6313401928
 13
15.6470677504
 23
23.6313401928
  0
SOLID
  5
396
100
AcDbEntity
  8
___SYMBOL
100
AcDbTrace
 62
2
  6
CONTINUOUS
 10
15.6470677504
 20
23.6313401928
 11
15.5861185959
 21
23.6183850501
 12
15.5238078011
 22
23.6183850501
 13
15.5238078011
 23
23.6183850501
  0
LINE
  5
397
100
AcDbEntity
  8
___SYMBOL
100
AcDbLine
 62
2
  6
CONTINUOUS
 10
16.3475992077
 20
24.2088869324
 11
16.3475992077
 21
23.622973283
  0
LINE
  5
398
100
AcDbEntity
  8
___SYMBOL
100
AcDbLine
 62
2
  6
CONTINUOUS
 10
16.3475992077
 20
23.622973283
 11
16.1828655278
 21
23.622973283
  0
LINE
  5
399
100
AcDbEntity
  8
___SYMBOL
100
AcDbLine
 62
2
  6
CONTINUOUS
 10
16.1828655278
 20
23.8512978928
 11
16.1828655278
 21
23.622973283
  0
LINE
  5
39A
100
AcDbEntity
  8
___SYMBOL
100
AcDbLine
 62
2
  6
CONTINUOUS
 10
16.0348687167
 20
23.8512978928
 11
16.1828655278
 21
23.8512978928
  0
LINE
  5
39B
100
AcDbEntity
  8
___SYMBOL
100
AcDbLine
 62
2
  6
CONTINUOUS
 10
16.0348687167
 20
23.8512978928
 11
16.0348687167
 21
23.622973283
  0
LINE
  5
39C
100
AcDbEntity
  8
___SYMBOL
100
AcDbLine
 62
2
  6
CONTINUOUS
 10
16.0348687167
 20
23.622973283
 11
15.8701350369
 21
23.622973283
  0
LINE
  5
39D
100
AcDbEntity
  8
___SYMBOL
100
AcDbLine
 62
2
  6
CONTINUOUS
 10
15.8701350369
 20
24.2088869324
 11
15.8701350369
 21
23.622973283
  0
LINE
  5
39E
100
AcDbEntity
  8
___SYMBOL
100
AcDbLine
 62
2
  6
CONTINUOUS
 10
15.8701350369
 20
24.2088869324
 11
16.0348687167
 21
24.2088869324
  0
LINE
  5
39F
100
AcDbEntity
  8
___SYMBOL
100
AcDbLine
 62
2
  6
CONTINUOUS
 10
16.0348687167
 20
24.2088869324
 11
16.0348687167
 21
23.9885031727
  0
LINE
  5
3A0
100
AcDbEntity
  8
___SYMBOL
100
AcDbLine
 62
2
  6
CONTINUOUS
 10
16.0348687167
 20
23.9885031727
 11
16.1828655278
 21
23.9885031727
  0
LINE
  5
3A1
100
AcDbEntity
  8
___SYMBOL
100
AcDbLine
 62
2
  6
CONTINUOUS
 10
16.1828655278
 20
24.2088869324
 11
16.1828655278
 21
23.9885031727
  0
LINE
  5
3A2
100
AcDbEntity
  8
___SYMBOL
100
AcDbLine
 62
2
  6
CONTINUOUS
 10
16.1828655278
 20
24.2088869324
 11
16.3475992077
 21
24.2088869324
  0
SOLID
  5
3A3
100
AcDbEntity
  8
___SYMBOL
100
AcDbTrace
 62
2
  6
CONTINUOUS
 10
16.1828655278
 20
23.9885031727
 11
16.1828655278
 21
24.2088869324
 12
16.3475992077
 22
24.2088869324
 13
16.3475992077
 23
24.2088869324
  0
SOLID
  5
3A4
100
AcDbEntity
  8
___SYMBOL
100
AcDbTrace
 62
2
  6
CONTINUOUS
 10
16.1828655278
 20
23.9885031727
 11
16.0348687167
 21
23.8512978928
 12
16.0348687167
 22
23.9885031727
 13
16.0348687167
 23
23.9885031727
  0
SOLID
  5
3A5
100
AcDbEntity
  8
___SYMBOL
100
AcDbTrace
 62
2
  6
CONTINUOUS
 10
16.0348687167
 20
23.8512978928
 11
15.8701350369
 21
23.622973283
 12
16.0348687167
 22
23.9885031727
 13
16.0348687167
 23
23.9885031727
  0
SOLID
  5
3A6
100
AcDbEntity
  8
___SYMBOL
100
AcDbTrace
 62
2
  6
CONTINUOUS
 10
16.0348687167
 20
23.9885031727
 11
15.8701350369
 21
23.622973283
 12
16.0348687167
 22
24.2088869324
 13
16.0348687167
 23
24.2088869324
  0
SOLID
  5
3A7
100
AcDbEntity
  8
___SYMBOL
100
AcDbTrace
 62
2
  6
CONTINUOUS
 10
15.8701350369
 20
23.622973283
 11
15.8701350369
 21
24.2088869324
 12
16.0348687167
 22
24.2088869324
 13
16.0348687167
 23
24.2088869324
  0
SOLID
  5
3A8
100
AcDbEntity
  8
___SYMBOL
100
AcDbTrace
 62
2
  6
CONTINUOUS
 10
16.0348687167
 20
23.8512978928
 11
16.0348687167
 21
23.622973283
 12
15.8701350369
 22
23.622973283
 13
15.8701350369
 23
23.622973283
  0
SOLID
  5
3A9
100
AcDbEntity
  8
___SYMBOL
100
AcDbTrace
 62
2
  6
CONTINUOUS
 10
16.0348687167
 20
23.8512978928
 11
16.1828655278
 21
23.9885031727
 12
16.1828655278
 22
23.8512978928
 13
16.1828655278
 23
23.8512978928
  0
SOLID
  5
3AA
100
AcDbEntity
  8
___SYMBOL
100
AcDbTrace
 62
2
  6
CONTINUOUS
 10
16.1828655278
 20
23.9885031727
 11
16.3475992077
 21
24.2088869324
 12
16.1828655278
 22
23.8512978928
 13
16.1828655278
 23
23.8512978928
  0
SOLID
  5
3AB
100
AcDbEntity
  8
___SYMBOL
100
AcDbTrace
 62
2
  6
CONTINUOUS
 10
16.1828655278
 20
23.8512978928
 11
16.3475992077
 21
24.2088869324
 12
16.1828655278
 22
23.622973283
 13
16.1828655278
 23
23.622973283
  0
SOLID
  5
3AC
100
AcDbEntity
  8
___SYMBOL
100
AcDbTrace
 62
2
  6
CONTINUOUS
 10
16.3475992077
 20
24.2088869324
 11
16.3475992077
 21
23.622973283
 12
16.1828655278
 22
23.622973283
 13
16.1828655278
 23
23.622973283
  0
LINE
  5
3AD
100
AcDbEntity
  8
___SYMBOL
100
AcDbLine
 62
2
  6
CONTINUOUS
 10
16.5426901146
 20
23.622973283
 11
16.7053741846
 21
23.622973283
  0
LINE
  5
3AE
100
AcDbEntity
  8
___SYMBOL
100
AcDbLine
 62
2
  6
CONTINUOUS
 10
16.5426901146
 20
23.622973283
 11
16.3926440519
 21
23.622973283
  0
LINE
  5
3AF
100
AcDbEntity
  8
___SYMBOL
100
AcDbLine
 62
2
  6
CONTINUOUS
 10
16.3926440519
 20
23.622973283
 11
16.3926440519
 21
24.2088869324
  0
LINE
  5
3B0
100
AcDbEntity
  8
___SYMBOL
100
AcDbLine
 62
2
  6
CONTINUOUS
 10
16.3926440519
 20
24.2088869324
 11
16.5426901146
 21
24.2088869324
  0
LINE
  5
3B1
100
AcDbEntity
  8
___SYMBOL
100
AcDbLine
 62
2
  6
CONTINUOUS
 10
16.5426901146
 20
24.2088869324
 11
16.5426901146
 21
23.7642000402
  0
LINE
  5
3B2
100
AcDbEntity
  8
___SYMBOL
100
AcDbLine
 62
2
  6
CONTINUOUS
 10
16.5426901146
 20
23.7642000402
 11
16.7053741846
 21
23.7642000402
  0
LINE
  5
3B3
100
AcDbEntity
  8
___SYMBOL
100
AcDbLine
 62
2
  6
CONTINUOUS
 10
16.7053741846
 20
23.7642000402
 11
16.7053741846
 21
23.622973283
  0
SOLID
  5
3B4
100
AcDbEntity
  8
___SYMBOL
100
AcDbTrace
 62
2
  6
CONTINUOUS
 10
16.7053741846
 20
23.7642000402
 11
16.3926440519
 21
23.622973283
 12
16.5426901146
 22
23.7642000402
 13
16.5426901146
 23
23.7642000402
  0
SOLID
  5
3B5
100
AcDbEntity
  8
___SYMBOL
100
AcDbTrace
 62
2
  6
CONTINUOUS
 10
16.5426901146
 20
23.7642000402
 11
16.3926440519
 21
23.622973283
 12
16.5426901146
 22
24.2088869324
 13
16.5426901146
 23
24.2088869324
  0
SOLID
  5
3B6
100
AcDbEntity
  8
___SYMBOL
100
AcDbTrace
 62
2
  6
CONTINUOUS
 10
16.3926440519
 20
23.622973283
 11
16.3926440519
 21
24.2088869324
 12
16.5426901146
 22
24.2088869324
 13
16.5426901146
 23
24.2088869324
  0
SOLID
  5
3B7
100
AcDbEntity
  8
___SYMBOL
100
AcDbTrace
 62
2
  6
CONTINUOUS
 10
16.3926440519
 20
23.622973283
 11
16.7053741846
 21
23.7642000402
 12
16.5426901146
 22
23.622973283
 13
16.5426901146
 23
23.622973283
  0
SOLID
  5
3B8
100
AcDbEntity
  8
___SYMBOL
100
AcDbTrace
 62
2
  6
CONTINUOUS
 10
16.7053741846
 20
23.7642000402
 11
16.7053741846
 21
23.622973283
 12
16.5426901146
 22
23.622973283
 13
16.5426901146
 23
23.622973283
  0
LINE
  5
3B9
100
AcDbEntity
  8
___SYMBOL
100
AcDbLine
 62
2
  6
CONTINUOUS
 10
17.0436260986
 20
23.8441215712
 11
17.0436260986
 21
23.9885031727
  0
LINE
  5
3BA
100
AcDbEntity
  8
___SYMBOL
100
AcDbLine
 62
2
  6
CONTINUOUS
 10
16.8927685752
 20
23.9885031727
 11
17.0436260986
 21
23.9885031727
  0
LINE
  5
3BB
100
AcDbEntity
  8
___SYMBOL
100
AcDbLine
 62
2
  6
CONTINUOUS
 10
16.8927685752
 20
24.0661275356
 11
16.8927685752
 21
23.9885031727
  0
LINE
  5
3BC
100
AcDbEntity
  8
___SYMBOL
100
AcDbLine
 62
2
  6
CONTINUOUS
 10
16.8927685752
 20
24.0661275356
 11
17.0436260986
 21
24.0661275356
  0
LINE
  5
3BD
100
AcDbEntity
  8
___SYMBOL
100
AcDbLine
 62
2
  6
CONTINUOUS
 10
17.0436260986
 20
24.0661275356
 11
17.0436260986
 21
24.2088869324
  0
LINE
  5
3BE
100
AcDbEntity
  8
___SYMBOL
100
AcDbLine
 62
2
  6
CONTINUOUS
 10
16.9069728986
 20
24.2088869324
 11
17.0436260986
 21
24.2088869324
  0
LINE
  5
3BF
100
AcDbEntity
  8
___SYMBOL
100
AcDbLine
 62
2
  6
CONTINUOUS
 10
16.7345219233
 20
24.2088869324
 11
16.9069728986
 21
24.2088869324
  0
LINE
  5
3C0
100
AcDbEntity
  8
___SYMBOL
100
AcDbLine
 62
2
  6
CONTINUOUS
 10
16.7345219233
 20
23.622973283
 11
16.7345219233
 21
24.2088869324
  0
LINE
  5
3C1
100
AcDbEntity
  8
___SYMBOL
100
AcDbLine
 62
2
  6
CONTINUOUS
 10
16.7345219233
 20
23.622973283
 11
17.0436260986
 21
23.622973283
  0
LINE
  5
3C2
100
AcDbEntity
  8
___SYMBOL
100
AcDbLine
 62
2
  6
CONTINUOUS
 10
17.0436260986
 20
23.622973283
 11
17.0436260986
 21
23.7642000402
  0
LINE
  5
3C3
100
AcDbEntity
  8
___SYMBOL
100
AcDbLine
 62
2
  6
CONTINUOUS
 10
16.8927685752
 20
23.7642000402
 11
17.0436260986
 21
23.7642000402
  0
LINE
  5
3C4
100
AcDbEntity
  8
___SYMBOL
100
AcDbLine
 62
2
  6
CONTINUOUS
 10
16.8927685752
 20
23.8441215712
 11
16.8927685752
 21
23.7642000402
  0
LINE
  5
3C5
100
AcDbEntity
  8
___SYMBOL
100
AcDbLine
 62
2
  6
CONTINUOUS
 10
16.8927685752
 20
23.8441215712
 11
17.0436260986
 21
23.8441215712
  0
SOLID
  5
3C6
100
AcDbEntity
  8
___SYMBOL
100
AcDbTrace
 62
2
  6
CONTINUOUS
 10
17.0436260986
 20
24.2088869324
 11
17.0436260986
 21
24.0661275356
 12
16.8927685752
 22
24.0661275356
 13
16.8927685752
 23
24.0661275356
  0
SOLID
  5
3C7
100
AcDbEntity
  8
___SYMBOL
100
AcDbTrace
 62
2
  6
CONTINUOUS
 10
17.0436260986
 20
23.9885031727
 11
17.0436260986
 21
23.8441215712
 12
16.8927685752
 22
23.8441215712
 13
16.8927685752
 23
23.8441215712
  0
SOLID
  5
3C8
100
AcDbEntity
  8
___SYMBOL
100
AcDbTrace
 62
2
  6
CONTINUOUS
 10
17.0436260986
 20
23.7642000402
 11
16.7345219233
 21
23.622973283
 12
16.8927685752
 22
23.7642000402
 13
16.8927685752
 23
23.7642000402
  0
SOLID
  5
3C9
100
AcDbEntity
  8
___SYMBOL
100
AcDbTrace
 62
2
  6
CONTINUOUS
 10
16.8927685752
 20
23.7642000402
 11
16.7345219233
 21
23.622973283
 12
16.8927685752
 22
23.8441215712
 13
16.8927685752
 23
23.8441215712
  0
SOLID
  5
3CA
100
AcDbEntity
  8
___SYMBOL
100
AcDbTrace
 62
2
  6
CONTINUOUS
 10
17.0436260986
 20
23.9885031727
 11
16.8927685752
 21
23.8441215712
 12
16.8927685752
 22
23.9885031727
 13
16.8927685752
 23
23.9885031727
  0
SOLID
  5
3CB
100
AcDbEntity
  8
___SYMBOL
100
AcDbTrace
 62
2
  6
CONTINUOUS
 10
16.8927685752
 20
23.8441215712
 11
16.7345219233
 21
23.622973283
 12
16.8927685752
 22
23.9885031727
 13
16.8927685752
 23
23.9885031727
  0
SOLID
  5
3CC
100
AcDbEntity
  8
___SYMBOL
100
AcDbTrace
 62
2
  6
CONTINUOUS
 10
16.8927685752
 20
23.9885031727
 11
16.7345219233
 21
23.622973283
 12
16.8927685752
 22
24.0661275356
 13
16.8927685752
 23
24.0661275356
  0
SOLID
  5
3CD
100
AcDbEntity
  8
___SYMBOL
100
AcDbTrace
 62
2
  6
CONTINUOUS
 10
17.0436260986
 20
24.2088869324
 11
16.8927685752
 21
24.0661275356
 12
16.9069728986
 22
24.2088869324
 13
16.9069728986
 23
24.2088869324
  0
SOLID
  5
3CE
100
AcDbEntity
  8
___SYMBOL
100
AcDbTrace
 62
2
  6
CONTINUOUS
 10
16.8927685752
 20
24.0661275356
 11
16.7345219233
 21
23.622973283
 12
16.9069728986
 22
24.2088869324
 13
16.9069728986
 23
24.2088869324
  0
SOLID
  5
3CF
100
AcDbEntity
  8
___SYMBOL
100
AcDbTrace
 62
2
  6
CONTINUOUS
 10
16.7345219233
 20
23.622973283
 11
16.7345219233
 21
24.2088869324
 12
16.9069728986
 22
24.2088869324
 13
16.9069728986
 23
24.2088869324
  0
SOLID
  5
3D0
100
AcDbEntity
  8
___SYMBOL
100
AcDbTrace
 62
2
  6
CONTINUOUS
 10
17.0436260986
 20
23.7642000402
 11
17.0436260986
 21
23.622973283
 12
16.7345219233
 22
23.622973283
 13
16.7345219233
 23
23.622973283
  0
LINE
  5
3D1
100
AcDbEntity
  8
___SYMBOL
100
AcDbLine
 62
2
  6
CONTINUOUS
 10
17.5538765046
 20
23.622973283
 11
17.3944332616
 21
23.8745558243
  0
ARC
  5
3D2
100
AcDbEntity
  8
___SYMBOL
100
AcDbCircle
 62
2
  6
CONTINUOUS
 10
17.321994014
 20
24.0338774217
 40
0.1750166163
100
AcDbArc
 50
294.4500166359
 51
90.0
  0
LINE
  5
3D3
100
AcDbEntity
  8
___SYMBOL
100
AcDbLine
 62
2
  6
CONTINUOUS
 10
17.0884463133
 20
24.2088869324
 11
17.321994014
 21
24.2088869324
  0
LINE
  5
3D4
100
AcDbEntity
  8
___SYMBOL
100
AcDbLine
 62
2
  6
CONTINUOUS
 10
17.0884463133
 20
23.622973283
 11
17.0884463133
 21
24.2088869324
  0
LINE
  5
3D5
100
AcDbEntity
  8
___SYMBOL
100
AcDbLine
 62
2
  6
CONTINUOUS
 10
17.0884463133
 20
23.622973283
 11
17.2391021359
 21
23.622973283
  0
LINE
  5
3D6
100
AcDbEntity
  8
___SYMBOL
100
AcDbLine
 62
2
  6
CONTINUOUS
 10
17.2391021359
 20
23.8199296538
 11
17.2391021359
 21
23.622973283
  0
LINE
  5
3D7
100
AcDbEntity
  8
___SYMBOL
100
AcDbLine
 62
2
  6
CONTINUOUS
 10
17.363925565
 20
23.622973283
 11
17.2391021359
 21
23.8199296538
  0
LINE
  5
3D8
100
AcDbEntity
  8
___SYMBOL
100
AcDbLine
 62
2
  6
CONTINUOUS
 10
17.363925565
 20
23.622973283
 11
17.5538765046
 21
23.622973283
  0
LINE
  5
3D9
100
AcDbEntity
  8
___SYMBOL
100
AcDbLine
 62
2
  6
CONTINUOUS
 10
17.2391021359
 20
23.9592049645
 11
17.2914418861
 21
23.9592049645
  0
ARC
  5
3DA
100
AcDbEntity
  8
___SYMBOL
100
AcDbCircle
 62
2
  6
CONTINUOUS
 10
17.2950319154
 20
24.012696364
 40
0.053611735
100
AcDbArc
 50
266.1604009902
 51
89.9998910512
  0
LINE
  5
3DB
100
AcDbEntity
  8
___SYMBOL
100
AcDbLine
 62
2
  6
CONTINUOUS
 10
17.2950320173
 20
24.0663080991
 11
17.2391021359
 21
24.0663080991
  0
LINE
  5
3DC
100
AcDbEntity
  8
___SYMBOL
100
AcDbLine
 62
2
  6
CONTINUOUS
 10
17.2391021359
 20
24.0663080991
 11
17.2391021359
 21
23.9592049645
  0
SOLID
  5
3DD
100
AcDbEntity
  8
___SYMBOL
100
AcDbTrace
 62
2
  6
CONTINUOUS
 10
17.321994014
 20
24.208894038
 11
17.3689270375
 21
24.2024837896
 12
17.0884463133
 22
24.2088869324
 13
17.0884463133
 23
24.2088869324
  0
SOLID
  5
3DE
100
AcDbEntity
  8
___SYMBOL
100
AcDbTrace
 62
2
  6
CONTINUOUS
 10
17.2391021359
 20
24.0663080991
 11
17.493041877
 21
24.0709374346
 12
17.2950320173
 22
24.0663080991
 13
17.2950320173
 23
24.0663080991
  0
SOLID
  5
3DF
100
AcDbEntity
  8
___SYMBOL
100
AcDbTrace
 62
2
  6
CONTINUOUS
 10
17.2950320173
 20
24.0663080991
 11
17.493041877
 21
24.0709374346
 12
17.3187545989
 22
24.0607739307
 13
17.3187545989
 23
24.0607739307
  0
SOLID
  5
3E0
100
AcDbEntity
  8
___SYMBOL
100
AcDbTrace
 62
2
  6
CONTINUOUS
 10
17.3187545989
 20
24.0607739307
 11
17.493041877
 21
24.0709374346
 12
17.3375795866
 22
24.0453140557
 13
17.3375795866
 23
24.0453140557
  0
SOLID
  5
3E1
100
AcDbEntity
  8
___SYMBOL
100
AcDbTrace
 62
2
  6
CONTINUOUS
 10
17.493041877
 20
24.0709374346
 11
17.4967151234
 21
24.0237113057
 12
17.3375795866
 22
24.0453140557
 13
17.3375795866
 23
24.0453140557
  0
SOLID
  5
3E2
100
AcDbEntity
  8
___SYMBOL
100
AcDbTrace
 62
2
  6
CONTINUOUS
 10
17.3476205252
 20
24.0231201951
 11
17.3375795866
 21
24.0453140557
 12
17.4967151234
 22
24.0237113057
 13
17.4967151234
 23
24.0237113057
  0
SOLID
  5
3E3
100
AcDbEntity
  8
___SYMBOL
100
AcDbTrace
 62
2
  6
CONTINUOUS
 10
17.3476205252
 20
24.0231201951
 11
17.4967151234
 21
24.0237113057
 12
17.3468044435
 22
23.9987743144
 13
17.3468044435
 23
23.9987743144
  0
SOLID
  5
3E4
100
AcDbEntity
  8
___SYMBOL
100
AcDbTrace
 62
2
  6
CONTINUOUS
 10
17.3468044435
 20
23.9987743144
 11
17.4967151234
 21
24.0237113057
 12
17.3352998231
 22
23.9773026678
 13
17.3352998231
 23
23.9773026678
  0
SOLID
  5
3E5
100
AcDbEntity
  8
___SYMBOL
100
AcDbTrace
 62
2
  6
CONTINUOUS
 10
17.4967151234
 20
24.0237113057
 11
17.4875895197
 21
23.9772298757
 12
17.3352998231
 22
23.9773026678
 13
17.3352998231
 23
23.9773026678
  0
SOLID
  5
3E6
100
AcDbEntity
  8
___SYMBOL
100
AcDbTrace
 62
2
  6
CONTINUOUS
 10
17.3154818153
 20
23.9631381183
 11
17.3352998231
 21
23.9773026678
 12
17.4875895197
 22
23.9772298757
 13
17.4875895197
 23
23.9772298757
  0
SOLID
  5
3E7
100
AcDbEntity
  8
___SYMBOL
100
AcDbTrace
 62
2
  6
CONTINUOUS
 10
17.3154818153
 20
23.9631381183
 11
17.4875895197
 21
23.9772298757
 12
17.2914418861
 22
23.9592049645
 13
17.2914418861
 23
23.9592049645
  0
SOLID
  5
3E8
100
AcDbEntity
  8
___SYMBOL
100
AcDbTrace
 62
2
  6
CONTINUOUS
 10
17.4875895197
 20
23.9772298757
 11
17.466333544
 21
23.9348980498
 12
17.2914418861
 22
23.9592049645
 13
17.2914418861
 23
23.9592049645
  0
SOLID
  5
3E9
100
AcDbEntity
  8
___SYMBOL
100
AcDbTrace
 62
2
  6
CONTINUOUS
 10
17.3944332616
 20
23.8745558243
 11
17.2391021359
 21
23.8199296538
 12
17.4345042609
 22
23.8998167625
 13
17.4345042609
 23
23.8998167625
  0
SOLID
  5
3EA
100
AcDbEntity
  8
___SYMBOL
100
AcDbTrace
 62
2
  6
CONTINUOUS
 10
17.4345042609
 20
23.8998167625
 11
17.2391021359
 21
23.8199296538
 12
17.466333544
 22
23.9348980498
 13
17.466333544
 23
23.9348980498
  0
SOLID
  5
3EB
100
AcDbEntity
  8
___SYMBOL
100
AcDbTrace
 62
2
  6
CONTINUOUS
 10
17.466333544
 20
23.9348980498
 11
17.2391021359
 21
23.8199296538
 12
17.2914418861
 22
23.9592049645
 13
17.2914418861
 23
23.9592049645
  0
SOLID
  5
3EC
100
AcDbEntity
  8
___SYMBOL
100
AcDbTrace
 62
2
  6
CONTINUOUS
 10
17.2391021359
 20
23.8199296538
 11
17.0884463133
 21
23.622973283
 12
17.2914418861
 22
23.9592049645
 13
17.2914418861
 23
23.9592049645
  0
SOLID
  5
3ED
100
AcDbEntity
  8
___SYMBOL
100
AcDbTrace
 62
2
  6
CONTINUOUS
 10
17.2914418861
 20
23.9592049645
 11
17.0884463133
 21
23.622973283
 12
17.2391021359
 22
23.9592049645
 13
17.2391021359
 23
23.9592049645
  0
SOLID
  5
3EE
100
AcDbEntity
  8
___SYMBOL
100
AcDbTrace
 62
2
  6
CONTINUOUS
 10
17.2391021359
 20
23.9592049645
 11
17.0884463133
 21
23.622973283
 12
17.2391021359
 22
24.0663080991
 13
17.2391021359
 23
24.0663080991
  0
SOLID
  5
3EF
100
AcDbEntity
  8
___SYMBOL
100
AcDbTrace
 62
2
  6
CONTINUOUS
 10
17.493041877
 20
24.0709374346
 11
17.2391021359
 21
24.0663080991
 12
17.4768388569
 22
24.1154488053
 13
17.4768388569
 23
24.1154488053
  0
SOLID
  5
3F0
100
AcDbEntity
  8
___SYMBOL
100
AcDbTrace
 62
2
  6
CONTINUOUS
 10
17.4768388569
 20
24.1154488053
 11
17.2391021359
 21
24.0663080991
 12
17.4492929833
 22
24.1539848252
 13
17.4492929833
 23
24.1539848252
  0
SOLID
  5
3F1
100
AcDbEntity
  8
___SYMBOL
100
AcDbTrace
 62
2
  6
CONTINUOUS
 10
17.4492929833
 20
24.1539848252
 11
17.2391021359
 21
24.0663080991
 12
17.412422075
 22
24.1837226144
 13
17.412422075
 23
24.1837226144
  0
SOLID
  5
3F2
100
AcDbEntity
  8
___SYMBOL
100
AcDbTrace
 62
2
  6
CONTINUOUS
 10
17.412422075
 20
24.1837226144
 11
17.2391021359
 21
24.0663080991
 12
17.3689270375
 22
24.2024837896
 13
17.3689270375
 23
24.2024837896
  0
SOLID
  5
3F3
100
AcDbEntity
  8
___SYMBOL
100
AcDbTrace
 62
2
  6
CONTINUOUS
 10
17.3689270375
 20
24.2024837896
 11
17.2391021359
 21
24.0663080991
 12
17.0884463133
 22
24.2088869324
 13
17.0884463133
 23
24.2088869324
  0
SOLID
  5
3F4
100
AcDbEntity
  8
___SYMBOL
100
AcDbTrace
 62
2
  6
CONTINUOUS
 10
17.0884463133
 20
23.622973283
 11
17.0884463133
 21
24.2088869324
 12
17.2391021359
 22
24.0663080991
 13
17.2391021359
 23
24.0663080991
  0
SOLID
  5
3F5
100
AcDbEntity
  8
___SYMBOL
100
AcDbTrace
 62
2
  6
CONTINUOUS
 10
17.2391021359
 20
23.8199296538
 11
17.2391021359
 21
23.622973283
 12
17.0884463133
 22
23.622973283
 13
17.0884463133
 23
23.622973283
  0
SOLID
  5
3F6
100
AcDbEntity
  8
___SYMBOL
100
AcDbTrace
 62
2
  6
CONTINUOUS
 10
17.2391021359
 20
23.8199296538
 11
17.3944332616
 21
23.8745558243
 12
17.363925565
 22
23.622973283
 13
17.363925565
 23
23.622973283
  0
SOLID
  5
3F7
100
AcDbEntity
  8
___SYMBOL
100
AcDbTrace
 62
2
  6
CONTINUOUS
 10
17.3944332616
 20
23.8745558243
 11
17.5538765046
 21
23.622973283
 12
17.363925565
 22
23.622973283
 13
17.363925565
 23
23.622973283
  0
CIRCLE
  5
3F8
100
AcDbEntity
  8
___SYMBOL
100
AcDbCircle
 62
2
  6
CONTINUOUS
 10
17.6946464792
 20
23.622973283
 40
0.0653578721
  0
LINE
  5
3F9
100
AcDbEntity
  8
___SYMBOL
100
AcDbLine
 62
2
  6
CONTINUOUS
 10
17.690358456
 20
23.6224355336
 11
17.7222264688
 21
23.5901325923
  0
LINE
  5
3FA
100
AcDbEntity
  8
___SYMBOL
100
AcDbLine
 62
2
  6
CONTINUOUS
 10
17.6787604798
 20
23.5901325923
 11
17.6787604798
 21
23.6560987911
  0
LINE
  5
3FB
100
AcDbEntity
  8
___SYMBOL
100
AcDbLine
 62
2
  6
CONTINUOUS
 10
17.6787604798
 20
23.6560987911
 11
17.7030398128
 21
23.6560987911
  0
ARC
  5
3FC
100
AcDbEntity
  8
___SYMBOL
100
AcDbCircle
 62
2
  6
CONTINUOUS
 10
17.7030398128
 20
23.6392673415
 40
0.0168314496
100
AcDbArc
 50
270.0
 51
90.0
  0
LINE
  5
3FD
100
AcDbEntity
  8
___SYMBOL
100
AcDbLine
 62
2
  6
CONTINUOUS
 10
17.7030398128
 20
23.6224355336
 11
17.6787604798
 21
23.6224355336
  0
ENDBLK
  5
3FE
100
AcDbEntity
  8
0
  6
BYBLOCK
 62
0
100
AcDbBlockEnd
  0
BLOCK
  5
3FF
100
AcDbEntity
  8
0
100
AcDbBlockBegin
  2
_ARROW_FILLED
 70
64
 10
0.0
 20
0.0
  3
_ARROW_FILLED
  1

  0
SOLID
  5
400
100
AcDbEntity
  8
0
  6
BYBLOCK
 62
0
100
AcDbTrace
 10
0.0
 20
0.0
 11
-1.0
 21
0.1666666667
 12
-1.0
 22
-0.1666666667
 13
-1.0
 23
-0.1666666667
  0
ENDBLK
  5
401
100
AcDbEntity
  8
0
  6
BYBLOCK
 62
0
100
AcDbBlockEnd
  0
BLOCK
  5
402
100
AcDbEntity
  8
0
100
AcDbBlockBegin
 62
2
  6
CONTINUOUS
  2
*D0
 70
65
 10
0.0
 20
0.0
  3
*D0
  1

  0
MTEXT
  5
403
100
AcDbEntity
  8
0
100
AcDbMText
 62
2
  6
CONTINUOUS
  7
STANDARD
 71
3
 72
1
 10
28.7025347447
 20
23.6043834605
 30
0.0
 11
1.0
 21
0.0
 31
0.0
  1
R1-1/4\P[3,2]
 40
0.15625
 41
0.75
  0
LINE
  5
404
100
AcDbEntity
  8
0
100
AcDbLine
 62
2
  6
CONTINUOUS
 10
30.1250819701
 20
24.7785717786
 11
28.9525347447
 21
23.5262584605
  0
LINE
  5
405
100
AcDbEntity
  8
0
100
AcDbLine
 62
2
  6
CONTINUOUS
 10
28.9525347447
 20
23.5262584605
 11
28.7806597447
 21
23.5262584605
  0
INSERT
  5
406
100
AcDbEntity
  8
0
100
AcDbBlockReference
 62
2
  6
CONTINUOUS
  2
_ARROW_FILLED
 10
30.1250819701
 20
24.7785717786
 41
0.1875
 42
0.1875
 43
0.1875
 50
46.8840724949
  0
ENDBLK
  5
407
100
AcDbEntity
  8
0
  6
BYBLOCK
 62
0
100
AcDbBlockEnd
  0
BLOCK
  5
408
100
AcDbEntity
  8
0
100
AcDbBlockBegin
 62
2
  6
CONTINUOUS
  2
*D1
 70
65
 10
0.0
 20
0.0
  3
*D1
  1

  0
MTEXT
  5
409
100
AcDbEntity
  8
0
100
AcDbMText
 62
2
  6
CONTINUOUS
  7
STANDARD
 71
1
 72
1
 10
19.9809912158
 20
15.8773567436
 30
0.0
 11
1.0
 21
0.0
 31
0.0
  1
12-9/16\P[32]
 40
0.15625
 41
0.875
  0
LINE
  5
40A
100
AcDbEntity
  8
0
100
AcDbLine
 62
2
  6
CONTINUOUS
 10
20.4184912158
 20
25.116106395
 11
20.4184912158
 21
15.9554817436
  0
LINE
  5
40B
100
AcDbEntity
  8
0
100
AcDbLine
 62
2
  6
CONTINUOUS
 10
20.4184912158
 20
12.553606395
 11
20.4184912158
 21
15.4086067436
  0
INSERT
  5
40C
100
AcDbEntity
  8
0
100
AcDbBlockReference
 62
2
  6
CONTINUOUS
  2
_ARROW_FILLED
 10
20.4184912158
 20
25.116106395
 41
0.1875
 42
0.1875
 43
0.1875
 50
90.0
  0
INSERT
  5
40D
100
AcDbEntity
  8
0
100
AcDbBlockReference
 62
2
  6
CONTINUOUS
  2
_ARROW_FILLED
 10
20.4184912158
 20
12.553606395
 41
0.1875
 42
0.1875
 43
0.1875
 50
270.0
  0
ENDBLK
  5
40E
100
AcDbEntity
  8
0
  6
BYBLOCK
 62
0
100
AcDbBlockEnd
  0
BLOCK
  5
40F
100
AcDbEntity
  8
0
100
AcDbBlockBegin
 62
2
  6
CONTINUOUS
  2
*D2
 70
65
 10
0.0
 20
0.0
  3
*D2
  1

  0
MTEXT
  5
410
100
AcDbEntity
  8
0
100
AcDbMText
 62
2
  6
CONTINUOUS
  7
STANDARD
 71
1
 72
1
 10
18.4237348387
 20
17.57504585
 30
0.0
 11
1.0
 21
0.0
 31
0.0
  1
17\P[43]
 40
0.15625
 41
0.5
  0
LINE
  5
411
100
AcDbEntity
  8
0
100
AcDbLine
 62
2
  6
CONTINUOUS
 10
30.5207360661
 20
19.5342751168
 11
30.5207360661
 21
17.37192085
  0
LINE
  5
412
100
AcDbEntity
  8
0
100
AcDbLine
 62
2
  6
CONTINUOUS
 10
13.5207360661
 20
19.6114258017
 11
13.5207360661
 21
17.37192085
  0
LINE
  5
413
100
AcDbEntity
  8
0
100
AcDbLine
 62
2
  6
CONTINUOUS
 10
30.5207360661
 20
17.49692085
 11
19.0018598387
 21
17.49692085
  0
LINE
  5
414
100
AcDbEntity
  8
0
100
AcDbLine
 62
2
  6
CONTINUOUS
 10
13.5207360661
 20
17.49692085
 11
18.3456098387
 21
17.49692085
  0
INSERT
  5
415
100
AcDbEntity
  8
0
100
AcDbBlockReference
 62
2
  6
CONTINUOUS
  2
_ARROW_FILLED
 10
30.5207360661
 20
17.49692085
 41
0.1875
 42
0.1875
 43
0.1875
  0
INSERT
  5
416
100
AcDbEntity
  8
0
100
AcDbBlockReference
 62
2
  6
CONTINUOUS
  2
_ARROW_FILLED
 10
13.5207360661
 20
17.49692085
 41
0.1875
 42
0.1875
 43
0.1875
 50
180.0
  0
ENDBLK
  5
417
100
AcDbEntity
  8
0
  6
BYBLOCK
 62
0
100
AcDbBlockEnd
  0
ENDSEC
  0
SECTION
  2
ENTITIES
  0
DIMENSION
  5
418
100
AcDbEntity
  8
0
100
AcDbDimension
 62
2
  6
CONTINUOUS
  2
*D0
 10
29.2707360661
 20
23.866106395
 11
28.3275347447
 21
23.4090709605
 70
164
  1
R<>\P[]
  3
DIMSTYLE_1
100
AcDbRadialDimension
 15
30.1250819701
 25
24.7785717786
  0
DIMENSION
  5
419
100
AcDbEntity
  8
0
100
AcDbDimension
 62
2
  6
CONTINUOUS
  2
*D1
 10
20.4184912158
 20
12.553606395
 11
20.4184912158
 21
15.6820442436
 70
160
  1
<>\P[]
  3
DIMSTYLE_2
100
AcDbAlignedDimension
 13
14.7707360661
 23
25.116106395
 14
14.7707360661
 24
12.553606395
 50
270.0
100
AcDbRotatedDimension
  0
DIMENSION
  5
41A
100
AcDbEntity
  8
0
100
AcDbDimension
 62
2
  6
CONTINUOUS
  2
*D2
 10
13.5207360661
 20
17.49692085
 11
18.6737348387
 21
17.37973335
 70
160
  1
<>\P[]
  3
DIMSTYLE_3
100
AcDbAlignedDimension
 13
30.5207360661
 23
19.5967751168
 14
13.5207360661
 24
19.6739258017
 50
180.0
100
AcDbRotatedDimension
  0
LEADER
  5
41B
100
AcDbEntity
  8
___NOTE
100
AcDbLeader
 62
2
  6
CONTINUOUS
  3
STANDARD
 71
1
 72
0
 73
0
 75
0
 40
0.15625
 41
1.25
 76
3
 10
31.992929238
 20
23.1495295921
 30
0.0
 10
28.9924557067
 20
21.3781479541
 30
0.0
 10
28.7424557067
 20
21.3781479541
 30
0.0
340
41C
1001
ACAD
1000
DSTYLE
1002
{
1070
77
1070
0
1002
}
  0
MTEXT
  5
41C
102
{ACAD_REACTORS
330
41B
102
}
100
AcDbEntity
  8
___NOTE
100
AcDbMText
 62
2
  6
CONTINUOUS
  7
STANDARD
 71
3
 72
1
 10
28.7424557067
 20
21.4562729541
 30
0.0
 11
1.0
 21
0.0
 31
0.0
  1
RIM OF LAV\PREBORD DU LAVABO\PBORDE DEL LAVABO\P 
 40
0.15625
 41
2.0
  0
LEADER
  5
41D
100
AcDbEntity
  8
___NOTE
100
AcDbLeader
 62
2
  6
CONTINUOUS
  3
STANDARD
 71
1
 72
0
 73
0
 75
0
 40
0.15625
 41
3.625
 76
3
 10
30.5207360661
 20
21.2720282523
 30
0.0
 10
29.0691971498
 20
19.941929409
 30
0.0
 10
28.8191971498
 20
19.941929409
 30
0.0
340
41E
1001
ACAD
1000
DSTYLE
1002
{
1070
77
1070
0
1002
}
  0
MTEXT
  5
41E
102
{ACAD_REACTORS
330
41D
102
}
100
AcDbEntity
  8
___NOTE
100
AcDbMText
 62
2
  6
CONTINUOUS
  7
STANDARD
 71
3
 72
1
 10
28.8191971498
 20
20.020054409
 30
0.0
 11
1.0
 21
0.0
 31
0.0
  1
FOR UNDERCOUNTER INSTALLATION\PCUT ALONG THIS LINE\PPOUR INSTALLATION SOUS COMPTOIR \PDÉCOUPER LE LONG DE CETTE LIGNE\PPARA INSTALACIÓN BAJO CUBIERTA, \PCORTE POR ESTA LÍNEA
 40
0.15625
 41
4.0
  0
INSERT
  5
41F
100
AcDbEntity
  8
___SYMBOL
100
AcDbBlockReference
 62
2
  6
CONTINUOUS
  2
SKU_LAV_KOHLER_BL0
 10
17.0306985871
 20
22.0279202777
  0
INSERT
  5
420
100
AcDbEntity
  8
___SYMBOL
100
AcDbBlockReference
 62
2
  6
CONTINUOUS
  2
LAV_UC_INSTALLATION_BL1
 10
24.6077923722
 20
22.4872478379
  0
INSERT
  5
421
100
AcDbEntity
  8
___SYMBOL
100
AcDbBlockReference
 62
2
  6
CONTINUOUS
  2
COPYRIGHT_YEAR_BL2
 10
25.6810537735
 20
13.2372576418
  0
INSERT
  5
422
100
AcDbEntity
  8
___SYMBOL
100
AcDbBlockReference
 62
2
  6
CONTINUOUS
  2
TEMPLATE_NUMBER_BL3
 10
17.0458519968
 20
13.0871182318
  0
INSERT
  5
423
100
AcDbEntity
  8
___SYMBOL
100
AcDbBlockReference
 62
2
  6
CONTINUOUS
  2
TEMPLATE_NUMBER_BL4
 10
16.9980586738
 20
10.1668075668
  0
INSERT
  5
424
100
AcDbEntity
  8
___SYMBOL
100
AcDbBlockReference
 62
2
  6
CONTINUOUS
  2
WHEN_PLOTTING_TEMPLATE_N_BL5
 10
26.3535092193
 20
15.2078527594
  0
INSERT
  5
425
100
AcDbEntity
  8
___SYMBOL
100
AcDbBlockReference
 62
2
  6
CONTINUOUS
  2
SCISSORS_BL6
 10
30.5434350105
 20
16.0173110332
  0
LINE
  5
426
100
AcDbEntity
  8
DEFAULT_1
100
AcDbLine
 62
2
  6
CENTER
 10
22.0230733154
 20
26.9282651346
 11
22.0230733154
 21
24.935877926
  0
LINE
  5
427
100
AcDbEntity
  8
DEFAULT_1
100
AcDbLine
 62
2
  6
CENTER
 10
22.0245851089
 20
12.8493270505
 11
22.0245851089
 21
10.8569398419
  0
LINE
  5
428
100
AcDbEntity
  8
DEFAULT_1
100
AcDbLine
 62
2
  6
CENTER
 10
30.2121628133
 20
18.8278772971
 11
32.2045500219
 21
18.8278772971
  0
LINE
  5
429
100
AcDbEntity
  8
DEFAULT_1
100
AcDbLine
 62
2
  6
CENTER
 10
13.8088206958
 20
18.8354100303
 11
11.8164334872
 21
18.8354100303
  0
LINE
  5
42A
100
AcDbEntity
  8
_CURVE
100
AcDbLine
 62
8
  6
PHANTOM
 10
12.0485428943
 20
13.703606395
 11
12.0485428943
 21
23.966106395
  0
LINE
  5
42B
100
AcDbEntity
  8
_CURVE
100
AcDbLine
 62
7
  6
CONTINUOUS
 10
13.5207360661
 20
13.803606395
 11
13.5207360661
 21
23.866106395
  0
LINE
  5
42C
100
AcDbEntity
  8
_CURVE
100
AcDbLine
 62
8
  6
PHANTOM
 10
29.3736360661
 20
11.0843132232
 11
14.6678360661
 21
11.0843132232
  0
LINE
  5
42D
100
AcDbEntity
  8
_CURVE
100
AcDbLine
 62
7
  6
CONTINUOUS
 10
29.2707360661
 20
12.553606395
 11
14.7707360661
 21
12.553606395
  0
LINE
  5
42E
100
AcDbEntity
  8
_CURVE
100
AcDbLine
 62
7
  6
CONTINUOUS
 10
14.7707360661
 20
25.116106395
 11
29.2707360661
 21
25.116106395
  0
LINE
  5
42F
100
AcDbEntity
  8
_CURVE
100
AcDbLine
 62
7
  6
CONTINUOUS
 10
30.5207360661
 20
23.866106395
 11
30.5207360661
 21
13.803606395
  0
LINE
  5
430
100
AcDbEntity
  8
_CURVE
100
AcDbLine
 62
8
  6
PHANTOM
 10
14.6678360661
 20
26.5853995668
 11
29.3736360661
 21
26.5853995668
  0
LINE
  5
431
100
AcDbEntity
  8
_CURVE
100
AcDbLine
 62
8
  6
PHANTOM
 10
31.992929238
 20
23.966106395
 11
31.992929238
 21
13.703606395
  0
ARC
  5
432
100
AcDbEntity
  8
_CURVE
100
AcDbCircle
 62
7
  6
CONTINUOUS
 10
29.2707360661
 20
23.866106395
 40
1.25
100
AcDbArc
 50
0.0
 51
90.0
  0
ARC
  5
433
100
AcDbEntity
  8
_CURVE
100
AcDbCircle
 62
7
  6
CONTINUOUS
 10
14.7707360661
 20
23.866106395
 40
1.25
100
AcDbArc
 50
90.0
 51
180.0
  0
ARC
  5
434
100
AcDbEntity
  8
_CURVE
100
AcDbCircle
 62
7
  6
CONTINUOUS
 10
14.7707360661
 20
13.803606395
 40
1.25
100
AcDbArc
 50
180.0
 51
270.0
  0
ARC
  5
435
100
AcDbEntity
  8
_CURVE
100
AcDbCircle
 62
7
  6
CONTINUOUS
 10
29.2707360661
 20
13.803606395
 40
1.25
100
AcDbArc
 50
270.0
 51
360.0
  0
SPLINE
  5
436
100
AcDbEntity
  8
_CURVE
100
AcDbSpline
 62
8
  6
PHANTOM
 70
0
 71
3
 72
161
 73
157
 74
0
 42
0.0000001
 43
0.0000001
 44
0.0000000001
 40
0.0
 40
0.0
 40
0.0
 40
0.0
 40
0.0050103239
 40
0.0102976531
 40
0.0160504769
 40
0.0224588079
 40
0.0297123114
 40
0.0380034617
 40
0.0474885137
 40
0.0578587333
 40
0.0679775809
 40
0.0772397658
 40
0.0856766329
 40
0.0933050601
 40
0.1001860469
 40
0.1064828824
 40
0.112410649
 40
0.1181777974
 40
0.1239255963
 40
0.1296868041
 40
0.1354478062
 40
0.1412071262
 40
0.1470573028
 40
0.1531952019
 40
0.1598369827
 40
0.1671800355
 40
0.1753863839
 40
0.1845876613
 40
0.1948147613
 40
0.2058865798
 40
0.2174818953
 40
0.2292519457
 40
0.2408320929
 40
0.2518293455
 40
0.2618205014
 40
0.2705737421
 40
0.2783086865
 40
0.285491639
 40
0.2925230895
 40
0.2996185479
 40
0.3067698627
 40
0.313710091
 40
0.3201421209
 40
0.3261850104
 40
0.3322227722
 40
0.338377023
 40
0.3445301872
 40
0.3506047953
 40
0.3566297154
 40
0.362697429
 40
0.3687029232
 40
0.3742336494
 40
0.379337494
 40
0.3844129109
 40
0.3895244032
 40
0.3946174025
 40
0.3997113926
 40
0.4048263677
 40
0.4099587786
 40
0.4151025268
 40
0.4202518882
 40
0.4253925903
 40
0.4305256491
 40
0.4356993726
 40
0.4409919356
 40
0.4464913134
 40
0.452243426
 40
0.4581884807
 40
0.4642162304
 40
0.4702500572
 40
0.4762904555
 40
0.4824209172
 40
0.4887090863
 40
0.4951369558
 40
0.5016465288
 40
0.5081794979
 40
0.5146733658
 40
0.5210607401
 40
0.5272768985
 40
0.5333296818
 40
0.5393344103
 40
0.5453376858
 40
0.5512251502
 40
0.5568773423
 40
0.5622689724
 40
0.5674637848
 40
0.5725805097
 40
0.5776986654
 40
0.5828251085
 40
0.5879458195
 40
0.5930564976
 40
0.5981550045
 40
0.6032395452
 40
0.6083095477
 40
0.6133712416
 40
0.6184497765
 40
0.6235454709
 40
0.628589388
 40
0.6337366673
 40
0.6393646869
 40
0.6454339599
 40
0.6515309225
 40
0.6575551317
 40
0.6635933204
 40
0.6696746756
 40
0.67574972
 40
0.6817614902
 40
0.687889156
 40
0.6944121786
 40
0.7013511711
 40
0.7084688607
 40
0.7155434918
 40
0.7225224182
 40
0.729610359
 40
0.7372293429
 40
0.7458226953
 40
0.7555072065
 40
0.7655211836
 40
0.7748376649
 40
0.7831915699
 40
0.7906713695
 40
0.7974029528
 40
0.8035119238
 40
0.8091229509
 40
0.8143585531
 40
0.819346732
 40
0.8242134394
 40
0.8290457218
 40
0.833865263
 40
0.8386869704
 40
0.8435637301
 40
0.8485283618
 40
0.8535567534
 40
0.8586049741
 40
0.8636323466
 40
0.8685966556
 40
0.8734733306
 40
0.8782883437
 40
0.8830964597
 40
0.8879391056
 40
0.8928811589
 40
0.898054542
 40
0.9036001079
 40
0.9095419199
 40
0.9157780932
 40
0.9221794583
 40
0.9286184539
 40
0.9350061515
 40
0.9413786212
 40
0.9480084814
 40
0.9553112116
 40
0.9635518309
 40
0.9725867871
 40
0.9819758104
 40
0.9910530258
 40
1.0
 40
1.0
 40
1.0
 40
1.0
 10
12.0485428943
 20
13.703606395
 30
0.0
 10
12.0485428935
 20
13.6966512736
 30
0.0
 10
12.0485387722
 20
13.6823565045
 30
0.0
 10
12.0485549316
 20
13.6600759026
 30
0.0
 10
12.0486304346
 20
13.63585473
 30
0.0
 10
12.048816011
 20
13.6089046686
 30
0.0
 10
12.0491817165
 20
13.578432481
 30
0.0
 10
12.0498256157
 20
13.543692961
 30
0.0
 10
12.0508767858
 20
13.5046347954
 30
0.0
 10
12.0524593793
 20
13.4630550673
 30
0.0
 10
12.0545416102
 20
13.4218069692
 30
0.0
 10
12.0570010887
 20
13.3832686128
 30
0.0
 10
12.0596844343
 20
13.3482117611
 30
0.0
 10
12.0624857352
 20
13.316481406
 30
0.0
 10
12.0653544603
 20
13.2877412711
 30
0.0
 10
12.0682691577
 20
13.2613798798
 30
0.0
 10
12.0712600677
 20
13.236583839
 30
0.0
 10
12.0743842366
 20
13.2125726502
 30
0.0
 10
12.0776989016
 20
13.1888204304
 30
0.0
 10
12.0812408055
 20
13.1651096304
 30
0.0
 10
12.0850199132
 20
13.1414192625
 30
0.0
 10
12.0890605707
 20
13.1176467938
 30
0.0
 10
12.0934437858
 20
13.0934031889
 30
0.0
 10
12.0983277825
 20
13.0680067864
 30
0.0
 10
12.1039336248
 20
13.0406408173
 30
0.0
 10
12.1104971267
 20
13.0105424057
 30
0.0
 10
12.1182789102
 20
12.9770761841
 30
0.0
 10
12.1275382987
 20
12.9398473424
 30
0.0
 10
12.1384693097
 20
12.8989411012
 30
0.0
 10
12.1511326517
 20
12.8550663134
 30
0.0
 10
12.1653693146
 20
12.8094271586
 30
0.0
 10
12.1808441998
 20
12.763447378
 30
0.0
 10
12.1970704389
 20
12.7186093895
 30
0.0
 10
12.2133783735
 20
12.676439215
 30
0.0
 10
12.2290299565
 20
12.6382322693
 30
0.0
 10
12.2435603992
 20
12.6044668765
 30
0.0
 10
12.2570152779
 20
12.5744873055
 30
0.0
 10
12.2698825546
 20
12.5468673879
 30
0.0
 10
12.2827323931
 20
12.520221661
 30
0.0
 10
12.2959156296
 20
12.49378833
 30
0.0
 10
12.3093955701
 20
12.4676474869
 30
0.0
 10
12.3227762187
 20
12.4424943906
 30
0.0
 10
12.3357193545
 20
12.4188537386
 30
0.0
 10
12.3483187761
 20
12.3964551557
 30
0.0
 10
12.3609767149
 20
12.3745337612
 30
0.0
 10
12.3739542881
 20
12.3526220003
 30
0.0
 10
12.3871873054
 20
12.3308037627
 30
0.0
 10
12.4005472373
 20
12.3092740488
 30
0.0
 10
12.4140543712
 20
12.2879767343
 30
0.0
 10
12.4277215538
 20
12.2668959664
 30
0.0
 10
12.4412306643
 20
12.2465318923
 30
0.0
 10
12.4541943907
 20
12.2274132134
 30
0.0
 10
12.4665975575
 20
12.2094755558
 30
0.0
 10
12.478814706
 20
12.1921177582
 30
0.0
 10
12.4911554822
 20
12.1748661774
 30
0.0
 10
12.5036390049
 20
12.157685727
 30
0.0
 10
12.5162545801
 20
12.1405959898
 30
0.0
 10
12.5290324716
 20
12.1235588316
 30
0.0
 10
12.5419828511
 20
12.1065654814
 30
0.0
 10
12.5550940005
 20
12.0896354435
 30
0.0
 10
12.5683443108
 20
12.0727994414
 30
0.0
 10
12.5817176629
 20
12.0560800096
 30
0.0
 10
12.5952411013
 20
12.0394381536
 30
0.0
 10
12.6090248027
 20
12.0227369672
 30
0.0
 10
12.6232610285
 20
12.005750741
 30
0.0
 10
12.6381492804
 20
11.9882642491
 30
0.0
 10
12.6537751915
 20
11.9702172461
 30
0.0
 10
12.6700411471
 20
11.9517554106
 30
0.0
 10
12.6867274581
 20
11.9331439934
 30
0.0
 10
12.703659398
 20
11.9145762612
 30
0.0
 10
12.7208432685
 20
11.8960464925
 30
0.0
 10
12.7384288064
 20
11.8774089571
 30
0.0
 10
12.7565526091
 20
11.8585412027
 30
0.0
 10
12.775211999
 20
11.8394596528
 30
0.0
 10
12.7942817647
 20
11.82030562
 30
0.0
 10
12.8135882873
 20
11.8012595624
 30
0.0
 10
12.8329452252
 20
11.7825077319
 30
0.0
 10
12.8521532575
 20
11.7642358311
 30
0.0
 10
12.8710790749
 20
11.7465572243
 30
0.0
 10
12.8897655905
 20
11.729402023
 30
0.0
 10
12.9083758595
 20
11.7126020535
 30
0.0
 10
12.9269561781
 20
11.6961126917
 30
0.0
 10
12.9453101494
 20
11.6801069357
 30
0.0
 10
12.9631554574
 20
11.6648110834
 30
0.0
 10
12.9803894643
 20
11.6502807116
 30
0.0
 10
12.9971614101
 20
11.6363564773
 30
0.0
 10
13.0137436056
 20
11.6227989449
 30
0.0
 10
13.030354377
 20
11.6094272646
 30
0.0
 10
13.0470729261
 20
11.5961816575
 30
0.0
 10
13.0638869143
 20
11.5830742914
 30
0.0
 10
13.0807715805
 20
11.5701217226
 30
0.0
 10
13.0977156315
 20
11.5573301038
 30
0.0
 10
13.1147116631
 20
11.5447020899
 30
0.0
 10
13.1317614913
 20
11.5322331834
 30
0.0
 10
13.1488977475
 20
11.5198976051
 30
0.0
 10
13.1661536653
 20
11.5076681861
 30
0.0
 10
13.1834847702
 20
11.4955885942
 30
0.0
 10
13.2009959152
 20
11.4836017
 30
0.0
 10
13.2192256637
 20
11.471357844
 30
0.0
 10
13.2387599374
 20
11.4585051584
 30
0.0
 10
13.259533119
 20
11.4451392333
 30
0.0
 10
13.2809050489
 20
11.4316898764
 30
0.0
 10
13.3023723126
 20
11.4184753406
 30
0.0
 10
13.3239533401
 20
11.4054893602
 30
0.0
 10
13.3457288312
 20
11.3926922216
 30
0.0
 10
13.3676132122
 20
11.3801557078
 30
0.0
 10
13.3896940436
 20
11.3678360718
 30
0.0
 10
13.4124577778
 20
11.3554674078
 30
0.0
 10
13.4364991216
 20
11.3427576476
 30
0.0
 10
13.4619169753
 20
11.3297153378
 30
0.0
 10
13.4881915136
 20
11.316670754
 30
0.0
 10
13.5146880858
 20
11.3039546976
 30
0.0
 10
13.5413131962
 20
11.291607903
 30
0.0
 10
13.5687903129
 20
11.2793084731
 30
0.0
 10
13.5984929922
 20
11.2665027643
 30
0.0
 10
13.6317185269
 20
11.2527732312
 30
0.0
 10
13.6682697303
 20
11.2383998524
 30
0.0
 10
13.7060253001
 20
11.2243646599
 30
0.0
 10
13.7422939189
 20
11.2116511506
 30
0.0
 10
13.7754333206
 20
11.2006620088
 30
0.0
 10
13.8053118454
 20
11.1912522053
 30
0.0
 10
13.8323293253
 20
11.1831415919
 30
0.0
 10
13.8569493048
 20
11.1760742235
 30
0.0
 10
13.8796433171
 20
11.1698296244
 30
0.0
 10
13.9008947325
 20
11.1642112691
 30
0.0
 10
13.921195636
 20
11.1590437886
 30
0.0
 10
13.9409971699
 20
11.1541873964
 30
0.0
 10
13.9606115794
 20
11.1495539285
 30
0.0
 10
13.9802036707
 20
11.1451008433
 30
0.0
 10
13.9998933659
 20
11.1408018921
 30
0.0
 10
14.0198169443
 20
11.1366334932
 30
0.0
 10
14.0400588937
 20
11.1325897365
 30
0.0
 10
14.0605724451
 20
11.1286953428
 30
0.0
 10
14.081207629
 20
11.1249797997
 30
0.0
 10
14.1017883747
 20
11.1214690199
 30
0.0
 10
14.1221638758
 20
11.1181760885
 30
0.0
 10
14.1422743793
 20
11.1150956487
 30
0.0
 10
14.1621941385
 20
11.112206247
 30
0.0
 10
14.182088902
 20
11.1094778604
 30
0.0
 10
14.2021789101
 20
11.1068795572
 30
0.0
 10
14.2227921288
 20
11.1043784115
 30
0.0
 10
14.2443950173
 20
11.1019387639
 30
0.0
 10
14.2673990264
 20
11.0995462689
 30
0.0
 10
14.2918931986
 20
11.0972298052
 30
0.0
 10
14.3175919708
 20
11.0950453649
 30
0.0
 10
14.3439976422
 20
11.0930413673
 30
0.0
 10
14.3706303743
 20
11.0912643269
 30
0.0
 10
14.3972378048
 20
11.0897269152
 30
0.0
 10
14.4241219534
 20
11.0884030346
 30
0.0
 10
14.4522851024
 20
11.0872453017
 30
0.0
 10
14.4830487806
 20
11.0862344944
 30
0.0
 10
14.5171575139
 20
11.0853998126
 30
0.0
 10
14.55416732
 20
11.0847778679
 30
0.0
 10
14.5923419833
 20
11.0844208499
 30
0.0
 10
14.630395824
 20
11.0843022711
 30
0.0
 10
14.6554162521
 20
11.0843132154
 30
0.0
 10
14.6678360661
 20
11.0843132232
 30
0.0
  0
SPLINE
  5
437
100
AcDbEntity
  8
_CURVE
100
AcDbSpline
 62
8
  6
PHANTOM
 70
0
 71
3
 72
158
 73
154
 74
0
 42
0.0000001
 43
0.0000001
 44
0.0000000001
 40
0.0
 40
0.0
 40
0.0
 40
0.0
 40
0.0082473401
 40
0.0176591085
 40
0.027147355
 40
0.0360561239
 40
0.0444426608
 40
0.0520706449
 40
0.0589997888
 40
0.0654857649
 40
0.0718388664
 40
0.078240581
 40
0.0847114657
 40
0.0911070768
 40
0.0971940448
 40
0.1028414731
 40
0.1080674334
 40
0.1130007119
 40
0.1178250467
 40
0.1226501627
 40
0.1274763225
 40
0.13230896
 40
0.1372046832
 40
0.142189333
 40
0.1472318343
 40
0.1522872998
 40
0.1573116859
 40
0.1622637177
 40
0.167129991
 40
0.1719527044
 40
0.1767798789
 40
0.181623896
 40
0.1865333801
 40
0.1916426623
 40
0.1971109736
 40
0.2030678232
 40
0.2096184589
 40
0.2168617519
 40
0.2248962467
 40
0.2338221921
 40
0.2436856096
 40
0.253987287
 40
0.2635713249
 40
0.2719419192
 40
0.2794331876
 40
0.2865154282
 40
0.2935382972
 40
0.3006505993
 40
0.3077577782
 40
0.3145335698
 40
0.3207649971
 40
0.3267087809
 40
0.3327194552
 40
0.3388281145
 40
0.3448999047
 40
0.3509047004
 40
0.3569023851
 40
0.3629678135
 40
0.3688704237
 40
0.374217005
 40
0.3792653572
 40
0.384346271
 40
0.3894386425
 40
0.3945127632
 40
0.3995976185
 40
0.4047032203
 40
0.4098233926
 40
0.4149532183
 40
0.4200846772
 40
0.4252038962
 40
0.4303252423
 40
0.4355102893
 40
0.4408425081
 40
0.4464046511
 40
0.4522128041
 40
0.4581785598
 40
0.4641953543
 40
0.4702073081
 40
0.4762457291
 40
0.4824120488
 40
0.4887488978
 40
0.4952173476
 40
0.5017598136
 40
0.508315951
 40
0.5148177939
 40
0.521192403
 40
0.5273803979
 40
0.5334337277
 40
0.5394756087
 40
0.5454901064
 40
0.5513347459
 40
0.5569246093
 40
0.5622650356
 40
0.5674477057
 40
0.5725907269
 40
0.5777438239
 40
0.5828987889
 40
0.5880454033
 40
0.5931808416
 40
0.5983029284
 40
0.60341015
 40
0.6085030803
 40
0.613594222
 40
0.6187122024
 40
0.6238270801
 40
0.6288886928
 40
0.6342094884
 40
0.6400973236
 40
0.6462655024
 40
0.6523968778
 40
0.6584959884
 40
0.6646277925
 40
0.6708002621
 40
0.6769310626
 40
0.6830278241
 40
0.6893555612
 40
0.6961197966
 40
0.7032024
 40
0.7103439655
 40
0.7174110685
 40
0.724477471
 40
0.7318138002
 40
0.7397933715
 40
0.7487904949
 40
0.7590580451
 40
0.7703956205
 40
0.7821510587
 40
0.7937780034
 40
0.8049530401
 40
0.8153823964
 40
0.8249288542
 40
0.8336059908
 40
0.8414474153
 40
0.8484985412
 40
0.8548936655
 40
0.8608614446
 40
0.8666428793
 40
0.8723992292
 40
0.8781684016
 40
0.8839313029
 40
0.889681768
 40
0.8954919648
 40
0.9015217924
 40
0.9079568714
 40
0.9149678604
 40
0.9226811199
 40
0.9311565982
 40
0.9404162178
 40
0.9505257732
 40
0.9615638858
 40
0.9737451329
 40
0.9870148723
 40
1.0
 40
1.0
 40
1.0
 40
1.0
 10
29.3736360661
 20
11.0843132232
 30
0.0
 10
29.385084677
 20
11.0843132246
 30
0.0
 10
29.4095983069
 20
11.0843028772
 30
0.0
 10
29.44728313
 20
11.0844080905
 30
0.0
 10
29.4858848522
 20
11.084759759
 30
0.0
 10
29.5230599122
 20
11.0853744275
 30
0.0
 10
29.5576476729
 20
11.0862098621
 30
0.0
 10
29.5894804415
 20
11.0872524476
 30
0.0
 10
29.6186669612
 20
11.0884602235
 30
0.0
 10
29.6460747239
 20
11.0898253178
 30
0.0
 10
29.6727388371
 20
11.0913833905
 30
0.0
 10
29.6993671905
 20
11.0931767368
 30
0.0
 10
29.7260368822
 20
11.0952179937
 30
0.0
 10
29.7522512523
 20
11.0974686275
 30
0.0
 10
29.7773044134
 20
11.0998672345
 30
0.0
 10
29.8007186914
 20
11.1023352586
 30
0.0
 10
29.8225187529
 20
11.1048306867
 30
0.0
 10
29.8431632242
 20
11.1073678021
 30
0.0
 10
29.8632354873
 20
11.1099939531
 30
0.0
 10
29.8831396879
 20
11.1127538679
 30
0.0
 10
29.903033162
 20
11.1156706578
 30
0.0
 10
29.9229996877
 20
11.1187605007
 30
0.0
 10
29.9431574229
 20
11.1220490609
 30
0.0
 10
29.9635728866
 20
11.1255625089
 30
0.0
 10
29.984173414
 20
11.1293030191
 30
0.0
 10
30.0047915439
 20
11.1332501104
 30
0.0
 10
30.0252476446
 20
11.1373704304
 30
0.0
 10
30.045408242
 20
11.1416232439
 30
0.0
 10
30.0652572352
 20
11.1459929844
 30
0.0
 10
30.0848991656
 20
11.150493652
 30
0.0
 10
30.1044721829
 20
11.1551535067
 30
0.0
 10
30.124121747
 20
11.1600087748
 30
0.0
 10
30.1441078051
 20
11.1651316002
 30
0.0
 10
30.1648841713
 20
11.1706580881
 30
0.0
 10
30.1870064916
 20
11.1767764983
 30
0.0
 10
30.2109845157
 20
11.1836862654
 30
0.0
 10
30.2372389833
 20
11.1915884241
 30
0.0
 10
30.2661387977
 20
11.2007003664
 30
0.0
 10
30.2980331263
 20
11.211269497
 30
0.0
 10
30.3331852106
 20
11.2235564757
 30
0.0
 10
30.3710595453
 20
11.2375748875
 30
0.0
 10
30.4095079194
 20
11.2526527308
 30
0.0
 10
30.4457524118
 20
11.2676541467
 30
0.0
 10
30.4781596199
 20
11.2817106184
 30
0.0
 10
30.5071877646
 20
11.2948201387
 30
0.0
 10
30.5343376926
 20
11.3075357274
 30
0.0
 10
30.5608431989
 20
11.3203807617
 30
0.0
 10
30.5872056068
 20
11.3335944885
 30
0.0
 10
30.6130855368
 20
11.3469994969
 30
0.0
 10
30.63771676
 20
11.3601515845
 30
0.0
 10
30.6607754722
 20
11.3728158438
 30
0.0
 10
30.682764012
 20
11.3852188445
 30
0.0
 10
30.7044655723
 20
11.3977805434
 30
0.0
 10
30.7261830983
 20
11.4106663494
 30
0.0
 10
30.7477599934
 20
11.4237704972
 30
0.0
 10
30.7690734154
 20
11.4370092076
 30
0.0
 10
30.7902495326
 20
11.4504499876
 30
0.0
 10
30.8111682464
 20
11.4640292839
 30
0.0
 10
30.831189924
 20
11.4773279816
 30
0.0
 10
30.8499110485
 20
11.4900307248
 30
0.0
 10
30.8675811022
 20
11.5022493927
 30
0.0
 10
30.8848625205
 20
11.514408343
 30
0.0
 10
30.9020815279
 20
11.5267170965
 30
0.0
 10
30.9192123716
 20
11.539157584
 30
0.0
 10
30.9362635628
 20
11.5517379876
 30
0.0
 10
30.9532694745
 20
11.5644864052
 30
0.0
 10
30.9702262886
 20
11.5774033444
 30
0.0
 10
30.9871105559
 20
11.5904736954
 30
0.0
 10
31.0038907895
 20
11.6036752097
 30
0.0
 10
31.020557686
 20
11.6170006736
 30
0.0
 10
31.0371797432
 20
11.6305003249
 30
0.0
 10
31.0539270928
 20
11.6443137213
 30
0.0
 10
31.0710386692
 20
11.6586462028
 30
0.0
 10
31.0886947132
 20
11.6736746475
 30
0.0
 10
31.1068884533
 20
11.6894269485
 30
0.0
 10
31.1254185004
 20
11.7057536216
 30
0.0
 10
31.1440184491
 20
11.722427494
 30
0.0
 10
31.162552471
 20
11.7393246899
 30
0.0
 10
31.1810961265
 20
11.756518108
 30
0.0
 10
31.1998165185
 20
11.7741828382
 30
0.0
 10
31.2188090967
 20
11.7924274144
 30
0.0
 10
31.2380104171
 20
11.8112068646
 30
0.0
 10
31.2572574098
 20
11.8303734067
 30
0.0
 10
31.2763627709
 20
11.8497462978
 30
0.0
 10
31.2951286812
 20
11.8691251195
 30
0.0
 10
31.3133643903
 20
11.8883044416
 30
0.0
 10
31.331001199
 20
11.9071925775
 30
0.0
 10
31.3481639596
 20
11.925890115
 30
0.0
 10
31.3650074923
 20
11.9445525573
 30
0.0
 10
31.3814976995
 20
11.9631424335
 30
0.0
 10
31.3974130453
 20
11.9814022318
 30
0.0
 10
31.4125645295
 20
11.9990853953
 30
0.0
 10
31.4269824412
 20
12.0161860166
 30
0.0
 10
31.4408747166
 20
12.0329176489
 30
0.0
 10
31.4544754245
 20
12.0495525803
 30
0.0
 10
31.4679240309
 20
12.0662613901
 30
0.0
 10
31.48124388
 20
12.0830793933
 30
0.0
 10
31.4944160575
 20
12.0999822323
 30
0.0
 10
31.5074284715
 20
12.1169508841
 30
0.0
 10
31.5202765999
 20
12.1339758013
 30
0.0
 10
31.5329591037
 20
12.1510510001
 30
0.0
 10
31.5454868048
 20
12.1681869081
 30
0.0
 10
31.5578947259
 20
12.1854281384
 30
0.0
 10
31.5701915416
 20
12.2027861623
 30
0.0
 10
31.5823231498
 20
12.2202101744
 30
0.0
 10
31.5944634997
 20
12.2379702139
 30
0.0
 10
31.6070400087
 20
12.2567307735
 30
0.0
 10
31.6202740265
 20
12.2768985847
 30
0.0
 10
31.6339068758
 20
12.2981489295
 30
0.0
 10
31.6474835826
 20
12.3197822134
 30
0.0
 10
31.6608151862
 20
12.3415081987
 30
0.0
 10
31.6739525131
 20
12.3634187817
 30
0.0
 10
31.6868748847
 20
12.3855078828
 30
0.0
 10
31.6995208532
 20
12.4077004389
 30
0.0
 10
31.7120182816
 20
12.4302237682
 30
0.0
 10
31.7246789688
 20
12.4536602119
 30
0.0
 10
31.7376993049
 20
12.4784557396
 30
0.0
 10
31.7509140195
 20
12.5044226954
 30
0.0
 10
31.7639630226
 20
12.5309427446
 30
0.0
 10
31.7766476777
 20
12.5576140437
 30
0.0
 10
31.7890881344
 20
12.584697946
 30
0.0
 10
31.8016722998
 20
12.6131066657
 30
0.0
 10
31.814897556
 20
12.6441592217
 30
0.0
 10
31.829161089
 20
12.6791876076
 30
0.0
 10
31.8444647891
 20
12.7188189402
 30
0.0
 10
31.8602443024
 20
12.7623614006
 30
0.0
 10
31.8756508571
 20
12.8080337725
 30
0.0
 10
31.8899677325
 20
12.8538227653
 30
0.0
 10
31.9027845278
 20
12.8981404124
 30
0.0
 10
31.9139586365
 20
12.9399167532
 30
0.0
 10
31.9235494096
 20
12.9785198915
 30
0.0
 10
31.9317103303
 20
13.0137713388
 30
0.0
 10
31.9386228234
 20
13.0457523443
 30
0.0
 10
31.9444730124
 20
13.0747189997
 30
0.0
 10
31.9494717696
 20
13.1012017423
 30
0.0
 10
31.9538622158
 20
13.1260038387
 30
0.0
 10
31.9578455103
 20
13.1499760672
 30
0.0
 10
31.9615442117
 20
13.1737148354
 30
0.0
 10
31.9650061447
 20
13.1974632694
 30
0.0
 10
31.9682404616
 20
13.2212354974
 30
0.0
 10
31.971263845
 20
13.2450928661
 30
0.0
 10
31.9741080636
 20
13.2693453965
 30
0.0
 10
31.9768208476
 20
13.2945690688
 30
0.0
 10
31.9794424317
 20
13.3214777615
 30
0.0
 10
31.9819839125
 20
13.3507406338
 30
0.0
 10
31.9844291832
 20
13.3828532034
 30
0.0
 10
31.9867032318
 20
13.41810714
 30
0.0
 10
31.9887180594
 20
13.4567083131
 30
0.0
 10
31.9904157406
 20
13.4988853035
 30
0.0
 10
31.9917164838
 20
13.5451338617
 30
0.0
 10
31.9925819449
 20
13.5957800623
 30
0.0
 10
31.992946868
 20
13.649135011
 30
0.0
 10
31.9929292321
 20
13.6855809864
 30
0.0
 10
31.992929238
 20
13.703606395
 30
0.0
  0
SPLINE
  5
438
100
AcDbEntity
  8
_CURVE
100
AcDbSpline
 62
8
  6
PHANTOM
 70
0
 71
3
 72
161
 73
157
 74
0
 42
0.0000001
 43
0.0000001
 44
0.0000000001
 40
0.0
 40
0.0
 40
0.0
 40
0.0
 40
0.0050103239
 40
0.0102976531
 40
0.0160504769
 40
0.0224588079
 40
0.0297123114
 40
0.0380034617
 40
0.0474885137
 40
0.0578587333
 40
0.0679775809
 40
0.0772397658
 40
0.0856766329
 40
0.0933050601
 40
0.1001860469
 40
0.1064828824
 40
0.112410649
 40
0.1181777974
 40
0.1239255963
 40
0.1296868041
 40
0.1354478062
 40
0.1412071262
 40
0.1470573028
 40
0.1531952019
 40
0.1598369827
 40
0.1671800355
 40
0.1753863839
 40
0.1845876613
 40
0.1948147613
 40
0.2058865798
 40
0.2174818953
 40
0.2292519457
 40
0.2408320929
 40
0.2518293455
 40
0.2618205014
 40
0.2705737421
 40
0.2783086865
 40
0.285491639
 40
0.2925230895
 40
0.2996185479
 40
0.3067698627
 40
0.313710091
 40
0.3201421209
 40
0.3261850104
 40
0.3322227722
 40
0.338377023
 40
0.3445301872
 40
0.3506047953
 40
0.3566297154
 40
0.362697429
 40
0.3687029232
 40
0.3742336494
 40
0.379337494
 40
0.3844129109
 40
0.3895244032
 40
0.3946174025
 40
0.3997113926
 40
0.4048263677
 40
0.4099587786
 40
0.4151025268
 40
0.4202518882
 40
0.4253925903
 40
0.4305256491
 40
0.4356993726
 40
0.4409919356
 40
0.4464913134
 40
0.452243426
 40
0.4581884807
 40
0.4642162304
 40
0.4702500572
 40
0.4762904555
 40
0.4824209172
 40
0.4887090863
 40
0.4951369558
 40
0.5016465288
 40
0.5081794979
 40
0.5146733658
 40
0.5210607401
 40
0.5272768985
 40
0.5333296818
 40
0.5393344103
 40
0.5453376858
 40
0.5512251502
 40
0.5568773423
 40
0.5622689724
 40
0.5674637848
 40
0.5725805097
 40
0.5776986654
 40
0.5828251085
 40
0.5879458195
 40
0.5930564976
 40
0.5981550045
 40
0.6032395452
 40
0.6083095477
 40
0.6133712416
 40
0.6184497765
 40
0.6235454709
 40
0.628589388
 40
0.6337366673
 40
0.6393646869
 40
0.6454339599
 40
0.6515309225
 40
0.6575551317
 40
0.6635933204
 40
0.6696746756
 40
0.67574972
 40
0.6817614902
 40
0.687889156
 40
0.6944121786
 40
0.7013511711
 40
0.7084688607
 40
0.7155434918
 40
0.7225224182
 40
0.729610359
 40
0.7372293429
 40
0.7458226953
 40
0.7555072065
 40
0.7655211836
 40
0.7748376649
 40
0.7831915699
 40
0.7906713695
 40
0.7974029528
 40
0.8035119238
 40
0.8091229509
 40
0.8143585531
 40
0.819346732
 40
0.8242134394
 40
0.8290457218
 40
0.833865263
 40
0.8386869704
 40
0.8435637301
 40
0.8485283618
 40
0.8535567534
 40
0.8586049741
 40
0.8636323466
 40
0.8685966556
 40
0.8734733306
 40
0.8782883437
 40
0.8830964597
 40
0.8879391056
 40
0.8928811589
 40
0.898054542
 40
0.9036001079
 40
0.9095419199
 40
0.9157780932
 40
0.9221794583
 40
0.9286184539
 40
0.9350061515
 40
0.9413786212
 40
0.9480084814
 40
0.9553112116
 40
0.9635518309
 40
0.9725867871
 40
0.9819758104
 40
0.9910530258
 40
1.0
 40
1.0
 40
1.0
 40
1.0
 10
31.992929238
 20
23.966106395
 30
0.0
 10
31.9929292388
 20
23.9730615164
 30
0.0
 10
31.9929333601
 20
23.9873562855
 30
0.0
 10
31.9929172006
 20
24.0096368874
 30
0.0
 10
31.9928416976
 20
24.03385806
 30
0.0
 10
31.9926561212
 20
24.0608081214
 30
0.0
 10
31.9922904158
 20
24.091280309
 30
0.0
 10
31.9916465165
 20
24.126019829
 30
0.0
 10
31.9905953464
 20
24.1650779946
 30
0.0
 10
31.989012753
 20
24.2066577227
 30
0.0
 10
31.9869305221
 20
24.2479058208
 30
0.0
 10
31.9844710436
 20
24.2864441772
 30
0.0
 10
31.9817876979
 20
24.3215010289
 30
0.0
 10
31.9789863971
 20
24.353231384
 30
0.0
 10
31.9761176719
 20
24.3819715189
 30
0.0
 10
31.9732029746
 20
24.4083329102
 30
0.0
 10
31.9702120646
 20
24.433128951
 30
0.0
 10
31.9670878956
 20
24.4571401398
 30
0.0
 10
31.9637732307
 20
24.4808923596
 30
0.0
 10
31.9602313268
 20
24.5046031596
 30
0.0
 10
31.956452219
 20
24.5282935275
 30
0.0
 10
31.9524115615
 20
24.5520659962
 30
0.0
 10
31.9480283465
 20
24.5763096011
 30
0.0
 10
31.9431443498
 20
24.6017060036
 30
0.0
 10
31.9375385074
 20
24.6290719727
 30
0.0
 10
31.9309750056
 20
24.6591703843
 30
0.0
 10
31.923193222
 20
24.6926366059
 30
0.0
 10
31.9139338336
 20
24.7298654476
 30
0.0
 10
31.9030028226
 20
24.7707716888
 30
0.0
 10
31.8903394806
 20
24.8146464766
 30
0.0
 10
31.8761028176
 20
24.8602856314
 30
0.0
 10
31.8606279325
 20
24.906265412
 30
0.0
 10
31.8444016933
 20
24.9511034005
 30
0.0
 10
31.8280937588
 20
24.993273575
 30
0.0
 10
31.8124421757
 20
25.0314805207
 30
0.0
 10
31.797911733
 20
25.0652459135
 30
0.0
 10
31.7844568544
 20
25.0952254845
 30
0.0
 10
31.7715895776
 20
25.1228454021
 30
0.0
 10
31.7587397392
 20
25.149491129
 30
0.0
 10
31.7455565026
 20
25.17592446
 30
0.0
 10
31.7320765622
 20
25.2020653031
 30
0.0
 10
31.7186959136
 20
25.2272183994
 30
0.0
 10
31.7057527777
 20
25.2508590514
 30
0.0
 10
31.6931533562
 20
25.2732576343
 30
0.0
 10
31.6804954173
 20
25.2951790288
 30
0.0
 10
31.6675178442
 20
25.3170907897
 30
0.0
 10
31.6542848269
 20
25.3389090273
 30
0.0
 10
31.640924895
 20
25.3604387412
 30
0.0
 10
31.6274177611
 20
25.3817360557
 30
0.0
 10
31.6137505785
 20
25.4028168236
 30
0.0
 10
31.600241468
 20
25.4231808977
 30
0.0
 10
31.5872777416
 20
25.4422995766
 30
0.0
 10
31.5748745747
 20
25.4602372342
 30
0.0
 10
31.5626574262
 20
25.4775950318
 30
0.0
 10
31.5503166501
 20
25.4948466126
 30
0.0
 10
31.5378331274
 20
25.512027063
 30
0.0
 10
31.5252175521
 20
25.5291168002
 30
0.0
 10
31.5124396607
 20
25.5461539584
 30
0.0
 10
31.4994892811
 20
25.5631473086
 30
0.0
 10
31.4863781318
 20
25.5800773465
 30
0.0
 10
31.4731278215
 20
25.5969133486
 30
0.0
 10
31.4597544693
 20
25.6136327804
 30
0.0
 10
31.446231031
 20
25.6302746364
 30
0.0
 10
31.4324473296
 20
25.6469758228
 30
0.0
 10
31.4182111038
 20
25.663962049
 30
0.0
 10
31.4033228519
 20
25.6814485409
 30
0.0
 10
31.3876969408
 20
25.6994955439
 30
0.0
 10
31.3714309851
 20
25.7179573794
 30
0.0
 10
31.3547446742
 20
25.7365687966
 30
0.0
 10
31.3378127343
 20
25.7551365288
 30
0.0
 10
31.3206288637
 20
25.7736662975
 30
0.0
 10
31.3030433259
 20
25.7923038329
 30
0.0
 10
31.2849195232
 20
25.8111715873
 30
0.0
 10
31.2662601332
 20
25.8302531372
 30
0.0
 10
31.2471903676
 20
25.84940717
 30
0.0
 10
31.227883845
 20
25.8684532276
 30
0.0
 10
31.2085269071
 20
25.8872050581
 30
0.0
 10
31.1893188747
 20
25.9054769589
 30
0.0
 10
31.1703930573
 20
25.9231555657
 30
0.0
 10
31.1517065417
 20
25.940310767
 30
0.0
 10
31.1330962727
 20
25.9571107365
 30
0.0
 10
31.1145159542
 20
25.9736000983
 30
0.0
 10
31.0961619829
 20
25.9896058543
 30
0.0
 10
31.0783166748
 20
26.0049017066
 30
0.0
 10
31.061082668
 20
26.0194320784
 30
0.0
 10
31.0443107222
 20
26.0333563127
 30
0.0
 10
31.0277285267
 20
26.0469138451
 30
0.0
 10
31.0111177553
 20
26.0602855254
 30
0.0
 10
30.9943992062
 20
26.0735311325
 30
0.0
 10
30.977585218
 20
26.0866384986
 30
0.0
 10
30.9607005518
 20
26.0995910674
 30
0.0
 10
30.9437565008
 20
26.1123826862
 30
0.0
 10
30.9267604692
 20
26.1250107001
 30
0.0
 10
30.909710641
 20
26.1374796066
 30
0.0
 10
30.8925743848
 20
26.1498151849
 30
0.0
 10
30.8753184669
 20
26.1620446039
 30
0.0
 10
30.857987362
 20
26.1741241958
 30
0.0
 10
30.840476217
 20
26.18611109
 30
0.0
 10
30.8222464685
 20
26.198354946
 30
0.0
 10
30.8027121949
 20
26.2112076316
 30
0.0
 10
30.7819390133
 20
26.2245735567
 30
0.0
 10
30.7605670833
 20
26.2380229136
 30
0.0
 10
30.7390998197
 20
26.2512374494
 30
0.0
 10
30.7175187922
 20
26.2642234298
 30
0.0
 10
30.6957433011
 20
26.2770205684
 30
0.0
 10
30.6738589201
 20
26.2895570822
 30
0.0
 10
30.6517780887
 20
26.3018767182
 30
0.0
 10
30.6290143545
 20
26.3142453822
 30
0.0
 10
30.6049730106
 20
26.3269551424
 30
0.0
 10
30.579555157
 20
26.3399974522
 30
0.0
 10
30.5532806186
 20
26.353042036
 30
0.0
 10
30.5267840465
 20
26.3657580924
 30
0.0
 10
30.500158936
 20
26.378104887
 30
0.0
 10
30.4726818193
 20
26.3904043169
 30
0.0
 10
30.4429791401
 20
26.4032100257
 30
0.0
 10
30.4097536053
 20
26.4169395588
 30
0.0
 10
30.3732024019
 20
26.4313129376
 30
0.0
 10
30.3354468322
 20
26.4453481301
 30
0.0
 10
30.2991782133
 20
26.4580616394
 30
0.0
 10
30.2660388116
 20
26.4690507812
 30
0.0
 10
30.2361602868
 20
26.4784605847
 30
0.0
 10
30.209142807
 20
26.4865711981
 30
0.0
 10
30.1845228275
 20
26.4936385665
 30
0.0
 10
30.1618288152
 20
26.4998831656
 30
0.0
 10
30.1405773997
 20
26.5055015209
 30
0.0
 10
30.1202764963
 20
26.5106690014
 30
0.0
 10
30.1004749624
 20
26.5155253936
 30
0.0
 10
30.0808605528
 20
26.5201588615
 30
0.0
 10
30.0612684615
 20
26.5246119467
 30
0.0
 10
30.0415787664
 20
26.5289108979
 30
0.0
 10
30.0216551879
 20
26.5330792968
 30
0.0
 10
30.0014132386
 20
26.5371230535
 30
0.0
 10
29.9808996872
 20
26.5410174472
 30
0.0
 10
29.9602645033
 20
26.5447329903
 30
0.0
 10
29.9396837576
 20
26.5482437701
 30
0.0
 10
29.9193082564
 20
26.5515367015
 30
0.0
 10
29.899197753
 20
26.5546171413
 30
0.0
 10
29.8792779938
 20
26.557506543
 30
0.0
 10
29.8593832303
 20
26.5602349296
 30
0.0
 10
29.8392932222
 20
26.5628332328
 30
0.0
 10
29.8186800035
 20
26.5653343785
 30
0.0
 10
29.797077115
 20
26.5677740261
 30
0.0
 10
29.7740731058
 20
26.5701665211
 30
0.0
 10
29.7495789336
 20
26.5724829848
 30
0.0
 10
29.7238801615
 20
26.5746674251
 30
0.0
 10
29.6974744901
 20
26.5766714227
 30
0.0
 10
29.6708417579
 20
26.5784484631
 30
0.0
 10
29.6442343274
 20
26.5799858748
 30
0.0
 10
29.6173501788
 20
26.5813097554
 30
0.0
 10
29.5891870298
 20
26.5824674883
 30
0.0
 10
29.5584233517
 20
26.5834782956
 30
0.0
 10
29.5243146184
 20
26.5843129774
 30
0.0
 10
29.4873048122
 20
26.5849349221
 30
0.0
 10
29.449130149
 20
26.5852919401
 30
0.0
 10
29.4110763083
 20
26.5854105189
 30
0.0
 10
29.3860558802
 20
26.5853995746
 30
0.0
 10
29.3736360661
 20
26.5853995668
 30
0.0
  0
SPLINE
  5
439
100
AcDbEntity
  8
_CURVE
100
AcDbSpline
 62
8
  6
PHANTOM
 70
0
 71
3
 72
158
 73
154
 74
0
 42
0.0000001
 43
0.0000001
 44
0.0000000001
 40
0.0
 40
0.0
 40
0.0
 40
0.0
 40
0.0082473401
 40
0.0176591085
 40
0.027147355
 40
0.0360561239
 40
0.0444426608
 40
0.0520706449
 40
0.0589997888
 40
0.0654857649
 40
0.0718388664
 40
0.078240581
 40
0.0847114657
 40
0.0911070768
 40
0.0971940448
 40
0.1028414731
 40
0.1080674334
 40
0.1130007119
 40
0.1178250467
 40
0.1226501627
 40
0.1274763225
 40
0.13230896
 40
0.1372046832
 40
0.142189333
 40
0.1472318343
 40
0.1522872998
 40
0.1573116859
 40
0.1622637177
 40
0.167129991
 40
0.1719527044
 40
0.1767798789
 40
0.181623896
 40
0.1865333801
 40
0.1916426623
 40
0.1971109736
 40
0.2030678232
 40
0.2096184589
 40
0.2168617519
 40
0.2248962467
 40
0.2338221921
 40
0.2436856096
 40
0.253987287
 40
0.2635713249
 40
0.2719419192
 40
0.2794331876
 40
0.2865154282
 40
0.2935382972
 40
0.3006505993
 40
0.3077577782
 40
0.3145335698
 40
0.3207649971
 40
0.3267087809
 40
0.3327194552
 40
0.3388281145
 40
0.3448999047
 40
0.3509047004
 40
0.3569023851
 40
0.3629678135
 40
0.3688704237
 40
0.374217005
 40
0.3792653572
 40
0.384346271
 40
0.3894386425
 40
0.3945127632
 40
0.3995976185
 40
0.4047032203
 40
0.4098233926
 40
0.4149532183
 40
0.4200846772
 40
0.4252038962
 40
0.4303252423
 40
0.4355102893
 40
0.4408425081
 40
0.4464046511
 40
0.4522128041
 40
0.4581785598
 40
0.4641953543
 40
0.4702073081
 40
0.4762457291
 40
0.4824120488
 40
0.4887488978
 40
0.4952173476
 40
0.5017598136
 40
0.508315951
 40
0.5148177939
 40
0.521192403
 40
0.5273803979
 40
0.5334337277
 40
0.5394756087
 40
0.5454901064
 40
0.5513347459
 40
0.5569246093
 40
0.5622650356
 40
0.5674477057
 40
0.5725907269
 40
0.5777438239
 40
0.5828987889
 40
0.5880454033
 40
0.5931808416
 40
0.5983029284
 40
0.60341015
 40
0.6085030803
 40
0.613594222
 40
0.6187122024
 40
0.6238270801
 40
0.6288886928
 40
0.6342094884
 40
0.6400973236
 40
0.6462655024
 40
0.6523968778
 40
0.6584959884
 40
0.6646277925
 40
0.6708002621
 40
0.6769310626
 40
0.6830278241
 40
0.6893555612
 40
0.6961197966
 40
0.7032024
 40
0.7103439655
 40
0.7174110685
 40
0.724477471
 40
0.7318138002
 40
0.7397933715
 40
0.7487904949
 40
0.7590580451
 40
0.7703956205
 40
0.7821510587
 40
0.7937780034
 40
0.8049530401
 40
0.8153823964
 40
0.8249288542
 40
0.8336059908
 40
0.8414474153
 40
0.8484985412
 40
0.8548936655
 40
0.8608614446
 40
0.8666428793
 40
0.8723992292
 40
0.8781684016
 40
0.8839313029
 40
0.889681768
 40
0.8954919648
 40
0.9015217924
 40
0.9079568714
 40
0.9149678604
 40
0.9226811199
 40
0.9311565982
 40
0.9404162178
 40
0.9505257732
 40
0.9615638858
 40
0.9737451329
 40
0.9870148723
 40
1.0
 40
1.0
 40
1.0
 40
1.0
 10
14.6678360661
 20
26.5853995668
 30
0.0
 10
14.6563874552
 20
26.5853995654
 30
0.0
 10
14.6318738254
 20
26.5854099128
 30
0.0
 10
14.5941890023
 20
26.5853046995
 30
0.0
 10
14.55558728
 20
26.584953031
 30
0.0
 10
14.51841222
 20
26.5843383625
 30
0.0
 10
14.4838244593
 20
26.5835029279
 30
0.0
 10
14.4519916908
 20
26.5824603424
 30
0.0
 10
14.4228051711
 20
26.5812525665
 30
0.0
 10
14.3953974084
 20
26.5798874722
 30
0.0
 10
14.3687332952
 20
26.5783293995
 30
0.0
 10
14.3421049418
 20
26.5765360532
 30
0.0
 10
14.3154352501
 20
26.5744947963
 30
0.0
 10
14.28922088
 20
26.5722441625
 30
0.0
 10
14.2641677188
 20
26.5698455555
 30
0.0
 10
14.2407534408
 20
26.5673775314
 30
0.0
 10
14.2189533794
 20
26.5648821033
 30
0.0
 10
14.1983089081
 20
26.5623449879
 30
0.0
 10
14.1782366449
 20
26.5597188369
 30
0.0
 10
14.1583324444
 20
26.5569589221
 30
0.0
 10
14.1384389703
 20
26.5540421322
 30
0.0
 10
14.1184724446
 20
26.5509522893
 30
0.0
 10
14.0983147094
 20
26.5476637291
 30
0.0
 10
14.0778992456
 20
26.5441502811
 30
0.0
 10
14.0572987183
 20
26.5404097709
 30
0.0
 10
14.0366805883
 20
26.5364626797
 30
0.0
 10
14.0162244877
 20
26.5323423596
 30
0.0
 10
13.9960638902
 20
26.5280895461
 30
0.0
 10
13.9762148971
 20
26.5237198056
 30
0.0
 10
13.9565729667
 20
26.519219138
 30
0.0
 10
13.9369999494
 20
26.5145592833
 30
0.0
 10
13.9173503853
 20
26.5097040152
 30
0.0
 10
13.8973643272
 20
26.5045811898
 30
0.0
 10
13.8765879609
 20
26.4990547019
 30
0.0
 10
13.8544656407
 20
26.4929362917
 30
0.0
 10
13.8304876166
 20
26.4860265246
 30
0.0
 10
13.804233149
 20
26.4781243659
 30
0.0
 10
13.7753333346
 20
26.4690124236
 30
0.0
 10
13.743439006
 20
26.458443293
 30
0.0
 10
13.7082869217
 20
26.4461563143
 30
0.0
 10
13.670412587
 20
26.4321379025
 30
0.0
 10
13.6319642128
 20
26.4170600592
 30
0.0
 10
13.5957197205
 20
26.4020586433
 30
0.0
 10
13.5633125123
 20
26.3880021716
 30
0.0
 10
13.5342843677
 20
26.3748926513
 30
0.0
 10
13.5071344397
 20
26.3621770626
 30
0.0
 10
13.4806289333
 20
26.3493320283
 30
0.0
 10
13.4542665254
 20
26.3361183015
 30
0.0
 10
13.4283865954
 20
26.3227132931
 30
0.0
 10
13.4037553722
 20
26.3095612055
 30
0.0
 10
13.38069666
 20
26.2968969462
 30
0.0
 10
13.3587081202
 20
26.2844939455
 30
0.0
 10
13.33700656
 20
26.2719322466
 30
0.0
 10
13.315289034
 20
26.2590464406
 30
0.0
 10
13.2937121389
 20
26.2459422928
 30
0.0
 10
13.2723987168
 20
26.2327035824
 30
0.0
 10
13.2512225997
 20
26.2192628024
 30
0.0
 10
13.2303038858
 20
26.2056835061
 30
0.0
 10
13.2102822082
 20
26.1923848085
 30
0.0
 10
13.1915610838
 20
26.1796820652
 30
0.0
 10
13.17389103
 20
26.1674633973
 30
0.0
 10
13.1566096118
 20
26.155304447
 30
0.0
 10
13.1393906043
 20
26.1429956935
 30
0.0
 10
13.1222597607
 20
26.130555206
 30
0.0
 10
13.1052085695
 20
26.1179748024
 30
0.0
 10
13.0882026577
 20
26.1052263848
 30
0.0
 10
13.0712458437
 20
26.0923094456
 30
0.0
 10
13.0543615763
 20
26.0792390946
 30
0.0
 10
13.0375813428
 20
26.0660375803
 30
0.0
 10
13.0209144462
 20
26.0527121164
 30
0.0
 10
13.0042923891
 20
26.0392124651
 30
0.0
 10
12.9875450395
 20
26.0253990687
 30
0.0
 10
12.9704334631
 20
26.0110665872
 30
0.0
 10
12.952777419
 20
25.9960381425
 30
0.0
 10
12.9345836789
 20
25.9802858415
 30
0.0
 10
12.9160536319
 20
25.9639591684
 30
0.0
 10
12.8974536831
 20
25.947285296
 30
0.0
 10
12.8789196613
 20
25.9303881001
 30
0.0
 10
12.8603760057
 20
25.913194682
 30
0.0
 10
12.8416556138
 20
25.8955299518
 30
0.0
 10
12.8226630356
 20
25.8772853756
 30
0.0
 10
12.8034617151
 20
25.8585059254
 30
0.0
 10
12.7842147225
 20
25.8393393833
 30
0.0
 10
12.7651093614
 20
25.8199664922
 30
0.0
 10
12.746343451
 20
25.8005876705
 30
0.0
 10
12.728107742
 20
25.7814083484
 30
0.0
 10
12.7104709332
 20
25.7625202125
 30
0.0
 10
12.6933081727
 20
25.743822675
 30
0.0
 10
12.67646464
 20
25.7251602327
 30
0.0
 10
12.6599744328
 20
25.7065703565
 30
0.0
 10
12.644059087
 20
25.6883105582
 30
0.0
 10
12.6289076027
 20
25.6706273947
 30
0.0
 10
12.614489691
 20
25.6535267734
 30
0.0
 10
12.6005974157
 20
25.6367951411
 30
0.0
 10
12.5869967078
 20
25.6201602097
 30
0.0
 10
12.5735481014
 20
25.6034513999
 30
0.0
 10
12.5602282523
 20
25.5866333967
 30
0.0
 10
12.5470560748
 20
25.5697305577
 30
0.0
 10
12.5340436608
 20
25.5527619059
 30
0.0
 10
12.5211955324
 20
25.5357369888
 30
0.0
 10
12.5085130286
 20
25.5186617899
 30
0.0
 10
12.4959853275
 20
25.5015258819
 30
0.0
 10
12.4835774064
 20
25.4842846516
 30
0.0
 10
12.4712805907
 20
25.4669266277
 30
0.0
 10
12.4591489824
 20
25.4495026156
 30
0.0
 10
12.4470086326
 20
25.4317425761
 30
0.0
 10
12.4344321235
 20
25.4129820166
 30
0.0
 10
12.4211981058
 20
25.3928142053
 30
0.0
 10
12.4075652564
 20
25.3715638605
 30
0.0
 10
12.3939885496
 20
25.3499305766
 30
0.0
 10
12.380656946
 20
25.3282045913
 30
0.0
 10
12.3675196191
 20
25.3062940083
 30
0.0
 10
12.3545972476
 20
25.2842049072
 30
0.0
 10
12.3419512791
 20
25.2620123511
 30
0.0
 10
12.3294538506
 20
25.2394890218
 30
0.0
 10
12.3167931634
 20
25.2160525781
 30
0.0
 10
12.3037728274
 20
25.1912570504
 30
0.0
 10
12.2905581128
 20
25.1652900946
 30
0.0
 10
12.2775091097
 20
25.1387700454
 30
0.0
 10
12.2648244546
 20
25.1120987463
 30
0.0
 10
12.2523839979
 20
25.085014844
 30
0.0
 10
12.2397998325
 20
25.0566061243
 30
0.0
 10
12.2265745763
 20
25.0255535683
 30
0.0
 10
12.2123110433
 20
24.9905251824
 30
0.0
 10
12.1970073432
 20
24.9508938498
 30
0.0
 10
12.1812278299
 20
24.9073513894
 30
0.0
 10
12.1658212752
 20
24.8616790175
 30
0.0
 10
12.1515043998
 20
24.8158900247
 30
0.0
 10
12.1386876044
 20
24.7715723776
 30
0.0
 10
12.1275134958
 20
24.7297960368
 30
0.0
 10
12.1179227226
 20
24.6911928985
 30
0.0
 10
12.1097618019
 20
24.6559414512
 30
0.0
 10
12.1028493088
 20
24.6239604457
 30
0.0
 10
12.0969991199
 20
24.5949937903
 30
0.0
 10
12.0920003627
 20
24.5685110477
 30
0.0
 10
12.0876099164
 20
24.5437089513
 30
0.0
 10
12.083626622
 20
24.5197367228
 30
0.0
 10
12.0799279206
 20
24.4959979546
 30
0.0
 10
12.0764659876
 20
24.4722495206
 30
0.0
 10
12.0732316706
 20
24.4484772926
 30
0.0
 10
12.0702082873
 20
24.4246199239
 30
0.0
 10
12.0673640687
 20
24.4003673935
 30
0.0
 10
12.0646512847
 20
24.3751437212
 30
0.0
 10
12.0620297005
 20
24.3482350285
 30
0.0
 10
12.0594882198
 20
24.3189721562
 30
0.0
 10
12.057042949
 20
24.2868595866
 30
0.0
 10
12.0547689005
 20
24.25160565
 30
0.0
 10
12.0527540728
 20
24.2130044769
 30
0.0
 10
12.0510563916
 20
24.1708274865
 30
0.0
 10
12.0497556484
 20
24.1245789283
 30
0.0
 10
12.0488901874
 20
24.0739327277
 30
0.0
 10
12.0485252643
 20
24.020577779
 30
0.0
 10
12.0485429002
 20
23.9841318036
 30
0.0
 10
12.0485428943
 20
23.966106395
 30
0.0
  0
ENDSEC
  0
SECTION
  2
OBJECTS
  0
DICTIONARY
  5
43A
100
AcDbDictionary
  3
ACAD_GROUP
350
43B
  3
ACAD_MLINESTYLE
350
43C
  0
DICTIONARY
  5
43B
102
{ACAD_REACTORS
330
43A
102
}
100
AcDbDictionary
  0
DICTIONARY
  5
43C
102
{ACAD_REACTORS
330
43A
102
}
100
AcDbDictionary
  3
STANDARD
350
43D
  0
MLINESTYLE
  5
43D
102
{ACAD_REACTORS
330
43C
102
}
100
AcDbMlineStyle
  2
STANDARD
 70
0
  3

 62
256
 51
90.0
 52
90.0
 71
2
 49
0.5
 62
256
  6
BYLAYER
 49
-0.5
 62
256
  6
BYLAYER
  0
ENDSEC
  0
EOF
