999
DXF file: 1014189-7.dxf
999
Pro/ENGINEER 2001490 by Parametric Technology Corporation
0
SECTION
2
HEADER
9
$ACADVER
1
AC1014
9
$EXTMAX
10
25.0000000000
20
25.0000000000
9
$EXTMIN
10
0.0000000000
20
0.0000000000
9
$LIMMIN
10
0.0000000000
20
0.0000000000
9
$LIMMAX
10
25.0000000000
20
25.0000000000
9
$VIEWCTR
10
12.5000000000
20
12.5000000000
9
$VIEWSIZE
40
25.0000000000
9
$CLAYER
8
0
9
$LTSCALE
40
1.6296296296
9
$CELTYPE
6
BYLAYER
9
$DIMSCALE
40
1
9
$DIMASZ
40
0.1875000000
9
$DIMEXO
40
0.1851851852
9
$DIMDLI
40
1.1259259259
9
$DIMEXE
40
0.5333333333
9
$DIMCEN
40
0.2666666667
9
$DIMLFAC
40
1.0000000000
9
$DIMTXT
40
0.1562500000
9
$DIMTOL
70
1
9
$DIMLIM
70
0
9
$DIMTFAC
40
1.0000000000
9
$DIMTP
40
0.0050000000
9
$DIMTM
40
0.0050000000
9
$HANDSEED
5
4F4
0
ENDSEC
0
SECTION
2
CLASSES
0
ENDSEC
0
SECTION
2
TABLES
0
TABLE
2
VPORT
5
8
100
AcDbSymbolTable
70
2
0
VPORT
5
1F4
100
AcDbSymbolTableRecord
100
AcDbViewportTableRecord
2
*ACTIVE
70
0
10
0.0
20
0.0
11
1.0
21
1.0
12
12.5000000000
22
12.5000000000
13
0.0
23
0.0
14
1.0
24
1.0
15
0.0
25
0.0
16
0.0
26
0.0
36
1.0
17
0.0
27
0.0
37
0.0
40
25.0000000000
41
1.0000000000
42
50.0
43
0.0
44
0.0
50
0.0
51
0.0
71
0
72
100
73
1
74
1
75
0
76
0
77
0
78
0
0
ENDTAB
0
TABLE
2
LTYPE
5
5
100
AcDbSymbolTable
70
6
0
LTYPE
5
14
100
AcDbSymbolTableRecord
100
AcDbLinetypeTableRecord
2
BYBLOCK
70
0
3

72
65
73
0
40
0.0
0
LTYPE
5
15
100
AcDbSymbolTableRecord
100
AcDbLinetypeTableRecord
2
BYLAYER
70
0
3

72
65
73
0
40
0.0
0
LTYPE
5
16
100
AcDbSymbolTableRecord
100
AcDbLinetypeTableRecord
2
CONTINUOUS
70
64
3
Solid line
72
65
73
0
40
0
0
LTYPE
5
1F5
100
AcDbSymbolTableRecord
100
AcDbLinetypeTableRecord
2
CENTER
70
64
3
____ _ ____ _ ____ _ ____ _ ____ _ ____ _ ____
72
65
73
4
40
0.6
49
0.375
74
0
49
-0.075
74
0
49
0.075
74
0
49
-0.075
74
0
0
LTYPE
5
1F6
100
AcDbSymbolTableRecord
100
AcDbLinetypeTableRecord
2
HIDDEN
70
64
3
- - - - - - - - - - - - - - - - - - - -
72
65
73
2
40
0.2
49
0.1
74
0
49
-0.1
74
0
0
LTYPE
5
1F7
100
AcDbSymbolTableRecord
100
AcDbLinetypeTableRecord
2
PHANTOM
70
64
3
_____ _ _ _____ _ _ _____ _ _ _____
72
65
73
6
40
0.8
49
0.45
74
0
49
-0.05
74
0
49
0.1
74
0
49
-0.05
74
0
49
0.1
74
0
49
-0.05
74
0
0
LTYPE
5
1F8
100
AcDbSymbolTableRecord
100
AcDbLinetypeTableRecord
2
DOT
70
64
3
. . . . . . . . . . . . . . . . . . . .
72
65
73
2
40
0.2
49
0.1
74
0
49
-0.1
74
0
0
LTYPE
5
1F9
100
AcDbSymbolTableRecord
100
AcDbLinetypeTableRecord
2
DASHED
70
64
3
- - - - - - - - - - - - - - - - - - - -
72
65
73
2
40
0.2
49
0.1
74
0
49
-0.1
74
0
0
ENDTAB
0
TABLE
2
LAYER
5
2
100
AcDbSymbolTable
70
36
0
LAYER
5
10
100
AcDbSymbolTableRecord
100
AcDbLayerTableRecord
2
0
70
0
62
7
6
CONTINUOUS
0
LAYER
5
1FA
100
AcDbSymbolTableRecord
100
AcDbLayerTableRecord
2
DEFAULT_1
70
0
62
7
6
CENTER
0
LAYER
5
1FB
100
AcDbSymbolTableRecord
100
AcDbLayerTableRecord
2
DEFAULT_2
70
0
62
8
6
HIDDEN
0
LAYER
5
1FC
100
AcDbSymbolTableRecord
100
AcDbLayerTableRecord
2
DEFAULT_3
70
0
62
7
6
PHANTOM
0
LAYER
5
1FD
100
AcDbSymbolTableRecord
100
AcDbLayerTableRecord
2
0
70
0
62
7
6
CONTINUOUS
0
LAYER
5
1FE
100
AcDbSymbolTableRecord
100
AcDbLayerTableRecord
2
DEFPOINTS
70
0
62
7
6
CONTINUOUS
0
LAYER
5
1FF
100
AcDbSymbolTableRecord
100
AcDbLayerTableRecord
2
DRAFT_ENT
70
0
62
7
6
CONTINUOUS
0
LAYER
5
200
100
AcDbSymbolTableRecord
100
AcDbLayerTableRecord
2
NOTE
70
0
62
7
6
CONTINUOUS
0
LAYER
5
201
100
AcDbSymbolTableRecord
100
AcDbLayerTableRecord
2
PSPTBK
70
0
62
7
6
CONTINUOUS
0
LAYER
5
202
100
AcDbSymbolTableRecord
100
AcDbLayerTableRecord
2
SYMBOL
70
0
62
7
6
CONTINUOUS
0
LAYER
5
203
100
AcDbSymbolTableRecord
100
AcDbLayerTableRecord
2
___NOTE
70
0
62
7
6
CONTINUOUS
0
ENDTAB
0
TABLE
2
STYLE
5
3
100
AcDbSymbolTable
70
1
0
STYLE
5
11
100
AcDbSymbolTableRecord
100
AcDbTextStyleTableRecord
2
STANDARD
70
0
40
0.0
41
0.8000000000
50
0.0
71
0
42
0.0
3
txt
4

0
STYLE
5
204
100
AcDbSymbolTableRecord
100
AcDbTextStyleTableRecord
2
TEXTSTYLE_0
70
0
40
0.0
41
0.80
50
0.0
71
0
42
0.2
3
txt
4

0
STYLE
5
205
100
AcDbSymbolTableRecord
100
AcDbTextStyleTableRecord
2
TEXTSTYLE_1
70
0
40
0.0
41
0.80
50
0.0
71
0
42
0.2
3
txt
4

0
ENDTAB
0
TABLE
2
VIEW
5
6
100
AcDbSymbolTable
70
0
0
ENDTAB
0
TABLE
2
UCS
5
7
100
AcDbSymbolTable
70
0
0
ENDTAB
0
TABLE
2
APPID
5
9
100
AcDbSymbolTable
70
1
0
APPID
5
206
100
AcDbSymbolTableRecord
100
AcDbRegAppTableRecord
2
ACAD
70
0
0
ENDTAB
0
TABLE
2
DIMSTYLE
5
A
100
AcDbSymbolTable
70
1
0
DIMSTYLE
105
207
100
AcDbSymbolTableRecord
100
AcDbDimStyleTableRecord
2
STANDARD
70
0
3

4

5

6

7

40
1.0
41
0.1875000000
42
0.0625
43
0.38
44
0.18
45
0.0
46
0.0
47
0.0050000000
48
0.0050000000
140
0.1562500000
141
0.09
142
0.0
143
25.4
144
1.0000000000
145
0.0
146
1.0000000000
147
0.09
71
1
72
0
73
1
74
1
75
0
76
0
77
0
78
0
170
0
171
2
172
0
173
0
174
0
175
0
176
0
177
0
178
0
270
2
271
3
272
3
273
2
274
2
340
11
275
0
280
0
281
0
282
0
283
1
284
0
285
0
286
0
287
3
288
0
0
DIMSTYLE
105
208
100
AcDbSymbolTableRecord
100
AcDbDimStyleTableRecord
2
DIMSTYLE_1
70
0
3

4

5

6

7

40
1.0
41
0.1875000000
42
0.0625
43
0.38
44
0.18
45
0.0
46
0.0
47
0.0625000000
48
0.0625000000
140
0.1562500000
141
0.09
142
0.0
143
25.4
144
1.0000000000
145
0.0
146
1.0000000000
147
0.09
71
0
72
0
73
1
74
1
75
0
76
0
77
0
78
0
170
0
171
2
172
0
173
0
174
0
175
0
176
0
177
0
178
0
270
2
271
4
272
4
273
2
274
2
340
11
275
0
280
0
281
0
282
0
283
1
284
0
285
0
286
0
287
3
288
0
0
ENDTAB
0
TABLE
2
BLOCK_RECORD
5
1
100
AcDbSymbolTable
70
0
0
BLOCK_RECORD
5
1B
100
AcDbSymbolTableRecord
100
AcDbBlockTableRecord
2
*MODEL_SPACE
0
BLOCK_RECORD
5
1C
100
AcDbSymbolTableRecord
100
AcDbBlockTableRecord
2
*PAPER_SPACE
0
BLOCK_RECORD
5
209
100
AcDbSymbolTableRecord
100
AcDbBlockTableRecord
2
*D0
0
BLOCK_RECORD
5
20A
100
AcDbSymbolTableRecord
100
AcDbBlockTableRecord
2
*D1
0
ENDTAB
0
ENDSEC
0
SECTION
2
BLOCKS
0
BLOCK
5
1E
100
AcDbEntity
8
0
100
AcDbBlockBegin
2
*MODEL_SPACE
70
0
10
0.0
20
0.0
30
0.0
3
*MODEL_SPACE
1

0
ENDBLK
5
1F
100
AcDbEntity
8
0
100
AcDbBlockEnd
0
BLOCK
5
20
100
AcDbEntity
8
0
100
AcDbBlockBegin
2
*PAPER_SPACE
70
0
10
0.0
20
0.0
30
0.0
3
*PAPER_SPACE
1

0
ENDBLK
5
21
100
AcDbEntity
8
0
100
AcDbBlockEnd
0
BLOCK
5
20B
100
AcDbEntity
8
0
100
AcDbBlockBegin
62
2
6
CONTINUOUS
2
*D0
70
65
10
0.0000000000
20
0.0000000000
3
*D0
1

0
TEXT
5
20C
100
AcDbEntity
8
0
100
AcDbText
62
2
6
CONTINUOUS
10
12.0600319708
20
13.4803199053
7
TEXTSTYLE_0
40
0.1562500000
1
[35,7]
72
5
11
12.8100319708
21
13.4803199053
100
AcDbText
0
TEXT
5
20D
100
AcDbEntity
8
0
100
AcDbText
62
2
6
CONTINUOUS
10
11.9975319708
20
13.7146949053
7
TEXTSTYLE_0
40
0.1562500000
1
14-1/16
72
5
11
12.8725319708
21
13.7146949053
100
AcDbText
0
LINE
5
20E
100
AcDbEntity
8
0
100
AcDbLine
62
2
6
CONTINUOUS
10
12.4448162214
20
19.5179375587
11
12.3100319708
21
19.5179375587
0
LINE
5
20F
100
AcDbEntity
8
0
100
AcDbLine
62
2
6
CONTINUOUS
10
12.4601283123
20
5.4863663929
11
12.3100319708
21
5.4863663929
0
LINE
5
210
100
AcDbEntity
8
0
100
AcDbLine
62
2
6
CONTINUOUS
10
12.4350319708
20
19.5179375587
11
12.4350319708
21
13.9490699053
0
LINE
5
211
100
AcDbEntity
8
0
100
AcDbLine
62
2
6
CONTINUOUS
10
12.4350319708
20
5.4863663929
11
12.4350319708
21
13.4021949053
0
SOLID
5
212
100
AcDbEntity
8
0
100
AcDbTrace
62
2
6
CONTINUOUS
10
12.4662819708
20
19.3304375587
11
12.4350319708
21
19.5179375587
12
12.4037819708
22
19.3304375587
13
12.4037819708
23
19.3304375587
0
SOLID
5
213
100
AcDbEntity
8
0
100
AcDbTrace
62
2
6
CONTINUOUS
10
12.4037819708
20
5.6738663929
11
12.4350319708
21
5.4863663929
12
12.4662819708
22
5.6738663929
13
12.4662819708
23
5.6738663929
0
ENDBLK
5
214
100
AcDbEntity
8
0
100
AcDbBlockEnd
0
BLOCK
5
215
100
AcDbEntity
8
0
100
AcDbBlockBegin
62
2
6
CONTINUOUS
2
*D1
70
65
10
0.0000000000
20
0.0000000000
3
*D1
1

0
TEXT
5
216
100
AcDbEntity
8
0
100
AcDbText
62
2
6
CONTINUOUS
10
14.9315132420
20
11.9100463082
7
TEXTSTYLE_0
40
0.1562500000
1
[49,7]
72
5
11
15.6815132420
21
11.9100463082
100
AcDbText
0
TEXT
5
217
100
AcDbEntity
8
0
100
AcDbText
62
2
6
CONTINUOUS
10
14.8690132420
20
12.1444213082
7
TEXTSTYLE_0
40
0.1562500000
1
19-9/16
72
5
11
15.7440132420
21
12.1444213082
100
AcDbText
0
LINE
5
218
100
AcDbEntity
8
0
100
AcDbLine
62
2
6
CONTINUOUS
10
22.2087353195
20
12.1968027838
11
22.2087353195
21
12.3475463082
0
LINE
5
219
100
AcDbEntity
8
0
100
AcDbLine
62
2
6
CONTINUOUS
10
2.6687353195
20
12.1968027837
11
2.6687353195
21
12.3475463082
0
LINE
5
21A
100
AcDbEntity
8
0
100
AcDbLine
62
2
6
CONTINUOUS
10
22.2087353195
20
12.2225463082
11
15.8221382420
21
12.2225463082
0
LINE
5
21B
100
AcDbEntity
8
0
100
AcDbLine
62
2
6
CONTINUOUS
10
2.6687353195
20
12.2225463082
11
14.7908882420
21
12.2225463082
0
SOLID
5
21C
100
AcDbEntity
8
0
100
AcDbTrace
62
2
6
CONTINUOUS
10
22.0212353195
20
12.1912963082
11
22.2087353195
21
12.2225463082
12
22.0212353195
22
12.2537963082
13
22.0212353195
23
12.2537963082
0
SOLID
5
21D
100
AcDbEntity
8
0
100
AcDbTrace
62
2
6
CONTINUOUS
10
2.8562353195
20
12.2537963082
11
2.6687353195
21
12.2225463082
12
2.8562353195
22
12.1912963082
13
2.8562353195
23
12.1912963082
0
ENDBLK
5
21E
100
AcDbEntity
8
0
100
AcDbBlockEnd
0
ENDSEC
0
SECTION
2
ENTITIES
0
LINE
5
21F
100
AcDbEntity
8
0
100
AcDbLine
62
7
6
CONTINUOUS
10
14.9822386525
20
8.9975218279
11
15.8859240356
21
8.9975218279
0
LINE
5
220
100
AcDbEntity
8
0
100
AcDbLine
62
7
6
CONTINUOUS
10
14.9822386525
20
9.3725218279
11
15.8859240356
21
9.3725218279
0
LINE
5
221
100
AcDbEntity
8
0
100
AcDbLine
62
7
6
CONTINUOUS
10
14.9822386525
20
9.3725218279
11
14.9822386525
21
8.9975218279
0
SPLINE
5
222
100
AcDbEntity
8
0
100
AcDbSpline
62
7
6
CONTINUOUS
70
0
71
3
72
10
73
6
74
4
42
0.0000001000
43
0.0000001000
44
0.0000000001
40
0.0000000000
40
0.0000000000
40
0.0000000000
40
0.0000000000
40
0.3199999051
40
0.6559723985
40
1.0000000000
40
1.0000000000
40
1.0000000000
40
1.0000000000
10
15.8859240356
20
8.9975218279
30
0.0000000000
10
15.9660856041
20
9.0661321322
30
0.0000000000
10
15.9559032561
20
9.1554426013
30
0.0000000000
10
15.7608159030
20
9.2288727097
30
0.0000000000
10
15.7722826931
20
9.3069018935
30
0.0000000000
10
15.8859240356
20
9.3725218279
30
0.0000000000
11
15.8859240356
21
8.9975218279
31
0.0000000000
11
15.9281203965
21
9.1434771506
31
0.0000000000
11
15.7975703197
21
9.2351399705
31
0.0000000000
11
15.8859240356
21
9.3725218279
31
0.0000000000
0
HATCH
5
223
100
AcDbEntity
8
0
100
AcDbHatch
62
2
6
CONTINUOUS
10
0.0
20
0.0
30
0.0
210
0.0
220
0.0
230
1.0
2
a
70
0
71
1
91
1
92
1
93
4
72
4
94
3
73
0
74
0
95
10
96
6
40
0.0000000000
40
0.0000000000
40
0.0000000000
40
0.0000000000
40
0.3199999051
40
0.6559723985
40
1.0000000000
40
1.0000000000
40
1.0000000000
40
1.0000000000
10
15.8859240356
20
8.9975218279
10
15.9660856041
20
9.0661321322
10
15.9559032561
20
9.1554426013
10
15.7608159030
20
9.2288727097
10
15.7722826931
20
9.3069018935
10
15.8859240356
20
9.3725218279
72
1
10
14.9822386525
20
9.3725218279
11
15.8859240356
21
9.3725218279
72
1
10
14.9822386525
20
9.3725218279
11
14.9822386525
21
8.9975218279
72
1
10
14.9822386525
20
8.9975218279
11
15.8859240356
21
8.9975218279
97
4
330
21F
330
220
330
221
330
222
75
0
76
0
52
135.0000000000
41
0.1089324619
77
0
78
1
53
135.0000000000
43
0.0000000000
44
0.0000000000
45
-0.0770268825
46
-0.0770268825
79
0
98
1
10
0.0
20
0.0
0
SOLID
5
224
100
AcDbEntity
8
DRAFT_ENT
100
AcDbTrace
62
2
6
CONTINUOUS
10
6.9938088062
20
16.9155484505
11
7.1315729729
21
17.0793696402
12
7.3236347850
22
17.0793696402
13
7.3236347850
23
17.0793696402
0
SOLID
5
225
100
AcDbEntity
8
DRAFT_ENT
100
AcDbTrace
62
2
6
CONTINUOUS
10
7.3236347850
20
17.0793696402
11
7.1103313331
21
16.8257213673
12
6.9938088062
22
16.9155484505
13
6.9938088062
23
16.9155484505
0
SOLID
5
226
100
AcDbEntity
8
DRAFT_ENT
100
AcDbTrace
62
2
6
CONTINUOUS
10
6.9938088062
20
16.6949558249
11
7.1103313331
21
16.8257213673
12
7.1475467463
22
16.4934559909
13
7.1475467463
23
16.4934559909
0
SOLID
5
227
100
AcDbEntity
8
DRAFT_ENT
100
AcDbTrace
62
2
6
CONTINUOUS
10
7.1103313331
20
16.8257213673
11
7.3638391678
21
16.4934559909
12
7.1475467463
22
16.4934559909
13
7.1475467463
23
16.4934559909
0
SOLID
5
228
100
AcDbEntity
8
DRAFT_ENT
100
AcDbTrace
62
2
6
CONTINUOUS
10
6.9938088062
20
16.4934559909
11
6.8193085792
21
16.4934319874
12
6.9938088062
22
16.6949558249
13
6.9938088062
23
16.6949558249
0
SOLID
5
229
100
AcDbEntity
8
DRAFT_ENT
100
AcDbTrace
62
2
6
CONTINUOUS
10
7.1103313331
20
16.8257213673
11
6.9938088062
21
16.6949558249
12
6.9938088062
22
16.9155484505
13
6.9938088062
23
16.9155484505
0
SOLID
5
22A
100
AcDbEntity
8
DRAFT_ENT
100
AcDbTrace
62
2
6
CONTINUOUS
10
6.9938088062
20
16.6949558249
11
6.8193085792
21
16.4934319874
12
6.9938088062
22
16.9155484505
13
6.9938088062
23
16.9155484505
0
SOLID
5
22B
100
AcDbEntity
8
DRAFT_ENT
100
AcDbTrace
62
2
6
CONTINUOUS
10
6.9938088062
20
16.9155484505
11
6.8193085792
21
16.4934319874
12
6.9938088062
22
17.0793696402
13
6.9938088062
23
17.0793696402
0
SOLID
5
22C
100
AcDbEntity
8
DRAFT_ENT
100
AcDbTrace
62
2
6
CONTINUOUS
10
6.8193085792
20
16.4934319874
11
6.8193085792
21
17.0793696402
12
6.9938088062
22
17.0793696402
13
6.9938088062
23
17.0793696402
0
SOLID
5
22D
100
AcDbEntity
8
DRAFT_ENT
100
AcDbTrace
62
2
6
CONTINUOUS
10
7.4482434526
20
17.0687602268
11
7.5091926070
21
17.0817153695
12
7.5715034019
22
17.0817153695
13
7.5715034019
23
17.0817153695
0
SOLID
5
22E
100
AcDbEntity
8
DRAFT_ENT
100
AcDbTrace
62
2
6
CONTINUOUS
10
7.5715034019
20
17.0817153695
11
7.6324525564
21
17.0687602268
12
7.4482434526
22
17.0687602268
13
7.4482434526
23
17.0687602268
0
SOLID
5
22F
100
AcDbEntity
8
DRAFT_ENT
100
AcDbTrace
62
2
6
CONTINUOUS
10
7.3913197090
20
17.0434161432
11
7.4482434526
21
17.0687602268
12
7.6324525564
22
17.0687602268
13
7.6324525564
23
17.0687602268
0
SOLID
5
230
100
AcDbEntity
8
DRAFT_ENT
100
AcDbTrace
62
2
6
CONTINUOUS
10
7.6324525564
20
17.0687602268
11
7.6893763000
21
17.0434161432
12
7.3913197090
22
17.0434161432
13
7.3913197090
23
17.0434161432
0
SOLID
5
231
100
AcDbEntity
8
DRAFT_ENT
100
AcDbTrace
62
2
6
CONTINUOUS
10
7.3409092170
20
17.0067907770
11
7.3913197090
21
17.0434161432
12
7.6893763000
22
17.0434161432
13
7.6893763000
23
17.0434161432
0
SOLID
5
232
100
AcDbEntity
8
DRAFT_ENT
100
AcDbTrace
62
2
6
CONTINUOUS
10
7.6893763000
20
17.0434161432
11
7.7397867919
21
17.0067907770
12
7.3409092170
22
17.0067907770
13
7.3409092170
23
17.0067907770
0
SOLID
5
233
100
AcDbEntity
8
DRAFT_ENT
100
AcDbTrace
62
2
6
CONTINUOUS
10
7.2992151571
20
16.9604848322
11
7.3409092170
21
17.0067907770
12
7.7397867919
22
17.0067907770
13
7.7397867919
23
17.0067907770
0
SOLID
5
234
100
AcDbEntity
8
DRAFT_ENT
100
AcDbTrace
62
2
6
CONTINUOUS
10
7.7397867919
20
17.0067907770
11
7.7814808519
21
16.9604848322
12
7.2992151571
22
16.9604848322
13
7.2992151571
23
16.9604848322
0
SOLID
5
235
100
AcDbEntity
8
DRAFT_ENT
100
AcDbTrace
62
2
6
CONTINUOUS
10
7.5403480045
20
16.9100609788
11
7.2680597596
21
16.9065221009
12
7.7814808519
22
16.9604848322
13
7.7814808519
23
16.9604848322
0
SOLID
5
236
100
AcDbEntity
8
DRAFT_ENT
100
AcDbTrace
62
2
6
CONTINUOUS
10
7.2680597596
20
16.9065221009
11
7.2992151571
21
16.9604848322
12
7.7814808519
22
16.9604848322
13
7.7814808519
23
16.9604848322
0
SOLID
5
237
100
AcDbEntity
8
DRAFT_ENT
100
AcDbTrace
62
2
6
CONTINUOUS
10
7.7814808519
20
16.9604848322
11
7.8126362493
21
16.9065221009
12
7.5403480045
22
16.9100609788
13
7.5403480045
23
16.9100609788
0
SOLID
5
238
100
AcDbEntity
8
DRAFT_ENT
100
AcDbTrace
62
2
6
CONTINUOUS
10
7.5403480045
20
16.9100609788
11
7.5017921348
21
16.9039543289
12
7.2680597596
22
16.9065221009
13
7.2680597596
23
16.9065221009
0
SOLID
5
239
100
AcDbEntity
8
DRAFT_ENT
100
AcDbTrace
62
2
6
CONTINUOUS
10
7.5789038741
20
16.9039543289
11
7.5403480045
21
16.9100609788
12
7.8126362493
22
16.9065221009
13
7.8126362493
23
16.9065221009
0
SOLID
5
23A
100
AcDbEntity
8
DRAFT_ENT
100
AcDbTrace
62
2
6
CONTINUOUS
10
7.4394074273
20
16.8586291858
11
7.2488046651
21
16.8472610135
12
7.4670103823
22
16.8862321409
13
7.4670103823
23
16.8862321409
0
SOLID
5
23B
100
AcDbEntity
8
DRAFT_ENT
100
AcDbTrace
62
2
6
CONTINUOUS
10
7.4670103823
20
16.8862321409
11
7.2488046651
21
16.8472610135
12
7.5017921348
22
16.9039543289
13
7.5017921348
23
16.9039543289
0
SOLID
5
23C
100
AcDbEntity
8
DRAFT_ENT
100
AcDbTrace
62
2
6
CONTINUOUS
10
7.2488046651
20
16.8472610135
11
7.2680597596
21
16.9065221009
12
7.5017921348
22
16.9039543289
13
7.5017921348
23
16.9039543289
0
SOLID
5
23D
100
AcDbEntity
8
DRAFT_ENT
100
AcDbTrace
62
2
6
CONTINUOUS
10
7.5789038741
20
16.9039543289
11
7.8126362493
21
16.9065221009
12
7.6136856266
22
16.8862321409
13
7.6136856266
23
16.8862321409
0
SOLID
5
23E
100
AcDbEntity
8
DRAFT_ENT
100
AcDbTrace
62
2
6
CONTINUOUS
10
7.6136856266
20
16.8862321409
11
7.8126362493
21
16.9065221009
12
7.6412885816
22
16.8586291858
13
7.6412885816
23
16.8586291858
0
SOLID
5
23F
100
AcDbEntity
8
DRAFT_ENT
100
AcDbTrace
62
2
6
CONTINUOUS
10
7.8126362493
20
16.9065221009
11
7.8318913438
21
16.8472610135
12
7.6412885816
22
16.8586291858
13
7.6412885816
23
16.8586291858
0
SOLID
5
240
100
AcDbEntity
8
DRAFT_ENT
100
AcDbTrace
62
2
6
CONTINUOUS
10
7.4394074273
20
16.8586291858
11
7.4216852392
21
16.8238474333
12
7.2488046651
22
16.8472610135
13
7.2488046651
23
16.8472610135
0
SOLID
5
241
100
AcDbEntity
8
DRAFT_ENT
100
AcDbTrace
62
2
6
CONTINUOUS
10
7.6590107697
20
16.8238474333
11
7.6412885816
21
16.8586291858
12
7.8318913438
22
16.8472610135
13
7.8318913438
23
16.8472610135
0
SOLID
5
242
100
AcDbEntity
8
DRAFT_ENT
100
AcDbTrace
62
2
6
CONTINUOUS
10
7.2422914135
20
16.7852915637
11
7.2488046651
21
16.8472610135
12
7.4216852392
22
16.8238474333
13
7.4216852392
23
16.8238474333
0
SOLID
5
243
100
AcDbEntity
8
DRAFT_ENT
100
AcDbTrace
62
2
6
CONTINUOUS
10
7.4216852392
20
16.8238474333
11
7.4155785894
21
16.7852915637
12
7.2422914135
22
16.7852915637
13
7.2422914135
23
16.7852915637
0
SOLID
5
244
100
AcDbEntity
8
DRAFT_ENT
100
AcDbTrace
62
2
6
CONTINUOUS
10
7.6590107697
20
16.8238474333
11
7.8318913438
21
16.8472610135
12
7.6651174195
22
16.7852915637
13
7.6651174195
23
16.7852915637
0
SOLID
5
245
100
AcDbEntity
8
DRAFT_ENT
100
AcDbTrace
62
2
6
CONTINUOUS
10
7.8318913438
20
16.8472610135
11
7.8384045955
21
16.7852915637
12
7.6651174195
22
16.7852915637
13
7.6651174195
23
16.7852915637
0
SOLID
5
246
100
AcDbEntity
8
DRAFT_ENT
100
AcDbTrace
62
2
6
CONTINUOUS
10
7.6590107697
20
16.7467356940
11
7.6651174195
21
16.7852915637
12
7.8384045955
22
16.7852915637
13
7.8384045955
23
16.7852915637
0
SOLID
5
247
100
AcDbEntity
8
DRAFT_ENT
100
AcDbTrace
62
2
6
CONTINUOUS
10
7.4216852392
20
16.7467356940
11
7.2488046651
21
16.7233221139
12
7.4155785894
22
16.7852915637
13
7.4155785894
23
16.7852915637
0
SOLID
5
248
100
AcDbEntity
8
DRAFT_ENT
100
AcDbTrace
62
2
6
CONTINUOUS
10
7.2488046651
20
16.7233221139
11
7.2422914135
21
16.7852915637
12
7.4155785894
22
16.7852915637
13
7.4155785894
23
16.7852915637
0
SOLID
5
249
100
AcDbEntity
8
DRAFT_ENT
100
AcDbTrace
62
2
6
CONTINUOUS
10
7.8384045955
20
16.7852915637
11
7.8318913438
21
16.7233221139
12
7.6590107697
22
16.7467356940
13
7.6590107697
23
16.7467356940
0
SOLID
5
24A
100
AcDbEntity
8
DRAFT_ENT
100
AcDbTrace
62
2
6
CONTINUOUS
10
7.4216852392
20
16.7467356940
11
7.4394074273
21
16.7119539416
12
7.2488046651
22
16.7233221139
13
7.2488046651
23
16.7233221139
0
SOLID
5
24B
100
AcDbEntity
8
DRAFT_ENT
100
AcDbTrace
62
2
6
CONTINUOUS
10
7.6412885816
20
16.7119539416
11
7.6590107697
21
16.7467356940
12
7.8318913438
22
16.7233221139
13
7.8318913438
23
16.7233221139
0
SOLID
5
24C
100
AcDbEntity
8
DRAFT_ENT
100
AcDbTrace
62
2
6
CONTINUOUS
10
7.5017921348
20
16.6666287984
11
7.2680597596
21
16.6640610264
12
7.4670103823
22
16.6843509865
13
7.4670103823
23
16.6843509865
0
SOLID
5
24D
100
AcDbEntity
8
DRAFT_ENT
100
AcDbTrace
62
2
6
CONTINUOUS
10
7.4670103823
20
16.6843509865
11
7.2680597596
21
16.6640610264
12
7.4394074273
22
16.7119539416
13
7.4394074273
23
16.7119539416
0
SOLID
5
24E
100
AcDbEntity
8
DRAFT_ENT
100
AcDbTrace
62
2
6
CONTINUOUS
10
7.2680597596
20
16.6640610264
11
7.2488046651
21
16.7233221139
12
7.4394074273
22
16.7119539416
13
7.4394074273
23
16.7119539416
0
SOLID
5
24F
100
AcDbEntity
8
DRAFT_ENT
100
AcDbTrace
62
2
6
CONTINUOUS
10
7.6412885816
20
16.7119539416
11
7.8318913438
21
16.7233221139
12
7.6136856266
22
16.6843509865
13
7.6136856266
23
16.6843509865
0
SOLID
5
250
100
AcDbEntity
8
DRAFT_ENT
100
AcDbTrace
62
2
6
CONTINUOUS
10
7.6136856266
20
16.6843509865
11
7.8318913438
21
16.7233221139
12
7.5789038741
22
16.6666287984
13
7.5789038741
23
16.6666287984
0
SOLID
5
251
100
AcDbEntity
8
DRAFT_ENT
100
AcDbTrace
62
2
6
CONTINUOUS
10
7.8318913438
20
16.7233221139
11
7.8126362493
21
16.6640610264
12
7.5789038741
22
16.6666287984
13
7.5789038741
23
16.6666287984
0
SOLID
5
252
100
AcDbEntity
8
DRAFT_ENT
100
AcDbTrace
62
2
6
CONTINUOUS
10
7.5017921348
20
16.6666287984
11
7.5403480045
21
16.6605221486
12
7.2680597596
22
16.6640610264
13
7.2680597596
23
16.6640610264
0
SOLID
5
253
100
AcDbEntity
8
DRAFT_ENT
100
AcDbTrace
62
2
6
CONTINUOUS
10
7.5403480045
20
16.6605221486
11
7.5789038741
21
16.6666287984
12
7.8126362493
22
16.6640610264
13
7.8126362493
23
16.6640610264
0
SOLID
5
254
100
AcDbEntity
8
DRAFT_ENT
100
AcDbTrace
62
2
6
CONTINUOUS
10
7.2992151571
20
16.6100982951
11
7.2680597596
21
16.6640610264
12
7.5403480045
22
16.6605221486
13
7.5403480045
23
16.6605221486
0
SOLID
5
255
100
AcDbEntity
8
DRAFT_ENT
100
AcDbTrace
62
2
6
CONTINUOUS
10
7.5403480045
20
16.6605221486
11
7.8126362493
21
16.6640610264
12
7.2992151571
22
16.6100982951
13
7.2992151571
23
16.6100982951
0
SOLID
5
256
100
AcDbEntity
8
DRAFT_ENT
100
AcDbTrace
62
2
6
CONTINUOUS
10
7.8126362493
20
16.6640610264
11
7.7814808519
21
16.6100982951
12
7.2992151571
22
16.6100982951
13
7.2992151571
23
16.6100982951
0
SOLID
5
257
100
AcDbEntity
8
DRAFT_ENT
100
AcDbTrace
62
2
6
CONTINUOUS
10
7.3409092170
20
16.5637923504
11
7.2992151571
21
16.6100982951
12
7.7814808519
22
16.6100982951
13
7.7814808519
23
16.6100982951
0
SOLID
5
258
100
AcDbEntity
8
DRAFT_ENT
100
AcDbTrace
62
2
6
CONTINUOUS
10
7.7814808519
20
16.6100982951
11
7.7397867919
21
16.5637923504
12
7.3409092170
22
16.5637923504
13
7.3409092170
23
16.5637923504
0
SOLID
5
259
100
AcDbEntity
8
DRAFT_ENT
100
AcDbTrace
62
2
6
CONTINUOUS
10
7.3913197090
20
16.5271669841
11
7.3409092170
21
16.5637923504
12
7.7397867919
22
16.5637923504
13
7.7397867919
23
16.5637923504
0
SOLID
5
25A
100
AcDbEntity
8
DRAFT_ENT
100
AcDbTrace
62
2
6
CONTINUOUS
10
7.7397867919
20
16.5637923504
11
7.6893763000
21
16.5271669841
12
7.3913197090
22
16.5271669841
13
7.3913197090
23
16.5271669841
0
SOLID
5
25B
100
AcDbEntity
8
DRAFT_ENT
100
AcDbTrace
62
2
6
CONTINUOUS
10
7.4482434526
20
16.5018229006
11
7.3913197090
21
16.5271669841
12
7.6893763000
22
16.5271669841
13
7.6893763000
23
16.5271669841
0
SOLID
5
25C
100
AcDbEntity
8
DRAFT_ENT
100
AcDbTrace
62
2
6
CONTINUOUS
10
7.6893763000
20
16.5271669841
11
7.6324525564
21
16.5018229006
12
7.4482434526
22
16.5018229006
13
7.4482434526
23
16.5018229006
0
SOLID
5
25D
100
AcDbEntity
8
DRAFT_ENT
100
AcDbTrace
62
2
6
CONTINUOUS
10
7.5091926070
20
16.4888677579
11
7.4482434526
21
16.5018229006
12
7.6324525564
22
16.5018229006
13
7.6324525564
23
16.5018229006
0
SOLID
5
25E
100
AcDbEntity
8
DRAFT_ENT
100
AcDbTrace
62
2
6
CONTINUOUS
10
7.6324525564
20
16.5018229006
11
7.5715034019
21
16.4888677579
12
7.5091926070
22
16.4888677579
13
7.5091926070
23
16.4888677579
0
SOLID
5
25F
100
AcDbEntity
8
DRAFT_ENT
100
AcDbTrace
62
2
6
CONTINUOUS
10
8.1682503338
20
16.8589858806
11
8.1682503338
21
17.0793696402
12
8.3329840137
22
17.0793696402
13
8.3329840137
23
17.0793696402
0
SOLID
5
260
100
AcDbEntity
8
DRAFT_ENT
100
AcDbTrace
62
2
6
CONTINUOUS
10
8.1682503338
20
16.8589858806
11
8.0202535227
21
16.7217806007
12
8.0202535227
22
16.8589858806
13
8.0202535227
23
16.8589858806
0
SOLID
5
261
100
AcDbEntity
8
DRAFT_ENT
100
AcDbTrace
62
2
6
CONTINUOUS
10
8.0202535227
20
16.7217806007
11
7.8555198428
21
16.4934559909
12
8.0202535227
22
16.8589858806
13
8.0202535227
23
16.8589858806
0
SOLID
5
262
100
AcDbEntity
8
DRAFT_ENT
100
AcDbTrace
62
2
6
CONTINUOUS
10
8.0202535227
20
16.8589858806
11
7.8555198428
21
16.4934559909
12
8.0202535227
22
17.0793696402
13
8.0202535227
23
17.0793696402
0
SOLID
5
263
100
AcDbEntity
8
DRAFT_ENT
100
AcDbTrace
62
2
6
CONTINUOUS
10
7.8555198428
20
16.4934559909
11
7.8555198428
21
17.0793696402
12
8.0202535227
22
17.0793696402
13
8.0202535227
23
17.0793696402
0
SOLID
5
264
100
AcDbEntity
8
DRAFT_ENT
100
AcDbTrace
62
2
6
CONTINUOUS
10
8.0202535227
20
16.7217806007
11
8.0202535227
21
16.4934559909
12
7.8555198428
22
16.4934559909
13
7.8555198428
23
16.4934559909
0
SOLID
5
265
100
AcDbEntity
8
DRAFT_ENT
100
AcDbTrace
62
2
6
CONTINUOUS
10
8.0202535227
20
16.7217806007
11
8.1682503338
21
16.8589858806
12
8.1682503338
22
16.7217806007
13
8.1682503338
23
16.7217806007
0
SOLID
5
266
100
AcDbEntity
8
DRAFT_ENT
100
AcDbTrace
62
2
6
CONTINUOUS
10
8.1682503338
20
16.8589858806
11
8.3329840137
21
17.0793696402
12
8.1682503338
22
16.7217806007
13
8.1682503338
23
16.7217806007
0
SOLID
5
267
100
AcDbEntity
8
DRAFT_ENT
100
AcDbTrace
62
2
6
CONTINUOUS
10
8.1682503338
20
16.7217806007
11
8.3329840137
21
17.0793696402
12
8.1682503338
22
16.4934559909
13
8.1682503338
23
16.4934559909
0
SOLID
5
268
100
AcDbEntity
8
DRAFT_ENT
100
AcDbTrace
62
2
6
CONTINUOUS
10
8.3329840137
20
17.0793696402
11
8.3329840137
21
16.4934559909
12
8.1682503338
22
16.4934559909
13
8.1682503338
23
16.4934559909
0
SOLID
5
269
100
AcDbEntity
8
DRAFT_ENT
100
AcDbTrace
62
2
6
CONTINUOUS
10
8.6907589906
20
16.6346827480
11
8.3780288579
21
16.4934559909
12
8.5280749206
22
16.6346827480
13
8.5280749206
23
16.6346827480
0
SOLID
5
26A
100
AcDbEntity
8
DRAFT_ENT
100
AcDbTrace
62
2
6
CONTINUOUS
10
8.5280749206
20
16.6346827480
11
8.3780288579
21
16.4934559909
12
8.5280749206
22
17.0793696402
13
8.5280749206
23
17.0793696402
0
SOLID
5
26B
100
AcDbEntity
8
DRAFT_ENT
100
AcDbTrace
62
2
6
CONTINUOUS
10
8.3780288579
20
16.4934559909
11
8.3780288579
21
17.0793696402
12
8.5280749206
22
17.0793696402
13
8.5280749206
23
17.0793696402
0
SOLID
5
26C
100
AcDbEntity
8
DRAFT_ENT
100
AcDbTrace
62
2
6
CONTINUOUS
10
8.3780288579
20
16.4934559909
11
8.6907589906
21
16.6346827480
12
8.5280749206
22
16.4934559909
13
8.5280749206
23
16.4934559909
0
SOLID
5
26D
100
AcDbEntity
8
DRAFT_ENT
100
AcDbTrace
62
2
6
CONTINUOUS
10
8.6907589906
20
16.6346827480
11
8.6907589906
21
16.4934559909
12
8.5280749206
22
16.4934559909
13
8.5280749206
23
16.4934559909
0
SOLID
5
26E
100
AcDbEntity
8
DRAFT_ENT
100
AcDbTrace
62
2
6
CONTINUOUS
10
9.0290109046
20
17.0793696402
11
9.0290109046
21
16.9366102435
12
8.8781533812
22
16.9366102435
13
8.8781533812
23
16.9366102435
0
SOLID
5
26F
100
AcDbEntity
8
DRAFT_ENT
100
AcDbTrace
62
2
6
CONTINUOUS
10
9.0290109046
20
16.8589858806
11
9.0290109046
21
16.7146042790
12
8.8781533812
22
16.7146042790
13
8.8781533812
23
16.7146042790
0
SOLID
5
270
100
AcDbEntity
8
DRAFT_ENT
100
AcDbTrace
62
2
6
CONTINUOUS
10
9.0290109046
20
16.6346827480
11
8.7199067292
21
16.4934559909
12
8.8781533812
22
16.6346827480
13
8.8781533812
23
16.6346827480
0
SOLID
5
271
100
AcDbEntity
8
DRAFT_ENT
100
AcDbTrace
62
2
6
CONTINUOUS
10
8.8781533812
20
16.6346827480
11
8.7199067292
21
16.4934559909
12
8.8781533812
22
16.7146042790
13
8.8781533812
23
16.7146042790
0
SOLID
5
272
100
AcDbEntity
8
DRAFT_ENT
100
AcDbTrace
62
2
6
CONTINUOUS
10
9.0290109046
20
16.8589858806
11
8.8781533812
21
16.7146042790
12
8.8781533812
22
16.8589858806
13
8.8781533812
23
16.8589858806
0
SOLID
5
273
100
AcDbEntity
8
DRAFT_ENT
100
AcDbTrace
62
2
6
CONTINUOUS
10
8.8781533812
20
16.7146042790
11
8.7199067292
21
16.4934559909
12
8.8781533812
22
16.8589858806
13
8.8781533812
23
16.8589858806
0
SOLID
5
274
100
AcDbEntity
8
DRAFT_ENT
100
AcDbTrace
62
2
6
CONTINUOUS
10
8.8781533812
20
16.8589858806
11
8.7199067292
21
16.4934559909
12
8.8781533812
22
16.9366102435
13
8.8781533812
23
16.9366102435
0
SOLID
5
275
100
AcDbEntity
8
DRAFT_ENT
100
AcDbTrace
62
2
6
CONTINUOUS
10
9.0290109046
20
17.0793696402
11
8.8781533812
21
16.9366102435
12
8.8923577045
22
17.0793696402
13
8.8923577045
23
17.0793696402
0
SOLID
5
276
100
AcDbEntity
8
DRAFT_ENT
100
AcDbTrace
62
2
6
CONTINUOUS
10
8.8781533812
20
16.9366102435
11
8.7199067292
21
16.4934559909
12
8.8923577045
22
17.0793696402
13
8.8923577045
23
17.0793696402
0
SOLID
5
277
100
AcDbEntity
8
DRAFT_ENT
100
AcDbTrace
62
2
6
CONTINUOUS
10
8.7199067292
20
16.4934559909
11
8.7199067292
21
17.0793696402
12
8.8923577045
22
17.0793696402
13
8.8923577045
23
17.0793696402
0
SOLID
5
278
100
AcDbEntity
8
DRAFT_ENT
100
AcDbTrace
62
2
6
CONTINUOUS
10
9.0290109046
20
16.6346827480
11
9.0290109046
21
16.4934559909
12
8.7199067292
22
16.4934559909
13
8.7199067292
23
16.4934559909
0
SOLID
5
279
100
AcDbEntity
8
DRAFT_ENT
100
AcDbTrace
62
2
6
CONTINUOUS
10
9.3073788200
20
17.0793767458
11
9.3543118435
21
17.0729664974
12
9.0738311193
22
17.0793696402
13
9.0738311193
23
17.0793696402
0
SOLID
5
27A
100
AcDbEntity
8
DRAFT_ENT
100
AcDbTrace
62
2
6
CONTINUOUS
10
9.2244869419
20
16.9367908069
11
9.4784266829
21
16.9414201424
12
9.2804168233
22
16.9367908069
13
9.2804168233
23
16.9367908069
0
SOLID
5
27B
100
AcDbEntity
8
DRAFT_ENT
100
AcDbTrace
62
2
6
CONTINUOUS
10
9.2804168233
20
16.9367908069
11
9.4784266829
21
16.9414201424
12
9.3041394049
22
16.9312566385
13
9.3041394049
23
16.9312566385
0
SOLID
5
27C
100
AcDbEntity
8
DRAFT_ENT
100
AcDbTrace
62
2
6
CONTINUOUS
10
9.3041394049
20
16.9312566385
11
9.4784266829
21
16.9414201424
12
9.3229643926
22
16.9157967635
13
9.3229643926
23
16.9157967635
0
SOLID
5
27D
100
AcDbEntity
8
DRAFT_ENT
100
AcDbTrace
62
2
6
CONTINUOUS
10
9.4784266829
20
16.9414201424
11
9.4820999294
21
16.8941940136
12
9.3229643926
22
16.9157967635
13
9.3229643926
23
16.9157967635
0
SOLID
5
27E
100
AcDbEntity
8
DRAFT_ENT
100
AcDbTrace
62
2
6
CONTINUOUS
10
9.3330053311
20
16.8936029029
11
9.3229643926
21
16.9157967635
12
9.4820999294
22
16.8941940136
13
9.4820999294
23
16.8941940136
0
SOLID
5
27F
100
AcDbEntity
8
DRAFT_ENT
100
AcDbTrace
62
2
6
CONTINUOUS
10
9.3330053311
20
16.8936029029
11
9.4820999294
21
16.8941940136
12
9.3321892495
22
16.8692570222
13
9.3321892495
23
16.8692570222
0
SOLID
5
280
100
AcDbEntity
8
DRAFT_ENT
100
AcDbTrace
62
2
6
CONTINUOUS
10
9.3321892495
20
16.8692570222
11
9.4820999294
21
16.8941940136
12
9.3206846291
22
16.8477853756
13
9.3206846291
23
16.8477853756
0
SOLID
5
281
100
AcDbEntity
8
DRAFT_ENT
100
AcDbTrace
62
2
6
CONTINUOUS
10
9.4820999294
20
16.8941940136
11
9.4729743257
21
16.8477125835
12
9.3206846291
22
16.8477853756
13
9.3206846291
23
16.8477853756
0
SOLID
5
282
100
AcDbEntity
8
DRAFT_ENT
100
AcDbTrace
62
2
6
CONTINUOUS
10
9.3008666213
20
16.8336208261
11
9.3206846291
21
16.8477853756
12
9.4729743257
22
16.8477125835
13
9.4729743257
23
16.8477125835
0
SOLID
5
283
100
AcDbEntity
8
DRAFT_ENT
100
AcDbTrace
62
2
6
CONTINUOUS
10
9.3008666213
20
16.8336208261
11
9.4729743257
21
16.8477125835
12
9.2768266921
22
16.8296876724
13
9.2768266921
23
16.8296876724
0
SOLID
5
284
100
AcDbEntity
8
DRAFT_ENT
100
AcDbTrace
62
2
6
CONTINUOUS
10
9.4729743257
20
16.8477125835
11
9.4517183500
21
16.8053807577
12
9.2768266921
22
16.8296876724
13
9.2768266921
23
16.8296876724
0
SOLID
5
285
100
AcDbEntity
8
DRAFT_ENT
100
AcDbTrace
62
2
6
CONTINUOUS
10
9.3798180676
20
16.7450385321
11
9.2244869419
21
16.6904123617
12
9.4198890669
22
16.7702994704
13
9.4198890669
23
16.7702994704
0
SOLID
5
286
100
AcDbEntity
8
DRAFT_ENT
100
AcDbTrace
62
2
6
CONTINUOUS
10
9.4198890669
20
16.7702994704
11
9.2244869419
21
16.6904123617
12
9.4517183500
22
16.8053807577
13
9.4517183500
23
16.8053807577
0
SOLID
5
287
100
AcDbEntity
8
DRAFT_ENT
100
AcDbTrace
62
2
6
CONTINUOUS
10
9.4517183500
20
16.8053807577
11
9.2244869419
21
16.6904123617
12
9.2768266921
22
16.8296876724
13
9.2768266921
23
16.8296876724
0
SOLID
5
288
100
AcDbEntity
8
DRAFT_ENT
100
AcDbTrace
62
2
6
CONTINUOUS
10
9.2244869419
20
16.6904123617
11
9.0738311193
21
16.4934559909
12
9.2768266921
22
16.8296876724
13
9.2768266921
23
16.8296876724
0
SOLID
5
289
100
AcDbEntity
8
DRAFT_ENT
100
AcDbTrace
62
2
6
CONTINUOUS
10
9.2768266921
20
16.8296876724
11
9.0738311193
21
16.4934559909
12
9.2244869419
22
16.8296876724
13
9.2244869419
23
16.8296876724
0
SOLID
5
28A
100
AcDbEntity
8
DRAFT_ENT
100
AcDbTrace
62
2
6
CONTINUOUS
10
9.2244869419
20
16.8296876724
11
9.0738311193
21
16.4934559909
12
9.2244869419
22
16.9367908069
13
9.2244869419
23
16.9367908069
0
SOLID
5
28B
100
AcDbEntity
8
DRAFT_ENT
100
AcDbTrace
62
2
6
CONTINUOUS
10
9.4784266829
20
16.9414201424
11
9.2244869419
21
16.9367908069
12
9.4622236628
22
16.9859315131
13
9.4622236628
23
16.9859315131
0
SOLID
5
28C
100
AcDbEntity
8
DRAFT_ENT
100
AcDbTrace
62
2
6
CONTINUOUS
10
9.4622236628
20
16.9859315131
11
9.2244869419
21
16.9367908069
12
9.4346777893
22
17.0244675331
13
9.4346777893
23
17.0244675331
0
SOLID
5
28D
100
AcDbEntity
8
DRAFT_ENT
100
AcDbTrace
62
2
6
CONTINUOUS
10
9.4346777893
20
17.0244675331
11
9.2244869419
21
16.9367908069
12
9.3978068810
22
17.0542053222
13
9.3978068810
23
17.0542053222
0
SOLID
5
28E
100
AcDbEntity
8
DRAFT_ENT
100
AcDbTrace
62
2
6
CONTINUOUS
10
9.3978068810
20
17.0542053222
11
9.2244869419
21
16.9367908069
12
9.3543118435
22
17.0729664974
13
9.3543118435
23
17.0729664974
0
SOLID
5
28F
100
AcDbEntity
8
DRAFT_ENT
100
AcDbTrace
62
2
6
CONTINUOUS
10
9.3543118435
20
17.0729664974
11
9.2244869419
21
16.9367908069
12
9.0738311193
22
17.0793696402
13
9.0738311193
23
17.0793696402
0
SOLID
5
290
100
AcDbEntity
8
DRAFT_ENT
100
AcDbTrace
62
2
6
CONTINUOUS
10
9.0738311193
20
16.4934559909
11
9.0738311193
21
17.0793696402
12
9.2244869419
22
16.9367908069
13
9.2244869419
23
16.9367908069
0
SOLID
5
291
100
AcDbEntity
8
DRAFT_ENT
100
AcDbTrace
62
2
6
CONTINUOUS
10
9.2244869419
20
16.6904123617
11
9.2244869419
21
16.4934559909
12
9.0738311193
22
16.4934559909
13
9.0738311193
23
16.4934559909
0
SOLID
5
292
100
AcDbEntity
8
DRAFT_ENT
100
AcDbTrace
62
2
6
CONTINUOUS
10
9.2244869419
20
16.6904123617
11
9.3798180676
21
16.7450385321
12
9.3493103710
22
16.4934559909
13
9.3493103710
23
16.4934559909
0
SOLID
5
293
100
AcDbEntity
8
DRAFT_ENT
100
AcDbTrace
62
2
6
CONTINUOUS
10
9.3798180676
20
16.7450385321
11
9.5392613106
21
16.4934559909
12
9.3493103710
22
16.4934559909
13
9.3493103710
23
16.4934559909
0
SOLID
5
294
100
AcDbEntity
8
DRAFT_ENT
100
AcDbTrace
62
2
6
CONTINUOUS
10
13.9990531862
20
15.2384335366
11
13.9990531862
21
15.4006135421
12
15.1399932244
22
15.4006135421
13
15.1399932244
23
15.4006135421
0
SOLID
5
295
100
AcDbEntity
8
DRAFT_ENT
100
AcDbTrace
62
2
6
CONTINUOUS
10
15.1399932244
20
15.4006135421
11
15.1399932244
21
15.2384335366
12
13.9990531862
22
15.2384335366
13
13.9990531862
23
15.2384335366
0
SOLID
5
296
100
AcDbEntity
8
DRAFT_ENT
100
AcDbTrace
62
2
6
CONTINUOUS
10
13.9990531862
20
14.8562835198
11
13.9990531862
21
14.9029235314
12
15.1399932244
22
14.9029235314
13
15.1399932244
23
14.9029235314
0
SOLID
5
297
100
AcDbEntity
8
DRAFT_ENT
100
AcDbTrace
62
2
6
CONTINUOUS
10
15.1399932244
20
14.9029235314
11
15.1399932244
21
14.8562835198
12
13.9990531862
22
14.8562835198
13
13.9990531862
23
14.8562835198
0
SOLID
5
298
100
AcDbEntity
8
DRAFT_ENT
100
AcDbTrace
62
2
6
CONTINUOUS
10
14.0612531883
20
15.4606135481
11
14.0612531883
21
15.5428135488
12
15.2021932265
22
15.5428135488
13
15.2021932265
23
15.5428135488
0
SOLID
5
299
100
AcDbEntity
8
DRAFT_ENT
100
AcDbTrace
62
2
6
CONTINUOUS
10
15.2021932265
20
15.5428135488
11
15.2021932265
21
15.4606135481
12
14.0612531883
22
15.4606135481
13
14.0612531883
23
15.4606135481
0
SOLID
5
29A
100
AcDbEntity
8
DRAFT_ENT
100
AcDbTrace
62
2
6
CONTINUOUS
10
14.0612531883
20
15.6294735337
11
14.0612531883
21
15.7116635385
12
15.2021932265
22
15.7116635385
13
15.2021932265
23
15.7116635385
0
SOLID
5
29B
100
AcDbEntity
8
DRAFT_ENT
100
AcDbTrace
62
2
6
CONTINUOUS
10
15.2021932265
20
15.7116635385
11
15.2021932265
21
15.6294735337
12
14.0612531883
22
15.6294735337
13
14.0612531883
23
15.6294735337
0
SOLID
5
29C
100
AcDbEntity
8
DRAFT_ENT
100
AcDbTrace
62
2
6
CONTINUOUS
10
14.0612531883
20
15.7627835602
11
14.0612531883
21
15.8449735649
12
15.2021932265
22
15.8449735649
13
15.2021932265
23
15.8449735649
0
SOLID
5
29D
100
AcDbEntity
8
DRAFT_ENT
100
AcDbTrace
62
2
6
CONTINUOUS
10
15.2021932265
20
15.8449735649
11
15.2021932265
21
15.7627835602
12
14.0612531883
22
15.7627835602
13
14.0612531883
23
15.7627835602
0
SOLID
5
29E
100
AcDbEntity
8
DRAFT_ENT
100
AcDbTrace
62
2
6
CONTINUOUS
10
14.0612531883
20
15.8960835566
11
14.0612531883
21
15.9782835574
12
15.2021932265
22
15.9782835574
13
15.2021932265
23
15.9782835574
0
SOLID
5
29F
100
AcDbEntity
8
DRAFT_ENT
100
AcDbTrace
62
2
6
CONTINUOUS
10
15.2021932265
20
15.9782835574
11
15.2021932265
21
15.8960835566
12
14.0612531883
22
15.8960835566
13
14.0612531883
23
15.8960835566
0
SOLID
5
2A0
100
AcDbEntity
8
DRAFT_ENT
100
AcDbTrace
62
2
6
CONTINUOUS
10
14.0612531883
20
16.0293935491
11
14.0612531883
21
16.1115935498
12
15.2021932265
22
16.1115935498
13
15.2021932265
23
16.1115935498
0
SOLID
5
2A1
100
AcDbEntity
8
DRAFT_ENT
100
AcDbTrace
62
2
6
CONTINUOUS
10
15.2021932265
20
16.1115935498
11
15.2021932265
21
16.0293935491
12
14.0612531883
22
16.0293935491
13
14.0612531883
23
16.0293935491
0
SOLID
5
2A2
100
AcDbEntity
8
DRAFT_ENT
100
AcDbTrace
62
2
6
CONTINUOUS
10
16.1166632570
20
15.2384335366
11
16.1166632570
21
15.4006135421
12
16.5739332723
22
15.4006135421
13
16.5739332723
23
15.4006135421
0
SOLID
5
2A3
100
AcDbEntity
8
DRAFT_ENT
100
AcDbTrace
62
2
6
CONTINUOUS
10
16.5739332723
20
15.4006135421
11
16.5739332723
21
15.2384335366
12
16.1166632570
22
15.2384335366
13
16.1166632570
23
15.2384335366
0
SOLID
5
2A4
100
AcDbEntity
8
0
100
AcDbTrace
62
7
6
CONTINUOUS
10
10.7024635621
20
6.2400207756
11
10.6293306874
21
6.0619108624
12
10.5561959488
22
6.2400200102
13
10.5561959488
23
6.2400200102
0
DIMENSION
5
2A5
100
AcDbEntity
8
0
100
AcDbDimension
62
2
6
CONTINUOUS
2
*D0
10
12.4350319708
20
5.4863663929
11
12.4350319708
21
13.6756324053
70
160
1
<>\P[35,7]
3
DIMSTYLE_1
100
AcDbAlignedDimension
13
12.3100319708
23
19.5179375587
14
12.3100319708
24
5.4863663929
50
270.000000
100
AcDbRotatedDimension
0
DIMENSION
5
2A6
100
AcDbEntity
8
0
100
AcDbDimension
62
2
6
CONTINUOUS
2
*D1
10
2.6687353195
20
12.2225463082
11
15.3065132420
21
12.1053588082
70
160
1
<>\P[49,7]
3
DIMSTYLE_1
100
AcDbAlignedDimension
13
22.2087353195
23
12.3475463082
14
2.6687353195
24
12.3475463082
50
180.000000
100
AcDbRotatedDimension
0
SOLID
5
2A7
100
AcDbEntity
8
___NOTE
100
AcDbTrace
62
2
6
CONTINUOUS
10
18.6772039219
20
7.0863840618
11
18.4890816379
21
7.0591293598
12
18.4904110472
22
7.1216152196
13
18.4904110472
23
7.1216152196
0
SOLID
5
2A8
100
AcDbEntity
8
___NOTE
100
AcDbTrace
62
2
6
CONTINUOUS
10
14.9822386525
20
8.7734889979
11
15.1480725085
21
8.6805807382
12
15.1089761077
22
8.6318188530
13
15.1089761077
23
8.6318188530
0
TEXT
5
2A9
100
AcDbEntity
8
___NOTE
100
AcDbText
62
2
6
CONTINUOUS
10
14.4180709103
20
7.0430258331
7
TEXTSTYLE_0
40
0.1562500000
1
CUT ALONG THIS LINE
72
5
11
16.7930709103
21
7.0430258331
100
AcDbText
0
TEXT
5
2AA
100
AcDbEntity
8
___NOTE
100
AcDbText
62
2
6
CONTINUOUS
10
13.0430709103
20
6.8086508331
7
TEXTSTYLE_0
40
0.1562500000
1
CORTE A LO LARGO DE ESTA LÍNEA
72
5
11
16.7930709103
21
6.8086508331
100
AcDbText
0
TEXT
5
2AB
100
AcDbEntity
8
___NOTE
100
AcDbText
62
2
6
CONTINUOUS
10
12.9180709103
20
6.5742758331
7
TEXTSTYLE_0
40
0.1562500000
1
DÉCOUPER AU LONG DE CETTE LIGNE
72
5
11
16.7930709103
21
6.5742758331
100
AcDbText
0
TEXT
5
2AC
100
AcDbEntity
8
___NOTE
100
AcDbText
62
2
6
CONTINUOUS
10
16.6680709103
20
6.3399008331
7
TEXTSTYLE_0
40
0.1562500000
1
 
72
5
11
16.7930709103
21
6.3399008331
100
AcDbText
0
SOLID
5
2AD
100
AcDbEntity
8
___NOTE
100
AcDbTrace
62
2
6
CONTINUOUS
10
22.5964843715
20
9.3506029743
11
22.4097078485
21
9.3152852318
12
22.4083494738
22
9.3777704686
13
22.4083494738
23
9.3777704686
0
SOLID
5
2AE
100
AcDbEntity
8
___NOTE
100
AcDbTrace
62
2
6
CONTINUOUS
10
15.6481851957
20
10.5179668036
11
15.8373571625
21
10.4993447875
12
15.8210920780
22
10.4389983126
13
15.8210920780
23
10.4389983126
0
TEXT
5
2AF
100
AcDbEntity
8
___NOTE
100
AcDbText
62
2
6
CONTINUOUS
10
17.2864143977
20
9.2198295434
7
TEXTSTYLE_0
40
0.1562500000
1
OUTER RIM OF LAVATORY
72
5
11
19.9114143977
21
9.2198295434
100
AcDbText
0
TEXT
5
2B0
100
AcDbEntity
8
___NOTE
100
AcDbText
62
2
6
CONTINUOUS
10
16.7864143977
20
8.9854545434
7
TEXTSTYLE_0
40
0.1562500000
1
REBORDE EXTERNO DE LAVABO
72
5
11
19.9114143977
21
8.9854545434
100
AcDbText
0
TEXT
5
2B1
100
AcDbEntity
8
___NOTE
100
AcDbText
62
2
6
CONTINUOUS
10
16.9114143977
20
8.7510795434
7
TEXTSTYLE_0
40
0.1562500000
1
REBORD EXTERNE DE LAVABO
72
5
11
19.9114143977
21
8.7510795434
100
AcDbText
0
POLYLINE
5
2B2
100
AcDbEntity
8
___NOTE
100
AcDb2dPolyline
62
2
6
CONTINUOUS
66
1
70
0
0
VERTEX
5
2B3
100
AcDbEntity
8
___NOTE
100
AcDbVertex
62
2
6
CONTINUOUS
100
AcDb2dVertex
10
15.1232525965
20
9.2019292854
40
0.0312500000
41
0.0312500000
42
1.0000000000
0
VERTEX
5
2B4
100
AcDbEntity
8
___NOTE
100
AcDbVertex
62
2
6
CONTINUOUS
100
AcDb2dVertex
10
15.1545025965
20
9.2019292854
40
0.0312500000
41
0.0312500000
42
1.0000000000
0
VERTEX
5
2B5
100
AcDbEntity
8
___NOTE
100
AcDbVertex
62
2
6
CONTINUOUS
100
AcDb2dVertex
10
15.1232525965
20
9.2019292854
40
0.0312500000
41
0.0312500000
0
SEQEND
5
2B6
100
AcDbEntity
8
0
0
TEXT
5
2B7
100
AcDbEntity
8
___NOTE
100
AcDbText
62
2
6
CONTINUOUS
10
13.2248253626
20
8.5511500651
7
TEXTSTYLE_0
40
0.1562500000
1
COUNTERTOP
72
5
11
14.4748253626
21
8.5511500651
100
AcDbText
0
TEXT
5
2B8
100
AcDbEntity
8
___NOTE
100
AcDbText
62
2
6
CONTINUOUS
10
9.2026467489
20
7.4122118382
7
TEXTSTYLE_0
40
0.1562500000
1
FRONT OF LAVATORY
72
5
11
11.3276467489
21
7.4122118382
100
AcDbText
0
TEXT
5
2B9
100
AcDbEntity
8
___NOTE
100
AcDbText
62
2
6
CONTINUOUS
10
9.2026467489
20
7.1778368382
7
TEXTSTYLE_0
40
0.1562500000
1
PARTE FRONTAL DE LAVABO
72
5
11
12.0776467489
21
7.1778368382
100
AcDbText
0
TEXT
5
2BA
100
AcDbEntity
8
___NOTE
100
AcDbText
62
2
6
CONTINUOUS
10
9.2026467489
20
6.9434618382
7
TEXTSTYLE_0
40
0.1562500000
1
CÔTÉ AVANT DE LAVABO
72
5
11
11.7026467489
21
6.9434618382
100
AcDbText
0
TEXT
5
2BB
100
AcDbEntity
8
___NOTE
100
AcDbText
62
2
6
CONTINUOUS
10
9.2026467489
20
6.7090868382
7
TEXTSTYLE_0
40
0.1562500000
1
 
72
5
11
9.3276467489
21
6.7090868382
100
AcDbText
0
TEXT
5
2BC
100
AcDbEntity
8
0
100
AcDbText
62
2
6
CONTINUOUS
10
10.7740379962
20
5.7675754113
7
TEXTSTYLE_0
40
0.0940000000
1
1014189-7-C
72
5
11
11.8080379962
21
5.7675754113
100
AcDbText
0
TEXT
5
2BD
100
AcDbEntity
8
0
100
AcDbText
62
2
6
CONTINUOUS
10
10.7661053036
20
4.1097351823
7
TEXTSTYLE_0
40
0.0940000000
1
1014189-7-C
72
5
11
11.8001053036
21
4.1097351823
100
AcDbText
0
TEXT
5
2BE
100
AcDbEntity
8
0
100
AcDbText
62
2
6
CONTINUOUS
10
12.8392579233
20
5.9090684539
7
TEXTSTYLE_0
40
0.0562500000
1
C
72
5
11
12.8955079233
21
5.9090684539
100
AcDbText
0
TEXT
5
2BF
100
AcDbEntity
8
0
100
AcDbText
62
2
6
CONTINUOUS
10
12.9565175929
20
5.8846067478
7
TEXTSTYLE_0
40
0.0940000000
1
2003 KOHLER CO.
72
5
11
14.3665175929
21
5.8846067478
100
AcDbText
0
TEXT
5
2C0
100
AcDbEntity
8
NOTE
100
AcDbText
62
7
6
CONTINUOUS
10
5.2392545582
20
15.8986387010
7
TEXTSTYLE_0
40
0.2500000000
1
CUT-OUT TEMPLATE
72
5
11
9.0392545582
21
15.8986387010
100
AcDbText
0
TEXT
5
2C1
100
AcDbEntity
8
NOTE
100
AcDbText
62
7
6
CONTINUOUS
10
9.0392545582
20
15.8986387010
7
TEXTSTYLE_0
40
0.2500000000
1

72
5
11
9.2392545582
21
15.8986387010
100
AcDbText
0
TEXT
5
2C2
100
AcDbEntity
8
NOTE
100
AcDbText
62
7
6
CONTINUOUS
10
5.2392545582
20
15.5236387010
7
TEXTSTYLE_0
40
0.2500000000
1
SELF-RIMMING LAVATORY
72
5
11
10.2267545582
21
15.5236387010
100
AcDbText
0
TEXT
5
2C3
100
AcDbEntity
8
NOTE
100
AcDbText
62
7
6
CONTINUOUS
10
10.2267545582
20
15.5236387010
7
TEXTSTYLE_0
40
0.2500000000
1

72
5
11
10.4267545582
21
15.5236387010
100
AcDbText
0
TEXT
5
2C4
100
AcDbEntity
8
NOTE
100
AcDbText
62
7
6
CONTINUOUS
10
5.2392545582
20
15.1486387010
7
TEXTSTYLE_0
40
0.2500000000
1
PLANTILLA DE RECORTE
72
5
11
9.9892545582
21
15.1486387010
100
AcDbText
0
TEXT
5
2C5
100
AcDbEntity
8
NOTE
100
AcDbText
62
7
6
CONTINUOUS
10
9.9892545582
20
15.1486387010
7
TEXTSTYLE_0
40
0.2500000000
1

72
5
11
10.1892545582
21
15.1486387010
100
AcDbText
0
TEXT
5
2C6
100
AcDbEntity
8
NOTE
100
AcDbText
62
7
6
CONTINUOUS
10
5.2392545582
20
14.7736387010
7
TEXTSTYLE_0
40
0.2500000000
1
LAVABO CON BORDE TERMINADO
72
5
11
11.4142545582
21
14.7736387010
100
AcDbText
0
TEXT
5
2C7
100
AcDbEntity
8
NOTE
100
AcDbText
62
7
6
CONTINUOUS
10
11.4142545582
20
14.7736387010
7
TEXTSTYLE_0
40
0.2500000000
1

72
5
11
11.6142545582
21
14.7736387010
100
AcDbText
0
TEXT
5
2C8
100
AcDbEntity
8
NOTE
100
AcDbText
62
7
6
CONTINUOUS
10
5.2392545582
20
14.3986387010
7
TEXTSTYLE_0
40
0.2500000000
1
GABARIT
72
5
11
6.9017545582
21
14.3986387010
100
AcDbText
0
TEXT
5
2C9
100
AcDbEntity
8
NOTE
100
AcDbText
62
7
6
CONTINUOUS
10
6.9017545582
20
14.3986387010
7
TEXTSTYLE_0
40
0.2500000000
1

72
5
11
7.1017545582
21
14.3986387010
100
AcDbText
0
TEXT
5
2CA
100
AcDbEntity
8
NOTE
100
AcDbText
62
7
6
CONTINUOUS
10
5.2392545582
20
14.0236387010
7
TEXTSTYLE_0
40
0.2500000000
1
LAVABO À REBORD INTÉGRÉ
72
5
11
10.7017545582
21
14.0236387010
100
AcDbText
0
TEXT
5
2CB
100
AcDbEntity
8
NOTE
100
AcDbText
62
7
6
CONTINUOUS
10
10.7017545582
20
14.0236387010
7
TEXTSTYLE_0
40
0.2500000000
1

72
5
11
10.9017545582
21
14.0236387010
100
AcDbText
0
TEXT
5
2CC
100
AcDbEntity
8
NOTE
100
AcDbText
62
7
6
CONTINUOUS
10
5.2392545582
20
13.6486387010
7
TEXTSTYLE_0
40
0.2500000000
1
SERIF  2075-1-**-AA
72
5
11
9.0392545582
21
13.6486387010
100
AcDbText
0
TEXT
5
2CD
100
AcDbEntity
8
NOTE
100
AcDbText
62
7
6
CONTINUOUS
10
5.2392545582
20
13.2736387010
7
TEXTSTYLE_0
40
0.2500000000
1
SERIF  2075-4-**-AA
72
5
11
9.0392545582
21
13.2736387010
100
AcDbText
0
TEXT
5
2CE
100
AcDbEntity
8
NOTE
100
AcDbText
62
7
6
CONTINUOUS
10
5.2392545582
20
12.8986387010
7
TEXTSTYLE_0
40
0.2500000000
1
SERIF  2075-8-**-AA
72
5
11
9.0392545582
21
12.8986387010
100
AcDbText
0
TEXT
5
2CF
100
AcDbEntity
8
NOTE
100
AcDbText
62
2
6
CONTINUOUS
10
4.7966575348
20
11.1882838207
7
TEXTSTYLE_1
40
0.1559999413
1
WHEN PLOTTING TEMPLATE FULL SIZE:
72
5
11
9.9446555963
21
11.1882838207
100
AcDbText
0
TEXT
5
2D0
100
AcDbEntity
8
NOTE
100
AcDbText
62
2
6
CONTINUOUS
10
9.9446555963
20
11.1882838207
7
TEXTSTYLE_0
40
0.1562500000
1

72
5
11
10.0696555963
21
11.1882838207
100
AcDbText
0
TEXT
5
2D1
100
AcDbEntity
8
NOTE
100
AcDbText
62
2
6
CONTINUOUS
10
4.7966575348
20
10.9539088207
7
TEXTSTYLE_1
40
0.1562499412
1
Make sure horizontal and vertical dimensions
72
5
11
10.9841552048
21
10.9539088207
100
AcDbText
0
TEXT
5
2D2
100
AcDbEntity
8
NOTE
100
AcDbText
62
2
6
CONTINUOUS
10
10.9841552048
20
10.9539088207
7
TEXTSTYLE_0
40
0.1562500000
1

72
5
11
11.1091552048
21
10.9539088207
100
AcDbText
0
TEXT
5
2D3
100
AcDbEntity
8
NOTE
100
AcDbText
62
2
6
CONTINUOUS
10
4.7966575348
20
10.7195338207
7
TEXTSTYLE_1
40
0.1562499412
1
match the dimensions labeled on the template.
72
5
11
11.1247801519
21
10.7195338207
100
AcDbText
0
TEXT
5
2D4
100
AcDbEntity
8
NOTE
100
AcDbText
62
2
6
CONTINUOUS
10
11.1247801519
20
10.7195338207
7
TEXTSTYLE_0
40
0.1562500000
1

72
5
11
11.2497801519
21
10.7195338207
100
AcDbText
0
TEXT
5
2D5
100
AcDbEntity
8
NOTE
100
AcDbText
62
2
6
CONTINUOUS
10
4.7966575348
20
10.4851588207
7
TEXTSTYLE_0
40
0.1562500000
1
 
72
5
11
4.9216575348
21
10.4851588207
100
AcDbText
0
TEXT
5
2D6
100
AcDbEntity
8
NOTE
100
AcDbText
62
2
6
CONTINUOUS
10
4.9216575348
20
10.4851588207
7
TEXTSTYLE_0
40
0.1562500000
1

72
5
11
5.0466575348
21
10.4851588207
100
AcDbText
0
TEXT
5
2D7
100
AcDbEntity
8
NOTE
100
AcDbText
62
2
6
CONTINUOUS
10
4.7966575348
20
10.2507838207
7
TEXTSTYLE_1
40
0.1562499412
1
Al trazar una plantilla a escala, asegúrese de que
72
5
11
11.8279048871
21
10.2507838207
100
AcDbText
0
TEXT
5
2D8
100
AcDbEntity
8
NOTE
100
AcDbText
62
2
6
CONTINUOUS
10
11.8279048871
20
10.2507838207
7
TEXTSTYLE_0
40
0.1562500000
1

72
5
11
11.9529048871
21
10.2507838207
100
AcDbText
0
TEXT
5
2D9
100
AcDbEntity
8
NOTE
100
AcDbText
62
2
6
CONTINUOUS
10
4.7966575348
20
10.0164088207
7
TEXTSTYLE_1
40
0.1562499412
1
las dimensiones horizontales y verticales concuerden
72
5
11
12.1091547812
21
10.0164088207
100
AcDbText
0
TEXT
5
2DA
100
AcDbEntity
8
NOTE
100
AcDbText
62
2
6
CONTINUOUS
10
12.1091547812
20
10.0164088207
7
TEXTSTYLE_0
40
0.1562500000
1

72
5
11
12.2341547812
21
10.0164088207
100
AcDbText
0
TEXT
5
2DB
100
AcDbEntity
8
NOTE
100
AcDbText
62
2
6
CONTINUOUS
10
4.7966575348
20
9.7820338207
7
TEXTSTYLE_1
40
0.1562499412
1
con las dimensiones marcadas en la plantilla.
72
5
11
11.1247801519
21
9.7820338207
100
AcDbText
0
TEXT
5
2DC
100
AcDbEntity
8
NOTE
100
AcDbText
62
2
6
CONTINUOUS
10
11.1247801519
20
9.7820338207
7
TEXTSTYLE_0
40
0.1562500000
1

72
5
11
11.2497801519
21
9.7820338207
100
AcDbText
0
TEXT
5
2DD
100
AcDbEntity
8
NOTE
100
AcDbText
62
2
6
CONTINUOUS
10
4.7966575348
20
9.5476588207
7
TEXTSTYLE_0
40
0.1562500000
1
 
72
5
11
4.9216575348
21
9.5476588207
100
AcDbText
0
TEXT
5
2DE
100
AcDbEntity
8
NOTE
100
AcDbText
62
2
6
CONTINUOUS
10
4.9216575348
20
9.5476588207
7
TEXTSTYLE_0
40
0.1562500000
1

72
5
11
5.0466575348
21
9.5476588207
100
AcDbText
0
TEXT
5
2DF
100
AcDbEntity
8
NOTE
100
AcDbText
62
2
6
CONTINUOUS
10
4.7966575348
20
9.3132838207
7
TEXTSTYLE_0
40
0.1562500000
1
Au moment de tracer un gabarit à l’échelle
72
5
11
10.0466575348
21
9.3132838207
100
AcDbText
0
TEXT
5
2E0
100
AcDbEntity
8
NOTE
100
AcDbText
62
2
6
CONTINUOUS
10
10.0466575348
20
9.3132838207
7
TEXTSTYLE_0
40
0.1562500000
1

72
5
11
10.1716575348
21
9.3132838207
100
AcDbText
0
TEXT
5
2E1
100
AcDbEntity
8
NOTE
100
AcDbText
62
2
6
CONTINUOUS
10
4.7966575348
20
9.0789088207
7
TEXTSTYLE_0
40
0.1562500000
1
s’assurer que les simensions horizotales et
72
5
11
10.1716575348
21
9.0789088207
100
AcDbText
0
TEXT
5
2E2
100
AcDbEntity
8
NOTE
100
AcDbText
62
2
6
CONTINUOUS
10
10.1716575348
20
9.0789088207
7
TEXTSTYLE_0
40
0.1562500000
1

72
5
11
10.2966575348
21
9.0789088207
100
AcDbText
0
TEXT
5
2E3
100
AcDbEntity
8
NOTE
100
AcDbText
62
2
6
CONTINUOUS
10
4.7966575348
20
8.8445338207
7
TEXTSTYLE_0
40
0.1562500000
1
verticales correspondent avec les dimensions sur
72
5
11
10.7966575348
21
8.8445338207
100
AcDbText
0
TEXT
5
2E4
100
AcDbEntity
8
NOTE
100
AcDbText
62
2
6
CONTINUOUS
10
10.7966575348
20
8.8445338207
7
TEXTSTYLE_0
40
0.1562500000
1

72
5
11
10.9216575348
21
8.8445338207
100
AcDbText
0
TEXT
5
2E5
100
AcDbEntity
8
NOTE
100
AcDbText
62
2
6
CONTINUOUS
10
4.7966575348
20
8.6101588207
7
TEXTSTYLE_0
40
0.1562500000
1
le gabarit
72
5
11
6.0466575348
21
8.6101588207
100
AcDbText
0
TEXT
5
2E6
100
AcDbEntity
8
NOTE
100
AcDbText
62
2
6
CONTINUOUS
10
6.0466575348
20
8.6101588207
7
TEXTSTYLE_0
40
0.1562500000
1

72
5
11
6.1716575348
21
8.6101588207
100
AcDbText
0
TEXT
5
2E7
100
AcDbEntity
8
NOTE
100
AcDbText
62
2
6
CONTINUOUS
10
14.1959324893
20
15.0330156961
7
TEXTSTYLE_0
40
0.0791450026
1
XXXXX-XX-X-XX
72
5
11
15.0456824659
21
15.0330156961
100
AcDbText
0
TEXT
5
2E8
100
AcDbEntity
8
NOTE
100
AcDbText
62
2
6
CONTINUOUS
10
16.3747700820
20
14.8607882905
7
TEXTSTYLE_0
40
0.0593590020
1
xxxxxx-xx
72
5
11
16.7348530069
21
14.8607882905
100
AcDbText
0
TEXT
5
2E9
100
AcDbEntity
8
NOTE
100
AcDbText
62
2
6
CONTINUOUS
10
13.2941124803
20
16.8550200984
7
TEXTSTYLE_0
40
0.1562500052
1
PACKAGING/UPC LABEL ON BOX
72
5
11
16.5441125890
21
16.8550200984
100
AcDbText
0
TEXT
5
2EA
100
AcDbEntity
8
NOTE
100
AcDbText
62
2
6
CONTINUOUS
10
13.2941124803
20
16.6206450906
7
TEXTSTYLE_0
40
0.1562500052
1
ETIQUETA DE EMBALAJE/UPC EN LA CAJA
72
5
11
17.6691126266
21
16.6206450906
100
AcDbText
0
TEXT
5
2EB
100
AcDbEntity
8
NOTE
100
AcDbText
62
2
6
CONTINUOUS
10
13.2941124803
20
16.3862700827
7
TEXTSTYLE_0
40
0.1562500000
1
ETIQUETTE D'EMBALLAGE/UPC SUR LA BOÎTE
72
5
11
18.0441126392
21
16.3862700827
100
AcDbText
0
TEXT
5
2EC
100
AcDbEntity
8
NOTE
100
AcDbText
62
2
6
CONTINUOUS
10
13.2405930704
20
14.3705965844
7
TEXTSTYLE_0
40
0.1562500052
1
The template and the label suffixes circled
72
5
11
18.6155932501
21
14.3705965844
100
AcDbText
0
TEXT
5
2ED
100
AcDbEntity
8
NOTE
100
AcDbText
62
2
6
CONTINUOUS
10
13.2405930704
20
14.1362215765
7
TEXTSTYLE_0
40
0.1562500052
1
must match for proper cut-out.
72
5
11
16.9905931958
21
14.1362215765
100
AcDbText
0
TEXT
5
2EE
100
AcDbEntity
8
NOTE
100
AcDbText
62
2
6
CONTINUOUS
10
13.2405930704
20
13.9018465687
7
TEXTSTYLE_0
40
0.1562500000
1
 
72
5
11
13.3655930745
21
13.9018465687
100
AcDbText
0
TEXT
5
2EF
100
AcDbEntity
8
NOTE
100
AcDbText
62
2
6
CONTINUOUS
10
13.2405930704
20
13.6674715609
7
TEXTSTYLE_0
40
0.1562500052
1
A fin de realizar el corte apropiado, la plantilla y
72
5
11
19.7405932878
21
13.6674715609
100
AcDbText
0
TEXT
5
2F0
100
AcDbEntity
8
NOTE
100
AcDbText
62
2
6
CONTINUOUS
10
13.2405930704
20
13.4330965530
7
TEXTSTYLE_0
40
0.1562500052
1
los sufijos de la etiqueta demarcados deben concordar.
72
5
11
19.9905932961
21
13.4330965530
100
AcDbText
0
TEXT
5
2F1
100
AcDbEntity
8
NOTE
100
AcDbText
62
2
6
CONTINUOUS
10
13.2405930704
20
13.1987215452
7
TEXTSTYLE_0
40
0.1562500000
1
 
72
5
11
13.3655930745
21
13.1987215452
100
AcDbText
0
TEXT
5
2F2
100
AcDbEntity
8
NOTE
100
AcDbText
62
2
6
CONTINUOUS
10
13.2405930704
20
12.9643465373
7
TEXTSTYLE_0
40
0.1562500000
1
A fin de découper l'ouverture correctement, le
72
5
11
18.9905932627
21
12.9643465373
100
AcDbText
0
TEXT
5
2F3
100
AcDbEntity
8
NOTE
100
AcDbText
62
2
6
CONTINUOUS
10
13.2405930704
20
12.7299715295
7
TEXTSTYLE_0
40
0.1562500000
1
gabarit et les suffixes encerclés doivent
72
5
11
18.3655932418
21
12.7299715295
100
AcDbText
0
TEXT
5
2F4
100
AcDbEntity
8
NOTE
100
AcDbText
62
2
6
CONTINUOUS
10
13.2405930704
20
12.4955965217
7
TEXTSTYLE_0
40
0.1562500000
1
correspondre
72
5
11
14.7405931205
21
12.4955965217
100
AcDbText
0
TEXT
5
2F5
100
AcDbEntity
8
0
100
AcDbText
62
7
6
CONTINUOUS
10
6.4705384993
20
13.8446433757
7
TEXTSTYLE_0
40
0.0940000051
1
TM
72
5
11
6.6585385096
21
13.8446433757
100
AcDbText
0
TEXT
5
2F6
100
AcDbEntity
8
0
100
AcDbText
62
7
6
CONTINUOUS
10
6.4705384993
20
13.4725746002
7
TEXTSTYLE_0
40
0.0940000051
1
TM
72
5
11
6.6585385096
21
13.4725746002
100
AcDbText
0
TEXT
5
2F7
100
AcDbEntity
8
0
100
AcDbText
62
7
6
CONTINUOUS
10
6.4705384993
20
13.1063654606
7
TEXTSTYLE_0
40
0.0940000051
1
TM
72
5
11
6.6585385096
21
13.1063654606
100
AcDbText
0
TEXT
5
2F8
100
AcDbEntity
8
___NOTE
100
AcDbText
62
2
6
CONTINUOUS
10
13.0328661443
20
11.4569097001
7
TEXTSTYLE_0
40
0.1562500000
1
CROSS SECTION VIEW OF RIM AND COUNTERTOP FOR SELF-RIMMING INSTALLATION
72
5
11
21.7828661443
21
11.4569097001
100
AcDbText
0
TEXT
5
2F9
100
AcDbEntity
8
___NOTE
100
AcDbText
62
2
6
CONTINUOUS
10
13.0328661443
20
11.2225347001
7
TEXTSTYLE_0
40
0.1562500000
1
CORTE TRANSVERSAL DEL REBORDE Y DEL MOSTRADOR PARA INSTALACIONES CON
72
5
11
21.5328661443
21
11.2225347001
100
AcDbText
0
TEXT
5
2FA
100
AcDbEntity
8
___NOTE
100
AcDbText
62
2
6
CONTINUOUS
10
13.0328661443
20
10.9881597001
7
TEXTSTYLE_0
40
0.1562500000
1
REBORDE ACABADO
72
5
11
14.9078661443
21
10.9881597001
100
AcDbText
0
TEXT
5
2FB
100
AcDbEntity
8
___NOTE
100
AcDbText
62
2
6
CONTINUOUS
10
13.0328661443
20
10.7537847001
7
TEXTSTYLE_0
40
0.1562500000
1
COUPE TRANSVERSALE DU REBORD ET DU PLAN POUR POSE SUR REBORD INTÉGRÉ
72
5
11
21.5328661443
21
10.7537847001
100
AcDbText
0
LINE
5
2FC
100
AcDbEntity
8
0
100
AcDbLine
62
7
6
CONTINUOUS
10
0.0000000000
20
0.0000000000
11
0.0000000000
21
25.0000000000
0
LINE
5
2FD
100
AcDbEntity
8
0
100
AcDbLine
62
7
6
CONTINUOUS
10
0.0000000000
20
0.0000000000
11
25.0000000000
21
0.0000000000
0
LINE
5
2FE
100
AcDbEntity
8
DRAFT_ENT
100
AcDbLine
62
2
6
CONTINUOUS
10
7.1315729729
20
17.0793696402
11
6.9938088062
21
16.9155484505
0
LINE
5
2FF
100
AcDbEntity
8
DRAFT_ENT
100
AcDbLine
62
2
6
CONTINUOUS
10
7.3236347850
20
17.0793696402
11
7.1103313331
21
16.8257213673
0
LINE
5
300
100
AcDbEntity
8
0
100
AcDbLine
62
7
6
CONTINUOUS
10
10.5561959488
20
6.2400200102
11
10.7024635621
21
6.2400207756
0
LINE
5
301
100
AcDbEntity
8
DRAFT_ENT
100
AcDbLine
62
2
6
CONTINUOUS
10
6.8193085792
20
17.0793696402
11
6.8193085792
21
16.4934319874
0
LINE
5
302
100
AcDbEntity
8
DRAFT_ENT
100
AcDbLine
62
2
6
CONTINUOUS
10
6.9938088062
20
17.0793696402
11
6.9938088062
21
16.9155484505
0
LINE
5
303
100
AcDbEntity
8
DRAFT_ENT
100
AcDbLine
62
2
6
CONTINUOUS
10
6.9938088062
20
16.6949558249
11
6.9938088062
21
16.4934559909
0
LINE
5
304
100
AcDbEntity
8
0
100
AcDbLine
62
7
6
CONTINUOUS
10
12.1903579364
20
6.7153657308
11
9.0682965998
21
6.7153493940
0
LINE
5
305
100
AcDbEntity
8
DRAFT_ENT
100
AcDbLine
62
2
6
CONTINUOUS
10
7.8555198428
20
17.0793696402
11
7.8555198428
21
16.4934559909
0
LINE
5
306
100
AcDbEntity
8
DRAFT_ENT
100
AcDbLine
62
2
6
CONTINUOUS
10
8.0202535227
20
17.0793696402
11
8.0202535227
21
16.8589858806
0
LINE
5
307
100
AcDbEntity
8
DRAFT_ENT
100
AcDbLine
62
2
6
CONTINUOUS
10
8.0202535227
20
16.7217806007
11
8.0202535227
21
16.4934559909
0
LINE
5
308
100
AcDbEntity
8
DRAFT_ENT
100
AcDbLine
62
2
6
CONTINUOUS
10
8.1682503338
20
17.0793696402
11
8.1682503338
21
16.8589858806
0
LINE
5
309
100
AcDbEntity
8
DRAFT_ENT
100
AcDbLine
62
2
6
CONTINUOUS
10
8.1682503338
20
16.7217806007
11
8.1682503338
21
16.4934559909
0
LINE
5
30A
100
AcDbEntity
8
DRAFT_ENT
100
AcDbLine
62
2
6
CONTINUOUS
10
8.3329840137
20
17.0793696402
11
8.3329840137
21
16.4934559909
0
LINE
5
30B
100
AcDbEntity
8
DRAFT_ENT
100
AcDbLine
62
2
6
CONTINUOUS
10
8.3780288579
20
16.4934559909
11
8.3780288579
21
17.0793696402
0
LINE
5
30C
100
AcDbEntity
8
0
100
AcDbLine
62
7
6
CONTINUOUS
10
9.0682910908
20
7.7681538239
11
12.1903524274
21
7.7681701608
0
LINE
5
30D
100
AcDbEntity
8
DEFAULT_3
100
AcDbLine
62
8
6
PHANTOM
10
12.9885351863
20
8.3119137445
11
16.2608416948
21
8.3119137445
0
LINE
5
30E
100
AcDbEntity
8
0
100
AcDbLine
62
7
6
CONTINUOUS
10
10.6293306874
20
6.0619108624
11
10.5561959488
21
6.2400200102
0
LINE
5
30F
100
AcDbEntity
8
DRAFT_ENT
100
AcDbLine
62
2
6
CONTINUOUS
10
8.5280749206
20
17.0793696402
11
8.5280749206
21
16.6346827480
0
LINE
5
310
100
AcDbEntity
8
DRAFT_ENT
100
AcDbLine
62
2
6
CONTINUOUS
10
8.6907589906
20
16.6346827480
11
8.6907589906
21
16.4934559909
0
LINE
5
311
100
AcDbEntity
8
DRAFT_ENT
100
AcDbLine
62
2
6
CONTINUOUS
10
8.7199067292
20
16.4934559909
11
8.7199067292
21
17.0793696402
0
LINE
5
312
100
AcDbEntity
8
DRAFT_ENT
100
AcDbLine
62
2
6
CONTINUOUS
10
8.8781533812
20
16.9366102435
11
8.8781533812
21
16.8589858806
0
LINE
5
313
100
AcDbEntity
8
DRAFT_ENT
100
AcDbLine
62
2
6
CONTINUOUS
10
8.8781533812
20
16.7146042790
11
8.8781533812
21
16.6346827480
0
LINE
5
314
100
AcDbEntity
8
DRAFT_ENT
100
AcDbLine
62
2
6
CONTINUOUS
10
9.0290109046
20
16.4934559909
11
9.0290109046
21
16.6346827480
0
LINE
5
315
100
AcDbEntity
8
DRAFT_ENT
100
AcDbLine
62
2
6
CONTINUOUS
10
9.0290109046
20
16.7146042790
11
9.0290109046
21
16.8589858806
0
LINE
5
316
100
AcDbEntity
8
DRAFT_ENT
100
AcDbLine
62
2
6
CONTINUOUS
10
9.0290109046
20
16.9366102435
11
9.0290109046
21
17.0793696402
0
LINE
5
317
100
AcDbEntity
8
0
100
AcDbLine
62
7
6
CONTINUOUS
10
9.0682965998
20
6.7153493940
11
9.0682910908
21
7.7681538239
0
LINE
5
318
100
AcDbEntity
8
DRAFT_ENT
100
AcDbLine
62
2
6
CONTINUOUS
10
9.0738311193
20
16.4934559909
11
9.0738311193
21
17.0793696402
0
LINE
5
319
100
AcDbEntity
8
DRAFT_ENT
100
AcDbLine
62
2
6
CONTINUOUS
10
9.2244869419
20
16.9367908069
11
9.2244869419
21
16.8296876724
0
LINE
5
31A
100
AcDbEntity
8
DRAFT_ENT
100
AcDbLine
62
2
6
CONTINUOUS
10
9.2244869419
20
16.6904123617
11
9.2244869419
21
16.4934559909
0
LINE
5
31B
100
AcDbEntity
8
___NOTE
100
AcDbLine
62
2
6
CONTINUOUS
10
22.5964843715
20
9.3506029743
11
20.1746565520
21
9.2979545434
0
LINE
5
31C
100
AcDbEntity
8
___NOTE
100
AcDbLine
62
2
6
CONTINUOUS
10
14.7298388677
20
8.6292750651
11
14.4748253626
21
8.6292750651
0
LINE
5
31D
100
AcDbEntity
8
___NOTE
100
AcDbLine
62
2
6
CONTINUOUS
10
20.1746565520
20
9.2979545434
11
19.9114143977
21
9.2979545434
0
LINE
5
31E
100
AcDbEntity
8
DRAFT_ENT
100
AcDbLine
62
2
6
CONTINUOUS
10
9.6641452858
20
16.4606153001
11
9.6641452858
21
16.5265814990
0
LINE
5
31F
100
AcDbEntity
8
DEFAULT_3
100
AcDbLine
62
8
6
PHANTOM
10
16.2608416948
20
10.5626373044
11
21.8361619017
21
10.5626373044
0
LINE
5
320
100
AcDbEntity
8
0
100
AcDbLine
62
7
6
CONTINUOUS
10
13.6939740235
20
8.9465676439
11
13.7298920769
21
8.9193346946
0
LINE
5
321
100
AcDbEntity
8
0
100
AcDbLine
62
7
6
CONTINUOUS
10
13.5442839472
20
9.0446910099
11
13.5738328844
21
9.0199785022
0
LINE
5
322
100
AcDbEntity
8
0
100
AcDbLine
62
7
6
CONTINUOUS
10
10.6293272681
20
6.7153575624
11
10.6293306874
21
6.0619108624
0
LINE
5
323
100
AcDbEntity
8
___NOTE
100
AcDbLine
62
2
6
CONTINUOUS
10
15.6481851957
20
10.5179668036
11
20.1746565520
21
9.2979545434
0
LINE
5
324
100
AcDbEntity
8
DRAFT_ENT
100
AcDbLine
62
2
6
CONTINUOUS
10
7.1475467463
20
16.4934559909
11
6.9938088062
21
16.6949558249
0
LINE
5
325
100
AcDbEntity
8
DRAFT_ENT
100
AcDbLine
62
2
6
CONTINUOUS
10
7.3638391678
20
16.4934559909
11
7.1103313331
21
16.8257213673
0
LINE
5
326
100
AcDbEntity
8
0
100
AcDbLine
62
7
6
CONTINUOUS
10
12.1903524274
20
7.7681701608
11
12.1903579364
21
6.7153657308
0
LINE
5
327
100
AcDbEntity
8
DEFAULT_1
100
AcDbLine
62
2
6
CENTER
10
12.4387455524
20
3.9863663930
11
12.4387377034
21
5.4863663930
0
LINE
5
328
100
AcDbEntity
8
DEFAULT_1
100
AcDbLine
62
2
6
CENTER
10
12.4387354007
20
19.5179375587
11
12.4387262435
21
21.2679375586
0
LINE
5
329
100
AcDbEntity
8
DEFAULT_3
100
AcDbLine
62
8
6
PHANTOM
10
21.8361619017
20
11.6970655313
11
12.9885351863
21
11.6970655313
0
LINE
5
32A
100
AcDbEntity
8
DEFAULT_1
100
AcDbLine
62
2
6
CENTER
10
23.9587353195
20
12.2196228667
11
22.2087353195
21
12.2196137095
0
LINE
5
32B
100
AcDbEntity
8
DEFAULT_1
100
AcDbLine
62
2
6
CENTER
10
2.6687353223
20
12.2195114626
11
0.9187353223
21
12.2195023054
0
LINE
5
32C
100
AcDbEntity
8
DRAFT_ENT
100
AcDbLine
62
2
6
CONTINUOUS
10
9.3493103710
20
16.4934559909
11
9.2244869419
21
16.6904123617
0
LINE
5
32D
100
AcDbEntity
8
DRAFT_ENT
100
AcDbLine
62
2
6
CONTINUOUS
10
9.5392613106
20
16.4934559909
11
9.3798180676
21
16.7450385321
0
LINE
5
32E
100
AcDbEntity
8
DEFAULT_3
100
AcDbLine
62
8
6
PHANTOM
10
12.9885351863
20
11.6970655313
11
12.9885351863
21
8.3119137445
0
LINE
5
32F
100
AcDbEntity
8
0
100
AcDbLine
62
7
6
CONTINUOUS
10
10.6293306874
20
6.0619108624
11
10.7024635621
21
6.2400207756
0
LINE
5
330
100
AcDbEntity
8
DRAFT_ENT
100
AcDbLine
62
2
6
CONTINUOUS
10
9.6757432620
20
16.4929182414
11
9.7076112747
21
16.4606153001
0
LINE
5
331
100
AcDbEntity
8
DRAFT_ENT
100
AcDbLine
62
2
6
CONTINUOUS
10
13.8896331826
20
14.7351635198
11
13.8896331826
21
16.1923735685
0
LINE
5
332
100
AcDbEntity
8
DRAFT_ENT
100
AcDbLine
62
2
6
CONTINUOUS
10
13.9341231840
20
14.8250535228
11
13.9341231840
21
16.1490935671
0
LINE
5
333
100
AcDbEntity
8
0
100
AcDbLine
62
7
6
CONTINUOUS
10
13.6436979279
20
9.0530587001
11
13.6241089800
21
8.9134874460
0
LINE
5
334
100
AcDbEntity
8
0
100
AcDbLine
62
7
6
CONTINUOUS
10
14.9822386525
20
8.6225218279
11
14.9822386525
21
9.3725218279
0
LINE
5
335
100
AcDbEntity
8
DEFAULT_2
100
AcDbLine
62
8
6
HIDDEN
10
15.6481851957
20
8.6225218279
11
15.6481851957
21
10.5980208111
0
LINE
5
336
100
AcDbEntity
8
0
100
AcDbLine
62
7
6
CONTINUOUS
10
13.6219649726
20
9.1388449599
11
13.5442839472
21
9.0446910099
0
LINE
5
337
100
AcDbEntity
8
0
100
AcDbLine
62
7
6
CONTINUOUS
10
13.7298920769
20
8.9193346946
11
13.7449934084
21
8.9374870871
0
LINE
5
338
100
AcDbEntity
8
DRAFT_ENT
100
AcDbLine
62
2
6
CONTINUOUS
10
16.8930532830
20
14.7351635198
11
13.8896331826
21
14.7351635198
0
LINE
5
339
100
AcDbEntity
8
DRAFT_ENT
100
AcDbLine
62
2
6
CONTINUOUS
10
16.8475132815
20
14.8250535228
11
13.9341231840
21
14.8250535228
0
LINE
5
33A
100
AcDbEntity
8
DEFAULT_3
100
AcDbLine
62
8
6
PHANTOM
10
16.2608416948
20
8.3119137445
11
16.2608416948
21
10.5626373044
0
LINE
5
33B
100
AcDbEntity
8
___NOTE
100
AcDbLine
62
2
6
CONTINUOUS
10
15.1207139030
20
9.1765001145
11
14.7298388677
21
8.6292750651
0
LINE
5
33C
100
AcDbEntity
8
0
100
AcDbLine
62
7
6
CONTINUOUS
10
13.5738328844
20
9.0199785022
11
13.6436979279
21
9.0530587001
0
LINE
5
33D
100
AcDbEntity
8
0
100
AcDbLine
62
7
6
CONTINUOUS
10
13.6241089800
20
8.9134874460
11
13.6939740235
21
8.9465676439
0
LINE
5
33E
100
AcDbEntity
8
DRAFT_ENT
100
AcDbLine
62
2
6
CONTINUOUS
10
6.9938088062
20
16.4934559909
11
6.8193085792
21
16.4934319874
0
LINE
5
33F
100
AcDbEntity
8
DRAFT_ENT
100
AcDbLine
62
2
6
CONTINUOUS
10
13.9341231840
20
16.1490935671
11
16.8475132815
21
16.1490935671
0
LINE
5
340
100
AcDbEntity
8
DRAFT_ENT
100
AcDbLine
62
2
6
CONTINUOUS
10
13.8896331826
20
16.1923735685
11
16.8930532830
21
16.1923735685
0
LINE
5
341
100
AcDbEntity
8
DRAFT_ENT
100
AcDbLine
62
2
6
CONTINUOUS
10
9.6884246187
20
16.4929182414
11
9.6641452858
21
16.4929182414
0
LINE
5
342
100
AcDbEntity
8
DRAFT_ENT
100
AcDbLine
62
2
6
CONTINUOUS
10
8.3329840137
20
16.4934559909
11
8.1682503338
21
16.4934559909
0
LINE
5
343
100
AcDbEntity
8
DRAFT_ENT
100
AcDbLine
62
2
6
CONTINUOUS
10
8.0202535227
20
16.4934559909
11
7.8555198428
21
16.4934559909
0
LINE
5
344
100
AcDbEntity
8
DRAFT_ENT
100
AcDbLine
62
2
6
CONTINUOUS
10
7.1475467463
20
16.4934559909
11
7.3638391678
21
16.4934559909
0
LINE
5
345
100
AcDbEntity
8
DRAFT_ENT
100
AcDbLine
62
2
6
CONTINUOUS
10
8.3780288579
20
16.4934559909
11
8.6907589906
21
16.4934559909
0
LINE
5
346
100
AcDbEntity
8
DRAFT_ENT
100
AcDbLine
62
2
6
CONTINUOUS
10
8.7199067292
20
16.4934559909
11
9.0290109046
21
16.4934559909
0
LINE
5
347
100
AcDbEntity
8
DRAFT_ENT
100
AcDbLine
62
2
6
CONTINUOUS
10
9.0738311193
20
16.4934559909
11
9.2244869419
21
16.4934559909
0
LINE
5
348
100
AcDbEntity
8
DRAFT_ENT
100
AcDbLine
62
2
6
CONTINUOUS
10
9.3493103710
20
16.4934559909
11
9.5392613106
21
16.4934559909
0
LINE
5
349
100
AcDbEntity
8
DRAFT_ENT
100
AcDbLine
62
2
6
CONTINUOUS
10
9.6641452858
20
16.5265814990
11
9.6884246187
21
16.5265814990
0
LINE
5
34A
100
AcDbEntity
8
DRAFT_ENT
100
AcDbLine
62
2
6
CONTINUOUS
10
8.5280749206
20
16.6346827480
11
8.6907589906
21
16.6346827480
0
LINE
5
34B
100
AcDbEntity
8
DRAFT_ENT
100
AcDbLine
62
2
6
CONTINUOUS
10
8.8781533812
20
16.6346827480
11
9.0290109046
21
16.6346827480
0
LINE
5
34C
100
AcDbEntity
8
DRAFT_ENT
100
AcDbLine
62
2
6
CONTINUOUS
10
8.8781533812
20
16.7146042790
11
9.0290109046
21
16.7146042790
0
LINE
5
34D
100
AcDbEntity
8
DRAFT_ENT
100
AcDbLine
62
2
6
CONTINUOUS
10
8.0202535227
20
16.7217806007
11
8.1682503338
21
16.7217806007
0
LINE
5
34E
100
AcDbEntity
8
DRAFT_ENT
100
AcDbLine
62
2
6
CONTINUOUS
10
16.8475132815
20
16.1490935671
11
16.8475132815
21
14.8250535228
0
LINE
5
34F
100
AcDbEntity
8
DRAFT_ENT
100
AcDbLine
62
2
6
CONTINUOUS
10
16.8930532830
20
16.1923735685
11
16.8930532830
21
14.7351635198
0
LINE
5
350
100
AcDbEntity
8
DRAFT_ENT
100
AcDbLine
62
2
6
CONTINUOUS
10
9.2244869419
20
16.8296876724
11
9.2768266921
21
16.8296876724
0
LINE
5
351
100
AcDbEntity
8
DRAFT_ENT
100
AcDbLine
62
2
6
CONTINUOUS
10
8.0202535227
20
16.8589858806
11
8.1682503338
21
16.8589858806
0
LINE
5
352
100
AcDbEntity
8
DRAFT_ENT
100
AcDbLine
62
2
6
CONTINUOUS
10
8.8781533812
20
16.8589858806
11
9.0290109046
21
16.8589858806
0
LINE
5
353
100
AcDbEntity
8
DRAFT_ENT
100
AcDbLine
62
2
6
CONTINUOUS
10
8.8781533812
20
16.9366102435
11
9.0290109046
21
16.9366102435
0
LINE
5
354
100
AcDbEntity
8
DRAFT_ENT
100
AcDbLine
62
2
6
CONTINUOUS
10
9.2804168233
20
16.9367908069
11
9.2244869419
21
16.9367908069
0
LINE
5
355
100
AcDbEntity
8
DRAFT_ENT
100
AcDbLine
62
2
6
CONTINUOUS
10
6.8193085792
20
17.0793696402
11
6.9938088062
21
17.0793696402
0
LINE
5
356
100
AcDbEntity
8
DRAFT_ENT
100
AcDbLine
62
2
6
CONTINUOUS
10
7.1315729729
20
17.0793696402
11
7.3236347850
21
17.0793696402
0
LINE
5
357
100
AcDbEntity
8
DRAFT_ENT
100
AcDbLine
62
2
6
CONTINUOUS
10
7.8555198428
20
17.0793696402
11
8.0202535227
21
17.0793696402
0
LINE
5
358
100
AcDbEntity
8
DRAFT_ENT
100
AcDbLine
62
2
6
CONTINUOUS
10
8.1682503338
20
17.0793696402
11
8.3329840137
21
17.0793696402
0
LINE
5
359
100
AcDbEntity
8
DRAFT_ENT
100
AcDbLine
62
2
6
CONTINUOUS
10
8.3780288579
20
17.0793696402
11
8.5280749206
21
17.0793696402
0
LINE
5
35A
100
AcDbEntity
8
DRAFT_ENT
100
AcDbLine
62
2
6
CONTINUOUS
10
8.7199067292
20
17.0793696402
11
9.0290109046
21
17.0793696402
0
LINE
5
35B
100
AcDbEntity
8
DRAFT_ENT
100
AcDbLine
62
2
6
CONTINUOUS
10
9.0738311193
20
17.0793696402
11
9.3073788200
21
17.0793696402
0
LINE
5
35C
100
AcDbEntity
8
DEFAULT_3
100
AcDbLine
62
8
6
PHANTOM
10
21.8361619017
20
10.5626373044
11
21.8361619017
21
11.6970655313
0
LINE
5
35D
100
AcDbEntity
8
0
100
AcDbLine
62
7
6
CONTINUOUS
10
25.0000000000
20
0.0000000000
11
25.0000000000
21
25.0000000000
0
LINE
5
35E
100
AcDbEntity
8
0
100
AcDbLine
62
7
6
CONTINUOUS
10
0.0000000000
20
25.0000000000
11
25.0000000000
21
25.0000000000
0
LINE
5
35F
100
AcDbEntity
8
0
100
AcDbLine
62
7
6
CONTINUOUS
10
6.3684310145
20
7.0005347852
11
7.3191759074
21
6.5266496700
0
LINE
5
360
100
AcDbEntity
8
___NOTE
100
AcDbLine
62
2
6
CONTINUOUS
10
17.0430709103
20
7.1211508331
11
16.7930709103
21
7.1211508331
0
LINE
5
361
100
AcDbEntity
8
___NOTE
100
AcDbLine
62
2
6
CONTINUOUS
10
18.6772039219
20
7.0863840618
11
17.0430709103
21
7.1211508331
0
LINE
5
362
100
AcDbEntity
8
___NOTE
100
AcDbLine
62
2
6
CONTINUOUS
10
14.9822386525
20
8.7734889979
11
17.0430709103
21
7.1211508331
0
LINE
5
363
100
AcDbEntity
8
0
100
AcDbLine
62
7
6
CONTINUOUS
10
17.5582936832
20
6.5266491474
11
18.5090339888
21
7.0005317969
0
POLYLINE
5
364
100
AcDbEntity
8
0
100
AcDb2dPolyline
62
7
6
CONTINUOUS
66
1
70
0
0
VERTEX
5
365
100
AcDbEntity
8
0
100
AcDbVertex
62
7
6
CONTINUOUS
100
AcDb2dVertex
10
14.2424533420
20
9.9505633319
0
VERTEX
5
366
100
AcDbEntity
8
0
100
AcDbVertex
62
7
6
CONTINUOUS
100
AcDb2dVertex
10
14.2539767795
20
9.9660092954
0
VERTEX
5
367
100
AcDbEntity
8
0
100
AcDbVertex
62
7
6
CONTINUOUS
100
AcDb2dVertex
10
14.2664966725
20
9.9811659071
0
VERTEX
5
368
100
AcDbEntity
8
0
100
AcDbVertex
62
7
6
CONTINUOUS
100
AcDb2dVertex
10
14.2800112124
20
9.9960322627
0
VERTEX
5
369
100
AcDbEntity
8
0
100
AcDbVertex
62
7
6
CONTINUOUS
100
AcDb2dVertex
10
14.2945475260
20
10.0106861256
0
VERTEX
5
36A
100
AcDbEntity
8
0
100
AcDbVertex
62
7
6
CONTINUOUS
100
AcDb2dVertex
10
14.3100802951
20
10.0250497323
0
VERTEX
5
36B
100
AcDbEntity
8
0
100
AcDbVertex
62
7
6
CONTINUOUS
100
AcDb2dVertex
10
14.3265407986
20
10.0388970269
0
VERTEX
5
36C
100
AcDbEntity
8
0
100
AcDbVertex
62
7
6
CONTINUOUS
100
AcDb2dVertex
10
14.3439145689
20
10.0521873192
0
VERTEX
5
36D
100
AcDbEntity
8
0
100
AcDbVertex
62
7
6
CONTINUOUS
100
AcDb2dVertex
10
14.3622160735
20
10.0649603950
0
VERTEX
5
36E
100
AcDbEntity
8
0
100
AcDbVertex
62
7
6
CONTINUOUS
100
AcDb2dVertex
10
14.3814037182
20
10.0771086516
0
VERTEX
5
36F
100
AcDbEntity
8
0
100
AcDbVertex
62
7
6
CONTINUOUS
100
AcDb2dVertex
10
14.4015028212
20
10.0886302807
0
VERTEX
5
370
100
AcDbEntity
8
0
100
AcDbVertex
62
7
6
CONTINUOUS
100
AcDb2dVertex
10
14.4224898727
20
10.0995270906
0
VERTEX
5
371
100
AcDbEntity
8
0
100
AcDbVertex
62
7
6
CONTINUOUS
100
AcDb2dVertex
10
14.4442491319
20
10.1096914786
0
VERTEX
5
372
100
AcDbEntity
8
0
100
AcDbVertex
62
7
6
CONTINUOUS
100
AcDb2dVertex
10
14.4667805990
20
10.1191144025
0
VERTEX
5
373
100
AcDbEntity
8
0
100
AcDbVertex
62
7
6
CONTINUOUS
100
AcDb2dVertex
10
14.4900860822
20
10.1278058087
0
VERTEX
5
374
100
AcDbEntity
8
0
100
AcDbVertex
62
7
6
CONTINUOUS
100
AcDb2dVertex
10
14.5140552662
20
10.1356788918
0
VERTEX
5
375
100
AcDbEntity
8
0
100
AcDbVertex
62
7
6
CONTINUOUS
100
AcDb2dVertex
10
14.5386845341
20
10.1427435981
0
VERTEX
5
376
100
AcDbEntity
8
0
100
AcDbVertex
62
7
6
CONTINUOUS
100
AcDb2dVertex
10
14.5639811198
20
10.1489908854
0
VERTEX
5
377
100
AcDbEntity
8
0
100
AcDbVertex
62
7
6
CONTINUOUS
100
AcDb2dVertex
10
14.5898455584
20
10.1543077257
0
VERTEX
5
378
100
AcDbEntity
8
0
100
AcDbVertex
62
7
6
CONTINUOUS
100
AcDb2dVertex
10
14.6162452980
20
10.1586570457
0
VERTEX
5
379
100
AcDbEntity
8
0
100
AcDbVertex
62
7
6
CONTINUOUS
100
AcDb2dVertex
10
14.6432165075
20
10.1620768229
0
VERTEX
5
37A
100
AcDbEntity
8
0
100
AcDbVertex
62
7
6
CONTINUOUS
100
AcDb2dVertex
10
14.6707555700
20
10.1645661531
0
SEQEND
5
37B
100
AcDbEntity
8
0
0
POLYLINE
5
37C
100
AcDbEntity
8
0
100
AcDb2dPolyline
62
7
6
CONTINUOUS
66
1
70
0
0
VERTEX
5
37D
100
AcDbEntity
8
0
100
AcDbVertex
62
7
6
CONTINUOUS
100
AcDb2dVertex
10
13.7275951244
20
9.2696686921
0
VERTEX
5
37E
100
AcDbEntity
8
0
100
AcDbVertex
62
7
6
CONTINUOUS
100
AcDb2dVertex
10
13.8256872106
20
9.3938377098
0
VERTEX
5
37F
100
AcDbEntity
8
0
100
AcDbVertex
62
7
6
CONTINUOUS
100
AcDb2dVertex
10
13.9261971933
20
9.5239420573
0
VERTEX
5
380
100
AcDbEntity
8
0
100
AcDbVertex
62
7
6
CONTINUOUS
100
AcDb2dVertex
10
14.0291992188
20
9.6602141204
0
VERTEX
5
381
100
AcDbEntity
8
0
100
AcDbVertex
62
7
6
CONTINUOUS
100
AcDb2dVertex
10
14.1346191406
20
9.8024215133
0
VERTEX
5
382
100
AcDbEntity
8
0
100
AcDbVertex
62
7
6
CONTINUOUS
100
AcDb2dVertex
10
14.2424551505
20
9.9505642361
0
SEQEND
5
383
100
AcDbEntity
8
0
0
LINE
5
384
100
AcDbEntity
8
0
100
AcDbLine
62
7
6
CONTINUOUS
10
13.6316786024
20
9.1507396557
11
13.7275951244
21
9.2696686921
0
LINE
5
385
100
AcDbEntity
8
0
100
AcDbLine
62
7
6
CONTINUOUS
10
13.6210431134
20
9.1378363715
11
13.6316786024
21
9.1507396557
0
LINE
5
386
100
AcDbEntity
8
0
100
AcDbLine
62
7
6
CONTINUOUS
10
15.5118091725
20
10.3157000506
11
15.5178638600
21
10.3178394459
0
POLYLINE
5
387
100
AcDbEntity
8
0
100
AcDb2dPolyline
62
7
6
CONTINUOUS
66
1
70
0
0
VERTEX
5
388
100
AcDbEntity
8
0
100
AcDbVertex
62
7
6
CONTINUOUS
100
AcDb2dVertex
10
14.0827039931
20
9.3087131076
0
VERTEX
5
389
100
AcDbEntity
8
0
100
AcDbVertex
62
7
6
CONTINUOUS
100
AcDb2dVertex
10
14.0861961082
20
9.3145543981
0
VERTEX
5
38A
100
AcDbEntity
8
0
100
AcDbVertex
62
7
6
CONTINUOUS
100
AcDb2dVertex
10
14.0906051071
20
9.3210349754
0
VERTEX
5
38B
100
AcDbEntity
8
0
100
AcDbVertex
62
7
6
CONTINUOUS
100
AcDb2dVertex
10
14.0954101562
20
9.3272262008
0
VERTEX
5
38C
100
AcDbEntity
8
0
100
AcDbVertex
62
7
6
CONTINUOUS
100
AcDb2dVertex
10
14.1005949797
20
9.3331045645
0
VERTEX
5
38D
100
AcDbEntity
8
0
100
AcDbVertex
62
7
6
CONTINUOUS
100
AcDb2dVertex
10
14.1061378762
20
9.3386465567
0
VERTEX
5
38E
100
AcDbEntity
8
0
100
AcDbVertex
62
7
6
CONTINUOUS
100
AcDb2dVertex
10
14.1120171441
20
9.3438295718
0
VERTEX
5
38F
100
AcDbEntity
8
0
100
AcDbVertex
62
7
6
CONTINUOUS
100
AcDb2dVertex
10
14.1182092737
20
9.3486337167
0
VERTEX
5
390
100
AcDbEntity
8
0
100
AcDbVertex
62
7
6
CONTINUOUS
100
AcDb2dVertex
10
14.1246907552
20
9.3530409071
0
VERTEX
5
391
100
AcDbEntity
8
0
100
AcDbVertex
62
7
6
CONTINUOUS
100
AcDb2dVertex
10
14.1314344618
20
9.3570339627
0
VERTEX
5
392
100
AcDbEntity
8
0
100
AcDbVertex
62
7
6
CONTINUOUS
100
AcDb2dVertex
10
14.1384168837
20
9.3605957031
0
VERTEX
5
393
100
AcDbEntity
8
0
100
AcDbVertex
62
7
6
CONTINUOUS
100
AcDb2dVertex
10
14.1456072772
20
9.3637125651
0
SEQEND
5
394
100
AcDbEntity
8
0
0
LINE
5
395
100
AcDbEntity
8
0
100
AcDbLine
62
7
6
CONTINUOUS
10
14.0827076100
20
9.3087194372
11
14.0827058015
21
9.3087167245
0
POLYLINE
5
396
100
AcDbEntity
8
0
100
AcDb2dPolyline
62
7
6
CONTINUOUS
66
1
70
0
0
VERTEX
5
397
100
AcDbEntity
8
0
100
AcDbVertex
62
7
6
CONTINUOUS
100
AcDb2dVertex
10
14.0543348524
20
9.3229537399
0
VERTEX
5
398
100
AcDbEntity
8
0
100
AcDbVertex
62
7
6
CONTINUOUS
100
AcDb2dVertex
10
13.9770652488
20
9.2244086372
0
VERTEX
5
399
100
AcDbEntity
8
0
100
AcDbVertex
62
7
6
CONTINUOUS
100
AcDb2dVertex
10
13.9013816551
20
9.1292706525
0
VERTEX
5
39A
100
AcDbEntity
8
0
100
AcDbVertex
62
7
6
CONTINUOUS
100
AcDb2dVertex
10
13.8272858796
20
9.0375406901
0
VERTEX
5
39B
100
AcDbEntity
8
0
100
AcDbVertex
62
7
6
CONTINUOUS
100
AcDb2dVertex
10
13.7548177083
20
8.9493308738
0
VERTEX
5
39C
100
AcDbEntity
8
0
100
AcDbVertex
62
7
6
CONTINUOUS
100
AcDb2dVertex
10
13.7436089410
20
8.9359194155
0
SEQEND
5
39D
100
AcDbEntity
8
0
0
LINE
5
39E
100
AcDbEntity
8
0
100
AcDbLine
62
2
6
CONTINUOUS
10
13.6384246325
20
9.0104238818
11
14.8015148930
21
10.1735140516
0
POLYLINE
5
39F
100
AcDbEntity
8
0
100
AcDb2dPolyline
62
7
6
CONTINUOUS
66
1
70
0
0
VERTEX
5
3A0
100
AcDbEntity
8
0
100
AcDbVertex
62
7
6
CONTINUOUS
100
AcDb2dVertex
10
15.5001410590
20
10.3102756076
0
VERTEX
5
3A1
100
AcDbEntity
8
0
100
AcDbVertex
62
7
6
CONTINUOUS
100
AcDb2dVertex
10
15.5058738426
20
10.3131673177
0
VERTEX
5
3A2
100
AcDbEntity
8
0
100
AcDbVertex
62
7
6
CONTINUOUS
100
AcDb2dVertex
10
15.5118091725
20
10.3157000506
0
SEQEND
5
3A3
100
AcDbEntity
8
0
0
POLYLINE
5
3A4
100
AcDbEntity
8
0
100
AcDb2dPolyline
62
7
6
CONTINUOUS
66
1
70
0
0
VERTEX
5
3A5
100
AcDbEntity
8
0
100
AcDbVertex
62
7
6
CONTINUOUS
100
AcDb2dVertex
10
14.1681532118
20
9.3702835648
0
VERTEX
5
3A6
100
AcDbEntity
8
0
100
AcDbVertex
62
7
6
CONTINUOUS
100
AcDb2dVertex
10
14.1758915654
20
9.3715178313
0
VERTEX
5
3A7
100
AcDbEntity
8
0
100
AcDbVertex
62
7
6
CONTINUOUS
100
AcDb2dVertex
10
14.1836932147
20
9.3722647208
0
VERTEX
5
3A8
100
AcDbEntity
8
0
100
AcDbVertex
62
7
6
CONTINUOUS
100
AcDb2dVertex
10
14.1915274161
20
9.3725215205
0
SEQEND
5
3A9
100
AcDbEntity
8
0
0
POLYLINE
5
3AA
100
AcDbEntity
8
0
100
AcDb2dPolyline
62
7
6
CONTINUOUS
66
1
70
0
0
VERTEX
5
3AB
100
AcDbEntity
8
0
100
AcDbVertex
62
7
6
CONTINUOUS
100
AcDb2dVertex
10
14.4944769965
20
9.4175220631
0
VERTEX
5
3AC
100
AcDbEntity
8
0
100
AcDbVertex
62
7
6
CONTINUOUS
100
AcDb2dVertex
10
14.4929669416
20
9.4174488209
0
VERTEX
5
3AD
100
AcDbEntity
8
0
100
AcDbVertex
62
7
6
CONTINUOUS
100
AcDb2dVertex
10
14.4914930556
20
9.4172345197
0
VERTEX
5
3AE
100
AcDbEntity
8
0
100
AcDbVertex
62
7
6
CONTINUOUS
100
AcDb2dVertex
10
14.4900535301
20
9.4168800637
0
VERTEX
5
3AF
100
AcDbEntity
8
0
100
AcDbVertex
62
7
6
CONTINUOUS
100
AcDb2dVertex
10
14.4886357060
20
9.4163809317
0
VERTEX
5
3B0
100
AcDbEntity
8
0
100
AcDbVertex
62
7
6
CONTINUOUS
100
AcDb2dVertex
10
14.4872540509
20
9.4157407407
0
VERTEX
5
3B1
100
AcDbEntity
8
0
100
AcDbVertex
62
7
6
CONTINUOUS
100
AcDb2dVertex
10
14.4859537760
20
9.4149748626
0
VERTEX
5
3B2
100
AcDbEntity
8
0
100
AcDbVertex
62
7
6
CONTINUOUS
100
AcDb2dVertex
10
14.4847348814
20
9.4140769676
0
VERTEX
5
3B3
100
AcDbEntity
8
0
100
AcDbVertex
62
7
6
CONTINUOUS
100
AcDb2dVertex
10
14.4835955584
20
9.4130533854
0
VERTEX
5
3B4
100
AcDbEntity
8
0
100
AcDbVertex
62
7
6
CONTINUOUS
100
AcDb2dVertex
10
14.4825774016
20
9.4119420935
0
VERTEX
5
3B5
100
AcDbEntity
8
0
100
AcDbVertex
62
7
6
CONTINUOUS
100
AcDb2dVertex
10
14.4816894531
20
9.4107439959
0
VERTEX
5
3B6
100
AcDbEntity
8
0
100
AcDbVertex
62
7
6
CONTINUOUS
100
AcDb2dVertex
10
14.4809208623
20
9.4094590929
0
VERTEX
5
3B7
100
AcDbEntity
8
0
100
AcDbVertex
62
7
6
CONTINUOUS
100
AcDb2dVertex
10
14.4802915220
20
9.4081208406
0
VERTEX
5
3B8
100
AcDbEntity
8
0
100
AcDbVertex
62
7
6
CONTINUOUS
100
AcDb2dVertex
10
14.4798050492
20
9.4067428024
0
VERTEX
5
3B9
100
AcDbEntity
8
0
100
AcDbVertex
62
7
6
CONTINUOUS
100
AcDb2dVertex
10
14.4794560185
20
9.4053123192
0
VERTEX
5
3BA
100
AcDbEntity
8
0
100
AcDbVertex
62
7
6
CONTINUOUS
100
AcDb2dVertex
10
14.4792444300
20
9.4038293909
0
SEQEND
5
3BB
100
AcDbEntity
8
0
0
POLYLINE
5
3BC
100
AcDbEntity
8
0
100
AcDb2dPolyline
62
7
6
CONTINUOUS
66
1
70
0
0
VERTEX
5
3BD
100
AcDbEntity
8
0
100
AcDbVertex
62
7
6
CONTINUOUS
100
AcDb2dVertex
10
14.1565574363
20
9.3725224248
0
VERTEX
5
3BE
100
AcDbEntity
8
0
100
AcDbVertex
62
7
6
CONTINUOUS
100
AcDb2dVertex
10
14.1509060330
20
9.3723985460
0
VERTEX
5
3BF
100
AcDbEntity
8
0
100
AcDbVertex
62
7
6
CONTINUOUS
100
AcDb2dVertex
10
14.1452889902
20
9.3720359520
0
VERTEX
5
3C0
100
AcDbEntity
8
0
100
AcDbVertex
62
7
6
CONTINUOUS
100
AcDb2dVertex
10
14.1397063079
20
9.3714355469
0
VERTEX
5
3C1
100
AcDbEntity
8
0
100
AcDbVertex
62
7
6
CONTINUOUS
100
AcDb2dVertex
10
14.1341507523
20
9.3705937138
0
VERTEX
5
3C2
100
AcDbEntity
8
0
100
AcDbVertex
62
7
6
CONTINUOUS
100
AcDb2dVertex
10
14.1286295573
20
9.3695140697
0
VERTEX
5
3C3
100
AcDbEntity
8
0
100
AcDbVertex
62
7
6
CONTINUOUS
100
AcDb2dVertex
10
14.1231734664
20
9.3682020399
0
VERTEX
5
3C4
100
AcDbEntity
8
0
100
AcDbVertex
62
7
6
CONTINUOUS
100
AcDb2dVertex
10
14.1177842882
20
9.3666576244
0
VERTEX
5
3C5
100
AcDbEntity
8
0
100
AcDbVertex
62
7
6
CONTINUOUS
100
AcDb2dVertex
10
14.1124602141
20
9.3648817274
0
VERTEX
5
3C6
100
AcDbEntity
8
0
100
AcDbVertex
62
7
6
CONTINUOUS
100
AcDb2dVertex
10
14.1072301794
20
9.3628851997
0
VERTEX
5
3C7
100
AcDbEntity
8
0
100
AcDbVertex
62
7
6
CONTINUOUS
100
AcDb2dVertex
10
14.1020959925
20
9.3606653284
0
VERTEX
5
3C8
100
AcDbEntity
8
0
100
AcDbVertex
62
7
6
CONTINUOUS
100
AcDb2dVertex
10
14.0970558449
20
9.3582248264
0
VERTEX
5
3C9
100
AcDbEntity
8
0
100
AcDbVertex
62
7
6
CONTINUOUS
100
AcDb2dVertex
10
14.0921368634
20
9.3555745443
0
VERTEX
5
3CA
100
AcDbEntity
8
0
100
AcDbVertex
62
7
6
CONTINUOUS
100
AcDb2dVertex
10
14.0873390480
20
9.3527153863
0
VERTEX
5
3CB
100
AcDbEntity
8
0
100
AcDbVertex
62
7
6
CONTINUOUS
100
AcDb2dVertex
10
14.0826642072
20
9.3496473524
0
VERTEX
5
3CC
100
AcDbEntity
8
0
100
AcDbVertex
62
7
6
CONTINUOUS
100
AcDb2dVertex
10
14.0781340422
20
9.3463858145
0
VERTEX
5
3CD
100
AcDbEntity
8
0
100
AcDbVertex
62
7
6
CONTINUOUS
100
AcDb2dVertex
10
14.0737539786
20
9.3429280599
0
VERTEX
5
3CE
100
AcDbEntity
8
0
100
AcDbVertex
62
7
6
CONTINUOUS
100
AcDb2dVertex
10
14.0695185909
20
9.3392777054
0
VERTEX
5
3CF
100
AcDbEntity
8
0
100
AcDbVertex
62
7
6
CONTINUOUS
100
AcDb2dVertex
10
14.0654568142
20
9.3354528356
0
VERTEX
5
3D0
100
AcDbEntity
8
0
100
AcDbVertex
62
7
6
CONTINUOUS
100
AcDb2dVertex
10
14.0615776910
20
9.3314597801
0
VERTEX
5
3D1
100
AcDbEntity
8
0
100
AcDbVertex
62
7
6
CONTINUOUS
100
AcDb2dVertex
10
14.0578703704
20
9.3272931134
0
VERTEX
5
3D2
100
AcDbEntity
8
0
100
AcDbVertex
62
7
6
CONTINUOUS
100
AcDb2dVertex
10
14.0543366609
20
9.3229528356
0
SEQEND
5
3D3
100
AcDbEntity
8
0
0
LINE
5
3D4
100
AcDbEntity
8
0
100
AcDbLine
62
7
6
CONTINUOUS
10
14.4624348958
20
9.3725215205
11
14.1565574363
21
9.3725215205
0
LINE
5
3D5
100
AcDbEntity
8
0
100
AcDbLine
62
7
6
CONTINUOUS
10
14.4657769097
20
9.3725215205
11
15.2328486690
21
9.3725215205
0
LINE
5
3D6
100
AcDbEntity
8
0
100
AcDbLine
62
7
6
CONTINUOUS
10
15.3260199653
20
9.3875217014
11
15.2478642216
21
9.3875217014
0
LINE
5
3D7
100
AcDbEntity
8
0
100
AcDbLine
62
7
6
CONTINUOUS
10
14.9799316406
20
9.4175220631
11
14.4944769965
21
9.4175220631
0
POLYLINE
5
3D8
100
AcDbEntity
8
0
100
AcDb2dPolyline
62
7
6
CONTINUOUS
66
1
70
0
0
VERTEX
5
3D9
100
AcDbEntity
8
0
100
AcDbVertex
62
7
6
CONTINUOUS
100
AcDb2dVertex
10
15.0113805700
20
9.3725215205
0
VERTEX
5
3DA
100
AcDbEntity
8
0
100
AcDbVertex
62
7
6
CONTINUOUS
100
AcDb2dVertex
10
15.0098958333
20
9.3725956670
0
VERTEX
5
3DB
100
AcDbEntity
8
0
100
AcDbVertex
62
7
6
CONTINUOUS
100
AcDb2dVertex
10
15.0084454572
20
9.3728099682
0
VERTEX
5
3DC
100
AcDbEntity
8
0
100
AcDbVertex
62
7
6
CONTINUOUS
100
AcDb2dVertex
10
15.0070312500
20
9.3731644242
0
VERTEX
5
3DD
100
AcDbEntity
8
0
100
AcDbVertex
62
7
6
CONTINUOUS
100
AcDb2dVertex
10
15.0056369358
20
9.3736653646
0
VERTEX
5
3DE
100
AcDbEntity
8
0
100
AcDbVertex
62
7
6
CONTINUOUS
100
AcDb2dVertex
10
15.0042787905
20
9.3743073640
0
VERTEX
5
3DF
100
AcDbEntity
8
0
100
AcDbVertex
62
7
6
CONTINUOUS
100
AcDb2dVertex
10
15.0030002170
20
9.3750741464
0
VERTEX
5
3E0
100
AcDbEntity
8
0
100
AcDbVertex
62
7
6
CONTINUOUS
100
AcDb2dVertex
10
15.0018030237
20
9.3759738498
0
VERTEX
5
3E1
100
AcDbEntity
8
0
100
AcDbVertex
62
7
6
CONTINUOUS
100
AcDb2dVertex
10
15.0006854022
20
9.3769992405
0
VERTEX
5
3E2
100
AcDbEntity
8
0
100
AcDbVertex
62
7
6
CONTINUOUS
100
AcDb2dVertex
10
14.9996853299
20
9.3781123409
0
VERTEX
5
3E3
100
AcDbEntity
8
0
100
AcDbVertex
62
7
6
CONTINUOUS
100
AcDb2dVertex
10
14.9988136574
20
9.3793104384
0
VERTEX
5
3E4
100
AcDbEntity
8
0
100
AcDbVertex
62
7
6
CONTINUOUS
100
AcDb2dVertex
10
14.9980613426
20
9.3805962457
0
VERTEX
5
3E5
100
AcDbEntity
8
0
100
AcDbVertex
62
7
6
CONTINUOUS
100
AcDb2dVertex
10
14.9974446615
20
9.3819335938
0
VERTEX
5
3E6
100
AcDbEntity
8
0
100
AcDbVertex
62
7
6
CONTINUOUS
100
AcDb2dVertex
10
14.9969672309
20
9.3833125362
0
VERTEX
5
3E7
100
AcDbEntity
8
0
100
AcDbVertex
62
7
6
CONTINUOUS
100
AcDb2dVertex
10
14.9966254340
20
9.3847430194
0
VERTEX
5
3E8
100
AcDbEntity
8
0
100
AcDbVertex
62
7
6
CONTINUOUS
100
AcDb2dVertex
10
14.9964192708
20
9.3862259476
0
SEQEND
5
3E9
100
AcDbEntity
8
0
0
LINE
5
3EA
100
AcDbEntity
8
0
100
AcDbLine
62
7
6
CONTINUOUS
10
14.4947211372
20
9.3862105758
11
14.4962673611
21
9.4038330078
0
LINE
5
3EB
100
AcDbEntity
8
0
100
AcDbLine
62
7
6
CONTINUOUS
10
14.4792444300
20
9.4038293909
11
14.4776728877
21
9.3862141927
0
POLYLINE
5
3EC
100
AcDbEntity
8
0
100
AcDb2dPolyline
62
7
6
CONTINUOUS
66
1
70
0
0
VERTEX
5
3ED
100
AcDbEntity
8
0
100
AcDbVertex
62
7
6
CONTINUOUS
100
AcDb2dVertex
10
14.4962673611
20
9.4038330078
0
VERTEX
5
3EE
100
AcDbEntity
8
0
100
AcDbVertex
62
7
6
CONTINUOUS
100
AcDb2dVertex
10
14.4964934172
20
9.4054262514
0
VERTEX
5
3EF
100
AcDbEntity
8
0
100
AcDbVertex
62
7
6
CONTINUOUS
100
AcDb2dVertex
10
14.4969220197
20
9.4070909288
0
SEQEND
5
3F0
100
AcDbEntity
8
0
0
POLYLINE
5
3F1
100
AcDbEntity
8
0
100
AcDb2dPolyline
62
7
6
CONTINUOUS
66
1
70
0
0
VERTEX
5
3F2
100
AcDbEntity
8
0
100
AcDbVertex
62
7
6
CONTINUOUS
100
AcDb2dVertex
10
14.4776728877
20
9.3862141927
0
VERTEX
5
3F3
100
AcDbEntity
8
0
100
AcDbVertex
62
7
6
CONTINUOUS
100
AcDb2dVertex
10
14.4774612992
20
9.3847312645
0
VERTEX
5
3F4
100
AcDbEntity
8
0
100
AcDbVertex
62
7
6
CONTINUOUS
100
AcDb2dVertex
10
14.4771122685
20
9.3833007813
0
VERTEX
5
3F5
100
AcDbEntity
8
0
100
AcDbVertex
62
7
6
CONTINUOUS
100
AcDb2dVertex
10
14.4766257957
20
9.3819227431
0
VERTEX
5
3F6
100
AcDbEntity
8
0
100
AcDbVertex
62
7
6
CONTINUOUS
100
AcDb2dVertex
10
14.4759946470
20
9.3805853950
0
VERTEX
5
3F7
100
AcDbEntity
8
0
100
AcDbVertex
62
7
6
CONTINUOUS
100
AcDb2dVertex
10
14.4752278646
20
9.3792995877
0
VERTEX
5
3F8
100
AcDbEntity
8
0
100
AcDbVertex
62
7
6
CONTINUOUS
100
AcDb2dVertex
10
14.4743381076
20
9.3781014902
0
VERTEX
5
3F9
100
AcDbEntity
8
0
100
AcDbVertex
62
7
6
CONTINUOUS
100
AcDb2dVertex
10
14.4733199508
20
9.3769901982
0
VERTEX
5
3FA
100
AcDbEntity
8
0
100
AcDbVertex
62
7
6
CONTINUOUS
100
AcDb2dVertex
10
14.4721806279
20
9.3759666160
0
VERTEX
5
3FB
100
AcDbEntity
8
0
100
AcDbVertex
62
7
6
CONTINUOUS
100
AcDb2dVertex
10
14.4709617332
20
9.3750687211
0
VERTEX
5
3FC
100
AcDbEntity
8
0
100
AcDbVertex
62
7
6
CONTINUOUS
100
AcDb2dVertex
10
14.4696596499
20
9.3743028429
0
VERTEX
5
3FD
100
AcDbEntity
8
0
100
AcDbVertex
62
7
6
CONTINUOUS
100
AcDb2dVertex
10
14.4682779948
20
9.3736626519
0
VERTEX
5
3FE
100
AcDbEntity
8
0
100
AcDbVertex
62
7
6
CONTINUOUS
100
AcDb2dVertex
10
14.4668601707
20
9.3731635200
0
VERTEX
5
3FF
100
AcDbEntity
8
0
100
AcDbVertex
62
7
6
CONTINUOUS
100
AcDb2dVertex
10
14.4654206453
20
9.3728090639
0
VERTEX
5
400
100
AcDbEntity
8
0
100
AcDbVertex
62
7
6
CONTINUOUS
100
AcDb2dVertex
10
14.4639467593
20
9.3725947627
0
VERTEX
5
401
100
AcDbEntity
8
0
100
AcDbVertex
62
7
6
CONTINUOUS
100
AcDb2dVertex
10
14.4624348958
20
9.3725215205
0
SEQEND
5
402
100
AcDbEntity
8
0
0
LINE
5
403
100
AcDbEntity
8
0
100
AcDbLine
62
7
6
CONTINUOUS
10
15.4946361400
20
10.3070366753
11
15.5001410590
21
10.3102756076
0
LINE
5
404
100
AcDbEntity
8
0
100
AcDbLine
62
7
6
CONTINUOUS
10
14.1605052807
20
9.3685664424
11
14.1681532118
21
9.3702835648
0
POLYLINE
5
405
100
AcDbEntity
8
0
100
AcDb2dPolyline
62
7
6
CONTINUOUS
66
1
70
0
0
VERTEX
5
406
100
AcDbEntity
8
0
100
AcDbVertex
62
7
6
CONTINUOUS
100
AcDb2dVertex
10
14.4969220197
20
9.4070909288
0
VERTEX
5
407
100
AcDbEntity
8
0
100
AcDbVertex
62
7
6
CONTINUOUS
100
AcDb2dVertex
10
14.4975387008
20
9.4086959274
0
VERTEX
5
408
100
AcDbEntity
8
0
100
AcDbVertex
62
7
6
CONTINUOUS
100
AcDb2dVertex
10
14.4983344184
20
9.4102195457
0
VERTEX
5
409
100
AcDbEntity
8
0
100
AcDbVertex
62
7
6
CONTINUOUS
100
AcDb2dVertex
10
14.4993001302
20
9.4116418909
0
VERTEX
5
40A
100
AcDbEntity
8
0
100
AcDbVertex
62
7
6
CONTINUOUS
100
AcDb2dVertex
10
14.5004213686
20
9.4129439742
0
SEQEND
5
40B
100
AcDbEntity
8
0
0
POLYLINE
5
40C
100
AcDbEntity
8
0
100
AcDb2dPolyline
62
7
6
CONTINUOUS
66
1
70
0
0
VERTEX
5
40D
100
AcDbEntity
8
0
100
AcDbVertex
62
7
6
CONTINUOUS
100
AcDb2dVertex
10
15.4842285156
20
10.2994836878
0
VERTEX
5
40E
100
AcDbEntity
8
0
100
AcDbVertex
62
7
6
CONTINUOUS
100
AcDb2dVertex
10
15.4893319589
20
10.3034396701
0
VERTEX
5
40F
100
AcDbEntity
8
0
100
AcDbVertex
62
7
6
CONTINUOUS
100
AcDb2dVertex
10
15.4946361400
20
10.3070366753
0
SEQEND
5
410
100
AcDbEntity
8
0
0
LINE
5
411
100
AcDbEntity
8
0
100
AcDbLine
62
2
6
CONTINUOUS
10
14.4495427899
20
9.3725218012
11
14.4790866665
21
9.4020661547
0
LINE
5
412
100
AcDbEntity
8
0
100
AcDbLine
62
2
6
CONTINUOUS
10
14.4945428662
20
9.4175218775
11
15.2880366139
21
10.2110158636
0
POLYLINE
5
413
100
AcDbEntity
8
0
100
AcDb2dPolyline
62
7
6
CONTINUOUS
66
1
70
0
0
VERTEX
5
414
100
AcDbEntity
8
0
100
AcDbVertex
62
7
6
CONTINUOUS
100
AcDb2dVertex
10
14.5004213686
20
9.4129439742
0
VERTEX
5
415
100
AcDbEntity
8
0
100
AcDbVertex
62
7
6
CONTINUOUS
100
AcDb2dVertex
10
14.5016854745
20
9.4141095197
0
VERTEX
5
416
100
AcDbEntity
8
0
100
AcDbVertex
62
7
6
CONTINUOUS
100
AcDb2dVertex
10
14.5030725550
20
9.4151231554
0
VERTEX
5
417
100
AcDbEntity
8
0
100
AcDbVertex
62
7
6
CONTINUOUS
100
AcDb2dVertex
10
14.5045681424
20
9.4159713180
0
VERTEX
5
418
100
AcDbEntity
8
0
100
AcDbVertex
62
7
6
CONTINUOUS
100
AcDb2dVertex
10
14.5061505353
20
9.4166422526
0
SEQEND
5
419
100
AcDbEntity
8
0
0
LINE
5
41A
100
AcDbEntity
8
0
100
AcDbLine
62
7
6
CONTINUOUS
10
15.4804832176
20
10.2964590567
11
15.4842285156
21
10.2994836878
0
POLYLINE
5
41B
100
AcDbEntity
8
0
100
AcDb2dPolyline
62
7
6
CONTINUOUS
66
1
70
0
0
VERTEX
5
41C
100
AcDbEntity
8
0
100
AcDbVertex
62
7
6
CONTINUOUS
100
AcDb2dVertex
10
14.1456072772
20
9.3637125651
0
VERTEX
5
41D
100
AcDbEntity
8
0
100
AcDbVertex
62
7
6
CONTINUOUS
100
AcDb2dVertex
10
14.1529803241
20
9.3663727937
0
VERTEX
5
41E
100
AcDbEntity
8
0
100
AcDbVertex
62
7
6
CONTINUOUS
100
AcDb2dVertex
10
14.1605052807
20
9.3685664424
0
SEQEND
5
41F
100
AcDbEntity
8
0
0
LINE
5
420
100
AcDbEntity
8
0
100
AcDbLine
62
7
6
CONTINUOUS
10
14.9964192708
20
9.3862259476
11
14.9948929398
21
9.4038176360
0
LINE
5
421
100
AcDbEntity
8
0
100
AcDbLine
62
2
6
CONTINUOUS
10
14.9435627751
20
9.4175218775
11
15.5803668789
21
10.0543257429
0
POLYLINE
5
422
100
AcDbEntity
8
0
100
AcDb2dPolyline
62
7
6
CONTINUOUS
66
1
70
0
0
VERTEX
5
423
100
AcDbEntity
8
0
100
AcDbVertex
62
7
6
CONTINUOUS
100
AcDb2dVertex
10
15.5178638600
20
10.3178394459
0
VERTEX
5
424
100
AcDbEntity
8
0
100
AcDbVertex
62
7
6
CONTINUOUS
100
AcDb2dVertex
10
15.5240270544
20
10.3195800781
0
VERTEX
5
425
100
AcDbEntity
8
0
100
AcDbVertex
62
7
6
CONTINUOUS
100
AcDb2dVertex
10
15.5303096065
20
10.3209264685
0
SEQEND
5
426
100
AcDbEntity
8
0
0
POLYLINE
5
427
100
AcDbEntity
8
0
100
AcDb2dPolyline
62
7
6
CONTINUOUS
66
1
70
0
0
VERTEX
5
428
100
AcDbEntity
8
0
100
AcDbVertex
62
7
6
CONTINUOUS
100
AcDb2dVertex
10
14.9948929398
20
9.4038176360
0
VERTEX
5
429
100
AcDbEntity
8
0
100
AcDbVertex
62
7
6
CONTINUOUS
100
AcDb2dVertex
10
14.9946849682
20
9.4053005642
0
VERTEX
5
42A
100
AcDbEntity
8
0
100
AcDbVertex
62
7
6
CONTINUOUS
100
AcDb2dVertex
10
14.9943431713
20
9.4067319517
0
VERTEX
5
42B
100
AcDbEntity
8
0
100
AcDbVertex
62
7
6
CONTINUOUS
100
AcDb2dVertex
10
14.9938675492
20
9.4081099899
0
VERTEX
5
42C
100
AcDbEntity
8
0
100
AcDbVertex
62
7
6
CONTINUOUS
100
AcDb2dVertex
10
14.9932490596
20
9.4094482422
0
VERTEX
5
42D
100
AcDbEntity
8
0
100
AcDbVertex
62
7
6
CONTINUOUS
100
AcDb2dVertex
10
14.9924967448
20
9.4107331453
0
VERTEX
5
42E
100
AcDbEntity
8
0
100
AcDbVertex
62
7
6
CONTINUOUS
100
AcDb2dVertex
10
14.9916250723
20
9.4119312428
0
VERTEX
5
42F
100
AcDbEntity
8
0
100
AcDbVertex
62
7
6
CONTINUOUS
100
AcDb2dVertex
10
14.9906268084
20
9.4130443432
0
VERTEX
5
430
100
AcDbEntity
8
0
100
AcDbVertex
62
7
6
CONTINUOUS
100
AcDb2dVertex
10
14.9895091869
20
9.4140697338
0
VERTEX
5
431
100
AcDbEntity
8
0
100
AcDbVertex
62
7
6
CONTINUOUS
100
AcDb2dVertex
10
14.9883101852
20
9.4149694372
0
VERTEX
5
432
100
AcDbEntity
8
0
100
AcDbVertex
62
7
6
CONTINUOUS
100
AcDb2dVertex
10
14.9870316117
20
9.4157362196
0
VERTEX
5
433
100
AcDbEntity
8
0
100
AcDbVertex
62
7
6
CONTINUOUS
100
AcDb2dVertex
10
14.9856734664
20
9.4163782190
0
VERTEX
5
434
100
AcDbEntity
8
0
100
AcDbVertex
62
7
6
CONTINUOUS
100
AcDb2dVertex
10
14.9842791522
20
9.4168791594
0
VERTEX
5
435
100
AcDbEntity
8
0
100
AcDbVertex
62
7
6
CONTINUOUS
100
AcDb2dVertex
10
14.9828649450
20
9.4172345197
0
VERTEX
5
436
100
AcDbEntity
8
0
100
AcDbVertex
62
7
6
CONTINUOUS
100
AcDb2dVertex
10
14.9814163773
20
9.4174479167
0
VERTEX
5
437
100
AcDbEntity
8
0
100
AcDbVertex
62
7
6
CONTINUOUS
100
AcDb2dVertex
10
14.9799316406
20
9.4175220631
0
SEQEND
5
438
100
AcDbEntity
8
0
0
POLYLINE
5
439
100
AcDbEntity
8
0
100
AcDb2dPolyline
62
7
6
CONTINUOUS
66
1
70
0
0
VERTEX
5
43A
100
AcDbEntity
8
0
100
AcDbVertex
62
7
6
CONTINUOUS
100
AcDb2dVertex
10
15.5303096065
20
10.3209264685
0
VERTEX
5
43B
100
AcDbEntity
8
0
100
AcDbVertex
62
7
6
CONTINUOUS
100
AcDb2dVertex
10
15.5366644965
20
10.3218641493
0
VERTEX
5
43C
100
AcDbEntity
8
0
100
AcDbVertex
62
7
6
CONTINUOUS
100
AcDb2dVertex
10
15.5430953414
20
10.3223922164
0
VERTEX
5
43D
100
AcDbEntity
8
0
100
AcDbVertex
62
7
6
CONTINUOUS
100
AcDb2dVertex
10
15.5481391059
20
10.3225215205
0
SEQEND
5
43E
100
AcDbEntity
8
0
0
POLYLINE
5
43F
100
AcDbEntity
8
0
100
AcDb2dPolyline
62
7
6
CONTINUOUS
66
1
70
0
0
VERTEX
5
440
100
AcDbEntity
8
0
100
AcDbVertex
62
7
6
CONTINUOUS
100
AcDb2dVertex
10
15.2605450666
20
10.2076660156
0
VERTEX
5
441
100
AcDbEntity
8
0
100
AcDbVertex
62
7
6
CONTINUOUS
100
AcDb2dVertex
10
15.2671712240
20
10.2082989728
0
VERTEX
5
442
100
AcDbEntity
8
0
100
AcDbVertex
62
7
6
CONTINUOUS
100
AcDb2dVertex
10
15.2774811921
20
10.2095024957
0
VERTEX
5
443
100
AcDbEntity
8
0
100
AcDbVertex
62
7
6
CONTINUOUS
100
AcDb2dVertex
10
15.2877531829
20
10.2109682436
0
VERTEX
5
444
100
AcDbEntity
8
0
100
AcDbVertex
62
7
6
CONTINUOUS
100
AcDb2dVertex
10
15.2979926215
20
10.2126980252
0
VERTEX
5
445
100
AcDbEntity
8
0
100
AcDbVertex
62
7
6
CONTINUOUS
100
AcDb2dVertex
10
15.3081922743
20
10.2146900318
0
VERTEX
5
446
100
AcDbEntity
8
0
100
AcDbVertex
62
7
6
CONTINUOUS
100
AcDb2dVertex
10
15.3183322483
20
10.2169415509
0
VERTEX
5
447
100
AcDbEntity
8
0
100
AcDbVertex
62
7
6
CONTINUOUS
100
AcDb2dVertex
10
15.3284089265
20
10.2194516782
0
VERTEX
5
448
100
AcDbEntity
8
0
100
AcDbVertex
62
7
6
CONTINUOUS
100
AcDb2dVertex
10
15.3384259259
20
10.2222204138
0
VERTEX
5
449
100
AcDbEntity
8
0
100
AcDbVertex
62
7
6
CONTINUOUS
100
AcDb2dVertex
10
15.3483615451
20
10.2252423322
0
VERTEX
5
44A
100
AcDbEntity
8
0
100
AcDbVertex
62
7
6
CONTINUOUS
100
AcDb2dVertex
10
15.3582157841
20
10.2285183377
0
VERTEX
5
44B
100
AcDbEntity
8
0
100
AcDbVertex
62
7
6
CONTINUOUS
100
AcDb2dVertex
10
15.3679904514
20
10.2320466218
0
VERTEX
5
44C
100
AcDbEntity
8
0
100
AcDbVertex
62
7
6
CONTINUOUS
100
AcDb2dVertex
10
15.3776638455
20
10.2358226635
0
VERTEX
5
44D
100
AcDbEntity
8
0
100
AcDbVertex
62
7
6
CONTINUOUS
100
AcDb2dVertex
10
15.3872377749
20
10.2398446542
0
VERTEX
5
44E
100
AcDbEntity
8
0
100
AcDbVertex
62
7
6
CONTINUOUS
100
AcDb2dVertex
10
15.3967122396
20
10.2441125940
0
VERTEX
5
44F
100
AcDbEntity
8
0
100
AcDbVertex
62
7
6
CONTINUOUS
100
AcDb2dVertex
10
15.4060691551
20
10.2486192491
0
VERTEX
5
450
100
AcDbEntity
8
0
100
AcDbVertex
62
7
6
CONTINUOUS
100
AcDb2dVertex
10
15.4153049045
20
10.2533637153
0
VERTEX
5
451
100
AcDbEntity
8
0
100
AcDbVertex
62
7
6
CONTINUOUS
100
AcDb2dVertex
10
15.4244231047
20
10.2583459925
0
VERTEX
5
452
100
AcDbEntity
8
0
100
AcDbVertex
62
7
6
CONTINUOUS
100
AcDb2dVertex
10
15.4334056713
20
10.2635570385
0
VERTEX
5
453
100
AcDbEntity
8
0
100
AcDbVertex
62
7
6
CONTINUOUS
100
AcDb2dVertex
10
15.4422507957
20
10.2689968533
0
VERTEX
5
454
100
AcDbEntity
8
0
100
AcDbVertex
62
7
6
CONTINUOUS
100
AcDb2dVertex
10
15.4509602865
20
10.2746645327
0
VERTEX
5
455
100
AcDbEntity
8
0
100
AcDbVertex
62
7
6
CONTINUOUS
100
AcDb2dVertex
10
15.4595142506
20
10.2805483218
0
VERTEX
5
456
100
AcDbEntity
8
0
100
AcDbVertex
62
7
6
CONTINUOUS
100
AcDb2dVertex
10
15.4679072627
20
10.2866446036
0
VERTEX
5
457
100
AcDbEntity
8
0
100
AcDbVertex
62
7
6
CONTINUOUS
100
AcDb2dVertex
10
15.4761447483
20
10.2929560909
0
VERTEX
5
458
100
AcDbEntity
8
0
100
AcDbVertex
62
7
6
CONTINUOUS
100
AcDb2dVertex
10
15.4804832176
20
10.2964590567
0
SEQEND
5
459
100
AcDbEntity
8
0
0
LINE
5
45A
100
AcDbEntity
8
0
100
AcDbLine
62
7
6
CONTINUOUS
10
15.2568214699
20
10.2073585793
11
15.2605450666
21
10.2076660156
0
POLYLINE
5
45B
100
AcDbEntity
8
0
100
AcDb2dPolyline
62
7
6
CONTINUOUS
66
1
70
0
0
VERTEX
5
45C
100
AcDbEntity
8
0
100
AcDbVertex
62
7
6
CONTINUOUS
100
AcDb2dVertex
10
14.6707501447
20
10.1645661531
0
VERTEX
5
45D
100
AcDbEntity
8
0
100
AcDbVertex
62
7
6
CONTINUOUS
100
AcDb2dVertex
10
14.7034306279
20
10.1667652271
0
VERTEX
5
45E
100
AcDbEntity
8
0
100
AcDbVertex
62
7
6
CONTINUOUS
100
AcDb2dVertex
10
14.7360984520
20
10.1689878111
0
VERTEX
5
45F
100
AcDbEntity
8
0
100
AcDbVertex
62
7
6
CONTINUOUS
100
AcDb2dVertex
10
14.7687518084
20
10.1712339048
0
VERTEX
5
460
100
AcDbEntity
8
0
100
AcDbVertex
62
7
6
CONTINUOUS
100
AcDb2dVertex
10
14.8013943142
20
10.1735053168
0
VERTEX
5
461
100
AcDbEntity
8
0
100
AcDbVertex
62
7
6
CONTINUOUS
100
AcDb2dVertex
10
14.8340223524
20
10.1758011429
0
VERTEX
5
462
100
AcDbEntity
8
0
100
AcDbVertex
62
7
6
CONTINUOUS
100
AcDb2dVertex
10
14.8666286892
20
10.1781168620
0
VERTEX
5
463
100
AcDbEntity
8
0
100
AcDbVertex
62
7
6
CONTINUOUS
100
AcDb2dVertex
10
14.8992060909
20
10.1804533782
0
VERTEX
5
464
100
AcDbEntity
8
0
100
AcDbVertex
62
7
6
CONTINUOUS
100
AcDb2dVertex
10
14.9317617911
20
10.1828097873
0
VERTEX
5
465
100
AcDbEntity
8
0
100
AcDbVertex
62
7
6
CONTINUOUS
100
AcDb2dVertex
10
14.9642994068
20
10.1851860894
0
VERTEX
5
466
100
AcDbEntity
8
0
100
AcDbVertex
62
7
6
CONTINUOUS
100
AcDb2dVertex
10
14.9968171296
20
10.1875804760
0
VERTEX
5
467
100
AcDbEntity
8
0
100
AcDbVertex
62
7
6
CONTINUOUS
100
AcDb2dVertex
10
15.0293185764
20
10.1899938513
0
VERTEX
5
468
100
AcDbEntity
8
0
100
AcDbVertex
62
7
6
CONTINUOUS
100
AcDb2dVertex
10
15.0618145978
20
10.1924244068
0
VERTEX
5
469
100
AcDbEntity
8
0
100
AcDbVertex
62
7
6
CONTINUOUS
100
AcDb2dVertex
10
15.0943051939
20
10.1948721427
0
VERTEX
5
46A
100
AcDbEntity
8
0
100
AcDbVertex
62
7
6
CONTINUOUS
100
AcDb2dVertex
10
15.1267885561
20
10.1973379630
0
VERTEX
5
46B
100
AcDbEntity
8
0
100
AcDbVertex
62
7
6
CONTINUOUS
100
AcDb2dVertex
10
15.1592809606
20
10.1998191551
0
VERTEX
5
46C
100
AcDbEntity
8
0
100
AcDbVertex
62
7
6
CONTINUOUS
100
AcDb2dVertex
10
15.1917878328
20
10.2023157190
0
VERTEX
5
46D
100
AcDbEntity
8
0
100
AcDbVertex
62
7
6
CONTINUOUS
100
AcDb2dVertex
10
15.2243001302
20
10.2048294633
0
VERTEX
5
46E
100
AcDbEntity
8
0
100
AcDbVertex
62
7
6
CONTINUOUS
100
AcDb2dVertex
10
15.2568214699
20
10.2073585793
0
SEQEND
5
46F
100
AcDbEntity
8
0
0
POLYLINE
5
470
100
AcDbEntity
8
0
100
AcDb2dPolyline
62
7
6
CONTINUOUS
66
1
70
0
0
VERTEX
5
471
100
AcDbEntity
8
0
100
AcDbVertex
62
7
6
CONTINUOUS
100
AcDb2dVertex
10
15.2478642216
20
9.3875217014
0
VERTEX
5
472
100
AcDbEntity
8
0
100
AcDbVertex
62
7
6
CONTINUOUS
100
AcDb2dVertex
10
15.2477756076
20
9.3859338831
0
VERTEX
5
473
100
AcDbEntity
8
0
100
AcDbVertex
62
7
6
CONTINUOUS
100
AcDb2dVertex
10
15.2475314670
20
9.3843939887
0
VERTEX
5
474
100
AcDbEntity
8
0
100
AcDbVertex
62
7
6
CONTINUOUS
100
AcDb2dVertex
10
15.2471354167
20
9.3829047309
0
VERTEX
5
475
100
AcDbEntity
8
0
100
AcDbVertex
62
7
6
CONTINUOUS
100
AcDb2dVertex
10
15.2465766059
20
9.3814507378
0
VERTEX
5
476
100
AcDbEntity
8
0
100
AcDbVertex
62
7
6
CONTINUOUS
100
AcDb2dVertex
10
15.2458658854
20
9.3800455729
0
VERTEX
5
477
100
AcDbEntity
8
0
100
AcDbVertex
62
7
6
CONTINUOUS
100
AcDb2dVertex
10
15.2450159144
20
9.3787308304
0
VERTEX
5
478
100
AcDbEntity
8
0
100
AcDbVertex
62
7
6
CONTINUOUS
100
AcDb2dVertex
10
15.2440158420
20
9.3775047020
0
VERTEX
5
479
100
AcDbEntity
8
0
100
AcDbVertex
62
7
6
CONTINUOUS
100
AcDb2dVertex
10
15.2428783275
20
9.3763671875
0
VERTEX
5
47A
100
AcDbEntity
8
0
100
AcDbVertex
62
7
6
CONTINUOUS
100
AcDb2dVertex
10
15.2416485822
20
9.3753680194
0
VERTEX
5
47B
100
AcDbEntity
8
0
100
AcDbVertex
62
7
6
CONTINUOUS
100
AcDb2dVertex
10
15.2403229890
20
9.3745153356
0
VERTEX
5
47C
100
AcDbEntity
8
0
100
AcDbVertex
62
7
6
CONTINUOUS
100
AcDb2dVertex
10
15.2389051649
20
9.3738000940
0
VERTEX
5
47D
100
AcDbEntity
8
0
100
AcDbVertex
62
7
6
CONTINUOUS
100
AcDb2dVertex
10
15.2374439381
20
9.3732412833
0
VERTEX
5
47E
100
AcDbEntity
8
0
100
AcDbVertex
62
7
6
CONTINUOUS
100
AcDb2dVertex
10
15.2359555845
20
9.3728452329
0
VERTEX
5
47F
100
AcDbEntity
8
0
100
AcDbVertex
62
7
6
CONTINUOUS
100
AcDb2dVertex
10
15.2344238281
20
9.3726056134
0
VERTEX
5
480
100
AcDbEntity
8
0
100
AcDbVertex
62
7
6
CONTINUOUS
100
AcDb2dVertex
10
15.2328486690
20
9.3725215205
0
SEQEND
5
481
100
AcDbEntity
8
0
0
POLYLINE
5
482
100
AcDbEntity
8
0
100
AcDb2dPolyline
62
7
6
CONTINUOUS
66
1
70
0
0
VERTEX
5
483
100
AcDbEntity
8
0
100
AcDbVertex
62
7
6
CONTINUOUS
100
AcDb2dVertex
10
15.6378363715
20
10.1782009549
0
VERTEX
5
484
100
AcDbEntity
8
0
100
AcDbVertex
62
7
6
CONTINUOUS
100
AcDb2dVertex
10
15.6001681858
20
10.0991780599
0
VERTEX
5
485
100
AcDbEntity
8
0
100
AcDbVertex
62
7
6
CONTINUOUS
100
AcDb2dVertex
10
15.5648744936
20
10.0192364728
0
VERTEX
5
486
100
AcDbEntity
8
0
100
AcDbVertex
62
7
6
CONTINUOUS
100
AcDb2dVertex
10
15.5319552951
20
9.9383761936
0
VERTEX
5
487
100
AcDbEntity
8
0
100
AcDbVertex
62
7
6
CONTINUOUS
100
AcDb2dVertex
10
15.5013888889
20
9.8565303096
0
VERTEX
5
488
100
AcDbEntity
8
0
100
AcDbVertex
62
7
6
CONTINUOUS
100
AcDb2dVertex
10
15.4731933594
20
9.7737657335
0
VERTEX
5
489
100
AcDbEntity
8
0
100
AcDbVertex
62
7
6
CONTINUOUS
100
AcDb2dVertex
10
15.4474428530
20
9.6902877242
0
VERTEX
5
48A
100
AcDbEntity
8
0
100
AcDbVertex
62
7
6
CONTINUOUS
100
AcDb2dVertex
10
15.4241590712
20
9.6061640987
0
VERTEX
5
48B
100
AcDbEntity
8
0
100
AcDbVertex
62
7
6
CONTINUOUS
100
AcDb2dVertex
10
15.4033166956
20
9.5213261357
0
VERTEX
5
48C
100
AcDbEntity
8
0
100
AcDbVertex
62
7
6
CONTINUOUS
100
AcDb2dVertex
10
15.3849193432
20
9.4357756438
0
SEQEND
5
48D
100
AcDbEntity
8
0
0
LINE
5
48E
100
AcDbEntity
8
0
100
AcDbLine
62
7
6
CONTINUOUS
10
15.5333260995
20
10.3225215205
11
15.5248571325
21
10.3225215205
0
POLYLINE
5
48F
100
AcDbEntity
8
0
100
AcDb2dPolyline
62
7
6
CONTINUOUS
66
1
70
0
0
VERTEX
5
490
100
AcDbEntity
8
0
100
AcDbVertex
62
7
6
CONTINUOUS
100
AcDb2dVertex
10
15.5481391059
20
10.3225215205
0
VERTEX
5
491
100
AcDbEntity
8
0
100
AcDbVertex
62
7
6
CONTINUOUS
100
AcDb2dVertex
10
15.5495985243
20
10.3225124783
0
VERTEX
5
492
100
AcDbEntity
8
0
100
AcDbVertex
62
7
6
CONTINUOUS
100
AcDb2dVertex
10
15.5560998987
20
10.3222041377
0
VERTEX
5
493
100
AcDbEntity
8
0
100
AcDbVertex
62
7
6
CONTINUOUS
100
AcDb2dVertex
10
15.5626175492
20
10.3214590567
0
VERTEX
5
494
100
AcDbEntity
8
0
100
AcDbVertex
62
7
6
CONTINUOUS
100
AcDb2dVertex
10
15.5691370081
20
10.3202871817
0
VERTEX
5
495
100
AcDbEntity
8
0
100
AcDbVertex
62
7
6
CONTINUOUS
100
AcDb2dVertex
10
15.5755334925
20
10.3186993634
0
VERTEX
5
496
100
AcDbEntity
8
0
100
AcDbVertex
62
7
6
CONTINUOUS
100
AcDb2dVertex
10
15.5818070023
20
10.3166820385
0
VERTEX
5
497
100
AcDbEntity
8
0
100
AcDbVertex
62
7
6
CONTINUOUS
100
AcDb2dVertex
10
15.5879611545
20
10.3142496745
0
VERTEX
5
498
100
AcDbEntity
8
0
100
AcDbVertex
62
7
6
CONTINUOUS
100
AcDb2dVertex
10
15.5938856337
20
10.3114574291
0
VERTEX
5
499
100
AcDbEntity
8
0
100
AcDbVertex
62
7
6
CONTINUOUS
100
AcDb2dVertex
10
15.5995551215
20
10.3083152488
0
VERTEX
5
49A
100
AcDbEntity
8
0
100
AcDbVertex
62
7
6
CONTINUOUS
100
AcDb2dVertex
10
15.6049949363
20
10.3048140914
0
VERTEX
5
49B
100
AcDbEntity
8
0
100
AcDbVertex
62
7
6
CONTINUOUS
100
AcDb2dVertex
10
15.6101851852
20
10.3009747541
0
VERTEX
5
49C
100
AcDbEntity
8
0
100
AcDbVertex
62
7
6
CONTINUOUS
100
AcDb2dVertex
10
15.6151385272
20
10.2967927156
0
VERTEX
5
49D
100
AcDbEntity
8
0
100
AcDbVertex
62
7
6
CONTINUOUS
100
AcDb2dVertex
10
15.6198404948
20
10.2922734013
0
VERTEX
5
49E
100
AcDbEntity
8
0
100
AcDbVertex
62
7
6
CONTINUOUS
100
AcDb2dVertex
10
15.6242386429
20
10.2874538845
0
VERTEX
5
49F
100
AcDbEntity
8
0
100
AcDbVertex
62
7
6
CONTINUOUS
100
AcDb2dVertex
10
15.6283347801
20
10.2823106554
0
VERTEX
5
4A0
100
AcDbEntity
8
0
100
AcDbVertex
62
7
6
CONTINUOUS
100
AcDb2dVertex
10
15.6321270978
20
10.2768663194
0
VERTEX
5
4A1
100
AcDbEntity
8
0
100
AcDbVertex
62
7
6
CONTINUOUS
100
AcDb2dVertex
10
15.6355342159
20
10.2712230541
0
VERTEX
5
4A2
100
AcDbEntity
8
0
100
AcDbVertex
62
7
6
CONTINUOUS
100
AcDb2dVertex
10
15.6385416667
20
10.2653790509
0
VERTEX
5
4A3
100
AcDbEntity
8
0
100
AcDbVertex
62
7
6
CONTINUOUS
100
AcDb2dVertex
10
15.6411675347
20
10.2593361183
0
VERTEX
5
4A4
100
AcDbEntity
8
0
100
AcDbVertex
62
7
6
CONTINUOUS
100
AcDb2dVertex
10
15.6433792679
20
10.2531973380
0
VERTEX
5
4A5
100
AcDbEntity
8
0
100
AcDbVertex
62
7
6
CONTINUOUS
100
AcDb2dVertex
10
15.6451678241
20
10.2469780816
0
VERTEX
5
4A6
100
AcDbEntity
8
0
100
AcDbVertex
62
7
6
CONTINUOUS
100
AcDb2dVertex
10
15.6465422454
20
10.2406638817
0
VERTEX
5
4A7
100
AcDbEntity
8
0
100
AcDbVertex
62
7
6
CONTINUOUS
100
AcDb2dVertex
10
15.6475061487
20
10.2343117043
0
VERTEX
5
4A8
100
AcDbEntity
8
0
100
AcDbVertex
62
7
6
CONTINUOUS
100
AcDb2dVertex
10
15.6480577257
20
10.2279188368
0
VERTEX
5
4A9
100
AcDbEntity
8
0
100
AcDbVertex
62
7
6
CONTINUOUS
100
AcDb2dVertex
10
15.6481969763
20
10.2214898003
0
VERTEX
5
4AA
100
AcDbEntity
8
0
100
AcDbVertex
62
7
6
CONTINUOUS
100
AcDb2dVertex
10
15.6479257089
20
10.2150887948
0
VERTEX
5
4AB
100
AcDbEntity
8
0
100
AcDbVertex
62
7
6
CONTINUOUS
100
AcDb2dVertex
10
15.6472403067
20
10.2087122034
0
VERTEX
5
4AC
100
AcDbEntity
8
0
100
AcDbVertex
62
7
6
CONTINUOUS
100
AcDb2dVertex
10
15.6461443866
20
10.2023636429
0
VERTEX
5
4AD
100
AcDbEntity
8
0
100
AcDbVertex
62
7
6
CONTINUOUS
100
AcDb2dVertex
10
15.6446560330
20
10.1961299190
0
VERTEX
5
4AE
100
AcDbEntity
8
0
100
AcDbVertex
62
7
6
CONTINUOUS
100
AcDb2dVertex
10
15.6427770544
20
10.1900390625
0
VERTEX
5
4AF
100
AcDbEntity
8
0
100
AcDbVertex
62
7
6
CONTINUOUS
100
AcDb2dVertex
10
15.6405038339
20
10.1840630425
0
VERTEX
5
4B0
100
AcDbEntity
8
0
100
AcDbVertex
62
7
6
CONTINUOUS
100
AcDb2dVertex
10
15.6378381800
20
10.1782000506
0
SEQEND
5
4B1
100
AcDbEntity
8
0
0
POLYLINE
5
4B2
100
AcDbEntity
8
0
100
AcDb2dPolyline
62
7
6
CONTINUOUS
66
1
70
0
0
VERTEX
5
4B3
100
AcDbEntity
8
0
100
AcDbVertex
62
7
6
CONTINUOUS
100
AcDb2dVertex
10
15.3849084925
20
9.4357774523
0
VERTEX
5
4B4
100
AcDbEntity
8
0
100
AcDbVertex
62
7
6
CONTINUOUS
100
AcDb2dVertex
10
15.3840060764
20
9.4319326895
0
VERTEX
5
4B5
100
AcDbEntity
8
0
100
AcDbVertex
62
7
6
CONTINUOUS
100
AcDb2dVertex
10
15.3828667535
20
9.4281855830
0
VERTEX
5
4B6
100
AcDbEntity
8
0
100
AcDbVertex
62
7
6
CONTINUOUS
100
AcDb2dVertex
10
15.3814887153
20
9.4245352286
0
VERTEX
5
4B7
100
AcDbEntity
8
0
100
AcDbVertex
62
7
6
CONTINUOUS
100
AcDb2dVertex
10
15.3798665365
20
9.4209671586
0
VERTEX
5
4B8
100
AcDbEntity
8
0
100
AcDbVertex
62
7
6
CONTINUOUS
100
AcDb2dVertex
10
15.3780092593
20
9.4174958406
0
VERTEX
5
4B9
100
AcDbEntity
8
0
100
AcDbVertex
62
7
6
CONTINUOUS
100
AcDb2dVertex
10
15.3759367766
20
9.4141673900
0
VERTEX
5
4BA
100
AcDbEntity
8
0
100
AcDbVertex
62
7
6
CONTINUOUS
100
AcDb2dVertex
10
15.3736490885
20
9.4109836155
0
VERTEX
5
4BB
100
AcDbEntity
8
0
100
AcDbVertex
62
7
6
CONTINUOUS
100
AcDb2dVertex
10
15.3711498119
20
9.4079418041
0
VERTEX
5
4BC
100
AcDbEntity
8
0
100
AcDbVertex
62
7
6
CONTINUOUS
100
AcDb2dVertex
10
15.3684678819
20
9.4050817419
0
VERTEX
5
4BD
100
AcDbEntity
8
0
100
AcDbVertex
62
7
6
CONTINUOUS
100
AcDb2dVertex
10
15.3656032986
20
9.4024043330
0
VERTEX
5
4BE
100
AcDbEntity
8
0
100
AcDbVertex
62
7
6
CONTINUOUS
100
AcDb2dVertex
10
15.3625578704
20
9.3999077691
0
VERTEX
5
4BF
100
AcDbEntity
8
0
100
AcDbVertex
62
7
6
CONTINUOUS
100
AcDb2dVertex
10
15.3593677662
20
9.3976246021
0
VERTEX
5
4C0
100
AcDbEntity
8
0
100
AcDbVertex
62
7
6
CONTINUOUS
100
AcDb2dVertex
10
15.3560347946
20
9.3955566406
0
VERTEX
5
4C1
100
AcDbEntity
8
0
100
AcDbVertex
62
7
6
CONTINUOUS
100
AcDb2dVertex
10
15.3525607639
20
9.3937011719
0
VERTEX
5
4C2
100
AcDbEntity
8
0
100
AcDbVertex
62
7
6
CONTINUOUS
100
AcDb2dVertex
10
15.3489854601
20
9.3920835142
0
VERTEX
5
4C3
100
AcDbEntity
8
0
100
AcDbVertex
62
7
6
CONTINUOUS
100
AcDb2dVertex
10
15.3453125000
20
9.3907045718
0
VERTEX
5
4C4
100
AcDbEntity
8
0
100
AcDbVertex
62
7
6
CONTINUOUS
100
AcDb2dVertex
10
15.3415400752
20
9.3895625362
0
VERTEX
5
4C5
100
AcDbEntity
8
0
100
AcDbVertex
62
7
6
CONTINUOUS
100
AcDb2dVertex
10
15.3377188223
20
9.3886718750
0
VERTEX
5
4C6
100
AcDbEntity
8
0
100
AcDbVertex
62
7
6
CONTINUOUS
100
AcDb2dVertex
10
15.3338668258
20
9.3880371094
0
VERTEX
5
4C7
100
AcDbEntity
8
0
100
AcDbVertex
62
7
6
CONTINUOUS
100
AcDb2dVertex
10
15.3299678096
20
9.3876537182
0
VERTEX
5
4C8
100
AcDbEntity
8
0
100
AcDbVertex
62
7
6
CONTINUOUS
100
AcDb2dVertex
10
15.3260199653
20
9.3875217014
0
SEQEND
5
4C9
100
AcDbEntity
8
0
0
CIRCLE
5
4CA
100
AcDbEntity
8
0
100
AcDbCircle
62
2
6
CONTINUOUS
10
12.8677337734
20
5.9345601124
40
0.0437680000
0
CIRCLE
5
4CB
100
AcDbEntity
8
DRAFT_ENT
100
AcDbCircle
62
2
6
CONTINUOUS
10
7.5403480045
20
16.7852915637
40
0.2980565910
0
CIRCLE
5
4CC
100
AcDbEntity
8
DRAFT_ENT
100
AcDbCircle
62
2
6
CONTINUOUS
10
7.5403480045
20
16.7852915637
40
0.1247694151
0
ARC
5
4CD
100
AcDbEntity
8
DRAFT_ENT
100
AcDbCircle
62
2
6
CONTINUOUS
10
9.3073788200
20
16.9043601295
40
0.1750166163
100
AcDbArc
50
294.4500166359
51
90.0000000000
0
ARC
5
4CE
100
AcDbEntity
8
DRAFT_ENT
100
AcDbCircle
62
2
6
CONTINUOUS
10
9.2804167214
20
16.8831790719
40
0.0536117350
100
AcDbArc
50
266.1604009902
51
89.9998910512
0
CIRCLE
5
4CF
100
AcDbEntity
8
DRAFT_ENT
100
AcDbCircle
62
2
6
CONTINUOUS
10
9.6800312852
20
16.4934559909
40
0.0653578721
0
ARC
5
4D0
100
AcDbEntity
8
DRAFT_ENT
100
AcDbCircle
62
2
6
CONTINUOUS
10
9.6884246187
20
16.5097500493
40
0.0168314496
100
AcDbArc
50
270.0000000000
51
90.0000000000
0
CIRCLE
5
4D1
100
AcDbEntity
8
0
100
AcDbCircle
62
2
6
CONTINUOUS
10
8.8490367986
20
13.3647821046
40
0.1952717905
0
CIRCLE
5
4D2
100
AcDbEntity
8
0
100
AcDbCircle
62
2
6
CONTINUOUS
10
8.8490367986
20
12.9891945655
40
0.1931021040
0
CIRCLE
5
4D3
100
AcDbEntity
8
0
100
AcDbCircle
62
2
6
CONTINUOUS
10
8.8519259336
20
13.7461479136
40
0.1952717905
0
ARC
5
4D4
100
AcDbEntity
8
0
100
AcDbCircle
62
7
6
CONTINUOUS
10
-9.3608915262
20
31.8554638230
40
20.5300000001
100
AcDbArc
50
313.1035544630
51
314.6780069980
0
ARC
5
4D5
100
AcDbEntity
8
0
100
AcDbCircle
62
7
6
CONTINUOUS
10
8.9202755444
20
13.3676589090
40
5.4700000256
100
AcDbArc
50
117.0814522411
51
134.6780069980
0
ARC
5
4D6
100
AcDbEntity
8
0
100
AcDbCircle
62
7
6
CONTINUOUS
10
15.9571950945
20
13.3676589090
40
5.4700000256
100
AcDbArc
50
45.3219930020
51
62.9185477589
0
ARC
5
4D7
100
AcDbEntity
8
0
100
AcDbCircle
62
7
6
CONTINUOUS
10
34.2383621651
20
31.8554638230
40
20.5300000001
100
AcDbArc
50
225.3219930020
51
226.8964455370
0
ARC
5
4D8
100
AcDbEntity
8
0
100
AcDbCircle
62
7
6
CONTINUOUS
10
15.5505575947
20
10.2225218279
40
0.1000000000
100
AcDbArc
50
333.6908900894
51
88.0274624768
0
ARC
5
4D9
100
AcDbEntity
8
0
100
AcDbCircle
62
7
6
CONTINUOUS
10
18.3294471068
20
8.8485592813
40
3.0000000000
100
AcDbArc
50
153.6908900894
51
168.7120798201
0
ARC
5
4DA
100
AcDbEntity
8
0
100
AcDbCircle
62
7
6
CONTINUOUS
10
14.4797798479
20
9.3875218279
40
0.0150000000
100
AcDbArc
50
270.0000000010
51
354.9858523720
0
ARC
5
4DB
100
AcDbEntity
8
0
100
AcDbCircle
62
7
6
CONTINUOUS
10
15.3286400095
20
9.4475218279
40
0.0600000000
100
AcDbArc
50
269.9998994006
51
348.7120601288
0
ARC
5
4DC
100
AcDbEntity
8
0
100
AcDbCircle
62
7
6
CONTINUOUS
10
15.2355575667
20
9.3875218279
40
0.0150000000
100
AcDbArc
50
277.5000980338
51
360.0000000000
0
SPLINE
5
4DD
100
AcDbEntity
8
DRAFT_ENT
100
AcDbSpline
62
2
6
CONTINUOUS
70
0
71
3
72
39
73
35
74
33
42
0.0000001000
43
0.0000001000
44
0.0000000001
40
0.0000000000
40
0.0000000000
40
0.0000000000
40
0.0000000000
40
0.0312500000
40
0.0625000000
40
0.0937500000
40
0.1250000000
40
0.1562500000
40
0.1875000000
40
0.2187500000
40
0.2500000000
40
0.2812500000
40
0.3125000000
40
0.3437500000
40
0.3750000000
40
0.4062500000
40
0.4375000000
40
0.4687500000
40
0.5000000000
40
0.5312500000
40
0.5625000000
40
0.5937500000
40
0.6250000000
40
0.6562500000
40
0.6875000000
40
0.7187500000
40
0.7500000000
40
0.7812500000
40
0.8125000000
40
0.8437500000
40
0.8750000000
40
0.9062500000
40
0.9375000000
40
0.9687500000
40
1.0000000000
40
1.0000000000
40
1.0000000000
40
1.0000000000
10
14.9613331544
20
15.1852936952
30
0.0000000000
10
14.9543578248
20
15.1836526779
30
0.0000000000
10
14.9407298729
20
15.1789997116
30
0.0000000000
10
14.9220374827
20
15.1681743432
30
0.0000000000
10
14.9058100554
20
15.1539173128
30
0.0000000000
10
14.8926684445
20
15.1367741221
30
0.0000000000
10
14.8831154997
20
15.1174007216
30
0.0000000000
10
14.8775167400
20
15.0965383918
30
0.0000000000
10
14.8760863908
20
15.0749853848
30
0.0000000000
10
14.8788791812
20
15.0535663799
30
0.0000000000
10
14.8857882510
20
15.0331009290
30
0.0000000000
10
14.8965492397
20
15.0143720984
30
0.0000000000
10
14.9107504013
20
14.9980965063
30
0.0000000000
10
14.9278483589
20
14.9848969031
30
0.0000000000
10
14.9471888963
20
14.9752783431
30
0.0000000000
10
14.9680319894
20
14.9696088597
30
0.0000000000
10
14.9895801224
20
14.9681053835
30
0.0000000000
10
15.0110088025
20
14.9708254416
30
0.0000000000
10
15.0314981076
20
14.9776649571
30
0.0000000000
10
15.0502640587
20
14.9883622305
30
0.0000000000
10
15.0665886172
20
15.0025079538
30
0.0000000000
10
15.0798471591
20
15.0195608716
30
0.0000000000
10
15.0895323750
20
15.0388684906
30
0.0000000000
10
15.0952736810
20
15.0596920467
30
0.0000000000
10
15.0968513985
20
15.0812347713
30
0.0000000000
10
15.0942051594
20
15.1026723788
30
0.0000000000
10
15.0874362164
20
15.1231846053
30
0.0000000000
10
15.0768035686
20
15.1419865949
30
0.0000000000
10
15.0627140510
20
15.1583589299
30
0.0000000000
10
15.0457067695
20
15.1716751586
30
0.0000000000
10
15.0264324672
20
15.1814257634
30
0.0000000000
10
15.0056286481
20
15.1872376616
30
0.0000000000
10
14.9840912712
20
15.1888884616
30
0.0000000000
10
14.9697935036
20
15.1871728497
30
0.0000000000
10
14.9627963834
20
15.1856273907
30
0.0000000000
11
14.9613331544
21
15.1852936952
31
0.0000000000
11
14.9410214625
21
15.1783587251
31
0.0000000000
11
14.9224483099
21
15.1676023996
31
0.0000000000
11
14.9063243581
21
15.1534362861
31
0.0000000000
11
14.8932665555
21
15.1364024205
31
0.0000000000
11
14.8837745305
21
15.1171525667
31
0.0000000000
11
14.8782114751
21
15.0964232789
31
0.0000000000
11
14.8767902474
21
15.0750077185
31
0.0000000000
11
14.8795652278
21
15.0537253056
31
0.0000000000
11
14.8864302375
21
15.0333903657
31
0.0000000000
11
14.8971226019
21
15.0147809715
31
0.0000000000
11
14.9112332006
21
14.9986091711
31
0.0000000000
11
14.9282221222
21
14.9854937436
31
0.0000000000
11
14.9474393222
21
14.9759365225
31
0.0000000000
11
14.9681494960
21
14.9703031942
31
0.0000000000
11
14.9895602136
21
14.9688093059
31
0.0000000000
11
15.0108522400
21
14.9715120179
31
0.0000000000
11
15.0312108820
21
14.9783079167
31
0.0000000000
11
15.0498571600
21
14.9889369722
31
0.0000000000
11
15.0660776144
21
15.0029924862
31
0.0000000000
11
15.0792516048
21
15.0199366551
31
0.0000000000
11
15.0888750567
21
15.0391211468
31
0.0000000000
11
15.0945797496
21
15.0598119081
31
0.0000000000
11
15.0961474057
21
15.0812172518
31
0.0000000000
11
15.0935180421
21
15.1025181486
31
0.0000000000
11
15.0867922656
21
15.1228995658
31
0.0000000000
11
15.0762274236
21
15.1415816524
31
0.0000000000
11
15.0622277570
21
15.1578495788
31
0.0000000000
11
15.0453289327
21
15.1710808879
31
0.0000000000
11
15.0261775477
21
15.1807693123
31
0.0000000000
11
15.0055063884
21
15.1865441452
31
0.0000000000
11
14.9841063921
21
15.1881844253
31
0.0000000000
11
14.9627963834
21
15.1856273907
31
0.0000000000
0
SPLINE
5
4DE
100
AcDbEntity
8
0
100
AcDbSpline
62
7
6
CONTINUOUS
70
0
71
3
72
24
73
20
74
18
42
0.0000001000
43
0.0000001000
44
0.0000000001
40
0.0000000000
40
0.0000000000
40
0.0000000000
40
0.0000000000
40
0.1053323177
40
0.2045736290
40
0.2921475288
40
0.3693001444
40
0.4376826908
40
0.4981121038
40
0.5511053963
40
0.5977164041
40
0.6399177179
40
0.6797867851
40
0.7193740416
40
0.7603879480
40
0.8043346164
40
0.8527374153
40
0.9052412735
40
0.9564671133
40
1.0000000000
40
1.0000000000
40
1.0000000000
40
1.0000000000
10
18.5090339888
20
7.0004832305
30
0.0000000000
10
18.7274595668
20
7.1093542765
30
0.0000000000
10
19.1426108985
20
7.3363266134
30
0.0000000000
10
19.7039165966
20
7.7054470326
30
0.0000000000
10
20.1790698597
20
8.0771557891
30
0.0000000000
10
20.5690844582
20
8.4354388982
30
0.0000000000
10
20.8871233775
20
8.7752458483
30
0.0000000000
10
21.1445339926
20
9.0928093048
30
0.0000000000
10
21.3513327482
20
9.3855274607
30
0.0000000000
10
21.5180757762
20
9.6545861274
30
0.0000000000
10
21.6551531186
20
9.9059923378
30
0.0000000000
10
21.7719044617
20
10.1498421123
30
0.0000000000
10
21.8748904568
20
10.3967359969
30
0.0000000000
10
21.9674490109
20
10.6565783444
30
0.0000000000
10
22.0504200660
20
10.9397911952
30
0.0000000000
10
22.1215122464
20
11.2528804576
30
0.0000000000
10
22.1741073473
20
11.5861469377
30
0.0000000000
10
22.2029481492
20
11.9118851459
30
0.0000000000
10
22.2087348909
20
12.1227070383
30
0.0000000000
10
22.2087353195
20
12.2196185368
30
0.0000000000
11
18.5090339888
21
7.0004832305
31
0.0000000000
11
19.1491122022
21
7.3514356727
31
0.0000000000
11
19.7199401564
21
7.7278163218
31
0.0000000000
11
20.1919185118
21
8.0978279630
31
0.0000000000
11
20.5784832535
21
8.4535341917
31
0.0000000000
11
20.8947471263
21
8.7918845578
31
0.0000000000
11
21.1510818532
21
9.1084504190
31
0.0000000000
11
21.3562992549
21
9.3991262549
31
0.0000000000
11
21.5205551211
21
9.6643310589
31
0.0000000000
11
21.6553465324
21
9.9116487030
31
0.0000000000
11
21.7700782677
21
10.1513077025
31
0.0000000000
11
21.8714988513
21
10.3945290176
31
0.0000000000
11
21.9628735453
21
10.6511989103
31
0.0000000000
11
22.0449006741
21
10.9311186898
31
0.0000000000
11
22.1161313308
21
11.2446945364
31
0.0000000000
11
22.1705662535
21
11.5895132445
31
0.0000000000
11
22.2007224738
21
11.9292581024
31
0.0000000000
11
22.2087353195
21
12.2196185368
31
0.0000000000
0
SPLINE
5
4DF
100
AcDbEntity
8
0
100
AcDbSpline
62
7
6
CONTINUOUS
70
0
71
3
72
17
73
13
74
11
42
0.0000001000
43
0.0000001000
44
0.0000000001
40
0.0000000000
40
0.0000000000
40
0.0000000000
40
0.0000000000
40
0.0729808325
40
0.1555911892
40
0.2477970538
40
0.3479057948
40
0.4525452011
40
0.5591514571
40
0.6661705617
40
0.7741250218
40
0.8849406286
40
1.0000000000
40
1.0000000000
40
1.0000000000
40
1.0000000000
10
22.2087353195
20
12.2196137095
30
0.0000000000
10
22.2087346505
20
12.3474615559
30
0.0000000000
10
22.2015494240
20
12.6196852094
30
0.0000000000
10
22.1648166320
20
13.0503444158
30
0.0000000000
10
22.0913563589
20
13.5229296099
30
0.0000000000
10
21.9724737052
20
14.0244851743
30
0.0000000000
10
21.8033204976
20
14.5365679388
30
0.0000000000
10
21.5838103538
20
15.0416588789
30
0.0000000000
10
21.3158032772
20
15.5295572595
30
0.0000000000
10
20.9996034033
20
15.9976567034
30
0.0000000000
10
20.6324620341
20
16.4470617089
30
0.0000000000
10
20.3565357817
20
16.7287426776
30
0.0000000000
10
20.2098195611
20
16.8660559505
30
0.0000000000
11
22.2087353195
21
12.2196137095
31
0.0000000000
11
22.1985004907
21
12.6024382655
31
0.0000000000
11
22.1615949406
21
13.0329265353
31
0.0000000000
11
22.0875821495
21
13.5080203988
31
0.0000000000
11
21.9672909836
21
14.0146642093
31
0.0000000000
11
21.7967993466
21
14.5303434111
31
0.0000000000
11
21.5764503271
21
15.0372891018
31
0.0000000000
11
21.3092754633
21
15.5238560238
31
0.0000000000
11
20.9954965465
21
15.9887190787
31
0.0000000000
11
20.6305073359
21
16.4359584764
31
0.0000000000
11
20.2098195611
21
16.8660559505
31
0.0000000000
0
SPLINE
5
4E0
100
AcDbEntity
8
0
100
AcDbSpline
62
7
6
CONTINUOUS
70
0
71
3
72
19
73
15
74
13
42
0.0000001000
43
0.0000001000
44
0.0000000001
40
0.0000000000
40
0.0000000000
40
0.0000000000
40
0.0000000000
40
0.0445969096
40
0.0939496073
40
0.1486958462
40
0.2094588645
40
0.2768621249
40
0.3515306337
40
0.4341189963
40
0.5261373583
40
0.6302352970
40
0.7478079630
40
0.8768792687
40
1.0000000000
40
1.0000000000
40
1.0000000000
40
1.0000000000
10
12.4387354007
20
19.5179375587
30
0.0000000000
10
12.3456365777
20
19.5179375435
30
0.0000000000
10
12.1495691200
20
19.5164248375
30
0.0000000000
10
11.8395367524
20
19.5088789077
30
0.0000000000
10
11.4962736990
20
19.4940379360
30
0.0000000000
10
11.1162078392
20
19.4693926127
30
0.0000000000
10
10.6959868755
20
19.4317044936
30
0.0000000000
10
10.2325005455
20
19.3768258988
30
0.0000000000
10
9.7212885408
20
19.2992027129
30
0.0000000000
10
9.1545294026
20
19.1907615139
30
0.0000000000
10
8.5243209294
20
19.0400322691
30
0.0000000000
10
7.8320626584
20
18.8333206943
30
0.0000000000
10
7.1211289334
20
18.5680416787
30
0.0000000000
10
6.6532147431
20
18.3520511038
30
0.0000000000
10
6.4300199397
20
18.2379286165
30
0.0000000000
11
12.4387354007
21
19.5179375587
31
0.0000000000
11
12.1595350890
21
19.5157679629
31
0.0000000000
11
11.8508498709
21
19.5082337089
31
0.0000000000
11
11.5089121286
21
19.4934192672
31
0.0000000000
11
11.1301814872
21
19.4688161492
31
0.0000000000
11
10.7113162986
21
19.4311847622
31
0.0000000000
11
10.2492743858
21
19.3763807805
31
0.0000000000
11
9.7413012200
21
19.2991041138
31
0.0000000000
11
9.1801526243
21
19.1915146696
31
0.0000000000
11
8.5531189028
21
19.0411858190
31
0.0000000000
11
7.8576176046
21
18.8329196312
31
0.0000000000
11
7.1141321658
21
18.5545887277
31
0.0000000000
11
6.4300199397
21
18.2379286165
31
0.0000000000
0
SPLINE
5
4E1
100
AcDbEntity
8
0
100
AcDbSpline
62
7
6
CONTINUOUS
70
0
71
3
72
25
73
21
74
19
42
0.0000001000
43
0.0000001000
44
0.0000000001
40
0.0000000000
40
0.0000000000
40
0.0000000000
40
0.0000000000
40
0.0771059492
40
0.1168906060
40
0.1641380548
40
0.2127979861
40
0.2577785521
40
0.2986573989
40
0.3367797395
40
0.3734760517
40
0.4103153764
40
0.4492478187
40
0.4922511586
40
0.5411934549
40
0.5970286603
40
0.6602022072
40
0.7314589613
40
0.8123310250
40
0.9039575174
40
1.0000000000
40
1.0000000000
40
1.0000000000
40
1.0000000000
10
2.6978442896
20
12.7768605338
30
0.0000000000
10
2.6785250338
20
12.5918601013
30
0.0000000000
10
2.6636830746
20
12.3095812952
30
0.0000000000
10
2.6744386903
20
11.9138904225
30
0.0000000000
10
2.7030475405
20
11.5886472101
30
0.0000000000
10
2.7556730240
20
11.2541999663
30
0.0000000000
10
2.8271817498
20
10.9391464616
30
0.0000000000
10
2.9108667153
20
10.6538893669
30
0.0000000000
10
3.0042437176
20
10.3924089256
30
0.0000000000
10
3.1079435456
20
10.1445580024
30
0.0000000000
10
3.2251910211
20
9.9004324985
30
0.0000000000
10
3.3625999639
20
9.6491477992
30
0.0000000000
10
3.5296741201
20
9.3802510105
30
0.0000000000
10
3.7369380793
20
9.0875793964
30
0.0000000000
10
3.9949841406
20
8.7699770004
30
0.0000000000
10
4.3137450766
20
8.4301857522
30
0.0000000000
10
4.7045038525
20
8.0720408068
30
0.0000000000
10
5.1803792580
20
7.7006102166
30
0.0000000000
10
5.7398591315
20
7.3335245445
30
0.0000000000
10
6.1526300078
20
7.1080976927
30
0.0000000000
10
6.3684310145
20
7.0005347852
30
0.0000000000
11
2.6978442896
21
12.7768605338
31
0.0000000000
11
2.6687353195
21
12.2196666796
31
0.0000000000
11
2.6765923431
21
11.9321320624
31
0.0000000000
11
2.7065364922
21
11.5925697719
31
0.0000000000
11
2.7610440570
21
11.2462693935
31
0.0000000000
11
2.8327411395
21
10.9305124553
31
0.0000000000
11
2.9155215702
21
10.6484094567
31
0.0000000000
11
3.0077575950
21
10.3899688989
31
0.0000000000
11
3.1098941020
21
10.1457748297
31
0.0000000000
11
3.2250577358
21
9.9059607077
31
0.0000000000
11
3.3601043779
21
9.6588901593
31
0.0000000000
11
3.5246257900
21
9.3939436297
31
0.0000000000
11
3.7303324593
21
9.1032742602
31
0.0000000000
11
3.9873482022
21
8.7866089487
31
0.0000000000
11
4.3043467370
21
8.4482559747
31
0.0000000000
11
4.6916365479
21
8.0926969785
31
0.0000000000
11
5.1643558721
21
7.7229435469
31
0.0000000000
11
5.7358506707
21
7.3469767539
31
0.0000000000
11
6.3684310145
21
7.0005347852
31
0.0000000000
0
SPLINE
5
4E2
100
AcDbEntity
8
0
100
AcDbSpline
62
7
6
CONTINUOUS
70
0
71
3
72
13
73
9
74
7
42
0.0000001000
43
0.0000001000
44
0.0000000001
40
0.0000000000
40
0.0000000000
40
0.0000000000
40
0.0000000000
40
0.0933495159
40
0.2388049324
40
0.3985415460
40
0.5764719460
40
0.7761522538
40
1.0000000000
40
1.0000000000
40
1.0000000000
40
1.0000000000
10
7.3191759074
20
6.5266496700
30
0.0000000000
10
7.4666864309
20
6.4531251715
30
0.0000000000
10
7.8498090841
20
6.2771789244
30
0.0000000000
10
8.5086340383
20
6.0323952394
30
0.0000000000
10
9.3282190334
20
5.8047985755
30
0.0000000000
10
10.2559241036
20
5.6275133573
30
0.0000000000
10
11.3050347731
20
5.5117584167
30
0.0000000000
10
12.0469925784
20
5.4863578771
30
0.0000000000
10
12.4387377034
20
5.4863663930
30
0.0000000000
11
7.3191759074
21
6.5266496700
31
0.0000000000
11
7.7679930243
21
6.3200424074
31
0.0000000000
11
8.4880307072
21
6.0510873036
31
0.0000000000
11
9.2996229463
21
5.8240369720
31
0.0000000000
11
10.2198683286
21
5.6462148090
31
0.0000000000
11
11.2635929500
21
5.5288820032
31
0.0000000000
11
12.4387377034
21
5.4863663930
31
0.0000000000
0
SPLINE
5
4E3
100
AcDbEntity
8
0
100
AcDbSpline
62
7
6
CONTINUOUS
70
0
71
3
72
24
73
20
74
18
42
0.0000001000
43
0.0000001000
44
0.0000000001
40
0.0000000000
40
0.0000000000
40
0.0000000000
40
0.0000000000
40
0.1053323177
40
0.2045736290
40
0.2921475288
40
0.3693001444
40
0.4376826908
40
0.4981121038
40
0.5511053963
40
0.5977164041
40
0.6399177179
40
0.6797867851
40
0.7193740416
40
0.7603879480
40
0.8043346164
40
0.8527374153
40
0.9052412735
40
0.9564671133
40
1.0000000000
40
1.0000000000
40
1.0000000000
40
1.0000000000
10
18.5090339888
20
7.0005317969
30
0.0000000000
10
18.7274595668
20
7.1094028430
30
0.0000000000
10
19.1426108985
20
7.3363751798
30
0.0000000000
10
19.7039165966
20
7.7054955991
30
0.0000000000
10
20.1790698597
20
8.0772043555
30
0.0000000000
10
20.5690844582
20
8.4354874647
30
0.0000000000
10
20.8871233775
20
8.7752944148
30
0.0000000000
10
21.1445339926
20
9.0928578713
30
0.0000000000
10
21.3513327483
20
9.3855760272
30
0.0000000000
10
21.5180757762
20
9.6546346938
30
0.0000000000
10
21.6551531186
20
9.9060409043
30
0.0000000000
10
21.7719044617
20
10.1498906788
30
0.0000000000
10
21.8748904569
20
10.3967845634
30
0.0000000000
10
21.9674490109
20
10.6566269109
30
0.0000000000
10
22.0504200660
20
10.9398397617
30
0.0000000000
10
22.1215122464
20
11.2529290241
30
0.0000000000
10
22.1741073473
20
11.5861955041
30
0.0000000000
10
22.2029481492
20
11.9119337124
30
0.0000000000
10
22.2087348910
20
12.1227556047
30
0.0000000000
10
22.2087353195
20
12.2196671033
30
0.0000000000
11
18.5090339888
21
7.0005317969
31
0.0000000000
11
19.1491122022
21
7.3514842391
31
0.0000000000
11
19.7199401565
21
7.7278648882
31
0.0000000000
11
20.1919185118
21
8.0978765294
31
0.0000000000
11
20.5784832535
21
8.4535827582
31
0.0000000000
11
20.8947471263
21
8.7919331243
31
0.0000000000
11
21.1510818532
21
9.1084989855
31
0.0000000000
11
21.3562992550
21
9.3991748214
31
0.0000000000
11
21.5205551211
21
9.6643796254
31
0.0000000000
11
21.6553465324
21
9.9116972694
31
0.0000000000
11
21.7700782677
21
10.1513562689
31
0.0000000000
11
21.8714988513
21
10.3945775841
31
0.0000000000
11
21.9628735453
21
10.6512474768
31
0.0000000000
11
22.0449006741
21
10.9311672562
31
0.0000000000
11
22.1161313308
21
11.2447431028
31
0.0000000000
11
22.1705662536
21
11.5895618109
31
0.0000000000
11
22.2007224738
21
11.9293066688
31
0.0000000000
11
22.2087353195
21
12.2196671033
31
0.0000000000
0
SPLINE
5
4E4
100
AcDbEntity
8
0
100
AcDbSpline
62
7
6
CONTINUOUS
70
0
71
3
72
17
73
13
74
11
42
0.0000001000
43
0.0000001000
44
0.0000000001
40
0.0000000000
40
0.0000000000
40
0.0000000000
40
0.0000000000
40
0.1150593625
40
0.2258749614
40
0.3338294134
40
0.4408485089
40
0.5474547575
40
0.6520941619
40
0.7522029084
40
0.8444087846
40
0.9270191552
40
1.0000000000
40
1.0000000000
40
1.0000000000
40
1.0000000000
10
4.6676511247
20
16.8661045608
30
-2.1755000000
10
4.5209348791
20
16.7287912293
30
-2.1755000000
10
4.2450086093
20
16.4471102935
30
-2.1755000000
10
3.8778673000
20
15.9977053490
30
-2.1755000000
10
3.5616674278
20
15.5296059338
30
-2.1755000000
10
3.2936603638
20
15.0417076004
30
-2.1755000000
10
3.0741502158
20
14.5366167025
30
-2.1755000000
10
2.9049969901
20
14.0245339280
30
-2.1755000000
10
2.7861143157
20
13.5229784070
30
-2.1755000000
10
2.7126540279
20
13.0503930075
30
-2.1755000000
10
2.6759211779
20
12.6197340163
30
-2.1755000000
10
2.6687360790
20
12.3475101993
30
-2.1755000000
10
2.6687353195
20
12.2196619219
30
-2.1755000000
11
4.6676511247
21
16.8661045608
31
-2.1755000000
11
4.2469633228
21
16.4360070644
31
-2.1755000000
11
3.8819741470
21
15.9887677188
31
-2.1755000000
11
3.5681952427
21
15.5239047001
31
-2.1755000000
11
3.3010203895
21
15.0373378266
31
-2.1755000000
11
3.0806713691
21
14.5303921791
31
-2.1755000000
11
2.9101797158
21
14.0147129904
31
-2.1755000000
11
2.7898885287
21
13.5080691671
31
-2.1755000000
11
2.7158757111
21
13.0329752075
31
-2.1755000000
11
2.6789701553
21
12.6024869976
31
-2.1755000000
11
2.6687353195
21
12.2196619219
31
-2.1755000000
0
SPLINE
5
4E5
100
AcDbEntity
8
0
100
AcDbSpline
62
7
6
CONTINUOUS
70
0
71
3
72
24
73
20
74
18
42
0.0000001000
43
0.0000001000
44
0.0000000001
40
0.0000000000
40
0.0000000000
40
0.0000000000
40
0.0000000000
40
0.0431085852
40
0.0943034637
40
0.1470288347
40
0.1957674370
40
0.2400616296
40
0.2813690153
40
0.3211312309
40
0.3610484073
40
0.4032335773
40
0.4498297600
40
0.5028610872
40
0.5633612121
40
0.6318127823
40
0.7090228954
40
0.7966516581
40
0.8959333603
40
1.0000000000
40
1.0000000000
40
1.0000000000
40
1.0000000000
10
2.6687353195
20
12.2196666796
30
-2.1755000000
10
2.6687356625
20
12.1237004502
30
-2.1755000000
10
2.6744386903
20
11.9138904225
30
-2.1755000000
10
2.7030475405
20
11.5886472101
30
-2.1755000000
10
2.7556730240
20
11.2541999663
30
-2.1755000000
10
2.8271817498
20
10.9391464616
30
-2.1755000000
10
2.9108667153
20
10.6538893669
30
-2.1755000000
10
3.0042437176
20
10.3924089256
30
-2.1755000000
10
3.1079435456
20
10.1445580024
30
-2.1755000000
10
3.2251910211
20
9.9004324985
30
-2.1755000000
10
3.3625999639
20
9.6491477992
30
-2.1755000000
10
3.5296741201
20
9.3802510105
30
-2.1755000000
10
3.7369380793
20
9.0875793964
30
-2.1755000000
10
3.9949841406
20
8.7699770004
30
-2.1755000000
10
4.3137450766
20
8.4301857522
30
-2.1755000000
10
4.7045038525
20
8.0720408068
30
-2.1755000000
10
5.1803792580
20
7.7006102166
30
-2.1755000000
10
5.7398591315
20
7.3335245445
30
-2.1755000000
10
6.1526300078
20
7.1080976927
30
-2.1755000000
10
6.3684310145
20
7.0005347852
30
-2.1755000000
11
2.6687353195
21
12.2196666796
31
-2.1755000000
11
2.6765923431
21
11.9321320624
31
-2.1755000000
11
2.7065364922
21
11.5925697719
31
-2.1755000000
11
2.7610440570
21
11.2462693935
31
-2.1755000000
11
2.8327411395
21
10.9305124553
31
-2.1755000000
11
2.9155215702
21
10.6484094567
31
-2.1755000000
11
3.0077575950
21
10.3899688989
31
-2.1755000000
11
3.1098941020
21
10.1457748297
31
-2.1755000000
11
3.2250577358
21
9.9059607077
31
-2.1755000000
11
3.3601043779
21
9.6588901593
31
-2.1755000000
11
3.5246257900
21
9.3939436297
31
-2.1755000000
11
3.7303324593
21
9.1032742602
31
-2.1755000000
11
3.9873482022
21
8.7866089487
31
-2.1755000000
11
4.3043467370
21
8.4482559747
31
-2.1755000000
11
4.6916365479
21
8.0926969785
31
-2.1755000000
11
5.1643558721
21
7.7229435469
31
-2.1755000000
11
5.7358506707
21
7.3469767539
31
-2.1755000000
11
6.3684310145
21
7.0005347852
31
-2.1755000000
0
SPLINE
5
4E6
100
AcDbEntity
8
0
100
AcDbSpline
62
7
6
CONTINUOUS
70
0
71
3
72
13
73
9
74
7
42
0.0000001000
43
0.0000001000
44
0.0000000001
40
0.0000000000
40
0.0000000000
40
0.0000000000
40
0.0000000000
40
0.0933495159
40
0.2388049324
40
0.3985415460
40
0.5764719460
40
0.7761522538
40
1.0000000000
40
1.0000000000
40
1.0000000000
40
1.0000000000
10
7.3191759074
20
6.5266496700
30
-2.1755000000
10
7.4666864309
20
6.4531251715
30
-2.1755000000
10
7.8498090841
20
6.2771789244
30
-2.1755000000
10
8.5086340383
20
6.0323952394
30
-2.1755000000
10
9.3282190334
20
5.8047985755
30
-2.1755000000
10
10.2559241036
20
5.6275133573
30
-2.1755000000
10
11.3050347731
20
5.5117584167
30
-2.1755000000
10
12.0469925784
20
5.4863578771
30
-2.1755000000
10
12.4387377034
20
5.4863663930
30
-2.1755000000
11
7.3191759074
21
6.5266496700
31
-2.1755000000
11
7.7679930243
21
6.3200424074
31
-2.1755000000
11
8.4880307072
21
6.0510873036
31
-2.1755000000
11
9.2996229463
21
5.8240369720
31
-2.1755000000
11
10.2198683286
21
5.6462148090
31
-2.1755000000
11
11.2635929500
21
5.5288820032
31
-2.1755000000
11
12.4387377034
21
5.4863663930
31
-2.1755000000
0
SPLINE
5
4E7
100
AcDbEntity
8
0
100
AcDbSpline
62
7
6
CONTINUOUS
70
0
71
3
72
19
73
15
74
13
42
0.0000001000
43
0.0000001000
44
0.0000000001
40
0.0000000000
40
0.0000000000
40
0.0000000000
40
0.0000000000
40
0.0445969096
40
0.0939496073
40
0.1486958462
40
0.2094588645
40
0.2768621249
40
0.3515306337
40
0.4341189963
40
0.5261373583
40
0.6302352970
40
0.7478079630
40
0.8768792687
40
1.0000000000
40
1.0000000000
40
1.0000000000
40
1.0000000000
10
12.4387354007
20
19.5179375587
30
-2.1755000000
10
12.3456365777
20
19.5179375435
30
-2.1755000000
10
12.1495691200
20
19.5164248375
30
-2.1755000000
10
11.8395367524
20
19.5088789077
30
-2.1755000000
10
11.4962736990
20
19.4940379360
30
-2.1755000000
10
11.1162078392
20
19.4693926127
30
-2.1755000000
10
10.6959868755
20
19.4317044936
30
-2.1755000000
10
10.2325005455
20
19.3768258988
30
-2.1755000000
10
9.7212885408
20
19.2992027129
30
-2.1755000000
10
9.1545294026
20
19.1907615139
30
-2.1755000000
10
8.5243209294
20
19.0400322691
30
-2.1755000000
10
7.8320626584
20
18.8333206943
30
-2.1755000000
10
7.1211289334
20
18.5680416787
30
-2.1755000000
10
6.6532147431
20
18.3520511038
30
-2.1755000000
10
6.4300199397
20
18.2379286165
30
-2.1755000000
11
12.4387354007
21
19.5179375587
31
-2.1755000000
11
12.1595350890
21
19.5157679629
31
-2.1755000000
11
11.8508498709
21
19.5082337089
31
-2.1755000000
11
11.5089121286
21
19.4934192672
31
-2.1755000000
11
11.1301814872
21
19.4688161492
31
-2.1755000000
11
10.7113162986
21
19.4311847622
31
-2.1755000000
11
10.2492743858
21
19.3763807805
31
-2.1755000000
11
9.7413012200
21
19.2991041138
31
-2.1755000000
11
9.1801526243
21
19.1915146696
31
-2.1755000000
11
8.5531189028
21
19.0411858190
31
-2.1755000000
11
7.8576176046
21
18.8329196312
31
-2.1755000000
11
7.1141321658
21
18.5545887277
31
-2.1755000000
11
6.4300199397
21
18.2379286165
31
-2.1755000000
0
SPLINE
5
4E8
100
AcDbEntity
8
0
100
AcDbSpline
62
7
6
CONTINUOUS
70
0
71
3
72
19
73
15
74
13
42
0.0000001000
43
0.0000001000
44
0.0000000001
40
0.0000000000
40
0.0000000000
40
0.0000000000
40
0.0000000000
40
0.1231200816
40
0.2522088659
40
0.3697924470
40
0.4738899396
40
0.5659009076
40
0.6484824529
40
0.7231471255
40
0.7905485782
40
0.8513107934
40
0.9060562100
40
0.9554070424
40
1.0000000000
40
1.0000000000
40
1.0000000000
40
1.0000000000
10
18.4474505629
20
18.2379286862
30
-2.1755000000
10
18.2242571312
20
18.3520505584
30
-2.1755000000
10
17.7563117898
20
18.5680555134
30
-2.1755000000
10
17.0453229697
20
18.8333512350
30
-2.1755000000
10
16.3530066441
20
19.0400713004
30
-2.1755000000
10
15.7227895435
20
19.1907937678
30
-2.1755000000
10
15.1560587911
20
19.2992232894
30
-2.1755000000
10
14.6448831010
20
19.3768372860
30
-2.1755000000
10
14.1814221450
20
19.4317107385
30
-2.1755000000
10
13.7612143608
20
19.4693962911
30
-2.1755000000
10
13.3811555329
20
19.4940401400
30
-2.1755000000
10
13.0378996809
20
19.5088800130
30
-2.1755000000
10
12.7278811344
20
19.5164250661
30
-2.1755000000
10
12.5318258116
20
19.5179375418
30
-2.1755000000
10
12.4387352291
20
19.5179375587
30
-2.1755000000
11
18.4474505629
21
18.2379286862
31
-2.1755000000
11
17.7633422011
21
18.5545871709
31
-2.1755000000
11
17.0197545754
21
18.8329524816
31
-2.1755000000
11
16.3241858586
21
19.0412300771
31
-2.1755000000
11
15.6971523761
21
19.1915500548
31
-2.1755000000
11
15.1360474143
21
19.2991249078
31
-2.1755000000
11
14.6281154609
21
19.3763916253
31
-2.1755000000
11
14.1660969416
21
19.4311906901
31
-2.1755000000
11
13.7472428070
21
19.4688196995
31
-2.1755000000
11
13.3685170665
21
19.4934214830
31
-2.1755000000
11
13.0265843963
21
19.5082349197
31
-2.1755000000
11
12.7179108169
21
19.5157683488
31
-2.1755000000
11
12.4387352291
21
19.5179375587
31
-2.1755000000
0
SPLINE
5
4E9
100
AcDbEntity
8
0
100
AcDbSpline
62
7
6
CONTINUOUS
70
0
71
3
72
17
73
13
74
11
42
0.0000001000
43
0.0000001000
44
0.0000000001
40
0.0000000000
40
0.0000000000
40
0.0000000000
40
0.0000000000
40
0.0729808325
40
0.1555911892
40
0.2477970538
40
0.3479057948
40
0.4525452011
40
0.5591514571
40
0.6661705617
40
0.7741250218
40
0.8849406286
40
1.0000000000
40
1.0000000000
40
1.0000000000
40
1.0000000000
10
22.2087353195
20
12.2196622760
30
-2.1755000000
10
22.2087346505
20
12.3475101224
30
-2.1755000000
10
22.2015494240
20
12.6197337759
30
-2.1755000000
10
22.1648166320
20
13.0503929823
30
-2.1755000000
10
22.0913563589
20
13.5229781763
30
-2.1755000000
10
21.9724737052
20
14.0245337407
30
-2.1755000000
10
21.8033204976
20
14.5366165052
30
-2.1755000000
10
21.5838103538
20
15.0417074454
30
-2.1755000000
10
21.3158032773
20
15.5296058260
30
-2.1755000000
10
20.9996034033
20
15.9977052698
30
-2.1755000000
10
20.6324620341
20
16.4471102753
30
-2.1755000000
10
20.3565357817
20
16.7287912441
30
-2.1755000000
10
20.2098195611
20
16.8661045170
30
-2.1755000000
11
22.2087353195
21
12.2196622760
31
-2.1755000000
11
22.1985004907
21
12.6024868319
31
-2.1755000000
11
22.1615949406
21
13.0329751018
31
-2.1755000000
11
22.0875821495
21
13.5080689653
31
-2.1755000000
11
21.9672909837
21
14.0147127758
31
-2.1755000000
11
21.7967993466
21
14.5303919776
31
-2.1755000000
11
21.5764503271
21
15.0373376683
31
-2.1755000000
11
21.3092754633
21
15.5239045903
31
-2.1755000000
11
20.9954965465
21
15.9887676452
31
-2.1755000000
11
20.6305073359
21
16.4360070428
31
-2.1755000000
11
20.2098195611
21
16.8661045170
31
-2.1755000000
0
SPLINE
5
4EA
100
AcDbEntity
8
0
100
AcDbSpline
62
7
6
CONTINUOUS
70
0
71
3
72
13
73
9
74
7
42
0.0000001000
43
0.0000001000
44
0.0000000001
40
0.0000000000
40
0.0000000000
40
0.0000000000
40
0.0000000000
40
0.2238477926
40
0.4235281417
40
0.6014585776
40
0.7611952223
40
0.9066506663
40
1.0000000000
40
1.0000000000
40
1.0000000000
40
1.0000000000
10
12.4387328314
20
5.4863663930
30
-2.1755000000
10
12.8304775780
20
5.4863590041
30
-2.1755000000
10
13.5724353422
20
5.5117578972
30
-2.1755000000
10
14.6215463147
20
5.6275134261
30
-2.1755000000
10
15.5492513502
20
5.8047984947
30
-2.1755000000
10
16.3688364346
20
6.0323951879
30
-2.1755000000
10
17.0276610899
20
6.2771787455
30
-2.1755000000
10
17.4107834565
20
6.4531248246
30
-2.1755000000
10
17.5582936832
20
6.5266491474
30
-2.1755000000
11
12.4387328314
21
5.4863663930
31
-2.1755000000
11
13.6138772346
21
5.5288819655
31
-2.1755000000
11
14.6576020429
21
5.6462147667
31
-2.1755000000
11
15.5778474623
21
5.8240369186
31
-2.1755000000
11
16.3894397614
21
6.0510872476
31
-2.1755000000
11
17.1094774864
21
6.3200423532
31
-2.1755000000
11
17.5582936832
21
6.5266491474
31
-2.1755000000
0
SPLINE
5
4EB
100
AcDbEntity
8
0
100
AcDbSpline
62
7
6
CONTINUOUS
70
0
71
3
72
24
73
20
74
18
42
0.0000001000
43
0.0000001000
44
0.0000000001
40
0.0000000000
40
0.0000000000
40
0.0000000000
40
0.0000000000
40
0.1053323177
40
0.2045736290
40
0.2921475288
40
0.3693001444
40
0.4376826908
40
0.4981121038
40
0.5511053963
40
0.5977164041
40
0.6399177179
40
0.6797867851
40
0.7193740416
40
0.7603879480
40
0.8043346164
40
0.8527374153
40
0.9052412735
40
0.9564671133
40
1.0000000000
40
1.0000000000
40
1.0000000000
40
1.0000000000
10
18.5090339888
20
7.0005317969
30
-2.1755000000
10
18.7274595668
20
7.1094028430
30
-2.1755000000
10
19.1426108985
20
7.3363751798
30
-2.1755000000
10
19.7039165966
20
7.7054955991
30
-2.1755000000
10
20.1790698597
20
8.0772043555
30
-2.1755000000
10
20.5690844582
20
8.4354874647
30
-2.1755000000
10
20.8871233775
20
8.7752944148
30
-2.1755000000
10
21.1445339926
20
9.0928578713
30
-2.1755000000
10
21.3513327483
20
9.3855760272
30
-2.1755000000
10
21.5180757762
20
9.6546346938
30
-2.1755000000
10
21.6551531186
20
9.9060409043
30
-2.1755000000
10
21.7719044617
20
10.1498906788
30
-2.1755000000
10
21.8748904569
20
10.3967845634
30
-2.1755000000
10
21.9674490109
20
10.6566269109
30
-2.1755000000
10
22.0504200660
20
10.9398397617
30
-2.1755000000
10
22.1215122464
20
11.2529290241
30
-2.1755000000
10
22.1741073473
20
11.5861955041
30
-2.1755000000
10
22.2029481492
20
11.9119337124
30
-2.1755000000
10
22.2087348910
20
12.1227556047
30
-2.1755000000
10
22.2087353195
20
12.2196671033
30
-2.1755000000
11
18.5090339888
21
7.0005317969
31
-2.1755000000
11
19.1491122022
21
7.3514842391
31
-2.1755000000
11
19.7199401565
21
7.7278648882
31
-2.1755000000
11
20.1919185118
21
8.0978765294
31
-2.1755000000
11
20.5784832535
21
8.4535827582
31
-2.1755000000
11
20.8947471263
21
8.7919331243
31
-2.1755000000
11
21.1510818532
21
9.1084989855
31
-2.1755000000
11
21.3562992550
21
9.3991748214
31
-2.1755000000
11
21.5205551211
21
9.6643796254
31
-2.1755000000
11
21.6553465324
21
9.9116972694
31
-2.1755000000
11
21.7700782677
21
10.1513562689
31
-2.1755000000
11
21.8714988513
21
10.3945775841
31
-2.1755000000
11
21.9628735453
21
10.6512474768
31
-2.1755000000
11
22.0449006741
21
10.9311672562
31
-2.1755000000
11
22.1161313308
21
11.2447431028
31
-2.1755000000
11
22.1705662536
21
11.5895618109
31
-2.1755000000
11
22.2007224738
21
11.9293066688
31
-2.1755000000
11
22.2087353195
21
12.2196671033
31
-2.1755000000
0
SPLINE
5
4EC
100
AcDbEntity
8
DEFAULT_2
100
AcDbSpline
62
8
6
HIDDEN
70
0
71
3
72
34
73
30
74
28
42
0.0000001000
43
0.0000001000
44
0.0000000001
40
0.0000000000
40
0.0000000000
40
0.0000000000
40
0.0000000000
40
0.0453914737
40
0.0872479213
40
0.1265482326
40
0.1639509401
40
0.1999575406
40
0.2349306144
40
0.2691576742
40
0.3028677160
40
0.3362483195
40
0.3694560457
40
0.4026233201
40
0.4358652292
40
0.4692824059
40
0.5029654550
40
0.5369967468
40
0.5714531253
40
0.6064076338
40
0.6419310150
40
0.6780938581
40
0.7149671418
40
0.7526252773
40
0.7911457598
40
0.8306138432
40
0.8711211445
40
0.9127729510
40
0.9556857507
40
1.0000000000
40
1.0000000000
40
1.0000000000
40
1.0000000000
10
1.3384521252
20
12.2196648923
30
-2.1755000000
10
1.3384521252
20
11.9909665888
30
-2.1755000000
10
1.3611911248
20
11.5509628284
30
-2.1755000000
10
1.4595853141
20
10.9199244765
30
-2.1755000000
10
1.6083354766
20
10.3403450330
30
-2.1755000000
10
1.8002796399
20
9.8050025369
30
-2.1755000000
10
2.0283566833
20
9.3080946093
30
-2.1755000000
10
2.2886995054
20
8.8457132595
30
-2.1755000000
10
2.5774011294
20
8.4145137342
30
-2.1755000000
10
2.8919110356
20
8.0120451036
30
-2.1755000000
10
3.2298073653
20
7.6360436461
30
-2.1755000000
10
3.5894573427
20
7.2848490781
30
-2.1755000000
10
3.9693699582
20
6.9569166932
30
-2.1755000000
10
4.3684901300
20
6.6510764948
30
-2.1755000000
10
4.7859174645
20
6.3662753141
30
-2.1755000000
10
5.2210124119
20
6.1017091025
30
-2.1755000000
10
5.6732798236
20
5.8567028073
30
-2.1755000000
10
6.1423894127
20
5.6307427279
30
-2.1755000000
10
6.6281461213
20
5.4234625766
30
-2.1755000000
10
7.1304727162
20
5.2345995571
30
-2.1755000000
10
7.6494227294
20
5.0640616572
30
-2.1755000000
10
8.1851510632
20
4.9118208661
30
-2.1755000000
10
8.7379474436
20
4.7780545976
30
-2.1755000000
10
9.3082107234
20
4.6629771263
30
-2.1755000000
10
9.8964912785
20
4.5670642340
30
-2.1755000000
10
10.5034807061
20
4.4908125409
30
-2.1755000000
10
11.1300580282
20
4.4350653919
30
-2.1755000000
10
11.7773054452
20
4.4006819903
30
-2.1755000000
10
12.2159277806
20
4.3930490122
30
-2.1755000000
10
12.4387353195
20
4.3930490122
30
-2.1755000000
11
1.3384521252
21
12.2196648923
31
-2.1755000000
11
1.3743191455
21
11.5344717882
31
-2.1755000000
11
1.4718726030
21
10.9092944355
31
-2.1755000000
11
1.6197444279
21
10.3338627405
31
-2.1755000000
11
1.8103062477
21
9.8015154659
31
-2.1755000000
11
2.0372936503
21
9.3068226921
31
-2.1755000000
11
2.2963923384
21
8.8460565406
31
-2.1755000000
11
2.5840043419
21
8.4161016207
31
-2.1755000000
11
2.8974173877
21
8.0145222836
31
-2.1755000000
11
3.2343455972
21
7.6392155023
31
-2.1755000000
11
3.5930659569
21
7.2885048680
31
-2.1755000000
11
3.9721400372
21
6.9609427361
31
-2.1755000000
11
4.3704731812
21
6.6553503239
31
-2.1755000000
11
4.7871784400
21
6.3707285444
31
-2.1755000000
11
5.2215970956
21
6.1062735690
31
-2.1755000000
11
5.6732313230
21
5.8613341420
31
-2.1755000000
11
6.1417409438
21
5.6354070028
31
-2.1755000000
11
6.6269222373
21
5.4281282782
31
-2.1755000000
11
7.1286905072
21
5.2392545580
31
-2.1755000000
11
7.6470898972
21
5.0686798344
31
-2.1755000000
11
8.1822655637
21
4.9164046411
31
-2.1755000000
11
8.7345000563
21
4.7825775550
31
-2.1755000000
11
9.3041751148
21
4.6674524352
31
-2.1755000000
11
9.8918385743
21
4.5714598685
31
-2.1755000000
11
10.4981516888
21
4.4951490798
31
-2.1755000000
11
11.1239952047
21
4.4392983015
31
-2.1755000000
11
11.7704017517
21
4.4048408129
31
-2.1755000000
11
12.4387353195
21
4.3930490122
31
-2.1755000000
0
SPLINE
5
4ED
100
AcDbEntity
8
DEFAULT_2
100
AcDbSpline
62
8
6
HIDDEN
70
0
71
3
72
34
73
30
74
28
42
0.0000001000
43
0.0000001000
44
0.0000000001
40
0.0000000000
40
0.0000000000
40
0.0000000000
40
0.0000000000
40
0.0443142493
40
0.0872270490
40
0.1288788555
40
0.1693861568
40
0.2088542402
40
0.2473747227
40
0.2850328582
40
0.3219061419
40
0.3580689850
40
0.3935923662
40
0.4285468747
40
0.4630032532
40
0.4970345450
40
0.5307175941
40
0.5641347708
40
0.5973766799
40
0.6305439543
40
0.6637516805
40
0.6971322840
40
0.7308423258
40
0.7650693856
40
0.8000424594
40
0.8360490599
40
0.8734517674
40
0.9127520787
40
0.9546085263
40
1.0000000000
40
1.0000000000
40
1.0000000000
40
1.0000000000
10
12.4387353195
20
4.3930490122
30
-2.1755000000
10
12.6615428583
20
4.3930490122
30
-2.1755000000
10
13.1001651938
20
4.4006819903
30
-2.1755000000
10
13.7474126108
20
4.4350653919
30
-2.1755000000
10
14.3739899329
20
4.4908125409
30
-2.1755000000
10
14.9809793605
20
4.5670642340
30
-2.1755000000
10
15.5692599156
20
4.6629771263
30
-2.1755000000
10
16.1395231953
20
4.7780545976
30
-2.1755000000
10
16.6923195757
20
4.9118208661
30
-2.1755000000
10
17.2280479096
20
5.0640616572
30
-2.1755000000
10
17.7469979228
20
5.2345995571
30
-2.1755000000
10
18.2493245176
20
5.4234625766
30
-2.1755000000
10
18.7350812262
20
5.6307427279
30
-2.1755000000
10
19.2041908154
20
5.8567028073
30
-2.1755000000
10
19.6564582271
20
6.1017091025
30
-2.1755000000
10
20.0915531744
20
6.3662753141
30
-2.1755000000
10
20.5089805090
20
6.6510764948
30
-2.1755000000
10
20.9081006807
20
6.9569166932
30
-2.1755000000
10
21.2880132962
20
7.2848490781
30
-2.1755000000
10
21.6476632737
20
7.6360436461
30
-2.1755000000
10
21.9855596033
20
8.0120451036
30
-2.1755000000
10
22.3000695096
20
8.4145137342
30
-2.1755000000
10
22.5887711335
20
8.8457132595
30
-2.1755000000
10
22.8491139557
20
9.3080946093
30
-2.1755000000
10
23.0771909990
20
9.8050025369
30
-2.1755000000
10
23.2691351624
20
10.3403450330
30
-2.1755000000
10
23.4178853249
20
10.9199244765
30
-2.1755000000
10
23.5162795142
20
11.5509628284
30
-2.1755000000
10
23.5390185138
20
11.9909665888
30
-2.1755000000
10
23.5390185138
20
12.2196648923
30
-2.1755000000
11
12.4387353195
21
4.3930490122
31
-2.1755000000
11
13.1070688873
21
4.4048408129
31
-2.1755000000
11
13.7534754342
21
4.4392983015
31
-2.1755000000
11
14.3793189502
21
4.4951490798
31
-2.1755000000
11
14.9856320647
21
4.5714598685
31
-2.1755000000
11
15.5732955241
21
4.6674524352
31
-2.1755000000
11
16.1429705827
21
4.7825775550
31
-2.1755000000
11
16.6952050753
21
4.9164046411
31
-2.1755000000
11
17.2303807418
21
5.0686798344
31
-2.1755000000
11
17.7487801318
21
5.2392545580
31
-2.1755000000
11
18.2505484017
21
5.4281282782
31
-2.1755000000
11
18.7357296952
21
5.6354070028
31
-2.1755000000
11
19.2042393159
21
5.8613341420
31
-2.1755000000
11
19.6558735434
21
6.1062735690
31
-2.1755000000
11
20.0902921990
21
6.3707285444
31
-2.1755000000
11
20.5069974577
21
6.6553503239
31
-2.1755000000
11
20.9053306018
21
6.9609427361
31
-2.1755000000
11
21.2844046821
21
7.2885048680
31
-2.1755000000
11
21.6431250418
21
7.6392155023
31
-2.1755000000
11
21.9800532513
21
8.0145222836
31
-2.1755000000
11
22.2934662971
21
8.4161016207
31
-2.1755000000
11
22.5810783006
21
8.8460565406
31
-2.1755000000
11
22.8401769887
21
9.3068226921
31
-2.1755000000
11
23.0671643913
21
9.8015154659
31
-2.1755000000
11
23.2577262111
21
10.3338627405
31
-2.1755000000
11
23.4055980360
21
10.9092944355
31
-2.1755000000
11
23.5031514935
21
11.5344717882
31
-2.1755000000
11
23.5390185138
21
12.2196648923
31
-2.1755000000
0
SPLINE
5
4EE
100
AcDbEntity
8
DEFAULT_2
100
AcDbSpline
62
8
6
HIDDEN
70
0
71
3
72
30
73
26
74
24
42
0.0000001000
43
0.0000001000
44
0.0000000001
40
0.0000000000
40
0.0000000000
40
0.0000000000
40
0.0000000000
40
0.0518897327
40
0.1018265275
40
0.1500172074
40
0.1966427021
40
0.2418643880
40
0.2858312375
40
0.3286831346
40
0.3705541644
40
0.4115769973
40
0.4518853609
40
0.4916167604
40
0.5309165661
40
0.5699408574
40
0.6088601949
40
0.6478652752
40
0.6871720634
40
0.7270300791
40
0.7677330269
40
0.8096334807
40
0.8531673546
40
0.8988823688
40
0.9474953135
40
1.0000000000
40
1.0000000000
40
1.0000000000
40
1.0000000000
10
12.4387353195
20
20.7232207530
30
-2.1755000000
10
12.1682050822
20
20.7232207530
30
-2.1755000000
10
11.6372307198
20
20.7120665208
30
-2.1755000000
10
10.8564254816
20
20.6614401445
30
-2.1755000000
10
10.1058751231
20
20.5789495618
30
-2.1755000000
10
9.3841347356
20
20.4658574659
30
-2.1755000000
10
8.6900783031
20
20.3230548379
30
-2.1755000000
10
8.0228663681
20
20.1511834582
30
-2.1755000000
10
7.3819084551
20
19.9506216268
30
-2.1755000000
10
6.7668651423
20
19.7214810528
30
-2.1755000000
10
6.1776200594
20
19.4636841130
30
-2.1755000000
10
5.6142886719
20
19.1769305464
30
-2.1755000000
10
5.0772488590
20
18.8606807554
30
-2.1755000000
10
4.5671264788
20
18.5142163232
30
-2.1755000000
10
4.0848403070
20
18.1365849926
30
-2.1755000000
10
3.6316616915
20
17.7265775900
30
-2.1755000000
10
3.2091990741
20
17.2827767484
30
-2.1755000000
10
2.8194955856
20
16.8034536434
30
-2.1755000000
10
2.4651343678
20
16.2865127476
30
-2.1755000000
10
2.1492150828
20
15.7294765077
30
-2.1755000000
10
1.8755814687
20
15.1292211736
30
-2.1755000000
10
1.6491344082
20
14.4817399080
30
-2.1755000000
10
1.4758931653
20
13.7818060788
30
-2.1755000000
10
1.3636631001
20
13.0221531368
30
-2.1755000000
10
1.3384521252
20
12.4937721846
30
-2.1755000000
10
1.3384521252
20
12.2196648923
30
-2.1755000000
11
12.4387353195
21
20.7232207530
31
-2.1755000000
11
11.6273043628
21
20.7058255899
31
-2.1755000000
11
10.8478387016
21
20.6549449474
31
-2.1755000000
11
10.0985224873
21
20.5722353329
31
-2.1755000000
11
9.3779304534
21
20.4589514859
31
-2.1755000000
11
8.6849784797
21
20.3159986021
31
-2.1755000000
11
8.0188454455
21
20.1440135819
31
-2.1755000000
11
7.3789624553
21
19.9433761733
31
-2.1755000000
11
6.7650094908
21
19.7142204074
31
-2.1755000000
11
6.1768829710
21
19.4564747279
31
-2.1755000000
11
5.6147122958
21
19.1698524576
31
-2.1755000000
11
5.0788832165
21
18.8538491913
31
-2.1755000000
11
4.5700275410
21
18.5077650057
31
-2.1755000000
11
4.0890689758
21
18.1306793347
31
-2.1755000000
11
3.6372685164
21
17.7214390795
31
-2.1755000000
11
3.2162281282
21
17.2786631883
31
-2.1755000000
11
2.8279794290
21
16.8006860265
31
-2.1755000000
11
2.4750572377
21
16.2855012256
31
-2.1755000000
11
2.1605357775
21
15.7307101203
31
-2.1755000000
11
1.8882221755
21
15.1333316322
31
-2.1755000000
11
1.6628810011
21
14.4895333253
31
-2.1755000000
11
1.4904416022
21
13.7943804282
31
-2.1755000000
11
1.3786741620
21
13.0410765511
31
-2.1755000000
11
1.3384521252
21
12.2196648923
31
-2.1755000000
0
SPLINE
5
4EF
100
AcDbEntity
8
DEFAULT_2
100
AcDbSpline
62
8
6
HIDDEN
70
0
71
3
72
30
73
26
74
24
42
0.0000001000
43
0.0000001000
44
0.0000000001
40
0.0000000000
40
0.0000000000
40
0.0000000000
40
0.0000000000
40
0.0525046865
40
0.1011176312
40
0.1468326454
40
0.1903665193
40
0.2322669731
40
0.2729699209
40
0.3128279366
40
0.3521347248
40
0.3911398051
40
0.4300591426
40
0.4690834339
40
0.5083832396
40
0.5481146391
40
0.5884230027
40
0.6294458356
40
0.6713168654
40
0.7141687625
40
0.7581356120
40
0.8033572979
40
0.8499827926
40
0.8981734725
40
0.9481102673
40
1.0000000000
40
1.0000000000
40
1.0000000000
40
1.0000000000
10
23.5390185138
20
12.2196648923
30
-2.1755000000
10
23.5390185138
20
12.4937721846
30
-2.1755000000
10
23.5138075389
20
13.0221531368
30
-2.1755000000
10
23.4015774737
20
13.7818060788
30
-2.1755000000
10
23.2283362308
20
14.4817399080
30
-2.1755000000
10
23.0018891703
20
15.1292211736
30
-2.1755000000
10
22.7282555562
20
15.7294765077
30
-2.1755000000
10
22.4123362712
20
16.2865127476
30
-2.1755000000
10
22.0579750534
20
16.8034536434
30
-2.1755000000
10
21.6682715648
20
17.2827767484
30
-2.1755000000
10
21.2458089475
20
17.7265775900
30
-2.1755000000
10
20.7926303320
20
18.1365849926
30
-2.1755000000
10
20.3103441602
20
18.5142163232
30
-2.1755000000
10
19.8002217800
20
18.8606807554
30
-2.1755000000
10
19.2631819670
20
19.1769305464
30
-2.1755000000
10
18.6998505796
20
19.4636841130
30
-2.1755000000
10
18.1106054966
20
19.7214810528
30
-2.1755000000
10
17.4955621839
20
19.9506216268
30
-2.1755000000
10
16.8546042709
20
20.1511834582
30
-2.1755000000
10
16.1873923359
20
20.3230548379
30
-2.1755000000
10
15.4933359034
20
20.4658574659
30
-2.1755000000
10
14.7715955158
20
20.5789495618
30
-2.1755000000
10
14.0210451574
20
20.6614401445
30
-2.1755000000
10
13.2402399191
20
20.7120665208
30
-2.1755000000
10
12.7092655567
20
20.7232207530
30
-2.1755000000
10
12.4387353195
20
20.7232207530
30
-2.1755000000
11
23.5390185138
21
12.2196648923
31
-2.1755000000
11
23.4987964770
21
13.0410765511
31
-2.1755000000
11
23.3870290367
21
13.7943804282
31
-2.1755000000
11
23.2145896378
21
14.4895333253
31
-2.1755000000
11
22.9892484634
21
15.1333316322
31
-2.1755000000
11
22.7169348615
21
15.7307101203
31
-2.1755000000
11
22.4024134012
21
16.2855012256
31
-2.1755000000
11
22.0494912100
21
16.8006860265
31
-2.1755000000
11
21.6612425108
21
17.2786631883
31
-2.1755000000
11
21.2402021226
21
17.7214390795
31
-2.1755000000
11
20.7884016632
21
18.1306793347
31
-2.1755000000
11
20.3074430980
21
18.5077650057
31
-2.1755000000
11
19.7985874224
21
18.8538491913
31
-2.1755000000
11
19.2627583432
21
19.1698524576
31
-2.1755000000
11
18.7005876680
21
19.4564747279
31
-2.1755000000
11
18.1124611482
21
19.7142204074
31
-2.1755000000
11
17.4985081837
21
19.9433761733
31
-2.1755000000
11
16.8586251935
21
20.1440135819
31
-2.1755000000
11
16.1924921593
21
20.3159986021
31
-2.1755000000
11
15.4995401856
21
20.4589514859
31
-2.1755000000
11
14.7789481516
21
20.5722353329
31
-2.1755000000
11
14.0296319374
21
20.6549449474
31
-2.1755000000
11
13.2501662762
21
20.7058255899
31
-2.1755000000
11
12.4387353195
21
20.7232207530
31
-2.1755000000
0
ENDSEC
0
SECTION
2
OBJECTS
0
DICTIONARY
5
4F0
100
AcDbDictionary
3
ACAD_GROUP
350
4F1
3
ACAD_MLINESTYLE
350
4F2
0
DICTIONARY
5
4F1
102
{ACAD_REACTORS
330
4F0
102
}
100
AcDbDictionary
0
DICTIONARY
5
4F2
102
{ACAD_REACTORS
330
4F0
102
}
100
AcDbDictionary
3
STANDARD
350
4F3
0
MLINESTYLE
5
4F3
102
{ACAD_REACTORS
330
4F2
102
}
100
AcDbMlineStyle
2
STANDARD
70
0
3

62
256
51
90.0
52
90.0
71
2
49
0.5
62
256
6
BYLAYER
49
-0.5
62
256
6
BYLAYER
0
ENDSEC
0
EOF
