999
DXF file: 1002970_7_c.dxf
999
Pro/ENGINEER 2008250 by Parametric Technology Corporation
  0
SECTION
  2
HEADER
  9
$EXTMAX
 10
34.0
 20
22.0
 30
0.0
  9
$EXTMIN
 10
0.0
 20
0.0
 30
0.0
  9
$LIMMIN
 10
0.0
 20
0.0
  9
$LIMMAX
 10
34.0
 20
22.0
  9
$VIEWCTR
 10
17.0
 20
11.0
  9
$VIEWSIZE
 40
22.0
  9
$CLAYER
  8
0
  9
$LTSCALE
 40
1.87
  9
$CELTYPE
  6
BYLAYER
  9
$DIMSCALE
 40
1.0
  9
$DIMASZ
 40
0.1875
  9
$DIMEXO
 40
0.2125
  9
$DIMDLI
 40
1.292
  9
$DIMEXE
 40
0.612
  9
$DIMCEN
 40
0.306
  9
$DIMLFAC
 40
1.0
  9
$DIMBLK
  1
_FILLED
  9
$DIMTXT
 40
0.15625
  9
$PDMODE
 70
3
  9
$PDSIZE
 40
0.3125
  0
ENDSEC
  0
SECTION
  2
TABLES
  0
TABLE
  2
LTYPE
 70
6
  0
LTYPE
  2
BYBLOCK
 70
0
  3

 72
65
 73
0
 40
0.0
  0
LTYPE
  2
BYLAYER
 70
0
  3

 72
65
 73
0
 40
0.0
  0
LTYPE
  2
CONTINUOUS
 70
64
  3
Solid line
 72
65
 73
0
 40
0.0
  0
LTYPE
  2
CENTER
 70
64
  3
____ _ ____ _ ____ _ ____ _ ____ _ ____ _ ____
 72
65
 73
4
 40
0.6
 49
0.375
 49
-0.075
 49
0.075
 49
-0.075
  0
LTYPE
  2
HIDDEN
 70
64
  3
- - - - - - - - - - - - - - - - - - - -
 72
65
 73
2
 40
0.2
 49
0.1
 49
-0.1
  0
LTYPE
  2
PHANTOM
 70
64
  3
_____ _ _ _____ _ _ _____ _ _ _____
 72
65
 73
6
 40
0.8
 49
0.45
 49
-0.05
 49
0.1
 49
-0.05
 49
0.1
 49
-0.05
  0
LTYPE
  2
DOT
 70
64
  3
. . . . . . . . . . . . . . . . . . . .
 72
65
 73
2
 40
0.2
 49
0.1
 49
-0.1
  0
LTYPE
  2
DASHED
 70
64
  3
- - - - - - - - - - - - - - - - - - - -
 72
65
 73
2
 40
0.2
 49
0.1
 49
-0.1
  0
ENDTAB
  0
TABLE
  2
LAYER
 70
36
  0
LAYER
  2
0
 70
0
 62
7
  6
CONTINUOUS
  0
LAYER
  2
DEFAULT_1
 70
0
 62
7
  6
CENTER
  0
LAYER
  2
DEFAULT_2
 70
0
 62
8
  6
HIDDEN
  0
LAYER
  2
DEFAULT_3
 70
0
 62
7
  6
PHANTOM
  0
LAYER
  2
_2D_DELETED_OBJS
 70
0
 62
7
  6
CONTINUOUS
  0
LAYER
  2
0
 70
0
 62
7
  6
CONTINUOUS
  0
LAYER
  2
DEFPOINTS_
 70
0
 62
7
  6
CONTINUOUS
  0
LAYER
  2
DRAFT_ENT
 70
0
 62
7
  6
CONTINUOUS
  0
LAYER
  2
NOTE
 70
0
 62
7
  6
CONTINUOUS
  0
LAYER
  2
PSPTBK
 70
0
 62
7
  6
CONTINUOUS
  0
LAYER
  2
SYMBOL
 70
0
 62
7
  6
CONTINUOUS
  0
LAYER
  2
___NOTE
 70
0
 62
7
  6
CONTINUOUS
  0
ENDTAB
  0
TABLE
  2
STYLE
 70
1
  0
STYLE
  2
STANDARD
 70
0
 40
0.0
 41
0.8
 50
0.0
 71
0
 42
0.2
  3
txt
  4

  0
STYLE
  2
TEXTSTYLE_1
 70
0
 40
0.0
 41
1.0
 50
0.0
 71
0
 42
0.2
  3
txt
  4

  0
STYLE
  2
TEXTSTYLE_2
 70
0
 40
0.0
 41
0.85
 50
0.0
 71
0
 42
0.2
  3
txt
  4

  0
ENDTAB
  0
ENDSEC
  0
SECTION
  2
BLOCKS
  0
BLOCK
  8
0
 62
2
  6
CONTINUOUS
  2
*D0
 70
65
 10
0.0
 20
0.0
  0
TEXT
  8
0
 62
2
  6
CONTINUOUS
 10
9.90097816
 20
10.96471651
  7
STANDARD
 40
0.15625
  1
19"
 41
0.8
 72
0
  0
TEXT
  8
0
 62
2
  6
CONTINUOUS
 10
9.52597816
 20
10.73034151
  7
STANDARD
 40
0.15625
  1
[48,3 cm]
 41
0.8
 72
0
  0
LINE
  8
0
 62
2
  6
CONTINUOUS
 10
21.6046578893
 20
10.9817521135
 11
21.6046578893
 21
11.16784151
  0
LINE
  8
0
 62
2
  6
CONTINUOUS
 10
2.6046457756
 20
10.9817521135
 11
2.6046457756
 21
11.16784151
  0
LINE
  8
0
 62
2
  6
CONTINUOUS
 10
21.6046578893
 20
11.04284151
 11
10.72910316
 21
11.04284151
  0
LINE
  8
0
 62
2
  6
CONTINUOUS
 10
2.6046457756
 20
11.04284151
 11
9.44785316
 21
11.04284151
  0
INSERT
  8
0
 62
2
  6
CONTINUOUS
  2
_FILLED
 10
21.6046578893
 20
11.04284151
 41
0.1875
 42
0.1875
 43
0.1875
  0
INSERT
  8
0
 62
2
  6
CONTINUOUS
  2
_FILLED
 10
2.6046457756
 20
11.04284151
 41
0.1875
 42
0.1875
 43
0.1875
 50
180.0
  0
ENDBLK
  8
0
  6
BYBLOCK
 62
0
  0
BLOCK
  8
0
 62
2
  6
CONTINUOUS
  2
*D1
 70
65
 10
0.0
 20
0.0
  0
TEXT
  8
0
 62
2
  6
CONTINUOUS
 10
11.664869965
 20
8.567599686
  7
STANDARD
 40
0.15625
  1
16-1/4"
 41
0.8
 72
0
  0
TEXT
  8
0
 62
2
  6
CONTINUOUS
 10
11.539869965
 20
8.333224686
  7
STANDARD
 40
0.15625
  1
[41,3 cm]
 41
0.8
 72
0
  0
LINE
  8
0
 62
2
  6
CONTINUOUS
 10
12.0421542064
 20
19.1067545305
 11
11.977369965
 21
19.1067545305
  0
LINE
  8
0
 62
2
  6
CONTINUOUS
 10
12.0421542064
 20
2.8567552457
 11
11.977369965
 21
2.8567552457
  0
LINE
  8
0
 62
2
  6
CONTINUOUS
 10
12.102369965
 20
19.1067545305
 11
12.102369965
 21
8.801974686
  0
LINE
  8
0
 62
2
  6
CONTINUOUS
 10
12.102369965
 20
2.8567552457
 11
12.102369965
 21
8.255099686
  0
INSERT
  8
0
 62
2
  6
CONTINUOUS
  2
_FILLED
 10
12.102369965
 20
19.1067545305
 41
0.1875
 42
0.1875
 43
0.1875
 50
90.0
  0
INSERT
  8
0
 62
2
  6
CONTINUOUS
  2
_FILLED
 10
12.102369965
 20
2.8567552457
 41
0.1875
 42
0.1875
 43
0.1875
 50
270.0
  0
ENDBLK
  8
0
  6
BYBLOCK
 62
0
  0
BLOCK
  8
0
  2
_FILLED
 70
64
 10
0.0
 20
0.0
  0
SOLID
  8
0
  6
BYBLOCK
 62
0
 10
0.0
 20
0.0
 11
-1.0
 21
0.1666666667
 12
-1.0
 22
-0.1666666667
 13
-1.0
 23
-0.1666666667
  0
ENDBLK
  8
0
  6
BYBLOCK
 62
0
  0
ENDSEC
  0
SECTION
  2
ENTITIES
  0
SOLID
  8
DRAFT_ENT
 62
2
  6
CONTINUOUS
 10
15.4273898493
 20
12.6286996811
 11
15.4273898493
 21
12.7300621811
 12
16.1404773493
 22
12.7300621811
 13
16.1404773493
 23
12.7300621811
  0
SOLID
  8
DRAFT_ENT
 62
2
  6
CONTINUOUS
 10
16.1404773493
 20
12.7300621811
 11
16.1404773493
 21
12.6286996811
 12
15.4273898493
 22
12.6286996811
 13
15.4273898493
 23
12.6286996811
  0
SOLID
  8
DRAFT_ENT
 62
2
  6
CONTINUOUS
 10
15.4273898493
 20
12.3898559311
 11
15.4273898493
 21
12.4190059311
 12
16.1404773493
 22
12.4190059311
 13
16.1404773493
 23
12.4190059311
  0
SOLID
  8
DRAFT_ENT
 62
2
  6
CONTINUOUS
 10
16.1404773493
 20
12.4190059311
 11
16.1404773493
 21
12.3898559311
 12
15.4273898493
 22
12.3898559311
 13
15.4273898493
 23
12.3898559311
  0
SOLID
  8
DRAFT_ENT
 62
2
  6
CONTINUOUS
 10
15.4662648493
 20
12.7675621811
 11
15.4662648493
 21
12.8189371811
 12
16.1793523493
 22
12.8189371811
 13
16.1793523493
 23
12.8189371811
  0
SOLID
  8
DRAFT_ENT
 62
2
  6
CONTINUOUS
 10
16.1793523493
 20
12.8189371811
 11
16.1793523493
 21
12.7675621811
 12
15.4662648493
 22
12.7675621811
 13
15.4662648493
 23
12.7675621811
  0
SOLID
  8
DRAFT_ENT
 62
2
  6
CONTINUOUS
 10
15.4662648493
 20
12.8730996811
 11
15.4662648493
 21
12.9244684311
 12
16.1793523493
 22
12.9244684311
 13
16.1793523493
 23
12.9244684311
  0
SOLID
  8
DRAFT_ENT
 62
2
  6
CONTINUOUS
 10
16.1793523493
 20
12.9244684311
 11
16.1793523493
 21
12.8730996811
 12
15.4662648493
 22
12.8730996811
 13
15.4662648493
 23
12.8730996811
  0
SOLID
  8
DRAFT_ENT
 62
2
  6
CONTINUOUS
 10
15.4662648493
 20
12.9564184311
 11
15.4662648493
 21
13.0077871811
 12
16.1793523493
 22
13.0077871811
 13
16.1793523493
 23
13.0077871811
  0
SOLID
  8
DRAFT_ENT
 62
2
  6
CONTINUOUS
 10
16.1793523493
 20
13.0077871811
 11
16.1793523493
 21
12.9564184311
 12
15.4662648493
 22
12.9564184311
 13
15.4662648493
 23
12.9564184311
  0
SOLID
  8
DRAFT_ENT
 62
2
  6
CONTINUOUS
 10
15.4662648493
 20
13.0397309311
 11
15.4662648493
 21
13.0911059311
 12
16.1793523493
 22
13.0911059311
 13
16.1793523493
 23
13.0911059311
  0
SOLID
  8
DRAFT_ENT
 62
2
  6
CONTINUOUS
 10
16.1793523493
 20
13.0911059311
 11
16.1793523493
 21
13.0397309311
 12
15.4662648493
 22
13.0397309311
 13
15.4662648493
 23
13.0397309311
  0
SOLID
  8
DRAFT_ENT
 62
2
  6
CONTINUOUS
 10
15.4662648493
 20
13.1230496811
 11
15.4662648493
 21
13.1744246811
 12
16.1793523493
 22
13.1744246811
 13
16.1793523493
 23
13.1744246811
  0
SOLID
  8
DRAFT_ENT
 62
2
  6
CONTINUOUS
 10
16.1793523493
 20
13.1744246811
 11
16.1793523493
 21
13.1230496811
 12
15.4662648493
 22
13.1230496811
 13
15.4662648493
 23
13.1230496811
  0
SOLID
  8
DRAFT_ENT
 62
2
  6
CONTINUOUS
 10
16.7508960993
 20
12.6286996811
 11
16.7508960993
 21
12.7300621811
 12
17.0366898493
 22
12.7300621811
 13
17.0366898493
 23
12.7300621811
  0
SOLID
  8
DRAFT_ENT
 62
2
  6
CONTINUOUS
 10
17.0366898493
 20
12.7300621811
 11
17.0366898493
 21
12.6286996811
 12
16.7508960993
 22
12.6286996811
 13
16.7508960993
 23
12.6286996811
  0
SOLID
  8
DRAFT_ENT
 62
2
  6
CONTINUOUS
 10
12.993265585
 20
17.6681997952
 11
13.0793682057
 21
17.7705880583
 12
13.1994068611
 22
17.7705880583
 13
13.1994068611
 23
17.7705880583
  0
SOLID
  8
DRAFT_ENT
 62
2
  6
CONTINUOUS
 10
13.1994068611
 20
17.7705880583
 11
13.0660921782
 21
17.6120578575
 12
12.993265585
 22
17.6681997952
 13
12.993265585
 23
17.6681997952
  0
SOLID
  8
DRAFT_ENT
 62
2
  6
CONTINUOUS
 10
12.993265585
 20
17.5303293779
 11
13.0660921782
 21
17.6120578575
 12
13.0893518159
 22
17.4043919576
 13
13.0893518159
 23
17.4043919576
  0
SOLID
  8
DRAFT_ENT
 62
2
  6
CONTINUOUS
 10
13.0660921782
 20
17.6120578575
 11
13.2245346052
 21
17.4043919576
 12
13.0893518159
 22
17.4043919576
 13
13.0893518159
 23
17.4043919576
  0
SOLID
  8
DRAFT_ENT
 62
2
  6
CONTINUOUS
 10
12.993265585
 20
17.4043919576
 11
12.8842029224
 21
17.4043769554
 12
12.993265585
 22
17.5303293779
 13
12.993265585
 23
17.5303293779
  0
SOLID
  8
DRAFT_ENT
 62
2
  6
CONTINUOUS
 10
13.0660921782
 20
17.6120578575
 11
12.993265585
 21
17.5303293779
 12
12.993265585
 22
17.6681997952
 13
12.993265585
 23
17.6681997952
  0
SOLID
  8
DRAFT_ENT
 62
2
  6
CONTINUOUS
 10
12.993265585
 20
17.5303293779
 11
12.8842029224
 21
17.4043769554
 12
12.993265585
 22
17.6681997952
 13
12.993265585
 23
17.6681997952
  0
SOLID
  8
DRAFT_ENT
 62
2
  6
CONTINUOUS
 10
12.993265585
 20
17.6681997952
 11
12.8842029224
 21
17.4043769554
 12
12.993265585
 22
17.7705880583
 13
12.993265585
 23
17.7705880583
  0
SOLID
  8
DRAFT_ENT
 62
2
  6
CONTINUOUS
 10
12.8842029224
 20
17.4043769554
 11
12.8842029224
 21
17.7705880583
 12
12.993265585
 22
17.7705880583
 13
12.993265585
 23
17.7705880583
  0
SOLID
  8
DRAFT_ENT
 62
2
  6
CONTINUOUS
 10
13.2772872932
 20
17.7639571737
 11
13.315380522
 21
17.7720541394
 12
13.3543247762
 22
17.7720541394
 13
13.3543247762
 23
17.7720541394
  0
SOLID
  8
DRAFT_ENT
 62
2
  6
CONTINUOUS
 10
13.3543247762
 20
17.7720541394
 11
13.392418005
 21
17.7639571737
 12
13.2772872932
 22
17.7639571737
 13
13.2772872932
 23
17.7639571737
  0
SOLID
  8
DRAFT_ENT
 62
2
  6
CONTINUOUS
 10
13.2417099467
 20
17.7481171184
 11
13.2772872932
 21
17.7639571737
 12
13.392418005
 22
17.7639571737
 13
13.392418005
 23
17.7639571737
  0
SOLID
  8
DRAFT_ENT
 62
2
  6
CONTINUOUS
 10
13.392418005
 20
17.7639571737
 11
13.4279953516
 21
17.7481171184
 12
13.2417099467
 22
17.7481171184
 13
13.2417099467
 23
17.7481171184
  0
SOLID
  8
DRAFT_ENT
 62
2
  6
CONTINUOUS
 10
13.2102033832
 20
17.7252262601
 11
13.2417099467
 21
17.7481171184
 12
13.4279953516
 22
17.7481171184
 13
13.4279953516
 23
17.7481171184
  0
SOLID
  8
DRAFT_ENT
 62
2
  6
CONTINUOUS
 10
13.4279953516
 20
17.7481171184
 11
13.4595019151
 21
17.7252262601
 12
13.2102033832
 22
17.7252262601
 13
13.2102033832
 23
17.7252262601
  0
SOLID
  8
DRAFT_ENT
 62
2
  6
CONTINUOUS
 10
13.1841445907
 20
17.6962850391
 11
13.2102033832
 21
17.7252262601
 12
13.4595019151
 22
17.7252262601
 13
13.4595019151
 23
17.7252262601
  0
SOLID
  8
DRAFT_ENT
 62
2
  6
CONTINUOUS
 10
13.4595019151
 20
17.7252262601
 11
13.4855607075
 21
17.6962850391
 12
13.1841445907
 22
17.6962850391
 13
13.1841445907
 23
17.6962850391
  0
SOLID
  8
DRAFT_ENT
 62
2
  6
CONTINUOUS
 10
13.3348526491
 20
17.6647701247
 11
13.1646724636
 21
17.6625583257
 12
13.4855607075
 22
17.6962850391
 13
13.4855607075
 23
17.6962850391
  0
SOLID
  8
DRAFT_ENT
 62
2
  6
CONTINUOUS
 10
13.1646724636
 20
17.6625583257
 11
13.1841445907
 21
17.6962850391
 12
13.4855607075
 22
17.6962850391
 13
13.4855607075
 23
17.6962850391
  0
SOLID
  8
DRAFT_ENT
 62
2
  6
CONTINUOUS
 10
13.4855607075
 20
17.6962850391
 11
13.5050328346
 21
17.6625583257
 12
13.3348526491
 22
17.6647701247
 13
13.3348526491
 23
17.6647701247
  0
SOLID
  8
DRAFT_ENT
 62
2
  6
CONTINUOUS
 10
13.3348526491
 20
17.6647701247
 11
13.310755226
 21
17.6609534678
 12
13.1646724636
 22
17.6625583257
 13
13.1646724636
 23
17.6625583257
  0
SOLID
  8
DRAFT_ENT
 62
2
  6
CONTINUOUS
 10
13.3589500722
 20
17.6609534678
 11
13.3348526491
 21
17.6647701247
 12
13.5050328346
 22
17.6625583257
 13
13.5050328346
 23
17.6625583257
  0
SOLID
  8
DRAFT_ENT
 62
2
  6
CONTINUOUS
 10
13.2717647763
 20
17.632625248
 11
13.1526380272
 21
17.6255201389
 12
13.2890166266
 22
17.6498770982
 13
13.2890166266
 23
17.6498770982
  0
SOLID
  8
DRAFT_ENT
 62
2
  6
CONTINUOUS
 10
13.2890166266
 20
17.6498770982
 11
13.1526380272
 21
17.6255201389
 12
13.310755226
 22
17.6609534678
 13
13.310755226
 23
17.6609534678
  0
SOLID
  8
DRAFT_ENT
 62
2
  6
CONTINUOUS
 10
13.1526380272
 20
17.6255201389
 11
13.1646724636
 21
17.6625583257
 12
13.310755226
 22
17.6609534678
 13
13.310755226
 23
17.6609534678
  0
SOLID
  8
DRAFT_ENT
 62
2
  6
CONTINUOUS
 10
13.3589500722
 20
17.6609534678
 11
13.5050328346
 21
17.6625583257
 12
13.3806886717
 22
17.6498770982
 13
13.3806886717
 23
17.6498770982
  0
SOLID
  8
DRAFT_ENT
 62
2
  6
CONTINUOUS
 10
13.3806886717
 20
17.6498770982
 11
13.5050328346
 21
17.6625583257
 12
13.3979405219
 22
17.632625248
 13
13.3979405219
 23
17.632625248
  0
SOLID
  8
DRAFT_ENT
 62
2
  6
CONTINUOUS
 10
13.5050328346
 20
17.6625583257
 11
13.517067271
 21
17.6255201389
 12
13.3979405219
 22
17.632625248
 13
13.3979405219
 23
17.632625248
  0
SOLID
  8
DRAFT_ENT
 62
2
  6
CONTINUOUS
 10
13.2717647763
 20
17.632625248
 11
13.2606884067
 21
17.6108866485
 12
13.1526380272
 22
17.6255201389
 13
13.1526380272
 23
17.6255201389
  0
SOLID
  8
DRAFT_ENT
 62
2
  6
CONTINUOUS
 10
13.4090168916
 20
17.6108866485
 11
13.3979405219
 21
17.632625248
 12
13.517067271
 22
17.6255201389
 13
13.517067271
 23
17.6255201389
  0
SOLID
  8
DRAFT_ENT
 62
2
  6
CONTINUOUS
 10
13.1485672442
 20
17.5867892254
 11
13.1526380272
 21
17.6255201389
 12
13.2606884067
 22
17.6108866485
 13
13.2606884067
 23
17.6108866485
  0
SOLID
  8
DRAFT_ENT
 62
2
  6
CONTINUOUS
 10
13.2606884067
 20
17.6108866485
 11
13.2568717498
 21
17.5867892254
 12
13.1485672442
 22
17.5867892254
 13
13.1485672442
 23
17.5867892254
  0
SOLID
  8
DRAFT_ENT
 62
2
  6
CONTINUOUS
 10
13.4090168916
 20
17.6108866485
 11
13.517067271
 21
17.6255201389
 12
13.4128335484
 22
17.5867892254
 13
13.4128335484
 23
17.5867892254
  0
SOLID
  8
DRAFT_ENT
 62
2
  6
CONTINUOUS
 10
13.517067271
 20
17.6255201389
 11
13.521138054
 21
17.5867892254
 12
13.4128335484
 22
17.5867892254
 13
13.4128335484
 23
17.5867892254
  0
SOLID
  8
DRAFT_ENT
 62
2
  6
CONTINUOUS
 10
13.4090168916
 20
17.5626918023
 11
13.4128335484
 21
17.5867892254
 12
13.521138054
 22
17.5867892254
 13
13.521138054
 23
17.5867892254
  0
SOLID
  8
DRAFT_ENT
 62
2
  6
CONTINUOUS
 10
13.2606884067
 20
17.5626918023
 11
13.1526380272
 21
17.5480583119
 12
13.2568717498
 22
17.5867892254
 13
13.2568717498
 23
17.5867892254
  0
SOLID
  8
DRAFT_ENT
 62
2
  6
CONTINUOUS
 10
13.1526380272
 20
17.5480583119
 11
13.1485672442
 21
17.5867892254
 12
13.2568717498
 22
17.5867892254
 13
13.2568717498
 23
17.5867892254
  0
SOLID
  8
DRAFT_ENT
 62
2
  6
CONTINUOUS
 10
13.521138054
 20
17.5867892254
 11
13.517067271
 21
17.5480583119
 12
13.4090168916
 22
17.5626918023
 13
13.4090168916
 23
17.5626918023
  0
SOLID
  8
DRAFT_ENT
 62
2
  6
CONTINUOUS
 10
13.2606884067
 20
17.5626918023
 11
13.2717647763
 21
17.5409532028
 12
13.1526380272
 22
17.5480583119
 13
13.1526380272
 23
17.5480583119
  0
SOLID
  8
DRAFT_ENT
 62
2
  6
CONTINUOUS
 10
13.3979405219
 20
17.5409532028
 11
13.4090168916
 21
17.5626918023
 12
13.517067271
 22
17.5480583119
 13
13.517067271
 23
17.5480583119
  0
SOLID
  8
DRAFT_ENT
 62
2
  6
CONTINUOUS
 10
13.310755226
 20
17.512624983
 11
13.1646724636
 21
17.5110201252
 12
13.2890166266
 22
17.5237013526
 13
13.2890166266
 23
17.5237013526
  0
SOLID
  8
DRAFT_ENT
 62
2
  6
CONTINUOUS
 10
13.2890166266
 20
17.5237013526
 11
13.1646724636
 21
17.5110201252
 12
13.2717647763
 22
17.5409532028
 13
13.2717647763
 23
17.5409532028
  0
SOLID
  8
DRAFT_ENT
 62
2
  6
CONTINUOUS
 10
13.1646724636
 20
17.5110201252
 11
13.1526380272
 21
17.5480583119
 12
13.2717647763
 22
17.5409532028
 13
13.2717647763
 23
17.5409532028
  0
SOLID
  8
DRAFT_ENT
 62
2
  6
CONTINUOUS
 10
13.3979405219
 20
17.5409532028
 11
13.517067271
 21
17.5480583119
 12
13.3806886717
 22
17.5237013526
 13
13.3806886717
 23
17.5237013526
  0
SOLID
  8
DRAFT_ENT
 62
2
  6
CONTINUOUS
 10
13.3806886717
 20
17.5237013526
 11
13.517067271
 21
17.5480583119
 12
13.3589500722
 22
17.512624983
 13
13.3589500722
 23
17.512624983
  0
SOLID
  8
DRAFT_ENT
 62
2
  6
CONTINUOUS
 10
13.517067271
 20
17.5480583119
 11
13.5050328346
 21
17.5110201252
 12
13.3589500722
 22
17.512624983
 13
13.3589500722
 23
17.512624983
  0
SOLID
  8
DRAFT_ENT
 62
2
  6
CONTINUOUS
 10
13.310755226
 20
17.512624983
 11
13.3348526491
 21
17.5088083261
 12
13.1646724636
 22
17.5110201252
 13
13.1646724636
 23
17.5110201252
  0
SOLID
  8
DRAFT_ENT
 62
2
  6
CONTINUOUS
 10
13.3348526491
 20
17.5088083261
 11
13.3589500722
 21
17.512624983
 12
13.5050328346
 22
17.5110201252
 13
13.5050328346
 23
17.5110201252
  0
SOLID
  8
DRAFT_ENT
 62
2
  6
CONTINUOUS
 10
13.1841445907
 20
17.4772934117
 11
13.1646724636
 21
17.5110201252
 12
13.3348526491
 22
17.5088083261
 13
13.3348526491
 23
17.5088083261
  0
SOLID
  8
DRAFT_ENT
 62
2
  6
CONTINUOUS
 10
13.3348526491
 20
17.5088083261
 11
13.5050328346
 21
17.5110201252
 12
13.1841445907
 22
17.4772934117
 13
13.1841445907
 23
17.4772934117
  0
SOLID
  8
DRAFT_ENT
 62
2
  6
CONTINUOUS
 10
13.5050328346
 20
17.5110201252
 11
13.4855607075
 21
17.4772934117
 12
13.1841445907
 22
17.4772934117
 13
13.1841445907
 23
17.4772934117
  0
SOLID
  8
DRAFT_ENT
 62
2
  6
CONTINUOUS
 10
13.2102033832
 20
17.4483521907
 11
13.1841445907
 21
17.4772934117
 12
13.4855607075
 22
17.4772934117
 13
13.4855607075
 23
17.4772934117
  0
SOLID
  8
DRAFT_ENT
 62
2
  6
CONTINUOUS
 10
13.4855607075
 20
17.4772934117
 11
13.4595019151
 21
17.4483521907
 12
13.2102033832
 22
17.4483521907
 13
13.2102033832
 23
17.4483521907
  0
SOLID
  8
DRAFT_ENT
 62
2
  6
CONTINUOUS
 10
13.2417099467
 20
17.4254613324
 11
13.2102033832
 21
17.4483521907
 12
13.4595019151
 22
17.4483521907
 13
13.4595019151
 23
17.4483521907
  0
SOLID
  8
DRAFT_ENT
 62
2
  6
CONTINUOUS
 10
13.4595019151
 20
17.4483521907
 11
13.4279953516
 21
17.4254613324
 12
13.2417099467
 22
17.4254613324
 13
13.2417099467
 23
17.4254613324
  0
SOLID
  8
DRAFT_ENT
 62
2
  6
CONTINUOUS
 10
13.2772872932
 20
17.4096212772
 11
13.2417099467
 21
17.4254613324
 12
13.4279953516
 22
17.4254613324
 13
13.4279953516
 23
17.4254613324
  0
SOLID
  8
DRAFT_ENT
 62
2
  6
CONTINUOUS
 10
13.4279953516
 20
17.4254613324
 11
13.392418005
 21
17.4096212772
 12
13.2772872932
 22
17.4096212772
 13
13.2772872932
 23
17.4096212772
  0
SOLID
  8
DRAFT_ENT
 62
2
  6
CONTINUOUS
 10
13.315380522
 20
17.4015243114
 11
13.2772872932
 21
17.4096212772
 12
13.392418005
 22
17.4096212772
 13
13.392418005
 23
17.4096212772
  0
SOLID
  8
DRAFT_ENT
 62
2
  6
CONTINUOUS
 10
13.392418005
 20
17.4096212772
 11
13.3543247762
 21
17.4015243114
 12
13.315380522
 22
17.4015243114
 13
13.315380522
 23
17.4015243114
  0
SOLID
  8
DRAFT_ENT
 62
2
  6
CONTINUOUS
 10
13.7272916799
 20
17.6328481823
 11
13.7272916799
 21
17.7705880583
 12
13.8302502494
 22
17.7705880583
 13
13.8302502494
 23
17.7705880583
  0
SOLID
  8
DRAFT_ENT
 62
2
  6
CONTINUOUS
 10
13.7272916799
 20
17.6328481823
 11
13.6347936553
 21
17.547094866
 12
13.6347936553
 22
17.6328481823
 13
13.6347936553
 23
17.6328481823
  0
SOLID
  8
DRAFT_ENT
 62
2
  6
CONTINUOUS
 10
13.6347936553
 20
17.547094866
 11
13.5318350857
 21
17.4043919576
 12
13.6347936553
 22
17.6328481823
 13
13.6347936553
 23
17.6328481823
  0
SOLID
  8
DRAFT_ENT
 62
2
  6
CONTINUOUS
 10
13.6347936553
 20
17.6328481823
 11
13.5318350857
 21
17.4043919576
 12
13.6347936553
 22
17.7705880583
 13
13.6347936553
 23
17.7705880583
  0
SOLID
  8
DRAFT_ENT
 62
2
  6
CONTINUOUS
 10
13.5318350857
 20
17.4043919576
 11
13.5318350857
 21
17.7705880583
 12
13.6347936553
 22
17.7705880583
 13
13.6347936553
 23
17.7705880583
  0
SOLID
  8
DRAFT_ENT
 62
2
  6
CONTINUOUS
 10
13.6347936553
 20
17.547094866
 11
13.6347936553
 21
17.4043919576
 12
13.5318350857
 22
17.4043919576
 13
13.5318350857
 23
17.4043919576
  0
SOLID
  8
DRAFT_ENT
 62
2
  6
CONTINUOUS
 10
13.6347936553
 20
17.547094866
 11
13.7272916799
 21
17.6328481823
 12
13.7272916799
 22
17.547094866
 13
13.7272916799
 23
17.547094866
  0
SOLID
  8
DRAFT_ENT
 62
2
  6
CONTINUOUS
 10
13.7272916799
 20
17.6328481823
 11
13.8302502494
 21
17.7705880583
 12
13.7272916799
 22
17.547094866
 13
13.7272916799
 23
17.547094866
  0
SOLID
  8
DRAFT_ENT
 62
2
  6
CONTINUOUS
 10
13.7272916799
 20
17.547094866
 11
13.8302502494
 21
17.7705880583
 12
13.7272916799
 22
17.4043919576
 13
13.7272916799
 23
17.4043919576
  0
SOLID
  8
DRAFT_ENT
 62
2
  6
CONTINUOUS
 10
13.8302502494
 20
17.7705880583
 11
13.8302502494
 21
17.4043919576
 12
13.7272916799
 22
17.4043919576
 13
13.7272916799
 23
17.4043919576
  0
SOLID
  8
DRAFT_ENT
 62
2
  6
CONTINUOUS
 10
14.0538596527
 20
17.4926586977
 11
13.8584032824
 21
17.4043919576
 12
13.9521820895
 22
17.4926586977
 13
13.9521820895
 23
17.4926586977
  0
SOLID
  8
DRAFT_ENT
 62
2
  6
CONTINUOUS
 10
13.9521820895
 20
17.4926586977
 11
13.8584032824
 21
17.4043919576
 12
13.9521820895
 22
17.7705880583
 13
13.9521820895
 23
17.7705880583
  0
SOLID
  8
DRAFT_ENT
 62
2
  6
CONTINUOUS
 10
13.8584032824
 20
17.4043919576
 11
13.8584032824
 21
17.7705880583
 12
13.9521820895
 22
17.7705880583
 13
13.9521820895
 23
17.7705880583
  0
SOLID
  8
DRAFT_ENT
 62
2
  6
CONTINUOUS
 10
13.8584032824
 20
17.4043919576
 11
14.0538596527
 21
17.4926586977
 12
13.9521820895
 22
17.4043919576
 13
13.9521820895
 23
17.4043919576
  0
SOLID
  8
DRAFT_ENT
 62
2
  6
CONTINUOUS
 10
14.0538596527
 20
17.4926586977
 11
14.0538596527
 21
17.4043919576
 12
13.9521820895
 22
17.4043919576
 13
13.9521820895
 23
17.4043919576
  0
SOLID
  8
DRAFT_ENT
 62
2
  6
CONTINUOUS
 10
14.2652671393
 20
17.7705880583
 11
14.2652671393
 21
17.6813634183
 12
14.1709811692
 22
17.6813634183
 13
14.1709811692
 23
17.6813634183
  0
SOLID
  8
DRAFT_ENT
 62
2
  6
CONTINUOUS
 10
14.2652671393
 20
17.6328481823
 11
14.2652671393
 21
17.5426096641
 12
14.1709811692
 22
17.5426096641
 13
14.1709811692
 23
17.5426096641
  0
SOLID
  8
DRAFT_ENT
 62
2
  6
CONTINUOUS
 10
14.2652671393
 20
17.4926586977
 11
14.0720769928
 21
17.4043919576
 12
14.1709811692
 22
17.4926586977
 13
14.1709811692
 23
17.4926586977
  0
SOLID
  8
DRAFT_ENT
 62
2
  6
CONTINUOUS
 10
14.1709811692
 20
17.4926586977
 11
14.0720769928
 21
17.4043919576
 12
14.1709811692
 22
17.5426096641
 13
14.1709811692
 23
17.5426096641
  0
SOLID
  8
DRAFT_ENT
 62
2
  6
CONTINUOUS
 10
14.2652671393
 20
17.6328481823
 11
14.1709811692
 21
17.5426096641
 12
14.1709811692
 22
17.6328481823
 13
14.1709811692
 23
17.6328481823
  0
SOLID
  8
DRAFT_ENT
 62
2
  6
CONTINUOUS
 10
14.1709811692
 20
17.5426096641
 11
14.0720769928
 21
17.4043919576
 12
14.1709811692
 22
17.6328481823
 13
14.1709811692
 23
17.6328481823
  0
SOLID
  8
DRAFT_ENT
 62
2
  6
CONTINUOUS
 10
14.1709811692
 20
17.6328481823
 11
14.0720769928
 21
17.4043919576
 12
14.1709811692
 22
17.6813634183
 13
14.1709811692
 23
17.6813634183
  0
SOLID
  8
DRAFT_ENT
 62
2
  6
CONTINUOUS
 10
14.2652671393
 20
17.7705880583
 11
14.1709811692
 21
17.6813634183
 12
14.1798588729
 22
17.7705880583
 13
14.1798588729
 23
17.7705880583
  0
SOLID
  8
DRAFT_ENT
 62
2
  6
CONTINUOUS
 10
14.1709811692
 20
17.6813634183
 11
14.0720769928
 21
17.4043919576
 12
14.1798588729
 22
17.7705880583
 13
14.1798588729
 23
17.7705880583
  0
SOLID
  8
DRAFT_ENT
 62
2
  6
CONTINUOUS
 10
14.0720769928
 20
17.4043919576
 11
14.0720769928
 21
17.7705880583
 12
14.1798588729
 22
17.7705880583
 13
14.1798588729
 23
17.7705880583
  0
SOLID
  8
DRAFT_ENT
 62
2
  6
CONTINUOUS
 10
14.2652671393
 20
17.4926586977
 11
14.2652671393
 21
17.4043919576
 12
14.0720769928
 22
17.4043919576
 13
14.0720769928
 23
17.4043919576
  0
SOLID
  8
DRAFT_ENT
 62
2
  6
CONTINUOUS
 10
14.4392471196
 20
17.7705924993
 11
14.4685802649
 21
17.7665860933
 12
14.2932797788
 22
17.7705880583
 13
14.2932797788
 23
17.7705880583
  0
SOLID
  8
DRAFT_ENT
 62
2
  6
CONTINUOUS
 10
14.3874396859
 20
17.6814762705
 11
14.5461520544
 21
17.6843696057
 12
14.4223958685
 22
17.6814762705
 13
14.4223958685
 23
17.6814762705
  0
SOLID
  8
DRAFT_ENT
 62
2
  6
CONTINUOUS
 10
14.4223958685
 20
17.6814762705
 11
14.5461520544
 21
17.6843696057
 12
14.4372224848
 22
17.6780174146
 13
14.4372224848
 23
17.6780174146
  0
SOLID
  8
DRAFT_ENT
 62
2
  6
CONTINUOUS
 10
14.4372224848
 20
17.6780174146
 11
14.5461520544
 21
17.6843696057
 12
14.4489881043
 22
17.6683549909
 13
14.4489881043
 23
17.6683549909
  0
SOLID
  8
DRAFT_ENT
 62
2
  6
CONTINUOUS
 10
14.5461520544
 20
17.6843696057
 11
14.5484478338
 21
17.6548532696
 12
14.4489881043
 22
17.6683549909
 13
14.4489881043
 23
17.6683549909
  0
SOLID
  8
DRAFT_ENT
 62
2
  6
CONTINUOUS
 10
14.4552636921
 20
17.6544838253
 11
14.4489881043
 21
17.6683549909
 12
14.5484478338
 22
17.6548532696
 13
14.5484478338
 23
17.6548532696
  0
SOLID
  8
DRAFT_ENT
 62
2
  6
CONTINUOUS
 10
14.4552636921
 20
17.6544838253
 11
14.5484478338
 21
17.6548532696
 12
14.454753641
 22
17.639267647
 13
14.454753641
 23
17.639267647
  0
SOLID
  8
DRAFT_ENT
 62
2
  6
CONTINUOUS
 10
14.454753641
 20
17.639267647
 11
14.5484478338
 21
17.6548532696
 12
14.4475632519
 22
17.6258478653
 13
14.4475632519
 23
17.6258478653
  0
SOLID
  8
DRAFT_ENT
 62
2
  6
CONTINUOUS
 10
14.5484478338
 20
17.6548532696
 11
14.5427443304
 21
17.6258023703
 12
14.4475632519
 22
17.6258478653
 13
14.4475632519
 23
17.6258478653
  0
SOLID
  8
DRAFT_ENT
 62
2
  6
CONTINUOUS
 10
14.4351769946
 20
17.6169950202
 11
14.4475632519
 21
17.6258478653
 12
14.5427443304
 22
17.6258023703
 13
14.5427443304
 23
17.6258023703
  0
SOLID
  8
DRAFT_ENT
 62
2
  6
CONTINUOUS
 10
14.4351769946
 20
17.6169950202
 11
14.5427443304
 21
17.6258023703
 12
14.420152036
 22
17.6145367986
 13
14.420152036
 23
17.6145367986
  0
SOLID
  8
DRAFT_ENT
 62
2
  6
CONTINUOUS
 10
14.5427443304
 20
17.6258023703
 11
14.5294593431
 21
17.5993449741
 12
14.420152036
 22
17.6145367986
 13
14.420152036
 23
17.6145367986
  0
SOLID
  8
DRAFT_ENT
 62
2
  6
CONTINUOUS
 10
14.484521658
 20
17.5616310759
 11
14.3874396859
 21
17.5274897128
 12
14.5095660373
 22
17.5774191653
 13
14.5095660373
 23
17.5774191653
  0
SOLID
  8
DRAFT_ENT
 62
2
  6
CONTINUOUS
 10
14.5095660373
 20
17.5774191653
 11
14.3874396859
 21
17.5274897128
 12
14.5294593431
 22
17.5993449741
 13
14.5294593431
 23
17.5993449741
  0
SOLID
  8
DRAFT_ENT
 62
2
  6
CONTINUOUS
 10
14.5294593431
 20
17.5993449741
 11
14.3874396859
 21
17.5274897128
 12
14.420152036
 22
17.6145367986
 13
14.420152036
 23
17.6145367986
  0
SOLID
  8
DRAFT_ENT
 62
2
  6
CONTINUOUS
 10
14.3874396859
 20
17.5274897128
 11
14.2932797788
 21
17.4043919576
 12
14.420152036
 22
17.6145367986
 13
14.420152036
 23
17.6145367986
  0
SOLID
  8
DRAFT_ENT
 62
2
  6
CONTINUOUS
 10
14.420152036
 20
17.6145367986
 11
14.2932797788
 21
17.4043919576
 12
14.3874396859
 22
17.6145367986
 13
14.3874396859
 23
17.6145367986
  0
SOLID
  8
DRAFT_ENT
 62
2
  6
CONTINUOUS
 10
14.3874396859
 20
17.6145367986
 11
14.2932797788
 21
17.4043919576
 12
14.3874396859
 22
17.6814762705
 13
14.3874396859
 23
17.6814762705
  0
SOLID
  8
DRAFT_ENT
 62
2
  6
CONTINUOUS
 10
14.5461520544
 20
17.6843696057
 11
14.3874396859
 21
17.6814762705
 12
14.5360251649
 22
17.7121892177
 13
14.5360251649
 23
17.7121892177
  0
SOLID
  8
DRAFT_ENT
 62
2
  6
CONTINUOUS
 10
14.5360251649
 20
17.7121892177
 11
14.3874396859
 21
17.6814762705
 12
14.5188089906
 22
17.7362742348
 13
14.5188089906
 23
17.7362742348
  0
SOLID
  8
DRAFT_ENT
 62
2
  6
CONTINUOUS
 10
14.5188089906
 20
17.7362742348
 11
14.3874396859
 21
17.6814762705
 12
14.4957646685
 22
17.7548603566
 13
14.4957646685
 23
17.7548603566
  0
SOLID
  8
DRAFT_ENT
 62
2
  6
CONTINUOUS
 10
14.4957646685
 20
17.7548603566
 11
14.3874396859
 21
17.6814762705
 12
14.4685802649
 22
17.7665860933
 13
14.4685802649
 23
17.7665860933
  0
SOLID
  8
DRAFT_ENT
 62
2
  6
CONTINUOUS
 10
14.4685802649
 20
17.7665860933
 11
14.3874396859
 21
17.6814762705
 12
14.2932797788
 22
17.7705880583
 13
14.2932797788
 23
17.7705880583
  0
SOLID
  8
DRAFT_ENT
 62
2
  6
CONTINUOUS
 10
14.2932797788
 20
17.4043919576
 11
14.2932797788
 21
17.7705880583
 12
14.3874396859
 22
17.6814762705
 13
14.3874396859
 23
17.6814762705
  0
SOLID
  8
DRAFT_ENT
 62
2
  6
CONTINUOUS
 10
14.3874396859
 20
17.5274897128
 11
14.3874396859
 21
17.4043919576
 12
14.2932797788
 22
17.4043919576
 13
14.2932797788
 23
17.4043919576
  0
SOLID
  8
DRAFT_ENT
 62
2
  6
CONTINUOUS
 10
14.3874396859
 20
17.5274897128
 11
14.484521658
 21
17.5616310759
 12
14.465454344
 22
17.4043919576
 13
14.465454344
 23
17.4043919576
  0
SOLID
  8
DRAFT_ENT
 62
2
  6
CONTINUOUS
 10
14.484521658
 20
17.5616310759
 11
14.5841737039
 21
17.4043919576
 12
14.465454344
 22
17.4043919576
 13
14.465454344
 23
17.4043919576
  0
DIMENSION
  8
0
 62
2
  6
CONTINUOUS
  2
*D0
 10
2.6046457756
 20
11.04284151
 11
10.08847816
 21
10.92565401
 70
128
 13
21.6046578893
 23
11.16784151
 14
2.6046457756
 24
11.16784151
 50
180.0
  0
DIMENSION
  8
0
 62
2
  6
CONTINUOUS
  2
*D1
 10
12.102369965
 20
2.8567552457
 11
12.102369965
 21
8.528537186
 70
128
 13
11.977369965
 23
19.1067545305
 14
11.977369965
 24
2.8567552457
 50
270.0
  0
TEXT
  8
0
 62
2
  6
CONTINUOUS
 10
13.6159285374
 20
3.8974375998
  7
TEXTSTYLE_1
 40
0.152
  1
2002 KOHLER CO.
 41
1.0
 72
0
  0
TEXT
  8
0
 62
7
  6
CONTINUOUS
 10
9.7426715433
 20
3.4810405281
  7
TEXTSTYLE_1
 40
0.152
  1
1002970-7
 41
1.0
 72
0
  0
TEXT
  8
0
 62
7
  6
CONTINUOUS
 10
11.1106715433
 20
3.4810405281
  7
TEXTSTYLE_1
 40
0.152
  1
-C
 41
1.0
 72
0
  0
TEXT
  8
0
 62
7
  6
CONTINUOUS
 10
9.7219990538
 20
1.7796494395
  7
TEXTSTYLE_1
 40
0.152
  1
1002970-7
 41
1.0
 72
0
  0
TEXT
  8
0
 62
7
  6
CONTINUOUS
 10
11.0899990538
 20
1.7796494395
  7
TEXTSTYLE_1
 40
0.152
  1
-C
 41
1.0
 72
0
  0
TEXT
  8
NOTE
 62
2
  6
CONTINUOUS
 10
16.7414612698
 20
7.2997689263
  7
STANDARD
 40
0.15625
  1
CUT ALONG THIS LINE
 41
0.8
 72
0
  0
TEXT
  8
NOTE
 62
2
  6
CONTINUOUS
 10
15.3664612698
 20
7.0653939263
  7
STANDARD
 40
0.15625
  1
CORTE A LO LARGO DE ESTÁ LÍNEA
 41
0.8
 72
0
  0
TEXT
  8
NOTE
 62
2
  6
CONTINUOUS
 10
15.2414612698
 20
6.8310189263
  7
STANDARD
 40
0.15625
  1
DÉCOUPER AU LONG DE CETTE LIGNE
 41
0.8
 72
0
  0
LINE
  8
NOTE
 62
2
  6
CONTINUOUS
 10
20.0949735755
 20
6.3947340713
 11
19.3664612698
 21
7.3778939263
  0
LINE
  8
NOTE
 62
2
  6
CONTINUOUS
 10
19.3664612698
 20
7.3778939263
 11
19.1164612698
 21
7.3778939263
  0
SOLID
  8
NOTE
 62
2
  6
CONTINUOUS
 10
19.9582359367
 20
6.5267781193
 11
20.0949735755
 21
6.3947340713
 12
20.0084522571
 22
6.5639879455
 13
20.0084522571
 23
6.5639879455
  0
TEXT
  8
NOTE
 62
2
  6
CONTINUOUS
 10
16.1931748243
 20
5.7886027516
  7
STANDARD
 40
0.15625
  1
RIM OF LAVATORY
 41
0.8
 72
0
  0
TEXT
  8
NOTE
 62
2
  6
CONTINUOUS
 10
16.0681748243
 20
5.5542277516
  7
STANDARD
 40
0.15625
  1
BORDE DEL LAVABO
 41
0.8
 72
0
  0
TEXT
  8
NOTE
 62
2
  6
CONTINUOUS
 10
16.0681748243
 20
5.3198527516
  7
STANDARD
 40
0.15625
  1
REBORD DE LAVABO
 41
0.8
 72
0
  0
LINE
  8
NOTE
 62
2
  6
CONTINUOUS
 10
19.2898902109
 20
4.6697432709
 11
18.3181748243
 21
5.8667277516
  0
LINE
  8
NOTE
 62
2
  6
CONTINUOUS
 10
18.3181748243
 20
5.8667277516
 11
18.0681748243
 21
5.8667277516
  0
SOLID
  8
NOTE
 62
2
  6
CONTINUOUS
 10
19.1474533972
 20
4.7956184733
 11
19.2898902109
 21
4.6697432709
 12
19.1959770744
 22
4.8350101317
 13
19.1959770744
 23
4.8350101317
  0
TEXT
  8
NOTE
 62
2
  6
CONTINUOUS
 10
15.4235654927
 20
12.4946230207
  7
TEXTSTYLE_2
 40
0.08
  1
XXXXX-XX-X-XX
 41
0.85
 72
0
  0
TEXT
  8
NOTE
 62
2
  6
CONTINUOUS
 10
16.8907974519
 20
12.3917868686
  7
STANDARD
 40
0.03875
  1
xxxxxx-xx
 41
0.8
 72
0
  0
TEXT
  8
NOTE
 62
2
  6
CONTINUOUS
 10
12.8989300256
 20
17.101346988
  7
STANDARD
 40
0.15625
  1
CUT-OUT TEMPLATE
 41
0.8
 72
0
  0
TEXT
  8
NOTE
 62
2
  6
CONTINUOUS
 10
12.8989300256
 20
16.866971988
  7
STANDARD
 40
0.15625
  1
SELF-RIMMING LAVATORY
 41
0.8
 72
0
  0
TEXT
  8
NOTE
 62
2
  6
CONTINUOUS
 10
12.8989300256
 20
16.632596988
  7
STANDARD
 40
0.15625
  1
PLANTILLA DE RECORTE
 41
0.8
 72
0
  0
TEXT
  8
NOTE
 62
2
  6
CONTINUOUS
 10
12.8989300256
 20
16.398221988
  7
STANDARD
 40
0.15625
  1
LAVABO CON BORDE TERMINADO
 41
0.8
 72
0
  0
TEXT
  8
NOTE
 62
2
  6
CONTINUOUS
 10
12.8989300256
 20
16.163846988
  7
STANDARD
 40
0.15625
  1
GABARIT
 41
0.8
 72
0
  0
TEXT
  8
NOTE
 62
2
  6
CONTINUOUS
 10
12.8989300256
 20
15.929471988
  7
STANDARD
 40
0.15625
  1
LAVABO À REBORD INTÉGRÉ
 41
0.8
 72
0
  0
TEXT
  8
NOTE
 62
2
  6
CONTINUOUS
 10
14.1489300256
 20
15.751346988
  7
STANDARD
 40
0.1
  1
TM
 41
0.8
 72
0
  0
TEXT
  8
NOTE
 62
2
  6
CONTINUOUS
 10
12.8989300256
 20
15.620096988
  7
STANDARD
 40
0.15625
  1
PENNINGTON
 41
0.8
 72
0
  0
TEXT
  8
NOTE
 62
2
  6
CONTINUOUS
 10
14.3089300256
 20
15.620096988
  7
STANDARD
 40
0.15625
  1
 2196-**-**-AB
 41
0.8
 72
0
  0
TEXT
  8
NOTE
 62
2
  6
CONTINUOUS
 10
15.8763991793
 20
15.6020669356
  7
STANDARD
 40
0.15625
  1
 
 41
0.8
 72
0
  0
TEXT
  8
NOTE
 62
2
  6
CONTINUOUS
 10
14.1479956483
 20
13.8255804247
  7
STANDARD
 40
0.15625
  1
PACKAGING/UPC LABEL ON BOX
 41
0.8
 72
0
  0
TEXT
  8
NOTE
 62
2
  6
CONTINUOUS
 10
14.1479956483
 20
13.5912054247
  7
STANDARD
 40
0.15625
  1
ETIQUETA DE EMBALAJE / UPC EN LA CAJA
 41
0.8
 72
0
  0
TEXT
  8
NOTE
 62
2
  6
CONTINUOUS
 10
14.1479956483
 20
13.3568304247
  7
STANDARD
 40
0.15625
  1
ETIQUETTE D'EMBALLAGE / UPC SUR LA BOÎTE
 41
0.8
 72
0
  0
TEXT
  8
NOTE
 62
2
  6
CONTINUOUS
 10
14.0159833721
 20
12.0394207014
  7
STANDARD
 40
0.15625
  1
The template and the label suffixes circled
 41
0.8
 72
0
  0
TEXT
  8
NOTE
 62
2
  6
CONTINUOUS
 10
14.0159833721
 20
11.8050457014
  7
STANDARD
 40
0.15625
  1
must match for proper cut-out.
 41
0.8
 72
0
  0
TEXT
  8
NOTE
 62
2
  6
CONTINUOUS
 10
14.0159833721
 20
11.5706707014
  7
STANDARD
 40
0.15625
  1
 
 41
0.8
 72
0
  0
TEXT
  8
NOTE
 62
2
  6
CONTINUOUS
 10
14.0159833721
 20
11.3362957014
  7
STANDARD
 40
0.15625
  1
A fin de realizar el corte apropiado, la plantilla y
 41
0.8
 72
0
  0
TEXT
  8
NOTE
 62
2
  6
CONTINUOUS
 10
14.0159833721
 20
11.1019207014
  7
STANDARD
 40
0.15625
  1
los sufijos de la etiqueta demarcados deben concordar
 41
0.8
 72
0
  0
TEXT
  8
NOTE
 62
2
  6
CONTINUOUS
 10
14.0159833721
 20
10.8675457014
  7
STANDARD
 40
0.15625
  1
 
 41
0.8
 72
0
  0
TEXT
  8
NOTE
 62
2
  6
CONTINUOUS
 10
14.0159833721
 20
10.6331707014
  7
STANDARD
 40
0.15625
  1
A fin de découper l'ouverture correctement, le gabarit et
 41
0.8
 72
0
  0
TEXT
  8
NOTE
 62
2
  6
CONTINUOUS
 10
14.0159833721
 20
10.3987957014
  7
STANDARD
 40
0.15625
  1
les suffixes encerclés doivent correspondre
 41
0.8
 72
0
  0
TEXT
  8
NOTE
 62
2
  6
CONTINUOUS
 10
3.8412593424
 20
13.8415384162
  7
STANDARD
 40
0.15625
  1
When plotting template full size: Make sure horizontal
 41
0.8
 72
0
  0
TEXT
  8
NOTE
 62
2
  6
CONTINUOUS
 10
3.8412593424
 20
13.6071634162
  7
STANDARD
 40
0.15625
  1
and vertical dimensions match the dimensions labeled
 41
0.8
 72
0
  0
TEXT
  8
NOTE
 62
2
  6
CONTINUOUS
 10
3.8412593424
 20
13.3727884162
  7
STANDARD
 40
0.15625
  1
on the template.
 41
0.8
 72
0
  0
TEXT
  8
NOTE
 62
2
  6
CONTINUOUS
 10
3.8412593424
 20
13.1384134162
  7
STANDARD
 40
0.15625
  1
 
 41
0.8
 72
0
  0
TEXT
  8
NOTE
 62
2
  6
CONTINUOUS
 10
3.8412593424
 20
12.9040384162
  7
STANDARD
 40
0.15625
  1
Al trazar una plantilla a escala, asegúrese de que
 41
0.8
 72
0
  0
TEXT
  8
NOTE
 62
2
  6
CONTINUOUS
 10
3.8412593424
 20
12.6696634162
  7
STANDARD
 40
0.15625
  1
las dimensiones horizontales y verticales concuerden
 41
0.8
 72
0
  0
TEXT
  8
NOTE
 62
2
  6
CONTINUOUS
 10
3.8412593424
 20
12.4352884162
  7
STANDARD
 40
0.15625
  1
con las dimensiones marcadas en la plantilla
 41
0.8
 72
0
  0
TEXT
  8
NOTE
 62
2
  6
CONTINUOUS
 10
3.8412593424
 20
12.2009134162
  7
STANDARD
 40
0.15625
  1
 
 41
0.8
 72
0
  0
TEXT
  8
NOTE
 62
2
  6
CONTINUOUS
 10
3.8412593424
 20
11.9665384162
  7
STANDARD
 40
0.15625
  1
Au moment de tracer un gabarit à l'échelle, s'assurer que
 41
0.8
 72
0
  0
TEXT
  8
NOTE
 62
2
  6
CONTINUOUS
 10
3.8412593424
 20
11.7321634162
  7
STANDARD
 40
0.15625
  1
les dimensions horizotales et verticales correspondent
 41
0.8
 72
0
  0
TEXT
  8
NOTE
 62
2
  6
CONTINUOUS
 10
3.8412593424
 20
11.4977884162
  7
STANDARD
 40
0.15625
  1
avec les dimensions sur le gabarit
 41
0.8
 72
0
  0
TEXT
  8
NOTE
 62
2
  6
CONTINUOUS
 10
13.3840835662
 20
3.8975595456
  7
STANDARD
 40
0.15625
  1
C
 41
0.8
 72
0
  0
POLYLINE
  8
DEFAULT_2
 62
8
  6
CONTINUOUS
 66
1
 70
0
  0
VERTEX
  8
DEFAULT_2
 62
8
  6
CONTINUOUS
 10
4.1224845904
 20
5.4075718382
  0
VERTEX
  8
DEFAULT_2
 62
8
  6
CONTINUOUS
 10
4.3096095059
 20
5.2190496772
  0
VERTEX
  8
DEFAULT_2
 62
8
  6
CONTINUOUS
 10
4.5018129315
 20
5.0357079246
  0
VERTEX
  8
DEFAULT_2
 62
8
  6
CONTINUOUS
 10
4.6989514994
 20
4.8576833382
  0
VERTEX
  8
DEFAULT_2
 62
8
  6
CONTINUOUS
 10
4.9008781607
 20
4.6851087094
  0
VERTEX
  8
DEFAULT_2
 62
8
  6
CONTINUOUS
 10
5.107442295
 20
4.5181127647
  0
VERTEX
  8
DEFAULT_2
 62
8
  6
CONTINUOUS
 10
5.3184898225
 20
4.3568200689
  0
VERTEX
  8
DEFAULT_2
 62
8
  6
CONTINUOUS
 10
5.5338633195
 20
4.2013509331
  0
VERTEX
  8
DEFAULT_2
 62
8
  6
CONTINUOUS
 10
5.7534021353
 20
4.0518213243
  0
VERTEX
  8
DEFAULT_2
 62
8
  6
CONTINUOUS
 10
5.9769425122
 20
3.9083427789
  0
VERTEX
  8
DEFAULT_2
 62
8
  6
CONTINUOUS
 10
6.2043177077
 20
3.7710223202
  0
VERTEX
  8
DEFAULT_2
 62
8
  6
CONTINUOUS
 10
6.4353581189
 20
3.6399623777
  0
VERTEX
  8
DEFAULT_2
 62
8
  6
CONTINUOUS
 10
6.6698914089
 20
3.5152607113
  0
VERTEX
  8
DEFAULT_2
 62
8
  6
CONTINUOUS
 10
6.9077426355
 20
3.3970103378
  0
VERTEX
  8
DEFAULT_2
 62
8
  6
CONTINUOUS
 10
7.1487343813
 20
3.2852994624
  0
VERTEX
  8
DEFAULT_2
 62
8
  6
CONTINUOUS
 10
7.3926868867
 20
3.1802114119
  0
VERTEX
  8
DEFAULT_2
 62
8
  6
CONTINUOUS
 10
7.6394181835
 20
3.0818245733
  0
VERTEX
  8
DEFAULT_2
 62
8
  6
CONTINUOUS
 10
7.8887442306
 20
2.990212335
  0
VERTEX
  8
DEFAULT_2
 62
8
  6
CONTINUOUS
 10
8.1404790517
 20
2.9054430321
  0
SEQEND
  0
POLYLINE
  8
0
 62
7
  6
CONTINUOUS
 66
1
 70
0
  0
VERTEX
  8
0
 62
7
  6
CONTINUOUS
 10
4.5720338869
 20
5.841772405
  0
VERTEX
  8
0
 62
7
  6
CONTINUOUS
 10
4.7471350648
 20
5.6653635463
  0
VERTEX
  8
0
 62
7
  6
CONTINUOUS
 10
4.9269880838
 20
5.4938025108
  0
VERTEX
  8
0
 62
7
  6
CONTINUOUS
 10
5.1114588286
 20
5.3272172304
  0
VERTEX
  8
0
 62
7
  6
CONTINUOUS
 10
5.3004097404
 20
5.1657319268
  0
VERTEX
  8
0
 62
7
  6
CONTINUOUS
 10
5.4936999199
 20
5.0094670186
  0
VERTEX
  8
0
 62
7
  6
CONTINUOUS
 10
5.6911852315
 20
4.8585390315
  0
VERTEX
  8
0
 62
7
  6
CONTINUOUS
 10
5.8927184119
 20
4.7130605116
  0
VERTEX
  8
0
 62
7
  6
CONTINUOUS
 10
6.0981491789
 20
4.5731399414
  0
VERTEX
  8
0
 62
7
  6
CONTINUOUS
 10
6.3073243441
 20
4.4388816588
  0
VERTEX
  8
0
 62
7
  6
CONTINUOUS
 10
6.5200879268
 20
4.3103857792
  0
VERTEX
  8
0
 62
7
  6
CONTINUOUS
 10
6.7362812706
 20
4.1877481214
  0
VERTEX
  8
0
 62
7
  6
CONTINUOUS
 10
6.9557431613
 20
4.0710601355
  0
VERTEX
  8
0
 62
7
  6
CONTINUOUS
 10
7.1783099477
 20
3.9604088349
  0
VERTEX
  8
0
 62
7
  6
CONTINUOUS
 10
7.4038156631
 20
3.8558767318
  0
VERTEX
  8
0
 62
7
  6
CONTINUOUS
 10
7.6320921492
 20
3.7575417749
  0
VERTEX
  8
0
 62
7
  6
CONTINUOUS
 10
7.8629691816
 20
3.6654772921
  0
VERTEX
  8
0
 62
7
  6
CONTINUOUS
 10
8.0962745968
 20
3.5797519353
  0
VERTEX
  8
0
 62
7
  6
CONTINUOUS
 10
8.3318344204
 20
3.5004296294
  0
SEQEND
  0
POLYLINE
  8
DEFAULT_2
 62
8
  6
CONTINUOUS
 66
1
 70
0
  0
VERTEX
  8
DEFAULT_2
 62
8
  6
CONTINUOUS
 10
8.1404836164
 20
19.0580695105
  0
VERTEX
  8
DEFAULT_2
 62
8
  6
CONTINUOUS
 10
7.8875018173
 20
18.9656842737
  0
VERTEX
  8
DEFAULT_2
 62
8
  6
CONTINUOUS
 10
7.6370994008
 20
18.8665196021
  0
VERTEX
  8
DEFAULT_2
 62
8
  6
CONTINUOUS
 10
7.3894580357
 20
18.7606474404
  0
VERTEX
  8
DEFAULT_2
 62
8
  6
CONTINUOUS
 10
7.1447573882
 20
18.6481445998
  0
VERTEX
  8
DEFAULT_2
 62
8
  6
CONTINUOUS
 10
6.9031749907
 20
18.5290927022
  0
VERTEX
  8
DEFAULT_2
 62
8
  6
CONTINUOUS
 10
6.6648861133
 20
18.4035781206
  0
VERTEX
  8
DEFAULT_2
 62
8
  6
CONTINUOUS
 10
6.4300636366
 20
18.2716919171
  0
VERTEX
  8
DEFAULT_2
 62
8
  6
CONTINUOUS
 10
6.1988779265
 20
18.1335297762
  0
VERTEX
  8
DEFAULT_2
 62
8
  6
CONTINUOUS
 10
5.9714967102
 20
17.9891919358
  0
VERTEX
  8
DEFAULT_2
 62
8
  6
CONTINUOUS
 10
5.7480849547
 20
17.8387831142
  0
VERTEX
  8
DEFAULT_2
 62
8
  6
CONTINUOUS
 10
5.5288047472
 20
17.6824124343
  0
VERTEX
  8
DEFAULT_2
 62
8
  6
CONTINUOUS
 10
5.3138151775
 20
17.5201933445
  0
VERTEX
  8
DEFAULT_2
 62
8
  6
CONTINUOUS
 10
5.1032722223
 20
17.352243536
  0
VERTEX
  8
DEFAULT_2
 62
8
  6
CONTINUOUS
 10
4.8973286323
 20
17.178684858
  0
VERTEX
  8
DEFAULT_2
 62
8
  6
CONTINUOUS
 10
4.6961338215
 20
16.9996432288
  0
VERTEX
  8
DEFAULT_2
 62
8
  6
CONTINUOUS
 10
4.4998337585
 20
16.8152485446
  0
VERTEX
  8
DEFAULT_2
 62
8
  6
CONTINUOUS
 10
4.3085708606
 20
16.6256345854
  0
VERTEX
  8
DEFAULT_2
 62
8
  6
CONTINUOUS
 10
4.1224838907
 20
16.4309389178
  0
SEQEND
  0
POLYLINE
  8
0
 62
7
  6
CONTINUOUS
 66
1
 70
0
  0
VERTEX
  8
0
 62
7
  6
CONTINUOUS
 10
8.346945922
 20
18.4681557336
  0
VERTEX
  8
0
 62
7
  6
CONTINUOUS
 10
8.1097740093
 20
18.3815439693
  0
VERTEX
  8
0
 62
7
  6
CONTINUOUS
 10
7.8750207939
 20
18.2885767227
  0
VERTEX
  8
0
 62
7
  6
CONTINUOUS
 10
7.6428565232
 20
18.1893214154
  0
VERTEX
  8
0
 62
7
  6
CONTINUOUS
 10
7.4134495674
 20
18.0838500293
  0
VERTEX
  8
0
 62
7
  6
CONTINUOUS
 10
7.1869662968
 20
17.9722390544
  0
VERTEX
  8
0
 62
7
  6
CONTINUOUS
 10
6.9635709615
 20
17.8545694331
  0
VERTEX
  8
0
 62
7
  6
CONTINUOUS
 10
6.7434255722
 20
17.7309265016
  0
VERTEX
  8
0
 62
7
  6
CONTINUOUS
 10
6.5266897826
 20
17.6013999283
  0
VERTEX
  8
0
 62
7
  6
CONTINUOUS
 10
6.3135207736
 20
17.4660836483
  0
VERTEX
  8
0
 62
7
  6
CONTINUOUS
 10
6.1040731396
 20
17.3250757956
  0
VERTEX
  8
0
 62
7
  6
CONTINUOUS
 10
5.898498776
 20
17.1784786319
  0
VERTEX
  8
0
 62
7
  6
CONTINUOUS
 10
5.6969467695
 20
17.0263984723
  0
VERTEX
  8
0
 62
7
  6
CONTINUOUS
 10
5.4995632894
 20
16.8689456082
  0
VERTEX
  8
0
 62
7
  6
CONTINUOUS
 10
5.306491482
 20
16.7062342275
  0
VERTEX
  8
0
 62
7
  6
CONTINUOUS
 10
5.1178713669
 20
16.5383823317
  0
VERTEX
  8
0
 62
7
  6
CONTINUOUS
 10
4.9338397349
 20
16.3655116503
  0
VERTEX
  8
0
 62
7
  6
CONTINUOUS
 10
4.7545300494
 20
16.1877475524
  0
VERTEX
  8
0
 62
7
  6
CONTINUOUS
 10
4.5800723493
 20
16.005218956
  0
SEQEND
  0
POLYLINE
  8
0
 62
7
  6
CONTINUOUS
 66
1
 70
0
  0
VERTEX
  8
0
 62
7
  6
CONTINUOUS
 10
8.3469503778
 20
3.495355964
  0
VERTEX
  8
0
 62
7
  6
CONTINUOUS
 10
8.6158430975
 20
3.4049920861
  0
VERTEX
  8
0
 62
7
  6
CONTINUOUS
 10
8.8869053636
 20
3.3213614214
  0
VERTEX
  8
0
 62
7
  6
CONTINUOUS
 10
9.159968611
 20
3.2445159773
  0
VERTEX
  8
0
 62
7
  6
CONTINUOUS
 10
9.4348630305
 20
3.1745035413
  0
VERTEX
  8
0
 62
7
  6
CONTINUOUS
 10
9.7114176739
 20
3.1113676521
  0
VERTEX
  8
0
 62
7
  6
CONTINUOUS
 10
9.9894605609
 20
3.0551475718
  0
VERTEX
  8
0
 62
7
  6
CONTINUOUS
 10
10.2688187854
 20
3.0058782619
  0
VERTEX
  8
0
 62
7
  6
CONTINUOUS
 10
10.5493186234
 20
2.9635903614
  0
VERTEX
  8
0
 62
7
  6
CONTINUOUS
 10
10.830785641
 20
2.9283101678
  0
VERTEX
  8
0
 62
7
  6
CONTINUOUS
 10
11.1130448029
 20
2.9000596207
  0
VERTEX
  8
0
 62
7
  6
CONTINUOUS
 10
11.3959205812
 20
2.8788562883
  0
VERTEX
  8
0
 62
7
  6
CONTINUOUS
 10
11.6792370643
 20
2.8647133562
  0
VERTEX
  8
0
 62
7
  6
CONTINUOUS
 10
11.9628180669
 20
2.8576396194
  0
VERTEX
  8
0
 62
7
  6
CONTINUOUS
 10
12.2464872389
 20
2.8576394769
  0
VERTEX
  8
0
 62
7
  6
CONTINUOUS
 10
12.5300681757
 20
2.8647129288
  0
VERTEX
  8
0
 62
7
  6
CONTINUOUS
 10
12.8133845271
 20
2.8788555763
  0
VERTEX
  8
0
 62
7
  6
CONTINUOUS
 10
13.0962601079
 20
2.9000586245
  0
VERTEX
  8
0
 62
7
  6
CONTINUOUS
 10
13.3785190067
 20
2.928308888
  0
VERTEX
  8
0
 62
7
  6
CONTINUOUS
 10
13.6599856958
 20
2.9635887989
  0
VERTEX
  8
0
 62
7
  6
CONTINUOUS
 10
13.9404851399
 20
3.0058764175
  0
VERTEX
  8
0
 62
7
  6
CONTINUOUS
 10
14.2198429055
 20
3.0551454468
  0
VERTEX
  8
0
 62
7
  6
CONTINUOUS
 10
14.4978852689
 20
3.1113652478
  0
VERTEX
  8
0
 62
7
  6
CONTINUOUS
 10
14.7744393244
 20
3.1745008591
  0
VERTEX
  8
0
 62
7
  6
CONTINUOUS
 10
15.0493330919
 20
3.2445130189
  0
VERTEX
  8
0
 62
7
  6
CONTINUOUS
 10
15.3223956237
 20
3.3213581887
  0
VERTEX
  8
0
 62
7
  6
CONTINUOUS
 10
15.5934571109
 20
3.4049885811
  0
VERTEX
  8
0
 62
7
  6
CONTINUOUS
 10
15.862348989
 20
3.4953521889
  0
SEQEND
  0
POLYLINE
  8
DEFAULT_2
 62
8
  6
CONTINUOUS
 66
1
 70
0
  0
VERTEX
  8
DEFAULT_2
 62
8
  6
CONTINUOUS
 10
8.1404772174
 20
2.9054437452
  0
VERTEX
  8
DEFAULT_2
 62
8
  6
CONTINUOUS
 10
8.4139720752
 20
2.8133973827
  0
VERTEX
  8
DEFAULT_2
 62
8
  6
CONTINUOUS
 10
8.6896011332
 20
2.7279540131
  0
VERTEX
  8
DEFAULT_2
 62
8
  6
CONTINUOUS
 10
8.9672050054
 20
2.6491630449
  0
VERTEX
  8
DEFAULT_2
 62
8
  6
CONTINUOUS
 10
9.2466231638
 20
2.5770700402
  0
VERTEX
  8
DEFAULT_2
 62
8
  6
CONTINUOUS
 10
9.5276940312
 20
2.5117166875
  0
VERTEX
  8
DEFAULT_2
 62
8
  6
CONTINUOUS
 10
9.8102550751
 20
2.4531407782
  0
VERTEX
  8
DEFAULT_2
 62
8
  6
CONTINUOUS
 10
10.0941429008
 20
2.4013761847
  0
VERTEX
  8
DEFAULT_2
 62
8
  6
CONTINUOUS
 10
10.3791933465
 20
2.3564528404
  0
VERTEX
  8
DEFAULT_2
 62
8
  6
CONTINUOUS
 10
10.6652415784
 20
2.3183967229
  0
VERTEX
  8
DEFAULT_2
 62
8
  6
CONTINUOUS
 10
10.9521221854
 20
2.2872298386
  0
VERTEX
  8
DEFAULT_2
 62
8
  6
CONTINUOUS
 10
11.2396692751
 20
2.2629702101
  0
VERTEX
  8
DEFAULT_2
 62
8
  6
CONTINUOUS
 10
11.5277165698
 20
2.2456318659
  0
VERTEX
  8
DEFAULT_2
 62
8
  6
CONTINUOUS
 10
11.8160975025
 20
2.235224832
  0
VERTEX
  8
DEFAULT_2
 62
8
  6
CONTINUOUS
 10
12.1046453133
 20
2.2317551265
  0
VERTEX
  8
DEFAULT_2
 62
8
  6
CONTINUOUS
 10
12.3931931458
 20
2.2352247558
  0
VERTEX
  8
DEFAULT_2
 62
8
  6
CONTINUOUS
 10
12.6815741435
 20
2.2456317136
  0
VERTEX
  8
DEFAULT_2
 62
8
  6
CONTINUOUS
 10
12.9696215465
 20
2.2629699818
  0
VERTEX
  8
DEFAULT_2
 62
8
  6
CONTINUOUS
 10
13.2571687876
 20
2.2872295343
  0
VERTEX
  8
DEFAULT_2
 62
8
  6
CONTINUOUS
 10
13.5440495892
 20
2.3183963429
  0
VERTEX
  8
DEFAULT_2
 62
8
  6
CONTINUOUS
 10
13.8300980587
 20
2.3564523849
  0
VERTEX
  8
DEFAULT_2
 62
8
  6
CONTINUOUS
 10
14.115148785
 20
2.4013756539
  0
VERTEX
  8
DEFAULT_2
 62
8
  6
CONTINUOUS
 10
14.3990369339
 20
2.4531401725
  0
VERTEX
  8
DEFAULT_2
 62
8
  6
CONTINUOUS
 10
14.6815983435
 20
2.5117160071
  0
VERTEX
  8
DEFAULT_2
 62
8
  6
CONTINUOUS
 10
14.962669619
 20
2.5770692856
  0
VERTEX
  8
DEFAULT_2
 62
8
  6
CONTINUOUS
 10
15.2420882276
 20
2.6491622166
  0
VERTEX
  8
DEFAULT_2
 62
8
  6
CONTINUOUS
 10
15.5196925917
 20
2.7279531115
  0
VERTEX
  8
DEFAULT_2
 62
8
  6
CONTINUOUS
 10
15.7953221832
 20
2.8133964084
  0
VERTEX
  8
DEFAULT_2
 62
8
  6
CONTINUOUS
 10
16.0688176158
 20
2.9054426986
  0
SEQEND
  0
LINE
  8
DRAFT_ENT
 62
2
  6
CONTINUOUS
 10
13.0793682057
 20
17.7705880583
 11
12.993265585
 21
17.6681997952
  0
LINE
  8
DRAFT_ENT
 62
2
  6
CONTINUOUS
 10
13.1994068611
 20
17.7705880583
 11
13.0660921782
 21
17.6120578575
  0
LINE
  8
DEFAULT_1
 62
2
  6
CENTER
 10
12.1046542064
 20
2.8567552457
 11
12.1046542064
 21
1.1894321135
  0
LINE
  8
DEFAULT_1
 62
2
  6
CENTER
 10
12.1046542064
 20
19.1067545305
 11
12.1046542064
 21
20.7317521135
  0
LINE
  8
DRAFT_ENT
 62
2
  6
CONTINUOUS
 10
12.8842029224
 20
17.7705880583
 11
12.8842029224
 21
17.4043769554
  0
LINE
  8
DRAFT_ENT
 62
2
  6
CONTINUOUS
 10
12.993265585
 20
17.7705880583
 11
12.993265585
 21
17.6681997952
  0
LINE
  8
DRAFT_ENT
 62
2
  6
CONTINUOUS
 10
12.993265585
 20
17.5303293779
 11
12.993265585
 21
17.4043919576
  0
LINE
  8
DRAFT_ENT
 62
2
  6
CONTINUOUS
 10
13.5318350857
 20
17.7705880583
 11
13.5318350857
 21
17.4043919576
  0
LINE
  8
DRAFT_ENT
 62
2
  6
CONTINUOUS
 10
13.6347936553
 20
17.7705880583
 11
13.6347936553
 21
17.6328481823
  0
LINE
  8
DRAFT_ENT
 62
2
  6
CONTINUOUS
 10
13.6347936553
 20
17.547094866
 11
13.6347936553
 21
17.4043919576
  0
LINE
  8
DRAFT_ENT
 62
2
  6
CONTINUOUS
 10
13.7272916799
 20
17.7705880583
 11
13.7272916799
 21
17.6328481823
  0
LINE
  8
DRAFT_ENT
 62
2
  6
CONTINUOUS
 10
13.7272916799
 20
17.547094866
 11
13.7272916799
 21
17.4043919576
  0
LINE
  8
DRAFT_ENT
 62
2
  6
CONTINUOUS
 10
13.8302502494
 20
17.7705880583
 11
13.8302502494
 21
17.4043919576
  0
LINE
  8
DRAFT_ENT
 62
2
  6
CONTINUOUS
 10
13.8584032824
 20
17.4043919576
 11
13.8584032824
 21
17.7705880583
  0
LINE
  8
DRAFT_ENT
 62
2
  6
CONTINUOUS
 10
13.9521820895
 20
17.7705880583
 11
13.9521820895
 21
17.4926586977
  0
LINE
  8
DRAFT_ENT
 62
2
  6
CONTINUOUS
 10
14.0538596527
 20
17.4926586977
 11
14.0538596527
 21
17.4043919576
  0
LINE
  8
DRAFT_ENT
 62
2
  6
CONTINUOUS
 10
14.0720769928
 20
17.4043919576
 11
14.0720769928
 21
17.7705880583
  0
LINE
  8
DRAFT_ENT
 62
2
  6
CONTINUOUS
 10
14.1709811692
 20
17.6813634183
 11
14.1709811692
 21
17.6328481823
  0
LINE
  8
DRAFT_ENT
 62
2
  6
CONTINUOUS
 10
14.1709811692
 20
17.5426096641
 11
14.1709811692
 21
17.4926586977
  0
LINE
  8
DRAFT_ENT
 62
2
  6
CONTINUOUS
 10
14.2652671393
 20
17.4043919576
 11
14.2652671393
 21
17.4926586977
  0
LINE
  8
DRAFT_ENT
 62
2
  6
CONTINUOUS
 10
14.2652671393
 20
17.5426096641
 11
14.2652671393
 21
17.6328481823
  0
LINE
  8
DRAFT_ENT
 62
2
  6
CONTINUOUS
 10
14.2652671393
 20
17.6813634183
 11
14.2652671393
 21
17.7705880583
  0
LINE
  8
DRAFT_ENT
 62
2
  6
CONTINUOUS
 10
14.2932797788
 20
17.4043919576
 11
14.2932797788
 21
17.7705880583
  0
LINE
  8
DRAFT_ENT
 62
2
  6
CONTINUOUS
 10
14.3874396859
 20
17.6814762705
 11
14.3874396859
 21
17.6145367986
  0
LINE
  8
DRAFT_ENT
 62
2
  6
CONTINUOUS
 10
14.3874396859
 20
17.5274897128
 11
14.3874396859
 21
17.4043919576
  0
LINE
  8
DRAFT_ENT
 62
2
  6
CONTINUOUS
 10
14.6622262033
 20
17.3838665219
 11
14.6622262033
 21
17.4250954041
  0
LINE
  8
DRAFT_ENT
 62
2
  6
CONTINUOUS
 10
15.3590023493
 20
12.3141559311
 11
15.3590023493
 21
13.2249121811
  0
LINE
  8
DRAFT_ENT
 62
2
  6
CONTINUOUS
 10
15.3868085993
 20
12.3703371811
 11
15.3868085993
 21
13.1978621811
  0
LINE
  8
DEFAULT_1
 62
2
  6
CENTER
 10
2.6056826973
 20
11.0442521135
 11
0.9806042064
 21
11.0442521135
  0
LINE
  8
DEFAULT_1
 62
2
  6
CENTER
 10
21.6036209655
 20
11.0442521135
 11
23.2286942064
 21
11.0442521135
  0
LINE
  8
DRAFT_ENT
 62
2
  6
CONTINUOUS
 10
17.2076773493
 20
13.1978621811
 11
17.2076773493
 21
12.3703371811
  0
LINE
  8
DRAFT_ENT
 62
2
  6
CONTINUOUS
 10
17.2361398493
 20
13.2249121811
 11
17.2361398493
 21
12.3141559311
  0
LINE
  8
DRAFT_ENT
 62
2
  6
CONTINUOUS
 10
17.2361398493
 20
12.3141559311
 11
15.3590023493
 21
12.3141559311
  0
LINE
  8
DRAFT_ENT
 62
2
  6
CONTINUOUS
 10
13.0893518159
 20
17.4043919576
 11
12.993265585
 21
17.5303293779
  0
LINE
  8
DRAFT_ENT
 62
2
  6
CONTINUOUS
 10
13.2245346052
 20
17.4043919576
 11
13.0660921782
 21
17.6120578575
  0
LINE
  8
DRAFT_ENT
 62
2
  6
CONTINUOUS
 10
14.465454344
 20
17.4043919576
 11
14.3874396859
 21
17.5274897128
  0
LINE
  8
DRAFT_ENT
 62
2
  6
CONTINUOUS
 10
17.2076773493
 20
12.3703371811
 11
15.3868085993
 21
12.3703371811
  0
LINE
  8
DRAFT_ENT
 62
2
  6
CONTINUOUS
 10
15.3868085993
 20
13.1978621811
 11
17.2076773493
 21
13.1978621811
  0
LINE
  8
DRAFT_ENT
 62
2
  6
CONTINUOUS
 10
15.3590023493
 20
13.2249121811
 11
17.2361398493
 21
13.2249121811
  0
LINE
  8
DRAFT_ENT
 62
2
  6
CONTINUOUS
 10
14.5841737039
 20
17.4043919576
 11
14.484521658
 21
17.5616310759
  0
LINE
  8
DRAFT_ENT
 62
2
  6
CONTINUOUS
 10
14.6694749398
 20
17.4040558641
 11
14.6893924516
 21
17.3838665219
  0
POLYLINE
  8
0
 62
7
  6
CONTINUOUS
 66
1
 70
0
  0
VERTEX
  8
0
 62
7
  6
CONTINUOUS
 10
19.6292292199
 20
16.0052180763
  0
VERTEX
  8
0
 62
7
  6
CONTINUOUS
 10
19.4547724502
 20
16.187745787
  0
VERTEX
  8
0
 62
7
  6
CONTINUOUS
 10
19.2754633089
 20
16.365509321
  0
VERTEX
  8
0
 62
7
  6
CONTINUOUS
 10
19.0914318779
 20
16.5383797175
  0
VERTEX
  8
0
 62
7
  6
CONTINUOUS
 10
18.9028116649
 20
16.7062315659
  0
VERTEX
  8
0
 62
7
  6
CONTINUOUS
 10
18.7097395068
 20
16.868943096
  0
VERTEX
  8
0
 62
7
  6
CONTINUOUS
 10
18.5123554699
 20
17.0263962668
  0
VERTEX
  8
0
 62
7
  6
CONTINUOUS
 10
18.3108027487
 20
17.1784768521
  0
VERTEX
  8
0
 62
7
  6
CONTINUOUS
 10
18.1052275621
 20
17.3250745232
  0
VERTEX
  8
0
 62
7
  6
CONTINUOUS
 10
17.895779047
 20
17.4660829293
  0
VERTEX
  8
0
 62
7
  6
CONTINUOUS
 10
17.6826091501
 20
17.6013997741
  0
VERTEX
  8
0
 62
7
  6
CONTINUOUS
 10
17.4658725182
 20
17.7309268904
  0
VERTEX
  8
0
 62
7
  6
CONTINUOUS
 10
17.2457263852
 20
17.8545703113
  0
VERTEX
  8
0
 62
7
  6
CONTINUOUS
 10
17.0223304588
 20
17.9722403382
  0
VERTEX
  8
0
 62
7
  6
CONTINUOUS
 10
16.7958468042
 20
18.083851606
  0
VERTEX
  8
0
 62
7
  6
CONTINUOUS
 10
16.5664397265
 20
18.1893231451
  0
VERTEX
  8
0
 62
7
  6
CONTINUOUS
 10
16.3342756517
 20
18.2885784398
  0
VERTEX
  8
0
 62
7
  6
CONTINUOUS
 10
16.0995230061
 20
18.3815454843
  0
VERTEX
  8
0
 62
7
  6
CONTINUOUS
 10
15.8623520936
 20
18.4681568346
  0
SEQEND
  0
POLYLINE
  8
DEFAULT_2
 62
8
  6
CONTINUOUS
 66
1
 70
0
  0
VERTEX
  8
DEFAULT_2
 62
8
  6
CONTINUOUS
 10
20.0868174913
 20
16.4309354917
  0
VERTEX
  8
DEFAULT_2
 62
8
  6
CONTINUOUS
 10
19.9007295108
 20
16.6256323465
  0
VERTEX
  8
DEFAULT_2
 62
8
  6
CONTINUOUS
 10
19.7094659257
 20
16.8152472217
  0
VERTEX
  8
DEFAULT_2
 62
8
  6
CONTINUOUS
 10
19.5131654678
 20
16.9996425815
  0
VERTEX
  8
DEFAULT_2
 62
8
  6
CONTINUOUS
 10
19.3119705225
 20
17.1786846756
  0
VERTEX
  8
DEFAULT_2
 62
8
  6
CONTINUOUS
 10
19.1060270254
 20
17.3522436371
  0
VERTEX
  8
DEFAULT_2
 62
8
  6
CONTINUOUS
 10
18.8954843563
 20
17.5201935759
  0
VERTEX
  8
DEFAULT_2
 62
8
  6
CONTINUOUS
 10
18.6804952311
 20
17.6824126705
  0
VERTEX
  8
DEFAULT_2
 62
8
  6
CONTINUOUS
 10
18.461215591
 20
17.8387832564
  0
VERTEX
  8
DEFAULT_2
 62
8
  6
CONTINUOUS
 10
18.237804489
 20
17.989191911
  0
VERTEX
  8
DEFAULT_2
 62
8
  6
CONTINUOUS
 10
18.010423975
 20
18.1335295363
  0
VERTEX
  8
DEFAULT_2
 62
8
  6
CONTINUOUS
 10
17.7792389783
 20
18.2716914379
  0
VERTEX
  8
DEFAULT_2
 62
8
  6
CONTINUOUS
 10
17.5444171873
 20
18.4035774008
  0
VERTEX
  8
DEFAULT_2
 62
8
  6
CONTINUOUS
 10
17.3061289288
 20
18.5290917625
  0
VERTEX
  8
DEFAULT_2
 62
8
  6
CONTINUOUS
 10
17.0645470437
 20
18.6481434817
  0
VERTEX
  8
DEFAULT_2
 62
8
  6
CONTINUOUS
 10
16.819846762
 20
18.7606462051
  0
VERTEX
  8
DEFAULT_2
 62
8
  6
CONTINUOUS
 10
16.5722055754
 20
18.8665183294
  0
VERTEX
  8
DEFAULT_2
 62
8
  6
CONTINUOUS
 10
16.3218031092
 20
18.9656830609
  0
VERTEX
  8
DEFAULT_2
 62
8
  6
CONTINUOUS
 10
16.0688209913
 20
19.0580684711
  0
SEQEND
  0
POLYLINE
  8
0
 62
7
  6
CONTINUOUS
 66
1
 70
0
  0
VERTEX
  8
0
 62
7
  6
CONTINUOUS
 10
15.8774680657
 20
3.5004287616
  0
VERTEX
  8
0
 62
7
  6
CONTINUOUS
 10
16.1130243603
 20
3.5797498443
  0
VERTEX
  8
0
 62
7
  6
CONTINUOUS
 10
16.3463271911
 20
3.6654743925
  0
VERTEX
  8
0
 62
7
  6
CONTINUOUS
 10
16.5772024759
 20
3.7575384416
  0
VERTEX
  8
0
 62
7
  6
CONTINUOUS
 10
16.8054779441
 20
3.8558732969
  0
VERTEX
  8
0
 62
7
  6
CONTINUOUS
 10
17.0309832648
 20
3.9604055843
  0
VERTEX
  8
0
 62
7
  6
CONTINUOUS
 10
17.2535501742
 20
4.0710573057
  0
VERTEX
  8
0
 62
7
  6
CONTINUOUS
 10
17.473012601
 20
4.1877458969
  0
VERTEX
  8
0
 62
7
  6
CONTINUOUS
 10
17.6892067902
 20
4.310384289
  0
VERTEX
  8
0
 62
7
  6
CONTINUOUS
 10
17.9019714257
 20
4.4388809738
  0
VERTEX
  8
0
 62
7
  6
CONTINUOUS
 10
18.1111477503
 20
4.5731400718
  0
VERTEX
  8
0
 62
7
  6
CONTINUOUS
 10
18.3165796842
 20
4.7130614036
  0
VERTEX
  8
0
 62
7
  6
CONTINUOUS
 10
18.5181139416
 20
4.8585405651
  0
VERTEX
  8
0
 62
7
  6
CONTINUOUS
 10
18.715600145
 20
5.0094690051
  0
VERTEX
  8
0
 62
7
  6
CONTINUOUS
 10
18.9088909373
 20
5.1657341062
  0
VERTEX
  8
0
 62
7
  6
CONTINUOUS
 10
19.0978420921
 20
5.3272192691
  0
VERTEX
  8
0
 62
7
  6
CONTINUOUS
 10
19.2823126209
 20
5.4938039995
  0
VERTEX
  8
0
 62
7
  6
CONTINUOUS
 10
19.4621648784
 20
5.6653639979
  0
VERTEX
  8
0
 62
7
  6
CONTINUOUS
 10
19.6372646655
 20
5.8417712525
  0
SEQEND
  0
LINE
  8
DRAFT_ENT
 62
2
  6
CONTINUOUS
 10
12.993265585
 20
17.4043919576
 11
12.8842029224
 21
17.4043769554
  0
LINE
  8
DRAFT_ENT
 62
2
  6
CONTINUOUS
 10
14.6774007893
 20
17.4040558641
 11
14.6622262033
 21
17.4040558641
  0
LINE
  8
DRAFT_ENT
 62
2
  6
CONTINUOUS
 10
13.8302502494
 20
17.4043919576
 11
13.7272916799
 21
17.4043919576
  0
LINE
  8
DRAFT_ENT
 62
2
  6
CONTINUOUS
 10
13.6347936553
 20
17.4043919576
 11
13.5318350857
 21
17.4043919576
  0
LINE
  8
DRAFT_ENT
 62
2
  6
CONTINUOUS
 10
13.0893518159
 20
17.4043919576
 11
13.2245346052
 21
17.4043919576
  0
LINE
  8
DRAFT_ENT
 62
2
  6
CONTINUOUS
 10
13.8584032824
 20
17.4043919576
 11
14.0538596527
 21
17.4043919576
  0
LINE
  8
DRAFT_ENT
 62
2
  6
CONTINUOUS
 10
14.0720769928
 20
17.4043919576
 11
14.2652671393
 21
17.4043919576
  0
LINE
  8
DRAFT_ENT
 62
2
  6
CONTINUOUS
 10
14.2932797788
 20
17.4043919576
 11
14.3874396859
 21
17.4043919576
  0
LINE
  8
DRAFT_ENT
 62
2
  6
CONTINUOUS
 10
14.465454344
 20
17.4043919576
 11
14.5841737039
 21
17.4043919576
  0
LINE
  8
DRAFT_ENT
 62
2
  6
CONTINUOUS
 10
14.6622262033
 20
17.4250954041
 11
14.6774007893
 21
17.4250954041
  0
LINE
  8
DRAFT_ENT
 62
2
  6
CONTINUOUS
 10
13.9521820895
 20
17.4926586977
 11
14.0538596527
 21
17.4926586977
  0
LINE
  8
DRAFT_ENT
 62
2
  6
CONTINUOUS
 10
14.1709811692
 20
17.4926586977
 11
14.2652671393
 21
17.4926586977
  0
LINE
  8
DRAFT_ENT
 62
2
  6
CONTINUOUS
 10
14.1709811692
 20
17.5426096641
 11
14.2652671393
 21
17.5426096641
  0
LINE
  8
DRAFT_ENT
 62
2
  6
CONTINUOUS
 10
13.6347936553
 20
17.547094866
 11
13.7272916799
 21
17.547094866
  0
LINE
  8
DRAFT_ENT
 62
2
  6
CONTINUOUS
 10
14.3874396859
 20
17.6145367986
 11
14.420152036
 21
17.6145367986
  0
LINE
  8
DRAFT_ENT
 62
2
  6
CONTINUOUS
 10
13.6347936553
 20
17.6328481823
 11
13.7272916799
 21
17.6328481823
  0
LINE
  8
DRAFT_ENT
 62
2
  6
CONTINUOUS
 10
14.1709811692
 20
17.6328481823
 11
14.2652671393
 21
17.6328481823
  0
LINE
  8
DRAFT_ENT
 62
2
  6
CONTINUOUS
 10
14.1709811692
 20
17.6813634183
 11
14.2652671393
 21
17.6813634183
  0
LINE
  8
DRAFT_ENT
 62
2
  6
CONTINUOUS
 10
14.4223958685
 20
17.6814762705
 11
14.3874396859
 21
17.6814762705
  0
LINE
  8
DRAFT_ENT
 62
2
  6
CONTINUOUS
 10
12.8842029224
 20
17.7705880583
 11
12.993265585
 21
17.7705880583
  0
LINE
  8
DRAFT_ENT
 62
2
  6
CONTINUOUS
 10
13.0793682057
 20
17.7705880583
 11
13.1994068611
 21
17.7705880583
  0
LINE
  8
DRAFT_ENT
 62
2
  6
CONTINUOUS
 10
13.5318350857
 20
17.7705880583
 11
13.6347936553
 21
17.7705880583
  0
LINE
  8
DRAFT_ENT
 62
2
  6
CONTINUOUS
 10
13.7272916799
 20
17.7705880583
 11
13.8302502494
 21
17.7705880583
  0
LINE
  8
DRAFT_ENT
 62
2
  6
CONTINUOUS
 10
13.8584032824
 20
17.7705880583
 11
13.9521820895
 21
17.7705880583
  0
LINE
  8
DRAFT_ENT
 62
2
  6
CONTINUOUS
 10
14.0720769928
 20
17.7705880583
 11
14.2652671393
 21
17.7705880583
  0
LINE
  8
DRAFT_ENT
 62
2
  6
CONTINUOUS
 10
14.2932797788
 20
17.7705880583
 11
14.4392471196
 21
17.7705880583
  0
POLYLINE
  8
0
 62
7
  6
CONTINUOUS
 66
1
 70
0
  0
VERTEX
  8
0
 62
7
  6
CONTINUOUS
 10
15.8623521223
 20
18.4681568245
  0
VERTEX
  8
0
 62
7
  6
CONTINUOUS
 10
15.5934613429
 20
18.558520248
  0
VERTEX
  8
0
 62
7
  6
CONTINUOUS
 10
15.3224006862
 20
18.6421505147
  0
VERTEX
  8
0
 62
7
  6
CONTINUOUS
 10
15.0493387379
 20
18.7189956109
  0
VERTEX
  8
0
 62
7
  6
CONTINUOUS
 10
14.7744453283
 20
18.7890077429
  0
VERTEX
  8
0
 62
7
  6
CONTINUOUS
 10
14.497891427
 20
18.8521433669
  0
VERTEX
  8
0
 62
7
  6
CONTINUOUS
 10
14.2198490361
 20
18.9083632157
  0
VERTEX
  8
0
 62
7
  6
CONTINUOUS
 10
13.9404910836
 20
18.9576323235
  0
VERTEX
  8
0
 62
7
  6
CONTINUOUS
 10
13.6599913157
 20
18.9999200475
  0
VERTEX
  8
0
 62
7
  6
CONTINUOUS
 10
13.3785241888
 20
19.0352000869
  0
VERTEX
  8
0
 62
7
  6
CONTINUOUS
 10
13.0962647607
 20
19.0634504993
  0
VERTEX
  8
0
 62
7
  6
CONTINUOUS
 10
12.8133885823
 20
19.0846537144
  0
VERTEX
  8
0
 62
7
  6
CONTINUOUS
 10
12.5300715879
 20
19.098796545
  0
VERTEX
  8
0
 62
7
  6
CONTINUOUS
 10
12.246489986
 20
19.1058701949
  0
VERTEX
  8
0
 62
7
  6
CONTINUOUS
 10
11.9628201496
 20
19.1058702648
  0
VERTEX
  8
0
 62
7
  6
CONTINUOUS
 10
11.6792385067
 20
19.0987967544
  0
VERTEX
  8
0
 62
7
  6
CONTINUOUS
 10
11.3959214305
 20
19.0846540633
  0
VERTEX
  8
0
 62
7
  6
CONTINUOUS
 10
11.1130451294
 20
19.0634509874
  0
VERTEX
  8
0
 62
7
  6
CONTINUOUS
 10
10.8307855379
 20
19.0352007139
  0
VERTEX
  8
0
 62
7
  6
CONTINUOUS
 10
10.5493182068
 20
18.9999208131
  0
VERTEX
  8
0
 62
7
  6
CONTINUOUS
 10
10.2688181943
 20
18.9576332271
  0
VERTEX
  8
0
 62
7
  6
CONTINUOUS
 10
9.9894599567
 20
18.9083642568
  0
VERTEX
  8
0
 62
7
  6
CONTINUOUS
 10
9.7114172406
 20
18.8521445449
  0
VERTEX
  8
0
 62
7
  6
CONTINUOUS
 10
9.434862974
 20
18.789009057
  0
VERTEX
  8
0
 62
7
  6
CONTINUOUS
 10
9.1599691593
 20
18.7189970603
  0
VERTEX
  8
0
 62
7
  6
CONTINUOUS
 10
8.8869067664
 20
18.6421520985
  0
VERTEX
  8
0
 62
7
  6
CONTINUOUS
 10
8.6158456258
 20
18.5585219653
  0
VERTEX
  8
0
 62
7
  6
CONTINUOUS
 10
8.3469543236
 20
18.4681586742
  0
SEQEND
  0
POLYLINE
  8
DEFAULT_2
 62
8
  6
CONTINUOUS
 66
1
 70
0
  0
VERTEX
  8
DEFAULT_2
 62
8
  6
CONTINUOUS
 10
16.0688184121
 20
2.9054429164
  0
VERTEX
  8
DEFAULT_2
 62
8
  6
CONTINUOUS
 10
16.3205531595
 20
2.9902121836
  0
VERTEX
  8
DEFAULT_2
 62
8
  6
CONTINUOUS
 10
16.5698792863
 20
3.0818244663
  0
VERTEX
  8
DEFAULT_2
 62
8
  6
CONTINUOUS
 10
16.8166107956
 20
3.1802114218
  0
VERTEX
  8
DEFAULT_2
 62
8
  6
CONTINUOUS
 10
17.0605636256
 20
3.2852996535
  0
VERTEX
  8
DEFAULT_2
 62
8
  6
CONTINUOUS
 10
17.3015557879
 20
3.3970107656
  0
VERTEX
  8
DEFAULT_2
 62
8
  6
CONTINUOUS
 10
17.5394075024
 20
3.5152614218
  0
VERTEX
  8
DEFAULT_2
 62
8
  6
CONTINUOUS
 10
17.7739413318
 20
3.639963407
  0
VERTEX
  8
DEFAULT_2
 62
8
  6
CONTINUOUS
 10
18.0049823142
 20
3.7710236938
  0
VERTEX
  8
DEFAULT_2
 62
8
  6
CONTINUOUS
 10
18.232358093
 20
3.9083445113
  0
VERTEX
  8
DEFAULT_2
 62
8
  6
CONTINUOUS
 10
18.4558990462
 20
4.0518234182
  0
VERTEX
  8
DEFAULT_2
 62
8
  6
CONTINUOUS
 10
18.6754384122
 20
4.2013533793
  0
VERTEX
  8
DEFAULT_2
 62
8
  6
CONTINUOUS
 10
18.890812415
 20
4.3568228454
  0
VERTEX
  8
DEFAULT_2
 62
8
  6
CONTINUOUS
 10
19.1018603857
 20
4.5181158363
  0
VERTEX
  8
DEFAULT_2
 62
8
  6
CONTINUOUS
 10
19.3084248825
 20
4.6851120277
  0
VERTEX
  8
DEFAULT_2
 62
8
  6
CONTINUOUS
 10
19.5103518086
 20
4.8576868405
  0
VERTEX
  8
DEFAULT_2
 62
8
  6
CONTINUOUS
 10
19.7074905265
 20
5.0357115339
  0
VERTEX
  8
DEFAULT_2
 62
8
  6
CONTINUOUS
 10
19.899693971
 20
5.2190533018
  0
VERTEX
  8
DEFAULT_2
 62
8
  6
CONTINUOUS
 10
20.0868187584
 20
5.4075753711
  0
SEQEND
  0
POLYLINE
  8
DEFAULT_2
 62
8
  6
CONTINUOUS
 66
1
 70
0
  0
VERTEX
  8
DEFAULT_2
 62
8
  6
CONTINUOUS
 10
16.0688145747
 20
19.0580707169
  0
VERTEX
  8
DEFAULT_2
 62
8
  6
CONTINUOUS
 10
15.7953212701
 20
19.1501163599
  0
VERTEX
  8
DEFAULT_2
 62
8
  6
CONTINUOUS
 10
15.5196934875
 20
19.2355590884
  0
VERTEX
  8
DEFAULT_2
 62
8
  6
CONTINUOUS
 10
15.2420906343
 20
19.3143494872
  0
VERTEX
  8
DEFAULT_2
 62
8
  6
CONTINUOUS
 10
14.9626732601
 20
19.3864419884
  0
VERTEX
  8
DEFAULT_2
 62
8
  6
CONTINUOUS
 10
14.6816029641
 20
19.4517948979
  0
VERTEX
  8
DEFAULT_2
 62
8
  6
CONTINUOUS
 10
14.3990423012
 20
19.5103704192
  0
VERTEX
  8
DEFAULT_2
 62
8
  6
CONTINUOUS
 10
14.1151546883
 20
19.5621346756
  0
VERTEX
  8
DEFAULT_2
 62
8
  6
CONTINUOUS
 10
13.83010431
 20
19.6070577296
  0
VERTEX
  8
DEFAULT_2
 62
8
  6
CONTINUOUS
 10
13.5440560231
 20
19.6451136002
  0
VERTEX
  8
DEFAULT_2
 62
8
  6
CONTINUOUS
 10
13.2571752616
 20
19.6762802783
  0
VERTEX
  8
DEFAULT_2
 62
8
  6
CONTINUOUS
 10
12.969627941
 20
19.7005397386
  0
VERTEX
  8
DEFAULT_2
 62
8
  6
CONTINUOUS
 10
12.6815803622
 20
19.7178779509
  0
VERTEX
  8
DEFAULT_2
 62
8
  6
CONTINUOUS
 10
12.3931991155
 20
19.7282848878
  0
VERTEX
  8
DEFAULT_2
 62
8
  6
CONTINUOUS
 10
12.1046509843
 20
19.7317545305
  0
VERTEX
  8
DEFAULT_2
 62
8
  6
CONTINUOUS
 10
11.8161028482
 20
19.7282848723
  0
VERTEX
  8
DEFAULT_2
 62
8
  6
CONTINUOUS
 10
11.527721587
 20
19.71787792
  0
VERTEX
  8
DEFAULT_2
 62
8
  6
CONTINUOUS
 10
11.2396739841
 20
19.7005396923
  0
VERTEX
  8
DEFAULT_2
 62
8
  6
CONTINUOUS
 10
10.9521266298
 20
19.6762802166
  0
VERTEX
  8
DEFAULT_2
 62
8
  6
CONTINUOUS
 10
10.665245825
 20
19.6451135232
  0
VERTEX
  8
DEFAULT_2
 62
8
  6
CONTINUOUS
 10
10.3791974851
 20
19.6070576373
  0
VERTEX
  8
DEFAULT_2
 62
8
  6
CONTINUOUS
 10
10.0941470444
 20
19.562134568
  0
VERTEX
  8
DEFAULT_2
 62
8
  6
CONTINUOUS
 10
9.8102593596
 20
19.5103702964
  0
VERTEX
  8
DEFAULT_2
 62
8
  6
CONTINUOUS
 10
9.5276986153
 20
19.45179476
  0
VERTEX
  8
DEFAULT_2
 62
8
  6
CONTINUOUS
 10
9.2466282284
 20
19.3864418355
  0
VERTEX
  8
DEFAULT_2
 62
8
  6
CONTINUOUS
 10
8.967210754
 20
19.3143493194
  0
VERTEX
  8
DEFAULT_2
 62
8
  6
CONTINUOUS
 10
8.6896077913
 20
19.2355589057
  0
VERTEX
  8
DEFAULT_2
 62
8
  6
CONTINUOUS
 10
8.41397989
 20
19.1501161625
  0
VERTEX
  8
DEFAULT_2
 62
8
  6
CONTINUOUS
 10
8.1404864575
 20
19.0580705049
  0
SEQEND
  0
ARC
  8
DEFAULT_2
 62
8
  6
CONTINUOUS
 10
10.1394942064
 20
10.9192621135
 40
8.1598456698
 50
137.5103520603
 51
222.4896522891
  0
ARC
  8
DEFAULT_2
 62
8
  6
CONTINUOUS
 10
14.0698442064
 20
10.9192521135
 40
8.1598198609
 50
317.5102097746
 51
42.4898420032
  0
ARC
  8
0
 62
7
  6
CONTINUOUS
 10
10.1394842064
 20
10.9192521135
 40
7.5348384308
 50
137.5102648847
 51
222.4896790427
  0
ARC
  8
0
 62
7
  6
CONTINUOUS
 10
14.0698342064
 20
10.9192521135
 40
7.5348236829
 50
317.510218232
 51
42.4898378407
  0
CIRCLE
  8
DRAFT_ENT
 62
2
  6
CONTINUOUS
 10
13.3348526491
 20
17.5867892254
 40
0.1862854049
  0
CIRCLE
  8
NOTE
 62
2
  6
CONTINUOUS
 10
15.9388991793
 20
15.6801919356
 40
0.1781738162
  0
CIRCLE
  8
NOTE
 62
2
  6
CONTINUOUS
 10
13.4465835662
 20
3.9756845456
 40
0.1781738162
  0
ARC
  8
DRAFT_ENT
 62
2
  6
CONTINUOUS
 10
14.4392471196
 20
17.6612070933
 40
0.1093854061
 50
294.4500166359
 51
90.0
  0
CIRCLE
  8
DRAFT_ENT
 62
7
  6
CONTINUOUS
 10
16.2409212364
 20
12.5368364599
 40
0.0807841983
  0
CIRCLE
  8
DRAFT_ENT
 62
2
  6
CONTINUOUS
 10
13.3348526491
 20
17.5867892254
 40
0.0779808993
  0
CIRCLE
  8
DRAFT_ENT
 62
2
  6
CONTINUOUS
 10
14.6721549548
 20
17.4043919576
 40
0.0408486778
  0
ARC
  8
DRAFT_ENT
 62
2
  6
CONTINUOUS
 10
14.4223958048
 20
17.6479689297
 40
0.0335073408
 50
266.1604009902
 51
89.9998910512
  0
ARC
  8
DRAFT_ENT
 62
2
  6
CONTINUOUS
 10
14.6774007893
 20
17.4145757461
 40
0.010519658
 50
270.0
 51
90.0
  0
ENDSEC
  0
EOF
