999
DXF file: 1002977-7_C.dxf
999
Pro/ENGINEER 2001490 by Parametric Technology Corporation
0
SECTION
2
HEADER
9
$ACADVER
1
AC1014
9
$EXTMAX
10
30.0000000000
20
22.0000000000
9
$EXTMIN
10
0.0000000000
20
0.0000000000
9
$LIMMIN
10
0.0000000000
20
0.0000000000
9
$LIMMAX
10
30.0000000000
20
22.0000000000
9
$VIEWCTR
10
15.0000000000
20
11.0000000000
9
$VIEWSIZE
40
22.0000000000
9
$CLAYER
8
0
9
$LTSCALE
40
1.6500000000
9
$CELTYPE
6
BYLAYER
9
$DIMSCALE
40
1
9
$DIMASZ
40
0.1875000000
9
$DIMEXO
40
0.1875000000
9
$DIMDLI
40
1.1400000000
9
$DIMEXE
40
0.5400000000
9
$DIMCEN
40
0.2700000000
9
$DIMLFAC
40
1.0000000000
9
$DIMTXT
40
0.1562500000
9
$DIMTOL
70
1
9
$DIMLIM
70
0
9
$DIMTFAC
40
1.0000000000
9
$DIMTP
40
0.0050000000
9
$DIMTM
40
0.0050000000
9
$HANDSEED
5
475
0
ENDSEC
0
SECTION
2
CLASSES
0
ENDSEC
0
SECTION
2
TABLES
0
TABLE
2
VPORT
5
8
100
AcDbSymbolTable
70
2
0
VPORT
5
1F4
100
AcDbSymbolTableRecord
100
AcDbViewportTableRecord
2
*ACTIVE
70
0
10
0.0
20
0.0
11
1.0
21
1.0
12
15.0000000000
22
11.0000000000
13
0.0
23
0.0
14
1.0
24
1.0
15
0.0
25
0.0
16
0.0
26
0.0
36
1.0
17
0.0
27
0.0
37
0.0
40
22.0000000000
41
1.3636363636
42
50.0
43
0.0
44
0.0
50
0.0
51
0.0
71
0
72
100
73
1
74
1
75
0
76
0
77
0
78
0
0
ENDTAB
0
TABLE
2
LTYPE
5
5
100
AcDbSymbolTable
70
6
0
LTYPE
5
14
100
AcDbSymbolTableRecord
100
AcDbLinetypeTableRecord
2
BYBLOCK
70
0
3

72
65
73
0
40
0.0
0
LTYPE
5
15
100
AcDbSymbolTableRecord
100
AcDbLinetypeTableRecord
2
BYLAYER
70
0
3

72
65
73
0
40
0.0
0
LTYPE
5
16
100
AcDbSymbolTableRecord
100
AcDbLinetypeTableRecord
2
CONTINUOUS
70
64
3
Solid line
72
65
73
0
40
0
0
LTYPE
5
1F5
100
AcDbSymbolTableRecord
100
AcDbLinetypeTableRecord
2
CENTER
70
64
3
____ _ ____ _ ____ _ ____ _ ____ _ ____ _ ____
72
65
73
4
40
0.6
49
0.375
74
0
49
-0.075
74
0
49
0.075
74
0
49
-0.075
74
0
0
LTYPE
5
1F6
100
AcDbSymbolTableRecord
100
AcDbLinetypeTableRecord
2
HIDDEN
70
64
3
- - - - - - - - - - - - - - - - - - - -
72
65
73
2
40
0.2
49
0.1
74
0
49
-0.1
74
0
0
LTYPE
5
1F7
100
AcDbSymbolTableRecord
100
AcDbLinetypeTableRecord
2
PHANTOM
70
64
3
_____ _ _ _____ _ _ _____ _ _ _____
72
65
73
6
40
0.8
49
0.45
74
0
49
-0.05
74
0
49
0.1
74
0
49
-0.05
74
0
49
0.1
74
0
49
-0.05
74
0
0
LTYPE
5
1F8
100
AcDbSymbolTableRecord
100
AcDbLinetypeTableRecord
2
DOT
70
64
3
. . . . . . . . . . . . . . . . . . . .
72
65
73
2
40
0.2
49
0.1
74
0
49
-0.1
74
0
0
LTYPE
5
1F9
100
AcDbSymbolTableRecord
100
AcDbLinetypeTableRecord
2
DASHED
70
64
3
- - - - - - - - - - - - - - - - - - - -
72
65
73
2
40
0.2
49
0.1
74
0
49
-0.1
74
0
0
ENDTAB
0
TABLE
2
LAYER
5
2
100
AcDbSymbolTable
70
36
0
LAYER
5
10
100
AcDbSymbolTableRecord
100
AcDbLayerTableRecord
2
0
70
0
62
7
6
CONTINUOUS
0
LAYER
5
1FA
100
AcDbSymbolTableRecord
100
AcDbLayerTableRecord
2
DEFAULT_1
70
0
62
7
6
CENTER
0
LAYER
5
1FB
100
AcDbSymbolTableRecord
100
AcDbLayerTableRecord
2
DEFAULT_2
70
0
62
8
6
HIDDEN
0
LAYER
5
1FC
100
AcDbSymbolTableRecord
100
AcDbLayerTableRecord
2
DEFAULT_3
70
0
62
7
6
PHANTOM
0
LAYER
5
1FD
100
AcDbSymbolTableRecord
100
AcDbLayerTableRecord
2
0
70
0
62
7
6
CONTINUOUS
0
LAYER
5
1FE
100
AcDbSymbolTableRecord
100
AcDbLayerTableRecord
2
ADM
70
0
62
7
6
CONTINUOUS
0
LAYER
5
1FF
100
AcDbSymbolTableRecord
100
AcDbLayerTableRecord
2
AUX
70
0
62
7
6
CONTINUOUS
0
LAYER
5
200
100
AcDbSymbolTableRecord
100
AcDbLayerTableRecord
2
BAK
70
0
62
7
6
CONTINUOUS
0
LAYER
5
201
100
AcDbSymbolTableRecord
100
AcDbLayerTableRecord
2
BOT
70
0
62
7
6
CONTINUOUS
0
LAYER
5
202
100
AcDbSymbolTableRecord
100
AcDbLayerTableRecord
2
BOTDIM
70
0
62
7
6
CONTINUOUS
0
LAYER
5
203
100
AcDbSymbolTableRecord
100
AcDbLayerTableRecord
2
DEFPOINTS
70
0
62
7
6
CONTINUOUS
0
LAYER
5
204
100
AcDbSymbolTableRecord
100
AcDbLayerTableRecord
2
DRAFT_ENT
70
0
62
7
6
CONTINUOUS
0
LAYER
5
205
100
AcDbSymbolTableRecord
100
AcDbLayerTableRecord
2
FRN
70
0
62
7
6
CONTINUOUS
0
LAYER
5
206
100
AcDbSymbolTableRecord
100
AcDbLayerTableRecord
2
FRNDIM
70
0
62
7
6
CONTINUOUS
0
LAYER
5
207
100
AcDbSymbolTableRecord
100
AcDbLayerTableRecord
2
ISO
70
0
62
7
6
CONTINUOUS
0
LAYER
5
208
100
AcDbSymbolTableRecord
100
AcDbLayerTableRecord
2
LSD
70
0
62
7
6
CONTINUOUS
0
LAYER
5
209
100
AcDbSymbolTableRecord
100
AcDbLayerTableRecord
2
LSDDIM
70
0
62
7
6
CONTINUOUS
0
LAYER
5
20A
100
AcDbSymbolTableRecord
100
AcDbLayerTableRecord
2
MDL
70
0
62
7
6
CONTINUOUS
0
LAYER
5
20B
100
AcDbSymbolTableRecord
100
AcDbLayerTableRecord
2
NOTE
70
0
62
7
6
CONTINUOUS
0
LAYER
5
20C
100
AcDbSymbolTableRecord
100
AcDbLayerTableRecord
2
PSPTBK
70
0
62
7
6
CONTINUOUS
0
LAYER
5
20D
100
AcDbSymbolTableRecord
100
AcDbLayerTableRecord
2
PSPTXT
70
0
62
7
6
CONTINUOUS
0
LAYER
5
20E
100
AcDbSymbolTableRecord
100
AcDbLayerTableRecord
2
PSPWIN
70
0
62
7
6
CONTINUOUS
0
LAYER
5
20F
100
AcDbSymbolTableRecord
100
AcDbLayerTableRecord
2
RSD
70
0
62
7
6
CONTINUOUS
0
LAYER
5
210
100
AcDbSymbolTableRecord
100
AcDbLayerTableRecord
2
RSDDIM
70
0
62
7
6
CONTINUOUS
0
LAYER
5
211
100
AcDbSymbolTableRecord
100
AcDbLayerTableRecord
2
SEC
70
0
62
7
6
CONTINUOUS
0
LAYER
5
212
100
AcDbSymbolTableRecord
100
AcDbLayerTableRecord
2
SYMBOL
70
0
62
7
6
CONTINUOUS
0
LAYER
5
213
100
AcDbSymbolTableRecord
100
AcDbLayerTableRecord
2
TOP
70
0
62
7
6
CONTINUOUS
0
LAYER
5
214
100
AcDbSymbolTableRecord
100
AcDbLayerTableRecord
2
TOPDIM
70
0
62
7
6
CONTINUOUS
0
LAYER
5
215
100
AcDbSymbolTableRecord
100
AcDbLayerTableRecord
2
VEW
70
0
62
7
6
CONTINUOUS
0
LAYER
5
216
100
AcDbSymbolTableRecord
100
AcDbLayerTableRecord
2
___NOTE
70
0
62
7
6
CONTINUOUS
0
ENDTAB
0
TABLE
2
STYLE
5
3
100
AcDbSymbolTable
70
1
0
STYLE
5
11
100
AcDbSymbolTableRecord
100
AcDbTextStyleTableRecord
2
STANDARD
70
0
40
0.0
41
0.8000000000
50
0.0
71
0
42
0.0
3
txt
4

0
STYLE
5
217
100
AcDbSymbolTableRecord
100
AcDbTextStyleTableRecord
2
TEXTSTYLE_0
70
0
40
0.0
41
0.80
50
0.0
71
0
42
0.2
3
txt
4

0
ENDTAB
0
TABLE
2
VIEW
5
6
100
AcDbSymbolTable
70
0
0
ENDTAB
0
TABLE
2
UCS
5
7
100
AcDbSymbolTable
70
0
0
ENDTAB
0
TABLE
2
APPID
5
9
100
AcDbSymbolTable
70
1
0
APPID
5
218
100
AcDbSymbolTableRecord
100
AcDbRegAppTableRecord
2
ACAD
70
0
0
ENDTAB
0
TABLE
2
DIMSTYLE
5
A
100
AcDbSymbolTable
70
1
0
DIMSTYLE
105
219
100
AcDbSymbolTableRecord
100
AcDbDimStyleTableRecord
2
STANDARD
70
0
3

4

5

6

7

40
1.0
41
0.1875000000
42
0.0625
43
0.38
44
0.18
45
0.0
46
0.0
47
0.0050000000
48
0.0050000000
140
0.1562500000
141
0.09
142
0.0
143
25.4
144
1.0000000000
145
0.0
146
1.0000000000
147
0.09
71
1
72
0
73
1
74
1
75
0
76
0
77
0
78
0
170
0
171
2
172
0
173
0
174
0
175
0
176
0
177
0
178
0
270
2
271
3
272
3
273
2
274
2
340
11
275
0
280
0
281
0
282
0
283
1
284
0
285
0
286
0
287
3
288
0
0
DIMSTYLE
105
21A
100
AcDbSymbolTableRecord
100
AcDbDimStyleTableRecord
2
DIMSTYLE_1
70
0
3

4

5

6

7

40
1.0
41
0.1875000000
42
0.0625
43
0.38
44
0.18
45
0.0
46
0.0
47
0.0000000000
48
0.0000000000
140
0.1562500000
141
0.09
142
0.0
143
25.4
144
1.0000000000
145
0.0
146
1.0000000000
147
0.09
71
0
72
0
73
1
74
1
75
0
76
0
77
0
78
0
170
0
171
2
172
0
173
0
174
0
175
0
176
0
177
0
178
0
270
2
271
0
272
0
273
2
274
2
340
11
275
0
280
0
281
0
282
0
283
1
284
0
285
0
286
0
287
3
288
0
0
DIMSTYLE
105
21B
100
AcDbSymbolTableRecord
100
AcDbDimStyleTableRecord
2
DIMSTYLE_2
70
0
3

4

5

6

7

40
1.0
41
0.1875000000
42
0.0625
43
0.38
44
0.18
45
0.0
46
0.0
47
0.0312500000
48
0.0312500000
140
0.1562500000
141
0.09
142
0.0
143
25.4
144
1.0000000000
145
0.0
146
1.0000000000
147
0.09
71
0
72
0
73
1
74
1
75
0
76
0
77
0
78
0
170
0
171
2
172
0
173
0
174
0
175
0
176
0
177
0
178
0
270
2
271
5
272
5
273
2
274
2
340
11
275
0
280
0
281
0
282
0
283
1
284
0
285
0
286
0
287
3
288
0
0
ENDTAB
0
TABLE
2
BLOCK_RECORD
5
1
100
AcDbSymbolTable
70
0
0
BLOCK_RECORD
5
1B
100
AcDbSymbolTableRecord
100
AcDbBlockTableRecord
2
*MODEL_SPACE
0
BLOCK_RECORD
5
1C
100
AcDbSymbolTableRecord
100
AcDbBlockTableRecord
2
*PAPER_SPACE
0
BLOCK_RECORD
5
21C
100
AcDbSymbolTableRecord
100
AcDbBlockTableRecord
2
*D0
0
BLOCK_RECORD
5
21D
100
AcDbSymbolTableRecord
100
AcDbBlockTableRecord
2
*D1
0
BLOCK_RECORD
5
21E
100
AcDbSymbolTableRecord
100
AcDbBlockTableRecord
2
*D2
0
BLOCK_RECORD
5
21F
100
AcDbSymbolTableRecord
100
AcDbBlockTableRecord
2
*D3
0
ENDTAB
0
ENDSEC
0
SECTION
2
BLOCKS
0
BLOCK
5
1E
100
AcDbEntity
8
0
100
AcDbBlockBegin
2
*MODEL_SPACE
70
0
10
0.0
20
0.0
30
0.0
3
*MODEL_SPACE
1

0
ENDBLK
5
1F
100
AcDbEntity
8
0
100
AcDbBlockEnd
0
BLOCK
5
20
100
AcDbEntity
8
0
100
AcDbBlockBegin
2
*PAPER_SPACE
70
0
10
0.0
20
0.0
30
0.0
3
*PAPER_SPACE
1

0
ENDBLK
5
21
100
AcDbEntity
8
0
100
AcDbBlockEnd
0
BLOCK
5
220
100
AcDbEntity
8
0
100
AcDbBlockBegin
62
2
6
CONTINUOUS
2
*D0
70
65
10
0.0000000000
20
0.0000000000
3
*D0
1

0
TEXT
5
221
100
AcDbEntity
8
0
100
AcDbText
62
2
6
CONTINUOUS
10
4.9984002396
20
20.2615170719
7
TEXTSTYLE_0
40
0.1562500000
1
2
72
5
11
5.1234002396
21
20.2615170719
100
AcDbText
0
TEXT
5
222
100
AcDbEntity
8
0
100
AcDbText
62
2
6
CONTINUOUS
10
5.1234002396
20
20.0271420719
7
TEXTSTYLE_0
40
0.1562500000
1
5
72
5
11
5.2484002396
21
20.0271420719
100
AcDbText
0
TEXT
5
223
100
AcDbEntity
8
0
100
AcDbText
62
2
6
CONTINUOUS
10
4.9984002396
20
20.0271420719
7
TEXTSTYLE_0
40
0.1562500000
1
[
72
5
11
5.1234002396
21
20.0271420719
100
AcDbText
0
TEXT
5
224
100
AcDbEntity
8
0
100
AcDbText
62
2
6
CONTINUOUS
10
5.2484002396
20
20.0271420719
7
TEXTSTYLE_0
40
0.1562500000
1
]
72
5
11
5.3734002396
21
20.0271420719
100
AcDbText
0
LINE
5
225
100
AcDbEntity
8
0
100
AcDbLine
62
2
6
CONTINUOUS
10
5.0609002396
20
19.3367626833
11
5.3080271073
21
19.3367626833
0
LINE
5
226
100
AcDbEntity
8
0
100
AcDbLine
62
2
6
CONTINUOUS
10
5.0609002396
20
21.3367626833
11
5.2836866781
21
21.3367626833
0
LINE
5
227
100
AcDbEntity
8
0
100
AcDbLine
62
2
6
CONTINUOUS
10
5.1859002396
20
19.3367626833
11
5.1859002396
21
19.9490170719
0
LINE
5
228
100
AcDbEntity
8
0
100
AcDbLine
62
2
6
CONTINUOUS
10
5.1859002396
20
21.3367626833
11
5.1859002396
21
20.4958920719
0
SOLID
5
229
100
AcDbEntity
8
0
100
AcDbTrace
62
2
6
CONTINUOUS
10
5.1546502396
20
19.5242626833
11
5.1859002396
21
19.3367626833
12
5.2171502396
22
19.5242626833
13
5.2171502396
23
19.5242626833
0
SOLID
5
22A
100
AcDbEntity
8
0
100
AcDbTrace
62
2
6
CONTINUOUS
10
5.2171502396
20
21.1492626833
11
5.1859002396
21
21.3367626833
12
5.1546502396
22
21.1492626833
13
5.1546502396
23
21.1492626833
0
ENDBLK
5
22B
100
AcDbEntity
8
0
100
AcDbBlockEnd
0
BLOCK
5
22C
100
AcDbEntity
8
0
100
AcDbBlockBegin
62
2
6
CONTINUOUS
2
*D1
70
65
10
0.0000000000
20
0.0000000000
3
*D1
1

0
TEXT
5
22D
100
AcDbEntity
8
0
100
AcDbText
62
2
6
CONTINUOUS
10
4.6234002396
20
17.9031026637
7
TEXTSTYLE_0
40
0.1562500000
1
2-1/2
72
5
11
5.2484002396
21
17.9031026637
100
AcDbText
0
TEXT
5
22E
100
AcDbEntity
8
0
100
AcDbText
62
2
6
CONTINUOUS
10
4.7484002396
20
17.6687276637
7
TEXTSTYLE_0
40
0.1562500000
1
6-11/32
72
5
11
5.6234002396
21
17.6687276637
100
AcDbText
0
TEXT
5
22F
100
AcDbEntity
8
0
100
AcDbText
62
2
6
CONTINUOUS
10
4.6234002396
20
17.6687276637
7
TEXTSTYLE_0
40
0.1562500000
1
[
72
5
11
4.7484002396
21
17.6687276637
100
AcDbText
0
TEXT
5
230
100
AcDbEntity
8
0
100
AcDbText
62
2
6
CONTINUOUS
10
5.6234002396
20
17.6687276637
7
TEXTSTYLE_0
40
0.1562500000
1
]
72
5
11
5.7484002396
21
17.6687276637
100
AcDbText
0
LINE
5
231
100
AcDbEntity
8
0
100
AcDbLine
62
2
6
CONTINUOUS
10
4.7331425987
20
16.8367626833
11
5.3109002396
21
16.8367626833
0
LINE
5
232
100
AcDbEntity
8
0
100
AcDbLine
62
2
6
CONTINUOUS
10
5.0067968431
20
19.3367626833
11
5.3109002396
21
19.3367626833
0
LINE
5
233
100
AcDbEntity
8
0
100
AcDbLine
62
2
6
CONTINUOUS
10
5.1859002396
20
16.8367626833
11
5.1859002396
21
17.5906026637
0
LINE
5
234
100
AcDbEntity
8
0
100
AcDbLine
62
2
6
CONTINUOUS
10
5.1859002396
20
19.3367626833
11
5.1859002396
21
18.1374776637
0
SOLID
5
235
100
AcDbEntity
8
0
100
AcDbTrace
62
2
6
CONTINUOUS
10
5.1546502396
20
17.0242626833
11
5.1859002396
21
16.8367626833
12
5.2171502396
22
17.0242626833
13
5.2171502396
23
17.0242626833
0
SOLID
5
236
100
AcDbEntity
8
0
100
AcDbTrace
62
2
6
CONTINUOUS
10
5.2171502396
20
19.1492626833
11
5.1859002396
21
19.3367626833
12
5.1546502396
22
19.1492626833
13
5.1546502396
23
19.1492626833
0
ENDBLK
5
237
100
AcDbEntity
8
0
100
AcDbBlockEnd
0
BLOCK
5
238
100
AcDbEntity
8
0
100
AcDbBlockBegin
62
2
6
CONTINUOUS
2
*D2
70
65
10
0.0000000000
20
0.0000000000
3
*D2
1

0
TEXT
5
239
100
AcDbEntity
8
0
100
AcDbText
62
2
6
CONTINUOUS
10
13.3516029923
20
11.5912132253
7
TEXTSTYLE_0
40
0.1562500000
1
13-3/8
72
5
11
14.1016029923
21
11.5912132253
100
AcDbText
0
TEXT
5
23A
100
AcDbEntity
8
0
100
AcDbText
62
2
6
CONTINUOUS
10
13.4766029923
20
11.3568382253
7
TEXTSTYLE_0
40
0.1562500000
1
33-31/32
72
5
11
14.4766029923
21
11.3568382253
100
AcDbText
0
TEXT
5
23B
100
AcDbEntity
8
0
100
AcDbText
62
2
6
CONTINUOUS
10
13.3516029923
20
11.3568382253
7
TEXTSTYLE_0
40
0.1562500000
1
[
72
5
11
13.4766029923
21
11.3568382253
100
AcDbText
0
TEXT
5
23C
100
AcDbEntity
8
0
100
AcDbText
62
2
6
CONTINUOUS
10
14.4766029923
20
11.3568382253
7
TEXTSTYLE_0
40
0.1562500000
1
]
72
5
11
14.6016029923
21
11.3568382253
100
AcDbText
0
LINE
5
23D
100
AcDbEntity
8
0
100
AcDbLine
62
2
6
CONTINUOUS
10
13.7826967934
20
16.8367626833
11
14.1016029923
21
16.8367626833
0
LINE
5
23E
100
AcDbEntity
8
0
100
AcDbLine
62
2
6
CONTINUOUS
10
13.7361580449
20
3.4617626833
11
14.1016029923
21
3.4617626833
0
LINE
5
23F
100
AcDbEntity
8
0
100
AcDbLine
62
2
6
CONTINUOUS
10
13.9766029923
20
16.8367626833
11
13.9766029923
21
11.8255882253
0
LINE
5
240
100
AcDbEntity
8
0
100
AcDbLine
62
2
6
CONTINUOUS
10
13.9766029923
20
3.4617626833
11
13.9766029923
21
11.2787132253
0
SOLID
5
241
100
AcDbEntity
8
0
100
AcDbTrace
62
2
6
CONTINUOUS
10
14.0078529923
20
16.6492626833
11
13.9766029923
21
16.8367626833
12
13.9453529923
22
16.6492626833
13
13.9453529923
23
16.6492626833
0
SOLID
5
242
100
AcDbEntity
8
0
100
AcDbTrace
62
2
6
CONTINUOUS
10
13.9453529923
20
3.6492626833
11
13.9766029923
21
3.4617626833
12
14.0078529923
22
3.6492626833
13
14.0078529923
23
3.6492626833
0
ENDBLK
5
243
100
AcDbEntity
8
0
100
AcDbBlockEnd
0
BLOCK
5
244
100
AcDbEntity
8
0
100
AcDbBlockBegin
62
2
6
CONTINUOUS
2
*D3
70
65
10
0.0000000000
20
0.0000000000
3
*D3
1

0
TEXT
5
245
100
AcDbEntity
8
0
100
AcDbText
62
2
6
CONTINUOUS
10
10.5951284628
20
10.0741117946
7
TEXTSTYLE_0
40
0.1562500000
1
20-3/8
72
5
11
11.3451284628
21
10.0741117946
100
AcDbText
0
TEXT
5
246
100
AcDbEntity
8
0
100
AcDbText
62
2
6
CONTINUOUS
10
10.7201284628
20
9.8397367946
7
TEXTSTYLE_0
40
0.1562500000
1
51-3/4
72
5
11
11.4701284628
21
9.8397367946
100
AcDbText
0
TEXT
5
247
100
AcDbEntity
8
0
100
AcDbText
62
2
6
CONTINUOUS
10
10.5951284628
20
9.8397367946
7
TEXTSTYLE_0
40
0.1562500000
1
[
72
5
11
10.7201284628
21
9.8397367946
100
AcDbText
0
TEXT
5
248
100
AcDbEntity
8
0
100
AcDbText
62
2
6
CONTINUOUS
10
11.4701284628
20
9.8397367946
7
TEXTSTYLE_0
40
0.1562500000
1
]
72
5
11
11.5951284628
21
9.8397367946
100
AcDbText
0
LINE
5
249
100
AcDbEntity
8
0
100
AcDbLine
62
2
6
CONTINUOUS
10
3.7956425987
20
10.4288357795
11
3.7956425987
21
10.0272367946
0
LINE
5
24A
100
AcDbEntity
8
0
100
AcDbLine
62
2
6
CONTINUOUS
10
24.1706425987
20
10.4055664053
11
24.1706425987
21
10.0272367946
0
LINE
5
24B
100
AcDbEntity
8
0
100
AcDbLine
62
2
6
CONTINUOUS
10
3.7956425987
20
10.1522367946
11
10.5170034628
21
10.1522367946
0
LINE
5
24C
100
AcDbEntity
8
0
100
AcDbLine
62
2
6
CONTINUOUS
10
24.1706425987
20
10.1522367946
11
11.6732534628
21
10.1522367946
0
SOLID
5
24D
100
AcDbEntity
8
0
100
AcDbTrace
62
2
6
CONTINUOUS
10
3.9831425987
20
10.1834867946
11
3.7956425987
21
10.1522367946
12
3.9831425987
22
10.1209867946
13
3.9831425987
23
10.1209867946
0
SOLID
5
24E
100
AcDbEntity
8
0
100
AcDbTrace
62
2
6
CONTINUOUS
10
23.9831425987
20
10.1209867946
11
24.1706425987
21
10.1522367946
12
23.9831425987
22
10.1834867946
13
23.9831425987
23
10.1834867946
0
ENDBLK
5
24F
100
AcDbEntity
8
0
100
AcDbBlockEnd
0
ENDSEC
0
SECTION
2
ENTITIES
0
SOLID
5
250
100
AcDbEntity
8
DRAFT_ENT
100
AcDbTrace
62
2
6
CONTINUOUS
10
15.2069178689
20
14.7990598007
11
15.2069178689
21
14.9004223007
12
15.9200053689
22
14.9004223007
13
15.9200053689
23
14.9004223007
0
SOLID
5
251
100
AcDbEntity
8
DRAFT_ENT
100
AcDbTrace
62
2
6
CONTINUOUS
10
15.9200053689
20
14.9004223007
11
15.9200053689
21
14.7990598007
12
15.2069178689
22
14.7990598007
13
15.2069178689
23
14.7990598007
0
SOLID
5
252
100
AcDbEntity
8
DRAFT_ENT
100
AcDbTrace
62
2
6
CONTINUOUS
10
15.2069178689
20
14.5602160507
11
15.2069178689
21
14.5893660507
12
15.9200053689
22
14.5893660507
13
15.9200053689
23
14.5893660507
0
SOLID
5
253
100
AcDbEntity
8
DRAFT_ENT
100
AcDbTrace
62
2
6
CONTINUOUS
10
15.9200053689
20
14.5893660507
11
15.9200053689
21
14.5602160507
12
15.2069178689
22
14.5602160507
13
15.2069178689
23
14.5602160507
0
SOLID
5
254
100
AcDbEntity
8
DRAFT_ENT
100
AcDbTrace
62
2
6
CONTINUOUS
10
15.2457928689
20
14.9379223007
11
15.2457928689
21
14.9892973007
12
15.9588803689
22
14.9892973007
13
15.9588803689
23
14.9892973007
0
SOLID
5
255
100
AcDbEntity
8
DRAFT_ENT
100
AcDbTrace
62
2
6
CONTINUOUS
10
15.9588803689
20
14.9892973007
11
15.9588803689
21
14.9379223007
12
15.2457928689
22
14.9379223007
13
15.2457928689
23
14.9379223007
0
SOLID
5
256
100
AcDbEntity
8
DRAFT_ENT
100
AcDbTrace
62
2
6
CONTINUOUS
10
15.2457928689
20
15.0434598007
11
15.2457928689
21
15.0948285507
12
15.9588803689
22
15.0948285507
13
15.9588803689
23
15.0948285507
0
SOLID
5
257
100
AcDbEntity
8
DRAFT_ENT
100
AcDbTrace
62
2
6
CONTINUOUS
10
15.9588803689
20
15.0948285507
11
15.9588803689
21
15.0434598007
12
15.2457928689
22
15.0434598007
13
15.2457928689
23
15.0434598007
0
SOLID
5
258
100
AcDbEntity
8
DRAFT_ENT
100
AcDbTrace
62
2
6
CONTINUOUS
10
15.2457928689
20
15.1267785507
11
15.2457928689
21
15.1781473007
12
15.9588803689
22
15.1781473007
13
15.9588803689
23
15.1781473007
0
SOLID
5
259
100
AcDbEntity
8
DRAFT_ENT
100
AcDbTrace
62
2
6
CONTINUOUS
10
15.9588803689
20
15.1781473007
11
15.9588803689
21
15.1267785507
12
15.2457928689
22
15.1267785507
13
15.2457928689
23
15.1267785507
0
SOLID
5
25A
100
AcDbEntity
8
DRAFT_ENT
100
AcDbTrace
62
2
6
CONTINUOUS
10
15.2457928689
20
15.2100910507
11
15.2457928689
21
15.2614660507
12
15.9588803689
22
15.2614660507
13
15.9588803689
23
15.2614660507
0
SOLID
5
25B
100
AcDbEntity
8
DRAFT_ENT
100
AcDbTrace
62
2
6
CONTINUOUS
10
15.9588803689
20
15.2614660507
11
15.9588803689
21
15.2100910507
12
15.2457928689
22
15.2100910507
13
15.2457928689
23
15.2100910507
0
SOLID
5
25C
100
AcDbEntity
8
DRAFT_ENT
100
AcDbTrace
62
2
6
CONTINUOUS
10
15.2457928689
20
15.2934098007
11
15.2457928689
21
15.3447848007
12
15.9588803689
22
15.3447848007
13
15.9588803689
23
15.3447848007
0
SOLID
5
25D
100
AcDbEntity
8
DRAFT_ENT
100
AcDbTrace
62
2
6
CONTINUOUS
10
15.9588803689
20
15.3447848007
11
15.9588803689
21
15.2934098007
12
15.2457928689
22
15.2934098007
13
15.2457928689
23
15.2934098007
0
SOLID
5
25E
100
AcDbEntity
8
DRAFT_ENT
100
AcDbTrace
62
2
6
CONTINUOUS
10
16.5304241189
20
14.7990598007
11
16.5304241189
21
14.9004223007
12
16.8162178689
22
14.9004223007
13
16.8162178689
23
14.9004223007
0
SOLID
5
25F
100
AcDbEntity
8
DRAFT_ENT
100
AcDbTrace
62
2
6
CONTINUOUS
10
16.8162178689
20
14.9004223007
11
16.8162178689
21
14.7990598007
12
16.5304241189
22
14.7990598007
13
16.5304241189
23
14.7990598007
0
SOLID
5
260
100
AcDbEntity
8
DRAFT_ENT
100
AcDbTrace
62
2
6
CONTINUOUS
10
6.3235977150
20
15.3681235669
11
6.4097003356
21
15.4705118300
12
6.5297389910
22
15.4705118300
13
6.5297389910
23
15.4705118300
0
SOLID
5
261
100
AcDbEntity
8
DRAFT_ENT
100
AcDbTrace
62
2
6
CONTINUOUS
10
6.5297389910
20
15.4705118300
11
6.3964243082
21
15.3119816292
12
6.3235977150
22
15.3681235669
13
6.3235977150
23
15.3681235669
0
SOLID
5
262
100
AcDbEntity
8
DRAFT_ENT
100
AcDbTrace
62
2
6
CONTINUOUS
10
6.3235977150
20
15.2302531496
11
6.3964243082
21
15.3119816292
12
6.4196839458
22
15.1043157293
13
6.4196839458
23
15.1043157293
0
SOLID
5
263
100
AcDbEntity
8
DRAFT_ENT
100
AcDbTrace
62
2
6
CONTINUOUS
10
6.3964243082
20
15.3119816292
11
6.5548667351
21
15.1043157293
12
6.4196839458
22
15.1043157293
13
6.4196839458
23
15.1043157293
0
SOLID
5
264
100
AcDbEntity
8
DRAFT_ENT
100
AcDbTrace
62
2
6
CONTINUOUS
10
6.3235977150
20
15.1043157293
11
6.2145350523
21
15.1043007271
12
6.3235977150
22
15.2302531496
13
6.3235977150
23
15.2302531496
0
SOLID
5
265
100
AcDbEntity
8
DRAFT_ENT
100
AcDbTrace
62
2
6
CONTINUOUS
10
6.3964243082
20
15.3119816292
11
6.3235977150
21
15.2302531496
12
6.3235977150
22
15.3681235669
13
6.3235977150
23
15.3681235669
0
SOLID
5
266
100
AcDbEntity
8
DRAFT_ENT
100
AcDbTrace
62
2
6
CONTINUOUS
10
6.3235977150
20
15.2302531496
11
6.2145350523
21
15.1043007271
12
6.3235977150
22
15.3681235669
13
6.3235977150
23
15.3681235669
0
SOLID
5
267
100
AcDbEntity
8
DRAFT_ENT
100
AcDbTrace
62
2
6
CONTINUOUS
10
6.3235977150
20
15.3681235669
11
6.2145350523
21
15.1043007271
12
6.3235977150
22
15.4705118300
13
6.3235977150
23
15.4705118300
0
SOLID
5
268
100
AcDbEntity
8
DRAFT_ENT
100
AcDbTrace
62
2
6
CONTINUOUS
10
6.2145350523
20
15.1043007271
11
6.2145350523
21
15.4705118300
12
6.3235977150
22
15.4705118300
13
6.3235977150
23
15.4705118300
0
SOLID
5
269
100
AcDbEntity
8
DRAFT_ENT
100
AcDbTrace
62
2
6
CONTINUOUS
10
6.6076194231
20
15.4638809453
11
6.6457126520
21
15.4719779111
12
6.6846569062
22
15.4719779111
13
6.6846569062
23
15.4719779111
0
SOLID
5
26A
100
AcDbEntity
8
DRAFT_ENT
100
AcDbTrace
62
2
6
CONTINUOUS
10
6.6846569062
20
15.4719779111
11
6.7227501350
21
15.4638809453
12
6.6076194231
22
15.4638809453
13
6.6076194231
23
15.4638809453
0
SOLID
5
26B
100
AcDbEntity
8
DRAFT_ENT
100
AcDbTrace
62
2
6
CONTINUOUS
10
6.5720420766
20
15.4480408901
11
6.6076194231
21
15.4638809453
12
6.7227501350
22
15.4638809453
13
6.7227501350
23
15.4638809453
0
SOLID
5
26C
100
AcDbEntity
8
DRAFT_ENT
100
AcDbTrace
62
2
6
CONTINUOUS
10
6.7227501350
20
15.4638809453
11
6.7583274815
21
15.4480408901
12
6.5720420766
22
15.4480408901
13
6.5720420766
23
15.4480408901
0
SOLID
5
26D
100
AcDbEntity
8
DRAFT_ENT
100
AcDbTrace
62
2
6
CONTINUOUS
10
6.5405355131
20
15.4251500318
11
6.5720420766
21
15.4480408901
12
6.7583274815
22
15.4480408901
13
6.7583274815
23
15.4480408901
0
SOLID
5
26E
100
AcDbEntity
8
DRAFT_ENT
100
AcDbTrace
62
2
6
CONTINUOUS
10
6.7583274815
20
15.4480408901
11
6.7898340450
21
15.4251500318
12
6.5405355131
22
15.4251500318
13
6.5405355131
23
15.4251500318
0
SOLID
5
26F
100
AcDbEntity
8
DRAFT_ENT
100
AcDbTrace
62
2
6
CONTINUOUS
10
6.5144767207
20
15.3962088108
11
6.5405355131
21
15.4251500318
12
6.7898340450
22
15.4251500318
13
6.7898340450
23
15.4251500318
0
SOLID
5
270
100
AcDbEntity
8
DRAFT_ENT
100
AcDbTrace
62
2
6
CONTINUOUS
10
6.7898340450
20
15.4251500318
11
6.8158928374
21
15.3962088108
12
6.5144767207
22
15.3962088108
13
6.5144767207
23
15.3962088108
0
SOLID
5
271
100
AcDbEntity
8
DRAFT_ENT
100
AcDbTrace
62
2
6
CONTINUOUS
10
6.6651847791
20
15.3646938964
11
6.4950045936
21
15.3624820973
12
6.8158928374
22
15.3962088108
13
6.8158928374
23
15.3962088108
0
SOLID
5
272
100
AcDbEntity
8
DRAFT_ENT
100
AcDbTrace
62
2
6
CONTINUOUS
10
6.4950045936
20
15.3624820973
11
6.5144767207
21
15.3962088108
12
6.8158928374
22
15.3962088108
13
6.8158928374
23
15.3962088108
0
SOLID
5
273
100
AcDbEntity
8
DRAFT_ENT
100
AcDbTrace
62
2
6
CONTINUOUS
10
6.8158928374
20
15.3962088108
11
6.8353649646
21
15.3624820973
12
6.6651847791
22
15.3646938964
13
6.6651847791
23
15.3646938964
0
SOLID
5
274
100
AcDbEntity
8
DRAFT_ENT
100
AcDbTrace
62
2
6
CONTINUOUS
10
6.6651847791
20
15.3646938964
11
6.6410873559
21
15.3608772395
12
6.4950045936
22
15.3624820973
13
6.4950045936
23
15.3624820973
0
SOLID
5
275
100
AcDbEntity
8
DRAFT_ENT
100
AcDbTrace
62
2
6
CONTINUOUS
10
6.6892822022
20
15.3608772395
11
6.6651847791
21
15.3646938964
12
6.8353649646
22
15.3624820973
13
6.8353649646
23
15.3624820973
0
SOLID
5
276
100
AcDbEntity
8
DRAFT_ENT
100
AcDbTrace
62
2
6
CONTINUOUS
10
6.6020969063
20
15.3325490197
11
6.4829701572
21
15.3254439106
12
6.6193487565
22
15.3498008699
13
6.6193487565
23
15.3498008699
0
SOLID
5
277
100
AcDbEntity
8
DRAFT_ENT
100
AcDbTrace
62
2
6
CONTINUOUS
10
6.6193487565
20
15.3498008699
11
6.4829701572
21
15.3254439106
12
6.6410873559
22
15.3608772395
13
6.6410873559
23
15.3608772395
0
SOLID
5
278
100
AcDbEntity
8
DRAFT_ENT
100
AcDbTrace
62
2
6
CONTINUOUS
10
6.4829701572
20
15.3254439106
11
6.4950045936
21
15.3624820973
12
6.6410873559
22
15.3608772395
13
6.6410873559
23
15.3608772395
0
SOLID
5
279
100
AcDbEntity
8
DRAFT_ENT
100
AcDbTrace
62
2
6
CONTINUOUS
10
6.6892822022
20
15.3608772395
11
6.8353649646
21
15.3624820973
12
6.7110208016
22
15.3498008699
13
6.7110208016
23
15.3498008699
0
SOLID
5
27A
100
AcDbEntity
8
DRAFT_ENT
100
AcDbTrace
62
2
6
CONTINUOUS
10
6.7110208016
20
15.3498008699
11
6.8353649646
21
15.3624820973
12
6.7282726518
22
15.3325490197
13
6.7282726518
23
15.3325490197
0
SOLID
5
27B
100
AcDbEntity
8
DRAFT_ENT
100
AcDbTrace
62
2
6
CONTINUOUS
10
6.8353649646
20
15.3624820973
11
6.8473994009
21
15.3254439106
12
6.7282726518
22
15.3325490197
13
6.7282726518
23
15.3325490197
0
SOLID
5
27C
100
AcDbEntity
8
DRAFT_ENT
100
AcDbTrace
62
2
6
CONTINUOUS
10
6.6020969063
20
15.3325490197
11
6.5910205366
21
15.3108104202
12
6.4829701572
22
15.3254439106
13
6.4829701572
23
15.3254439106
0
SOLID
5
27D
100
AcDbEntity
8
DRAFT_ENT
100
AcDbTrace
62
2
6
CONTINUOUS
10
6.7393490215
20
15.3108104202
11
6.7282726518
21
15.3325490197
12
6.8473994009
22
15.3254439106
13
6.8473994009
23
15.3254439106
0
SOLID
5
27E
100
AcDbEntity
8
DRAFT_ENT
100
AcDbTrace
62
2
6
CONTINUOUS
10
6.4788993741
20
15.2867129971
11
6.4829701572
21
15.3254439106
12
6.5910205366
22
15.3108104202
13
6.5910205366
23
15.3108104202
0
SOLID
5
27F
100
AcDbEntity
8
DRAFT_ENT
100
AcDbTrace
62
2
6
CONTINUOUS
10
6.5910205366
20
15.3108104202
11
6.5872038798
21
15.2867129971
12
6.4788993741
22
15.2867129971
13
6.4788993741
23
15.2867129971
0
SOLID
5
280
100
AcDbEntity
8
DRAFT_ENT
100
AcDbTrace
62
2
6
CONTINUOUS
10
6.7393490215
20
15.3108104202
11
6.8473994009
21
15.3254439106
12
6.7431656784
22
15.2867129971
13
6.7431656784
23
15.2867129971
0
SOLID
5
281
100
AcDbEntity
8
DRAFT_ENT
100
AcDbTrace
62
2
6
CONTINUOUS
10
6.8473994009
20
15.3254439106
11
6.8514701840
21
15.2867129971
12
6.7431656784
22
15.2867129971
13
6.7431656784
23
15.2867129971
0
SOLID
5
282
100
AcDbEntity
8
DRAFT_ENT
100
AcDbTrace
62
2
6
CONTINUOUS
10
6.7393490215
20
15.2626155740
11
6.7431656784
21
15.2867129971
12
6.8514701840
22
15.2867129971
13
6.8514701840
23
15.2867129971
0
SOLID
5
283
100
AcDbEntity
8
DRAFT_ENT
100
AcDbTrace
62
2
6
CONTINUOUS
10
6.5910205366
20
15.2626155740
11
6.4829701572
21
15.2479820836
12
6.5872038798
22
15.2867129971
13
6.5872038798
23
15.2867129971
0
SOLID
5
284
100
AcDbEntity
8
DRAFT_ENT
100
AcDbTrace
62
2
6
CONTINUOUS
10
6.4829701572
20
15.2479820836
11
6.4788993741
21
15.2867129971
12
6.5872038798
22
15.2867129971
13
6.5872038798
23
15.2867129971
0
SOLID
5
285
100
AcDbEntity
8
DRAFT_ENT
100
AcDbTrace
62
2
6
CONTINUOUS
10
6.8514701840
20
15.2867129971
11
6.8473994009
21
15.2479820836
12
6.7393490215
22
15.2626155740
13
6.7393490215
23
15.2626155740
0
SOLID
5
286
100
AcDbEntity
8
DRAFT_ENT
100
AcDbTrace
62
2
6
CONTINUOUS
10
6.5910205366
20
15.2626155740
11
6.6020969063
21
15.2408769745
12
6.4829701572
22
15.2479820836
13
6.4829701572
23
15.2479820836
0
SOLID
5
287
100
AcDbEntity
8
DRAFT_ENT
100
AcDbTrace
62
2
6
CONTINUOUS
10
6.7282726518
20
15.2408769745
11
6.7393490215
21
15.2626155740
12
6.8473994009
22
15.2479820836
13
6.8473994009
23
15.2479820836
0
SOLID
5
288
100
AcDbEntity
8
DRAFT_ENT
100
AcDbTrace
62
2
6
CONTINUOUS
10
6.6410873559
20
15.2125487547
11
6.4950045936
21
15.2109438968
12
6.6193487565
22
15.2236251243
13
6.6193487565
23
15.2236251243
0
SOLID
5
289
100
AcDbEntity
8
DRAFT_ENT
100
AcDbTrace
62
2
6
CONTINUOUS
10
6.6193487565
20
15.2236251243
11
6.4950045936
21
15.2109438968
12
6.6020969063
22
15.2408769745
13
6.6020969063
23
15.2408769745
0
SOLID
5
28A
100
AcDbEntity
8
DRAFT_ENT
100
AcDbTrace
62
2
6
CONTINUOUS
10
6.4950045936
20
15.2109438968
11
6.4829701572
21
15.2479820836
12
6.6020969063
22
15.2408769745
13
6.6020969063
23
15.2408769745
0
SOLID
5
28B
100
AcDbEntity
8
DRAFT_ENT
100
AcDbTrace
62
2
6
CONTINUOUS
10
6.7282726518
20
15.2408769745
11
6.8473994009
21
15.2479820836
12
6.7110208016
22
15.2236251243
13
6.7110208016
23
15.2236251243
0
SOLID
5
28C
100
AcDbEntity
8
DRAFT_ENT
100
AcDbTrace
62
2
6
CONTINUOUS
10
6.7110208016
20
15.2236251243
11
6.8473994009
21
15.2479820836
12
6.6892822022
22
15.2125487547
13
6.6892822022
23
15.2125487547
0
SOLID
5
28D
100
AcDbEntity
8
DRAFT_ENT
100
AcDbTrace
62
2
6
CONTINUOUS
10
6.8473994009
20
15.2479820836
11
6.8353649646
21
15.2109438968
12
6.6892822022
22
15.2125487547
13
6.6892822022
23
15.2125487547
0
SOLID
5
28E
100
AcDbEntity
8
DRAFT_ENT
100
AcDbTrace
62
2
6
CONTINUOUS
10
6.6410873559
20
15.2125487547
11
6.6651847791
21
15.2087320978
12
6.4950045936
22
15.2109438968
13
6.4950045936
23
15.2109438968
0
SOLID
5
28F
100
AcDbEntity
8
DRAFT_ENT
100
AcDbTrace
62
2
6
CONTINUOUS
10
6.6651847791
20
15.2087320978
11
6.6892822022
21
15.2125487547
12
6.8353649646
22
15.2109438968
13
6.8353649646
23
15.2109438968
0
SOLID
5
290
100
AcDbEntity
8
DRAFT_ENT
100
AcDbTrace
62
2
6
CONTINUOUS
10
6.5144767207
20
15.1772171834
11
6.4950045936
21
15.2109438968
12
6.6651847791
22
15.2087320978
13
6.6651847791
23
15.2087320978
0
SOLID
5
291
100
AcDbEntity
8
DRAFT_ENT
100
AcDbTrace
62
2
6
CONTINUOUS
10
6.6651847791
20
15.2087320978
11
6.8353649646
21
15.2109438968
12
6.5144767207
22
15.1772171834
13
6.5144767207
23
15.1772171834
0
SOLID
5
292
100
AcDbEntity
8
DRAFT_ENT
100
AcDbTrace
62
2
6
CONTINUOUS
10
6.8353649646
20
15.2109438968
11
6.8158928374
21
15.1772171834
12
6.5144767207
22
15.1772171834
13
6.5144767207
23
15.1772171834
0
SOLID
5
293
100
AcDbEntity
8
DRAFT_ENT
100
AcDbTrace
62
2
6
CONTINUOUS
10
6.5405355131
20
15.1482759624
11
6.5144767207
21
15.1772171834
12
6.8158928374
22
15.1772171834
13
6.8158928374
23
15.1772171834
0
SOLID
5
294
100
AcDbEntity
8
DRAFT_ENT
100
AcDbTrace
62
2
6
CONTINUOUS
10
6.8158928374
20
15.1772171834
11
6.7898340450
21
15.1482759624
12
6.5405355131
22
15.1482759624
13
6.5405355131
23
15.1482759624
0
SOLID
5
295
100
AcDbEntity
8
DRAFT_ENT
100
AcDbTrace
62
2
6
CONTINUOUS
10
6.5720420766
20
15.1253851041
11
6.5405355131
21
15.1482759624
12
6.7898340450
22
15.1482759624
13
6.7898340450
23
15.1482759624
0
SOLID
5
296
100
AcDbEntity
8
DRAFT_ENT
100
AcDbTrace
62
2
6
CONTINUOUS
10
6.7898340450
20
15.1482759624
11
6.7583274815
21
15.1253851041
12
6.5720420766
22
15.1253851041
13
6.5720420766
23
15.1253851041
0
SOLID
5
297
100
AcDbEntity
8
DRAFT_ENT
100
AcDbTrace
62
2
6
CONTINUOUS
10
6.6076194231
20
15.1095450488
11
6.5720420766
21
15.1253851041
12
6.7583274815
22
15.1253851041
13
6.7583274815
23
15.1253851041
0
SOLID
5
298
100
AcDbEntity
8
DRAFT_ENT
100
AcDbTrace
62
2
6
CONTINUOUS
10
6.7583274815
20
15.1253851041
11
6.7227501350
21
15.1095450488
12
6.6076194231
22
15.1095450488
13
6.6076194231
23
15.1095450488
0
SOLID
5
299
100
AcDbEntity
8
DRAFT_ENT
100
AcDbTrace
62
2
6
CONTINUOUS
10
6.6457126520
20
15.1014480831
11
6.6076194231
21
15.1095450488
12
6.7227501350
22
15.1095450488
13
6.7227501350
23
15.1095450488
0
SOLID
5
29A
100
AcDbEntity
8
DRAFT_ENT
100
AcDbTrace
62
2
6
CONTINUOUS
10
6.7227501350
20
15.1095450488
11
6.6846569062
21
15.1014480831
12
6.6457126520
22
15.1014480831
13
6.6457126520
23
15.1014480831
0
SOLID
5
29B
100
AcDbEntity
8
DRAFT_ENT
100
AcDbTrace
62
2
6
CONTINUOUS
10
7.0576238098
20
15.3327719539
11
7.0576238098
21
15.4705118300
12
7.1605823794
22
15.4705118300
13
7.1605823794
23
15.4705118300
0
SOLID
5
29C
100
AcDbEntity
8
DRAFT_ENT
100
AcDbTrace
62
2
6
CONTINUOUS
10
7.0576238098
20
15.3327719539
11
6.9651257852
21
15.2470186376
12
6.9651257852
22
15.3327719539
13
6.9651257852
23
15.3327719539
0
SOLID
5
29D
100
AcDbEntity
8
DRAFT_ENT
100
AcDbTrace
62
2
6
CONTINUOUS
10
6.9651257852
20
15.2470186376
11
6.8621672156
21
15.1043157293
12
6.9651257852
22
15.3327719539
13
6.9651257852
23
15.3327719539
0
SOLID
5
29E
100
AcDbEntity
8
DRAFT_ENT
100
AcDbTrace
62
2
6
CONTINUOUS
10
6.9651257852
20
15.3327719539
11
6.8621672156
21
15.1043157293
12
6.9651257852
22
15.4705118300
13
6.9651257852
23
15.4705118300
0
SOLID
5
29F
100
AcDbEntity
8
DRAFT_ENT
100
AcDbTrace
62
2
6
CONTINUOUS
10
6.8621672156
20
15.1043157293
11
6.8621672156
21
15.4705118300
12
6.9651257852
22
15.4705118300
13
6.9651257852
23
15.4705118300
0
SOLID
5
2A0
100
AcDbEntity
8
DRAFT_ENT
100
AcDbTrace
62
2
6
CONTINUOUS
10
6.9651257852
20
15.2470186376
11
6.9651257852
21
15.1043157293
12
6.8621672156
22
15.1043157293
13
6.8621672156
23
15.1043157293
0
SOLID
5
2A1
100
AcDbEntity
8
DRAFT_ENT
100
AcDbTrace
62
2
6
CONTINUOUS
10
6.9651257852
20
15.2470186376
11
7.0576238098
21
15.3327719539
12
7.0576238098
22
15.2470186376
13
7.0576238098
23
15.2470186376
0
SOLID
5
2A2
100
AcDbEntity
8
DRAFT_ENT
100
AcDbTrace
62
2
6
CONTINUOUS
10
7.0576238098
20
15.3327719539
11
7.1605823794
21
15.4705118300
12
7.0576238098
22
15.2470186376
13
7.0576238098
23
15.2470186376
0
SOLID
5
2A3
100
AcDbEntity
8
DRAFT_ENT
100
AcDbTrace
62
2
6
CONTINUOUS
10
7.0576238098
20
15.2470186376
11
7.1605823794
21
15.4705118300
12
7.0576238098
22
15.1043157293
13
7.0576238098
23
15.1043157293
0
SOLID
5
2A4
100
AcDbEntity
8
DRAFT_ENT
100
AcDbTrace
62
2
6
CONTINUOUS
10
7.1605823794
20
15.4705118300
11
7.1605823794
21
15.1043157293
12
7.0576238098
22
15.1043157293
13
7.0576238098
23
15.1043157293
0
SOLID
5
2A5
100
AcDbEntity
8
DRAFT_ENT
100
AcDbTrace
62
2
6
CONTINUOUS
10
7.3841917826
20
15.1925824693
11
7.1887354124
21
15.1043157293
12
7.2825142195
22
15.1925824693
13
7.2825142195
23
15.1925824693
0
SOLID
5
2A6
100
AcDbEntity
8
DRAFT_ENT
100
AcDbTrace
62
2
6
CONTINUOUS
10
7.2825142195
20
15.1925824693
11
7.1887354124
21
15.1043157293
12
7.2825142195
22
15.4705118300
13
7.2825142195
23
15.4705118300
0
SOLID
5
2A7
100
AcDbEntity
8
DRAFT_ENT
100
AcDbTrace
62
2
6
CONTINUOUS
10
7.1887354124
20
15.1043157293
11
7.1887354124
21
15.4705118300
12
7.2825142195
22
15.4705118300
13
7.2825142195
23
15.4705118300
0
SOLID
5
2A8
100
AcDbEntity
8
DRAFT_ENT
100
AcDbTrace
62
2
6
CONTINUOUS
10
7.1887354124
20
15.1043157293
11
7.3841917826
21
15.1925824693
12
7.2825142195
22
15.1043157293
13
7.2825142195
23
15.1043157293
0
SOLID
5
2A9
100
AcDbEntity
8
DRAFT_ENT
100
AcDbTrace
62
2
6
CONTINUOUS
10
7.3841917826
20
15.1925824693
11
7.3841917826
21
15.1043157293
12
7.2825142195
22
15.1043157293
13
7.2825142195
23
15.1043157293
0
SOLID
5
2AA
100
AcDbEntity
8
DRAFT_ENT
100
AcDbTrace
62
2
6
CONTINUOUS
10
7.5955992692
20
15.4705118300
11
7.5955992692
21
15.3812871900
12
7.5013132991
22
15.3812871900
13
7.5013132991
23
15.3812871900
0
SOLID
5
2AB
100
AcDbEntity
8
DRAFT_ENT
100
AcDbTrace
62
2
6
CONTINUOUS
10
7.5955992692
20
15.3327719539
11
7.5955992692
21
15.2425334357
12
7.5013132991
22
15.2425334357
13
7.5013132991
23
15.2425334357
0
SOLID
5
2AC
100
AcDbEntity
8
DRAFT_ENT
100
AcDbTrace
62
2
6
CONTINUOUS
10
7.5955992692
20
15.1925824693
11
7.4024091228
21
15.1043157293
12
7.5013132991
22
15.1925824693
13
7.5013132991
23
15.1925824693
0
SOLID
5
2AD
100
AcDbEntity
8
DRAFT_ENT
100
AcDbTrace
62
2
6
CONTINUOUS
10
7.5013132991
20
15.1925824693
11
7.4024091228
21
15.1043157293
12
7.5013132991
22
15.2425334357
13
7.5013132991
23
15.2425334357
0
SOLID
5
2AE
100
AcDbEntity
8
DRAFT_ENT
100
AcDbTrace
62
2
6
CONTINUOUS
10
7.5955992692
20
15.3327719539
11
7.5013132991
21
15.2425334357
12
7.5013132991
22
15.3327719539
13
7.5013132991
23
15.3327719539
0
SOLID
5
2AF
100
AcDbEntity
8
DRAFT_ENT
100
AcDbTrace
62
2
6
CONTINUOUS
10
7.5013132991
20
15.2425334357
11
7.4024091228
21
15.1043157293
12
7.5013132991
22
15.3327719539
13
7.5013132991
23
15.3327719539
0
SOLID
5
2B0
100
AcDbEntity
8
DRAFT_ENT
100
AcDbTrace
62
2
6
CONTINUOUS
10
7.5013132991
20
15.3327719539
11
7.4024091228
21
15.1043157293
12
7.5013132991
22
15.3812871900
13
7.5013132991
23
15.3812871900
0
SOLID
5
2B1
100
AcDbEntity
8
DRAFT_ENT
100
AcDbTrace
62
2
6
CONTINUOUS
10
7.5955992692
20
15.4705118300
11
7.5013132991
21
15.3812871900
12
7.5101910029
22
15.4705118300
13
7.5101910029
23
15.4705118300
0
SOLID
5
2B2
100
AcDbEntity
8
DRAFT_ENT
100
AcDbTrace
62
2
6
CONTINUOUS
10
7.5013132991
20
15.3812871900
11
7.4024091228
21
15.1043157293
12
7.5101910029
22
15.4705118300
13
7.5101910029
23
15.4705118300
0
SOLID
5
2B3
100
AcDbEntity
8
DRAFT_ENT
100
AcDbTrace
62
2
6
CONTINUOUS
10
7.4024091228
20
15.1043157293
11
7.4024091228
21
15.4705118300
12
7.5101910029
22
15.4705118300
13
7.5101910029
23
15.4705118300
0
SOLID
5
2B4
100
AcDbEntity
8
DRAFT_ENT
100
AcDbTrace
62
2
6
CONTINUOUS
10
7.5955992692
20
15.1925824693
11
7.5955992692
21
15.1043157293
12
7.4024091228
22
15.1043157293
13
7.4024091228
23
15.1043157293
0
SOLID
5
2B5
100
AcDbEntity
8
DRAFT_ENT
100
AcDbTrace
62
2
6
CONTINUOUS
10
7.7695792495
20
15.4705162710
11
7.7989123948
21
15.4665098650
12
7.6236119088
22
15.4705118300
13
7.6236119088
23
15.4705118300
0
SOLID
5
2B6
100
AcDbEntity
8
DRAFT_ENT
100
AcDbTrace
62
2
6
CONTINUOUS
10
7.7177718158
20
15.3814000422
11
7.8764841843
21
15.3842933774
12
7.7527279984
22
15.3814000422
13
7.7527279984
23
15.3814000422
0
SOLID
5
2B7
100
AcDbEntity
8
DRAFT_ENT
100
AcDbTrace
62
2
6
CONTINUOUS
10
7.7527279984
20
15.3814000422
11
7.8764841843
21
15.3842933774
12
7.7675546147
22
15.3779411863
13
7.7675546147
23
15.3779411863
0
SOLID
5
2B8
100
AcDbEntity
8
DRAFT_ENT
100
AcDbTrace
62
2
6
CONTINUOUS
10
7.7675546147
20
15.3779411863
11
7.8764841843
21
15.3842933774
12
7.7793202343
22
15.3682787625
13
7.7793202343
23
15.3682787625
0
SOLID
5
2B9
100
AcDbEntity
8
DRAFT_ENT
100
AcDbTrace
62
2
6
CONTINUOUS
10
7.8764841843
20
15.3842933774
11
7.8787799637
21
15.3547770413
12
7.7793202343
22
15.3682787625
13
7.7793202343
23
15.3682787625
0
SOLID
5
2BA
100
AcDbEntity
8
DRAFT_ENT
100
AcDbTrace
62
2
6
CONTINUOUS
10
7.7855958221
20
15.3544075970
11
7.7793202343
21
15.3682787625
12
7.8787799637
22
15.3547770413
13
7.8787799637
23
15.3547770413
0
SOLID
5
2BB
100
AcDbEntity
8
DRAFT_ENT
100
AcDbTrace
62
2
6
CONTINUOUS
10
7.7855958221
20
15.3544075970
11
7.8787799637
21
15.3547770413
12
7.7850857709
22
15.3391914187
13
7.7850857709
23
15.3391914187
0
SOLID
5
2BC
100
AcDbEntity
8
DRAFT_ENT
100
AcDbTrace
62
2
6
CONTINUOUS
10
7.7850857709
20
15.3391914187
11
7.8787799637
21
15.3547770413
12
7.7778953818
22
15.3257716370
13
7.7778953818
23
15.3257716370
0
SOLID
5
2BD
100
AcDbEntity
8
DRAFT_ENT
100
AcDbTrace
62
2
6
CONTINUOUS
10
7.8787799637
20
15.3547770413
11
7.8730764604
21
15.3257261419
12
7.7778953818
22
15.3257716370
13
7.7778953818
23
15.3257716370
0
SOLID
5
2BE
100
AcDbEntity
8
DRAFT_ENT
100
AcDbTrace
62
2
6
CONTINUOUS
10
7.7655091246
20
15.3169187919
11
7.7778953818
21
15.3257716370
12
7.8730764604
22
15.3257261419
13
7.8730764604
23
15.3257261419
0
SOLID
5
2BF
100
AcDbEntity
8
DRAFT_ENT
100
AcDbTrace
62
2
6
CONTINUOUS
10
7.7655091246
20
15.3169187919
11
7.8730764604
21
15.3257261419
12
7.7504841659
22
15.3144605703
13
7.7504841659
23
15.3144605703
0
SOLID
5
2C0
100
AcDbEntity
8
DRAFT_ENT
100
AcDbTrace
62
2
6
CONTINUOUS
10
7.8730764604
20
15.3257261419
11
7.8597914730
21
15.2992687457
12
7.7504841659
22
15.3144605703
13
7.7504841659
23
15.3144605703
0
SOLID
5
2C1
100
AcDbEntity
8
DRAFT_ENT
100
AcDbTrace
62
2
6
CONTINUOUS
10
7.8148537880
20
15.2615548476
11
7.7177718158
21
15.2274134845
12
7.8398981673
22
15.2773429370
13
7.8398981673
23
15.2773429370
0
SOLID
5
2C2
100
AcDbEntity
8
DRAFT_ENT
100
AcDbTrace
62
2
6
CONTINUOUS
10
7.8398981673
20
15.2773429370
11
7.7177718158
21
15.2274134845
12
7.8597914730
22
15.2992687457
13
7.8597914730
23
15.2992687457
0
SOLID
5
2C3
100
AcDbEntity
8
DRAFT_ENT
100
AcDbTrace
62
2
6
CONTINUOUS
10
7.8597914730
20
15.2992687457
11
7.7177718158
21
15.2274134845
12
7.7504841659
22
15.3144605703
13
7.7504841659
23
15.3144605703
0
SOLID
5
2C4
100
AcDbEntity
8
DRAFT_ENT
100
AcDbTrace
62
2
6
CONTINUOUS
10
7.7177718158
20
15.2274134845
11
7.6236119088
21
15.1043157293
12
7.7504841659
22
15.3144605703
13
7.7504841659
23
15.3144605703
0
SOLID
5
2C5
100
AcDbEntity
8
DRAFT_ENT
100
AcDbTrace
62
2
6
CONTINUOUS
10
7.7504841659
20
15.3144605703
11
7.6236119088
21
15.1043157293
12
7.7177718158
22
15.3144605703
13
7.7177718158
23
15.3144605703
0
SOLID
5
2C6
100
AcDbEntity
8
DRAFT_ENT
100
AcDbTrace
62
2
6
CONTINUOUS
10
7.7177718158
20
15.3144605703
11
7.6236119088
21
15.1043157293
12
7.7177718158
22
15.3814000422
13
7.7177718158
23
15.3814000422
0
SOLID
5
2C7
100
AcDbEntity
8
DRAFT_ENT
100
AcDbTrace
62
2
6
CONTINUOUS
10
7.8764841843
20
15.3842933774
11
7.7177718158
21
15.3814000422
12
7.8663572948
22
15.4121129894
13
7.8663572948
23
15.4121129894
0
SOLID
5
2C8
100
AcDbEntity
8
DRAFT_ENT
100
AcDbTrace
62
2
6
CONTINUOUS
10
7.8663572948
20
15.4121129894
11
7.7177718158
21
15.3814000422
12
7.8491411206
22
15.4361980065
13
7.8491411206
23
15.4361980065
0
SOLID
5
2C9
100
AcDbEntity
8
DRAFT_ENT
100
AcDbTrace
62
2
6
CONTINUOUS
10
7.8491411206
20
15.4361980065
11
7.7177718158
21
15.3814000422
12
7.8260967985
22
15.4547841282
13
7.8260967985
23
15.4547841282
0
SOLID
5
2CA
100
AcDbEntity
8
DRAFT_ENT
100
AcDbTrace
62
2
6
CONTINUOUS
10
7.8260967985
20
15.4547841282
11
7.7177718158
21
15.3814000422
12
7.7989123948
22
15.4665098650
13
7.7989123948
23
15.4665098650
0
SOLID
5
2CB
100
AcDbEntity
8
DRAFT_ENT
100
AcDbTrace
62
2
6
CONTINUOUS
10
7.7989123948
20
15.4665098650
11
7.7177718158
21
15.3814000422
12
7.6236119088
22
15.4705118300
13
7.6236119088
23
15.4705118300
0
SOLID
5
2CC
100
AcDbEntity
8
DRAFT_ENT
100
AcDbTrace
62
2
6
CONTINUOUS
10
7.6236119088
20
15.1043157293
11
7.6236119088
21
15.4705118300
12
7.7177718158
22
15.3814000422
13
7.7177718158
23
15.3814000422
0
SOLID
5
2CD
100
AcDbEntity
8
DRAFT_ENT
100
AcDbTrace
62
2
6
CONTINUOUS
10
7.7177718158
20
15.2274134845
11
7.7177718158
21
15.1043157293
12
7.6236119088
22
15.1043157293
13
7.6236119088
23
15.1043157293
0
SOLID
5
2CE
100
AcDbEntity
8
DRAFT_ENT
100
AcDbTrace
62
2
6
CONTINUOUS
10
7.7177718158
20
15.2274134845
11
7.8148537880
21
15.2615548476
12
7.7957864739
22
15.1043157293
13
7.7957864739
23
15.1043157293
0
SOLID
5
2CF
100
AcDbEntity
8
DRAFT_ENT
100
AcDbTrace
62
2
6
CONTINUOUS
10
7.8148537880
20
15.2615548476
11
7.9145058338
21
15.1043157293
12
7.7957864739
22
15.1043157293
13
7.7957864739
23
15.1043157293
0
SOLID
5
2D0
100
AcDbEntity
8
0
100
AcDbTrace
62
7
6
CONTINUOUS
10
16.8684857967
20
7.3305262619
11
16.8684857967
21
7.3480362619
12
16.8884957967
22
7.3480362619
13
16.8884957967
23
7.3480362619
0
SOLID
5
2D1
100
AcDbEntity
8
0
100
AcDbTrace
62
7
6
CONTINUOUS
10
16.8884957967
20
7.3480362619
11
16.8884957967
21
7.3305262619
12
16.8684857967
22
7.3305262619
13
16.8684857967
23
7.3305262619
0
SOLID
5
2D2
100
AcDbEntity
8
0
100
AcDbTrace
62
7
6
CONTINUOUS
10
19.8524458408
20
7.3305262619
11
19.8524458408
21
7.3480362619
12
19.8724558408
22
7.3480362619
13
19.8724558408
23
7.3480362619
0
SOLID
5
2D3
100
AcDbEntity
8
0
100
AcDbTrace
62
7
6
CONTINUOUS
10
19.8724558408
20
7.3480362619
11
19.8724558408
21
7.3305262619
12
19.8524458408
22
7.3305262619
13
19.8524458408
23
7.3305262619
0
DIMENSION
5
2D4
100
AcDbEntity
8
0
100
AcDbDimension
62
2
6
CONTINUOUS
2
*D0
10
5.1859002396
20
21.3367626833
11
5.1859002396
21
20.2224545719
70
160
3
DIMSTYLE_1
100
AcDbAlignedDimension
13
5.0609002396
23
19.3367626833
14
5.0609002396
24
21.3367626833
50
90.000000
100
AcDbRotatedDimension
0
DIMENSION
5
2D5
100
AcDbEntity
8
0
100
AcDbDimension
62
2
6
CONTINUOUS
2
*D1
10
5.1859002396
20
19.3367626833
11
5.1859002396
21
17.8640401637
70
160
3
DIMSTYLE_2
100
AcDbAlignedDimension
13
4.7331425987
23
16.8367626833
14
5.0067968431
24
19.3367626833
50
90.000000
100
AcDbRotatedDimension
0
DIMENSION
5
2D6
100
AcDbEntity
8
0
100
AcDbDimension
62
2
6
CONTINUOUS
2
*D2
10
13.9766029923
20
3.4617626833
11
13.9766029923
21
11.5521507253
70
160
3
DIMSTYLE_2
100
AcDbAlignedDimension
13
13.7826967934
23
16.8367626833
14
13.7361580449
24
3.4617626833
50
270.000000
100
AcDbRotatedDimension
0
DIMENSION
5
2D7
100
AcDbEntity
8
0
100
AcDbDimension
62
2
6
CONTINUOUS
2
*D3
10
24.1706425987
20
10.1522367946
11
11.0951284628
21
10.0350492946
70
160
3
DIMSTYLE_2
100
AcDbAlignedDimension
13
3.7956425987
23
10.4288357795
14
24.1706425987
24
10.4055664053
100
AcDbRotatedDimension
0
TEXT
5
2D8
100
AcDbEntity
8
0
100
AcDbText
62
7
6
CONTINUOUS
10
20.6487296396
20
3.8405916914
7
TEXTSTYLE_0
40
0.1560000000
1
2003 KOHLER CO.
72
5
11
22.9887296396
21
3.8405916914
100
AcDbText
0
TEXT
5
2D9
100
AcDbEntity
8
0
100
AcDbText
62
7
6
CONTINUOUS
10
4.8744752899
20
3.6570520559
7
TEXTSTYLE_0
40
0.1560000000
1
1002977-7
72
5
11
6.2784752899
21
3.6570520559
100
AcDbText
0
TEXT
5
2DA
100
AcDbEntity
8
0
100
AcDbText
62
7
6
CONTINUOUS
10
6.2784752899
20
3.6570520559
7
TEXTSTYLE_0
40
0.1560000000
1
-C
72
5
11
6.5904752899
21
3.6570520559
100
AcDbText
0
TEXT
5
2DB
100
AcDbEntity
8
0
100
AcDbText
62
7
6
CONTINUOUS
10
4.9047160331
20
1.5403407516
7
TEXTSTYLE_0
40
0.1560000000
1
1002977-7
72
5
11
6.3087160331
21
1.5403407516
100
AcDbText
0
TEXT
5
2DC
100
AcDbEntity
8
0
100
AcDbText
62
7
6
CONTINUOUS
10
6.3087160331
20
1.5403407516
7
TEXTSTYLE_0
40
0.1560000000
1
-C
72
5
11
6.6207160331
21
1.5403407516
100
AcDbText
0
TEXT
5
2DD
100
AcDbEntity
8
0
100
AcDbText
62
7
6
CONTINUOUS
10
17.2341464599
20
8.6954674261
7
TEXTSTYLE_0
40
0.0940000000
1
%%c12/32
72
5
11
17.8294797933
21
8.6954674261
100
AcDbText
0
TEXT
5
2DE
100
AcDbEntity
8
0
100
AcDbText
62
7
6
CONTINUOUS
10
17.2341464599
20
8.5544674261
7
TEXTSTYLE_0
40
0.0940000000
1
%%c1cm
72
5
11
17.5850797933
21
8.5544674261
100
AcDbText
0
TEXT
5
2DF
100
AcDbEntity
8
0
100
AcDbText
62
7
6
CONTINUOUS
10
17.4931653236
20
7.7883749750
7
TEXTSTYLE_0
40
0.0940000000
1
%%c20/32
72
5
11
17.9944986569
21
7.7883749750
100
AcDbText
0
TEXT
5
2E0
100
AcDbEntity
8
0
100
AcDbText
62
7
6
CONTINUOUS
10
17.4931653236
20
7.6473749742
7
TEXTSTYLE_0
40
0.0940000000
1
1.6cm
72
5
11
17.9631653236
21
7.6473749742
100
AcDbText
0
TEXT
5
2E1
100
AcDbEntity
8
0
100
AcDbText
62
2
6
CONTINUOUS
10
19.3356890913
20
6.7046371298
7
TEXTSTYLE_0
40
0.1562500000
1
WOOD
72
5
11
19.8356890913
21
6.7046371298
100
AcDbText
0
TEXT
5
2E2
100
AcDbEntity
8
0
100
AcDbText
62
2
6
CONTINUOUS
10
19.3356890913
20
6.4702621298
7
TEXTSTYLE_0
40
0.1562500000
1
MADERA
72
5
11
20.0856890913
21
6.4702621298
100
AcDbText
0
TEXT
5
2E3
100
AcDbEntity
8
0
100
AcDbText
62
2
6
CONTINUOUS
10
19.3356890913
20
6.2358871298
7
TEXTSTYLE_0
40
0.1562500000
1
BOIS
72
5
11
19.8356890913
21
6.2358871298
100
AcDbText
0
TEXT
5
2E4
100
AcDbEntity
8
NOTE
100
AcDbText
62
2
6
CONTINUOUS
10
15.2030935123
20
14.6649831403
7
TEXTSTYLE_0
40
0.0800000000
1
XXXXX-XX-X-XX
72
5
11
16.0870935123
21
14.6649831403
100
AcDbText
0
TEXT
5
2E5
100
AcDbEntity
8
NOTE
100
AcDbText
62
2
6
CONTINUOUS
10
16.6703254714
20
14.5621469882
7
TEXTSTYLE_0
40
0.0387500000
1
xxxxxx-xx
72
5
11
16.9493254714
21
14.5621469882
100
AcDbText
0
TEXT
5
2E6
100
AcDbEntity
8
NOTE
100
AcDbText
62
2
6
CONTINUOUS
10
6.1882992061
20
14.8504262991
7
TEXTSTYLE_0
40
0.1562500000
1
CUT-OUT TEMPLATE
72
5
11
8.1882992061
21
14.8504262991
100
AcDbText
0
TEXT
5
2E7
100
AcDbEntity
8
NOTE
100
AcDbText
62
2
6
CONTINUOUS
10
6.1882992061
20
14.6160512991
7
TEXTSTYLE_0
40
0.1562500000
1
UNDERCOUNTER LAVATORY
72
5
11
8.8132992061
21
14.6160512991
100
AcDbText
0
TEXT
5
2E8
100
AcDbEntity
8
NOTE
100
AcDbText
62
2
6
CONTINUOUS
10
6.1882992061
20
14.3816762511
7
TEXTSTYLE_0
40
0.1562500384
1
PLANTILLA DE RECORTE
72
5
11
8.6882998201
21
14.3816762511
100
AcDbText
0
TEXT
5
2E9
100
AcDbEntity
8
NOTE
100
AcDbText
62
2
6
CONTINUOUS
10
6.1882992061
20
14.1473011936
7
TEXTSTYLE_0
40
0.1562500384
1
LAVABO MONTADO DEBAJO DEL MOSTRADOR
72
5
11
10.5633002807
21
14.1473011936
100
AcDbText
0
TEXT
5
2EA
100
AcDbEntity
8
NOTE
100
AcDbText
62
2
6
CONTINUOUS
10
6.1882992061
20
13.9129261840
7
TEXTSTYLE_0
40
0.1562500000
1
GABARIT
72
5
11
7.0632992061
21
13.9129261840
100
AcDbText
0
TEXT
5
2EB
100
AcDbEntity
8
NOTE
100
AcDbText
62
2
6
CONTINUOUS
10
6.1882992061
20
13.6785511840
7
TEXTSTYLE_0
40
0.1562500000
1
LAVABO SOUS-COMPTOIR
72
5
11
8.6882992061
21
13.6785511840
100
AcDbText
0
TEXT
5
2EC
100
AcDbEntity
8
NOTE
100
AcDbText
62
2
6
CONTINUOUS
10
6.1882992061
20
13.3926136233
7
TEXTSTYLE_0
40
0.1562500384
1
LADENA
72
5
11
7.1257994363
21
13.3926136233
100
AcDbText
0
TEXT
5
2ED
100
AcDbEntity
8
NOTE
100
AcDbText
62
2
6
CONTINUOUS
10
7.1257994363
20
13.5316761575
7
TEXTSTYLE_0
40
0.0687500169
1
TM
72
5
11
7.2632994701
21
13.5316761575
100
AcDbText
0
TEXT
5
2EE
100
AcDbEntity
8
NOTE
100
AcDbText
62
2
6
CONTINUOUS
10
7.2632994701
20
13.3926136233
7
TEXTSTYLE_0
40
0.1562500384
1
 
72
5
11
7.4195495085
21
13.3926136233
100
AcDbText
0
TEXT
5
2EF
100
AcDbEntity
8
NOTE
100
AcDbText
62
2
6
CONTINUOUS
10
7.4195495085
20
13.3926136233
7
TEXTSTYLE_0
40
0.1562500384
1
2215
72
5
11
8.0445496620
21
13.3926136233
100
AcDbText
0
TEXT
5
2F0
100
AcDbEntity
8
NOTE
100
AcDbText
62
2
6
CONTINUOUS
10
8.0445496620
20
13.3926136233
7
TEXTSTYLE_0
40
0.1562500384
1
-**-
72
5
11
8.6695498155
21
13.3926136233
100
AcDbText
0
TEXT
5
2F1
100
AcDbEntity
8
NOTE
100
AcDbText
62
2
6
CONTINUOUS
10
8.6695498155
20
13.3926136233
7
TEXTSTYLE_0
40
0.1562500384
1
AB
72
5
11
8.9820498923
21
13.3926136233
100
AcDbText
0
SOLID
5
2F2
100
AcDbEntity
8
NOTE
100
AcDbTrace
62
2
6
CONTINUOUS
10
8.7073539108
20
3.4617626833
11
8.7417175285
21
3.6487171010
12
8.8004939009
22
3.6274664997
13
8.8004939009
23
3.6274664997
0
TEXT
5
2F3
100
AcDbEntity
8
NOTE
100
AcDbText
62
2
6
CONTINUOUS
10
9.4341467506
20
4.7023840601
7
TEXTSTYLE_0
40
0.1562500000
1
CUT ALONG THIS LINE
72
5
11
11.8091467506
21
4.7023840601
100
AcDbText
0
TEXT
5
2F4
100
AcDbEntity
8
NOTE
100
AcDbText
62
2
6
CONTINUOUS
10
9.4341467506
20
4.4680090601
7
TEXTSTYLE_0
40
0.1562500000
1
CORTE A LO LARGO DE ESTA LÍNEA
72
5
11
13.1841467506
21
4.4680090601
100
AcDbText
0
TEXT
5
2F5
100
AcDbEntity
8
NOTE
100
AcDbText
62
2
6
CONTINUOUS
10
9.4341467506
20
4.2336340601
7
TEXTSTYLE_0
40
0.1562500000
1
DÉCOUPER AU LONG DE CETTE LIGNE
72
5
11
13.3091467506
21
4.2336340601
100
AcDbText
0
SOLID
5
2F6
100
AcDbEntity
8
NOTE
100
AcDbTrace
62
2
6
CONTINUOUS
10
2.3581425987
20
7.0926480027
11
2.5052563087
21
7.2130239506
12
2.5363450642
22
7.1588045880
13
2.5363450642
23
7.1588045880
0
TEXT
5
2F7
100
AcDbEntity
8
NOTE
100
AcDbText
62
2
6
CONTINUOUS
10
4.4543066772
20
8.0730921370
7
TEXTSTYLE_0
40
0.1562500000
1
RIM OF LAVATORY
72
5
11
6.3293066772
21
8.0730921370
100
AcDbText
0
TEXT
5
2F8
100
AcDbEntity
8
NOTE
100
AcDbText
62
2
6
CONTINUOUS
10
4.4543066772
20
7.8387171370
7
TEXTSTYLE_0
40
0.1562500000
1
BORDE DEL LAVABO
72
5
11
6.4543066772
21
7.8387171370
100
AcDbText
0
TEXT
5
2F9
100
AcDbEntity
8
NOTE
100
AcDbText
62
2
6
CONTINUOUS
10
4.4543066772
20
7.6043421370
7
TEXTSTYLE_0
40
0.1562500000
1
REBORD DE LAVABO
72
5
11
6.4543066772
21
7.6043421370
100
AcDbText
0
TEXT
5
2FA
100
AcDbEntity
8
NOTE
100
AcDbText
62
2
6
CONTINUOUS
10
20.1269004760
20
9.6261755310
7
TEXTSTYLE_0
40
0.1562500000
1
SEALANT
72
5
11
21.0019004760
21
9.6261755310
100
AcDbText
0
TEXT
5
2FB
100
AcDbEntity
8
NOTE
100
AcDbText
62
2
6
CONTINUOUS
10
20.1269004760
20
9.3918005310
7
TEXTSTYLE_0
40
0.1562500000
1
SELLADOR
72
5
11
21.1269004760
21
9.3918005310
100
AcDbText
0
TEXT
5
2FC
100
AcDbEntity
8
NOTE
100
AcDbText
62
2
6
CONTINUOUS
10
20.1269004760
20
9.1574255310
7
TEXTSTYLE_0
40
0.1562500000
1
MASTIC D'ÉCHANTÉITÉ
72
5
11
22.5019004760
21
9.1574255310
100
AcDbText
0
TEXT
5
2FD
100
AcDbEntity
8
NOTE
100
AcDbText
62
2
6
CONTINUOUS
10
16.8307816366
20
9.5683488847
7
TEXTSTYLE_0
40
0.1562500000
1
SEALANT
72
5
11
17.7057816366
21
9.5683488847
100
AcDbText
0
TEXT
5
2FE
100
AcDbEntity
8
NOTE
100
AcDbText
62
2
6
CONTINUOUS
10
16.8307816366
20
9.3339738847
7
TEXTSTYLE_0
40
0.1562500000
1
SELLADOR
72
5
11
17.8307816366
21
9.3339738847
100
AcDbText
0
TEXT
5
2FF
100
AcDbEntity
8
NOTE
100
AcDbText
62
2
6
CONTINUOUS
10
16.8307816366
20
9.0995988847
7
TEXTSTYLE_0
40
0.1562500000
1
MASTIC D'ÉCHANTÉITÉ
72
5
11
19.2057816366
21
9.0995988847
100
AcDbText
0
TEXT
5
300
100
AcDbEntity
8
NOTE
100
AcDbText
62
2
6
CONTINUOUS
10
17.2500865486
20
6.3627936642
7
TEXTSTYLE_0
40
0.1562500000
1
INSTALLATION
72
5
11
18.7500865486
21
6.3627936642
100
AcDbText
0
TEXT
5
301
100
AcDbEntity
8
NOTE
100
AcDbText
62
2
6
CONTINUOUS
10
17.2500865486
20
6.1284186642
7
TEXTSTYLE_0
40
0.1562500000
1
INSTALACIÓN
72
5
11
18.6250865486
21
6.1284186642
100
AcDbText
0
TEXT
5
302
100
AcDbEntity
8
NOTE
100
AcDbText
62
2
6
CONTINUOUS
10
17.2500865486
20
5.8940436642
7
TEXTSTYLE_0
40
0.1562500000
1
INSTALLATION
72
5
11
18.7500865486
21
5.8940436642
100
AcDbText
0
TEXT
5
303
100
AcDbEntity
8
NOTE
100
AcDbText
62
2
6
CONTINUOUS
10
16.2902721210
20
6.6543115662
7
TEXTSTYLE_0
40
0.1562500000
1
MARBLE
72
5
11
17.0402721210
21
6.6543115662
100
AcDbText
0
TEXT
5
304
100
AcDbEntity
8
NOTE
100
AcDbText
62
2
6
CONTINUOUS
10
16.2902721210
20
6.4199365662
7
TEXTSTYLE_0
40
0.1562500000
1
MÁRMOL
72
5
11
17.0402721210
21
6.4199365662
100
AcDbText
0
TEXT
5
305
100
AcDbEntity
8
NOTE
100
AcDbText
62
2
6
CONTINUOUS
10
16.2902721210
20
6.1855615662
7
TEXTSTYLE_0
40
0.1562500000
1
MARBRE
72
5
11
17.0402721210
21
6.1855615662
100
AcDbText
0
TEXT
5
306
100
AcDbEntity
8
NOTE
100
AcDbText
62
2
6
CONTINUOUS
10
17.6495853769
20
21.0352812464
7
TEXTSTYLE_0
40
0.1562500000
1
FINISHED WALL / BACK SPLASH
72
5
11
21.0245853769
21
21.0352812464
100
AcDbText
0
TEXT
5
307
100
AcDbEntity
8
NOTE
100
AcDbText
62
2
6
CONTINUOUS
10
17.6495853769
20
20.8009062464
7
TEXTSTYLE_0
40
0.1562500000
1
PARED ACABADA/PARED POSTERIOR
72
5
11
21.2745853769
21
20.8009062464
100
AcDbText
0
TEXT
5
308
100
AcDbEntity
8
NOTE
100
AcDbText
62
2
6
CONTINUOUS
10
17.6495853769
20
20.5665312464
7
TEXTSTYLE_0
40
0.1562500000
1
MUR FINI / DOSSERET
72
5
11
20.0245853769
21
20.5665312464
100
AcDbText
0
TEXT
5
309
100
AcDbEntity
8
NOTE
100
AcDbText
62
2
6
CONTINUOUS
10
20.9259628623
20
19.9904324666
7
TEXTSTYLE_0
40
0.1562500000
1
CENTERLINE OF FITTING
72
5
11
23.5509628623
21
19.9904324666
100
AcDbText
0
TEXT
5
30A
100
AcDbEntity
8
NOTE
100
AcDbText
62
2
6
CONTINUOUS
10
20.9259628623
20
19.7560574666
7
TEXTSTYLE_0
40
0.1562500000
1
LINEA CENTRAL DEL GRIFO
72
5
11
23.8009628623
21
19.7560574666
100
AcDbText
0
TEXT
5
30B
100
AcDbEntity
8
NOTE
100
AcDbText
62
2
6
CONTINUOUS
10
20.9259628623
20
19.5216824666
7
TEXTSTYLE_0
40
0.1562500000
1
AXE DU ROBINET
72
5
11
22.6759628623
21
19.5216824666
100
AcDbText
0
TEXT
5
30C
100
AcDbEntity
8
NOTE
100
AcDbText
62
2
6
CONTINUOUS
10
7.0884636758
20
20.8498139950
7
TEXTSTYLE_0
40
0.1562500000
1
NOTE: BEFORE CUTTING COUNTERTOP
72
5
11
10.9634636758
21
20.8498139950
100
AcDbText
0
TEXT
5
30D
100
AcDbEntity
8
NOTE
100
AcDbText
62
2
6
CONTINUOUS
10
7.0884636758
20
20.6154389950
7
TEXTSTYLE_0
40
0.1562500000
1
      ALLOW FOR HANDLE CLEARANCE.
72
5
11
11.2134636758
21
20.6154389950
100
AcDbText
0
TEXT
5
30E
100
AcDbEntity
8
NOTE
100
AcDbText
62
2
6
CONTINUOUS
10
7.0884636758
20
20.3810639950
7
TEXTSTYLE_0
40
0.1562500000
1
NOTA: ANTES DE CORTAR EL MOSTRADOR,
72
5
11
11.4634636758
21
20.3810639950
100
AcDbText
0
TEXT
5
30F
100
AcDbEntity
8
NOTE
100
AcDbText
62
2
6
CONTINUOUS
10
7.0884636758
20
20.1466889950
7
TEXTSTYLE_0
40
0.1562500000
1
      DEJE ESPACIO LIBRE PARA OPERAR
72
5
11
11.5884636758
21
20.1466889950
100
AcDbText
0
TEXT
5
310
100
AcDbEntity
8
NOTE
100
AcDbText
62
2
6
CONTINUOUS
10
7.0884636758
20
19.9123139950
7
TEXTSTYLE_0
40
0.1562500000
1
REMARQUE : AVANT DE COUPER L'OUVERTURE, 
72
5
11
12.0884636758
21
19.9123139950
100
AcDbText
0
TEXT
5
311
100
AcDbEntity
8
NOTE
100
AcDbText
62
2
6
CONTINUOUS
10
7.0884636758
20
19.6779389950
7
TEXTSTYLE_0
40
0.1562500000
1
           PRÉVOIR LE DÉGAGEMENT POUR LES POIGNÉES
72
5
11
13.3384636758
21
19.6779389950
100
AcDbText
0
TEXT
5
312
100
AcDbEntity
8
NOTE
100
AcDbText
62
2
6
CONTINUOUS
10
8.7664652285
20
13.3802160039
7
TEXTSTYLE_0
40
0.1562500000
1
 
72
5
11
8.8914652285
21
13.3802160039
100
AcDbText
0
SOLID
5
313
100
AcDbEntity
8
NOTE
100
AcDbTrace
62
2
6
CONTINUOUS
10
26.2236305576
20
14.7742626833
11
26.1262555109
21
14.6110116105
12
26.0785727330
22
14.6514170891
13
26.0785727330
23
14.6514170891
0
TEXT
5
314
100
AcDbEntity
8
NOTE
100
AcDbText
62
2
6
CONTINUOUS
10
21.7698680155
20
11.8004359528
7
TEXTSTYLE_0
40
0.1562500000
1
CLIP LOCATIONS
72
5
11
23.5198680155
21
11.8004359528
100
AcDbText
0
TEXT
5
315
100
AcDbEntity
8
NOTE
100
AcDbText
62
2
6
CONTINUOUS
10
20.6448680155
20
11.5660609528
7
TEXTSTYLE_0
40
0.1562500000
1
UBICACIÓN DEL SUJETADOR
72
5
11
23.5198680155
21
11.5660609528
100
AcDbText
0
TEXT
5
316
100
AcDbEntity
8
NOTE
100
AcDbText
62
2
6
CONTINUOUS
10
20.6448680155
20
11.3316859528
7
TEXTSTYLE_0
40
0.1562500000
1
EMPLACEMENT DES AGRAFES
72
5
11
23.5198680155
21
11.3316859528
100
AcDbText
0
TEXT
5
317
100
AcDbEntity
8
NOTE
100
AcDbText
62
2
6
CONTINUOUS
10
14.8444669869
20
16.0009296294
7
TEXTSTYLE_0
40
0.1562500000
1
PACKAGING/UPC LABEL ON BOX.
72
5
11
18.2194669869
21
16.0009296294
100
AcDbText
0
TEXT
5
318
100
AcDbEntity
8
NOTE
100
AcDbText
62
2
6
CONTINUOUS
10
14.8444669869
20
15.7665546294
7
TEXTSTYLE_0
40
0.1562500000
1
ETIQUETA DE EMBALAJE/UPC EN LA CAJA
72
5
11
19.2194669869
21
15.7665546294
100
AcDbText
0
TEXT
5
319
100
AcDbEntity
8
NOTE
100
AcDbText
62
2
6
CONTINUOUS
10
14.8444669869
20
15.5321796294
7
TEXTSTYLE_0
40
0.1562500000
1
ETIQUETTE D'EMBALLAGE / UPC SUR LA BOÎTE
72
5
11
19.8444669869
21
15.5321796294
100
AcDbText
0
TEXT
5
31A
100
AcDbEntity
8
NOTE
100
AcDbText
62
2
6
CONTINUOUS
10
14.8569836997
20
14.1748447049
7
TEXTSTYLE_0
40
0.1562500000
1
The template and the label suffixes circled
72
5
11
20.2319836997
21
14.1748447049
100
AcDbText
0
TEXT
5
31B
100
AcDbEntity
8
NOTE
100
AcDbText
62
2
6
CONTINUOUS
10
14.8569836997
20
13.9404697049
7
TEXTSTYLE_0
40
0.1562500000
1
must match for proper cut-out.
72
5
11
18.6069836997
21
13.9404697049
100
AcDbText
0
TEXT
5
31C
100
AcDbEntity
8
NOTE
100
AcDbText
62
2
6
CONTINUOUS
10
14.8569836997
20
13.7060947049
7
TEXTSTYLE_0
40
0.1562500000
1
 
72
5
11
14.9819836997
21
13.7060947049
100
AcDbText
0
TEXT
5
31D
100
AcDbEntity
8
NOTE
100
AcDbText
62
2
6
CONTINUOUS
10
14.8569836997
20
13.4717197049
7
TEXTSTYLE_0
40
0.1562500000
1
A fin de realizar el corte apropiado, la plantilla y
72
5
11
21.3569836997
21
13.4717197049
100
AcDbText
0
TEXT
5
31E
100
AcDbEntity
8
NOTE
100
AcDbText
62
2
6
CONTINUOUS
10
14.8569836997
20
13.2373447049
7
TEXTSTYLE_0
40
0.1562500000
1
los sufijos de la etiqueta demarcados deben concordar.
72
5
11
21.6069836997
21
13.2373447049
100
AcDbText
0
TEXT
5
31F
100
AcDbEntity
8
NOTE
100
AcDbText
62
2
6
CONTINUOUS
10
14.8569836997
20
13.0029697049
7
TEXTSTYLE_0
40
0.1562500000
1
 
72
5
11
14.9819836997
21
13.0029697049
100
AcDbText
0
TEXT
5
320
100
AcDbEntity
8
NOTE
100
AcDbText
62
2
6
CONTINUOUS
10
14.8569836997
20
12.7685947049
7
TEXTSTYLE_0
40
0.1562500000
1
A fin de découper l'ouverture correctement, le gabarit 
72
5
11
21.7319836997
21
12.7685947049
100
AcDbText
0
TEXT
5
321
100
AcDbEntity
8
NOTE
100
AcDbText
62
2
6
CONTINUOUS
10
14.8569836997
20
12.5342197049
7
TEXTSTYLE_0
40
0.1562500000
1
et les suffixes encerclés doivent correspondre.
72
5
11
20.7319836997
21
12.5342197049
100
AcDbText
0
TEXT
5
322
100
AcDbEntity
8
NOTE
100
AcDbText
62
2
6
CONTINUOUS
10
14.3422264073
20
5.3663806948
7
TEXTSTYLE_0
40
0.1562500000
1
NOTE: WATERPROOF UNPROTECTED OVERHANG AREA ON THE
72
5
11
20.4672264073
21
5.3663806948
100
AcDbText
0
TEXT
5
323
100
AcDbEntity
8
NOTE
100
AcDbText
62
2
6
CONTINUOUS
10
14.3422264073
20
5.1320056948
7
TEXTSTYLE_0
40
0.1562500000
1
      UNDERSIDE OF THE WOOD COUNTER.
72
5
11
18.8422264073
21
5.1320056948
100
AcDbText
0
TEXT
5
324
100
AcDbEntity
8
NOTE
100
AcDbText
62
2
6
CONTINUOUS
10
14.3422264073
20
4.8976306948
7
TEXTSTYLE_0
40
0.1562500000
1
NOTA: EL ÁREA IMPERMEABLE DESPROTEGIDA DEL SALIENTE
72
5
11
20.7172264073
21
4.8976306948
100
AcDbText
0
TEXT
5
325
100
AcDbEntity
8
NOTE
100
AcDbText
62
2
6
CONTINUOUS
10
14.3422264073
20
4.6632556948
7
TEXTSTYLE_0
40
0.1562500000
1
      DEBAJO DEL MOSTRADOR DE MADERA
72
5
11
18.8422264073
21
4.6632556948
100
AcDbText
0
TEXT
5
326
100
AcDbEntity
8
NOTE
100
AcDbText
62
2
6
CONTINUOUS
10
14.3422264073
20
4.4288806948
7
TEXTSTYLE_0
40
0.1562500000
1
REMARQUE : IMPERMÉABILISER LA SURFACE NON PROTÉGÉE 
72
5
11
20.7172264073
21
4.4288806948
100
AcDbText
0
TEXT
5
327
100
AcDbEntity
8
NOTE
100
AcDbText
62
2
6
CONTINUOUS
10
14.3422264073
20
4.1945056948
7
TEXTSTYLE_0
40
0.1562500000
1
           CÔTÉ DESSOUS DU COMPTOIR DE BOIS.
72
5
11
19.8422264073
21
4.1945056948
100
AcDbText
0
TEXT
5
328
100
AcDbEntity
8
NOTE
100
AcDbText
62
2
6
CONTINUOUS
10
20.4698873694
20
3.8729212492
7
TEXTSTYLE_0
40
0.1000000000
1
C
72
5
11
20.5498873694
21
3.8729212492
100
AcDbText
0
LINE
5
329
100
AcDbEntity
8
DEFAULT_1
100
AcDbLine
62
7
6
CENTER
10
1.7331425987
20
14.9617626833
11
1.7331425987
21
14.5867626833
0
LINE
5
32A
100
AcDbEntity
8
DEFAULT_1
100
AcDbLine
62
7
6
CENTER
10
1.7331425987
20
5.3367626833
11
1.7331425987
21
5.7117626833
0
LINE
5
32B
100
AcDbEntity
8
DEFAULT_2
100
AcDbLine
62
8
6
CONTINUOUS
10
2.3581425987
20
4.1442626833
11
2.3581425987
21
16.1542626833
0
LINE
5
32C
100
AcDbEntity
8
0
100
AcDbLine
62
7
6
CONTINUOUS
10
3.7956425987
20
15.9617626833
11
3.7956425987
21
4.3367626833
0
LINE
5
32D
100
AcDbEntity
8
DRAFT_ENT
100
AcDbLine
62
2
6
CONTINUOUS
10
6.4097003356
20
15.4705118300
11
6.3235977150
21
15.3681235669
0
LINE
5
32E
100
AcDbEntity
8
DRAFT_ENT
100
AcDbLine
62
2
6
CONTINUOUS
10
6.5297389910
20
15.4705118300
11
6.3964243082
21
15.3119816292
0
LINE
5
32F
100
AcDbEntity
8
DRAFT_ENT
100
AcDbLine
62
2
6
CONTINUOUS
10
6.2145350523
20
15.4705118300
11
6.2145350523
21
15.1043007271
0
LINE
5
330
100
AcDbEntity
8
DRAFT_ENT
100
AcDbLine
62
2
6
CONTINUOUS
10
6.3235977150
20
15.4705118300
11
6.3235977150
21
15.3681235669
0
LINE
5
331
100
AcDbEntity
8
DRAFT_ENT
100
AcDbLine
62
2
6
CONTINUOUS
10
6.3235977150
20
15.2302531496
11
6.3235977150
21
15.1043157293
0
LINE
5
332
100
AcDbEntity
8
DEFAULT_2
100
AcDbLine
62
8
6
CONTINUOUS
10
23.4881425987
20
2.0242626833
11
4.4781425987
21
2.0242626833
0
LINE
5
333
100
AcDbEntity
8
DRAFT_ENT
100
AcDbLine
62
2
6
CONTINUOUS
10
6.8621672156
20
15.4705118300
11
6.8621672156
21
15.1043157293
0
LINE
5
334
100
AcDbEntity
8
DRAFT_ENT
100
AcDbLine
62
2
6
CONTINUOUS
10
6.9651257852
20
15.4705118300
11
6.9651257852
21
15.3327719539
0
LINE
5
335
100
AcDbEntity
8
DRAFT_ENT
100
AcDbLine
62
2
6
CONTINUOUS
10
6.9651257852
20
15.2470186376
11
6.9651257852
21
15.1043157293
0
LINE
5
336
100
AcDbEntity
8
DRAFT_ENT
100
AcDbLine
62
2
6
CONTINUOUS
10
7.0576238098
20
15.4705118300
11
7.0576238098
21
15.3327719539
0
LINE
5
337
100
AcDbEntity
8
DRAFT_ENT
100
AcDbLine
62
2
6
CONTINUOUS
10
7.0576238098
20
15.2470186376
11
7.0576238098
21
15.1043157293
0
LINE
5
338
100
AcDbEntity
8
DRAFT_ENT
100
AcDbLine
62
2
6
CONTINUOUS
10
7.1605823794
20
15.4705118300
11
7.1605823794
21
15.1043157293
0
LINE
5
339
100
AcDbEntity
8
DRAFT_ENT
100
AcDbLine
62
2
6
CONTINUOUS
10
7.1887354124
20
15.1043157293
11
7.1887354124
21
15.4705118300
0
LINE
5
33A
100
AcDbEntity
8
DRAFT_ENT
100
AcDbLine
62
2
6
CONTINUOUS
10
7.2825142195
20
15.4705118300
11
7.2825142195
21
15.1925824693
0
LINE
5
33B
100
AcDbEntity
8
DRAFT_ENT
100
AcDbLine
62
2
6
CONTINUOUS
10
7.3841917826
20
15.1925824693
11
7.3841917826
21
15.1043157293
0
LINE
5
33C
100
AcDbEntity
8
DRAFT_ENT
100
AcDbLine
62
2
6
CONTINUOUS
10
7.4024091228
20
15.1043157293
11
7.4024091228
21
15.4705118300
0
LINE
5
33D
100
AcDbEntity
8
DRAFT_ENT
100
AcDbLine
62
2
6
CONTINUOUS
10
7.5013132991
20
15.3812871900
11
7.5013132991
21
15.3327719539
0
LINE
5
33E
100
AcDbEntity
8
DRAFT_ENT
100
AcDbLine
62
2
6
CONTINUOUS
10
7.5013132991
20
15.2425334357
11
7.5013132991
21
15.1925824693
0
LINE
5
33F
100
AcDbEntity
8
DRAFT_ENT
100
AcDbLine
62
2
6
CONTINUOUS
10
7.5955992692
20
15.1043157293
11
7.5955992692
21
15.1925824693
0
LINE
5
340
100
AcDbEntity
8
DRAFT_ENT
100
AcDbLine
62
2
6
CONTINUOUS
10
7.5955992692
20
15.2425334357
11
7.5955992692
21
15.3327719539
0
LINE
5
341
100
AcDbEntity
8
DRAFT_ENT
100
AcDbLine
62
2
6
CONTINUOUS
10
7.5955992692
20
15.3812871900
11
7.5955992692
21
15.4705118300
0
LINE
5
342
100
AcDbEntity
8
DRAFT_ENT
100
AcDbLine
62
2
6
CONTINUOUS
10
7.6236119088
20
15.1043157293
11
7.6236119088
21
15.4705118300
0
LINE
5
343
100
AcDbEntity
8
DRAFT_ENT
100
AcDbLine
62
2
6
CONTINUOUS
10
7.7177718158
20
15.3814000422
11
7.7177718158
21
15.3144605703
0
LINE
5
344
100
AcDbEntity
8
DRAFT_ENT
100
AcDbLine
62
2
6
CONTINUOUS
10
7.7177718158
20
15.2274134845
11
7.7177718158
21
15.1043157293
0
LINE
5
345
100
AcDbEntity
8
0
100
AcDbLine
62
7
6
CONTINUOUS
10
4.6706425987
20
3.4617626833
11
23.2956425987
21
3.4617626833
0
LINE
5
346
100
AcDbEntity
8
DRAFT_ENT
100
AcDbLine
62
2
6
CONTINUOUS
10
7.9925583332
20
15.0837902936
11
7.9925583332
21
15.1250191758
0
LINE
5
347
100
AcDbEntity
8
NOTE
100
AcDbLine
62
2
6
CONTINUOUS
10
9.1841467506
20
4.7805090601
11
9.4341467506
21
4.7805090601
0
LINE
5
348
100
AcDbEntity
8
DEFAULT_1
100
AcDbLine
62
7
6
CENTER
10
26.4206425987
20
5.5242626833
11
26.0456425987
21
5.5242626833
0
LINE
5
349
100
AcDbEntity
8
DEFAULT_1
100
AcDbLine
62
7
6
CENTER
10
1.5456425987
20
5.5242626833
11
1.9206425987
21
5.5242626833
0
LINE
5
34A
100
AcDbEntity
8
DRAFT_ENT
100
AcDbLine
62
2
6
CONTINUOUS
10
6.4196839458
20
15.1043157293
11
6.3235977150
21
15.2302531496
0
LINE
5
34B
100
AcDbEntity
8
DRAFT_ENT
100
AcDbLine
62
2
6
CONTINUOUS
10
6.5548667351
20
15.1043157293
11
6.3964243082
21
15.3119816292
0
LINE
5
34C
100
AcDbEntity
8
NOTE
100
AcDbLine
62
2
6
CONTINUOUS
10
8.7073539108
20
3.4617626833
11
9.1841467506
21
4.7805090601
0
LINE
5
34D
100
AcDbEntity
8
0
100
AcDbLine
62
7
6
CONTINUOUS
10
16.0229757967
20
7.0561962564
11
16.0529957967
21
7.0561962564
0
LINE
5
34E
100
AcDbEntity
8
0
100
AcDbLine
62
7
6
CONTINUOUS
10
19.0069358408
20
7.0561962564
11
19.0369558408
21
7.0561962564
0
LINE
5
34F
100
AcDbEntity
8
0
100
AcDbLine
62
7
6
CONTINUOUS
10
15.9729557967
20
7.1028862564
11
16.0096357967
21
7.1028862564
0
LINE
5
350
100
AcDbEntity
8
0
100
AcDbLine
62
7
6
CONTINUOUS
10
18.9569058408
20
7.1028862564
11
18.9935958408
21
7.1028862564
0
LINE
5
351
100
AcDbEntity
8
0
100
AcDbLine
62
7
6
CONTINUOUS
10
17.0702757967
20
7.3797162564
11
16.3431757967
21
7.3797162564
0
LINE
5
352
100
AcDbEntity
8
0
100
AcDbLine
62
7
6
CONTINUOUS
10
19.3271258408
20
7.3797162564
11
20.0542258408
21
7.3797162564
0
LINE
5
353
100
AcDbEntity
8
0
100
AcDbLine
62
7
6
CONTINUOUS
10
16.8484757967
20
7.3880562564
11
16.9101757967
21
7.3880562564
0
LINE
5
354
100
AcDbEntity
8
0
100
AcDbLine
62
7
6
CONTINUOUS
10
16.8301357967
20
7.4080662564
11
16.9301857967
21
7.4080662564
0
LINE
5
355
100
AcDbEntity
8
0
100
AcDbLine
62
7
6
CONTINUOUS
10
16.8484757967
20
7.4297462564
11
16.9101757967
21
7.4297462564
0
LINE
5
356
100
AcDbEntity
8
0
100
AcDbLine
62
7
6
CONTINUOUS
10
20.0675758408
20
7.4530962564
11
19.9141458408
21
7.4530962564
0
LINE
5
357
100
AcDbEntity
8
0
100
AcDbLine
62
7
6
CONTINUOUS
10
16.3498457967
20
7.4530962564
11
17.0836157967
21
7.4530962564
0
LINE
5
358
100
AcDbEntity
8
0
100
AcDbLine
62
7
6
CONTINUOUS
10
19.3337958408
20
7.4530962564
11
19.8140858408
21
7.4530962564
0
LINE
5
359
100
AcDbEntity
8
0
100
AcDbLine
62
7
6
CONTINUOUS
10
16.8484757967
20
7.4731062564
11
16.9101757967
21
7.4731062564
0
LINE
5
35A
100
AcDbEntity
8
0
100
AcDbLine
62
7
6
CONTINUOUS
10
16.9301857967
20
7.4964562564
11
16.8301357967
21
7.4964562564
0
LINE
5
35B
100
AcDbEntity
8
0
100
AcDbLine
62
7
6
CONTINUOUS
10
16.8484757967
20
7.5164662564
11
16.9101757967
21
7.5164662564
0
LINE
5
35C
100
AcDbEntity
8
0
100
AcDbLine
62
7
6
CONTINUOUS
10
16.8301357967
20
7.5381462564
11
16.9301857967
21
7.5381462564
0
LINE
5
35D
100
AcDbEntity
8
0
100
AcDbLine
62
7
6
CONTINUOUS
10
16.8484757967
20
7.5598262564
11
16.9101757967
21
7.5598262564
0
LINE
5
35E
100
AcDbEntity
8
0
100
AcDbLine
62
7
6
CONTINUOUS
10
16.8301357967
20
7.5815062564
11
16.9301857967
21
7.5815062564
0
LINE
5
35F
100
AcDbEntity
8
0
100
AcDbLine
62
7
6
CONTINUOUS
10
19.8140858408
20
7.5815062564
11
19.9141458408
21
7.5815062564
0
LINE
5
360
100
AcDbEntity
8
0
100
AcDbLine
62
7
6
CONTINUOUS
10
16.8484757967
20
7.6015162564
11
16.9101757967
21
7.6015162564
0
LINE
5
361
100
AcDbEntity
8
0
100
AcDbLine
62
7
6
CONTINUOUS
10
19.8324358408
20
7.6015162564
11
19.8941358408
21
7.6015162564
0
LINE
5
362
100
AcDbEntity
8
0
100
AcDbLine
62
7
6
CONTINUOUS
10
16.8301357967
20
7.6265362564
11
16.9301857967
21
7.6265362564
0
LINE
5
363
100
AcDbEntity
8
0
100
AcDbLine
62
7
6
CONTINUOUS
10
19.8140858408
20
7.6265362564
11
19.9141458408
21
7.6265362564
0
LINE
5
364
100
AcDbEntity
8
0
100
AcDbLine
62
7
6
CONTINUOUS
10
16.8484757967
20
7.6465462564
11
16.9101757967
21
7.6465462564
0
LINE
5
365
100
AcDbEntity
8
0
100
AcDbLine
62
7
6
CONTINUOUS
10
19.8324358408
20
7.6465462564
11
19.8941358408
21
7.6465462564
0
LINE
5
366
100
AcDbEntity
8
0
100
AcDbLine
62
7
6
CONTINUOUS
10
16.8301357967
20
7.6698962564
11
16.9301857967
21
7.6698962564
0
LINE
5
367
100
AcDbEntity
8
0
100
AcDbLine
62
7
6
CONTINUOUS
10
19.8140858408
20
7.6698962564
11
19.9141458408
21
7.6698962564
0
LINE
5
368
100
AcDbEntity
8
0
100
AcDbLine
62
7
6
CONTINUOUS
10
16.8484757967
20
7.6899062564
11
16.9101757967
21
7.6899062564
0
LINE
5
369
100
AcDbEntity
8
0
100
AcDbLine
62
7
6
CONTINUOUS
10
19.8324358408
20
7.6899062564
11
19.8941358408
21
7.6899062564
0
LINE
5
36A
100
AcDbEntity
8
0
100
AcDbLine
62
7
6
CONTINUOUS
10
16.8301357967
20
7.7132562564
11
16.9301857967
21
7.7132562564
0
LINE
5
36B
100
AcDbEntity
8
0
100
AcDbLine
62
7
6
CONTINUOUS
10
19.8140858408
20
7.7132562564
11
19.9141458408
21
7.7132562564
0
LINE
5
36C
100
AcDbEntity
8
0
100
AcDbLine
62
7
6
CONTINUOUS
10
16.0563357967
20
7.7232562564
11
16.6508557967
21
7.7232562564
0
LINE
5
36D
100
AcDbEntity
8
0
100
AcDbLine
62
7
6
CONTINUOUS
10
19.0412358408
20
7.7232562564
11
19.6348158408
21
7.7232562564
0
LINE
5
36E
100
AcDbEntity
8
0
100
AcDbLine
62
7
6
CONTINUOUS
10
16.8301357967
20
7.7265962564
11
15.9829557967
21
7.7265962564
0
LINE
5
36F
100
AcDbEntity
8
0
100
AcDbLine
62
7
6
CONTINUOUS
10
16.9301857967
20
7.7265962564
11
17.2804057967
21
7.7265962564
0
LINE
5
370
100
AcDbEntity
8
0
100
AcDbLine
62
7
6
CONTINUOUS
10
18.8835258408
20
7.7265962564
11
19.8140858408
21
7.7265962564
0
LINE
5
371
100
AcDbEntity
8
0
100
AcDbLine
62
7
6
CONTINUOUS
10
19.9141458408
20
7.7265962564
11
20.2643558408
21
7.7265962564
0
LINE
5
372
100
AcDbEntity
8
0
100
AcDbLine
62
7
6
CONTINUOUS
10
17.3037457967
20
7.7299462564
11
17.4338257967
21
7.7299462564
0
LINE
5
373
100
AcDbEntity
8
0
100
AcDbLine
62
7
6
CONTINUOUS
10
16.8484757967
20
7.7349262564
11
16.9101757967
21
7.7349262564
0
LINE
5
374
100
AcDbEntity
8
0
100
AcDbLine
62
7
6
CONTINUOUS
10
19.8324358408
20
7.7349262564
11
19.8941358408
21
7.7349262564
0
LINE
5
375
100
AcDbEntity
8
0
100
AcDbLine
62
7
6
CONTINUOUS
10
16.8301357967
20
7.7566162564
11
16.9301857967
21
7.7566162564
0
LINE
5
376
100
AcDbEntity
8
0
100
AcDbLine
62
7
6
CONTINUOUS
10
19.8140858408
20
7.7566162564
11
19.9141458408
21
7.7566162564
0
LINE
5
377
100
AcDbEntity
8
0
100
AcDbLine
62
7
6
CONTINUOUS
10
16.8484757967
20
7.7799562564
11
16.9101757967
21
7.7799562564
0
LINE
5
378
100
AcDbEntity
8
0
100
AcDbLine
62
7
6
CONTINUOUS
10
19.8324358408
20
7.7799562564
11
19.8941358408
21
7.7799562564
0
LINE
5
379
100
AcDbEntity
8
0
100
AcDbLine
62
7
6
CONTINUOUS
10
16.8301357967
20
7.8033062564
11
16.9301857967
21
7.8033062564
0
LINE
5
37A
100
AcDbEntity
8
0
100
AcDbLine
62
7
6
CONTINUOUS
10
19.8140858408
20
7.8033062564
11
19.9141458408
21
7.8033062564
0
LINE
5
37B
100
AcDbEntity
8
0
100
AcDbLine
62
7
6
CONTINUOUS
10
16.8484757967
20
7.8233162564
11
16.9101757967
21
7.8233162564
0
LINE
5
37C
100
AcDbEntity
8
0
100
AcDbLine
62
7
6
CONTINUOUS
10
19.8324358408
20
7.8233162564
11
19.8941358408
21
7.8233162564
0
LINE
5
37D
100
AcDbEntity
8
0
100
AcDbLine
62
7
6
CONTINUOUS
10
16.8301357967
20
7.8466662564
11
16.9301857967
21
7.8466662564
0
LINE
5
37E
100
AcDbEntity
8
0
100
AcDbLine
62
7
6
CONTINUOUS
10
19.8140858408
20
7.8466662564
11
19.9141458408
21
7.8466662564
0
LINE
5
37F
100
AcDbEntity
8
0
100
AcDbLine
62
7
6
CONTINUOUS
10
16.8484757967
20
7.8666762564
11
16.9101757967
21
7.8666762564
0
LINE
5
380
100
AcDbEntity
8
0
100
AcDbLine
62
7
6
CONTINUOUS
10
19.8324358408
20
7.8666762564
11
19.8941358408
21
7.8666762564
0
LINE
5
381
100
AcDbEntity
8
0
100
AcDbLine
62
7
6
CONTINUOUS
10
16.8301357967
20
7.8883562564
11
16.9301857967
21
7.8883562564
0
LINE
5
382
100
AcDbEntity
8
0
100
AcDbLine
62
7
6
CONTINUOUS
10
19.8140858408
20
7.8883562564
11
19.9141458408
21
7.8883562564
0
LINE
5
383
100
AcDbEntity
8
0
100
AcDbLine
62
7
6
CONTINUOUS
10
16.8484757967
20
7.9100362564
11
16.9101757967
21
7.9100362564
0
LINE
5
384
100
AcDbEntity
8
0
100
AcDbLine
62
7
6
CONTINUOUS
10
19.8324358408
20
7.9100362564
11
19.8941358408
21
7.9100362564
0
LINE
5
385
100
AcDbEntity
8
0
100
AcDbLine
62
7
6
CONTINUOUS
10
16.8301357967
20
7.9317162564
11
16.9301857967
21
7.9317162564
0
LINE
5
386
100
AcDbEntity
8
0
100
AcDbLine
62
7
6
CONTINUOUS
10
19.8140858408
20
7.9317162564
11
19.9141458408
21
7.9317162564
0
LINE
5
387
100
AcDbEntity
8
0
100
AcDbLine
62
7
6
CONTINUOUS
10
16.8484757967
20
7.9533962564
11
16.9101757967
21
7.9533962564
0
LINE
5
388
100
AcDbEntity
8
0
100
AcDbLine
62
7
6
CONTINUOUS
10
19.8324358408
20
7.9533962564
11
19.8941358408
21
7.9533962564
0
LINE
5
389
100
AcDbEntity
8
0
100
AcDbLine
62
7
6
CONTINUOUS
10
16.8301357967
20
7.9767462564
11
16.9301857967
21
7.9767462564
0
LINE
5
38A
100
AcDbEntity
8
0
100
AcDbLine
62
7
6
CONTINUOUS
10
19.8140858408
20
7.9767462564
11
19.9141458408
21
7.9767462564
0
LINE
5
38B
100
AcDbEntity
8
0
100
AcDbLine
62
7
6
CONTINUOUS
10
16.8484757967
20
7.9984262564
11
16.9101757967
21
7.9984262564
0
LINE
5
38C
100
AcDbEntity
8
0
100
AcDbLine
62
7
6
CONTINUOUS
10
19.8324358408
20
7.9984262564
11
19.8941358408
21
7.9984262564
0
LINE
5
38D
100
AcDbEntity
8
0
100
AcDbLine
62
7
6
CONTINUOUS
10
15.9562757967
20
7.1062262564
11
15.9729557967
21
7.1028862564
0
LINE
5
38E
100
AcDbEntity
8
0
100
AcDbLine
62
7
6
CONTINUOUS
10
18.9402258408
20
7.1062262564
11
18.9569058408
21
7.1028862564
0
LINE
5
38F
100
AcDbEntity
8
0
100
AcDbLine
62
7
6
CONTINUOUS
10
16.0663357967
20
7.0628562564
11
16.0796857967
21
7.0595262564
0
LINE
5
390
100
AcDbEntity
8
0
100
AcDbLine
62
7
6
CONTINUOUS
10
16.0863557967
20
6.9994862564
11
16.1030257967
21
6.9928162564
0
LINE
5
391
100
AcDbEntity
8
0
100
AcDbLine
62
7
6
CONTINUOUS
10
16.0096357967
20
7.0628562564
11
16.0229757967
21
7.0561962564
0
LINE
5
392
100
AcDbEntity
8
DRAFT_ENT
100
AcDbLine
62
2
6
CONTINUOUS
10
7.7957864739
20
15.1043157293
11
7.7177718158
21
15.2274134845
0
LINE
5
393
100
AcDbEntity
8
DRAFT_ENT
100
AcDbLine
62
2
6
CONTINUOUS
10
7.9145058338
20
15.1043157293
11
7.8148537880
21
15.2615548476
0
LINE
5
394
100
AcDbEntity
8
NOTE
100
AcDbLine
62
2
6
CONTINUOUS
10
2.3581425987
20
7.0926480027
11
4.2043066772
21
8.1512171370
0
LINE
5
395
100
AcDbEntity
8
0
100
AcDbLine
62
7
6
CONTINUOUS
10
19.9141458408
20
8.0201062564
11
19.8140858408
21
8.0201062564
0
LINE
5
396
100
AcDbEntity
8
0
100
AcDbLine
62
7
6
CONTINUOUS
10
16.9301857967
20
8.0201062564
11
16.8301357967
21
8.0201062564
0
LINE
5
397
100
AcDbEntity
8
0
100
AcDbLine
62
7
6
CONTINUOUS
10
16.9935657967
20
8.0768062564
11
16.7567557967
21
8.0768062564
0
LINE
5
398
100
AcDbEntity
8
0
100
AcDbLine
62
7
6
CONTINUOUS
10
17.0335857967
20
8.0801562564
11
17.4404957967
21
8.0801562564
0
LINE
5
399
100
AcDbEntity
8
NOTE
100
AcDbLine
62
2
6
CONTINUOUS
10
4.2043066772
20
8.1512171370
11
4.4543066772
21
8.1512171370
0
LINE
5
39A
100
AcDbEntity
8
DEFAULT_3
100
AcDbLine
62
7
6
PHANTOM
10
20.2643558408
20
8.3636362564
11
18.8835258408
21
8.3636362564
0
LINE
5
39B
100
AcDbEntity
8
DEFAULT_3
100
AcDbLine
62
7
6
PHANTOM
10
17.2804057967
20
8.3636362564
11
15.9829557967
21
8.3636362564
0
LINE
5
39C
100
AcDbEntity
8
0
100
AcDbLine
62
7
6
CONTINUOUS
10
16.7600857967
20
8.4970662564
11
17.7248557967
21
8.4970662564
0
LINE
5
39D
100
AcDbEntity
8
0
100
AcDbLine
62
7
6
CONTINUOUS
10
19.0502958408
20
7.0628562564
11
19.0636358408
21
7.0595262564
0
LINE
5
39E
100
AcDbEntity
8
0
100
AcDbLine
62
7
6
CONTINUOUS
10
19.0703058408
20
6.9994862564
11
19.0869858408
21
6.9928162564
0
LINE
5
39F
100
AcDbEntity
8
0
100
AcDbLine
62
7
6
CONTINUOUS
10
15.9429357967
20
7.1195662564
11
15.9562757967
21
7.1062262564
0
LINE
5
3A0
100
AcDbEntity
8
0
100
AcDbLine
62
7
6
CONTINUOUS
10
16.0763457967
20
7.0094962564
11
16.0863557967
21
6.9994862564
0
LINE
5
3A1
100
AcDbEntity
8
DRAFT_ENT
100
AcDbLine
62
2
6
CONTINUOUS
10
7.9998070697
20
15.1039796358
11
8.0197245815
21
15.0837902936
0
LINE
5
3A2
100
AcDbEntity
8
DEFAULT_1
100
AcDbLine
62
7
6
CENTER
10
13.9831425987
20
21.4170356170
11
13.9831425987
21
16.8367626833
0
LINE
5
3A3
100
AcDbEntity
8
DEFAULT_1
100
AcDbLine
62
7
6
CENTER
10
13.9831425987
20
3.4617626833
11
13.9831425987
21
1.5242626833
0
LINE
5
3A4
100
AcDbEntity
8
NOTE
100
AcDbLine
62
2
6
CONTINUOUS
10
16.5807816366
20
9.6464738847
11
16.8307816366
21
9.6464738847
0
LINE
5
3A5
100
AcDbEntity
8
NOTE
100
AcDbLine
62
2
6
CONTINUOUS
10
19.8769004760
20
9.7043005310
11
20.1269004760
21
9.7043005310
0
LINE
5
3A6
100
AcDbEntity
8
0
100
AcDbLine
62
7
6
CONTINUOUS
10
18.9935958408
20
7.0628562564
11
19.0069358408
21
7.0561962564
0
LINE
5
3A7
100
AcDbEntity
8
DRAFT_ENT
100
AcDbLine
62
2
6
CONTINUOUS
10
15.1385303689
20
14.4845160507
11
15.1385303689
21
15.3952723007
0
LINE
5
3A8
100
AcDbEntity
8
DEFAULT_1
100
AcDbLine
62
7
6
CENTER
10
1.8581425987
20
10.1492626833
11
3.7956425987
21
10.1492626833
0
LINE
5
3A9
100
AcDbEntity
8
DEFAULT_1
100
AcDbLine
62
7
6
CENTER
10
24.1706425987
20
10.1492626833
11
26.1081425987
21
10.1492626833
0
LINE
5
3AA
100
AcDbEntity
8
0
100
AcDbLine
62
7
6
CONTINUOUS
10
18.9268858408
20
7.1195662564
11
18.9402258408
21
7.1062262564
0
LINE
5
3AB
100
AcDbEntity
8
0
100
AcDbLine
62
7
6
CONTINUOUS
10
19.0602958408
20
7.0094962564
11
19.0703058408
21
6.9994862564
0
LINE
5
3AC
100
AcDbEntity
8
0
100
AcDbLine
62
7
6
CONTINUOUS
10
17.2170257967
20
7.9167062564
11
17.2070257967
21
7.9267162564
0
LINE
5
3AD
100
AcDbEntity
8
0
100
AcDbLine
62
7
6
CONTINUOUS
10
16.0096357967
20
7.1028862564
11
16.0129757967
21
7.0895462564
0
LINE
5
3AE
100
AcDbEntity
8
0
100
AcDbLine
62
7
6
CONTINUOUS
10
16.1030257967
20
6.9928162564
11
16.1063657967
21
6.9794762564
0
LINE
5
3AF
100
AcDbEntity
8
0
100
AcDbLine
62
7
6
CONTINUOUS
10
16.0730157967
20
7.0228362564
11
16.0763457967
21
7.0094962564
0
LINE
5
3B0
100
AcDbEntity
8
DRAFT_ENT
100
AcDbLine
62
2
6
CONTINUOUS
10
15.1663366189
20
14.5406973007
11
15.1663366189
21
15.3682223007
0
LINE
5
3B1
100
AcDbEntity
8
DEFAULT_3
100
AcDbLine
62
7
6
PHANTOM
10
15.8995757967
20
8.2869262564
11
15.8995757967
21
7.8166462564
0
LINE
5
3B2
100
AcDbEntity
8
0
100
AcDbLine
62
7
6
CONTINUOUS
10
16.0096357967
20
7.0762062564
11
16.0096357967
21
7.0628562564
0
LINE
5
3B3
100
AcDbEntity
8
0
100
AcDbLine
62
7
6
CONTINUOUS
10
16.0796857967
20
7.0595262564
11
16.0796857967
21
7.0361762564
0
LINE
5
3B4
100
AcDbEntity
8
NOTE
100
AcDbLine
62
2
6
CONTINUOUS
10
23.7698680155
20
11.8785609528
11
23.5198680155
21
11.8785609528
0
LINE
5
3B5
100
AcDbEntity
8
0
100
AcDbLine
62
7
6
CONTINUOUS
10
17.2804057967
20
7.7265962564
11
17.2470457967
21
7.7799562564
0
LINE
5
3B6
100
AcDbEntity
8
0
100
AcDbLine
62
7
6
CONTINUOUS
10
17.2270357967
20
7.8866862564
11
17.2203657967
21
7.9000262564
0
LINE
5
3B7
100
AcDbEntity
8
0
100
AcDbLine
62
7
6
CONTINUOUS
10
17.2070257967
20
7.9267162564
11
17.1970157967
21
7.9533962564
0
LINE
5
3B8
100
AcDbEntity
8
0
100
AcDbLine
62
7
6
CONTINUOUS
10
16.9301857967
20
8.0201062564
11
16.9135157967
21
8.0768062564
0
LINE
5
3B9
100
AcDbEntity
8
0
100
AcDbLine
62
7
6
CONTINUOUS
10
16.3431757967
20
7.3797162564
11
16.3431757967
21
7.4530962564
0
LINE
5
3BA
100
AcDbEntity
8
0
100
AcDbLine
62
7
6
CONTINUOUS
10
16.7567557967
20
8.5470962564
11
16.7567557967
21
8.1135062564
0
LINE
5
3BB
100
AcDbEntity
8
0
100
AcDbLine
62
7
6
CONTINUOUS
10
16.7567557967
20
8.0768062564
11
16.7567557967
21
7.7265962564
0
LINE
5
3BC
100
AcDbEntity
8
0
100
AcDbLine
62
7
6
CONTINUOUS
10
16.8034457967
20
7.4530962564
11
16.8034457967
21
7.3797162564
0
LINE
5
3BD
100
AcDbEntity
8
0
100
AcDbLine
62
7
6
CONTINUOUS
10
16.8301357967
20
7.3797162564
11
16.8301357967
21
8.0201062564
0
LINE
5
3BE
100
AcDbEntity
8
DEFAULT_1
100
AcDbLine
62
7
6
CENTER
10
16.8784957967
20
8.1393562564
11
16.8784957967
21
7.2112962564
0
LINE
5
3BF
100
AcDbEntity
8
0
100
AcDbLine
62
7
6
CONTINUOUS
10
16.9301857967
20
7.3797162564
11
16.9301857967
21
8.0201062564
0
LINE
5
3C0
100
AcDbEntity
8
0
100
AcDbLine
62
7
6
CONTINUOUS
10
16.9568757967
20
7.4530962564
11
16.9568757967
21
7.3797162564
0
LINE
5
3C1
100
AcDbEntity
8
DRAFT_ENT
100
AcDbLine
62
2
6
CONTINUOUS
10
16.9872053689
20
15.3682223007
11
16.9872053689
21
14.5406973007
0
LINE
5
3C2
100
AcDbEntity
8
0
100
AcDbLine
62
7
6
CONTINUOUS
10
16.9935657967
20
8.5470962564
11
16.9935657967
21
8.1135062564
0
LINE
5
3C3
100
AcDbEntity
8
0
100
AcDbLine
62
7
6
CONTINUOUS
10
16.9935657967
20
7.7265962564
11
16.9935657967
21
8.0768062564
0
LINE
5
3C4
100
AcDbEntity
8
DRAFT_ENT
100
AcDbLine
62
2
6
CONTINUOUS
10
17.0156678689
20
15.3952723007
11
17.0156678689
21
14.4845160507
0
LINE
5
3C5
100
AcDbEntity
8
0
100
AcDbLine
62
7
6
CONTINUOUS
10
17.1303057967
20
7.5131362564
11
17.1303057967
21
7.7265962564
0
LINE
5
3C6
100
AcDbEntity
8
0
100
AcDbLine
62
7
6
CONTINUOUS
10
17.2036857967
20
7.7265962564
11
17.2036857967
21
7.5131362564
0
LINE
5
3C7
100
AcDbEntity
8
0
100
AcDbLine
62
7
6
CONTINUOUS
10
17.2303657967
20
8.0701362564
11
17.2303657967
21
8.0834762564
0
LINE
5
3C8
100
AcDbEntity
8
0
100
AcDbLine
62
7
6
CONTINUOUS
10
17.2337057967
20
7.8366562564
11
17.2337057967
21
7.8499962564
0
LINE
5
3C9
100
AcDbEntity
8
NOTE
100
AcDbLine
62
2
6
CONTINUOUS
10
16.3359236600
20
7.7232562564
11
16.5807816366
21
9.6464738847
0
LINE
5
3CA
100
AcDbEntity
8
0
100
AcDbLine
62
7
6
CONTINUOUS
10
16.0129757967
20
7.0895462564
11
16.0096357967
21
7.0762062564
0
LINE
5
3CB
100
AcDbEntity
8
0
100
AcDbLine
62
7
6
CONTINUOUS
10
16.1330457967
20
7.6465362564
11
16.1139157967
21
7.5940762564
0
LINE
5
3CC
100
AcDbEntity
8
DEFAULT_3
100
AcDbLine
62
7
6
PHANTOM
10
16.1363857967
20
7.6498762564
11
15.9429357967
21
7.1195662564
0
LINE
5
3CD
100
AcDbEntity
8
0
100
AcDbLine
62
7
6
CONTINUOUS
10
20.2009858408
20
7.9167062564
11
20.1909758408
21
7.9267162564
0
LINE
5
3CE
100
AcDbEntity
8
0
100
AcDbLine
62
7
6
CONTINUOUS
10
19.8633958408
20
8.0768062564
11
19.9141458408
21
8.0201062564
0
LINE
5
3CF
100
AcDbEntity
8
0
100
AcDbLine
62
7
6
CONTINUOUS
10
17.2603857967
20
8.2502362564
11
17.2570557967
21
8.2635862564
0
LINE
5
3D0
100
AcDbEntity
8
0
100
AcDbLine
62
7
6
CONTINUOUS
10
17.2470457967
20
7.7799562564
11
17.2337057967
21
7.8366562564
0
LINE
5
3D1
100
AcDbEntity
8
0
100
AcDbLine
62
7
6
CONTINUOUS
10
17.2203657967
20
7.9000262564
11
17.2170257967
21
7.9167062564
0
LINE
5
3D2
100
AcDbEntity
8
0
100
AcDbLine
62
7
6
CONTINUOUS
10
17.2337057967
20
7.8499962564
11
17.2270357967
21
7.8866862564
0
LINE
5
3D3
100
AcDbEntity
8
0
100
AcDbLine
62
7
6
CONTINUOUS
10
17.2570557967
20
8.1535162564
11
17.2570557967
21
8.2368962564
0
LINE
5
3D4
100
AcDbEntity
8
0
100
AcDbLine
62
7
6
CONTINUOUS
10
17.2570557967
20
8.2635862564
11
17.2570557967
21
8.2902662564
0
LINE
5
3D5
100
AcDbEntity
8
0
100
AcDbLine
62
7
6
CONTINUOUS
10
17.2737257967
20
8.3302862564
11
17.2737257967
21
8.3502962564
0
LINE
5
3D6
100
AcDbEntity
8
0
100
AcDbLine
62
7
6
CONTINUOUS
10
17.3771257967
20
8.0801562564
11
17.3771257967
21
7.7299462564
0
LINE
5
3D7
100
AcDbEntity
8
0
100
AcDbLine
62
7
6
CONTINUOUS
10
17.1970157967
20
7.9533962564
11
17.2036857967
21
8.0034262564
0
LINE
5
3D8
100
AcDbEntity
8
0
100
AcDbLine
62
7
6
CONTINUOUS
10
17.2570557967
20
8.2902662564
11
17.2603857967
21
8.3036062564
0
LINE
5
3D9
100
AcDbEntity
8
0
100
AcDbLine
62
7
6
CONTINUOUS
10
17.2570557967
20
8.2368962564
11
17.2603857967
21
8.2502362564
0
LINE
5
3DA
100
AcDbEntity
8
0
100
AcDbLine
62
7
6
CONTINUOUS
10
16.8301357967
20
8.0201062564
11
16.8468057967
21
8.0768062564
0
LINE
5
3DB
100
AcDbEntity
8
DEFAULT_3
100
AcDbLine
62
7
6
PHANTOM
10
16.1063657967
20
6.9794762564
11
16.2462757967
21
7.3630462564
0
LINE
5
3DC
100
AcDbEntity
8
0
100
AcDbLine
62
7
6
CONTINUOUS
10
17.2303657967
20
8.0834762564
11
17.2570557967
21
8.1535162564
0
LINE
5
3DD
100
AcDbEntity
8
0
100
AcDbLine
62
7
6
CONTINUOUS
10
17.2036857967
20
8.0034262564
11
17.2303657967
21
8.0701362564
0
LINE
5
3DE
100
AcDbEntity
8
0
100
AcDbLine
62
7
6
CONTINUOUS
10
16.0796857967
20
7.0361762564
11
16.0730157967
21
7.0228362564
0
LINE
5
3DF
100
AcDbEntity
8
0
100
AcDbLine
62
7
6
CONTINUOUS
10
17.2603857967
20
8.3036062564
11
17.2737257967
21
8.3302862564
0
LINE
5
3E0
100
AcDbEntity
8
0
100
AcDbLine
62
7
6
CONTINUOUS
10
17.2737257967
20
8.3502962564
11
17.2804057967
21
8.3636362564
0
LINE
5
3E1
100
AcDbEntity
8
DEFAULT_3
100
AcDbLine
62
7
6
PHANTOM
10
16.6699657967
20
7.6949562564
11
16.5643857967
21
7.4850762564
0
LINE
5
3E2
100
AcDbEntity
8
0
100
AcDbLine
62
7
6
CONTINUOUS
10
20.2643558408
20
7.7265962564
11
20.2309958408
21
7.7799562564
0
LINE
5
3E3
100
AcDbEntity
8
0
100
AcDbLine
62
7
6
CONTINUOUS
10
20.2109858408
20
7.8866862564
11
20.2043158408
21
7.9000262564
0
LINE
5
3E4
100
AcDbEntity
8
0
100
AcDbLine
62
7
6
CONTINUOUS
10
18.9935958408
20
7.1028862564
11
18.9969258408
21
7.0895462564
0
LINE
5
3E5
100
AcDbEntity
8
0
100
AcDbLine
62
7
6
CONTINUOUS
10
19.0569658408
20
7.0228362564
11
19.0602958408
21
7.0094962564
0
LINE
5
3E6
100
AcDbEntity
8
0
100
AcDbLine
62
7
6
CONTINUOUS
10
19.0869858408
20
6.9928162564
11
19.0903158408
21
6.9794762564
0
LINE
5
3E7
100
AcDbEntity
8
DEFAULT_3
100
AcDbLine
62
7
6
PHANTOM
10
18.8835258408
20
8.3636362564
11
18.8835258408
21
7.7265962564
0
LINE
5
3E8
100
AcDbEntity
8
0
100
AcDbLine
62
7
6
CONTINUOUS
10
18.9935958408
20
7.0762062564
11
18.9935958408
21
7.0628562564
0
LINE
5
3E9
100
AcDbEntity
8
0
100
AcDbLine
62
7
6
CONTINUOUS
10
19.0636358408
20
7.0595262564
11
19.0636358408
21
7.0361762564
0
LINE
5
3EA
100
AcDbEntity
8
0
100
AcDbLine
62
7
6
CONTINUOUS
10
19.3271258408
20
7.4530962564
11
19.3271258408
21
7.3797162564
0
LINE
5
3EB
100
AcDbEntity
8
0
100
AcDbLine
62
7
6
CONTINUOUS
10
16.5407957967
20
7.3821662564
11
16.6258357967
21
7.4532662564
0
LINE
5
3EC
100
AcDbEntity
8
0
100
AcDbLine
62
7
6
CONTINUOUS
10
16.3957057967
20
7.3808162564
11
16.4807557967
21
7.4519162564
0
LINE
5
3ED
100
AcDbEntity
8
0
100
AcDbLine
62
7
6
CONTINUOUS
10
16.6708657967
20
7.3829162564
11
16.7534157967
21
7.4519162564
0
LINE
5
3EE
100
AcDbEntity
8
0
100
AcDbLine
62
7
6
CONTINUOUS
10
17.1303057967
20
7.6568662564
11
17.2036857967
21
7.7182062564
0
LINE
5
3EF
100
AcDbEntity
8
0
100
AcDbLine
62
7
6
CONTINUOUS
10
17.1303057967
20
7.5421662564
11
17.2036857967
21
7.6035062564
0
LINE
5
3F0
100
AcDbEntity
8
0
100
AcDbLine
62
7
6
CONTINUOUS
10
16.9568757967
20
7.3971962564
11
17.0169157967
21
7.4473762564
0
LINE
5
3F1
100
AcDbEntity
8
0
100
AcDbLine
62
7
6
CONTINUOUS
10
17.0811157967
20
7.3862762564
11
17.2011857967
21
7.4866462564
0
LINE
5
3F2
100
AcDbEntity
8
0
100
AcDbLine
62
7
6
CONTINUOUS
10
16.0529957967
20
7.0561962564
11
16.0663357967
21
7.0628562564
0
LINE
5
3F3
100
AcDbEntity
8
DRAFT_ENT
100
AcDbLine
62
2
6
CONTINUOUS
10
6.3235977150
20
15.1043157293
11
6.2145350523
21
15.1043007271
0
LINE
5
3F4
100
AcDbEntity
8
DRAFT_ENT
100
AcDbLine
62
2
6
CONTINUOUS
10
17.0156678689
20
14.4845160507
11
15.1385303689
21
14.4845160507
0
LINE
5
3F5
100
AcDbEntity
8
DRAFT_ENT
100
AcDbLine
62
2
6
CONTINUOUS
10
16.9872053689
20
14.5406973007
11
15.1663366189
21
14.5406973007
0
LINE
5
3F6
100
AcDbEntity
8
DEFAULT_1
100
AcDbLine
62
7
6
CENTER
10
26.4206425987
20
14.7742626833
11
26.0456425987
21
14.7742626833
0
LINE
5
3F7
100
AcDbEntity
8
DEFAULT_1
100
AcDbLine
62
7
6
CENTER
10
1.5456425987
20
14.7742626833
11
1.9206425987
21
14.7742626833
0
LINE
5
3F8
100
AcDbEntity
8
DRAFT_ENT
100
AcDbLine
62
2
6
CONTINUOUS
10
8.0077329192
20
15.1039796358
11
7.9925583332
21
15.1039796358
0
LINE
5
3F9
100
AcDbEntity
8
DRAFT_ENT
100
AcDbLine
62
2
6
CONTINUOUS
10
7.1605823794
20
15.1043157293
11
7.0576238098
21
15.1043157293
0
LINE
5
3FA
100
AcDbEntity
8
DRAFT_ENT
100
AcDbLine
62
2
6
CONTINUOUS
10
6.9651257852
20
15.1043157293
11
6.8621672156
21
15.1043157293
0
LINE
5
3FB
100
AcDbEntity
8
DRAFT_ENT
100
AcDbLine
62
2
6
CONTINUOUS
10
6.4196839458
20
15.1043157293
11
6.5548667351
21
15.1043157293
0
LINE
5
3FC
100
AcDbEntity
8
DRAFT_ENT
100
AcDbLine
62
2
6
CONTINUOUS
10
7.1887354124
20
15.1043157293
11
7.3841917826
21
15.1043157293
0
LINE
5
3FD
100
AcDbEntity
8
DRAFT_ENT
100
AcDbLine
62
2
6
CONTINUOUS
10
7.4024091228
20
15.1043157293
11
7.5955992692
21
15.1043157293
0
LINE
5
3FE
100
AcDbEntity
8
DRAFT_ENT
100
AcDbLine
62
2
6
CONTINUOUS
10
7.6236119088
20
15.1043157293
11
7.7177718158
21
15.1043157293
0
LINE
5
3FF
100
AcDbEntity
8
DRAFT_ENT
100
AcDbLine
62
2
6
CONTINUOUS
10
7.7957864739
20
15.1043157293
11
7.9145058338
21
15.1043157293
0
LINE
5
400
100
AcDbEntity
8
DRAFT_ENT
100
AcDbLine
62
2
6
CONTINUOUS
10
7.9925583332
20
15.1250191758
11
8.0077329192
21
15.1250191758
0
LINE
5
401
100
AcDbEntity
8
DRAFT_ENT
100
AcDbLine
62
2
6
CONTINUOUS
10
7.2825142195
20
15.1925824693
11
7.3841917826
21
15.1925824693
0
LINE
5
402
100
AcDbEntity
8
DRAFT_ENT
100
AcDbLine
62
2
6
CONTINUOUS
10
7.5013132991
20
15.1925824693
11
7.5955992692
21
15.1925824693
0
LINE
5
403
100
AcDbEntity
8
DRAFT_ENT
100
AcDbLine
62
2
6
CONTINUOUS
10
7.5013132991
20
15.2425334357
11
7.5955992692
21
15.2425334357
0
LINE
5
404
100
AcDbEntity
8
DRAFT_ENT
100
AcDbLine
62
2
6
CONTINUOUS
10
6.9651257852
20
15.2470186376
11
7.0576238098
21
15.2470186376
0
LINE
5
405
100
AcDbEntity
8
DRAFT_ENT
100
AcDbLine
62
2
6
CONTINUOUS
10
7.7177718158
20
15.3144605703
11
7.7504841659
21
15.3144605703
0
LINE
5
406
100
AcDbEntity
8
0
100
AcDbLine
62
7
6
CONTINUOUS
10
20.1909758408
20
7.9267162564
11
20.1809758408
21
7.9533962564
0
LINE
5
407
100
AcDbEntity
8
0
100
AcDbLine
62
7
6
CONTINUOUS
10
19.7874058408
20
7.4530962564
11
19.7874058408
21
7.3797162564
0
LINE
5
408
100
AcDbEntity
8
0
100
AcDbLine
62
7
6
CONTINUOUS
10
19.8140858408
20
7.3797162564
11
19.8140858408
21
8.0201062564
0
LINE
5
409
100
AcDbEntity
8
DEFAULT_1
100
AcDbLine
62
7
6
CENTER
10
19.8624458408
20
8.1393562564
11
19.8624458408
21
7.2112962564
0
LINE
5
40A
100
AcDbEntity
8
0
100
AcDbLine
62
7
6
CONTINUOUS
10
19.9141458408
20
8.0201062564
11
19.9141458408
21
7.3797162564
0
LINE
5
40B
100
AcDbEntity
8
0
100
AcDbLine
62
7
6
CONTINUOUS
10
19.9408258408
20
7.4530962564
11
19.9408258408
21
7.3797162564
0
LINE
5
40C
100
AcDbEntity
8
0
100
AcDbLine
62
7
6
CONTINUOUS
10
20.1142658408
20
7.7265962564
11
20.1142658408
21
7.5131362564
0
LINE
5
40D
100
AcDbEntity
8
0
100
AcDbLine
62
7
6
CONTINUOUS
10
20.1876458408
20
7.5131362564
11
20.1876458408
21
7.7265962564
0
LINE
5
40E
100
AcDbEntity
8
0
100
AcDbLine
62
7
6
CONTINUOUS
10
20.2143258408
20
8.0701362564
11
20.2143258408
21
8.0834762564
0
LINE
5
40F
100
AcDbEntity
8
0
100
AcDbLine
62
7
6
CONTINUOUS
10
20.2176558408
20
7.8366562564
11
20.2176558408
21
7.8499962564
0
LINE
5
410
100
AcDbEntity
8
0
100
AcDbLine
62
7
6
CONTINUOUS
10
20.2410058408
20
8.1535162564
11
20.2410058408
21
8.2368962564
0
LINE
5
411
100
AcDbEntity
8
0
100
AcDbLine
62
7
6
CONTINUOUS
10
20.2410058408
20
8.2635862564
11
20.2410058408
21
8.2902662564
0
LINE
5
412
100
AcDbEntity
8
0
100
AcDbLine
62
7
6
CONTINUOUS
10
20.2576858408
20
8.3302862564
11
20.2576858408
21
8.3502962564
0
LINE
5
413
100
AcDbEntity
8
NOTE
100
AcDbLine
62
2
6
CONTINUOUS
10
19.4639618313
20
7.7265962564
11
19.8769004760
21
9.7043005310
0
LINE
5
414
100
AcDbEntity
8
0
100
AcDbLine
62
7
6
CONTINUOUS
10
18.9969258408
20
7.0895462564
11
18.9935958408
21
7.0762062564
0
LINE
5
415
100
AcDbEntity
8
DEFAULT_3
100
AcDbLine
62
7
6
PHANTOM
10
19.1203358408
20
7.6498762564
11
18.9268858408
21
7.1195662564
0
LINE
5
416
100
AcDbEntity
8
DEFAULT_3
100
AcDbLine
62
7
6
PHANTOM
10
19.0903158408
20
6.9794762564
11
19.2302358408
21
7.3630462564
0
LINE
5
417
100
AcDbEntity
8
0
100
AcDbLine
62
7
6
CONTINUOUS
10
19.1179558408
20
7.6465362564
11
19.0988158408
21
7.5940762564
0
LINE
5
418
100
AcDbEntity
8
0
100
AcDbLine
62
7
6
CONTINUOUS
10
19.0369558408
20
7.0561962564
11
19.0502958408
21
7.0628562564
0
LINE
5
419
100
AcDbEntity
8
DRAFT_ENT
100
AcDbLine
62
2
6
CONTINUOUS
10
6.9651257852
20
15.3327719539
11
7.0576238098
21
15.3327719539
0
LINE
5
41A
100
AcDbEntity
8
DRAFT_ENT
100
AcDbLine
62
2
6
CONTINUOUS
10
7.5013132991
20
15.3327719539
11
7.5955992692
21
15.3327719539
0
LINE
5
41B
100
AcDbEntity
8
DRAFT_ENT
100
AcDbLine
62
2
6
CONTINUOUS
10
15.1663366189
20
15.3682223007
11
16.9872053689
21
15.3682223007
0
LINE
5
41C
100
AcDbEntity
8
DRAFT_ENT
100
AcDbLine
62
2
6
CONTINUOUS
10
7.5013132991
20
15.3812871900
11
7.5955992692
21
15.3812871900
0
LINE
5
41D
100
AcDbEntity
8
DRAFT_ENT
100
AcDbLine
62
2
6
CONTINUOUS
10
7.7527279984
20
15.3814000422
11
7.7177718158
21
15.3814000422
0
LINE
5
41E
100
AcDbEntity
8
DRAFT_ENT
100
AcDbLine
62
2
6
CONTINUOUS
10
15.1385303689
20
15.3952723007
11
17.0156678689
21
15.3952723007
0
LINE
5
41F
100
AcDbEntity
8
DRAFT_ENT
100
AcDbLine
62
2
6
CONTINUOUS
10
6.2145350523
20
15.4705118300
11
6.3235977150
21
15.4705118300
0
LINE
5
420
100
AcDbEntity
8
DRAFT_ENT
100
AcDbLine
62
2
6
CONTINUOUS
10
6.4097003356
20
15.4705118300
11
6.5297389910
21
15.4705118300
0
LINE
5
421
100
AcDbEntity
8
DRAFT_ENT
100
AcDbLine
62
2
6
CONTINUOUS
10
6.8621672156
20
15.4705118300
11
6.9651257852
21
15.4705118300
0
LINE
5
422
100
AcDbEntity
8
DRAFT_ENT
100
AcDbLine
62
2
6
CONTINUOUS
10
7.0576238098
20
15.4705118300
11
7.1605823794
21
15.4705118300
0
LINE
5
423
100
AcDbEntity
8
DRAFT_ENT
100
AcDbLine
62
2
6
CONTINUOUS
10
7.1887354124
20
15.4705118300
11
7.2825142195
21
15.4705118300
0
LINE
5
424
100
AcDbEntity
8
DRAFT_ENT
100
AcDbLine
62
2
6
CONTINUOUS
10
7.4024091228
20
15.4705118300
11
7.5955992692
21
15.4705118300
0
LINE
5
425
100
AcDbEntity
8
DRAFT_ENT
100
AcDbLine
62
2
6
CONTINUOUS
10
7.6236119088
20
15.4705118300
11
7.7695792495
21
15.4705118300
0
LINE
5
426
100
AcDbEntity
8
0
100
AcDbLine
62
7
6
CONTINUOUS
10
20.2443458408
20
8.2502362564
11
20.2410058408
21
8.2635862564
0
LINE
5
427
100
AcDbEntity
8
0
100
AcDbLine
62
7
6
CONTINUOUS
10
20.2309958408
20
7.7799562564
11
20.2176558408
21
7.8366562564
0
LINE
5
428
100
AcDbEntity
8
0
100
AcDbLine
62
7
6
CONTINUOUS
10
20.2043158408
20
7.9000262564
11
20.2009858408
21
7.9167062564
0
LINE
5
429
100
AcDbEntity
8
0
100
AcDbLine
62
7
6
CONTINUOUS
10
20.2176558408
20
7.8499962564
11
20.2109858408
21
7.8866862564
0
LINE
5
42A
100
AcDbEntity
8
0
100
AcDbLine
62
7
6
CONTINUOUS
10
20.1809758408
20
7.9533962564
11
20.1876458408
21
8.0034262564
0
LINE
5
42B
100
AcDbEntity
8
0
100
AcDbLine
62
7
6
CONTINUOUS
10
20.2410058408
20
8.2902662564
11
20.2443458408
21
8.3036062564
0
LINE
5
42C
100
AcDbEntity
8
0
100
AcDbLine
62
7
6
CONTINUOUS
10
20.2410058408
20
8.2368962564
11
20.2443458408
21
8.2502362564
0
LINE
5
42D
100
AcDbEntity
8
0
100
AcDbLine
62
7
6
CONTINUOUS
10
20.2143258408
20
8.0834762564
11
20.2410058408
21
8.1535162564
0
LINE
5
42E
100
AcDbEntity
8
0
100
AcDbLine
62
7
6
CONTINUOUS
10
20.1876458408
20
8.0034262564
11
20.2143258408
21
8.0701362564
0
LINE
5
42F
100
AcDbEntity
8
0
100
AcDbLine
62
7
6
CONTINUOUS
10
19.0636358408
20
7.0361762564
11
19.0569658408
21
7.0228362564
0
LINE
5
430
100
AcDbEntity
8
0
100
AcDbLine
62
7
6
CONTINUOUS
10
20.2576858408
20
8.3502962564
11
20.2643558408
21
8.3636362564
0
LINE
5
431
100
AcDbEntity
8
0
100
AcDbLine
62
7
6
CONTINUOUS
10
20.2443458408
20
8.3036062564
11
20.2576858408
21
8.3302862564
0
LINE
5
432
100
AcDbEntity
8
DEFAULT_3
100
AcDbLine
62
7
6
PHANTOM
10
19.6539158408
20
7.6949562564
11
19.5483358408
21
7.4850762564
0
LINE
5
433
100
AcDbEntity
8
NOTE
100
AcDbLine
62
2
6
CONTINUOUS
10
26.2236305576
20
14.7742626833
11
23.7698680155
21
11.8785609528
0
LINE
5
434
100
AcDbEntity
8
0
100
AcDbLine
62
7
6
CONTINUOUS
10
19.8140858408
20
8.0201062564
11
19.8633958408
21
8.0768062564
0
LINE
5
435
100
AcDbEntity
8
0
100
AcDbLine
62
7
6
CONTINUOUS
10
19.3796558408
20
7.3808162564
11
19.4647058408
21
7.4519162564
0
LINE
5
436
100
AcDbEntity
8
0
100
AcDbLine
62
7
6
CONTINUOUS
10
19.5247458408
20
7.3821662564
11
19.6097958408
21
7.4532662564
0
LINE
5
437
100
AcDbEntity
8
0
100
AcDbLine
62
7
6
CONTINUOUS
10
19.6548258408
20
7.3829162564
11
19.7373758408
21
7.4519162564
0
LINE
5
438
100
AcDbEntity
8
0
100
AcDbLine
62
7
6
CONTINUOUS
10
20.1142658408
20
7.6568662564
11
20.1876458408
21
7.7182062564
0
LINE
5
439
100
AcDbEntity
8
0
100
AcDbLine
62
7
6
CONTINUOUS
10
19.9408258408
20
7.3971962564
11
20.0008658408
21
7.4473762564
0
LINE
5
43A
100
AcDbEntity
8
0
100
AcDbLine
62
7
6
CONTINUOUS
10
20.1142658408
20
7.5421662564
11
20.1876458408
21
7.6035062564
0
LINE
5
43B
100
AcDbEntity
8
0
100
AcDbLine
62
7
6
CONTINUOUS
10
20.0650658408
20
7.3862762564
11
20.1851458408
21
7.4866462564
0
LINE
5
43C
100
AcDbEntity
8
0
100
AcDbLine
62
7
6
CONTINUOUS
10
4.6706425987
20
16.8367626833
11
23.2956425987
21
16.8367626833
0
LINE
5
43D
100
AcDbEntity
8
DEFAULT_2
100
AcDbLine
62
8
6
CONTINUOUS
10
23.4881425987
20
18.2742626833
11
4.4781425987
21
18.2742626833
0
LINE
5
43E
100
AcDbEntity
8
DEFAULT_1
100
AcDbLine
62
7
6
CENTER
10
3.7956425987
20
19.3367626833
11
24.1706530673
21
19.3367626833
0
LINE
5
43F
100
AcDbEntity
8
0
100
AcDbLine
62
7
6
CONTINUOUS
10
24.1706425987
20
15.9617626833
11
24.1706425987
21
4.3367626833
0
LINE
5
440
100
AcDbEntity
8
DEFAULT_1
100
AcDbLine
62
7
6
CENTER
10
3.7956425987
20
21.3367626833
11
24.1706530673
21
21.3367626833
0
LINE
5
441
100
AcDbEntity
8
DEFAULT_2
100
AcDbLine
62
8
6
CONTINUOUS
10
25.6081425987
20
4.1442626833
11
25.6081425987
21
16.1542626833
0
LINE
5
442
100
AcDbEntity
8
DEFAULT_1
100
AcDbLine
62
7
6
CENTER
10
26.2331425987
20
14.9617626833
11
26.2331425987
21
14.5867626833
0
LINE
5
443
100
AcDbEntity
8
DEFAULT_1
100
AcDbLine
62
7
6
CENTER
10
26.2331425987
20
5.3367626833
11
26.2331425987
21
5.7117626833
0
CIRCLE
5
444
100
AcDbEntity
8
DRAFT_ENT
100
AcDbCircle
62
2
6
CONTINUOUS
10
6.6651847791
20
15.2867129971
40
0.1862854049
0
CIRCLE
5
445
100
AcDbEntity
8
DRAFT_ENT
100
AcDbCircle
62
2
6
CONTINUOUS
10
6.6651847791
20
15.2867129971
40
0.0779808993
0
ARC
5
446
100
AcDbEntity
8
DRAFT_ENT
100
AcDbCircle
62
2
6
CONTINUOUS
10
7.7695792495
20
15.3611308649
40
0.1093854061
100
AcDbArc
50
294.4500166359
51
90.0000000000
0
ARC
5
447
100
AcDbEntity
8
DRAFT_ENT
100
AcDbCircle
62
2
6
CONTINUOUS
10
7.7527279347
20
15.3478927014
40
0.0335073408
100
AcDbArc
50
266.1604009902
51
89.9998910512
0
CIRCLE
5
448
100
AcDbEntity
8
DRAFT_ENT
100
AcDbCircle
62
2
6
CONTINUOUS
10
8.0024870848
20
15.1043157293
40
0.0408486778
0
ARC
5
449
100
AcDbEntity
8
DRAFT_ENT
100
AcDbCircle
62
2
6
CONTINUOUS
10
8.0077329192
20
15.1144995178
40
0.0105196580
100
AcDbArc
50
270.0000000000
51
90.0000000000
0
ARC
5
44A
100
AcDbEntity
8
DEFAULT_2
100
AcDbCircle
62
8
6
CONTINUOUS
10
4.4781425987
20
16.1542626833
40
2.1200000000
100
AcDbArc
50
90.0000000000
51
180.0000000000
0
ARC
5
44B
100
AcDbEntity
8
DEFAULT_2
100
AcDbCircle
62
8
6
CONTINUOUS
10
23.4881425987
20
16.1542626833
40
2.1200000000
100
AcDbArc
50
0.0000000000
51
90.0000000000
0
ARC
5
44C
100
AcDbEntity
8
DEFAULT_2
100
AcDbCircle
62
8
6
CONTINUOUS
10
23.4881425987
20
4.1442626833
40
2.1200000000
100
AcDbArc
50
270.0000000000
51
360.0000000000
0
ARC
5
44D
100
AcDbEntity
8
DEFAULT_2
100
AcDbCircle
62
8
6
CONTINUOUS
10
4.4781425987
20
4.1442626833
40
2.1200000000
100
AcDbArc
50
180.0000000000
51
270.0000000000
0
ARC
5
44E
100
AcDbEntity
8
0
100
AcDbCircle
62
7
6
CONTINUOUS
10
4.6706425987
20
15.9617626833
40
0.8750000000
100
AcDbArc
50
90.0000000000
51
180.0000000000
0
ARC
5
44F
100
AcDbEntity
8
0
100
AcDbCircle
62
7
6
CONTINUOUS
10
4.6706425987
20
4.3367626833
40
0.8750000000
100
AcDbArc
50
180.0000000000
51
270.0000000000
0
ARC
5
450
100
AcDbEntity
8
0
100
AcDbCircle
62
7
6
CONTINUOUS
10
23.2956425987
20
4.3367626833
40
0.8750000000
100
AcDbArc
50
270.0000000000
51
360.0000000000
0
ARC
5
451
100
AcDbEntity
8
0
100
AcDbCircle
62
7
6
CONTINUOUS
10
23.2956425987
20
15.9617626833
40
0.8750000000
100
AcDbArc
50
0.0000000000
51
90.0000000000
0
CIRCLE
5
452
100
AcDbEntity
8
0
100
AcDbCircle
62
7
6
CONTINUOUS
10
1.7331425987
20
5.5242626833
40
0.0312500000
0
CIRCLE
5
453
100
AcDbEntity
8
0
100
AcDbCircle
62
7
6
CONTINUOUS
10
1.7331425987
20
14.7742626833
40
0.0312500000
0
CIRCLE
5
454
100
AcDbEntity
8
0
100
AcDbCircle
62
7
6
CONTINUOUS
10
26.2331425987
20
5.5242626833
40
0.0312500000
0
CIRCLE
5
455
100
AcDbEntity
8
0
100
AcDbCircle
62
7
6
CONTINUOUS
10
26.2331425987
20
14.7742626833
40
0.0312500000
0
CIRCLE
5
456
100
AcDbEntity
8
0
100
AcDbCircle
62
7
6
CONTINUOUS
10
16.7559663525
20
8.4982429883
40
0.0100000000
0
CIRCLE
5
457
100
AcDbEntity
8
0
100
AcDbCircle
62
7
6
CONTINUOUS
10
16.9929680667
20
8.4966423037
40
0.0100000000
0
CIRCLE
5
458
100
AcDbEntity
8
0
100
AcDbCircle
62
7
6
CONTINUOUS
10
17.3772951391
20
8.0804656167
40
0.0100000000
0
CIRCLE
5
459
100
AcDbEntity
8
0
100
AcDbCircle
62
7
6
CONTINUOUS
10
17.3788964964
20
7.7331181254
40
0.0100000000
0
CIRCLE
5
45A
100
AcDbEntity
8
DRAFT_ENT
100
AcDbCircle
62
7
6
CONTINUOUS
10
16.0204492560
20
14.7071965795
40
0.0807841983
0
CIRCLE
5
45B
100
AcDbEntity
8
NOTE
100
AcDbCircle
62
2
6
CONTINUOUS
10
8.8289652285
20
13.4583410039
40
0.1781738162
0
CIRCLE
5
45C
100
AcDbEntity
8
NOTE
100
AcDbCircle
62
2
6
CONTINUOUS
10
20.5098873694
20
3.9229212492
40
0.1140312424
0
SPLINE
5
45D
100
AcDbEntity
8
0
100
AcDbSpline
62
7
6
CONTINUOUS
70
0
71
3
72
15
73
11
74
9
42
0.0000001000
43
0.0000001000
44
0.0000000001
40
0.0000000000
40
0.0000000000
40
0.0000000000
40
0.0000000000
40
0.1250000000
40
0.2500000000
40
0.3750000000
40
0.5000000000
40
0.6250000000
40
0.7500000000
40
0.8750000000
40
1.0000000000
40
1.0000000000
40
1.0000000000
40
1.0000000000
10
15.9829528673
20
8.3636407283
30
0.0000000000
10
15.9777140520
20
8.3638586839
30
0.0000000000
10
15.9671935591
20
8.3632626773
30
0.0000000000
10
15.9518901033
20
8.3593072934
30
0.0000000000
10
15.9376521821
20
8.3524425308
30
0.0000000000
10
15.9250269054
20
8.3429321989
30
0.0000000000
10
15.9144994623
20
8.3311417680
30
0.0000000000
10
15.9064744106
20
8.3175243449
30
0.0000000000
10
15.9012601451
20
8.3026031945
30
0.0000000000
10
15.8997914161
20
8.2921689820
30
0.0000000000
10
15.8995730202
20
8.2869303306
30
0.0000000000
11
15.9829528673
21
8.3636407283
31
0.0000000000
11
15.9672731063
21
8.3627524483
31
0.0000000000
11
15.9520676924
21
8.3588223969
31
0.0000000000
11
15.9379209562
21
8.3520016026
31
0.0000000000
11
15.9253765443
21
8.3425521824
31
0.0000000000
11
15.9149165275
21
8.3308372693
31
0.0000000000
11
15.9069428749
21
8.3173070570
31
0.0000000000
11
15.9017620071
21
8.3024814997
31
0.0000000000
11
15.8995730202
21
8.2869303306
31
0.0000000000
0
SPLINE
5
45E
100
AcDbEntity
8
0
100
AcDbSpline
62
7
6
CONTINUOUS
70
0
71
3
72
15
73
11
74
9
42
0.0000001000
43
0.0000001000
44
0.0000000001
40
0.0000000000
40
0.0000000000
40
0.0000000000
40
0.0000000000
40
0.1250000000
40
0.2500000000
40
0.3750000000
40
0.5000000000
40
0.6250000000
40
0.7500000000
40
0.8750000000
40
1.0000000000
40
1.0000000000
40
1.0000000000
40
1.0000000000
10
15.8995735830
20
7.8166434060
30
0.0000000000
10
15.9004471154
20
7.8098764290
30
0.0000000000
10
15.9035271597
20
7.7965146487
30
0.0000000000
10
15.9119686990
20
7.7777580563
30
0.0000000000
10
15.9239072559
20
7.7610086027
30
0.0000000000
10
15.9388840069
20
7.7469099595
30
0.0000000000
10
15.9563233588
20
7.7360039884
30
0.0000000000
10
15.9755550590
20
7.7287098281
30
0.0000000000
10
15.9958400367
20
7.7253078200
30
0.0000000000
10
16.0095456729
20
7.7257217307
30
0.0000000000
10
16.0163125073
20
7.7265952040
30
0.0000000000
11
15.8995735830
21
7.8166434060
31
0.0000000000
11
15.9041640719
21
7.7967289951
31
0.0000000000
11
15.9125515353
21
7.7780925794
31
0.0000000000
11
15.9244136216
21
7.7614504044
31
0.0000000000
11
15.9392944404
21
7.7474420715
31
0.0000000000
11
15.9566220835
21
7.7366059568
31
0.0000000000
11
15.9757306053
21
7.7293585202
31
0.0000000000
11
15.9958856161
21
7.7259782990
31
0.0000000000
11
16.0163125073
21
7.7265952040
31
0.0000000000
0
SPLINE
5
45F
100
AcDbEntity
8
0
100
AcDbSpline
62
7
6
CONTINUOUS
70
0
71
3
72
15
73
11
74
9
42
0.0000001000
43
0.0000001000
44
0.0000000001
40
0.0000000000
40
0.0000000000
40
0.0000000000
40
0.0000000000
40
0.1250000000
40
0.2500000000
40
0.3750000000
40
0.5000000000
40
0.6250000000
40
0.7500000000
40
0.8750000000
40
1.0000000000
40
1.0000000000
40
1.0000000000
40
1.0000000000
10
16.6699611173
20
7.6949556801
30
0.0000000000
10
16.6703713556
20
7.6966160169
30
0.0000000000
10
16.6708646573
20
7.7000176393
30
0.0000000000
10
16.6705946714
20
7.7051668620
30
0.0000000000
10
16.6693251183
20
7.7101647881
30
0.0000000000
10
16.6671048283
20
7.7148192122
30
0.0000000000
10
16.6640191909
20
7.7189511237
30
0.0000000000
10
16.6601868825
20
7.7224016107
30
0.0000000000
10
16.6557552790
20
7.7250379719
30
0.0000000000
10
16.6525150042
20
7.7261851919
30
0.0000000000
10
16.6508545235
20
7.7265951904
30
0.0000000000
11
16.6699611173
21
7.6949556801
31
0.0000000000
11
16.6706963342
21
7.7000254375
31
0.0000000000
11
16.6704280769
21
7.7051416459
31
0.0000000000
11
16.6691666622
21
7.7101075378
31
0.0000000000
11
16.6669606037
21
7.7147321268
31
0.0000000000
11
16.6638947458
21
7.7188375529
31
0.0000000000
11
16.6600870000
21
7.7222659231
31
0.0000000000
11
16.6556838109
21
7.7248853834
31
0.0000000000
11
16.6508545235
21
7.7265951904
31
0.0000000000
0
SPLINE
5
460
100
AcDbEntity
8
0
100
AcDbSpline
62
7
6
CONTINUOUS
70
0
71
3
72
15
73
11
74
9
42
0.0000001000
43
0.0000001000
44
0.0000000001
40
0.0000000000
40
0.0000000000
40
0.0000000000
40
0.0000000000
40
0.1250000000
40
0.2500000000
40
0.3750000000
40
0.5000000000
40
0.6250000000
40
0.7500000000
40
0.8750000000
40
1.0000000000
40
1.0000000000
40
1.0000000000
40
1.0000000000
10
16.5182744050
20
7.4530965748
30
0.0000000000
10
16.5208293159
20
7.4526341630
30
0.0000000000
10
16.5260303478
20
7.4522126757
30
0.0000000000
10
16.5338058613
20
7.4531147109
30
0.0000000000
10
16.5412563244
20
7.4555163455
30
0.0000000000
10
16.5480953124
20
7.4593252411
30
0.0000000000
10
16.5540598846
20
7.4643949611
30
0.0000000000
10
16.5589207245
20
7.4705305868
30
0.0000000000
10
16.5624909527
20
7.4774962444
30
0.0000000000
10
16.5639191796
20
7.4825147843
30
0.0000000000
10
16.5643815924
20
7.4850695562
30
0.0000000000
11
16.5182744050
21
7.4530965748
31
0.0000000000
11
16.5260260088
21
7.4524683867
31
0.0000000000
11
16.5337516863
21
7.4533646441
31
0.0000000000
11
16.5411544119
21
7.4557508890
31
0.0000000000
11
16.5479495764
21
7.4595353785
31
0.0000000000
11
16.5538759292
21
7.4645726120
31
0.0000000000
11
16.5587056226
21
7.4706689254
31
0.0000000000
11
16.5622529714
21
7.4775899365
31
0.0000000000
11
16.5643815924
21
7.4850695562
31
0.0000000000
0
SPLINE
5
461
100
AcDbEntity
8
0
100
AcDbSpline
62
7
6
CONTINUOUS
70
0
71
3
72
15
73
11
74
9
42
0.0000001000
43
0.0000001000
44
0.0000000001
40
0.0000000000
40
0.0000000000
40
0.0000000000
40
0.0000000000
40
0.1250000000
40
0.2500000000
40
0.3750000000
40
0.5000000000
40
0.6250000000
40
0.7500000000
40
0.8750000000
40
1.0000000000
40
1.0000000000
40
1.0000000000
40
1.0000000000
10
17.0836207852
20
7.4530967531
30
0.0000000000
10
17.0871132818
20
7.4535336138
30
0.0000000000
10
17.0940120152
20
7.4550951422
30
0.0000000000
10
17.1037042168
20
7.4594109293
30
0.0000000000
10
17.1123681159
20
7.4655344180
30
0.0000000000
10
17.1196709366
20
7.4732303918
30
0.0000000000
10
17.1253321511
20
7.4822032293
30
0.0000000000
10
17.1291343002
20
7.4921082536
30
0.0000000000
10
17.1309313295
20
7.5025650137
30
0.0000000000
10
17.1307465921
20
7.5096361625
30
0.0000000000
10
17.1303103003
20
7.5131288886
30
0.0000000000
11
17.0836207852
21
7.4530967531
31
0.0000000000
11
17.0939026988
21
7.4554240579
31
0.0000000000
11
17.1035328330
21
7.4597122129
31
0.0000000000
11
17.1121412695
21
7.4657964988
31
0.0000000000
11
17.1193973355
21
7.4734432024
31
0.0000000000
11
17.1250223069
21
7.4823585938
31
0.0000000000
11
17.1288001136
21
7.4922002096
31
0.0000000000
11
17.1305856403
21
7.5025900076
31
0.0000000000
11
17.1303103003
21
7.5131288886
31
0.0000000000
0
SPLINE
5
462
100
AcDbEntity
8
0
100
AcDbSpline
62
7
6
CONTINUOUS
70
0
71
3
72
15
73
11
74
9
42
0.0000001000
43
0.0000001000
44
0.0000000001
40
0.0000000000
40
0.0000000000
40
0.0000000000
40
0.0000000000
40
0.1250000000
40
0.2500000000
40
0.3750000000
40
0.5000000000
40
0.6250000000
40
0.7500000000
40
0.8750000000
40
1.0000000000
40
1.0000000000
40
1.0000000000
40
1.0000000000
10
17.0702738637
20
7.3797185318
30
0.0000000000
10
17.0790059117
20
7.3797185862
30
0.0000000000
10
17.0964695845
20
7.3814386391
30
0.0000000000
10
17.1216582441
20
7.3890794148
30
0.0000000000
10
17.1448719581
20
7.4014873001
30
0.0000000000
10
17.1652188376
20
7.4181855368
30
0.0000000000
10
17.1819170617
20
7.4385325216
30
0.0000000000
10
17.1943250277
20
7.4617464295
30
0.0000000000
10
17.2019659740
20
7.4869353643
30
0.0000000000
10
17.2036861965
20
7.5043992677
30
0.0000000000
10
17.2036863479
20
7.5131314405
30
0.0000000000
11
17.0702738637
21
7.3797185318
31
0.0000000000
11
17.0963017763
21
7.3822820885
31
0.0000000000
11
17.1213290865
21
7.3898739330
31
0.0000000000
11
17.1443941523
21
7.4022023587
31
0.0000000000
11
17.1646107284
21
7.4187936615
31
0.0000000000
11
17.1812020187
21
7.4390103421
31
0.0000000000
11
17.1935305244
21
7.4620756007
31
0.0000000000
11
17.2011225386
21
7.4871031843
31
0.0000000000
11
17.2036863479
21
7.5131314405
31
0.0000000000
0
SPLINE
5
463
100
AcDbEntity
8
0
100
AcDbSpline
62
7
6
CONTINUOUS
70
0
71
3
72
15
73
11
74
9
42
0.0000001000
43
0.0000001000
44
0.0000000001
40
0.0000000000
40
0.0000000000
40
0.0000000000
40
0.0000000000
40
0.1250000000
40
0.2500000000
40
0.3750000000
40
0.5000000000
40
0.6250000000
40
0.7500000000
40
0.8750000000
40
1.0000000000
40
1.0000000000
40
1.0000000000
40
1.0000000000
10
16.3965330154
20
7.4530973625
30
0.0000000000
10
16.3886686307
20
7.4550672310
30
0.0000000000
10
16.3725523305
20
7.4574579039
30
0.0000000000
10
16.3481432108
20
7.4562591616
30
0.0000000000
10
16.3244374439
20
7.4503216654
30
0.0000000000
10
16.3023457394
20
7.4398735492
30
0.0000000000
10
16.2827168714
20
7.4253162190
30
0.0000000000
10
16.2663049767
20
7.4072089820
30
0.0000000000
10
16.2537405827
20
7.3862474527
30
0.0000000000
10
16.2482511728
20
7.3709072828
30
0.0000000000
10
16.2462808709
20
7.3630429428
30
0.0000000000
11
16.3965330154
21
7.4530973625
31
0.0000000000
11
16.3725132189
21
7.4566604453
31
0.0000000000
11
16.3482604362
21
7.4554693693
31
0.0000000000
11
16.3247064543
21
7.4495698954
31
0.0000000000
11
16.3027562122
21
7.4391886802
31
0.0000000000
11
16.2832530336
21
7.4247245679
31
0.0000000000
11
16.2669462268
21
7.4067332666
31
0.0000000000
11
16.2544622959
21
7.3859059985
31
0.0000000000
11
16.2462808709
21
7.3630429428
31
0.0000000000
0
SPLINE
5
464
100
AcDbEntity
8
0
100
AcDbSpline
62
7
6
CONTINUOUS
70
0
71
3
72
15
73
11
74
9
42
0.0000001000
43
0.0000001000
44
0.0000000001
40
0.0000000000
40
0.0000000000
40
0.0000000000
40
0.0000000000
40
0.1250000000
40
0.2500000000
40
0.3750000000
40
0.5000000000
40
0.6250000000
40
0.7500000000
40
0.8750000000
40
1.0000000000
40
1.0000000000
40
1.0000000000
40
1.0000000000
10
16.8835016809
20
7.3305225798
30
0.0000000000
10
16.8879766363
20
7.3292678117
30
0.0000000000
10
16.8971736098
20
7.3276396939
30
0.0000000000
10
16.9111806306
20
7.3279354805
30
0.0000000000
10
16.9248608385
20
7.3309579011
30
0.0000000000
10
16.9376885831
20
7.3365908035
30
0.0000000000
10
16.9491709280
20
7.3446177392
30
0.0000000000
10
16.9588666446
20
7.3547302495
30
0.0000000000
10
16.9664031679
20
7.3665397793
30
0.0000000000
10
16.9697949612
20
7.3752415245
30
0.0000000000
10
16.9710501578
20
7.3797160647
30
0.0000000000
11
16.8835016809
21
7.3305225798
31
0.0000000000
11
16.8972088699
21
7.3280960211
31
0.0000000000
11
16.9111261618
21
7.3283899195
31
0.0000000000
11
16.9247187613
21
7.3313929814
31
0.0000000000
11
16.9374643498
21
7.3369898091
31
0.0000000000
11
16.9488731566
21
7.3449653350
31
0.0000000000
11
16.9585067791
21
7.3550130861
31
0.0000000000
11
16.9659950290
21
7.3667469606
31
0.0000000000
11
16.9710501578
21
7.3797160647
31
0.0000000000
0
SPLINE
5
465
100
AcDbEntity
8
0
100
AcDbSpline
62
7
6
CONTINUOUS
70
0
71
3
72
15
73
11
74
9
42
0.0000001000
43
0.0000001000
44
0.0000000001
40
0.0000000000
40
0.0000000000
40
0.0000000000
40
0.0000000000
40
0.1250000000
40
0.2500000000
40
0.3750000000
40
0.5000000000
40
0.6250000000
40
0.7500000000
40
0.8750000000
40
1.0000000000
40
1.0000000000
40
1.0000000000
40
1.0000000000
10
16.7884398957
20
7.3797199231
30
0.0000000000
10
16.7899406237
20
7.3749991304
30
0.0000000000
10
16.7938718360
20
7.3658534007
30
0.0000000000
10
16.8023315145
20
7.3535489663
30
0.0000000000
10
16.8130289660
20
7.3431315990
30
0.0000000000
10
16.8255531765
20
7.3350015251
30
0.0000000000
10
16.8394229318
20
7.3294711346
30
0.0000000000
10
16.8541053093
20
7.3267529142
30
0.0000000000
10
16.8690362092
20
7.3269513178
30
0.0000000000
10
16.8787732756
20
7.3290228914
30
0.0000000000
10
16.8834941464
20
7.3305236326
30
0.0000000000
11
16.7884398957
21
7.3797199231
31
0.0000000000
11
16.7942989793
21
7.3660890941
31
0.0000000000
11
16.8027044766
21
7.3538634775
31
0.0000000000
11
16.8133334258
21
7.3435128146
31
0.0000000000
11
16.8257774340
21
7.3354348057
31
0.0000000000
11
16.8395583688
21
7.3299398296
31
0.0000000000
11
16.8541467297
21
7.3272390182
31
0.0000000000
11
16.8689819925
21
7.3274361439
31
0.0000000000
11
16.8834941464
21
7.3305236326
31
0.0000000000
0
SPLINE
5
466
100
AcDbEntity
8
0
100
AcDbSpline
62
7
6
CONTINUOUS
70
0
71
3
72
15
73
11
74
9
42
0.0000001000
43
0.0000001000
44
0.0000000001
40
0.0000000000
40
0.0000000000
40
0.0000000000
40
0.0000000000
40
0.1250000000
40
0.2500000000
40
0.3750000000
40
0.5000000000
40
0.6250000000
40
0.7500000000
40
0.8750000000
40
1.0000000000
40
1.0000000000
40
1.0000000000
40
1.0000000000
10
16.1139114451
20
7.5940713260
30
0.0000000000
10
16.1162546170
20
7.6001822608
30
0.0000000000
10
16.1197370855
20
7.6128658563
30
0.0000000000
10
16.1211486232
20
7.6325457738
30
0.0000000000
10
16.1186936694
20
7.6521235612
30
0.0000000000
10
16.1124666091
20
7.6708467150
30
0.0000000000
10
16.1027067961
20
7.6879955244
30
0.0000000000
10
16.0897894021
20
7.7029108044
30
0.0000000000
10
16.0742109108
20
7.7150192438
30
0.0000000000
10
16.0624505184
20
7.7209099734
30
0.0000000000
10
16.0563395431
20
7.7232533814
30
0.0000000000
11
16.1139114451
21
7.5940713260
31
0.0000000000
11
16.1191017247
21
7.6129749436
31
0.0000000000
11
16.1205042080
21
7.6325287521
31
0.0000000000
11
16.1180649850
21
7.6519811222
31
0.0000000000
11
16.1118778170
21
7.6705843243
31
0.0000000000
11
16.1021805326
21
7.6876232695
31
0.0000000000
11
16.0893458858
21
7.7024429976
31
0.0000000000
11
16.0738672279
21
7.7144738530
31
0.0000000000
11
16.0563395431
21
7.7232533814
31
0.0000000000
0
SPLINE
5
467
100
AcDbEntity
8
0
100
AcDbSpline
62
7
6
CONTINUOUS
70
0
71
3
72
15
73
11
74
9
42
0.0000001000
43
0.0000001000
44
0.0000000001
40
0.0000000000
40
0.0000000000
40
0.0000000000
40
0.0000000000
40
0.1250000000
40
0.2500000000
40
0.3750000000
40
0.5000000000
40
0.6250000000
40
0.7500000000
40
0.8750000000
40
1.0000000000
40
1.0000000000
40
1.0000000000
40
1.0000000000
10
16.2664584373
20
7.7232556019
30
0.0000000000
10
16.2595822528
20
7.7251108755
30
0.0000000000
10
16.2454646790
20
7.7274668660
30
0.0000000000
10
16.2240056756
20
7.7268015872
30
0.0000000000
10
16.2030888077
20
7.7219625533
30
0.0000000000
10
16.1835177685
20
7.7131357234
30
0.0000000000
10
16.1660446033
20
7.7006602674
30
0.0000000000
10
16.1513407317
20
7.6850155796
30
0.0000000000
10
16.1399711477
20
7.6668027649
30
0.0000000000
10
16.1349055757
20
7.6534154981
30
0.0000000000
10
16.1330499560
20
7.6465389967
30
0.0000000000
11
16.2664584373
21
7.7232556019
31
0.0000000000
11
16.2454175719
21
7.7267669886
31
0.0000000000
11
16.2240960315
21
7.7261059613
31
0.0000000000
11
16.2033131125
21
7.7212979206
31
0.0000000000
11
16.1838674142
21
7.7125276191
31
0.0000000000
11
16.1665061522
21
7.7001320621
31
0.0000000000
11
16.1518964463
21
7.6845875584
31
0.0000000000
11
16.1405996853
21
7.6664914173
31
0.0000000000
11
16.1330499560
21
7.6465389967
31
0.0000000000
0
SPLINE
5
468
100
AcDbEntity
8
0
100
AcDbSpline
62
7
6
CONTINUOUS
70
0
71
3
72
15
73
11
74
9
42
0.0000001000
43
0.0000001000
44
0.0000000001
40
0.0000000000
40
0.0000000000
40
0.0000000000
40
0.0000000000
40
0.1250000000
40
0.2500000000
40
0.3750000000
40
0.5000000000
40
0.6250000000
40
0.7500000000
40
0.8750000000
40
1.0000000000
40
1.0000000000
40
1.0000000000
40
1.0000000000
10
19.6539151124
20
7.6949522052
30
0.0000000000
10
19.6543254773
20
7.6966120730
30
0.0000000000
10
19.6548191155
20
7.7000129105
30
0.0000000000
10
19.6545498581
20
7.7051614151
30
0.0000000000
10
19.6532812318
20
7.7101590651
30
0.0000000000
10
19.6510620423
20
7.7148136214
30
0.0000000000
10
19.6479776564
20
7.7189460276
30
0.0000000000
10
19.6441467292
20
7.7223973164
30
0.0000000000
10
19.6397166176
20
7.7250347253
30
0.0000000000
10
19.6364773987
20
7.7261827653
30
0.0000000000
10
19.6348174583
20
7.7265931937
30
0.0000000000
11
19.6539151124
21
7.6949522052
31
0.0000000000
11
19.6546508297
21
7.7000207852
31
0.0000000000
11
19.6543832966
21
7.7051362727
31
0.0000000000
11
19.6531228046
21
7.7101018828
31
0.0000000000
11
19.6509178429
21
7.7147265964
31
0.0000000000
11
19.6478532328
21
7.7188325080
31
0.0000000000
11
19.6440468651
21
7.7222616698
31
0.0000000000
11
19.6396451648
21
7.7248821671
31
0.0000000000
11
19.6348174583
21
7.7265931937
31
0.0000000000
0
SPLINE
5
469
100
AcDbEntity
8
0
100
AcDbSpline
62
7
6
CONTINUOUS
70
0
71
3
72
15
73
11
74
9
42
0.0000001000
43
0.0000001000
44
0.0000000001
40
0.0000000000
40
0.0000000000
40
0.0000000000
40
0.0000000000
40
0.1250000000
40
0.2500000000
40
0.3750000000
40
0.5000000000
40
0.6250000000
40
0.7500000000
40
0.8750000000
40
1.0000000000
40
1.0000000000
40
1.0000000000
40
1.0000000000
10
19.5022338780
20
7.4530955666
30
0.0000000000
10
19.5047886391
20
7.4526335570
30
0.0000000000
10
19.5099893579
20
7.4522128346
30
0.0000000000
10
19.5177643654
20
7.4531158551
30
0.0000000000
10
19.5252142925
20
7.4555182737
30
0.0000000000
10
19.5320527223
20
7.4593277176
30
0.0000000000
10
19.5380167240
20
7.4643977226
30
0.0000000000
10
19.5428769925
20
7.4705333505
30
0.0000000000
10
19.5464466623
20
7.4774987168
30
0.0000000000
10
19.5478745356
20
7.4825168664
30
0.0000000000
10
19.5483367793
20
7.4850713956
30
0.0000000000
11
19.5022338780
21
7.4530955666
31
0.0000000000
11
19.5099850128
21
7.4524685187
31
0.0000000000
11
19.5177101853
21
7.4533657548
31
0.0000000000
11
19.5251123763
21
7.4557527779
31
0.0000000000
11
19.5319069843
21
7.4595378111
31
0.0000000000
11
19.5378327684
21
7.4645753264
31
0.0000000000
11
19.5426618927
21
7.4706716402
31
0.0000000000
11
19.5462086856
21
7.4775923598
31
0.0000000000
11
19.5483367793
21
7.4850713956
31
0.0000000000
0
SPLINE
5
46A
100
AcDbEntity
8
0
100
AcDbSpline
62
7
6
CONTINUOUS
70
0
71
3
72
15
73
11
74
9
42
0.0000001000
43
0.0000001000
44
0.0000000001
40
0.0000000000
40
0.0000000000
40
0.0000000000
40
0.0000000000
40
0.1250000000
40
0.2500000000
40
0.3750000000
40
0.5000000000
40
0.6250000000
40
0.7500000000
40
0.8750000000
40
1.0000000000
40
1.0000000000
40
1.0000000000
40
1.0000000000
10
20.0675733216
20
7.4530963440
30
0.0000000000
10
20.0710656869
20
7.4535329708
30
0.0000000000
10
20.0779643365
20
7.4550941707
30
0.0000000000
10
20.0876568022
20
7.4594098677
30
0.0000000000
10
20.0963212020
20
7.4655336086
30
0.0000000000
10
20.1036246133
20
7.4732300772
30
0.0000000000
10
20.1092863780
20
7.4822035200
30
0.0000000000
10
20.1130889324
20
7.4921091043
30
0.0000000000
10
20.1148861507
20
7.5025662121
30
0.0000000000
10
20.1147013725
20
7.5096373395
30
0.0000000000
10
20.1142650197
20
7.5131299658
30
0.0000000000
11
20.0675733216
21
7.4530963440
31
0.0000000000
11
20.0778550851
21
7.4554231535
31
0.0000000000
11
20.0874854579
21
7.4597112083
31
0.0000000000
11
20.0960943706
21
7.4657957299
31
0.0000000000
11
20.1033510055
21
7.4734429063
31
0.0000000000
11
20.1089765096
21
7.4823588769
31
0.0000000000
11
20.1127547097
21
7.4922010249
31
0.0000000000
11
20.1145404198
21
7.5025911427
31
0.0000000000
11
20.1142650197
21
7.5131299658
31
0.0000000000
0
SPLINE
5
46B
100
AcDbEntity
8
0
100
AcDbSpline
62
7
6
CONTINUOUS
70
0
71
3
72
15
73
11
74
9
42
0.0000001000
43
0.0000001000
44
0.0000000001
40
0.0000000000
40
0.0000000000
40
0.0000000000
40
0.0000000000
40
0.1250000000
40
0.2500000000
40
0.3750000000
40
0.5000000000
40
0.6250000000
40
0.7500000000
40
0.8750000000
40
1.0000000000
40
1.0000000000
40
1.0000000000
40
1.0000000000
10
20.0542296421
20
7.3797185318
30
0.0000000000
10
20.0629617140
20
7.3797185219
30
0.0000000000
10
20.0804255783
20
7.3814386121
30
0.0000000000
10
20.1056147724
20
7.3890799226
30
0.0000000000
10
20.1288290817
20
7.4014887506
30
0.0000000000
10
20.1491764412
20
7.4181882198
30
0.0000000000
10
20.1658748775
20
7.4385365695
30
0.0000000000
10
20.1782826695
20
7.4617517880
30
0.0000000000
10
20.1859229807
20
7.4869417757
30
0.0000000000
10
20.1876424550
20
7.5044060716
30
0.0000000000
10
20.1876421554
20
7.5131383308
30
0.0000000000
11
20.0542296421
21
7.3797185318
31
0.0000000000
11
20.0802578113
21
7.3822821413
31
0.0000000000
11
20.1052856250
21
7.3898745089
31
0.0000000000
11
20.1283512567
21
7.4022038575
31
0.0000000000
11
20.1485682873
21
7.4187963666
31
0.0000000000
11
20.1651597701
21
7.4390143810
31
0.0000000000
11
20.1774880894
21
7.4620809162
31
0.0000000000
11
20.1850794641
21
7.4871095184
31
0.0000000000
11
20.1876421554
21
7.5131383308
31
0.0000000000
0
SPLINE
5
46C
100
AcDbEntity
8
0
100
AcDbSpline
62
7
6
CONTINUOUS
70
0
71
3
72
15
73
11
74
9
42
0.0000001000
43
0.0000001000
44
0.0000000001
40
0.0000000000
40
0.0000000000
40
0.0000000000
40
0.0000000000
40
0.1250000000
40
0.2500000000
40
0.3750000000
40
0.5000000000
40
0.6250000000
40
0.7500000000
40
0.8750000000
40
1.0000000000
40
1.0000000000
40
1.0000000000
40
1.0000000000
10
19.3804980450
20
7.4530946938
30
0.0000000000
10
19.3726339077
20
7.4550652417
30
0.0000000000
10
19.3565176077
20
7.4574571737
30
0.0000000000
10
19.3321073101
20
7.4562599031
30
0.0000000000
10
19.3083995408
20
7.4503234201
30
0.0000000000
10
19.2863053860
20
7.4398758947
30
0.0000000000
10
19.2666739931
20
7.4253188422
30
0.0000000000
10
19.2502598438
20
7.4072117430
30
0.0000000000
10
19.2376937597
20
7.3862504353
30
0.0000000000
10
19.2322037485
20
7.3709106399
30
0.0000000000
10
19.2302333005
20
7.3630465886
30
0.0000000000
11
19.3804980450
21
7.4530946938
31
0.0000000000
11
19.3564782998
21
7.4566596456
31
0.0000000000
11
19.3322243982
21
7.4554700344
31
0.0000000000
11
19.3086684766
21
7.4495715797
31
0.0000000000
11
19.2867158463
21
7.4391909735
31
0.0000000000
11
19.2672102003
21
7.4247271677
31
0.0000000000
11
19.2509011880
21
7.4067360416
31
0.0000000000
11
19.2384156042
21
7.3859090377
31
0.0000000000
11
19.2302333005
21
7.3630465886
31
0.0000000000
0
SPLINE
5
46D
100
AcDbEntity
8
0
100
AcDbSpline
62
7
6
CONTINUOUS
70
0
71
3
72
15
73
11
74
9
42
0.0000001000
43
0.0000001000
44
0.0000000001
40
0.0000000000
40
0.0000000000
40
0.0000000000
40
0.0000000000
40
0.1250000000
40
0.2500000000
40
0.3750000000
40
0.5000000000
40
0.6250000000
40
0.7500000000
40
0.8750000000
40
1.0000000000
40
1.0000000000
40
1.0000000000
40
1.0000000000
10
19.7723949791
20
7.3797192013
30
0.0000000000
10
19.7738958763
20
7.3749980433
30
0.0000000000
10
19.7778273262
20
7.3658517647
30
0.0000000000
10
19.7862870972
20
7.3535469638
30
0.0000000000
10
19.7969844478
20
7.3431295931
30
0.0000000000
10
19.8095084616
20
7.3349997877
30
0.0000000000
10
19.8233780415
20
7.3294698561
30
0.0000000000
10
19.8380603934
20
7.3267522191
30
0.0000000000
10
19.8529915468
20
7.3269512842
30
0.0000000000
10
19.8627290491
20
7.3290233351
30
0.0000000000
10
19.8674502217
20
7.3305243241
30
0.0000000000
11
19.7723949791
21
7.3797192013
31
0.0000000000
11
19.7782544255
21
7.3660875342
31
0.0000000000
11
19.7866600271
21
7.3538615355
31
0.0000000000
11
19.7972888916
21
7.3435108539
31
0.0000000000
11
19.8097327226
21
7.3354331000
31
0.0000000000
11
19.8235135035
21
7.3299385719
31
0.0000000000
11
19.8381018603
21
7.3272383361
31
0.0000000000
11
19.8529373968
21
7.3274361194
31
0.0000000000
11
19.8674502217
21
7.3305243241
31
0.0000000000
0
SPLINE
5
46E
100
AcDbEntity
8
0
100
AcDbSpline
62
7
6
CONTINUOUS
70
0
71
3
72
15
73
11
74
9
42
0.0000001000
43
0.0000001000
44
0.0000000001
40
0.0000000000
40
0.0000000000
40
0.0000000000
40
0.0000000000
40
0.1250000000
40
0.2500000000
40
0.3750000000
40
0.5000000000
40
0.6250000000
40
0.7500000000
40
0.8750000000
40
1.0000000000
40
1.0000000000
40
1.0000000000
40
1.0000000000
10
19.8674483175
20
7.3305246169
30
0.0000000000
10
19.8719234254
20
7.3292692933
30
0.0000000000
10
19.8811208633
20
7.3276402033
30
0.0000000000
10
19.8951289154
20
7.3279350253
30
0.0000000000
10
19.9088103314
20
7.3309570095
30
0.0000000000
10
19.9216392994
20
7.3365899950
30
0.0000000000
10
19.9331227280
20
7.3446174826
30
0.0000000000
10
19.9428192503
20
7.3547309250
30
0.0000000000
10
19.9503561886
20
7.3665416459
30
0.0000000000
10
19.9537479451
20
7.3752442611
30
0.0000000000
10
19.9550030382
20
7.3797192285
30
0.0000000000
11
19.8674483175
21
7.3305246169
31
0.0000000000
11
19.8811561792
21
7.3280966128
31
0.0000000000
11
19.8950744760
21
7.3283895524
31
0.0000000000
11
19.9086682567
21
7.3313921764
31
0.0000000000
11
19.9214150428
21
7.3369890787
31
0.0000000000
11
19.9328249103
21
7.3449651418
31
0.0000000000
11
19.9424593197
21
7.3550138047
31
0.0000000000
11
19.9499479713
21
7.3667488462
31
0.0000000000
11
19.9550030382
21
7.3797192285
31
0.0000000000
0
SPLINE
5
46F
100
AcDbEntity
8
0
100
AcDbSpline
62
7
6
CONTINUOUS
70
0
71
3
72
15
73
11
74
9
42
0.0000001000
43
0.0000001000
44
0.0000000001
40
0.0000000000
40
0.0000000000
40
0.0000000000
40
0.0000000000
40
0.1250000000
40
0.2500000000
40
0.3750000000
40
0.5000000000
40
0.6250000000
40
0.7500000000
40
0.8750000000
40
1.0000000000
40
1.0000000000
40
1.0000000000
40
1.0000000000
10
19.0988123712
20
7.5940701535
30
0.0000000000
10
19.1011560877
20
7.6001822689
30
0.0000000000
10
19.1046394635
20
7.6128678082
30
0.0000000000
10
19.1060518326
20
7.6325495256
30
0.0000000000
10
19.1035971668
20
7.6521281852
30
0.0000000000
10
19.0973698083
20
7.6708515058
30
0.0000000000
10
19.0876090408
20
7.6880000149
30
0.0000000000
10
19.0746899451
20
7.7029147633
30
0.0000000000
10
19.0591089016
20
7.7150226551
30
0.0000000000
10
19.0473461702
20
7.7209131286
30
0.0000000000
10
19.0412338501
20
7.7232564574
30
0.0000000000
11
19.0988123712
21
7.5940701535
31
0.0000000000
11
19.1040040144
21
7.6129767096
31
0.0000000000
11
19.1054073268
21
7.6325323493
31
0.0000000000
11
19.1029683847
21
7.6519856287
31
0.0000000000
11
19.0967809068
21
7.6705890372
31
0.0000000000
11
19.0870826528
21
7.6876277214
31
0.0000000000
11
19.0742462871
21
7.7024469538
31
0.0000000000
11
19.0587650593
21
7.7144772915
31
0.0000000000
11
19.0412338501
21
7.7232564574
31
0.0000000000
0
SPLINE
5
470
100
AcDbEntity
8
0
100
AcDbSpline
62
7
6
CONTINUOUS
70
0
71
3
72
15
73
11
74
9
42
0.0000001000
43
0.0000001000
44
0.0000000001
40
0.0000000000
40
0.0000000000
40
0.0000000000
40
0.0000000000
40
0.1250000000
40
0.2500000000
40
0.3750000000
40
0.5000000000
40
0.6250000000
40
0.7500000000
40
0.8750000000
40
1.0000000000
40
1.0000000000
40
1.0000000000
40
1.0000000000
10
19.2513605398
20
7.7232563064
30
0.0000000000
10
19.2444842890
20
7.7251114166
30
0.0000000000
10
19.2303667003
20
7.7274671548
30
0.0000000000
10
19.2089079299
20
7.7268017512
30
0.0000000000
10
19.1879914425
20
7.7219628481
30
0.0000000000
10
19.1684208196
20
7.7131363770
30
0.0000000000
10
19.1509480000
20
7.7006614532
30
0.0000000000
10
19.1362443092
20
7.6850173927
30
0.0000000000
10
19.1248746660
20
7.6668052041
30
0.0000000000
10
19.1198088612
20
7.6534182816
30
0.0000000000
10
19.1179530730
20
7.6465419152
30
0.0000000000
11
19.2513605398
21
7.7232563064
31
0.0000000000
11
19.2303196357
21
7.7267673197
31
0.0000000000
11
19.2089983104
21
7.7261061680
31
0.0000000000
11
19.1882157532
21
7.7212982534
31
0.0000000000
11
19.1687704535
21
7.7125283015
31
0.0000000000
11
19.1514095215
21
7.7001332637
31
0.0000000000
11
19.1367999838
21
7.6845893714
31
0.0000000000
11
19.1255031553
21
7.6664938383
31
0.0000000000
11
19.1179530730
21
7.6465419152
31
0.0000000000
0
ENDSEC
0
SECTION
2
OBJECTS
0
DICTIONARY
5
471
100
AcDbDictionary
3
ACAD_GROUP
350
472
3
ACAD_MLINESTYLE
350
473
0
DICTIONARY
5
472
102
{ACAD_REACTORS
330
471
102
}
100
AcDbDictionary
0
DICTIONARY
5
473
102
{ACAD_REACTORS
330
471
102
}
100
AcDbDictionary
3
STANDARD
350
474
0
MLINESTYLE
5
474
102
{ACAD_REACTORS
330
473
102
}
100
AcDbMlineStyle
2
STANDARD
70
0
3

62
256
51
90.0
52
90.0
71
2
49
0.5
62
256
6
BYLAYER
49
-0.5
62
256
6
BYLAYER
0
ENDSEC
0
EOF
