  0
SECTION
  2
HEADER
  9
$ACADVER
  1
AC1009
  9
$INSBASE
 10
0.0
 20
0.0
 30
0.0
  9
$EXTMIN
 10
1.5307089568000001
 20
1.5732839915999981
 30
0.0
  9
$EXTMAX
 10
28.57941663319999
 20
20.079232696399998
 30
0.0
  9
$LIMMIN
 10
0.0
 20
0.0
  9
$LIMMAX
 10
34.0
 20
22.0
  9
$ORTHOMODE
 70
     0
  9
$REGENMODE
 70
     1
  9
$FILLMODE
 70
     1
  9
$QTEXTMODE
 70
     0
  9
$MIRRTEXT
 70
     1
  9
$DRAGMODE
 70
     2
  9
$LTSCALE
 40
1.25
  9
$OSMODE
 70
  2711
  9
$ATTMODE
 70
     1
  9
$TEXTSIZE
 40
0.2
  9
$TRACEWID
 40
0.05
  9
$TEXTSTYLE
  7
STANDARD
  9
$CLAYER
  8
0
  9
$CELTYPE
  6
ByLayer
  9
$CECOLOR
 62
   256
  9
$DIMSCALE
 40
1.0
  9
$DIMASZ
 40
0.1875
  9
$DIMEXO
 40
0.2125
  9
$DIMDLI
 40
1.2919999999999989
  9
$DIMRND
 40
0.0
  9
$DIMDLE
 40
0.0
  9
$DIMEXE
 40
0.612
  9
$DIMTP
 40
0.0
  9
$DIMTM
 40
0.0
  9
$DIMTXT
 40
0.15625
  9
$DIMCEN
 40
0.306
  9
$DIMTSZ
 40
0.0
  9
$DIMTOL
 70
     0
  9
$DIMLIM
 70
     0
  9
$DIMTIH
 70
     1
  9
$DIMTOH
 70
     1
  9
$DIMSE1
 70
     0
  9
$DIMSE2
 70
     0
  9
$DIMTAD
 70
     0
  9
$DIMZIN
 70
     0
  9
$DIMBLK
  1
_FILLED
  9
$DIMASO
 70
     1
  9
$DIMSHO
 70
     1
  9
$DIMPOST
  1

  9
$DIMAPOST
  1

  9
$DIMALT
 70
     0
  9
$DIMALTD
 70
     2
  9
$DIMALTF
 40
25.399999999999999
  9
$DIMLFAC
 40
1.0
  9
$DIMTOFL
 70
     0
  9
$DIMTVP
 40
0.0
  9
$DIMTIX
 70
     0
  9
$DIMSOXD
 70
     0
  9
$DIMSAH
 70
     0
  9
$DIMBLK1
  1

  9
$DIMBLK2
  1

  9
$DIMSTYLE
  2
STANDARD
  9
$DIMCLRD
 70
     0
  9
$DIMCLRE
 70
     0
  9
$DIMCLRT
 70
     0
  9
$DIMTFAC
 40
1.0
  9
$DIMGAP
 40
0.09
  9
$LUNITS
 70
     2
  9
$LUPREC
 70
     4
  9
$SKETCHINC
 40
0.1
  9
$FILLETRAD
 40
0.0
  9
$AUNITS
 70
     0
  9
$AUPREC
 70
     0
  9
$MENU
  1
.
  9
$ELEVATION
 40
0.0
  9
$PELEVATION
 40
0.0
  9
$THICKNESS
 40
0.0
  9
$LIMCHECK
 70
     0
  9
$BLIPMODE
 70
     0
  9
$CHAMFERA
 40
0.0
  9
$CHAMFERB
 40
0.0
  9
$SKPOLY
 70
     0
  9
$TDCREATE
 40
2453539.4619590282
  9
$TDUPDATE
 40
2453539.467952569
  9
$TDINDWG
 40
0.0043239352
  9
$TDUSRTIMER
 40
0.0043237616
  9
$USRTIMER
 70
     1
  9
$ANGBASE
 50
0.0
  9
$ANGDIR
 70
     0
  9
$PDMODE
 70
     3
  9
$PDSIZE
 40
0.3125
  9
$PLINEWID
 40
0.0
  9
$COORDS
 70
     1
  9
$SPLFRAME
 70
     0
  9
$SPLINETYPE
 70
     6
  9
$SPLINESEGS
 70
     8
  9
$ATTDIA
 70
     0
  9
$ATTREQ
 70
     1
  9
$HANDLING
 70
 22529
  9
$HANDSEED
  5
116E
  9
$SURFTAB1
 70
     6
  9
$SURFTAB2
 70
     6
  9
$SURFTYPE
 70
     6
  9
$SURFU
 70
     6
  9
$SURFV
 70
     6
  9
$UCSNAME
  2

  9
$UCSORG
 10
0.0
 20
0.0
 30
0.0
  9
$UCSXDIR
 10
1.0
 20
0.0
 30
0.0
  9
$UCSYDIR
 10
0.0
 20
1.0
 30
0.0
  9
$PUCSNAME
  2

  9
$PUCSORG
 10
0.0
 20
0.0
 30
0.0
  9
$PUCSXDIR
 10
1.0
 20
0.0
 30
0.0
  9
$PUCSYDIR
 10
0.0
 20
1.0
 30
0.0
  9
$USERI1
 70
     0
  9
$USERI2
 70
     0
  9
$USERI3
 70
     0
  9
$USERI4
 70
     0
  9
$USERI5
 70
     0
  9
$USERR1
 40
0.0
  9
$USERR2
 40
0.0
  9
$USERR3
 40
0.0
  9
$USERR4
 40
0.0
  9
$USERR5
 40
0.0
  9
$WORLDVIEW
 70
     1
  9
$SHADEDGE
 70
     3
  9
$SHADEDIF
 70
    70
  9
$TILEMODE
 70
     1
  9
$MAXACTVP
 70
    64
  9
$PLIMCHECK
 70
     0
  9
$PEXTMIN
 10
1.0000000000000000E+020
 20
1.0000000000000000E+020
 30
1.0000000000000000E+020
  9
$PEXTMAX
 10
-1.0000000000000000E+020
 20
-1.0000000000000000E+020
 30
-1.0000000000000000E+020
  9
$PLIMMIN
 10
0.0
 20
0.0
  9
$PLIMMAX
 10
12.0
 20
9.0
  9
$UNITMODE
 70
     0
  9
$VISRETAIN
 70
     1
  9
$PLINEGEN
 70
     0
  9
$PSLTSCALE
 70
     1
  0
ENDSEC
  0
SECTION
  2
TABLES
  0
TABLE
  2
VPORT
 70
     5
  0
VPORT
  2
*ACTIVE
 70
     0
 10
0.0
 20
0.0
 11
1.0
 21
1.0
 12
13.6277931292374
 22
12.247485483850999
 13
0.0
 23
0.0
 14
1.0
 24
1.0
 15
0.0
 25
0.0
 16
0.0
 26
0.0
 36
1.0
 17
0.0
 27
0.0
 37
0.0
 40
22.216845967753478
 41
1.6245161290322581
 42
50.0
 43
0.0
 44
0.0
 50
0.0
 51
0.0
 71
     0
 72
   100
 73
     1
 74
     1
 75
     0
 76
     0
 77
     0
 78
     0
  0
ENDTAB
  0
TABLE
  2
LTYPE
 70
     8
  0
LTYPE
  2
ByBlock
 70
     0
  3

 72
    65
 73
     0
 40
0.0
  0
LTYPE
  2
ByLayer
 70
     0
  3

 72
    65
 73
     0
 40
0.0
  0
LTYPE
  2
CONTINUOUS
 70
     0
  3
Solid line
 72
    65
 73
     0
 40
0.0
  0
LTYPE
  2
CENTER
 70
     0
  3
____ _ ____ _ ____ _ ____ _ ____ _ ____ _ ____
 72
    65
 73
     4
 40
0.6
 49
0.375
 49
-0.075
 49
0.075
 49
-0.075
  0
LTYPE
  2
HIDDEN
 70
     0
  3
- - - - - - - - - - - - - - - - - - - -
 72
    65
 73
     2
 40
0.2
 49
0.1
 49
-0.1
  0
LTYPE
  2
PHANTOM
 70
     0
  3
_____ _ _ _____ _ _ _____ _ _ _____
 72
    65
 73
     6
 40
0.8
 49
0.45
 49
-0.05
 49
0.1
 49
-0.05
 49
0.1
 49
-0.05
  0
LTYPE
  2
DOT
 70
     0
  3
. . . . . . . . . . . . . . . . . . . .
 72
    65
 73
     2
 40
0.2
 49
0.1
 49
-0.1
  0
LTYPE
  2
DASHED
 70
     0
  3
- - - - - - - - - - - - - - - - - - - -
 72
    65
 73
     2
 40
0.2
 49
0.1
 49
-0.1
  0
ENDTAB
  0
TABLE
  2
LAYER
 70
    24
  0
LAYER
  2
0
 70
     0
 62
     7
  6
CONTINUOUS
  0
LAYER
  2
DEFAULT_1
 70
     0
 62
     7
  6
CENTER
  0
LAYER
  2
DEFAULT_2
 70
     0
 62
     8
  6
HIDDEN
  0
LAYER
  2
DEFAULT_3
 70
     0
 62
     7
  6
PHANTOM
  0
LAYER
  2
_2D_DELETED_OBJS
 70
     0
 62
     7
  6
CONTINUOUS
  0
LAYER
  2
_BLACK_HOLE
 70
     0
 62
     7
  6
CONTINUOUS
  0
LAYER
  2
DATUMS
 70
     0
 62
     7
  6
CONTINUOUS
  0
LAYER
  2
DATUM_AXIS
 70
     0
 62
     7
  6
CONTINUOUS
  0
LAYER
  2
DATUM_CSYS
 70
     0
 62
     7
  6
CONTINUOUS
  0
LAYER
  2
DATUM_PLANE
 70
     0
 62
     7
  6
CONTINUOUS
  0
LAYER
  2
DATUM_POINT
 70
     0
 62
     7
  6
CONTINUOUS
  0
LAYER
  2
IMPORT
 70
     0
 62
     7
  6
CONTINUOUS
  0
LAYER
  2
INTF_14
 70
     0
 62
     7
  6
CONTINUOUS
  0
LAYER
  2
LAY0001
 70
     0
 62
     7
  6
CONTINUOUS
  0
LAYER
  2
NODE_401
 70
     0
 62
     7
  6
CONTINUOUS
  0
LAYER
  2
TEMPLATE
 70
     0
 62
     7
  6
CONTINUOUS
  0
LAYER
  2
_CURVE
 70
     0
 62
     7
  6
CONTINUOUS
  0
LAYER
  2
_SURFACE
 70
     0
 62
     7
  6
CONTINUOUS
  0
LAYER
  2
__REF_CURVE
 70
     0
 62
     7
  6
CONTINUOUS
  0
LAYER
  2
__REF_SURFACE
 70
     0
 62
     7
  6
CONTINUOUS
  0
LAYER
  2
___COSMETIC_SKETCH
 70
     0
 62
     7
  6
CONTINUOUS
  0
LAYER
  2
___NOTE
 70
     0
 62
     7
  6
CONTINUOUS
  0
LAYER
  2
___SYMBOL
 70
     0
 62
     7
  6
CONTINUOUS
  0
LAYER
  2
ARC
 70
     0
 62
     7
  6
HIDDEN
  0
ENDTAB
  0
TABLE
  2
STYLE
 70
     1
  0
STYLE
  2
STANDARD
 70
     0
 40
0.0
 41
0.8
 50
0.0
 71
     0
 42
0.2
  3
txt
  4

  0
ENDTAB
  0
TABLE
  2
VIEW
 70
     0
  0
ENDTAB
  0
TABLE
  2
UCS
 70
     0
  0
ENDTAB
  0
TABLE
  2
APPID
 70
     1
  0
APPID
  2
ACAD
 70
     0
  0
ENDTAB
  0
TABLE
  2
DIMSTYLE
 70
     1
  0
DIMSTYLE
  2
STANDARD
 70
     0
  3

  4

  5

  6

  7

 40
1.0
 41
0.18
 42
0.0625
 43
0.38
 44
0.18
 45
0.0
 46
0.0
 47
0.0
 48
0.0
140
0.18
141
0.09
142
0.0
143
25.399999999999999
144
1.0
145
0.0
146
1.0
147
0.09
 71
     0
 72
     0
 73
     1
 74
     1
 75
     0
 76
     0
 77
     0
 78
     0
170
     0
171
     2
172
     0
173
     0
174
     0
175
     0
176
     0
177
     0
178
     0
  0
ENDTAB
  0
ENDSEC
  0
SECTION
  2
BLOCKS
  0
BLOCK
  8
0
  2
$MODEL_SPACE
 70
     0
 10
0.0
 20
0.0
 30
0.0
  3
$MODEL_SPACE
  1

  0
ENDBLK
  5
758
  8
0
  0
BLOCK
 67
     1
  8
0
  2
$PAPER_SPACE
 70
     0
 10
0.0
 20
0.0
 30
0.0
  3
$PAPER_SPACE
  1

  0
ENDBLK
  5
754
 67
     1
  8
0
  0
BLOCK
  8
0
  6
CONTINUOUS
 62
     2
  2
*D2
 70
     1
 10
0.0
 20
0.0
 30
0.0
  3
*D2
  1

  0
TEXT
  5
783
  8
0
  6
CONTINUOUS
 62
     2
 10
13.163848722099999
 20
8.3021611680999978
 30
0.0
 40
0.15625
  1
"
 41
0.8
  0
TEXT
  5
784
  8
0
  6
CONTINUOUS
 62
     2
 10
12.163848722099999
 20
8.0677861680999978
 30
0.0
 40
0.15625
  1
[35,64 cm]
 41
0.8
  0
TEXT
  5
785
  8
0
  6
CONTINUOUS
 62
     2
 10
12.288848722099999
 20
8.3021611680999978
 30
0.0
 40
0.15625
  1
14-1/32
 41
0.8
  0
LINE
  5
786
  8
0
  6
CONTINUOUS
 62
     2
 10
12.1417335716
 20
17.579232696399998
 30
0.0
 11
12.913848722099999
 21
17.579232696399998
 31
0.0
  0
LINE
  5
787
  8
0
  6
CONTINUOUS
 62
     2
 10
12.1417335716
 20
3.5479826963999992
 30
0.0
 11
12.913848722099999
 21
3.5479826963999992
 31
0.0
  0
LINE
  5
788
  8
0
  6
CONTINUOUS
 62
     2
 10
12.788848722099999
 20
17.579232696399998
 30
0.0
 11
12.788848722099999
 21
8.5365361680999978
 31
0.0
  0
LINE
  5
789
  8
0
  6
CONTINUOUS
 62
     2
 10
12.788848722099999
 20
3.5479826963999992
 30
0.0
 11
12.788848722099999
 21
7.9896611680999978
 31
0.0
  0
INSERT
  5
78B
  8
0
  6
CONTINUOUS
 62
     2
  2
_FILLED
 10
12.788848722099999
 20
17.579232696399998
 30
0.0
 41
0.1875
 42
0.1875
 43
0.1875
 50
90.0
  0
INSERT
  5
78C
  8
0
  6
CONTINUOUS
 62
     2
  2
_FILLED
 10
12.788848722099999
 20
3.5479826963999992
 30
0.0
 41
0.1875
 42
0.1875
 43
0.1875
 50
270.0
  0
ENDBLK
  5
78D
  8
0
  6
ByBlock
 62
     0
  0
BLOCK
  8
0
  2
_FILLED
 70
     0
 10
0.0
 20
0.0
 30
0.0
  3
_FILLED
  1

  0
SOLID
  5
78F
  8
0
  6
ByBlock
 62
     0
 10
0.0
 20
0.0
 30
0.0
 11
-1.0
 21
0.1666666667
 31
0.0
 12
-1.0
 22
-0.1666666667
 32
0.0
 13
-1.0
 23
-0.1666666667
 33
0.0
  0
ENDBLK
  5
790
  8
0
  6
ByBlock
 62
     0
  0
BLOCK
  8
0
  6
CONTINUOUS
 62
     2
  2
*D4
 70
     1
 10
0.0
 20
0.0
 30
0.0
  3
*D4
  1

  0
TEXT
  5
793
  8
0
  6
CONTINUOUS
 62
     2
 10
14.59556178529999
 20
10.9810582866
 30
0.0
 40
0.15625
  1
"
 41
0.8
  0
TEXT
  5
794
  8
0
  6
CONTINUOUS
 62
     2
 10
13.65806178529999
 20
10.7466832866
 30
0.0
 40
0.15625
  1
[46,04 cm]
 41
0.8
  0
TEXT
  5
795
  8
0
  6
CONTINUOUS
 62
     2
 10
13.845561785299999
 20
10.9810582866
 30
0.0
 40
0.15625
  1
18-1/8
 41
0.8
  0
LINE
  5
796
  8
0
  6
CONTINUOUS
 62
     2
 10
3.0167335716000001
 20
10.6261076964
 30
0.0
 11
3.0167335716000001
 21
11.1841832866
 31
0.0
  0
LINE
  5
797
  8
0
  6
CONTINUOUS
 62
     2
 10
21.141733571599978
 20
10.6261076964
 30
0.0
 11
21.141733571599978
 21
11.1841832866
 31
0.0
  0
LINE
  5
798
  8
0
  6
CONTINUOUS
 62
     2
 10
3.0167335716000001
 20
11.0591832866
 30
0.0
 11
13.57993678529999
 21
11.0591832866
 31
0.0
  0
LINE
  5
799
  8
0
  6
CONTINUOUS
 62
     2
 10
21.141733571599978
 20
11.0591832866
 30
0.0
 11
14.98618678529999
 21
11.0591832866
 31
0.0
  0
INSERT
  5
79A
  8
0
  6
CONTINUOUS
 62
     2
  2
_FILLED
 10
3.0167335716000001
 20
11.0591832866
 30
0.0
 41
0.1875
 42
0.1875
 43
0.1875
 50
180.0
  0
INSERT
  5
79B
  8
0
  6
CONTINUOUS
 62
     2
  2
_FILLED
 10
21.141733571599978
 20
11.0591832866
 30
0.0
 41
0.1875
 42
0.1875
 43
0.1875
  0
ENDBLK
  5
79C
  8
0
  6
ByBlock
 62
     0
  0
BLOCK
  8
0
  6
CONTINUOUS
 62
     2
  2
*D5
 70
     1
 10
0.0
 20
0.0
 30
0.0
  3
*D5
  1

  0
TEXT
  5
79F
  8
0
  6
CONTINUOUS
 62
     2
 10
5.5582824597
 20
18.712270715100001
 30
0.0
 40
0.15625
  1
"
 41
0.8
  0
TEXT
  5
7A0
  8
0
  6
CONTINUOUS
 62
     2
 10
4.7457824597
 20
18.477895715100001
 30
0.0
 40
0.15625
  1
[6,35 cm]
 41
0.8
  0
TEXT
  5
7A1
  8
0
  6
CONTINUOUS
 62
     2
 10
4.9332824597
 20
18.712270715100001
 30
0.0
 40
0.15625
  1
2-1/2
 41
0.8
  0
LINE
  5
7A2
  8
0
  6
CONTINUOUS
 62
     2
 10
5.1832824597
 20
20.079232696399998
 30
0.0
 11
5.3890855192999991
 21
20.079232696399998
 31
0.0
  0
LINE
  5
7A3
  8
0
  6
CONTINUOUS
 62
     2
 10
12.0167335716
 20
17.579232696399998
 30
0.0
 11
5.1832824597
 21
17.579232696399998
 31
0.0
  0
LINE
  5
7A4
  8
0
  6
CONTINUOUS
 62
     2
 10
5.3082824597
 20
20.079232696399998
 30
0.0
 11
5.3082824597
 21
18.946645715100001
 31
0.0
  0
LINE
  5
7A5
  8
0
  6
CONTINUOUS
 62
     2
 10
5.3082824597
 20
17.579232696399998
 30
0.0
 11
5.3082824597
 21
18.399770715100001
 31
0.0
  0
INSERT
  5
7A6
  8
0
  6
CONTINUOUS
 62
     2
  2
_FILLED
 10
5.3082824597
 20
20.079232696399998
 30
0.0
 41
0.1875
 42
0.1875
 43
0.1875
 50
90.0
  0
INSERT
  5
7A7
  8
0
  6
CONTINUOUS
 62
     2
  2
_FILLED
 10
5.3082824597
 20
17.579232696399998
 30
0.0
 41
0.1875
 42
0.1875
 43
0.1875
 50
270.0
  0
ENDBLK
  5
7A8
  8
0
  6
ByBlock
 62
     0
  0
BLOCK
  8
0
  6
CONTINUOUS
 62
     2
  2
KOHLER_BL0
 70
     0
 10
6.5226980676999986
 20
14.5242172806
 30
0.0
  3
KOHLER_BL0
  1

  0
LINE
  5
7AB
  8
0
  6
CONTINUOUS
 62
     2
 10
5.5639840369
 20
14.8478637664
 30
0.0
 11
5.3506805967000002
 21
14.5942155073
 31
0.0
  0
LINE
  5
7AC
  8
0
  6
CONTINUOUS
 62
     2
 10
5.3719222353999987
 20
14.8478637664
 30
0.0
 11
5.5639840369
 21
14.8478637664
 31
0.0
  0
LINE
  5
7AD
  8
0
  6
CONTINUOUS
 62
     2
 10
5.3719222353999987
 20
14.8478637664
 30
0.0
 11
5.2341580761999991
 21
14.684042585699981
 31
0.0
  0
LINE
  5
7AE
  8
0
  6
CONTINUOUS
 62
     2
 10
5.2341580761999991
 20
14.8478637664
 30
0.0
 11
5.2341580761999991
 21
14.684042585699981
 31
0.0
  0
LINE
  5
7AF
  8
0
  6
CONTINUOUS
 62
     2
 10
5.0596578587999987
 20
14.8478637664
 30
0.0
 11
5.2341580761999991
 21
14.8478637664
 31
0.0
  0
LINE
  5
7B0
  8
0
  6
CONTINUOUS
 62
     2
 10
5.0596578587999987
 20
14.8478637664
 30
0.0
 11
5.0596578587999987
 21
14.261926145599981
 31
0.0
  0
LINE
  5
7B1
  8
0
  6
CONTINUOUS
 62
     2
 10
5.2341580761999991
 20
14.2619501491
 30
0.0
 11
5.0596578587999987
 21
14.261926145599981
 31
0.0
  0
LINE
  5
7B2
  8
0
  6
CONTINUOUS
 62
     2
 10
5.2341580761999991
 20
14.463449972099999
 30
0.0
 11
5.2341580761999991
 21
14.2619501491
 31
0.0
  0
LINE
  5
7B3
  8
0
  6
CONTINUOUS
 62
     2
 10
5.3878960077999993
 20
14.2619501491
 30
0.0
 11
5.2341580761999991
 21
14.463449972099999
 31
0.0
  0
LINE
  5
7B4
  8
0
  6
CONTINUOUS
 62
     2
 10
5.3878960077999993
 20
14.2619501491
 30
0.0
 11
5.6041884174999987
 21
14.2619501491
 31
0.0
  0
LINE
  5
7B5
  8
0
  6
CONTINUOUS
 62
     2
 10
5.6041884174999987
 20
14.2619501491
 30
0.0
 11
5.3506805967000002
 21
14.5942155073
 31
0.0
  0
SOLID
  5
7B6
  8
0
  6
CONTINUOUS
 62
     2
 10
5.2341580761999991
 20
14.684042585699981
 30
0.0
 11
5.3719222353999987
 21
14.8478637664
 31
0.0
 12
5.5639840369
 22
14.8478637664
 32
0.0
 13
5.5639840369
 23
14.8478637664
 33
0.0
  0
SOLID
  5
7B7
  8
0
  6
CONTINUOUS
 62
     2
 10
5.5639840369
 20
14.8478637664
 30
0.0
 11
5.3506805967000002
 21
14.5942155073
 31
0.0
 12
5.2341580761999991
 22
14.684042585699981
 32
0.0
 13
5.2341580761999991
 23
14.684042585699981
 33
0.0
  0
SOLID
  5
7B8
  8
0
  6
CONTINUOUS
 62
     2
 10
5.2341580761999991
 20
14.463449972099999
 30
0.0
 11
5.3506805967000002
 21
14.5942155073
 31
0.0
 12
5.3878960077999993
 22
14.2619501491
 32
0.0
 13
5.3878960077999993
 23
14.2619501491
 33
0.0
  0
SOLID
  5
7B9
  8
0
  6
CONTINUOUS
 62
     2
 10
5.3506805967000002
 20
14.5942155073
 30
0.0
 11
5.6041884174999987
 21
14.2619501491
 31
0.0
 12
5.3878960077999993
 22
14.2619501491
 32
0.0
 13
5.3878960077999993
 23
14.2619501491
 33
0.0
  0
SOLID
  5
7BA
  8
0
  6
CONTINUOUS
 62
     2
 10
5.2341580761999991
 20
14.2619501491
 30
0.0
 11
5.0596578587999987
 21
14.261926145599981
 31
0.0
 12
5.2341580761999991
 22
14.463449972099999
 32
0.0
 13
5.2341580761999991
 23
14.463449972099999
 33
0.0
  0
SOLID
  5
7BB
  8
0
  6
CONTINUOUS
 62
     2
 10
5.3506805967000002
 20
14.5942155073
 30
0.0
 11
5.2341580761999991
 21
14.463449972099999
 31
0.0
 12
5.2341580761999991
 22
14.684042585699981
 32
0.0
 13
5.2341580761999991
 23
14.684042585699981
 33
0.0
  0
SOLID
  5
7BC
  8
0
  6
CONTINUOUS
 62
     2
 10
5.2341580761999991
 20
14.463449972099999
 30
0.0
 11
5.0596578587999987
 21
14.261926145599981
 31
0.0
 12
5.2341580761999991
 22
14.684042585699981
 32
0.0
 13
5.2341580761999991
 23
14.684042585699981
 33
0.0
  0
SOLID
  5
7BD
  8
0
  6
CONTINUOUS
 62
     2
 10
5.2341580761999991
 20
14.684042585699981
 30
0.0
 11
5.0596578587999987
 21
14.261926145599981
 31
0.0
 12
5.2341580761999991
 22
14.8478637664
 32
0.0
 13
5.2341580761999991
 23
14.8478637664
 33
0.0
  0
SOLID
  5
7BE
  8
0
  6
CONTINUOUS
 62
     2
 10
5.0596578587999987
 20
14.261926145599981
 30
0.0
 11
5.0596578587999987
 21
14.8478637664
 31
0.0
 12
5.2341580761999991
 22
14.8478637664
 32
0.0
 13
5.2341580761999991
 23
14.8478637664
 33
0.0
  0
CIRCLE
  5
7BF
  8
0
  6
CONTINUOUS
 62
     2
 10
5.7806972444999989
 20
14.55378570589999
 30
0.0
 40
0.2980565746999999
  0
CIRCLE
  5
7C0
  8
0
  6
CONTINUOUS
 62
     2
 10
5.7806972444999989
 20
14.55378570589999
 30
0.0
 40
0.1247694082
  0
SOLID
  5
7C1
  8
0
  6
CONTINUOUS
 62
     2
 10
5.6885926976999981
 20
14.837254353500001
 30
0.0
 11
5.7495418487999981
 21
14.850209495499991
 31
0.0
 12
5.8118526401999979
 22
14.850209495499991
 32
0.0
 13
5.8118526401999979
 23
14.850209495499991
 33
0.0
  0
SOLID
  5
7C2
  8
0
  6
CONTINUOUS
 62
     2
 10
5.8118526401999979
 20
14.850209495499991
 30
0.0
 11
5.8728017913999979
 21
14.837254353500001
 31
0.0
 12
5.6885926976999981
 22
14.837254353500001
 32
0.0
 13
5.6885926976999981
 23
14.837254353500001
 33
0.0
  0
SOLID
  5
7C3
  8
0
  6
CONTINUOUS
 62
     2
 10
5.6316689571999987
 20
14.8119102714
 30
0.0
 11
5.6885926976999981
 21
14.837254353500001
 31
0.0
 12
5.8728017913999979
 22
14.837254353500001
 32
0.0
 13
5.8728017913999979
 23
14.837254353500001
 33
0.0
  0
SOLID
  5
7C4
  8
0
  6
CONTINUOUS
 62
     2
 10
5.8728017913999979
 20
14.837254353500001
 30
0.0
 11
5.9297255319
 21
14.8119102714
 31
0.0
 12
5.6316689571999987
 22
14.8119102714
 32
0.0
 13
5.6316689571999987
 23
14.8119102714
 33
0.0
  0
SOLID
  5
7C5
  8
0
  6
CONTINUOUS
 62
     2
 10
5.5812584679999979
 20
14.7752849071
 30
0.0
 11
5.6316689571999987
 21
14.8119102714
 31
0.0
 12
5.9297255319
 22
14.8119102714
 32
0.0
 13
5.9297255319
 23
14.8119102714
 33
0.0
  0
SOLID
  5
7C6
  8
0
  6
CONTINUOUS
 62
     2
 10
5.9297255319
 20
14.8119102714
 30
0.0
 11
5.9801360210999981
 21
14.7752849071
 31
0.0
 12
5.5812584679999979
 22
14.7752849071
 32
0.0
 13
5.5812584679999979
 23
14.7752849071
 33
0.0
  0
SOLID
  5
7C7
  8
0
  6
CONTINUOUS
 62
     2
 10
5.5395644102999979
 20
14.7289789649
 30
0.0
 11
5.5812584679999979
 21
14.7752849071
 31
0.0
 12
5.9801360210999981
 22
14.7752849071
 32
0.0
 13
5.9801360210999981
 23
14.7752849071
 33
0.0
  0
SOLID
  5
7C8
  8
0
  6
CONTINUOUS
 62
     2
 10
5.9801360210999981
 20
14.7752849071
 30
0.0
 11
6.0218300786999981
 21
14.7289789649
 31
0.0
 12
5.5395644102999979
 22
14.7289789649
 32
0.0
 13
5.5395644102999979
 23
14.7289789649
 33
0.0
  0
SOLID
  5
7C9
  8
0
  6
CONTINUOUS
 62
     2
 10
5.7806972444999989
 20
14.67855511419998
 30
0.0
 11
5.5084090145999989
 21
14.675016236599999
 31
0.0
 12
6.0218300786999981
 22
14.7289789649
 32
0.0
 13
6.0218300786999981
 23
14.7289789649
 33
0.0
  0
SOLID
  5
7CA
  8
0
  6
CONTINUOUS
 62
     2
 10
5.5084090145999989
 20
14.675016236599999
 30
0.0
 11
5.5395644102999979
 21
14.7289789649
 31
0.0
 12
6.0218300786999981
 22
14.7289789649
 32
0.0
 13
6.0218300786999981
 23
14.7289789649
 33
0.0
  0
SOLID
  5
7CB
  8
0
  6
CONTINUOUS
 62
     2
 10
6.0218300786999981
 20
14.7289789649
 30
0.0
 11
6.0529854743999989
 21
14.675016236599999
 31
0.0
 12
5.7806972444999989
 22
14.67855511419998
 32
0.0
 13
5.7806972444999989
 23
14.67855511419998
 33
0.0
  0
SOLID
  5
7CC
  8
0
  6
CONTINUOUS
 62
     2
 10
5.7806972444999989
 20
14.67855511419998
 30
0.0
 11
5.7421413770000003
 21
14.6724484647
 31
0.0
 12
5.5084090145999989
 22
14.675016236599999
 32
0.0
 13
5.5084090145999989
 23
14.675016236599999
 33
0.0
  0
SOLID
  5
7CD
  8
0
  6
CONTINUOUS
 62
     2
 10
5.8192531121000002
 20
14.6724484647
 30
0.0
 11
5.7806972444999989
 21
14.67855511419998
 31
0.0
 12
6.0529854743999989
 22
14.675016236599999
 32
0.0
 13
6.0529854743999989
 23
14.675016236599999
 33
0.0
  0
SOLID
  5
7CE
  8
0
  6
CONTINUOUS
 62
     2
 10
5.6797566728999991
 20
14.627123323999999
 30
0.0
 11
5.489153921099998
 21
14.6157551523
 31
0.0
 12
5.7073596263999979
 22
14.6547262776
 32
0.0
 13
5.7073596263999979
 23
14.6547262776
 33
0.0
  0
SOLID
  5
7CF
  8
0
  6
CONTINUOUS
 62
     2
 10
5.7073596263999979
 20
14.6547262776
 30
0.0
 11
5.489153921099998
 21
14.6157551523
 31
0.0
 12
5.7421413770000003
 22
14.6724484647
 32
0.0
 13
5.7421413770000003
 23
14.6724484647
 33
0.0
  0
SOLID
  5
7D0
  8
0
  6
CONTINUOUS
 62
     2
 10
5.489153921099998
 20
14.6157551523
 30
0.0
 11
5.5084090145999989
 21
14.675016236599999
 31
0.0
 12
5.7421413770000003
 22
14.6724484647
 32
0.0
 13
5.7421413770000003
 23
14.6724484647
 33
0.0
  0
SOLID
  5
7D1
  8
0
  6
CONTINUOUS
 62
     2
 10
5.8192531121000002
 20
14.6724484647
 30
0.0
 11
6.0529854743999989
 21
14.675016236599999
 31
0.0
 12
5.8540348625999981
 22
14.6547262776
 32
0.0
 13
5.8540348625999981
 23
14.6547262776
 33
0.0
  0
SOLID
  5
7D2
  8
0
  6
CONTINUOUS
 62
     2
 10
5.8540348625999981
 20
14.6547262776
 30
0.0
 11
6.0529854743999989
 21
14.675016236599999
 31
0.0
 12
5.8816378161999987
 22
14.627123323999999
 32
0.0
 13
5.8816378161999987
 23
14.627123323999999
 33
0.0
  0
SOLID
  5
7D3
  8
0
  6
CONTINUOUS
 62
     2
 10
6.0529854743999989
 20
14.675016236599999
 30
0.0
 11
6.072240567899998
 21
14.6157551523
 31
0.0
 12
5.8816378161999987
 22
14.627123323999999
 32
0.0
 13
5.8816378161999987
 23
14.627123323999999
 33
0.0
  0
SOLID
  5
7D4
  8
0
  6
CONTINUOUS
 62
     2
 10
5.6797566728999991
 20
14.627123323999999
 30
0.0
 11
5.6620344857999987
 21
14.592341573500001
 31
0.0
 12
5.489153921099998
 22
14.6157551523
 32
0.0
 13
5.489153921099998
 23
14.6157551523
 33
0.0
  0
SOLID
  5
7D5
  8
0
  6
CONTINUOUS
 62
     2
 10
5.8993600032999991
 20
14.592341573500001
 30
0.0
 11
5.8816378161999987
 21
14.627123323999999
 31
0.0
 12
6.072240567899998
 22
14.6157551523
 32
0.0
 13
6.072240567899998
 23
14.6157551523
 33
0.0
  0
SOLID
  5
7D6
  8
0
  6
CONTINUOUS
 62
     2
 10
5.4826406699000003
 20
14.55378570589999
 30
0.0
 11
5.489153921099998
 21
14.6157551523
 31
0.0
 12
5.6620344857999987
 22
14.592341573500001
 32
0.0
 13
5.6620344857999987
 23
14.592341573500001
 33
0.0
  0
SOLID
  5
7D7
  8
0
  6
CONTINUOUS
 62
     2
 10
5.6620344857999987
 20
14.592341573500001
 30
0.0
 11
5.6559278363000001
 21
14.55378570589999
 31
0.0
 12
5.4826406699000003
 22
14.55378570589999
 32
0.0
 13
5.4826406699000003
 23
14.55378570589999
 33
0.0
  0
SOLID
  5
7D8
  8
0
  6
CONTINUOUS
 62
     2
 10
5.8993600032999991
 20
14.592341573500001
 30
0.0
 11
6.072240567899998
 21
14.6157551523
 31
0.0
 12
5.9054666527999986
 22
14.55378570589999
 32
0.0
 13
5.9054666527999986
 23
14.55378570589999
 33
0.0
  0
SOLID
  5
7D9
  8
0
  6
CONTINUOUS
 62
     2
 10
6.072240567899998
 20
14.6157551523
 30
0.0
 11
6.0787538191999992
 21
14.55378570589999
 31
0.0
 12
5.9054666527999986
 22
14.55378570589999
 32
0.0
 13
5.9054666527999986
 23
14.55378570589999
 33
0.0
  0
SOLID
  5
7DA
  8
0
  6
CONTINUOUS
 62
     2
 10
5.8993600032999991
 20
14.5152298384
 30
0.0
 11
5.9054666527999986
 21
14.55378570589999
 31
0.0
 12
6.0787538191999992
 22
14.55378570589999
 32
0.0
 13
6.0787538191999992
 23
14.55378570589999
 33
0.0
  0
SOLID
  5
7DB
  8
0
  6
CONTINUOUS
 62
     2
 10
5.6620344857999987
 20
14.5152298384
 30
0.0
 11
5.489153921099998
 21
14.4918162595
 31
0.0
 12
5.6559278363000001
 22
14.55378570589999
 32
0.0
 13
5.6559278363000001
 23
14.55378570589999
 33
0.0
  0
SOLID
  5
7DC
  8
0
  6
CONTINUOUS
 62
     2
 10
5.489153921099998
 20
14.4918162595
 30
0.0
 11
5.4826406699000003
 21
14.55378570589999
 31
0.0
 12
5.6559278363000001
 22
14.55378570589999
 32
0.0
 13
5.6559278363000001
 23
14.55378570589999
 33
0.0
  0
SOLID
  5
7DD
  8
0
  6
CONTINUOUS
 62
     2
 10
6.0787538191999992
 20
14.55378570589999
 30
0.0
 11
6.072240567899998
 21
14.4918162595
 31
0.0
 12
5.8993600032999991
 22
14.5152298384
 32
0.0
 13
5.8993600032999991
 23
14.5152298384
 33
0.0
  0
SOLID
  5
7DE
  8
0
  6
CONTINUOUS
 62
     2
 10
5.6620344857999987
 20
14.5152298384
 30
0.0
 11
5.6797566728999991
 21
14.48044808779999
 31
0.0
 12
5.489153921099998
 22
14.4918162595
 32
0.0
 13
5.489153921099998
 23
14.4918162595
 33
0.0
  0
SOLID
  5
7DF
  8
0
  6
CONTINUOUS
 62
     2
 10
5.8816378161999987
 20
14.48044808779999
 30
0.0
 11
5.8993600032999991
 21
14.5152298384
 31
0.0
 12
6.072240567899998
 22
14.4918162595
 32
0.0
 13
6.072240567899998
 23
14.4918162595
 33
0.0
  0
SOLID
  5
7E0
  8
0
  6
CONTINUOUS
 62
     2
 10
5.7421413770000003
 20
14.4351229472
 30
0.0
 11
5.5084090145999989
 21
14.43255517529999
 31
0.0
 12
5.7073596263999979
 22
14.4528451343
 32
0.0
 13
5.7073596263999979
 23
14.4528451343
 33
0.0
  0
SOLID
  5
7E1
  8
0
  6
CONTINUOUS
 62
     2
 10
5.7073596263999979
 20
14.4528451343
 30
0.0
 11
5.5084090145999989
 21
14.43255517529999
 31
0.0
 12
5.6797566728999991
 22
14.48044808779999
 32
0.0
 13
5.6797566728999991
 23
14.48044808779999
 33
0.0
  0
SOLID
  5
7E2
  8
0
  6
CONTINUOUS
 62
     2
 10
5.5084090145999989
 20
14.43255517529999
 30
0.0
 11
5.489153921099998
 21
14.4918162595
 31
0.0
 12
5.6797566728999991
 22
14.48044808779999
 32
0.0
 13
5.6797566728999991
 23
14.48044808779999
 33
0.0
  0
SOLID
  5
7E3
  8
0
  6
CONTINUOUS
 62
     2
 10
5.8816378161999987
 20
14.48044808779999
 30
0.0
 11
6.072240567899998
 21
14.4918162595
 31
0.0
 12
5.8540348625999981
 22
14.4528451343
 32
0.0
 13
5.8540348625999981
 23
14.4528451343
 33
0.0
  0
SOLID
  5
7E4
  8
0
  6
CONTINUOUS
 62
     2
 10
5.8540348625999981
 20
14.4528451343
 30
0.0
 11
6.072240567899998
 21
14.4918162595
 31
0.0
 12
5.8192531121000002
 22
14.4351229472
 32
0.0
 13
5.8192531121000002
 23
14.4351229472
 33
0.0
  0
SOLID
  5
7E5
  8
0
  6
CONTINUOUS
 62
     2
 10
6.072240567899998
 20
14.4918162595
 30
0.0
 11
6.0529854743999989
 21
14.43255517529999
 31
0.0
 12
5.8192531121000002
 22
14.4351229472
 32
0.0
 13
5.8192531121000002
 23
14.4351229472
 33
0.0
  0
SOLID
  5
7E6
  8
0
  6
CONTINUOUS
 62
     2
 10
5.7421413770000003
 20
14.4351229472
 30
0.0
 11
5.7806972444999989
 21
14.4290162977
 31
0.0
 12
5.5084090145999989
 22
14.43255517529999
 32
0.0
 13
5.5084090145999989
 23
14.43255517529999
 33
0.0
  0
SOLID
  5
7E7
  8
0
  6
CONTINUOUS
 62
     2
 10
5.7806972444999989
 20
14.4290162977
 30
0.0
 11
5.8192531121000002
 21
14.4351229472
 31
0.0
 12
6.0529854743999989
 22
14.43255517529999
 32
0.0
 13
6.0529854743999989
 23
14.43255517529999
 33
0.0
  0
SOLID
  5
7E8
  8
0
  6
CONTINUOUS
 62
     2
 10
5.5395644102999979
 20
14.378592447000001
 30
0.0
 11
5.5084090145999989
 21
14.43255517529999
 31
0.0
 12
5.7806972444999989
 22
14.4290162977
 32
0.0
 13
5.7806972444999989
 23
14.4290162977
 33
0.0
  0
SOLID
  5
7E9
  8
0
  6
CONTINUOUS
 62
     2
 10
5.7806972444999989
 20
14.4290162977
 30
0.0
 11
6.0529854743999989
 21
14.43255517529999
 31
0.0
 12
5.5395644102999979
 22
14.378592447000001
 32
0.0
 13
5.5395644102999979
 23
14.378592447000001
 33
0.0
  0
SOLID
  5
7EA
  8
0
  6
CONTINUOUS
 62
     2
 10
6.0529854743999989
 20
14.43255517529999
 30
0.0
 11
6.0218300786999981
 21
14.378592447000001
 31
0.0
 12
5.5395644102999979
 22
14.378592447000001
 32
0.0
 13
5.5395644102999979
 23
14.378592447000001
 33
0.0
  0
SOLID
  5
7EB
  8
0
  6
CONTINUOUS
 62
     2
 10
5.5812584679999979
 20
14.332286504800001
 30
0.0
 11
5.5395644102999979
 21
14.378592447000001
 31
0.0
 12
6.0218300786999981
 22
14.378592447000001
 32
0.0
 13
6.0218300786999981
 23
14.378592447000001
 33
0.0
  0
SOLID
  5
7EC
  8
0
  6
CONTINUOUS
 62
     2
 10
6.0218300786999981
 20
14.378592447000001
 30
0.0
 11
5.9801360210999981
 21
14.332286504800001
 31
0.0
 12
5.5812584679999979
 22
14.332286504800001
 32
0.0
 13
5.5812584679999979
 23
14.332286504800001
 33
0.0
  0
SOLID
  5
7ED
  8
0
  6
CONTINUOUS
 62
     2
 10
5.6316689571999987
 20
14.2956611405
 30
0.0
 11
5.5812584679999979
 21
14.332286504800001
 31
0.0
 12
5.9801360210999981
 22
14.332286504800001
 32
0.0
 13
5.9801360210999981
 23
14.332286504800001
 33
0.0
  0
SOLID
  5
7EE
  8
0
  6
CONTINUOUS
 62
     2
 10
5.9801360210999981
 20
14.332286504800001
 30
0.0
 11
5.9297255319
 21
14.2956611405
 31
0.0
 12
5.6316689571999987
 22
14.2956611405
 32
0.0
 13
5.6316689571999987
 23
14.2956611405
 33
0.0
  0
SOLID
  5
7EF
  8
0
  6
CONTINUOUS
 62
     2
 10
5.6885926976999981
 20
14.2703170584
 30
0.0
 11
5.6316689571999987
 21
14.2956611405
 31
0.0
 12
5.9297255319
 22
14.2956611405
 32
0.0
 13
5.9297255319
 23
14.2956611405
 33
0.0
  0
SOLID
  5
7F0
  8
0
  6
CONTINUOUS
 62
     2
 10
5.9297255319
 20
14.2956611405
 30
0.0
 11
5.8728017913999979
 21
14.2703170584
 31
0.0
 12
5.6885926976999981
 22
14.2703170584
 32
0.0
 13
5.6885926976999981
 23
14.2703170584
 33
0.0
  0
SOLID
  5
7F1
  8
0
  6
CONTINUOUS
 62
     2
 10
5.7495418487999981
 20
14.257361916400001
 30
0.0
 11
5.6885926976999981
 21
14.2703170584
 31
0.0
 12
5.8728017913999979
 22
14.2703170584
 32
0.0
 13
5.8728017913999979
 23
14.2703170584
 33
0.0
  0
SOLID
  5
7F2
  8
0
  6
CONTINUOUS
 62
     2
 10
5.8728017913999979
 20
14.2703170584
 30
0.0
 11
5.8118526401999979
 21
14.257361916400001
 31
0.0
 12
5.7495418487999981
 22
14.257361916400001
 32
0.0
 13
5.7495418487999981
 23
14.257361916400001
 33
0.0
  0
LINE
  5
7F3
  8
0
  6
CONTINUOUS
 62
     2
 10
6.5733332102999986
 20
14.8478637664
 30
0.0
 11
6.5733332102999986
 21
14.2619501491
 31
0.0
  0
LINE
  5
7F4
  8
0
  6
CONTINUOUS
 62
     2
 10
6.5733332102999986
 20
14.2619501491
 30
0.0
 11
6.4085995394999991
 21
14.2619501491
 31
0.0
  0
LINE
  5
7F5
  8
0
  6
CONTINUOUS
 62
     2
 10
6.4085995394999991
 20
14.490274746400001
 30
0.0
 11
6.4085995394999991
 21
14.2619501491
 31
0.0
  0
LINE
  5
7F6
  8
0
  6
CONTINUOUS
 62
     2
 10
6.2606027365000001
 20
14.490274746400001
 30
0.0
 11
6.4085995394999991
 21
14.490274746400001
 31
0.0
  0
LINE
  5
7F7
  8
0
  6
CONTINUOUS
 62
     2
 10
6.2606027365000001
 20
14.490274746400001
 30
0.0
 11
6.2606027365000001
 21
14.2619501491
 31
0.0
  0
LINE
  5
7F8
  8
0
  6
CONTINUOUS
 62
     2
 10
6.2606027365000001
 20
14.2619501491
 30
0.0
 11
6.0958690656999988
 21
14.2619501491
 31
0.0
  0
LINE
  5
7F9
  8
0
  6
CONTINUOUS
 62
     2
 10
6.0958690656999988
 20
14.8478637664
 30
0.0
 11
6.0958690656999988
 21
14.2619501491
 31
0.0
  0
LINE
  5
7FA
  8
0
  6
CONTINUOUS
 62
     2
 10
6.0958690656999988
 20
14.8478637664
 30
0.0
 11
6.2606027365000001
 21
14.8478637664
 31
0.0
  0
LINE
  5
7FB
  8
0
  6
CONTINUOUS
 62
     2
 10
6.2606027365000001
 20
14.8478637664
 30
0.0
 11
6.2606027365000001
 21
14.6274800188
 31
0.0
  0
LINE
  5
7FC
  8
0
  6
CONTINUOUS
 62
     2
 10
6.2606027365000001
 20
14.6274800188
 30
0.0
 11
6.4085995394999991
 21
14.6274800188
 31
0.0
  0
LINE
  5
7FD
  8
0
  6
CONTINUOUS
 62
     2
 10
6.4085995394999991
 20
14.8478637664
 30
0.0
 11
6.4085995394999991
 21
14.6274800188
 31
0.0
  0
LINE
  5
7FE
  8
0
  6
CONTINUOUS
 62
     2
 10
6.4085995394999991
 20
14.8478637664
 30
0.0
 11
6.5733332102999986
 21
14.8478637664
 31
0.0
  0
SOLID
  5
7FF
  8
0
  6
CONTINUOUS
 62
     2
 10
6.4085995394999991
 20
14.6274800188
 30
0.0
 11
6.4085995394999991
 21
14.8478637664
 31
0.0
 12
6.5733332102999986
 22
14.8478637664
 32
0.0
 13
6.5733332102999986
 23
14.8478637664
 33
0.0
  0
SOLID
  5
800
  8
0
  6
CONTINUOUS
 62
     2
 10
6.4085995394999991
 20
14.6274800188
 30
0.0
 11
6.2606027365000001
 21
14.490274746400001
 31
0.0
 12
6.2606027365000001
 22
14.6274800188
 32
0.0
 13
6.2606027365000001
 23
14.6274800188
 33
0.0
  0
SOLID
  5
801
  8
0
  6
CONTINUOUS
 62
     2
 10
6.2606027365000001
 20
14.490274746400001
 30
0.0
 11
6.0958690656999988
 21
14.2619501491
 31
0.0
 12
6.2606027365000001
 22
14.6274800188
 32
0.0
 13
6.2606027365000001
 23
14.6274800188
 33
0.0
  0
SOLID
  5
802
  8
0
  6
CONTINUOUS
 62
     2
 10
6.2606027365000001
 20
14.6274800188
 30
0.0
 11
6.0958690656999988
 21
14.2619501491
 31
0.0
 12
6.2606027365000001
 22
14.8478637664
 32
0.0
 13
6.2606027365000001
 23
14.8478637664
 33
0.0
  0
SOLID
  5
803
  8
0
  6
CONTINUOUS
 62
     2
 10
6.0958690656999988
 20
14.2619501491
 30
0.0
 11
6.0958690656999988
 21
14.8478637664
 31
0.0
 12
6.2606027365000001
 22
14.8478637664
 32
0.0
 13
6.2606027365000001
 23
14.8478637664
 33
0.0
  0
SOLID
  5
804
  8
0
  6
CONTINUOUS
 62
     2
 10
6.2606027365000001
 20
14.490274746400001
 30
0.0
 11
6.2606027365000001
 21
14.2619501491
 31
0.0
 12
6.0958690656999988
 22
14.2619501491
 32
0.0
 13
6.0958690656999988
 23
14.2619501491
 33
0.0
  0
SOLID
  5
805
  8
0
  6
CONTINUOUS
 62
     2
 10
6.2606027365000001
 20
14.490274746400001
 30
0.0
 11
6.4085995394999991
 21
14.6274800188
 31
0.0
 12
6.4085995394999991
 22
14.490274746400001
 32
0.0
 13
6.4085995394999991
 23
14.490274746400001
 33
0.0
  0
SOLID
  5
806
  8
0
  6
CONTINUOUS
 62
     2
 10
6.4085995394999991
 20
14.6274800188
 30
0.0
 11
6.5733332102999986
 21
14.8478637664
 31
0.0
 12
6.4085995394999991
 22
14.490274746400001
 32
0.0
 13
6.4085995394999991
 23
14.490274746400001
 33
0.0
  0
SOLID
  5
807
  8
0
  6
CONTINUOUS
 62
     2
 10
6.4085995394999991
 20
14.490274746400001
 30
0.0
 11
6.5733332102999986
 21
14.8478637664
 31
0.0
 12
6.4085995394999991
 22
14.2619501491
 32
0.0
 13
6.4085995394999991
 23
14.2619501491
 33
0.0
  0
SOLID
  5
808
  8
0
  6
CONTINUOUS
 62
     2
 10
6.5733332102999986
 20
14.8478637664
 30
0.0
 11
6.5733332102999986
 21
14.2619501491
 31
0.0
 12
6.4085995394999991
 22
14.2619501491
 32
0.0
 13
6.4085995394999991
 23
14.2619501491
 33
0.0
  0
LINE
  5
809
  8
0
  6
CONTINUOUS
 62
     2
 10
6.7684241065999986
 20
14.2619501491
 30
0.0
 11
6.9311081675999979
 21
14.2619501491
 31
0.0
  0
LINE
  5
80A
  8
0
  6
CONTINUOUS
 62
     2
 10
6.7684241065999986
 20
14.2619501491
 30
0.0
 11
6.6183780520999989
 21
14.2619501491
 31
0.0
  0
LINE
  5
80B
  8
0
  6
CONTINUOUS
 62
     2
 10
6.6183780520999989
 20
14.2619501491
 30
0.0
 11
6.6183780520999989
 21
14.8478637664
 31
0.0
  0
LINE
  5
80C
  8
0
  6
CONTINUOUS
 62
     2
 10
6.6183780520999989
 20
14.8478637664
 30
0.0
 11
6.7684241065999986
 21
14.8478637664
 31
0.0
  0
LINE
  5
80D
  8
0
  6
CONTINUOUS
 62
     2
 10
6.7684241065999986
 20
14.8478637664
 30
0.0
 11
6.7684241065999986
 21
14.40317689849998
 31
0.0
  0
LINE
  5
80E
  8
0
  6
CONTINUOUS
 62
     2
 10
6.7684241065999986
 20
14.40317689849998
 30
0.0
 11
6.9311081675999979
 21
14.40317689849998
 31
0.0
  0
LINE
  5
80F
  8
0
  6
CONTINUOUS
 62
     2
 10
6.9311081675999979
 20
14.40317689849998
 30
0.0
 11
6.9311081675999979
 21
14.2619501491
 31
0.0
  0
SOLID
  5
810
  8
0
  6
CONTINUOUS
 62
     2
 10
6.9311081675999979
 20
14.40317689849998
 30
0.0
 11
6.6183780520999989
 21
14.2619501491
 31
0.0
 12
6.7684241065999986
 22
14.40317689849998
 32
0.0
 13
6.7684241065999986
 23
14.40317689849998
 33
0.0
  0
SOLID
  5
811
  8
0
  6
CONTINUOUS
 62
     2
 10
6.7684241065999986
 20
14.40317689849998
 30
0.0
 11
6.6183780520999989
 21
14.2619501491
 31
0.0
 12
6.7684241065999986
 22
14.8478637664
 32
0.0
 13
6.7684241065999986
 23
14.8478637664
 33
0.0
  0
SOLID
  5
812
  8
0
  6
CONTINUOUS
 62
     2
 10
6.6183780520999989
 20
14.2619501491
 30
0.0
 11
6.6183780520999989
 21
14.8478637664
 31
0.0
 12
6.7684241065999986
 22
14.8478637664
 32
0.0
 13
6.7684241065999986
 23
14.8478637664
 33
0.0
  0
SOLID
  5
813
  8
0
  6
CONTINUOUS
 62
     2
 10
6.6183780520999989
 20
14.2619501491
 30
0.0
 11
6.9311081675999979
 21
14.40317689849998
 31
0.0
 12
6.7684241065999986
 22
14.2619501491
 32
0.0
 13
6.7684241065999986
 23
14.2619501491
 33
0.0
  0
SOLID
  5
814
  8
0
  6
CONTINUOUS
 62
     2
 10
6.9311081675999979
 20
14.40317689849998
 30
0.0
 11
6.9311081675999979
 21
14.2619501491
 31
0.0
 12
6.7684241065999986
 22
14.2619501491
 32
0.0
 13
6.7684241065999986
 23
14.2619501491
 33
0.0
  0
LINE
  5
815
  8
0
  6
CONTINUOUS
 62
     2
 10
7.2693600630999988
 20
14.4830984251
 30
0.0
 11
7.2693600630999988
 21
14.6274800188
 31
0.0
  0
LINE
  5
816
  8
0
  6
CONTINUOUS
 62
     2
 10
7.1185025479999986
 20
14.6274800188
 30
0.0
 11
7.2693600630999988
 21
14.6274800188
 31
0.0
  0
LINE
  5
817
  8
0
  6
CONTINUOUS
 62
     2
 10
7.1185025479999986
 20
14.705104377399991
 30
0.0
 11
7.1185025479999986
 21
14.6274800188
 31
0.0
  0
LINE
  5
818
  8
0
  6
CONTINUOUS
 62
     2
 10
7.1185025479999986
 20
14.705104377399991
 30
0.0
 11
7.2693600630999988
 21
14.705104377399991
 31
0.0
  0
LINE
  5
819
  8
0
  6
CONTINUOUS
 62
     2
 10
7.2693600630999988
 20
14.705104377399991
 30
0.0
 11
7.2693600630999988
 21
14.8478637664
 31
0.0
  0
LINE
  5
81A
  8
0
  6
CONTINUOUS
 62
     2
 10
7.132706870599999
 20
14.8478637664
 30
0.0
 11
7.2693600630999988
 21
14.8478637664
 31
0.0
  0
LINE
  5
81B
  8
0
  6
CONTINUOUS
 62
     2
 10
6.9602559047000003
 20
14.8478637664
 30
0.0
 11
7.132706870599999
 21
14.8478637664
 31
0.0
  0
LINE
  5
81C
  8
0
  6
CONTINUOUS
 62
     2
 10
6.9602559047000003
 20
14.2619501491
 30
0.0
 11
6.9602559047000003
 21
14.8478637664
 31
0.0
  0
LINE
  5
81D
  8
0
  6
CONTINUOUS
 62
     2
 10
6.9602559047000003
 20
14.2619501491
 30
0.0
 11
7.2693600630999988
 21
14.2619501491
 31
0.0
  0
LINE
  5
81E
  8
0
  6
CONTINUOUS
 62
     2
 10
7.2693600630999988
 20
14.2619501491
 30
0.0
 11
7.2693600630999988
 21
14.40317689849998
 31
0.0
  0
LINE
  5
81F
  8
0
  6
CONTINUOUS
 62
     2
 10
7.1185025479999986
 20
14.40317689849998
 30
0.0
 11
7.2693600630999988
 21
14.40317689849998
 31
0.0
  0
LINE
  5
820
  8
0
  6
CONTINUOUS
 62
     2
 10
7.1185025479999986
 20
14.4830984251
 30
0.0
 11
7.1185025479999986
 21
14.40317689849998
 31
0.0
  0
LINE
  5
821
  8
0
  6
CONTINUOUS
 62
     2
 10
7.1185025479999986
 20
14.4830984251
 30
0.0
 11
7.2693600630999988
 21
14.4830984251
 31
0.0
  0
SOLID
  5
822
  8
0
  6
CONTINUOUS
 62
     2
 10
7.2693600630999988
 20
14.8478637664
 30
0.0
 11
7.2693600630999988
 21
14.705104377399991
 31
0.0
 12
7.1185025479999986
 22
14.705104377399991
 32
0.0
 13
7.1185025479999986
 23
14.705104377399991
 33
0.0
  0
SOLID
  5
823
  8
0
  6
CONTINUOUS
 62
     2
 10
7.2693600630999988
 20
14.6274800188
 30
0.0
 11
7.2693600630999988
 21
14.4830984251
 31
0.0
 12
7.1185025479999986
 22
14.4830984251
 32
0.0
 13
7.1185025479999986
 23
14.4830984251
 33
0.0
  0
SOLID
  5
824
  8
0
  6
CONTINUOUS
 62
     2
 10
7.2693600630999988
 20
14.40317689849998
 30
0.0
 11
6.9602559047000003
 21
14.2619501491
 31
0.0
 12
7.1185025479999986
 22
14.40317689849998
 32
0.0
 13
7.1185025479999986
 23
14.40317689849998
 33
0.0
  0
SOLID
  5
825
  8
0
  6
CONTINUOUS
 62
     2
 10
7.1185025479999986
 20
14.40317689849998
 30
0.0
 11
6.9602559047000003
 21
14.2619501491
 31
0.0
 12
7.1185025479999986
 22
14.4830984251
 32
0.0
 13
7.1185025479999986
 23
14.4830984251
 33
0.0
  0
SOLID
  5
826
  8
0
  6
CONTINUOUS
 62
     2
 10
7.2693600630999988
 20
14.6274800188
 30
0.0
 11
7.1185025479999986
 21
14.4830984251
 31
0.0
 12
7.1185025479999986
 22
14.6274800188
 32
0.0
 13
7.1185025479999986
 23
14.6274800188
 33
0.0
  0
SOLID
  5
827
  8
0
  6
CONTINUOUS
 62
     2
 10
7.1185025479999986
 20
14.4830984251
 30
0.0
 11
6.9602559047000003
 21
14.2619501491
 31
0.0
 12
7.1185025479999986
 22
14.6274800188
 32
0.0
 13
7.1185025479999986
 23
14.6274800188
 33
0.0
  0
SOLID
  5
828
  8
0
  6
CONTINUOUS
 62
     2
 10
7.1185025479999986
 20
14.6274800188
 30
0.0
 11
6.9602559047000003
 21
14.2619501491
 31
0.0
 12
7.1185025479999986
 22
14.705104377399991
 32
0.0
 13
7.1185025479999986
 23
14.705104377399991
 33
0.0
  0
SOLID
  5
829
  8
0
  6
CONTINUOUS
 62
     2
 10
7.2693600630999988
 20
14.8478637664
 30
0.0
 11
7.1185025479999986
 21
14.705104377399991
 31
0.0
 12
7.132706870599999
 22
14.8478637664
 32
0.0
 13
7.132706870599999
 23
14.8478637664
 33
0.0
  0
SOLID
  5
82A
  8
0
  6
CONTINUOUS
 62
     2
 10
7.1185025479999986
 20
14.705104377399991
 30
0.0
 11
6.9602559047000003
 21
14.2619501491
 31
0.0
 12
7.132706870599999
 22
14.8478637664
 32
0.0
 13
7.132706870599999
 23
14.8478637664
 33
0.0
  0
SOLID
  5
82B
  8
0
  6
CONTINUOUS
 62
     2
 10
6.9602559047000003
 20
14.2619501491
 30
0.0
 11
6.9602559047000003
 21
14.8478637664
 31
0.0
 12
7.132706870599999
 22
14.8478637664
 32
0.0
 13
7.132706870599999
 23
14.8478637664
 33
0.0
  0
SOLID
  5
82C
  8
0
  6
CONTINUOUS
 62
     2
 10
7.2693600630999988
 20
14.40317689849998
 30
0.0
 11
7.2693600630999988
 21
14.2619501491
 31
0.0
 12
6.9602559047000003
 22
14.2619501491
 32
0.0
 13
6.9602559047000003
 23
14.2619501491
 33
0.0
  0
LINE
  5
82D
  8
0
  6
CONTINUOUS
 62
     2
 10
7.7796104412
 20
14.2619501491
 30
0.0
 11
7.6201672068999979
 21
14.513532676600001
 31
0.0
  0
ARC
  5
82E
  8
0
  6
CONTINUOUS
 62
     2
 10
7.5477279631999989
 20
14.6728542652
 30
0.0
 40
0.1750166067
 50
294.4500166359
 51
90.0
  0
LINE
  5
82F
  8
0
  6
CONTINUOUS
 62
     2
 10
7.3141802754
 20
14.8478637664
 30
0.0
 11
7.5477279631999989
 21
14.8478637664
 31
0.0
  0
LINE
  5
830
  8
0
  6
CONTINUOUS
 62
     2
 10
7.3141802754
 20
14.2619501491
 30
0.0
 11
7.3141802754
 21
14.8478637664
 31
0.0
  0
LINE
  5
831
  8
0
  6
CONTINUOUS
 62
     2
 10
7.3141802754
 20
14.2619501491
 30
0.0
 11
7.4648360897000003
 21
14.2619501491
 31
0.0
  0
LINE
  5
832
  8
0
  6
CONTINUOUS
 62
     2
 10
7.4648360897000003
 20
14.4589065091
 30
0.0
 11
7.4648360897000003
 21
14.2619501491
 31
0.0
  0
LINE
  5
833
  8
0
  6
CONTINUOUS
 62
     2
 10
7.589659511999999
 20
14.2619501491
 30
0.0
 11
7.4648360897000003
 21
14.4589065091
 31
0.0
  0
LINE
  5
834
  8
0
  6
CONTINUOUS
 62
     2
 10
7.589659511999999
 20
14.2619501491
 30
0.0
 11
7.7796104412
 21
14.2619501491
 31
0.0
  0
LINE
  5
835
  8
0
  6
CONTINUOUS
 62
     2
 10
7.4648360897000003
 20
14.5981818122
 30
0.0
 11
7.517175836999999
 21
14.5981818122
 31
0.0
  0
ARC
  5
836
  8
0
  6
CONTINUOUS
 62
     2
 10
7.5207658660999979
 20
14.6516732088
 30
0.0
 40
0.0536117321
 50
266.1604009902
 51
89.999891051199995
  0
LINE
  5
837
  8
0
  6
CONTINUOUS
 62
     2
 10
7.5207659680999983
 20
14.705284940799981
 30
0.0
 11
7.4648360897000003
 21
14.705284940799981
 31
0.0
  0
LINE
  5
838
  8
0
  6
CONTINUOUS
 62
     2
 10
7.4648360897000003
 20
14.705284940799981
 30
0.0
 11
7.4648360897000003
 21
14.5981818122
 31
0.0
  0
SOLID
  5
839
  8
0
  6
CONTINUOUS
 62
     2
 10
7.5477279631999989
 20
14.847870871999991
 30
0.0
 11
7.594660984199999
 21
14.8414606239
 31
0.0
 12
7.3141802754
 22
14.8478637664
 32
0.0
 13
7.3141802754
 23
14.8478637664
 33
0.0
  0
SOLID
  5
83A
  8
0
  6
CONTINUOUS
 62
     2
 10
7.4648360897000003
 20
14.705284940799981
 30
0.0
 11
7.7187758169
 21
14.709914276099999
 31
0.0
 12
7.5207659680999983
 22
14.705284940799981
 32
0.0
 13
7.5207659680999983
 23
14.705284940799981
 33
0.0
  0
SOLID
  5
83B
  8
0
  6
CONTINUOUS
 62
     2
 10
7.5207659680999983
 20
14.705284940799981
 30
0.0
 11
7.7187758169
 21
14.709914276099999
 31
0.0
 12
7.5444885484000004
 22
14.69975077279998
 32
0.0
 13
7.5444885484000004
 23
14.69975077279998
 33
0.0
  0
SOLID
  5
83C
  8
0
  6
CONTINUOUS
 62
     2
 10
7.5444885484000004
 20
14.69975077279998
 30
0.0
 11
7.7187758169
 21
14.709914276099999
 31
0.0
 12
7.5633135349999989
 22
14.684290898599979
 32
0.0
 13
7.5633135349999989
 23
14.684290898599979
 33
0.0
  0
SOLID
  5
83D
  8
0
  6
CONTINUOUS
 62
     2
 10
7.7187758169
 20
14.709914276099999
 30
0.0
 11
7.7224490630999982
 21
14.662688149899999
 31
0.0
 12
7.5633135349999989
 22
14.684290898599979
 32
0.0
 13
7.5633135349999989
 23
14.684290898599979
 33
0.0
  0
SOLID
  5
83E
  8
0
  6
CONTINUOUS
 62
     2
 10
7.5733544729999984
 20
14.662097039200001
 30
0.0
 11
7.5633135349999989
 21
14.684290898599979
 31
0.0
 12
7.7224490630999982
 22
14.662688149899999
 32
0.0
 13
7.7224490630999982
 23
14.662688149899999
 33
0.0
  0
SOLID
  5
83F
  8
0
  6
CONTINUOUS
 62
     2
 10
7.5733544729999984
 20
14.662097039200001
 30
0.0
 11
7.7224490630999982
 21
14.662688149899999
 31
0.0
 12
7.5725383914000002
 22
14.637751159800001
 32
0.0
 13
7.5725383914000002
 23
14.637751159800001
 33
0.0
  0
SOLID
  5
840
  8
0
  6
CONTINUOUS
 62
     2
 10
7.5725383914000002
 20
14.637751159800001
 30
0.0
 11
7.7224490630999982
 21
14.662688149899999
 31
0.0
 12
7.5610337716999982
 22
14.6162795144
 32
0.0
 13
7.5610337716999982
 23
14.6162795144
 33
0.0
  0
SOLID
  5
841
  8
0
  6
CONTINUOUS
 62
     2
 10
7.7224490630999982
 20
14.662688149899999
 30
0.0
 11
7.7133234598999989
 21
14.616206722399999
 31
0.0
 12
7.5610337716999982
 22
14.6162795144
 32
0.0
 13
7.5610337716999982
 23
14.6162795144
 33
0.0
  0
SOLID
  5
842
  8
0
  6
CONTINUOUS
 62
     2
 10
7.5412157648999978
 20
14.60211496569999
 30
0.0
 11
7.5610337716999982
 21
14.6162795144
 31
0.0
 12
7.7133234598999989
 22
14.616206722399999
 32
0.0
 13
7.7133234598999989
 23
14.616206722399999
 33
0.0
  0
SOLID
  5
843
  8
0
  6
CONTINUOUS
 62
     2
 10
7.5412157648999978
 20
14.60211496569999
 30
0.0
 11
7.7133234598999989
 21
14.616206722399999
 31
0.0
 12
7.517175836999999
 22
14.5981818122
 32
0.0
 13
7.517175836999999
 23
14.5981818122
 33
0.0
  0
SOLID
  5
844
  8
0
  6
CONTINUOUS
 62
     2
 10
7.7133234598999989
 20
14.616206722399999
 30
0.0
 11
7.6920674853999982
 21
14.5738748988
 31
0.0
 12
7.517175836999999
 22
14.5981818122
 32
0.0
 13
7.517175836999999
 23
14.5981818122
 33
0.0
  0
SOLID
  5
845
  8
0
  6
CONTINUOUS
 62
     2
 10
7.6201672068999979
 20
14.513532676600001
 30
0.0
 11
7.4648360897000003
 21
14.4589065091
 31
0.0
 12
7.6602382039999988
 22
14.538793613499999
 32
0.0
 13
7.6602382039999988
 23
14.538793613499999
 33
0.0
  0
SOLID
  5
846
  8
0
  6
CONTINUOUS
 62
     2
 10
7.6602382039999988
 20
14.538793613499999
 30
0.0
 11
7.4648360897000003
 21
14.4589065091
 31
0.0
 12
7.6920674853999982
 22
14.5738748988
 32
0.0
 13
7.6920674853999982
 23
14.5738748988
 33
0.0
  0
SOLID
  5
847
  8
0
  6
CONTINUOUS
 62
     2
 10
7.6920674853999982
 20
14.5738748988
 30
0.0
 11
7.4648360897000003
 21
14.4589065091
 31
0.0
 12
7.517175836999999
 22
14.5981818122
 32
0.0
 13
7.517175836999999
 23
14.5981818122
 33
0.0
  0
SOLID
  5
848
  8
0
  6
CONTINUOUS
 62
     2
 10
7.4648360897000003
 20
14.4589065091
 30
0.0
 11
7.3141802754
 21
14.2619501491
 31
0.0
 12
7.517175836999999
 22
14.5981818122
 32
0.0
 13
7.517175836999999
 23
14.5981818122
 33
0.0
  0
SOLID
  5
849
  8
0
  6
CONTINUOUS
 62
     2
 10
7.517175836999999
 20
14.5981818122
 30
0.0
 11
7.3141802754
 21
14.2619501491
 31
0.0
 12
7.4648360897000003
 22
14.5981818122
 32
0.0
 13
7.4648360897000003
 23
14.5981818122
 33
0.0
  0
SOLID
  5
84A
  8
0
  6
CONTINUOUS
 62
     2
 10
7.4648360897000003
 20
14.5981818122
 30
0.0
 11
7.3141802754
 21
14.2619501491
 31
0.0
 12
7.4648360897000003
 22
14.705284940799981
 32
0.0
 13
7.4648360897000003
 23
14.705284940799981
 33
0.0
  0
SOLID
  5
84B
  8
0
  6
CONTINUOUS
 62
     2
 10
7.7187758169
 20
14.709914276099999
 30
0.0
 11
7.4648360897000003
 21
14.705284940799981
 31
0.0
 12
7.7025727976000002
 22
14.754425644399999
 32
0.0
 13
7.7025727976000002
 23
14.754425644399999
 33
0.0
  0
SOLID
  5
84C
  8
0
  6
CONTINUOUS
 62
     2
 10
7.7025727976000002
 20
14.754425644399999
 30
0.0
 11
7.4648360897000003
 21
14.705284940799981
 31
0.0
 12
7.6750269255999983
 22
14.7929616622
 32
0.0
 13
7.6750269255999983
 23
14.7929616622
 33
0.0
  0
SOLID
  5
84D
  8
0
  6
CONTINUOUS
 62
     2
 10
7.6750269255999983
 20
14.7929616622
 30
0.0
 11
7.4648360897000003
 21
14.705284940799981
 31
0.0
 12
7.6381560192999984
 22
14.8226994497
 32
0.0
 13
7.6381560192999984
 23
14.8226994497
 33
0.0
  0
SOLID
  5
84E
  8
0
  6
CONTINUOUS
 62
     2
 10
7.6381560192999984
 20
14.8226994497
 30
0.0
 11
7.4648360897000003
 21
14.705284940799981
 31
0.0
 12
7.594660984199999
 22
14.8414606239
 32
0.0
 13
7.594660984199999
 23
14.8414606239
 33
0.0
  0
SOLID
  5
84F
  8
0
  6
CONTINUOUS
 62
     2
 10
7.594660984199999
 20
14.8414606239
 30
0.0
 11
7.4648360897000003
 21
14.705284940799981
 31
0.0
 12
7.3141802754
 22
14.8478637664
 32
0.0
 13
7.3141802754
 23
14.8478637664
 33
0.0
  0
SOLID
  5
850
  8
0
  6
CONTINUOUS
 62
     2
 10
7.3141802754
 20
14.2619501491
 30
0.0
 11
7.3141802754
 21
14.8478637664
 31
0.0
 12
7.4648360897000003
 22
14.705284940799981
 32
0.0
 13
7.4648360897000003
 23
14.705284940799981
 33
0.0
  0
SOLID
  5
851
  8
0
  6
CONTINUOUS
 62
     2
 10
7.4648360897000003
 20
14.4589065091
 30
0.0
 11
7.4648360897000003
 21
14.2619501491
 31
0.0
 12
7.3141802754
 22
14.2619501491
 32
0.0
 13
7.3141802754
 23
14.2619501491
 33
0.0
  0
SOLID
  5
852
  8
0
  6
CONTINUOUS
 62
     2
 10
7.4648360897000003
 20
14.4589065091
 30
0.0
 11
7.6201672068999979
 21
14.513532676600001
 31
0.0
 12
7.589659511999999
 22
14.2619501491
 32
0.0
 13
7.589659511999999
 23
14.2619501491
 33
0.0
  0
SOLID
  5
853
  8
0
  6
CONTINUOUS
 62
     2
 10
7.6201672068999979
 20
14.513532676600001
 30
0.0
 11
7.7796104412
 21
14.2619501491
 31
0.0
 12
7.589659511999999
 22
14.2619501491
 32
0.0
 13
7.589659511999999
 23
14.2619501491
 33
0.0
  0
CIRCLE
  5
854
  8
0
  6
CONTINUOUS
 62
     2
 10
7.9203804080999989
 20
14.2619501491
 30
0.0
 40
0.0653578685
  0
LINE
  5
855
  8
0
  6
CONTINUOUS
 62
     2
 10
7.9160923850999989
 20
14.261412399699999
 30
0.0
 11
7.9479603961
 21
14.2291094601
 31
0.0
  0
LINE
  5
856
  8
0
  6
CONTINUOUS
 62
     2
 10
7.9044944094999989
 20
14.2291094601
 30
0.0
 11
7.9044944094999989
 21
14.29507565539998
 31
0.0
  0
LINE
  5
857
  8
0
  6
CONTINUOUS
 62
     2
 10
7.9044944094999989
 20
14.29507565539998
 30
0.0
 11
7.9287737411999988
 21
14.29507565539998
 31
0.0
  0
ARC
  5
858
  8
0
  6
CONTINUOUS
 62
     2
 10
7.9287737411999988
 20
14.2782442067
 30
0.0
 40
0.0168314487
 50
270.0
 51
90.0
  0
LINE
  5
859
  8
0
  6
CONTINUOUS
 62
     2
 10
7.9287737411999988
 20
14.261412399699999
 30
0.0
 11
7.9044944094999989
 21
14.261412399699999
 31
0.0
  0
ENDBLK
  5
85A
  8
0
  6
ByBlock
 62
     0
  0
BLOCK
  8
0
  6
CONTINUOUS
 62
     2
  2
UC_LAV_INSTALLATION_BL1
 70
     0
 10
16.696469026500001
 20
8.0803590776000007
 30
0.0
  3
UC_LAV_INSTALLATION_BL1
  1

  0
TEXT
  5
85D
  8
0
  6
CONTINUOUS
 62
     2
 10
17.458636013099991
 20
7.2746678175000001
 30
0.0
 40
0.1562499827
  1
WOOD
 41
0.8
  0
TEXT
  5
85E
  8
0
  6
CONTINUOUS
 62
     2
 10
17.333636027000001
 20
7.0402928434999987
 30
0.0
 40
0.1562499827
  1
MADERA
 41
0.8
  0
TEXT
  5
85F
  8
0
  6
CONTINUOUS
 62
     2
 10
17.458636013099991
 20
6.8059178695
 30
0.0
 40
0.1562499827
  1
BOIS
 41
0.8
  0
TEXT
  5
860
  8
0
  6
CONTINUOUS
 62
     2
 10
15.178954690899991
 20
8.0612894226999998
 30
0.0
 40
0.1562499827
  1
20/32"
 41
0.8
  0
TEXT
  5
861
  8
0
  6
CONTINUOUS
 62
     2
 10
15.178954690899991
 20
7.8269144487000002
 30
0.0
 40
0.1562499827
  1
16mm
 41
0.8
  0
TEXT
  5
862
  8
0
  6
CONTINUOUS
 62
     2
 10
14.24316851119999
 20
7.2603249719000003
 30
0.0
 40
0.1562499827
  1
MARBLE
 41
0.8
  0
TEXT
  5
863
  8
0
  6
CONTINUOUS
 62
     2
 10
14.24316851119999
 20
7.025949997899998
 30
0.0
 40
0.1562499827
  1
MÁRMOL
 41
0.8
  0
TEXT
  5
864
  8
0
  6
CONTINUOUS
 62
     2
 10
14.24316851119999
 20
6.7915750239000001
 30
0.0
 40
0.1562499827
  1
MARBRE
 41
0.9333333333
  0
TEXT
  5
865
  8
0
  6
CONTINUOUS
 62
     2
 10
15.371460247
 20
6.697704525599999
 30
0.0
 40
0.1562499827
  1
INSTALATION
 41
0.8
  0
TEXT
  5
866
  8
0
  6
CONTINUOUS
 62
     2
 10
15.371460247
 20
6.4633295515999993
 30
0.0
 40
0.1562499827
  1
INSTALACIÓN
 41
0.8
  0
TEXT
  5
867
  8
0
  6
CONTINUOUS
 62
     2
 10
15.371460247
 20
6.2289545775999979
 30
0.0
 40
0.1562499827
  1
INSTALLATION
 41
0.8
  0
TEXT
  5
868
  8
0
  6
CONTINUOUS
 62
     2
 10
17.600661300300001
 20
9.7755135949999996
 30
0.0
 40
0.1562499827
  1
SEALANT
 41
0.8
  0
TEXT
  5
869
  8
0
  6
CONTINUOUS
 62
     2
 10
17.600661300300001
 20
9.5411386209999982
 30
0.0
 40
0.1562499827
  1
SELLADOR
 41
0.8
  0
TEXT
  5
86A
  8
0
  6
CONTINUOUS
 62
     2
 10
17.600661300300001
 20
9.3067636470000004
 30
0.0
 40
0.1562499827
  1
MASTIC D'ÉCHANTÉITÉ
 41
0.8421052631999998
  0
TEXT
  5
86B
  8
0
  6
CONTINUOUS
 62
     2
 10
13.8059396989
 20
9.7657039346999994
 30
0.0
 40
0.1562499827
  1
SEALANT
 41
0.8
  0
TEXT
  5
86C
  8
0
  6
CONTINUOUS
 62
     2
 10
13.8059396989
 20
9.5313289606999998
 30
0.0
 40
0.1562499827
  1
SELLADOR
 41
0.8
  0
TEXT
  5
86D
  8
0
  6
CONTINUOUS
 62
     2
 10
13.8059396989
 20
9.2969539867000002
 30
0.0
 40
0.1562499827
  1
MASTIC D'ÉCHANTÉITÉ
 41
0.8
  0
TEXT
  5
86E
  8
0
  6
CONTINUOUS
 62
     2
 10
15.4378453749
 20
8.7678828759999998
 30
0.0
 40
0.1562499827
  1
%%c12/32"
 41
0.8761904762
  0
TEXT
  5
86F
  8
0
  6
CONTINUOUS
 62
     2
 10
15.4378453749
 20
8.5335079020000002
 30
0.0
 40
0.1562499827
  1
%%c10mm
 41
0.9066666666999999
  0
LINE
  5
870
  8
0
  6
CONTINUOUS
 62
     2
 10
14.0221106469
 20
7.3535198145000003
 30
0.0
 11
14.03041064599998
 21
7.3452198153999984
 31
0.0
  0
LINE
  5
871
  8
0
  6
CONTINUOUS
 62
     2
 10
13.911501004599989
 20
7.4446850643999989
 30
0.0
 11
13.9225610034
 21
7.4335850657
 31
0.0
  0
LINE
  5
872
  8
0
  6
CONTINUOUS
 62
     2
 10
14.0192974744
 20
7.3645047598999982
 30
0.0
 11
14.022097474100001
 21
7.3535247611000001
 31
0.0
  0
LINE
  5
873
  8
0
  6
CONTINUOUS
 62
     2
 10
14.0441970417
 20
7.3396270215000001
 30
0.0
 11
14.0469370414
 21
7.3286470227000002
 31
0.0
  0
LINE
  5
874
  8
0
  6
CONTINUOUS
 62
     2
 10
13.966800998499981
 20
7.4309050660000002
 30
0.0
 11
13.96956099819999
 21
7.4197850672000003
 31
0.0
  0
LINE
  5
875
  8
0
  6
CONTINUOUS
 62
     2
 10
13.875561008599989
 20
8.4159449567000006
 30
0.0
 11
13.875561008599989
 21
8.0078650020000008
 31
0.0
  0
LINE
  5
876
  8
0
  6
CONTINUOUS
 62
     2
 10
13.966800998499981
 20
7.4088050684000004
 30
0.0
 11
13.966800998499981
 21
7.3976850696999978
 31
0.0
  0
LINE
  5
877
  8
0
  6
CONTINUOUS
 62
     2
 10
14.024860992000001
 20
7.3948850699999982
 30
0.0
 11
14.024860992000001
 21
7.375605072099999
 31
0.0
  0
LINE
  5
878
  8
0
  6
CONTINUOUS
 62
     2
 10
14.2433009678
 20
7.6603850404999978
 30
0.0
 11
14.2433009678
 21
7.7211850338000003
 31
0.0
  0
LINE
  5
879
  8
0
  6
CONTINUOUS
 62
     2
 10
14.586140929700001
 20
8.6280449331999982
 30
0.0
 11
14.586140929700001
 21
8.2686649729999981
 31
0.0
  0
LINE
  5
87A
  8
0
  6
CONTINUOUS
 62
     2
 10
14.586140929700001
 20
8.2381449763999992
 30
0.0
 11
14.586140929700001
 21
7.9478650086
 31
0.0
  0
LINE
  5
87B
  8
0
  6
CONTINUOUS
 62
     2
 10
14.6248209255
 20
7.7211850338000003
 30
0.0
 11
14.6248209255
 21
7.6603850404999978
 31
0.0
  0
LINE
  5
87C
  8
0
  6
CONTINUOUS
 62
     2
 10
14.646920922999991
 20
7.6603850404999978
 30
0.0
 11
14.646920922999991
 21
8.191144981599999
 31
0.0
  0
LINE
  5
87D
  8
0
  6
CONTINUOUS
 62
     2
 10
14.67842835009999
 20
7.6341637659000003
 30
0.0
 11
14.67842835009999
 21
7.6199327288000003
 31
0.0
  0
LINE
  5
87E
  8
DEFAULT_1
  6
CENTER
 62
     2
 10
14.6870209186
 20
8.2900249707000011
 30
0.0
 11
14.6870209186
 21
7.4738448026999977
 31
0.0
  0
LINE
  5
87F
  8
0
  6
CONTINUOUS
 62
     2
 10
14.695613487099999
 20
7.6200689814999976
 30
0.0
 11
14.695613487099999
 21
7.6341637659000003
 31
0.0
  0
LINE
  5
880
  8
0
  6
CONTINUOUS
 62
     2
 10
14.7298609138
 20
7.6603850404999978
 30
0.0
 11
14.7298609138
 21
8.191144981599999
 31
0.0
  0
LINE
  5
881
  8
0
  6
CONTINUOUS
 62
     2
 10
14.751960911399999
 20
7.7211850338000003
 30
0.0
 11
14.751960911399999
 21
7.6603850404999978
 31
0.0
  0
LINE
  5
882
  8
0
  6
CONTINUOUS
 62
     2
 10
14.782420908000001
 20
8.6280449331999982
 30
0.0
 11
14.782420908000001
 21
8.2686649729999981
 31
0.0
  0
LINE
  5
883
  8
0
  6
CONTINUOUS
 62
     2
 10
14.782420908000001
 20
7.9478650086
 30
0.0
 11
14.782420908000001
 21
8.2381449763999992
 31
0.0
  0
LINE
  5
884
  8
0
  6
CONTINUOUS
 62
     2
 10
13.96956099819999
 20
7.4197850672000003
 30
0.0
 11
13.966800998499981
 21
7.4088050684000004
 31
0.0
  0
LINE
  5
885
  8
0
  6
CONTINUOUS
 62
     2
 10
14.067657703699981
 20
7.8770984492999983
 30
0.0
 11
14.056996812399991
 21
7.847804524599999
 31
0.0
  0
LINE
  5
886
  8
0
  6
CONTINUOUS
 62
     2
 10
14.0652464512
 20
7.8661857718999979
 30
0.0
 11
13.90647465
 21
7.4309050660000002
 31
0.0
  0
LINE
  5
887
  8
0
  6
CONTINUOUS
 62
     2
 10
13.9225610034
 20
7.4335850657
 30
0.0
 11
13.936341001800001
 21
7.4309050660000002
 31
0.0
  0
LINE
  5
888
  8
0
  6
CONTINUOUS
 62
     2
 10
14.013800993199981
 20
7.3976850696999978
 30
0.0
 11
14.024860992000001
 21
7.3948850699999982
 31
0.0
  0
LINE
  5
889
  8
0
  6
CONTINUOUS
 62
     2
 10
14.03041064599998
 20
7.3452198153999984
 30
0.0
 11
14.0442106444
 21
7.3395998159999989
 31
0.0
  0
LINE
  5
88A
  8
0
  6
CONTINUOUS
 62
     2
 10
13.966800998499981
 20
7.3976850696999978
 30
0.0
 11
13.977860997200001
 21
7.3922050702999984
 31
0.0
  0
LINE
  5
88B
  8
0
  6
CONTINUOUS
 62
     2
 10
14.967660887399999
 20
8.1054649910999998
 30
0.0
 11
14.95936088829999
 21
8.1137649901999982
 31
0.0
  0
LINE
  5
88C
  8
0
  6
CONTINUOUS
 62
     2
 10
15.020160881600001
 20
7.9478650086
 30
0.0
 11
14.9925008847
 21
7.9921850037000004
 31
0.0
  0
LINE
  5
88D
  8
0
  6
CONTINUOUS
 62
     2
 10
14.975960886499999
 20
8.0805649938999977
 30
0.0
 11
14.9704008871
 21
8.0916649927000002
 31
0.0
  0
LINE
  5
88E
  8
0
  6
CONTINUOUS
 62
     2
 10
14.95936088829999
 20
8.1137649901999982
 30
0.0
 11
14.951060889300001
 21
8.1358449878000005
 31
0.0
  0
LINE
  5
88F
  8
0
  6
CONTINUOUS
 62
     2
 10
14.7298609138
 20
8.191144981599999
 30
0.0
 11
14.716080915299999
 21
8.2381449763999992
 31
0.0
  0
LINE
  5
890
  8
0
  6
CONTINUOUS
 62
     2
 10
14.9925008847
 20
7.9921850037000004
 30
0.0
 11
14.98146088589999
 21
8.0391649985000004
 31
0.0
  0
LINE
  5
891
  8
0
  6
CONTINUOUS
 62
     2
 10
14.9704008871
 20
8.0916649927000002
 30
0.0
 11
14.967660887399999
 21
8.1054649910999998
 31
0.0
  0
LINE
  5
892
  8
0
  6
CONTINUOUS
 62
     2
 10
14.98146088589999
 20
8.0501649972999978
 30
0.0
 11
14.975960886499999
 21
8.0805649938999977
 31
0.0
  0
LINE
  5
893
  8
0
  6
CONTINUOUS
 62
     2
 10
14.8957608954
 20
7.7711850281999979
 30
0.0
 11
14.8957608954
 21
7.9478650086
 31
0.0
  0
LINE
  5
894
  8
0
  6
CONTINUOUS
 62
     2
 10
14.9566208886
 20
7.9478650086
 30
0.0
 11
14.9566208886
 21
7.7603850294000001
 31
0.0
  0
LINE
  5
895
  8
0
  6
CONTINUOUS
 62
     2
 10
14.9787008862
 20
8.2326449769999979
 30
0.0
 11
14.9787008862
 21
8.2437649757999978
 31
0.0
  0
LINE
  5
896
  8
0
  6
CONTINUOUS
 62
     2
 10
14.98146088589999
 20
8.0391649985000004
 30
0.0
 11
14.98146088589999
 21
8.0501649972999978
 31
0.0
  0
LINE
  5
897
  8
0
  6
CONTINUOUS
 62
     2
 10
15.000800883699981
 20
8.3017449694000014
 30
0.0
 11
15.000800883699981
 21
8.4151449567999972
 31
0.0
  0
LINE
  5
898
  8
0
  6
CONTINUOUS
 62
     2
 10
15.014660882199999
 20
8.4483449530999977
 30
0.0
 11
15.014660882199999
 21
8.4649449512999961
 31
0.0
  0
LINE
  5
899
  8
0
  6
CONTINUOUS
 62
     2
 10
15.1003608727
 20
8.2409649761000008
 30
0.0
 11
15.1003608727
 21
7.9506650082999979
 31
0.0
  0
LINE
  5
89A
  8
0
  6
CONTINUOUS
 62
     2
 10
14.951060889300001
 20
8.1358449878000005
 30
0.0
 11
14.9566208886
 21
8.1773649832000004
 31
0.0
  0
LINE
  5
89B
  8
0
  6
CONTINUOUS
 62
     2
 10
15.000800883699981
 20
8.4151449567999972
 30
0.0
 11
15.0036208834
 21
8.4261449555999999
 31
0.0
  0
LINE
  5
89C
  8
0
  6
CONTINUOUS
 62
     2
 10
14.646920922999991
 20
8.191144981599999
 30
0.0
 11
14.660780921500001
 21
8.2381449763999992
 31
0.0
  0
LINE
  5
89D
  8
DEFAULT_3
  6
PHANTOM
 62
     2
 10
14.0469370414
 20
7.3286606253999977
 30
0.0
 11
14.1749028221
 21
7.6791880560000001
 31
0.0
  0
LINE
  5
89E
  8
0
  6
CONTINUOUS
 62
     2
 10
14.9787008862
 20
8.2437649757999978
 30
0.0
 11
15.000800883699981
 21
8.3017449694000014
 31
0.0
  0
LINE
  5
89F
  8
0
  6
CONTINUOUS
 62
     2
 10
14.9566208886
 20
8.1773649832000004
 30
0.0
 11
14.9787008862
 21
8.2326449769999979
 31
0.0
  0
LINE
  5
8A0
  8
0
  6
CONTINUOUS
 62
     2
 10
15.0036208834
 20
8.4261449555999999
 30
0.0
 11
15.014660882199999
 21
8.4483449530999977
 31
0.0
  0
LINE
  5
8A1
  8
0
  6
CONTINUOUS
 62
     2
 10
14.024860992000001
 20
7.375605072099999
 30
0.0
 11
14.0193009926
 21
7.3644850733
 31
0.0
  0
LINE
  5
8A2
  8
0
  6
CONTINUOUS
 62
     2
 10
15.014660882199999
 20
8.4649449512999961
 30
0.0
 11
15.020160881600001
 21
8.4759449500000006
 31
0.0
  0
LINE
  5
8A3
  8
DEFAULT_3
  6
PHANTOM
 62
     2
 10
14.50407726319999
 20
7.9015820952999984
 30
0.0
 11
14.429938373800001
 21
7.7542191930999982
 31
0.0
  0
LINE
  5
8A4
  8
0
  6
CONTINUOUS
 62
     2
 10
13.977860997200001
 20
7.3922050702999984
 30
0.0
 11
14.002760994499999
 21
7.3922050702999984
 31
0.0
  0
LINE
  5
8A5
  8
0
  6
CONTINUOUS
 62
     2
 10
16.916494643299998
 20
7.4286743579999976
 30
0.0
 11
16.941334640499999
 21
7.4286743579999976
 31
0.0
  0
LINE
  5
8A6
  8
0
  6
CONTINUOUS
 62
     2
 10
13.936341001800001
 20
7.4309050660000002
 30
0.0
 11
13.966800998499981
 21
7.4309050660000002
 31
0.0
  0
LINE
  5
8A7
  8
0
  6
CONTINUOUS
 62
     2
 10
16.874994647899999
 20
7.4673743538000004
 30
0.0
 11
16.905454644500001
 21
7.4673743538000004
 31
0.0
  0
LINE
  5
8A8
  8
0
  6
CONTINUOUS
 62
     2
 10
17.6170819962
 20
7.670562424699999
 30
0.0
 11
17.634267133199991
 21
7.670562424699999
 31
0.0
  0
LINE
  5
8A9
  8
0
  6
CONTINUOUS
 62
     2
 10
14.67842835009999
 20
7.6341637659000003
 30
0.0
 11
14.695613487099999
 21
7.6341637659000003
 31
0.0
  0
LINE
  5
8AA
  8
0
  6
CONTINUOUS
 62
     2
 10
14.856620899699999
 20
7.6603850404999978
 30
0.0
 11
14.2433009678
 21
7.6603850404999978
 31
0.0
  0
LINE
  5
8AB
  8
0
  6
CONTINUOUS
 62
     2
 10
17.181874613800002
 20
7.6968543282999979
 30
0.0
 11
17.785194546900001
 21
7.6968543282999979
 31
0.0
  0
LINE
  5
8AC
  8
0
  6
CONTINUOUS
 62
     2
 10
14.6621209213
 20
7.667225039799999
 30
0.0
 11
14.71326091559999
 21
7.667225039799999
 31
0.0
  0
LINE
  5
8AD
  8
0
  6
CONTINUOUS
 62
     2
 10
14.646920922999991
 20
7.6838250378999984
 30
0.0
 11
14.7298609138
 21
7.6838250378999984
 31
0.0
  0
LINE
  5
8AE
  8
0
  6
CONTINUOUS
 62
     2
 10
14.6621209213
 20
7.7017650359000003
 30
0.0
 11
14.71326091559999
 21
7.7017650359000003
 31
0.0
  0
LINE
  5
8AF
  8
0
  6
CONTINUOUS
 62
     2
 10
17.784414547000001
 20
7.7576543214999978
 30
0.0
 11
17.6685145599
 21
7.7576543214999978
 31
0.0
  0
LINE
  5
8B0
  8
0
  6
CONTINUOUS
 62
     2
 10
14.235025883499979
 20
7.7211850338000003
 30
0.0
 11
14.8457609009
 21
7.7211850338000003
 31
0.0
  0
LINE
  5
8B1
  8
DEFAULT_3
  6
PHANTOM
 62
     2
 10
17.174290961600001
 20
7.7576543214999978
 30
0.0
 11
17.314993111300002
 21
7.7576543214999978
 31
0.0
  0
LINE
  5
8B2
  8
0
  6
CONTINUOUS
 62
     2
 10
14.6621209213
 20
7.7377850318999979
 30
0.0
 11
14.71326091559999
 21
7.7377850318999979
 31
0.0
  0
LINE
  5
8B3
  8
0
  6
CONTINUOUS
 62
     2
 10
14.7298609138
 20
7.7570650297999979
 30
0.0
 11
14.646920922999991
 21
7.7570650297999979
 31
0.0
  0
LINE
  5
8B4
  8
0
  6
CONTINUOUS
 62
     2
 10
14.6621209213
 20
7.773665027899999
 30
0.0
 11
14.71326091559999
 21
7.773665027899999
 31
0.0
  0
LINE
  5
8B5
  8
0
  6
CONTINUOUS
 62
     2
 10
14.646920922999991
 20
7.791605026
 30
0.0
 11
14.7298609138
 21
7.791605026
 31
0.0
  0
LINE
  5
8B6
  8
0
  6
CONTINUOUS
 62
     2
 10
14.6621209213
 20
7.8096850239000002
 30
0.0
 11
14.71326091559999
 21
7.8096850239000002
 31
0.0
  0
LINE
  5
8B7
  8
0
  6
CONTINUOUS
 62
     2
 10
14.646920922999991
 20
7.8276250220000003
 30
0.0
 11
14.7298609138
 21
7.8276250220000003
 31
0.0
  0
LINE
  5
8B8
  8
0
  6
CONTINUOUS
 62
     2
 10
17.5855745691
 20
7.8640943096999978
 30
0.0
 11
17.6685145599
 21
7.8640943096999978
 31
0.0
  0
LINE
  5
8B9
  8
0
  6
CONTINUOUS
 62
     2
 10
14.6621209213
 20
7.8442250200999988
 30
0.0
 11
14.71326091559999
 21
7.8442250200999988
 31
0.0
  0
LINE
  5
8BA
  8
0
  6
CONTINUOUS
 62
     2
 10
17.600754567399999
 20
7.8806943078999989
 30
0.0
 11
17.6519145617
 21
7.8806943078999989
 31
0.0
  0
LINE
  5
8BB
  8
0
  6
CONTINUOUS
 62
     2
 10
14.646920922999991
 20
7.8649850177999978
 30
0.0
 11
14.7298609138
 21
7.8649850177999978
 31
0.0
  0
LINE
  5
8BC
  8
0
  6
CONTINUOUS
 62
     2
 10
17.5855745691
 20
7.9014543055999988
 30
0.0
 11
17.6685145599
 21
7.9014543055999988
 31
0.0
  0
LINE
  5
8BD
  8
0
  6
CONTINUOUS
 62
     2
 10
14.6621209213
 20
7.8815850159999989
 30
0.0
 11
14.71326091559999
 21
7.8815850159999989
 31
0.0
  0
LINE
  5
8BE
  8
0
  6
CONTINUOUS
 62
     2
 10
17.600754567399999
 20
7.9180543037999982
 30
0.0
 11
17.6519145617
 21
7.9180543037999982
 31
0.0
  0
LINE
  5
8BF
  8
0
  6
CONTINUOUS
 62
     2
 10
14.646920922999991
 20
7.9008650137999989
 30
0.0
 11
14.7298609138
 21
7.9008650137999989
 31
0.0
  0
LINE
  5
8C0
  8
0
  6
CONTINUOUS
 62
     2
 10
17.5855745691
 20
7.9373343015999982
 30
0.0
 11
17.6685145599
 21
7.9373343015999982
 31
0.0
  0
LINE
  5
8C1
  8
0
  6
CONTINUOUS
 62
     2
 10
14.6621209213
 20
7.9174650120000001
 30
0.0
 11
14.71326091559999
 21
7.9174650120000001
 31
0.0
  0
LINE
  5
8C2
  8
0
  6
CONTINUOUS
 62
     2
 10
17.600754567399999
 20
7.9539342998000002
 30
0.0
 11
17.6519145617
 21
7.9539342998000002
 31
0.0
  0
LINE
  5
8C3
  8
0
  6
CONTINUOUS
 62
     2
 10
14.646920922999991
 20
7.9368850098000001
 30
0.0
 11
14.7298609138
 21
7.9368850098000001
 31
0.0
  0
LINE
  5
8C4
  8
0
  6
CONTINUOUS
 62
     2
 10
17.5855745691
 20
7.9733542976000003
 30
0.0
 11
17.6685145599
 21
7.9733542976000003
 31
0.0
  0
LINE
  5
8C5
  8
DEFAULT_3
  6
PHANTOM
 62
     2
 10
14.0055009942
 20
7.9450650088999977
 30
0.0
 11
14.646920922999991
 21
7.9450650088999977
 31
0.0
  0
LINE
  5
8C6
  8
DEFAULT_3
  6
PHANTOM
 62
     2
 10
16.944934640100001
 20
7.9815342966999978
 30
0.0
 11
17.119074620799999
 21
7.9815342966999978
 31
0.0
  0
LINE
  5
8C7
  8
DEFAULT_3
  6
PHANTOM
 62
     2
 10
17.120133105400001
 20
7.9815342966999978
 30
0.0
 11
17.415931454999981
 21
7.9815342966999978
 31
0.0
  0
LINE
  5
8C8
  8
0
  6
CONTINUOUS
 62
     2
 10
14.7298609138
 20
7.9478650086
 30
0.0
 11
15.020160881600001
 21
7.9478650086
 31
0.0
  0
LINE
  5
8C9
  8
DEFAULT_3
  6
PHANTOM
 62
     2
 10
16.814194654600001
 20
7.9843342964000001
 30
0.0
 11
17.5855745691
 21
7.9843342964000001
 31
0.0
  0
LINE
  5
8CA
  8
DEFAULT_3
  6
PHANTOM
 62
     2
 10
17.6685145599
 20
7.9843342964000001
 30
0.0
 11
17.834414541499999
 21
7.9843342964000001
 31
0.0
  0
LINE
  5
8CB
  8
0
  6
CONTINUOUS
 62
     2
 10
15.0395008795
 20
7.9506650082999979
 30
0.0
 11
15.147340867500001
 21
7.9506650082999979
 31
0.0
  0
LINE
  5
8CC
  8
0
  6
CONTINUOUS
 62
     2
 10
14.6621209213
 20
7.9548250077999976
 30
0.0
 11
14.71326091559999
 21
7.9548250077999976
 31
0.0
  0
LINE
  5
8CD
  8
0
  6
CONTINUOUS
 62
     2
 10
17.600754567399999
 20
7.9912942955999977
 30
0.0
 11
17.6519145617
 21
7.9912942955999977
 31
0.0
  0
LINE
  5
8CE
  8
0
  6
CONTINUOUS
 62
     2
 10
14.646920922999991
 20
7.9727650059000004
 30
0.0
 11
14.7298609138
 21
7.9727650059000004
 31
0.0
  0
LINE
  5
8CF
  8
0
  6
CONTINUOUS
 62
     2
 10
17.5855745691
 20
8.0092342936000005
 30
0.0
 11
17.6685145599
 21
8.0092342936000005
 31
0.0
  0
LINE
  5
8D0
  8
0
  6
CONTINUOUS
 62
     2
 10
14.6621209213
 20
7.9921850037000004
 30
0.0
 11
14.71326091559999
 21
7.9921850037000004
 31
0.0
  0
LINE
  5
8D1
  8
0
  6
CONTINUOUS
 62
     2
 10
17.600754567399999
 20
8.0286542915000005
 30
0.0
 11
17.6519145617
 21
8.0286542915000005
 31
0.0
  0
LINE
  5
8D2
  8
0
  6
CONTINUOUS
 62
     2
 10
14.646920922999991
 20
8.0114650015999977
 30
0.0
 11
14.7298609138
 21
8.0114650015999977
 31
0.0
  0
LINE
  5
8D3
  8
0
  6
CONTINUOUS
 62
     2
 10
17.5855745691
 20
8.0479342893000005
 30
0.0
 11
17.6685145599
 21
8.0479342893000005
 31
0.0
  0
LINE
  5
8D4
  8
0
  6
CONTINUOUS
 62
     2
 10
14.6621209213
 20
8.0280649996999998
 30
0.0
 11
14.71326091559999
 21
8.0280649996999998
 31
0.0
  0
LINE
  5
8D5
  8
0
  6
CONTINUOUS
 62
     2
 10
17.600754567399999
 20
8.0645342875000008
 30
0.0
 11
17.6519145617
 21
8.0645342875000008
 31
0.0
  0
LINE
  5
8D6
  8
0
  6
CONTINUOUS
 62
     2
 10
14.646920922999991
 20
8.0474649976000006
 30
0.0
 11
14.7298609138
 21
8.0474649976000006
 31
0.0
  0
LINE
  5
8D7
  8
0
  6
CONTINUOUS
 62
     2
 10
17.5855745691
 20
8.0839342852999998
 30
0.0
 11
17.6685145599
 21
8.0839342852999998
 31
0.0
  0
LINE
  5
8D8
  8
0
  6
CONTINUOUS
 62
     2
 10
14.6621209213
 20
8.0639449957
 30
0.0
 11
14.71326091559999
 21
8.0639449957
 31
0.0
  0
LINE
  5
8D9
  8
0
  6
CONTINUOUS
 62
     2
 10
17.600754567399999
 20
8.100414283500001
 30
0.0
 11
17.6519145617
 21
8.100414283500001
 31
0.0
  0
LINE
  5
8DA
  8
0
  6
CONTINUOUS
 62
     2
 10
14.646920922999991
 20
8.0820249936999993
 30
0.0
 11
14.7298609138
 21
8.0820249936999993
 31
0.0
  0
LINE
  5
8DB
  8
0
  6
CONTINUOUS
 62
     2
 10
17.5855745691
 20
8.1184942815000003
 30
0.0
 11
17.6685145599
 21
8.1184942815000003
 31
0.0
  0
LINE
  5
8DC
  8
0
  6
CONTINUOUS
 62
     2
 10
14.6621209213
 20
8.0999649917000003
 30
0.0
 11
14.71326091559999
 21
8.0999649917000003
 31
0.0
  0
LINE
  5
8DD
  8
0
  6
CONTINUOUS
 62
     2
 10
17.600754567399999
 20
8.1364342795000013
 30
0.0
 11
17.6519145617
 21
8.1364342795000013
 31
0.0
  0
LINE
  5
8DE
  8
0
  6
CONTINUOUS
 62
     2
 10
14.646920922999991
 20
8.1179049897999978
 30
0.0
 11
14.7298609138
 21
8.1179049897999978
 31
0.0
  0
LINE
  5
8DF
  8
0
  6
CONTINUOUS
 62
     2
 10
17.5855745691
 20
8.1543742775000005
 30
0.0
 11
17.6685145599
 21
8.1543742775000005
 31
0.0
  0
LINE
  5
8E0
  8
0
  6
CONTINUOUS
 62
     2
 10
14.6621209213
 20
8.1358449878000005
 30
0.0
 11
14.71326091559999
 21
8.1358449878000005
 31
0.0
  0
LINE
  5
8E1
  8
0
  6
CONTINUOUS
 62
     2
 10
17.600754567399999
 20
8.1723142754999998
 30
0.0
 11
17.6519145617
 21
8.1723142754999998
 31
0.0
  0
LINE
  5
8E2
  8
0
  6
CONTINUOUS
 62
     2
 10
14.646920922999991
 20
8.1552649856000006
 30
0.0
 11
14.7298609138
 21
8.1552649856000006
 31
0.0
  0
LINE
  5
8E3
  8
0
  6
CONTINUOUS
 62
     2
 10
17.5855745691
 20
8.1917342733999998
 30
0.0
 11
17.6685145599
 21
8.1917342733999998
 31
0.0
  0
LINE
  5
8E4
  8
0
  6
CONTINUOUS
 62
     2
 10
14.6621209213
 20
8.1732049835999998
 30
0.0
 11
14.71326091559999
 21
8.1732049835999998
 31
0.0
  0
LINE
  5
8E5
  8
0
  6
CONTINUOUS
 62
     2
 10
17.600754567399999
 20
8.2096742713999991
 30
0.0
 11
17.6519145617
 21
8.2096742713999991
 31
0.0
  0
LINE
  5
8E6
  8
0
  6
CONTINUOUS
 62
     2
 10
17.6685145599
 20
8.2276142694000001
 30
0.0
 11
17.5855745691
 21
8.2276142694000001
 31
0.0
  0
LINE
  5
8E7
  8
0
  6
CONTINUOUS
 62
     2
 10
14.7298609138
 20
8.191144981599999
 30
0.0
 11
14.646920922999991
 21
8.191144981599999
 31
0.0
  0
LINE
  5
8E8
  8
0
  6
CONTINUOUS
 62
     2
 10
14.782420908000001
 20
8.2381449763999992
 30
0.0
 11
14.586140929700001
 21
8.2381449763999992
 31
0.0
  0
LINE
  5
8E9
  8
0
  6
CONTINUOUS
 62
     2
 10
14.81556090429998
 20
8.2409649761000008
 30
0.0
 11
15.1529008669
 21
8.2409649761000008
 31
0.0
  0
LINE
  5
8EA
  8
DEFAULT_3
  6
PHANTOM
 62
     2
 10
17.9587945277
 20
8.5124142377999998
 30
0.0
 11
16.814194654600001
 21
8.5124142377999998
 31
0.0
  0
LINE
  5
8EB
  8
DEFAULT_3
  6
PHANTOM
 62
     2
 10
15.020160881600001
 20
8.4759449500000006
 30
0.0
 11
13.9355610019
 21
8.4759449500000006
 31
0.0
  0
LINE
  5
8EC
  8
0
  6
CONTINUOUS
 62
     2
 10
16.861194649400002
 20
7.4700543535000001
 30
0.0
 11
16.874994647899999
 21
7.4673743538000004
 31
0.0
  0
LINE
  5
8ED
  8
0
  6
CONTINUOUS
 62
     2
 10
16.952454639300001
 20
7.4341543573999989
 30
0.0
 11
16.963494638099991
 21
7.4313543577000001
 31
0.0
  0
LINE
  5
8EE
  8
0
  6
CONTINUOUS
 62
     2
 10
16.9689946375
 20
7.3816743633000002
 30
0.0
 11
16.982834635899991
 21
7.3760543638999989
 31
0.0
  0
LINE
  5
8EF
  8
0
  6
CONTINUOUS
 62
     2
 10
16.905454644500001
 20
7.4341543573999989
 30
0.0
 11
16.916494643299998
 21
7.4286743579999976
 31
0.0
  0
LINE
  5
8F0
  8
0
  6
CONTINUOUS
 62
     2
 10
16.8501546506
 20
7.481154352199999
 30
0.0
 11
16.861194649400002
 21
7.4700543535000001
 31
0.0
  0
LINE
  5
8F1
  8
0
  6
CONTINUOUS
 62
     2
 10
16.96075463839999
 20
7.3899743623000003
 30
0.0
 11
16.9689946375
 21
7.3816743633000002
 31
0.0
  0
LINE
  5
8F2
  8
DEFAULT_3
  6
PHANTOM
 62
     2
 10
16.814194654600001
 20
8.5124142377999998
 30
0.0
 11
16.814194654600001
 21
7.9843342964000001
 31
0.0
  0
LINE
  5
8F3
  8
0
  6
CONTINUOUS
 62
     2
 10
16.905454644500001
 20
7.4452743561999988
 30
0.0
 11
16.905454644500001
 21
7.4341543573999989
 31
0.0
  0
LINE
  5
8F4
  8
0
  6
CONTINUOUS
 62
     2
 10
16.963494638099991
 20
7.4313543577000001
 30
0.0
 11
16.963494638099991
 21
7.4120743599000001
 31
0.0
  0
LINE
  5
8F5
  8
0
  6
CONTINUOUS
 62
     2
 10
17.181874613800002
 20
7.7576543214999978
 30
0.0
 11
17.181874613800002
 21
7.6968543282999979
 31
0.0
  0
LINE
  5
8F6
  8
0
  6
CONTINUOUS
 62
     2
 10
14.5149009377
 20
7.6629450401999977
 30
0.0
 11
14.583320930099999
 21
7.7202050339000001
 31
0.0
  0
LINE
  5
8F7
  8
0
  6
CONTINUOUS
 62
     2
 10
14.286820963
 20
7.661245040399999
 30
0.0
 11
14.357300955099999
 21
7.7202050339000001
 31
0.0
  0
LINE
  5
8F8
  8
0
  6
CONTINUOUS
 62
     2
 10
14.751960911399999
 20
7.6747850388999979
 30
0.0
 11
14.801760905799981
 21
7.7164250342999976
 31
0.0
  0
LINE
  5
8F9
  8
0
  6
CONTINUOUS
 62
     2
 10
14.8550008999
 20
7.6657650399000001
 30
0.0
 11
14.9545408889
 21
7.7490050307000002
 31
0.0
  0
LINE
  5
8FA
  8
0
  6
CONTINUOUS
 62
     2
 10
14.4070609496
 20
7.6623450402999982
 30
0.0
 11
14.4776009418
 21
7.7213050338000002
 31
0.0
  0
LINE
  5
8FB
  8
0
  6
CONTINUOUS
 62
     2
 10
14.8957608954
 20
7.8901250149999989
 30
0.0
 11
14.9566208886
 21
7.9409050093999989
 31
0.0
  0
LINE
  5
8FC
  8
0
  6
CONTINUOUS
 62
     2
 10
14.8957608954
 20
7.7950250255999984
 30
0.0
 11
14.9566208886
 21
7.8458050199000002
 31
0.0
  0
LINE
  5
8FD
  8
0
  6
CONTINUOUS
 62
     2
 10
14.5888809294
 20
8.5865449377999976
 30
0.0
 11
15.38862084069998
 21
8.5865449377999976
 31
0.0
  0
LINE
  5
8FE
  8
0
  6
CONTINUOUS
 62
     2
 10
17.906314533499991
 20
8.1419342788999991
 30
0.0
 11
17.897994534399999
 21
8.1502342779999992
 31
0.0
  0
LINE
  5
8FF
  8
0
  6
CONTINUOUS
 62
     2
 10
17.626454564500001
 20
8.2746142642000002
 30
0.0
 11
17.6685145599
 21
8.2276142694000001
 31
0.0
  0
LINE
  5
900
  8
0
  6
CONTINUOUS
 62
     2
 10
17.9587945277
 20
7.9843342964000001
 30
0.0
 11
17.931154530699992
 21
8.0286542915000005
 31
0.0
  0
LINE
  5
901
  8
0
  6
CONTINUOUS
 62
     2
 10
17.914614532599991
 20
8.1170342816999987
 30
0.0
 11
17.909054533199981
 21
8.1281342803999976
 31
0.0
  0
LINE
  5
902
  8
0
  6
CONTINUOUS
 62
     2
 10
16.957934638699999
 20
7.4009543611000002
 30
0.0
 11
16.96075463839999
 21
7.3899743623000003
 31
0.0
  0
LINE
  5
903
  8
0
  6
CONTINUOUS
 62
     2
 10
16.982834635899991
 20
7.3760543638999989
 30
0.0
 11
16.985594635599991
 21
7.365074365099999
 31
0.0
  0
LINE
  5
904
  8
0
  6
CONTINUOUS
 62
     2
 10
16.905454644500001
 20
7.4673743538000004
 30
0.0
 11
16.908194644200002
 21
7.4562543549999978
 31
0.0
  0
LINE
  5
905
  8
0
  6
CONTINUOUS
 62
     2
 10
17.563474571499999
 20
7.7576543214999978
 30
0.0
 11
17.563474571499999
 21
7.6968543282999979
 31
0.0
  0
LINE
  5
906
  8
0
  6
CONTINUOUS
 62
     2
 10
17.5855745691
 20
7.6968543282999979
 30
0.0
 11
17.5855745691
 21
8.2276142694000001
 31
0.0
  0
LINE
  5
907
  8
0
  6
CONTINUOUS
 62
     2
 10
17.6170819962
 20
7.670562424699999
 30
0.0
 11
17.6170819962
 21
7.6563313874999981
 31
0.0
  0
LINE
  5
908
  8
DEFAULT_1
  6
CENTER
 62
     2
 10
17.625674564600001
 20
8.3976822606999981
 30
0.0
 11
17.625674564600001
 21
7.5176800087000002
 31
0.0
  0
LINE
  5
909
  8
0
  6
CONTINUOUS
 62
     2
 10
17.634267133199991
 20
7.6564676401999989
 30
0.0
 11
17.634267133199991
 21
7.670562424699999
 31
0.0
  0
LINE
  5
90A
  8
0
  6
CONTINUOUS
 62
     2
 10
17.6685145599
 20
8.2276142694000001
 30
0.0
 11
17.6685145599
 21
7.6968543282999979
 31
0.0
  0
LINE
  5
90B
  8
0
  6
CONTINUOUS
 62
     2
 10
17.6906145574
 20
7.7576543214999978
 30
0.0
 11
17.6906145574
 21
7.6968543282999979
 31
0.0
  0
LINE
  5
90C
  8
0
  6
CONTINUOUS
 62
     2
 10
17.834414541499999
 20
7.9843342964000001
 30
0.0
 11
17.834414541499999
 21
7.8076543159999989
 31
0.0
  0
LINE
  5
90D
  8
0
  6
CONTINUOUS
 62
     2
 10
17.8951945347
 20
7.806854316099999
 30
0.0
 11
17.8951945347
 21
7.9843342964000001
 31
0.0
  0
LINE
  5
90E
  8
0
  6
CONTINUOUS
 62
     2
 10
17.920094531899991
 20
8.0756342862999961
 30
0.0
 11
17.920094531899991
 21
8.0866342851000006
 31
0.0
  0
LINE
  5
90F
  8
0
  6
CONTINUOUS
 62
     2
 10
17.939454529799999
 20
8.3382142571000006
 30
0.0
 11
17.939454529799999
 21
8.4073142495000006
 31
0.0
  0
LINE
  5
910
  8
0
  6
CONTINUOUS
 62
     2
 10
17.939454529799999
 20
8.4295342470000012
 30
0.0
 11
17.939454529799999
 21
8.4516142445999982
 31
0.0
  0
LINE
  5
911
  8
0
  6
CONTINUOUS
 62
     2
 10
17.953294528299988
 20
8.4848142409000005
 30
0.0
 11
17.953294528299988
 21
8.5014142389999972
 31
0.0
  0
LINE
  5
912
  8
0
  6
CONTINUOUS
 62
     2
 10
16.908194644200002
 20
7.4562543549999978
 30
0.0
 11
16.905454644500001
 21
7.4452743561999988
 31
0.0
  0
LINE
  5
913
  8
0
  6
CONTINUOUS
 62
     2
 10
17.939454529799999
 20
8.4073142495000006
 30
0.0
 11
17.942254529500001
 21
8.4184142482000013
 31
0.0
  0
LINE
  5
914
  8
0
  6
CONTINUOUS
 62
     2
 10
17.939454529799999
 20
8.4516142445999982
 30
0.0
 11
17.942254529500001
 21
8.4626142432999991
 31
0.0
  0
LINE
  5
915
  8
0
  6
CONTINUOUS
 62
     2
 10
17.889694535299999
 20
8.1723142754999998
 30
0.0
 11
17.917354532299999
 21
8.2802342636000006
 31
0.0
  0
LINE
  5
916
  8
DEFAULT_3
  6
PHANTOM
 62
     2
 10
17.008534633099991
 20
7.9180543037999982
 30
0.0
 11
16.9926746348
 21
7.8744743085999982
 31
0.0
  0
LINE
  5
917
  8
DEFAULT_3
  6
PHANTOM
 62
     2
 10
17.002701273299991
 20
7.8993684247999978
 30
0.0
 11
16.8501546506
 21
7.481154352199999
 31
0.0
  0
LINE
  5
918
  8
DEFAULT_3
  6
PHANTOM
 62
     2
 10
16.985594635599991
 20
7.365074365099999
 30
0.0
 11
17.113227537899999
 21
7.7149311632000002
 31
0.0
  0
LINE
  5
919
  8
0
  6
CONTINUOUS
 62
     2
 10
17.917354532299999
 20
8.2802342636000006
 30
0.0
 11
17.939454529799999
 21
8.3382142571000006
 31
0.0
  0
LINE
  5
91A
  8
0
  6
CONTINUOUS
 62
     2
 10
17.942254529500001
 20
8.4626142432999991
 30
0.0
 11
17.953294528299988
 21
8.4848142409000005
 31
0.0
  0
LINE
  5
91B
  8
0
  6
CONTINUOUS
 62
     2
 10
16.963494638099991
 20
7.4120743599000001
 30
0.0
 11
16.957934638699999
 21
7.4009543611000002
 31
0.0
  0
LINE
  5
91C
  8
DEFAULT_3
  6
PHANTOM
 62
     2
 10
17.953294528299988
 20
8.5014142389999972
 30
0.0
 11
17.9587945277
 21
8.5124142377999998
 31
0.0
  0
LINE
  5
91D
  8
DEFAULT_3
  6
PHANTOM
 62
     2
 10
17.442730909200002
 20
7.9380513829999977
 30
0.0
 11
17.368592019800001
 21
7.7906884809000001
 31
0.0
  0
LINE
  5
91E
  8
0
  6
CONTINUOUS
 62
     2
 10
17.5855745691
 20
8.2276142694000001
 30
0.0
 11
17.626454564500001
 21
8.2746142642000002
 31
0.0
  0
LINE
  5
91F
  8
0
  6
CONTINUOUS
 62
     2
 10
14.002760994499999
 20
7.3922050702999984
 30
0.0
 11
14.013800993199981
 21
7.3976850696999978
 31
0.0
  0
LINE
  5
920
  8
0
  6
CONTINUOUS
 62
     2
 10
17.897994534399999
 20
8.1502342779999992
 30
0.0
 11
17.889694535299999
 21
8.1723142754999998
 31
0.0
  0
LINE
  5
921
  8
0
  6
CONTINUOUS
 62
     2
 10
17.942254529500001
 20
8.4184142482000013
 30
0.0
 11
17.939454529799999
 21
8.4295342470000012
 31
0.0
  0
LINE
  5
922
  8
0
  6
CONTINUOUS
 62
     2
 10
17.931154530699992
 20
8.0286542915000005
 30
0.0
 11
17.920094531899991
 21
8.0756342862999961
 31
0.0
  0
LINE
  5
923
  8
0
  6
CONTINUOUS
 62
     2
 10
17.909054533199981
 20
8.1281342803999976
 30
0.0
 11
17.906314533499991
 21
8.1419342788999991
 31
0.0
  0
LINE
  5
924
  8
0
  6
CONTINUOUS
 62
     2
 10
17.920094531899991
 20
8.0866342851000006
 30
0.0
 11
17.914614532599991
 21
8.1170342816999987
 31
0.0
  0
LINE
  5
925
  8
0
  6
CONTINUOUS
 62
     2
 10
17.45355458369999
 20
7.6994143279999978
 30
0.0
 11
17.5219745761
 21
7.7566743216999976
 31
0.0
  0
LINE
  5
926
  8
0
  6
CONTINUOUS
 62
     2
 10
17.225454609
 20
7.6977143282
 30
0.0
 11
17.295954601199991
 21
7.7566743216999976
 31
0.0
  0
LINE
  5
927
  8
0
  6
CONTINUOUS
 62
     2
 10
17.345694595699999
 20
7.6988143280999983
 30
0.0
 11
17.416194587899991
 21
7.7577743214999977
 31
0.0
  0
LINE
  5
928
  8
0
  6
CONTINUOUS
 62
     2
 10
17.6906145574
 20
7.7112543266999989
 30
0.0
 11
17.740414551899988
 21
7.7528943221000004
 31
0.0
  0
LINE
  5
929
  8
0
  6
CONTINUOUS
 62
     2
 10
17.793634546
 20
7.7022343276999976
 30
0.0
 11
17.893174534900002
 21
7.7854743185000004
 31
0.0
  0
LINE
  5
92A
  8
0
  6
CONTINUOUS
 62
     2
 10
17.834414541499999
 20
7.9265943027999981
 30
0.0
 11
17.8951945347
 21
7.977374297199999
 31
0.0
  0
LINE
  5
92B
  8
0
  6
CONTINUOUS
 62
     2
 10
17.834414541499999
 20
7.8314943134000004
 30
0.0
 11
17.8951945347
 21
7.8822743076999977
 31
0.0
  0
LINE
  5
92C
  8
0
  6
CONTINUOUS
 62
     2
 10
16.941334640499999
 20
7.4286743579999976
 30
0.0
 11
16.952454639300001
 21
7.4341543573999989
 31
0.0
  0
ARC
  5
92D
  8
0
  6
CONTINUOUS
 62
     2
 10
17.785194546900001
 20
7.806854316099999
 30
0.0
 40
0.1099999878
 50
270.0
 51
0.0
  0
ARC
  5
92E
  8
0
  6
CONTINUOUS
 62
     2
 10
17.784414547000001
 20
7.8076543159999989
 30
0.0
 40
0.0499999945
 50
270.0
 51
0.0
  0
ARC
  5
92F
  8
0
  6
CONTINUOUS
 62
     2
 10
17.415931454999981
 20
7.9515342999999978
 30
0.0
 40
0.0299999967
 50
333.29284126509992
 51
90.0
  0
ARC
  5
930
  8
0
  6
CONTINUOUS
 62
     2
 10
17.314993111300002
 20
7.8176543149000004
 30
0.0
 40
0.0599999933
 50
270.0
 51
333.29284126509992
  0
ARC
  5
931
  8
0
  6
CONTINUOUS
 62
     2
 10
17.174290961600001
 20
7.6926543287999989
 30
0.0
 40
0.0649999928
 50
90.0
 51
159.95728725469999
  0
ARC
  5
932
  8
DEFAULT_3
  6
PHANTOM
 62
     2
 10
17.120133105400001
 20
7.856534310599999
 30
0.0
 40
0.1249999861
 50
90.0
 51
159.96019131159991
  0
ARC
  5
933
  8
DEFAULT_3
  6
PHANTOM
 62
     2
 10
16.927747580399991
 20
7.9103002794000004
 30
0.0
 40
0.0741553949
 50
331.11061221879999
 51
75.728277398999992
  0
ARC
  5
934
  8
0
  6
CONTINUOUS
 62
     2
 10
13.987220151300001
 20
7.8731982337000002
 30
0.0
 40
0.0741553949
 50
340.00211618740002
 51
75.728277398999992
  0
ARC
  5
935
  8
0
  6
CONTINUOUS
 62
     2
 10
14.235025883499979
 20
7.6571850408999982
 30
0.0
 40
0.0639999929
 50
90.0
 51
159.94456168529999
  0
ARC
  5
936
  8
0
  6
CONTINUOUS
 62
     2
 10
14.376339465199999
 20
7.7811850271000003
 30
0.0
 40
0.0599999933
 50
270.0
 51
333.29284126509992
  0
ARC
  5
937
  8
0
  6
CONTINUOUS
 62
     2
 10
14.4772778089
 20
7.9150650123000004
 30
0.0
 40
0.0299999967
 50
333.29284126509992
 51
90.0
  0
ARC
  5
938
  8
0
  6
CONTINUOUS
 62
     2
 10
14.17798100999998
 20
7.8250650222000004
 30
0.0
 40
0.1199999867
 50
90.0
 51
159.96019131159991
  0
ARC
  5
939
  8
0
  6
CONTINUOUS
 62
     2
 10
14.856620899699999
 20
7.7603850294000001
 30
0.0
 40
0.0999999889
 50
270.0
 51
0.0
  0
ARC
  5
93A
  8
0
  6
CONTINUOUS
 62
     2
 10
14.8457609009
 20
7.7711850281999979
 30
0.0
 40
0.0499999945
 50
270.0
 51
0.0
  0
ARC
  5
93B
  8
0
  6
CONTINUOUS
 62
     2
 10
13.9355610019
 20
8.4159449567000006
 30
0.0
 40
0.0599999933
 50
90.0
 51
180.0
  0
ARC
  5
93C
  8
0
  6
CONTINUOUS
 62
     2
 10
13.9355610019
 20
8.0078650020000008
 30
0.0
 40
0.0599999933
 50
180.0
 51
270.0
  0
ARC
  5
93D
  8
0
  6
CONTINUOUS
 62
     2
 10
14.6863223356
 20
7.7081109890999988
 30
0.0
 40
0.088530902
 50
212.30586383619979
 51
264.88434502969989
  0
ARC
  5
93E
  8
0
  6
CONTINUOUS
 62
     2
 10
14.6863223356
 20
7.7081109890999988
 30
0.0
 40
0.088530902
 50
276.02417732060002
 51
327.69413616380001
  0
ARC
  5
93F
  8
0
  6
CONTINUOUS
 62
     2
 10
17.6249759817
 20
7.7445096477999984
 30
0.0
 40
0.088530902
 50
212.30586383619979
 51
264.88434502969989
  0
ARC
  5
940
  8
0
  6
CONTINUOUS
 62
     2
 10
17.6249759817
 20
7.7445096477999984
 30
0.0
 40
0.088530902
 50
276.02417732060002
 51
327.69413616380001
  0
CIRCLE
  5
941
  8
0
  6
CONTINUOUS
 62
     7
 10
14.586140929700001
 20
8.5865449377999976
 30
0.0
 40
0.029868099
  0
CIRCLE
  5
942
  8
0
  6
CONTINUOUS
 62
     7
 10
14.782420908000001
 20
8.5865449377999976
 30
0.0
 40
0.029868099
  0
CIRCLE
  5
943
  8
0
  6
CONTINUOUS
 62
     7
 10
15.1003608727
 20
8.2409649761000008
 30
0.0
 40
0.029868099
  0
CIRCLE
  5
944
  8
0
  6
CONTINUOUS
 62
     7
 10
15.1003608727
 20
7.9506650082999979
 30
0.0
 40
0.029868099
  0
LINE
  5
945
  8
0
  6
CONTINUOUS
 62
     2
 10
17.314993111300002
 20
7.7576543214999978
 30
0.0
 11
17.5855745691
 21
7.7576543214999978
 31
0.0
  0
LINE
  5
946
  8
DEFAULT_3
  6
PHANTOM
 62
     2
 10
17.834414541499999
 20
7.9843342964000001
 30
0.0
 11
17.8951945347
 21
7.9843342964000001
 31
0.0
  0
LINE
  5
947
  8
DEFAULT_3
  6
PHANTOM
 62
     2
 10
17.8951945347
 20
7.9843342964000001
 30
0.0
 11
17.9587945277
 21
7.9843342964000001
 31
0.0
  0
LINE
  5
948
  8
0
  6
CONTINUOUS
 62
     2
 10
13.7524241333
 20
9.8461711428999994
 30
0.0
 11
13.613511800199991
 21
9.8461711428999994
 31
0.0
  0
LINE
  5
949
  8
0
  6
CONTINUOUS
 62
     2
 10
13.613511800199991
 20
9.8461711428999994
 30
0.0
 11
13.29227703019999
 21
9.0908353321999993
 31
0.0
  0
LINE
  5
94A
  8
0
  6
CONTINUOUS
 62
     2
 10
13.29227703019999
 20
9.0908353321999993
 30
0.0
 11
14.212571236400001
 21
7.9621726265000001
 31
0.0
  0
LINE
  5
94B
  8
0
  6
CONTINUOUS
 62
     2
 10
17.5811953119
 20
9.8461711428999994
 30
0.0
 11
17.4422829789
 21
9.8461711428999994
 31
0.0
  0
LINE
  5
94C
  8
0
  6
CONTINUOUS
 62
     2
 10
17.4422829789
 20
9.8461711428999994
 30
0.0
 11
17.233914479399999
 21
7.9795366680999988
 31
0.0
  0
ENDBLK
  5
94D
  8
0
  6
ByBlock
 62
     0
  0
BLOCK
  8
0
  6
CONTINUOUS
 62
     2
  2
TEMPLATE_NUMBER_BL2
 70
     0
 10
10.0829727749
 20
4.282140515
 30
0.0
  3
TEMPLATE_NUMBER_BL2
  1

  0
TEXT
  5
950
  8
0
  6
CONTINUOUS
 62
     2
 10
9.7727727748999982
 20
4.2468905149999987
 30
0.0
 40
0.0705
  1
1050263-7
 41
0.8
  0
TEXT
  5
951
  8
0
  6
CONTINUOUS
 62
     2
 10
10.28037277489998
 20
4.2468905149999987
 30
0.0
 40
0.0705
  1
-
 41
0.8
  0
TEXT
  5
952
  8
0
  6
CONTINUOUS
 62
     2
 10
10.3367727749
 20
4.2468905149999987
 30
0.0
 40
0.0705
  1
A
 41
0.8
  0
ENDBLK
  5
953
  8
0
  6
ByBlock
 62
     0
  0
BLOCK
  8
0
  6
CONTINUOUS
 62
     2
  2
TEMPLATE_NUMBER_BL3
 70
     0
 10
10.189753878699999
 20
2.130164167499998
 30
0.0
  3
TEMPLATE_NUMBER_BL3
  1

  0
TEXT
  5
956
  8
0
  6
CONTINUOUS
 62
     2
 10
9.8795538786999995
 20
2.094914167499998
 30
0.0
 40
0.0705
  1
1050263-7
 41
0.8
  0
TEXT
  5
957
  8
0
  6
CONTINUOUS
 62
     2
 10
10.387153878699991
 20
2.094914167499998
 30
0.0
 40
0.0705
  1
-
 41
0.8
  0
TEXT
  5
958
  8
0
  6
CONTINUOUS
 62
     2
 10
10.4435538787
 20
2.094914167499998
 30
0.0
 40
0.0705
  1
A
 41
0.8
  0
ENDBLK
  5
959
  8
0
  6
ByBlock
 62
     0
  0
BLOCK
  8
0
  6
CONTINUOUS
 62
     2
  2
COPYRIGHT_YEAR_BL4
 70
     0
 10
14.064950397400001
 20
4.3282650821999988
 30
0.0
  3
COPYRIGHT_YEAR_BL4
  1

  0
TEXT
  5
95C
  8
0
  6
CONTINUOUS
 62
     2
 10
13.691258771799999
 20
4.2929914574000003
 30
0.0
 40
0.0705
  1
2005
 41
0.8
  0
TEXT
  5
95D
  8
0
  6
CONTINUOUS
 62
     2
 10
13.916858771799999
 20
4.2929914574000003
 30
0.0
 40
0.0705
  1
 KOHLER CO.
 41
0.8
  0
TEXT
  5
95E
  8
0
  6
CONTINUOUS
 62
     7
 10
13.6112330227
 20
4.309476457599998
 30
0.0
 40
0.0421874995
  1
C
  0
CIRCLE
  5
95F
  8
0
  6
CONTINUOUS
 62
     7
 10
13.6254680226
 20
4.3307127073
 30
0.0
 40
0.0328259996
  0
ENDBLK
  5
960
  8
0
  6
ByBlock
 62
     0
  0
BLOCK
  8
0
  2
A$C1C030E97
 70
     0
 10
0.0
 20
0.0
 30
0.0
  3
A$C1C030E97
  1

  0
ARC
  5
963
  8
ARC
 10
-2.255262552428603
 20
-0.6758422008837413
 30
0.0
 40
7.899813110482552
 50
133.60293957651379
 51
152.2645222642029
  0
ARC
  5
964
  8
ARC
 10
-0.9627599843595008
 20
-2.0344168617511209
 30
0.0
 40
9.7756219627667971
 50
115.6097830141949
 51
133.19160865734639
  0
ARC
  5
965
  8
ARC
 10
-0.0783361040019202
 20
-3.8547352479319521
 30
0.0
 40
11.79939797928998
 50
96.24423799923953
 51
115.6618521939543
  0
ARC
  5
966
  8
ARC
 10
0.0008152917948578
 20
-4.3088819941184271
 30
0.0
 40
12.25949443220256
 50
78.968101277035259
 51
96.381107203661685
  0
ARC
  5
967
  8
ARC
 10
0.2321941330925981
 20
-3.381296408274471
 30
0.0
 40
11.30488310738375
 50
59.339660312669047
 51
79.219509570348123
  0
ARC
  5
968
  8
ARC
 10
1.3647352714484591
 20
-1.5052977446846361
 30
0.0
 40
9.1136190771542633
 50
39.550577136499442
 51
59.450038606934683
  0
ARC
  5
969
  8
ARC
 10
3.0977595210463349
 20
-0.1437255999203497
 30
0.0
 40
6.909970529580808
 50
5.6955168415069632
 51
39.529568237961641
  0
ARC
  5
96A
  8
ARC
 10
3.6972971138686681
 20
0.0027916645593589
 30
0.0
 40
6.299443094819356
 50
342.97751659585168
 51
4.9106097479687483
  0
ARC
  5
96B
  8
ARC
 10
2.587479379675667
 20
0.4180751218910112
 30
0.0
 40
7.482560909326601
 50
314.18199460649959
 51
342.42470018688721
  0
ARC
  5
96C
  8
ARC
 10
0.992607612665168
 20
1.9774308671333021
 30
0.0
 40
9.7125177191042091
 50
294.78597608790182
 51
314.51797070659671
  0
ARC
  5
96D
  8
ARC
 10
8.4737573486003956
 20
-14.077509928731359
 30
0.0
 40
7.9999999996240723
 50
115.2248389390797
 51
122.9966209525797
  0
ARC
  5
96E
  8
ARC
 10
1.394092899199997
 20
-3.1743750000000022
 30
0.0
 40
4.9999999999999938
 50
270.0
 51
302.99662095209999
  0
LINE
  5
96F
  8
ARC
 10
1.394092899199997
 20
-8.1743750000000013
 30
0.0
 11
-1.394092899300011
 21
-8.1743750000000013
 31
0.0
  0
ARC
  5
970
  8
ARC
 10
-1.3940928993039901
 20
-3.174375000091036
 30
0.0
 40
4.9999999999089599
 50
237.00337904794549
 51
270.00000000004542
  0
ARC
  5
971
  8
ARC
 10
-0.6428473762895309
 20
2.5715569945818282
 30
0.0
 40
10.39876834663642
 50
235.29976528744939
 51
244.83678880885381
  0
ARC
  5
972
  8
ARC
 10
-8.4737573483727981
 20
-14.07750992881415
 30
0.0
 40
7.9999999995276063
 50
57.003379049351182
 51
64.775161062851183
  0
ARC
  5
973
  8
ARC
 10
-1.4555795272685901
 20
1.42767576700192
 30
0.0
 40
8.9957324156582672
 50
221.3223201698911
 51
235.25829757965991
  0
ARC
  5
974
  8
ARC
 10
-2.5545482446380432
 20
0.4687544681801086
 30
0.0
 40
7.537231000957334
 50
203.4860757877785
 51
221.36402450238509
  0
ARC
  5
975
  8
ARC
 10
-3.4718332668702718
 20
0.0507893983976793
 30
0.0
 40
6.529390839643459
 50
187.71728843079171
 51
203.33007732310341
  0
ARC
  5
976
  8
ARC
 10
-3.7772180663553829
 20
0.0007676179610616
 30
0.0
 40
6.220266665138638
 50
167.7141409054459
 51
187.15778022538441
  0
ARC
  5
977
  8
ARC
 10
-3.265619035744558
 20
-0.1180161750734996
 30
0.0
 40
6.7457391866567917
 50
153.4813071714816
 51
167.23539350022941
  0
ENDBLK
  5
978
  8
0
  0
ENDSEC
  0
SECTION
  2
ENTITIES
  0
SOLID
  5
979
  8
0
  6
CONTINUOUS
 62
     2
 10
14.945832293599979
 20
13.250533706300001
 30
0.0
 11
14.945832293599979
 21
13.351896206299999
 31
0.0
 12
15.65891979359999
 22
13.351896206299999
 32
0.0
 13
15.65891979359999
 23
13.351896206299999
 33
0.0
  0
SOLID
  5
97A
  8
0
  6
CONTINUOUS
 62
     2
 10
15.65891979359999
 20
13.351896206299999
 30
0.0
 11
15.65891979359999
 21
13.250533706300001
 31
0.0
 12
14.945832293599979
 22
13.250533706300001
 32
0.0
 13
14.945832293599979
 23
13.250533706300001
 33
0.0
  0
SOLID
  5
97B
  8
0
  6
CONTINUOUS
 62
     2
 10
14.945832293599979
 20
13.0116899563
 30
0.0
 11
14.945832293599979
 21
13.040839956299999
 31
0.0
 12
15.65891979359999
 22
13.040839956299999
 32
0.0
 13
15.65891979359999
 23
13.040839956299999
 33
0.0
  0
SOLID
  5
97C
  8
0
  6
CONTINUOUS
 62
     2
 10
15.65891979359999
 20
13.040839956299999
 30
0.0
 11
15.65891979359999
 21
13.0116899563
 31
0.0
 12
14.945832293599979
 22
13.0116899563
 32
0.0
 13
14.945832293599979
 23
13.0116899563
 33
0.0
  0
SOLID
  5
97D
  8
0
  6
CONTINUOUS
 62
     2
 10
14.9847072936
 20
13.389396206300001
 30
0.0
 11
14.9847072936
 21
13.440771206300001
 31
0.0
 12
15.697794793599989
 22
13.440771206300001
 32
0.0
 13
15.697794793599989
 23
13.440771206300001
 33
0.0
  0
SOLID
  5
97E
  8
0
  6
CONTINUOUS
 62
     2
 10
15.697794793599989
 20
13.440771206300001
 30
0.0
 11
15.697794793599989
 21
13.389396206300001
 31
0.0
 12
14.9847072936
 22
13.389396206300001
 32
0.0
 13
14.9847072936
 23
13.389396206300001
 33
0.0
  0
SOLID
  5
97F
  8
0
  6
CONTINUOUS
 62
     2
 10
14.9847072936
 20
13.494933706299999
 30
0.0
 11
14.9847072936
 21
13.546302456299999
 31
0.0
 12
15.697794793599989
 22
13.546302456299999
 32
0.0
 13
15.697794793599989
 23
13.546302456299999
 33
0.0
  0
SOLID
  5
980
  8
0
  6
CONTINUOUS
 62
     2
 10
15.697794793599989
 20
13.546302456299999
 30
0.0
 11
15.697794793599989
 21
13.494933706299999
 31
0.0
 12
14.9847072936
 22
13.494933706299999
 32
0.0
 13
14.9847072936
 23
13.494933706299999
 33
0.0
  0
SOLID
  5
981
  8
0
  6
CONTINUOUS
 62
     2
 10
14.9847072936
 20
13.5782524563
 30
0.0
 11
14.9847072936
 21
13.6296212063
 31
0.0
 12
15.697794793599989
 22
13.6296212063
 32
0.0
 13
15.697794793599989
 23
13.6296212063
 33
0.0
  0
SOLID
  5
982
  8
0
  6
CONTINUOUS
 62
     2
 10
15.697794793599989
 20
13.6296212063
 30
0.0
 11
15.697794793599989
 21
13.5782524563
 31
0.0
 12
14.9847072936
 22
13.5782524563
 32
0.0
 13
14.9847072936
 23
13.5782524563
 33
0.0
  0
SOLID
  5
983
  8
0
  6
CONTINUOUS
 62
     2
 10
14.9847072936
 20
13.661564956299999
 30
0.0
 11
14.9847072936
 21
13.7129399563
 31
0.0
 12
15.697794793599989
 22
13.7129399563
 32
0.0
 13
15.697794793599989
 23
13.7129399563
 33
0.0
  0
SOLID
  5
984
  8
0
  6
CONTINUOUS
 62
     2
 10
15.697794793599989
 20
13.7129399563
 30
0.0
 11
15.697794793599989
 21
13.661564956299999
 31
0.0
 12
14.9847072936
 22
13.661564956299999
 32
0.0
 13
14.9847072936
 23
13.661564956299999
 33
0.0
  0
SOLID
  5
985
  8
0
  6
CONTINUOUS
 62
     2
 10
14.9847072936
 20
13.7448837063
 30
0.0
 11
14.9847072936
 21
13.7962587063
 31
0.0
 12
15.697794793599989
 22
13.7962587063
 32
0.0
 13
15.697794793599989
 23
13.7962587063
 33
0.0
  0
SOLID
  5
986
  8
0
  6
CONTINUOUS
 62
     2
 10
15.697794793599989
 20
13.7962587063
 30
0.0
 11
15.697794793599989
 21
13.7448837063
 31
0.0
 12
14.9847072936
 22
13.7448837063
 32
0.0
 13
14.9847072936
 23
13.7448837063
 33
0.0
  0
SOLID
  5
987
  8
0
  6
CONTINUOUS
 62
     2
 10
16.269338543599979
 20
13.250533706300001
 30
0.0
 11
16.269338543599979
 21
13.351896206299999
 31
0.0
 12
16.5551322936
 22
13.351896206299999
 32
0.0
 13
16.5551322936
 23
13.351896206299999
 33
0.0
  0
SOLID
  5
988
  8
0
  6
CONTINUOUS
 62
     2
 10
16.5551322936
 20
13.351896206299999
 30
0.0
 11
16.5551322936
 21
13.250533706300001
 31
0.0
 12
16.269338543599979
 22
13.250533706300001
 32
0.0
 13
16.269338543599979
 23
13.250533706300001
 33
0.0
  0
DIMENSION
  5
989
  8
0
  6
CONTINUOUS
 62
     2
  2
*D2
 10
12.788848722099999
 20
3.5479826963999992
 30
0.0
 11
12.788848722099999
 21
8.2630986680999978
 31
0.0
 70
   128
 13
12.1417335716
 23
17.579232696399998
 33
0.0
 14
12.1417335716
 24
3.5479826963999992
 34
0.0
 50
270.0
  0
DIMENSION
  5
98A
  8
0
  6
CONTINUOUS
 62
     2
  2
*D4
 10
21.141733571599978
 20
11.0591832866
 30
0.0
 11
14.28306178529999
 21
10.9419957866
 31
0.0
 70
   128
 13
3.0167335716000001
 23
10.6261076964
 33
0.0
 14
21.141733571599978
 24
10.6261076964
 34
0.0
  0
DIMENSION
  5
98B
  8
0
  6
CONTINUOUS
 62
     2
  2
*D5
 10
5.3082824597
 20
17.579232696399998
 30
0.0
 11
5.3082824597
 21
18.673208215100001
 31
0.0
 70
   128
 13
5.1832824597
 23
20.079232696399998
 33
0.0
 14
12.0167335716
 24
17.579232696399998
 34
0.0
 50
270.0
  0
TEXT
  5
98C
  8
___NOTE
  6
CONTINUOUS
 62
     2
 10
5.0514802140999988
 20
13.899774449500001
 30
0.0
 40
0.25
  1
CUT-OUT TEMPLATE
 41
0.8
  0
TEXT
  5
98D
  8
___NOTE
  6
CONTINUOUS
 62
     2
 10
5.0514802140999988
 20
13.524774449500001
 30
0.0
 40
0.25
  1
UNDERCOUNTER LAVATORY
 41
0.8
  0
TEXT
  5
98E
  8
___NOTE
  6
CONTINUOUS
 62
     2
 10
5.0514802140999988
 20
13.149774449500001
 30
0.0
 40
0.25
  1
PLANTILLA DE RECORTE
 41
0.8
  0
TEXT
  5
98F
  8
___NOTE
  6
CONTINUOUS
 62
     2
 10
5.0514802140999988
 20
12.774774449500001
 30
0.0
 40
0.25
  1
LAVABO MONTADO DEBAJO DEL MOSTRADOR
 41
0.8
  0
TEXT
  5
990
  8
___NOTE
  6
CONTINUOUS
 62
     2
 10
5.0514802140999988
 20
12.399774449500001
 30
0.0
 40
0.25
  1
GABARIT
 41
0.8
  0
TEXT
  5
991
  8
___NOTE
  6
CONTINUOUS
 62
     2
 10
5.0514802140999988
 20
12.024774449500001
 30
0.0
 40
0.25
  1
LAVABO SOUS-COMPTOIR
 41
0.8
  0
TEXT
  5
992
  8
___NOTE
  6
CONTINUOUS
 62
     2
 10
5.0514802140999988
 20
11.649774449500001
 30
0.0
 40
0.25
  1
 
 41
0.8
  0
TEXT
  5
993
  8
___NOTE
  6
CONTINUOUS
 62
     2
 10
5.0514802140999988
 20
11.274774449500001
 30
0.0
 40
0.25
  1
DEVONSHIRE   2336-**-BA
 41
0.8
  0
TEXT
  5
994
  8
0
  6
CONTINUOUS
 62
     2
 10
14.891455695399991
 20
13.0940717803
 30
0.0
 40
0.08
  1
XXXXX-XX-X-XX
 41
0.85
  0
TEXT
  5
995
  8
0
  6
CONTINUOUS
 62
     2
 10
16.324889173999999
 20
12.992729540399999
 30
0.0
 40
0.03875
  1
xxxxxx-xx
 41
0.8
  0
TEXT
  5
996
  8
___NOTE
  6
CONTINUOUS
 62
     2
 10
13.5344221329
 20
14.404062332200001
 30
0.0
 40
0.15625
  1
PACKAGING / UPC LABEL ON BOX
 41
0.8
  0
TEXT
  5
997
  8
___NOTE
  6
CONTINUOUS
 62
     2
 10
13.5344221329
 20
14.169687332200001
 30
0.0
 40
0.15625
  1
ETIQUETA DE EMBALAJE / UPC EN LA CAJA
 41
0.8
  0
TEXT
  5
998
  8
___NOTE
  6
CONTINUOUS
 62
     2
 10
13.5344221329
 20
13.935312332200001
 30
0.0
 40
0.15625
  1
ETIQUETTE D'EMBALLAGE / UPC SUR LA BOÎTE
 41
0.8
  0
TEXT
  5
999
  8
___NOTE
  6
CONTINUOUS
 62
     2
 10
13.320162841199981
 20
12.69580110619998
 30
0.0
 40
0.15625
  1
The template and the label suffixes circled
 41
0.8
  0
TEXT
  5
99A
  8
___NOTE
  6
CONTINUOUS
 62
     2
 10
13.320162841199981
 20
12.46142610619998
 30
0.0
 40
0.15625
  1
must match for proper cut-out
 41
0.8
  0
TEXT
  5
99B
  8
___NOTE
  6
CONTINUOUS
 62
     2
 10
13.320162841199981
 20
12.22705110619998
 30
0.0
 40
0.15625
  1
A fin de realizar el corte apropiado, la plantilla y 
 41
0.8
  0
TEXT
  5
99C
  8
___NOTE
  6
CONTINUOUS
 62
     2
 10
13.320162841199981
 20
11.99267610619998
 30
0.0
 40
0.15625
  1
os sufijos de la etiqueta demarcados deben concordar.
 41
0.8
  0
TEXT
  5
99D
  8
___NOTE
  6
CONTINUOUS
 62
     2
 10
13.320162841199981
 20
11.75830110619998
 30
0.0
 40
0.15625
  1
A fin de découper l'ouverture correctement, le gabarit
 41
0.8
  0
TEXT
  5
99E
  8
___NOTE
  6
CONTINUOUS
 62
     2
 10
13.320162841199981
 20
11.52392610619998
 30
0.0
 40
0.15625
  1
et les suffixes encerclés doivent correspondre.
 41
0.8
  0
TEXT
  5
99F
  8
___NOTE
  6
CONTINUOUS
 62
     2
 10
22.454416633200001
 20
15.143887592600001
 30
0.0
 40
0.15625
  1
WHEN PLOTTING TEMPLATE FULL SIZE:
 41
0.8
  0
TEXT
  5
9A0
  8
___NOTE
  6
CONTINUOUS
 62
     2
 10
22.454416633200001
 20
14.909512592600001
 30
0.0
 40
0.15625
  1
Make sure horizontal and vertical dimensions
 41
0.8
  0
TEXT
  5
9A1
  8
___NOTE
  6
CONTINUOUS
 62
     2
 10
22.454416633200001
 20
14.675137592600001
 30
0.0
 40
0.15625
  1
match the dimensions labeled on the template
 41
0.8
  0
TEXT
  5
9A2
  8
___NOTE
  6
CONTINUOUS
 62
     2
 10
22.454416633200001
 20
14.440762592600001
 30
0.0
 40
0.15625
  1
AL TRAZAR UNA PLANTILLA A ESCALA,
 41
0.8
  0
TEXT
  5
9A3
  8
___NOTE
  6
CONTINUOUS
 62
     2
 10
22.454416633200001
 20
14.206387592600001
 30
0.0
 40
0.15625
  1
asegúrese de que las dimensiones horizontales
 41
0.8
  0
TEXT
  5
9A4
  8
___NOTE
  6
CONTINUOUS
 62
     2
 10
22.454416633200001
 20
13.972012592600001
 30
0.0
 40
0.15625
  1
y verticales concuerden con las dimensiones marcadas
 41
0.8
  0
TEXT
  5
9A5
  8
___NOTE
  6
CONTINUOUS
 62
     2
 10
22.454416633200001
 20
13.737637592600001
 30
0.0
 40
0.15625
  1
en la plantilla.
 41
0.8
  0
TEXT
  5
9A6
  8
___NOTE
  6
CONTINUOUS
 62
     2
 10
22.454416633200001
 20
13.503262592600001
 30
0.0
 40
0.15625
  1
AU MOMENT DE TRACER UN GABARIT À L'ÉCHELLE,
 41
0.8
  0
TEXT
  5
9A7
  8
___NOTE
  6
CONTINUOUS
 62
     2
 10
22.454416633200001
 20
13.268887592600001
 30
0.0
 40
0.15625
  1
s'assurer que les dimensions horizotales et verticales
 41
0.8
  0
TEXT
  5
9A8
  8
___NOTE
  6
CONTINUOUS
 62
     2
 10
22.454416633200001
 20
13.034512592600001
 30
0.0
 40
0.15625
  1
correspondent avec les dimensions sur le gabarit.
 41
0.8
  0
TEXT
  5
9A9
  8
___NOTE
  6
CONTINUOUS
 62
     2
 10
7.9568273759999979
 20
5.5431268752999987
 30
0.0
 40
0.15625
  1
RIM OF LAVATORY
 41
0.8
  0
TEXT
  5
9AA
  8
___NOTE
  6
CONTINUOUS
 62
     2
 10
7.9568273759999979
 20
5.3087518752999987
 30
0.0
 40
0.15625
  1
REBORDE DEL LAVABO
 41
0.8
  0
TEXT
  5
9AB
  8
___NOTE
  6
CONTINUOUS
 62
     2
 10
7.9568273759999979
 20
5.0743768752999987
 30
0.0
 40
0.15625
  1
REBORD DE LAVABO
 41
0.8
  0
LINE
  5
9AC
  8
___NOTE
  6
CONTINUOUS
 62
     2
 10
6.542299577999998
 20
5.0347050349999991
 30
0.0
 11
7.7068273759999979
 21
5.6212518752999987
 31
0.0
  0
LINE
  5
9AD
  8
___NOTE
  6
CONTINUOUS
 62
     2
 10
7.7068273759999979
 20
5.6212518752999987
 30
0.0
 11
7.9568273759999979
 21
5.6212518752999987
 31
0.0
  0
SOLID
  5
9AE
  8
___NOTE
  6
CONTINUOUS
 62
     2
 10
6.6957001171000003
 20
5.1469595988999979
 30
0.0
 11
6.542299577999998
 21
5.0347050349999991
 31
0.0
 12
6.723815081599998
 22
5.0911402585000003
 32
0.0
 13
6.723815081599998
 23
5.0911402585000003
 33
0.0
  0
TEXT
  5
9AF
  8
0
  6
CONTINUOUS
 62
     2
 10
7.7045237322000002
 20
19.578320302899979
 30
0.0
 40
0.15625
  1
CENTERLINE OF FITTING
 41
0.8
  0
TEXT
  5
9B0
  8
0
  6
CONTINUOUS
 62
     2
 10
7.7045237322000002
 20
19.343945302899979
 30
0.0
 40
0.15625
  1
LÍNEA CENTRAL DE GRIFER¡A
 41
0.8
  0
TEXT
  5
9B1
  8
0
  6
CONTINUOUS
 62
     2
 10
7.7045237322000002
 20
19.109570302899979
 30
0.0
 40
0.15625
  1
AXE DU ROBINET
 41
0.8
  0
LINE
  5
9B2
  8
0
  6
CONTINUOUS
 62
     2
 10
6.8223818183000002
 20
20.079232696399998
 30
0.0
 11
7.4545237322000002
 21
19.656445302899979
 31
0.0
  0
LINE
  5
9B3
  8
0
  6
CONTINUOUS
 62
     2
 10
7.4545237322000002
 20
19.656445302899979
 30
0.0
 11
7.7045237322000002
 21
19.656445302899979
 31
0.0
  0
SOLID
  5
9B4
  8
0
  6
CONTINUOUS
 62
     2
 10
6.995609416599998
 20
20.000970242499999
 30
0.0
 11
6.8223818183000002
 21
20.079232696399998
 31
0.0
 12
6.9608633451999991
 22
19.949018721600002
 32
0.0
 13
6.9608633451999991
 23
19.949018721600002
 33
0.0
  0
TEXT
  5
9B5
  8
___NOTE
  6
CONTINUOUS
 62
     2
 10
4.3939776437000004
 20
10.344421810799981
 30
0.0
 40
0.15625
  1
IMPORTANT: Basin clamp assembly supplied can only
 41
0.8
  0
TEXT
  5
9B6
  8
___NOTE
  6
CONTINUOUS
 62
     2
 10
4.3939776437000004
 20
10.110046810799981
 30
0.0
 40
0.15625
  1
           be used on countertops with a minimum
 41
0.8
  0
TEXT
  5
9B7
  8
___NOTE
  6
CONTINUOUS
 62
     2
 10
4.3939776437000004
 20
9.8756718108000001
 30
0.0
 40
0.15625
  1
           thickness of 1".  Installer must supply
 41
0.8
  0
TEXT
  5
9B8
  8
___NOTE
  6
CONTINUOUS
 62
     2
 10
4.3939776437000004
 20
9.6412968108000001
 30
0.0
 40
0.15625
  1
           anchors for thinner countertops.
 41
0.8
  0
TEXT
  5
9B9
  8
___NOTE
  6
CONTINUOUS
 62
     2
 10
4.3939776437000004
 20
9.4069218108000001
 30
0.0
 40
0.15625
  1
 
 41
0.8
  0
TEXT
  5
9BA
  8
___NOTE
  6
CONTINUOUS
 62
     2
 10
4.3939776437000004
 20
9.1725468108000001
 30
0.0
 40
0.15625
  1
IMPORTANTE: La grapa de la pileta suministrada para el
 41
0.8
  0
TEXT
  5
9BB
  8
___NOTE
  6
CONTINUOUS
 62
     2
 10
4.3939776437000004
 20
8.9381718108000001
 30
0.0
 40
0.15625
  1
            ensamblaje puede ser ÚNICAMENTE utilizada en
 41
0.8
  0
TEXT
  5
9BC
  8
___NOTE
  6
CONTINUOUS
 62
     2
 10
4.3939776437000004
 20
8.7037968108000001
 30
0.0
 40
0.15625
  1
            mostradores con un espesor mínimo de 25mm.
 41
0.8
  0
TEXT
  5
9BD
  8
___NOTE
  6
CONTINUOUS
 62
     2
 10
4.3939776437000004
 20
8.4694218108000001
 30
0.0
 40
0.15625
  1
            El instalador deberá proporcionar los
 41
0.8
  0
TEXT
  5
9BE
  8
___NOTE
  6
CONTINUOUS
 62
     2
 10
4.3939776437000004
 20
8.2350468108000001
 30
0.0
 40
0.15625
  1
            sujetadores para los mostradores más delgados.
 41
0.8
  0
TEXT
  5
9BF
  8
___NOTE
  6
CONTINUOUS
 62
     2
 10
4.3939776437000004
 20
8.0006718108000001
 30
0.0
 40
0.15625
  1
 
 41
0.8
  0
TEXT
  5
9C0
  8
___NOTE
  6
CONTINUOUS
 62
     2
 10
4.3939776437000004
 20
7.7662968108000001
 30
0.0
 40
0.15625
  1
IMPORTANT: L'agrafe du bassin fournie peut UNIQUEMENT être 
 41
0.8
  0
TEXT
  5
9C1
  8
___NOTE
  6
CONTINUOUS
 62
     2
 10
4.3939776437000004
 20
7.5319218108000001
 30
0.0
 40
0.15625
  1
           utilisée sur des comptoirs ayant un épaisseur 
 41
0.8
  0
TEXT
  5
9C2
  8
___NOTE
  6
CONTINUOUS
 62
     2
 10
4.3939776437000004
 20
7.2975468108000001
 30
0.0
 40
0.15625
  1
           minimale de x po (25mm). L'installateur doit 
 41
0.8
  0
TEXT
  5
9C3
  8
___NOTE
  6
CONTINUOUS
 62
     2
 10
4.3939776437000004
 20
7.0631718108000001
 30
0.0
 40
0.15625
  1
           fournir les dispositifs d'ancrage nécessaires 
 41
0.8
  0
TEXT
  5
9C4
  8
___NOTE
  6
CONTINUOUS
 62
     2
 10
4.3939776437000004
 20
6.8287968108000001
 30
0.0
 40
0.15625
  1
           pour les comptoirs de moindre épaisseur}
 41
0.8
  0
TEXT
  5
9C5
  8
___NOTE
  6
CONTINUOUS
 62
     2
 10
15.3165691744
 20
15.434823404299999
 30
0.0
 40
0.15625
  1
CLIP LOCATIONS
 41
0.8
  0
TEXT
  5
9C6
  8
___NOTE
  6
CONTINUOUS
 62
     2
 10
14.1915691744
 20
15.200448404299999
 30
0.0
 40
0.15625
  1
UBICACIÓN DEL SUJETADOR
 41
0.8
  0
TEXT
  5
9C7
  8
___NOTE
  6
CONTINUOUS
 62
     2
 10
13.9415691744
 20
14.966073404299999
 30
0.0
 40
0.15625
  1
EMPLACEMENT DES ATTTACHES
 41
0.8
  0
LINE
  5
9C8
  8
___NOTE
  6
CONTINUOUS
 62
     2
 10
19.645707664599978
 20
16.035545319899992
 30
0.0
 11
17.316569174400001
 21
15.512948404299999
 31
0.0
  0
LINE
  5
9C9
  8
___NOTE
  6
CONTINUOUS
 62
     2
 10
17.316569174400001
 20
15.512948404299999
 30
0.0
 11
17.066569174400001
 21
15.512948404299999
 31
0.0
  0
SOLID
  5
9CA
  8
___NOTE
  6
CONTINUOUS
 62
     2
 10
19.469597892300001
 20
15.964003998900001
 30
0.0
 11
19.645707664599978
 21
16.035545319899992
 31
0.0
 12
19.455914748800001
 22
16.024987780299998
 32
0.0
 13
19.455914748800001
 23
16.024987780299998
 33
0.0
  0
TEXT
  5
9CB
  8
___NOTE
  6
CONTINUOUS
 62
     2
 10
14.332710379599989
 20
5.5544862977999987
 30
0.0
 40
0.15625
  1
CUT ALONG THIS LINE
 41
0.8
  0
TEXT
  5
9CC
  8
___NOTE
  6
CONTINUOUS
 62
     2
 10
12.9577103796
 20
5.3201112977999987
 30
0.0
 40
0.15625
  1
CORTE A LO LARGO DE ESTA LÍNEA
 41
0.8
  0
TEXT
  5
9CD
  8
___NOTE
  6
CONTINUOUS
 62
     2
 10
12.8327103796
 20
5.0857362977999987
 30
0.0
 40
0.15625
  1
DÉCOUPER AU LONG DE CETTE LIGNE
 41
0.8
  0
LINE
  5
9CE
  8
___NOTE
  6
CONTINUOUS
 62
     2
 10
18.060588242400001
 20
5.3205767576999987
 30
0.0
 11
16.957710379600002
 21
5.6326112977999987
 31
0.0
  0
LINE
  5
9CF
  8
___NOTE
  6
CONTINUOUS
 62
     2
 10
16.957710379600002
 20
5.6326112977999987
 30
0.0
 11
16.707710379600002
 21
5.6326112977999987
 31
0.0
  0
SOLID
  5
9D0
  8
___NOTE
  6
CONTINUOUS
 62
     2
 10
17.871662757799982
 20
5.341552309299999
 30
0.0
 11
18.060588242400001
 21
5.3205767576999987
 31
0.0
 12
17.8886778277
 22
5.401691625799999
 32
0.0
 13
17.8886778277
 23
5.401691625799999
 33
0.0
  0
INSERT
  5
9D1
  8
0
  6
CONTINUOUS
 62
     2
  2
KOHLER_BL0
 10
6.5226980676999986
 20
14.5242172806
 30
0.0
  0
INSERT
  5
9D2
  8
0
  6
CONTINUOUS
 62
     2
  2
UC_LAV_INSTALLATION_BL1
 10
16.696469026500001
 20
8.0803590776000007
 30
0.0
  0
INSERT
  5
9D3
  8
0
  6
CONTINUOUS
 62
     2
  2
TEMPLATE_NUMBER_BL2
 10
10.0829727749
 20
4.282140515
 30
0.0
  0
INSERT
  5
9D4
  8
0
  6
CONTINUOUS
 62
     2
  2
TEMPLATE_NUMBER_BL3
 10
10.189753878699999
 20
2.130164167499998
 30
0.0
  0
INSERT
  5
9D5
  8
0
  6
CONTINUOUS
 62
     2
  2
COPYRIGHT_YEAR_BL4
 10
14.064950397400001
 20
4.3282650821999988
 30
0.0
  0
LINE
  5
9D6
  8
0
  6
CONTINUOUS
 62
     2
 10
14.877444793599979
 20
12.9359899563
 30
0.0
 11
14.877444793599979
 21
13.846746206300001
 31
0.0
  0
LINE
  5
9D7
  8
0
  6
CONTINUOUS
 62
     2
 10
14.90525104359998
 20
12.9921712063
 30
0.0
 11
14.90525104359998
 21
13.8196962063
 31
0.0
  0
LINE
  5
9D8
  8
0
  6
CONTINUOUS
 62
     2
 10
16.726119793599999
 20
13.8196962063
 30
0.0
 11
16.726119793599999
 21
12.9921712063
 31
0.0
  0
LINE
  5
9D9
  8
0
  6
CONTINUOUS
 62
     2
 10
16.754582293599999
 20
13.846746206300001
 30
0.0
 11
16.754582293599999
 21
12.9359899563
 31
0.0
  0
LINE
  5
9DA
  8
0
  6
CONTINUOUS
 62
     2
 10
16.754582293599999
 20
12.9359899563
 30
0.0
 11
14.877444793599979
 21
12.9359899563
 31
0.0
  0
LINE
  5
9DB
  8
0
  6
CONTINUOUS
 62
     2
 10
16.726119793599999
 20
12.9921712063
 30
0.0
 11
14.90525104359998
 21
12.9921712063
 31
0.0
  0
LINE
  5
9DC
  8
0
  6
CONTINUOUS
 62
     2
 10
14.90525104359998
 20
13.8196962063
 30
0.0
 11
16.726119793599999
 21
13.8196962063
 31
0.0
  0
LINE
  5
9DD
  8
0
  6
CONTINUOUS
 62
     2
 10
14.877444793599979
 20
13.846746206300001
 30
0.0
 11
16.754582293599999
 21
13.846746206300001
 31
0.0
  0
POLYLINE
  5
9DE
  8
_CURVE
  6
CONTINUOUS
 62
     7
 66
     1
 10
0.0
 20
0.0
 30
0.0
  0
VERTEX
  5
FFA
  8
_CURVE
  6
CONTINUOUS
 62
     7
 10
3.0167335716000001
 20
10.5636076964
 30
0.0
  0
VERTEX
  5
FFB
  8
_CURVE
  6
CONTINUOUS
 62
     7
 10
3.0179080026
 20
10.4525816199
 30
0.0
  0
VERTEX
  5
FFC
  8
_CURVE
  6
CONTINUOUS
 62
     7
 10
3.021434157899999
 20
10.34144802829999
 30
0.0
  0
VERTEX
  5
FFD
  8
_CURVE
  6
CONTINUOUS
 62
     7
 10
3.0273163883
 20
10.2302283637
 30
0.0
  0
VERTEX
  5
FFE
  8
_CURVE
  6
CONTINUOUS
 62
     7
 10
3.0355591232999992
 20
10.1189441373
 30
0.0
  0
VERTEX
  5
FFF
  8
_CURVE
  6
CONTINUOUS
 62
     7
 10
3.0461668707
 20
10.007616969900001
 30
0.0
  0
VERTEX
  5
1000
  8
_CURVE
  6
CONTINUOUS
 62
     7
 10
3.059144213299998
 20
9.8962686320999982
 30
0.0
  0
VERTEX
  5
1001
  8
_CURVE
  6
CONTINUOUS
 62
     7
 10
3.074495800199998
 20
9.7849210834000004
 30
0.0
  0
VERTEX
  5
1002
  8
_CURVE
  6
CONTINUOUS
 62
     7
 10
3.0922263362999991
 20
9.6735965092999994
 30
0.0
  0
VERTEX
  5
1003
  8
_CURVE
  6
CONTINUOUS
 62
     7
 10
3.1123405673999991
 20
9.5623173572999995
 30
0.0
  0
VERTEX
  5
1004
  8
_CURVE
  6
CONTINUOUS
 62
     7
 10
3.1348432627
 20
9.4511063713000016
 30
0.0
  0
VERTEX
  5
1005
  8
_CURVE
  6
CONTINUOUS
 62
     7
 10
3.1597391936000001
 20
9.3399866249000016
 30
0.0
  0
VERTEX
  5
1006
  8
_CURVE
  6
CONTINUOUS
 62
     7
 10
3.1870331105999981
 20
9.2289815524000005
 30
0.0
  0
VERTEX
  5
1007
  8
_CURVE
  6
CONTINUOUS
 62
     7
 10
3.2167297167000002
 20
9.1181149786999995
 30
0.0
  0
VERTEX
  5
1008
  8
_CURVE
  6
CONTINUOUS
 62
     7
 10
3.248833638499999
 20
9.0074111470999991
 30
0.0
  0
VERTEX
  5
1009
  8
_CURVE
  6
CONTINUOUS
 62
     7
 10
3.2833493949000001
 20
8.8968947460999992
 30
0.0
  0
VERTEX
  5
100A
  8
_CURVE
  6
CONTINUOUS
 62
     7
 10
3.320281363499999
 20
8.7865909326999976
 30
0.0
  0
VERTEX
  5
100B
  8
_CURVE
  6
CONTINUOUS
 62
     7
 10
3.359633745
 20
8.6765253560000009
 30
0.0
  0
VERTEX
  5
100C
  8
_CURVE
  6
CONTINUOUS
 62
     7
 10
3.4014105254000002
 20
8.5667241764999993
 30
0.0
  0
VERTEX
  5
100D
  8
_CURVE
  6
CONTINUOUS
 62
     7
 10
3.4456154365999989
 20
8.4572140854000004
 30
0.0
  0
VERTEX
  5
100E
  8
_CURVE
  6
CONTINUOUS
 62
     7
 10
3.492251915199998
 20
8.3480223205000001
 30
0.0
  0
VERTEX
  5
100F
  8
_CURVE
  6
CONTINUOUS
 62
     7
 10
3.5413230600999981
 20
8.2391766803999982
 30
0.0
  0
VERTEX
  5
1010
  8
_CURVE
  6
CONTINUOUS
 62
     7
 10
3.5928315882000001
 20
8.1307055364999972
 30
0.0
  0
VERTEX
  5
1011
  8
_CURVE
  6
CONTINUOUS
 62
     7
 10
3.6467797895999992
 20
8.0226378427
 30
0.0
  0
VERTEX
  5
1012
  8
_CURVE
  6
CONTINUOUS
 62
     7
 10
3.7031694810000002
 20
7.915003143299999
 30
0.0
  0
VERTEX
  5
1013
  8
_CURVE
  6
CONTINUOUS
 62
     7
 10
3.7620019591
 20
7.8078315778
 30
0.0
  0
VERTEX
  5
1014
  8
_CURVE
  6
CONTINUOUS
 62
     7
 10
3.8232779525999989
 20
7.701153884
 30
0.0
  0
VERTEX
  5
1015
  8
_CURVE
  6
CONTINUOUS
 62
     7
 10
3.8869975738
 20
7.5950013987
 30
0.0
  0
VERTEX
  5
1016
  8
_CURVE
  6
CONTINUOUS
 62
     7
 10
3.9531602699000001
 20
7.4894060558999982
 30
0.0
  0
VERTEX
  5
1017
  8
_CURVE
  6
CONTINUOUS
 62
     7
 10
4.0217647743000002
 20
7.3844003829
 30
0.0
  0
VERTEX
  5
1018
  8
_CURVE
  6
CONTINUOUS
 62
     7
 10
4.0928090574000002
 20
7.280017493499999
 30
0.0
  0
VERTEX
  5
1019
  8
_CURVE
  6
CONTINUOUS
 62
     7
 10
4.166290277499999
 20
7.1762910800000004
 30
0.0
  0
VERTEX
  5
101A
  8
_CURVE
  6
CONTINUOUS
 62
     7
 10
4.2422047322000003
 20
7.0732554011999991
 30
0.0
  0
VERTEX
  5
101B
  8
_CURVE
  6
CONTINUOUS
 62
     7
 10
4.3205478099999981
 20
6.9709452698999987
 30
0.0
  0
VERTEX
  5
101C
  8
_CURVE
  6
CONTINUOUS
 62
     7
 10
4.4013139426999981
 20
6.8693960367999987
 30
0.0
  0
VERTEX
  5
101D
  8
_CURVE
  6
CONTINUOUS
 62
     7
 10
4.4844965579
 20
6.7686435726000003
 30
0.0
  0
VERTEX
  5
101E
  8
_CURVE
  6
CONTINUOUS
 62
     7
 10
4.5700880332000002
 20
6.6687242477000002
 30
0.0
  0
VERTEX
  5
101F
  8
_CURVE
  6
CONTINUOUS
 62
     7
 10
4.6580796502999986
 20
6.569674910399999
 30
0.0
  0
VERTEX
  5
1020
  8
_CURVE
  6
CONTINUOUS
 62
     7
 10
4.7484615514000001
 20
6.4715328616999992
 30
0.0
  0
VERTEX
  5
1021
  8
_CURVE
  6
CONTINUOUS
 62
     7
 10
4.8412226959999991
 20
6.3743358288999987
 30
0.0
  0
VERTEX
  5
1022
  8
_CURVE
  6
CONTINUOUS
 62
     7
 10
4.9363508193000003
 20
6.278121937099999
 30
0.0
  0
VERTEX
  5
1023
  8
_CURVE
  6
CONTINUOUS
 62
     7
 10
5.033832392699999
 20
6.182929677999998
 30
0.0
  0
VERTEX
  5
1024
  8
_CURVE
  6
CONTINUOUS
 62
     7
 10
5.1336525851000001
 20
6.0887978777000002
 30
0.0
  0
VERTEX
  5
1025
  8
_CURVE
  6
CONTINUOUS
 62
     7
 10
5.2357952266999988
 20
5.9957656620000002
 30
0.0
  0
VERTEX
  5
1026
  8
_CURVE
  6
CONTINUOUS
 62
     7
 10
5.3402427743000001
 20
5.9038724197999981
 30
0.0
  0
VERTEX
  5
1027
  8
_CURVE
  6
CONTINUOUS
 62
     7
 10
5.4469762793000003
 20
5.8131577651999979
 30
0.0
  0
VERTEX
  5
1028
  8
_CURVE
  6
CONTINUOUS
 62
     7
 10
5.5559753567000003
 20
5.7236614978999993
 30
0.0
  0
VERTEX
  5
1029
  8
_CURVE
  6
CONTINUOUS
 62
     7
 10
5.667218157699998
 20
5.6354235611999979
 30
0.0
  0
VERTEX
  5
102A
  8
_CURVE
  6
CONTINUOUS
 62
     7
 10
5.7806813438999987
 20
5.5484839999000002
 30
0.0
  0
VERTEX
  5
102B
  8
_CURVE
  6
CONTINUOUS
 62
     7
 10
5.8963400641999986
 20
5.462882915699999
 30
0.0
  0
VERTEX
  5
102C
  8
_CURVE
  6
CONTINUOUS
 62
     7
 10
6.0141679344999988
 20
5.3786604217000002
 30
0.0
  0
VERTEX
  5
102D
  8
_CURVE
  6
CONTINUOUS
 62
     7
 10
6.1341370194999989
 20
5.2958565954000001
 30
0.0
  0
VERTEX
  5
102E
  8
_CURVE
  6
CONTINUOUS
 62
     7
 10
6.2562178179999979
 20
5.2145114315000001
 30
0.0
  0
VERTEX
  5
102F
  8
_CURVE
  6
CONTINUOUS
 62
     7
 10
6.380379250699999
 20
5.134664792399998
 30
0.0
  0
VERTEX
  5
1030
  8
_CURVE
  6
CONTINUOUS
 62
     7
 10
6.5065886509000004
 20
5.0563563587000004
 30
0.0
  0
VERTEX
  5
1031
  8
_CURVE
  6
CONTINUOUS
 62
     7
 10
6.6348117579999979
 20
4.9796255789999986
 30
0.0
  0
VERTEX
  5
1032
  8
_CURVE
  6
CONTINUOUS
 62
     7
 10
6.7650127148000001
 20
4.9045116183999991
 30
0.0
  0
VERTEX
  5
1033
  8
_CURVE
  6
CONTINUOUS
 62
     7
 10
6.8971540670999989
 20
4.8310533069999986
 30
0.0
  0
VERTEX
  5
1034
  8
_CURVE
  6
CONTINUOUS
 62
     7
 10
7.0311967667999991
 20
4.7592890879
 30
0.0
  0
VERTEX
  5
1035
  8
_CURVE
  6
CONTINUOUS
 62
     7
 10
7.1671001778999992
 20
4.6892569647000002
 30
0.0
  0
VERTEX
  5
1036
  8
_CURVE
  6
CONTINUOUS
 62
     7
 10
7.250215976799999
 20
4.6477400917000002
 30
0.0
  0
VERTEX
  5
1037
  8
_CURVE
  6
CONTINUOUS
 62
     7
 10
7.3889620025999978
 20
4.580592391899998
 30
0.0
  0
VERTEX
  5
1038
  8
_CURVE
  6
CONTINUOUS
 62
     7
 10
7.5293977113999988
 20
4.5152976030999987
 30
0.0
  0
VERTEX
  5
1039
  8
_CURVE
  6
CONTINUOUS
 62
     7
 10
7.671474246699999
 20
4.4518896984999987
 30
0.0
  0
VERTEX
  5
103A
  8
_CURVE
  6
CONTINUOUS
 62
     7
 10
7.8151413067999984
 20
4.390401862
 30
0.0
  0
VERTEX
  5
103B
  8
_CURVE
  6
CONTINUOUS
 62
     7
 10
7.9603471758
 20
4.3308664376000001
 30
0.0
  0
VERTEX
  5
103C
  8
_CURVE
  6
CONTINUOUS
 62
     7
 10
8.1070387575999998
 20
4.2733148796
 30
0.0
  0
VERTEX
  5
103D
  8
_CURVE
  6
CONTINUOUS
 62
     7
 10
8.2551616120000002
 20
4.2177777038000004
 30
0.0
  0
VERTEX
  5
103E
  8
_CURVE
  6
CONTINUOUS
 62
     7
 10
8.4046599952999976
 20
4.1642844401000003
 30
0.0
  0
VERTEX
  5
103F
  8
_CURVE
  6
CONTINUOUS
 62
     7
 10
8.5554769022000006
 20
4.1128635852999986
 30
0.0
  0
VERTEX
  5
1040
  8
_CURVE
  6
CONTINUOUS
 62
     7
 10
8.7075541121000004
 20
4.0635425592000001
 30
0.0
  0
VERTEX
  5
1041
  8
_CURVE
  6
CONTINUOUS
 62
     7
 10
8.8608322364000003
 20
4.0163476600000001
 30
0.0
  0
VERTEX
  5
1042
  8
_CURVE
  6
CONTINUOUS
 62
     7
 10
9.0152507697999997
 20
3.9713040227999992
 30
0.0
  0
VERTEX
  5
1043
  8
_CURVE
  6
CONTINUOUS
 62
     7
 10
9.1707481434000009
 20
3.9284355795999981
 30
0.0
  0
VERTEX
  5
1044
  8
_CURVE
  6
CONTINUOUS
 62
     7
 10
9.3272617802000006
 20
3.8877650199999989
 30
0.0
  0
VERTEX
  5
1045
  8
_CURVE
  6
CONTINUOUS
 62
     7
 10
9.4847281528999972
 20
3.8493137555999981
 30
0.0
  0
VERTEX
  5
1046
  8
_CURVE
  6
CONTINUOUS
 62
     7
 10
9.6430828441000003
 20
3.8131018845999991
 30
0.0
  0
VERTEX
  5
1047
  8
_CURVE
  6
CONTINUOUS
 62
     7
 10
9.8022606076999992
 20
3.7791481597000001
 30
0.0
  0
VERTEX
  5
1048
  8
_CURVE
  6
CONTINUOUS
 62
     7
 10
9.9621954330999998
 20
3.7474699576999981
 30
0.0
  0
VERTEX
  5
1049
  8
_CURVE
  6
CONTINUOUS
 62
     7
 10
10.1228206102
 20
3.718083250999999
 30
0.0
  0
VERTEX
  5
104A
  8
_CURVE
  6
CONTINUOUS
 62
     7
 10
10.2840687962
 20
3.6910025819999981
 30
0.0
  0
VERTEX
  5
104B
  8
_CURVE
  6
CONTINUOUS
 62
     7
 10
10.445872084099999
 20
3.6662410395999991
 30
0.0
  0
VERTEX
  5
104C
  8
_CURVE
  6
CONTINUOUS
 62
     7
 10
10.608162071800001
 20
3.6438102375999981
 30
0.0
  0
VERTEX
  5
104D
  8
_CURVE
  6
CONTINUOUS
 62
     7
 10
10.7708699323
 20
3.6237202964999988
 30
0.0
  0
VERTEX
  5
104E
  8
_CURVE
  6
CONTINUOUS
 62
     7
 10
10.933926484900001
 20
3.6059798268000001
 30
0.0
  0
VERTEX
  5
104F
  8
_CURVE
  6
CONTINUOUS
 62
     7
 10
11.0972622672
 20
3.5905959150000002
 30
0.0
  0
VERTEX
  5
1050
  8
_CURVE
  6
CONTINUOUS
 62
     7
 10
11.2608076068
 20
3.5775741129999989
 30
0.0
  0
VERTEX
  5
1051
  8
_CURVE
  6
CONTINUOUS
 62
     7
 10
11.424492694
 20
3.566918428399998
 30
0.0
  0
VERTEX
  5
1052
  8
_CURVE
  6
CONTINUOUS
 62
     7
 10
11.5882476543
 20
3.5586313187999981
 30
0.0
  0
VERTEX
  5
1053
  8
_CURVE
  6
CONTINUOUS
 62
     7
 10
11.75200262059999
 20
3.5527136874999981
 30
0.0
  0
VERTEX
  5
1054
  8
_CURVE
  6
CONTINUOUS
 62
     7
 10
11.91568780519999
 20
3.549164882299999
 30
0.0
  0
VERTEX
  5
1055
  8
_CURVE
  6
CONTINUOUS
 62
     7
 10
12.0792335716
 20
3.5479826963999992
 30
0.0
  0
SEQEND
  5
1056
  8
_CURVE
  6
CONTINUOUS
 62
     7
  0
LINE
  5
A3C
  8
DEFAULT_1
  6
CENTER
 62
     7
 10
4.3292335715999988
 20
16.0847209384
 30
0.0
 11
4.3292335715999988
 21
15.8025250299
 31
0.0
  0
LINE
  5
A3D
  8
DEFAULT_1
  6
CENTER
 62
     7
 10
4.3292335715999988
 20
5.0424944542999981
 30
0.0
 11
4.3292335715999988
 21
4.784009103899999
 31
0.0
  0
LINE
  5
A3E
  8
DEFAULT_1
  6
CENTER
 62
     7
 10
4.3292335715999988
 20
5.0424944542999981
 30
0.0
 11
4.3292335715999988
 21
5.3009798046999981
 31
0.0
  0
LINE
  5
A3F
  8
DEFAULT_1
  6
CENTER
 62
     7
 10
4.3292335715999988
 20
16.0847209384
 30
0.0
 11
4.3292335715999988
 21
16.366916846900001
 31
0.0
  0
POLYLINE
  5
A40
  8
_CURVE
  6
CONTINUOUS
 62
     7
 66
     1
 10
0.0
 20
0.0
 30
0.0
  0
VERTEX
  5
1057
  8
_CURVE
  6
CONTINUOUS
 62
     7
 10
12.0792335716
 20
3.5479826963999992
 30
0.0
  0
VERTEX
  5
1058
  8
_CURVE
  6
CONTINUOUS
 62
     7
 10
12.2427793379
 20
3.549164882299999
 30
0.0
  0
VERTEX
  5
1059
  8
_CURVE
  6
CONTINUOUS
 62
     7
 10
12.4064645225
 20
3.5527136874999981
 30
0.0
  0
VERTEX
  5
105A
  8
_CURVE
  6
CONTINUOUS
 62
     7
 10
12.570219488799999
 20
3.5586313187999981
 30
0.0
  0
VERTEX
  5
105B
  8
_CURVE
  6
CONTINUOUS
 62
     7
 10
12.7339744491
 20
3.566918428399998
 30
0.0
  0
VERTEX
  5
105C
  8
_CURVE
  6
CONTINUOUS
 62
     7
 10
12.897659536300001
 20
3.5775741129999989
 30
0.0
  0
VERTEX
  5
105D
  8
_CURVE
  6
CONTINUOUS
 62
     7
 10
13.0612048759
 20
3.5905959150000002
 30
0.0
  0
VERTEX
  5
105E
  8
_CURVE
  6
CONTINUOUS
 62
     7
 10
13.22454065819999
 20
3.6059798268000001
 30
0.0
  0
VERTEX
  5
105F
  8
_CURVE
  6
CONTINUOUS
 62
     7
 10
13.38759721079999
 20
3.6237202964999988
 30
0.0
  0
VERTEX
  5
1060
  8
_CURVE
  6
CONTINUOUS
 62
     7
 10
13.5503050713
 20
3.6438102375999981
 30
0.0
  0
VERTEX
  5
1061
  8
_CURVE
  6
CONTINUOUS
 62
     7
 10
13.712595059
 20
3.6662410395999991
 30
0.0
  0
VERTEX
  5
1062
  8
_CURVE
  6
CONTINUOUS
 62
     7
 10
13.8743983469
 20
3.6910025819999981
 30
0.0
  0
VERTEX
  5
1063
  8
_CURVE
  6
CONTINUOUS
 62
     7
 10
14.0356465329
 20
3.718083250999999
 30
0.0
  0
VERTEX
  5
1064
  8
_CURVE
  6
CONTINUOUS
 62
     7
 10
14.19627171
 20
3.7474699576999981
 30
0.0
  0
VERTEX
  5
1065
  8
_CURVE
  6
CONTINUOUS
 62
     7
 10
14.3562065354
 20
3.7791481597000001
 30
0.0
  0
VERTEX
  5
1066
  8
_CURVE
  6
CONTINUOUS
 62
     7
 10
14.515384299000001
 20
3.8131018845999991
 30
0.0
  0
VERTEX
  5
1067
  8
_CURVE
  6
CONTINUOUS
 62
     7
 10
14.6737389902
 20
3.8493137555999981
 30
0.0
  0
VERTEX
  5
1068
  8
_CURVE
  6
CONTINUOUS
 62
     7
 10
14.8312053629
 20
3.8877650199999989
 30
0.0
  0
VERTEX
  5
1069
  8
_CURVE
  6
CONTINUOUS
 62
     7
 10
14.9877189997
 20
3.9284355795999981
 30
0.0
  0
VERTEX
  5
106A
  8
_CURVE
  6
CONTINUOUS
 62
     7
 10
15.1432163733
 20
3.9713040227999992
 30
0.0
  0
VERTEX
  5
106B
  8
_CURVE
  6
CONTINUOUS
 62
     7
 10
15.297634906700001
 20
4.0163476600000001
 30
0.0
  0
VERTEX
  5
106C
  8
_CURVE
  6
CONTINUOUS
 62
     7
 10
15.45091303099999
 20
4.0635425592000001
 30
0.0
  0
VERTEX
  5
106D
  8
_CURVE
  6
CONTINUOUS
 62
     7
 10
15.602990240899979
 20
4.1128635852999986
 30
0.0
  0
VERTEX
  5
106E
  8
_CURVE
  6
CONTINUOUS
 62
     7
 10
15.7538071478
 20
4.1642844401000003
 30
0.0
  0
VERTEX
  5
106F
  8
_CURVE
  6
CONTINUOUS
 62
     7
 10
15.903305531099999
 20
4.2177777038000004
 30
0.0
  0
VERTEX
  5
1070
  8
_CURVE
  6
CONTINUOUS
 62
     7
 10
16.051428385499989
 20
4.2733148796
 30
0.0
  0
VERTEX
  5
1071
  8
_CURVE
  6
CONTINUOUS
 62
     7
 10
16.198119967299998
 20
4.3308664376000001
 30
0.0
  0
VERTEX
  5
1072
  8
_CURVE
  6
CONTINUOUS
 62
     7
 10
16.3433258363
 20
4.390401862
 30
0.0
  0
VERTEX
  5
1073
  8
_CURVE
  6
CONTINUOUS
 62
     7
 10
16.4869928964
 20
4.4518896984999987
 30
0.0
  0
VERTEX
  5
1074
  8
_CURVE
  6
CONTINUOUS
 62
     7
 10
16.6290694317
 20
4.5152976030999987
 30
0.0
  0
VERTEX
  5
1075
  8
_CURVE
  6
CONTINUOUS
 62
     7
 10
16.769505140499991
 20
4.580592391899998
 30
0.0
  0
VERTEX
  5
1076
  8
_CURVE
  6
CONTINUOUS
 62
     7
 10
16.908251166300001
 20
4.6477400917000002
 30
0.0
  0
VERTEX
  5
1077
  8
_CURVE
  6
CONTINUOUS
 62
     7
 10
16.991366965200001
 20
4.6892569647000002
 30
0.0
  0
VERTEX
  5
1078
  8
_CURVE
  6
CONTINUOUS
 62
     7
 10
17.1272703763
 20
4.7592890879
 30
0.0
  0
VERTEX
  5
1079
  8
_CURVE
  6
CONTINUOUS
 62
     7
 10
17.261313076
 20
4.8310533069999986
 30
0.0
  0
VERTEX
  5
107A
  8
_CURVE
  6
CONTINUOUS
 62
     7
 10
17.3934544283
 20
4.9045116183999991
 30
0.0
  0
VERTEX
  5
107B
  8
_CURVE
  6
CONTINUOUS
 62
     7
 10
17.5236553851
 20
4.9796255789999986
 30
0.0
  0
VERTEX
  5
107C
  8
_CURVE
  6
CONTINUOUS
 62
     7
 10
17.651878492200002
 20
5.0563563587000004
 30
0.0
  0
VERTEX
  5
107D
  8
_CURVE
  6
CONTINUOUS
 62
     7
 10
17.778087892399991
 20
5.134664792399998
 30
0.0
  0
VERTEX
  5
107E
  8
_CURVE
  6
CONTINUOUS
 62
     7
 10
17.902249325100001
 20
5.2145114315000001
 30
0.0
  0
VERTEX
  5
107F
  8
_CURVE
  6
CONTINUOUS
 62
     7
 10
18.024330123599992
 20
5.2958565954000001
 30
0.0
  0
VERTEX
  5
1080
  8
_CURVE
  6
CONTINUOUS
 62
     7
 10
18.1442992086
 20
5.3786604217000002
 30
0.0
  0
VERTEX
  5
1081
  8
_CURVE
  6
CONTINUOUS
 62
     7
 10
18.262127078900001
 20
5.462882915699999
 30
0.0
  0
VERTEX
  5
1082
  8
_CURVE
  6
CONTINUOUS
 62
     7
 10
18.377785799200002
 20
5.5484839999000002
 30
0.0
  0
VERTEX
  5
1083
  8
_CURVE
  6
CONTINUOUS
 62
     7
 10
18.491248985399992
 20
5.6354235611999979
 30
0.0
  0
VERTEX
  5
1084
  8
_CURVE
  6
CONTINUOUS
 62
     7
 10
18.602491786400002
 20
5.7236614978999993
 30
0.0
  0
VERTEX
  5
1085
  8
_CURVE
  6
CONTINUOUS
 62
     7
 10
18.711490863800002
 20
5.8131577651999979
 30
0.0
  0
VERTEX
  5
1086
  8
_CURVE
  6
CONTINUOUS
 62
     7
 10
18.818224368799999
 20
5.9038724197999981
 30
0.0
  0
VERTEX
  5
1087
  8
_CURVE
  6
CONTINUOUS
 62
     7
 10
18.922671916500001
 20
5.9957656620000002
 30
0.0
  0
VERTEX
  5
1088
  8
_CURVE
  6
CONTINUOUS
 62
     7
 10
19.024814557999999
 20
6.0887978777000002
 30
0.0
  0
VERTEX
  5
1089
  8
_CURVE
  6
CONTINUOUS
 62
     7
 10
19.124634750399998
 20
6.182929677999998
 30
0.0
  0
VERTEX
  5
108A
  8
_CURVE
  6
CONTINUOUS
 62
     7
 10
19.222116323800002
 20
6.278121937099999
 30
0.0
  0
VERTEX
  5
108B
  8
_CURVE
  6
CONTINUOUS
 62
     7
 10
19.317244447099998
 20
6.3743358288999987
 30
0.0
  0
VERTEX
  5
108C
  8
_CURVE
  6
CONTINUOUS
 62
     7
 10
19.410005591699989
 20
6.4715328616999992
 30
0.0
  0
VERTEX
  5
108D
  8
_CURVE
  6
CONTINUOUS
 62
     7
 10
19.500387492799991
 20
6.569674910399999
 30
0.0
  0
VERTEX
  5
108E
  8
_CURVE
  6
CONTINUOUS
 62
     7
 10
19.588379109899979
 20
6.6687242477000002
 30
0.0
  0
VERTEX
  5
108F
  8
_CURVE
  6
CONTINUOUS
 62
     7
 10
19.673970585199982
 20
6.7686435726000003
 30
0.0
  0
VERTEX
  5
1090
  8
_CURVE
  6
CONTINUOUS
 62
     7
 10
19.757153200400001
 20
6.8693960367999987
 30
0.0
  0
VERTEX
  5
1091
  8
_CURVE
  6
CONTINUOUS
 62
     7
 10
19.8379193331
 20
6.9709452698999987
 30
0.0
  0
VERTEX
  5
1092
  8
_CURVE
  6
CONTINUOUS
 62
     7
 10
19.916262410999991
 20
7.0732554011999991
 30
0.0
  0
VERTEX
  5
1093
  8
_CURVE
  6
CONTINUOUS
 62
     7
 10
19.992176865600001
 20
7.1762910800000004
 30
0.0
  0
VERTEX
  5
1094
  8
_CURVE
  6
CONTINUOUS
 62
     7
 10
20.06565808569998
 20
7.280017493499999
 30
0.0
  0
VERTEX
  5
1095
  8
_CURVE
  6
CONTINUOUS
 62
     7
 10
20.136702368800002
 20
7.3844003829
 30
0.0
  0
VERTEX
  5
1096
  8
_CURVE
  6
CONTINUOUS
 62
     7
 10
20.205306873199991
 20
7.4894060558999982
 30
0.0
  0
VERTEX
  5
1097
  8
_CURVE
  6
CONTINUOUS
 62
     7
 10
20.271469569299999
 20
7.5950013987
 30
0.0
  0
VERTEX
  5
1098
  8
_CURVE
  6
CONTINUOUS
 62
     7
 10
20.3351891905
 20
7.701153884
 30
0.0
  0
VERTEX
  5
1099
  8
_CURVE
  6
CONTINUOUS
 62
     7
 10
20.396465184
 20
7.8078315778
 30
0.0
  0
VERTEX
  5
109A
  8
_CURVE
  6
CONTINUOUS
 62
     7
 10
20.455297662100001
 20
7.915003143299999
 30
0.0
  0
VERTEX
  5
109B
  8
_CURVE
  6
CONTINUOUS
 62
     7
 10
20.511687353599999
 20
8.0226378427
 30
0.0
  0
VERTEX
  5
109C
  8
_CURVE
  6
CONTINUOUS
 62
     7
 10
20.565635554899998
 20
8.1307055364999972
 30
0.0
  0
VERTEX
  5
109D
  8
_CURVE
  6
CONTINUOUS
 62
     7
 10
20.617144082999982
 20
8.2391766803999982
 30
0.0
  0
VERTEX
  5
109E
  8
_CURVE
  6
CONTINUOUS
 62
     7
 10
20.6662152279
 20
8.3480223205000001
 30
0.0
  0
VERTEX
  5
109F
  8
_CURVE
  6
CONTINUOUS
 62
     7
 10
20.71285170649999
 20
8.4572140854000004
 30
0.0
  0
VERTEX
  5
10A0
  8
_CURVE
  6
CONTINUOUS
 62
     7
 10
20.757056617699991
 20
8.5667241764999993
 30
0.0
  0
VERTEX
  5
10A1
  8
_CURVE
  6
CONTINUOUS
 62
     7
 10
20.798833398100001
 20
8.6765253560000009
 30
0.0
  0
VERTEX
  5
10A2
  8
_CURVE
  6
CONTINUOUS
 62
     7
 10
20.8381857796
 20
8.7865909326999976
 30
0.0
  0
VERTEX
  5
10A3
  8
_CURVE
  6
CONTINUOUS
 62
     7
 10
20.875117748200001
 20
8.8968947460999992
 30
0.0
  0
VERTEX
  5
10A4
  8
_CURVE
  6
CONTINUOUS
 62
     7
 10
20.909633504599999
 20
9.0074111470999991
 30
0.0
  0
VERTEX
  5
10A5
  8
_CURVE
  6
CONTINUOUS
 62
     7
 10
20.9417374264
 20
9.1181149786999995
 30
0.0
  0
VERTEX
  5
10A6
  8
_CURVE
  6
CONTINUOUS
 62
     7
 10
20.971434032499999
 20
9.2289815524000005
 30
0.0
  0
VERTEX
  5
10A7
  8
_CURVE
  6
CONTINUOUS
 62
     7
 10
20.998727949500001
 20
9.3399866249000016
 30
0.0
  0
VERTEX
  5
10A8
  8
_CURVE
  6
CONTINUOUS
 62
     7
 10
21.023623880499979
 20
9.4511063713000016
 30
0.0
  0
VERTEX
  5
10A9
  8
_CURVE
  6
CONTINUOUS
 62
     7
 10
21.046126575700001
 20
9.5623173572999995
 30
0.0
  0
VERTEX
  5
10AA
  8
_CURVE
  6
CONTINUOUS
 62
     7
 10
21.0662408068
 20
9.6735965092999994
 30
0.0
  0
VERTEX
  5
10AB
  8
_CURVE
  6
CONTINUOUS
 62
     7
 10
21.0839713429
 20
9.7849210834000004
 30
0.0
  0
VERTEX
  5
10AC
  8
_CURVE
  6
CONTINUOUS
 62
     7
 10
21.099322929799989
 20
9.8962686320999982
 30
0.0
  0
VERTEX
  5
10AD
  8
_CURVE
  6
CONTINUOUS
 62
     7
 10
21.112300272399992
 20
10.007616969900001
 30
0.0
  0
VERTEX
  5
10AE
  8
_CURVE
  6
CONTINUOUS
 62
     7
 10
21.12290801979999
 20
10.1189441373
 30
0.0
  0
VERTEX
  5
10AF
  8
_CURVE
  6
CONTINUOUS
 62
     7
 10
21.1311507548
 20
10.2302283637
 30
0.0
  0
VERTEX
  5
10B0
  8
_CURVE
  6
CONTINUOUS
 62
     7
 10
21.137032985200001
 20
10.34144802829999
 30
0.0
  0
VERTEX
  5
10B1
  8
_CURVE
  6
CONTINUOUS
 62
     7
 10
21.140559140600001
 20
10.4525816199
 30
0.0
  0
VERTEX
  5
10B2
  8
_CURVE
  6
CONTINUOUS
 62
     7
 10
21.141733571599978
 20
10.5636076964
 30
0.0
  0
SEQEND
  5
10B3
  8
_CURVE
  6
CONTINUOUS
 62
     7
  0
LINE
  5
A9E
  8
DEFAULT_1
  6
CENTER
 62
     7
 10
19.829233571599978
 20
5.0424944542999981
 30
0.0
 11
19.573000864899999
 21
5.0424944542999981
 31
0.0
  0
LINE
  5
A9F
  8
DEFAULT_1
  6
CENTER
 62
     7
 10
4.3292335715999988
 20
5.0424944542999981
 30
0.0
 11
4.0707482211999979
 21
5.0424944542999981
 31
0.0
  0
LINE
  5
AA0
  8
DEFAULT_1
  6
CENTER
 62
     7
 10
4.3292335715999988
 20
5.0424944542999981
 30
0.0
 11
4.5877189218999987
 21
5.0424944542999981
 31
0.0
  0
LINE
  5
AA1
  8
DEFAULT_1
  6
CENTER
 62
     7
 10
19.829233571599978
 20
5.0424944542999981
 30
0.0
 11
20.085466278199991
 21
5.0424944542999981
 31
0.0
  0
LINE
  5
AA2
  8
DEFAULT_1
  6
CENTER
 62
     7
 10
12.0792335716
 20
10.5636076964
 30
0.0
 11
12.0792335716
 21
1.5732839915999981
 31
0.0
  0
LINE
  5
AA3
  8
DEFAULT_1
  6
CENTER
 62
     7
 10
12.0792335716
 20
10.5636076964
 30
0.0
 11
12.0792335716
 21
19.3379290144
 31
0.0
  0
LINE
  5
AA4
  8
DEFAULT_1
  6
CENTER
 62
     7
 10
12.0792335716
 20
10.5636076964
 30
0.0
 11
1.5307089568000001
 21
10.5636076964
 31
0.0
  0
LINE
  5
AA5
  8
DEFAULT_1
  6
CENTER
 62
     7
 10
12.0792335716
 20
10.5636076964
 30
0.0
 11
22.479811785599988
 21
10.5636076964
 31
0.0
  0
LINE
  5
AA6
  8
DEFAULT_1
  6
CENTER
 62
     7
 10
19.829233571599978
 20
16.0847209384
 30
0.0
 11
19.5576246203
 21
16.0847209384
 31
0.0
  0
LINE
  5
AA7
  8
DEFAULT_1
  6
CENTER
 62
     7
 10
4.3292335715999988
 20
16.0847209384
 30
0.0
 11
4.0470376630000002
 21
16.0847209384
 31
0.0
  0
LINE
  5
AA8
  8
DEFAULT_1
  6
CENTER
 62
     7
 10
4.3292335715999988
 20
16.0847209384
 30
0.0
 11
4.6114294800999991
 21
16.0847209384
 31
0.0
  0
LINE
  5
AA9
  8
DEFAULT_1
  6
CENTER
 62
     7
 10
19.829233571599978
 20
16.0847209384
 30
0.0
 11
20.100842522799979
 21
16.0847209384
 31
0.0
  0
POLYLINE
  5
AAA
  8
_CURVE
  6
CONTINUOUS
 62
     7
 66
     1
 10
0.0
 20
0.0
 30
0.0
  0
VERTEX
  5
10B4
  8
_CURVE
  6
CONTINUOUS
 62
     7
 10
12.0792335716
 20
17.579232696399998
 30
0.0
  0
VERTEX
  5
10B5
  8
_CURVE
  6
CONTINUOUS
 62
     7
 10
11.91568780519999
 20
17.578050510400001
 30
0.0
  0
VERTEX
  5
10B6
  8
_CURVE
  6
CONTINUOUS
 62
     7
 10
11.75200262059999
 20
17.574501705199999
 30
0.0
  0
VERTEX
  5
10B7
  8
_CURVE
  6
CONTINUOUS
 62
     7
 10
11.5882476543
 20
17.568584073899999
 30
0.0
  0
VERTEX
  5
10B8
  8
_CURVE
  6
CONTINUOUS
 62
     7
 10
11.424492694
 20
17.560296964300001
 30
0.0
  0
VERTEX
  5
10B9
  8
_CURVE
  6
CONTINUOUS
 62
     7
 10
11.2608076068
 20
17.549641279700001
 30
0.0
  0
VERTEX
  5
10BA
  8
_CURVE
  6
CONTINUOUS
 62
     7
 10
11.0972622672
 20
17.5366194777
 30
0.0
  0
VERTEX
  5
10BB
  8
_CURVE
  6
CONTINUOUS
 62
     7
 10
10.933926484900001
 20
17.521235565899989
 30
0.0
  0
VERTEX
  5
10BC
  8
_CURVE
  6
CONTINUOUS
 62
     7
 10
10.7708699323
 20
17.503495096199991
 30
0.0
  0
VERTEX
  5
10BD
  8
_CURVE
  6
CONTINUOUS
 62
     7
 10
10.608162071800001
 20
17.483405155100002
 30
0.0
  0
VERTEX
  5
10BE
  8
_CURVE
  6
CONTINUOUS
 62
     7
 10
10.445872084099999
 20
17.460974353099999
 30
0.0
  0
VERTEX
  5
10BF
  8
_CURVE
  6
CONTINUOUS
 62
     7
 10
10.2840687962
 20
17.436212810699999
 30
0.0
  0
VERTEX
  5
10C0
  8
_CURVE
  6
CONTINUOUS
 62
     7
 10
10.1228206102
 20
17.409132141800001
 30
0.0
  0
VERTEX
  5
10C1
  8
_CURVE
  6
CONTINUOUS
 62
     7
 10
9.9621954330999998
 20
17.379745435
 30
0.0
  0
VERTEX
  5
10C2
  8
_CURVE
  6
CONTINUOUS
 62
     7
 10
9.8022606076999992
 20
17.348067232999998
 30
0.0
  0
VERTEX
  5
10C3
  8
_CURVE
  6
CONTINUOUS
 62
     7
 10
9.6430828441000003
 20
17.3141135081
 30
0.0
  0
VERTEX
  5
10C4
  8
_CURVE
  6
CONTINUOUS
 62
     7
 10
9.4847281528999972
 20
17.277901637100001
 30
0.0
  0
VERTEX
  5
10C5
  8
_CURVE
  6
CONTINUOUS
 62
     7
 10
9.3272617802000006
 20
17.239450372699999
 30
0.0
  0
VERTEX
  5
10C6
  8
_CURVE
  6
CONTINUOUS
 62
     7
 10
9.1707481434000009
 20
17.198779813099978
 30
0.0
  0
VERTEX
  5
10C7
  8
_CURVE
  6
CONTINUOUS
 62
     7
 10
9.0152507697999997
 20
17.1559113699
 30
0.0
  0
VERTEX
  5
10C8
  8
_CURVE
  6
CONTINUOUS
 62
     7
 10
8.8608322364000003
 20
17.110867732700001
 30
0.0
  0
VERTEX
  5
10C9
  8
_CURVE
  6
CONTINUOUS
 62
     7
 10
8.7075541121000004
 20
17.0636728335
 30
0.0
  0
VERTEX
  5
10CA
  8
_CURVE
  6
CONTINUOUS
 62
     7
 10
8.5554769022000006
 20
17.014351807400001
 30
0.0
  0
VERTEX
  5
10CB
  8
_CURVE
  6
CONTINUOUS
 62
     7
 10
8.4046599952999976
 20
16.962930952600001
 30
0.0
  0
VERTEX
  5
10CC
  8
_CURVE
  6
CONTINUOUS
 62
     7
 10
8.2551616120000002
 20
16.909437688899999
 30
0.0
  0
VERTEX
  5
10CD
  8
_CURVE
  6
CONTINUOUS
 62
     7
 10
8.1070387575999998
 20
16.853900513100001
 30
0.0
  0
VERTEX
  5
10CE
  8
_CURVE
  6
CONTINUOUS
 62
     7
 10
7.9603471758
 20
16.796348955100001
 30
0.0
  0
VERTEX
  5
10CF
  8
_CURVE
  6
CONTINUOUS
 62
     7
 10
7.8151413067999984
 20
16.736813530700001
 30
0.0
  0
VERTEX
  5
10D0
  8
_CURVE
  6
CONTINUOUS
 62
     7
 10
7.671474246699999
 20
16.675325694200001
 30
0.0
  0
VERTEX
  5
10D1
  8
_CURVE
  6
CONTINUOUS
 62
     7
 10
7.5293977113999988
 20
16.6119177896
 30
0.0
  0
VERTEX
  5
10D2
  8
_CURVE
  6
CONTINUOUS
 62
     7
 10
7.3889620025999978
 20
16.5466230008
 30
0.0
  0
VERTEX
  5
10D3
  8
_CURVE
  6
CONTINUOUS
 62
     7
 10
7.250215976799999
 20
16.479475301099981
 30
0.0
  0
VERTEX
  5
10D4
  8
_CURVE
  6
CONTINUOUS
 62
     7
 10
7.1671001778999992
 20
16.437958427999991
 30
0.0
  0
VERTEX
  5
10D5
  8
_CURVE
  6
CONTINUOUS
 62
     7
 10
7.0311967667999991
 20
16.367926304800001
 30
0.0
  0
VERTEX
  5
10D6
  8
_CURVE
  6
CONTINUOUS
 62
     7
 10
6.8971540670999989
 20
16.296162085700001
 30
0.0
  0
VERTEX
  5
10D7
  8
_CURVE
  6
CONTINUOUS
 62
     7
 10
6.7650127148000001
 20
16.222703774300001
 30
0.0
  0
VERTEX
  5
10D8
  8
_CURVE
  6
CONTINUOUS
 62
     7
 10
6.6348117579999979
 20
16.147589813699991
 30
0.0
  0
VERTEX
  5
10D9
  8
_CURVE
  6
CONTINUOUS
 62
     7
 10
6.5065886509000004
 20
16.070859034000001
 30
0.0
  0
VERTEX
  5
10DA
  8
_CURVE
  6
CONTINUOUS
 62
     7
 10
6.380379250699999
 20
15.992550600299991
 30
0.0
  0
VERTEX
  5
10DB
  8
_CURVE
  6
CONTINUOUS
 62
     7
 10
6.2562178179999979
 20
15.912703961199981
 30
0.0
  0
VERTEX
  5
10DC
  8
_CURVE
  6
CONTINUOUS
 62
     7
 10
6.1341370194999989
 20
15.8313587973
 30
0.0
  0
VERTEX
  5
10DD
  8
_CURVE
  6
CONTINUOUS
 62
     7
 10
6.0141679344999988
 20
15.74855497099999
 30
0.0
  0
VERTEX
  5
10DE
  8
_CURVE
  6
CONTINUOUS
 62
     7
 10
5.8963400641999986
 20
15.664332477
 30
0.0
  0
VERTEX
  5
10DF
  8
_CURVE
  6
CONTINUOUS
 62
     7
 10
5.7806813438999987
 20
15.57873139279998
 30
0.0
  0
VERTEX
  5
10E0
  8
_CURVE
  6
CONTINUOUS
 62
     7
 10
5.667218157699998
 20
15.4917918315
 30
0.0
  0
VERTEX
  5
10E1
  8
_CURVE
  6
CONTINUOUS
 62
     7
 10
5.5559753567000003
 20
15.4035538949
 30
0.0
  0
VERTEX
  5
10E2
  8
_CURVE
  6
CONTINUOUS
 62
     7
 10
5.4469762793000003
 20
15.3140576275
 30
0.0
  0
VERTEX
  5
10E3
  8
_CURVE
  6
CONTINUOUS
 62
     7
 10
5.3402427743000001
 20
15.223342972899999
 30
0.0
  0
VERTEX
  5
10E4
  8
_CURVE
  6
CONTINUOUS
 62
     7
 10
5.2357952266999988
 20
15.1314497307
 30
0.0
  0
VERTEX
  5
10E5
  8
_CURVE
  6
CONTINUOUS
 62
     7
 10
5.1336525851000001
 20
15.038417515000001
 30
0.0
  0
VERTEX
  5
10E6
  8
_CURVE
  6
CONTINUOUS
 62
     7
 10
5.033832392699999
 20
14.944285714699999
 30
0.0
  0
VERTEX
  5
10E7
  8
_CURVE
  6
CONTINUOUS
 62
     7
 10
4.9363508193000003
 20
14.8490934556
 30
0.0
  0
VERTEX
  5
10E8
  8
_CURVE
  6
CONTINUOUS
 62
     7
 10
4.8412226959999991
 20
14.752879563800001
 30
0.0
  0
VERTEX
  5
10E9
  8
_CURVE
  6
CONTINUOUS
 62
     7
 10
4.7484615514000001
 20
14.655682530999981
 30
0.0
  0
VERTEX
  5
10EA
  8
_CURVE
  6
CONTINUOUS
 62
     7
 10
4.6580796502999986
 20
14.5575404823
 30
0.0
  0
VERTEX
  5
10EB
  8
_CURVE
  6
CONTINUOUS
 62
     7
 10
4.5700880332000002
 20
14.458491145
 30
0.0
  0
VERTEX
  5
10EC
  8
_CURVE
  6
CONTINUOUS
 62
     7
 10
4.4844965579
 20
14.3585718201
 30
0.0
  0
VERTEX
  5
10ED
  8
_CURVE
  6
CONTINUOUS
 62
     7
 10
4.4013139426999981
 20
14.257819355899979
 30
0.0
  0
VERTEX
  5
10EE
  8
_CURVE
  6
CONTINUOUS
 62
     7
 10
4.3205478099999981
 20
14.156270122800001
 30
0.0
  0
VERTEX
  5
10EF
  8
_CURVE
  6
CONTINUOUS
 62
     7
 10
4.2422047322000003
 20
14.053959991499999
 30
0.0
  0
VERTEX
  5
10F0
  8
_CURVE
  6
CONTINUOUS
 62
     7
 10
4.166290277499999
 20
13.9509243127
 30
0.0
  0
VERTEX
  5
10F1
  8
_CURVE
  6
CONTINUOUS
 62
     7
 10
4.0928090574000002
 20
13.847197899199999
 30
0.0
  0
VERTEX
  5
10F2
  8
_CURVE
  6
CONTINUOUS
 62
     7
 10
4.0217647743000002
 20
13.742815009799999
 30
0.0
  0
VERTEX
  5
10F3
  8
_CURVE
  6
CONTINUOUS
 62
     7
 10
3.9531602699000001
 20
13.6378093368
 30
0.0
  0
VERTEX
  5
10F4
  8
_CURVE
  6
CONTINUOUS
 62
     7
 10
3.8869975738
 20
13.532213993999999
 30
0.0
  0
VERTEX
  5
10F5
  8
_CURVE
  6
CONTINUOUS
 62
     7
 10
3.8232779525999989
 20
13.4260615087
 30
0.0
  0
VERTEX
  5
10F6
  8
_CURVE
  6
CONTINUOUS
 62
     7
 10
3.7620019591
 20
13.3193838149
 30
0.0
  0
VERTEX
  5
10F7
  8
_CURVE
  6
CONTINUOUS
 62
     7
 10
3.7031694810000002
 20
13.2122122494
 30
0.0
  0
VERTEX
  5
10F8
  8
_CURVE
  6
CONTINUOUS
 62
     7
 10
3.6467797895999992
 20
13.10457755
 30
0.0
  0
VERTEX
  5
10F9
  8
_CURVE
  6
CONTINUOUS
 62
     7
 10
3.5928315882000001
 20
12.996509856299999
 30
0.0
  0
VERTEX
  5
10FA
  8
_CURVE
  6
CONTINUOUS
 62
     7
 10
3.5413230600999981
 20
12.8880387123
 30
0.0
  0
VERTEX
  5
10FB
  8
_CURVE
  6
CONTINUOUS
 62
     7
 10
3.492251915199998
 20
12.7791930722
 30
0.0
  0
VERTEX
  5
10FC
  8
_CURVE
  6
CONTINUOUS
 62
     7
 10
3.4456154365999989
 20
12.6700013073
 30
0.0
  0
VERTEX
  5
10FD
  8
_CURVE
  6
CONTINUOUS
 62
     7
 10
3.4014105254000002
 20
12.560491216200001
 30
0.0
  0
VERTEX
  5
10FE
  8
_CURVE
  6
CONTINUOUS
 62
     7
 10
3.359633745
 20
12.450690036799999
 30
0.0
  0
VERTEX
  5
10FF
  8
_CURVE
  6
CONTINUOUS
 62
     7
 10
3.320281363499999
 20
12.340624460000001
 30
0.0
  0
VERTEX
  5
1100
  8
_CURVE
  6
CONTINUOUS
 62
     7
 10
3.2833493949000001
 20
12.230320646599999
 30
0.0
  0
VERTEX
  5
1101
  8
_CURVE
  6
CONTINUOUS
 62
     7
 10
3.248833638499999
 20
12.119804245599999
 30
0.0
  0
VERTEX
  5
1102
  8
_CURVE
  6
CONTINUOUS
 62
     7
 10
3.2167297167000002
 20
12.009100414100001
 30
0.0
  0
VERTEX
  5
1103
  8
_CURVE
  6
CONTINUOUS
 62
     7
 10
3.1870331105999981
 20
11.8982338403
 30
0.0
  0
VERTEX
  5
1104
  8
_CURVE
  6
CONTINUOUS
 62
     7
 10
3.1597391936000001
 20
11.78722876779999
 30
0.0
  0
VERTEX
  5
1105
  8
_CURVE
  6
CONTINUOUS
 62
     7
 10
3.1348432627
 20
11.6761090214
 30
0.0
  0
VERTEX
  5
1106
  8
_CURVE
  6
CONTINUOUS
 62
     7
 10
3.1123405673999991
 20
11.56489803539999
 30
0.0
  0
VERTEX
  5
1107
  8
_CURVE
  6
CONTINUOUS
 62
     7
 10
3.0922263362999991
 20
11.453618883399979
 30
0.0
  0
VERTEX
  5
1108
  8
_CURVE
  6
CONTINUOUS
 62
     7
 10
3.074495800199998
 20
11.3422943093
 30
0.0
  0
VERTEX
  5
1109
  8
_CURVE
  6
CONTINUOUS
 62
     7
 10
3.059144213299998
 20
11.2309467606
 30
0.0
  0
VERTEX
  5
110A
  8
_CURVE
  6
CONTINUOUS
 62
     7
 10
3.0461668707
 20
11.11959842279999
 30
0.0
  0
VERTEX
  5
110B
  8
_CURVE
  6
CONTINUOUS
 62
     7
 10
3.0355591232999992
 20
11.0082712554
 30
0.0
  0
VERTEX
  5
110C
  8
_CURVE
  6
CONTINUOUS
 62
     7
 10
3.0273163883
 20
10.896987029
 30
0.0
  0
VERTEX
  5
110D
  8
_CURVE
  6
CONTINUOUS
 62
     7
 10
3.021434157899999
 20
10.7857673645
 30
0.0
  0
VERTEX
  5
110E
  8
_CURVE
  6
CONTINUOUS
 62
     7
 10
3.0179080026
 20
10.67463377279998
 30
0.0
  0
VERTEX
  5
110F
  8
_CURVE
  6
CONTINUOUS
 62
     7
 10
3.0167335716000001
 20
10.5636076964
 30
0.0
  0
SEQEND
  5
1110
  8
_CURVE
  6
CONTINUOUS
 62
     7
  0
LINE
  5
B08
  8
DEFAULT_1
  6
CENTER
 62
     7
 10
19.829233571599978
 20
16.0847209384
 30
0.0
 11
19.829233571599978
 21
15.813111987199999
 31
0.0
  0
LINE
  5
B09
  8
DEFAULT_1
  6
CENTER
 62
     7
 10
19.829233571599978
 20
5.0424944542999981
 30
0.0
 11
19.829233571599978
 21
4.7862617476000002
 31
0.0
  0
LINE
  5
B0A
  8
DEFAULT_1
  6
CENTER
 62
     7
 10
19.829233571599978
 20
5.0424944542999981
 30
0.0
 11
19.829233571599978
 21
5.2987271608999986
 31
0.0
  0
LINE
  5
B0B
  8
DEFAULT_1
  6
CENTER
 62
     7
 10
19.829233571599978
 20
16.0847209384
 30
0.0
 11
19.829233571599978
 21
16.3563298897
 31
0.0
  0
LINE
  5
B0C
  8
_CURVE
  6
CENTER
 62
     2
 10
3.0792335716000001
 20
20.079232696399998
 30
0.0
 11
21.0792335716
 21
20.079232696399998
 31
0.0
  0
POLYLINE
  5
B0D
  8
_CURVE
  6
CONTINUOUS
 62
     7
 66
     1
 10
0.0
 20
0.0
 30
0.0
  0
VERTEX
  5
1111
  8
_CURVE
  6
CONTINUOUS
 62
     7
 10
21.141733571599978
 20
10.5636076964
 30
0.0
  0
VERTEX
  5
1112
  8
_CURVE
  6
CONTINUOUS
 62
     7
 10
21.140559140600001
 20
10.67463377279998
 30
0.0
  0
VERTEX
  5
1113
  8
_CURVE
  6
CONTINUOUS
 62
     7
 10
21.137032985200001
 20
10.7857673645
 30
0.0
  0
VERTEX
  5
1114
  8
_CURVE
  6
CONTINUOUS
 62
     7
 10
21.1311507548
 20
10.896987029
 30
0.0
  0
VERTEX
  5
1115
  8
_CURVE
  6
CONTINUOUS
 62
     7
 10
21.12290801979999
 20
11.0082712554
 30
0.0
  0
VERTEX
  5
1116
  8
_CURVE
  6
CONTINUOUS
 62
     7
 10
21.112300272399992
 20
11.11959842279999
 30
0.0
  0
VERTEX
  5
1117
  8
_CURVE
  6
CONTINUOUS
 62
     7
 10
21.099322929799989
 20
11.2309467606
 30
0.0
  0
VERTEX
  5
1118
  8
_CURVE
  6
CONTINUOUS
 62
     7
 10
21.0839713429
 20
11.3422943093
 30
0.0
  0
VERTEX
  5
1119
  8
_CURVE
  6
CONTINUOUS
 62
     7
 10
21.0662408068
 20
11.453618883399979
 30
0.0
  0
VERTEX
  5
111A
  8
_CURVE
  6
CONTINUOUS
 62
     7
 10
21.046126575700001
 20
11.56489803539999
 30
0.0
  0
VERTEX
  5
111B
  8
_CURVE
  6
CONTINUOUS
 62
     7
 10
21.023623880499979
 20
11.6761090214
 30
0.0
  0
VERTEX
  5
111C
  8
_CURVE
  6
CONTINUOUS
 62
     7
 10
20.998727949500001
 20
11.78722876779999
 30
0.0
  0
VERTEX
  5
111D
  8
_CURVE
  6
CONTINUOUS
 62
     7
 10
20.971434032499999
 20
11.8982338403
 30
0.0
  0
VERTEX
  5
111E
  8
_CURVE
  6
CONTINUOUS
 62
     7
 10
20.9417374264
 20
12.009100414100001
 30
0.0
  0
VERTEX
  5
111F
  8
_CURVE
  6
CONTINUOUS
 62
     7
 10
20.909633504599999
 20
12.119804245599999
 30
0.0
  0
VERTEX
  5
1120
  8
_CURVE
  6
CONTINUOUS
 62
     7
 10
20.875117748200001
 20
12.230320646599999
 30
0.0
  0
VERTEX
  5
1121
  8
_CURVE
  6
CONTINUOUS
 62
     7
 10
20.8381857796
 20
12.340624460000001
 30
0.0
  0
VERTEX
  5
1122
  8
_CURVE
  6
CONTINUOUS
 62
     7
 10
20.798833398100001
 20
12.450690036799999
 30
0.0
  0
VERTEX
  5
1123
  8
_CURVE
  6
CONTINUOUS
 62
     7
 10
20.757056617699991
 20
12.560491216200001
 30
0.0
  0
VERTEX
  5
1124
  8
_CURVE
  6
CONTINUOUS
 62
     7
 10
20.71285170649999
 20
12.6700013073
 30
0.0
  0
VERTEX
  5
1125
  8
_CURVE
  6
CONTINUOUS
 62
     7
 10
20.6662152279
 20
12.7791930722
 30
0.0
  0
VERTEX
  5
1126
  8
_CURVE
  6
CONTINUOUS
 62
     7
 10
20.617144082999982
 20
12.8880387123
 30
0.0
  0
VERTEX
  5
1127
  8
_CURVE
  6
CONTINUOUS
 62
     7
 10
20.565635554899998
 20
12.996509856299999
 30
0.0
  0
VERTEX
  5
1128
  8
_CURVE
  6
CONTINUOUS
 62
     7
 10
20.511687353599999
 20
13.10457755
 30
0.0
  0
VERTEX
  5
1129
  8
_CURVE
  6
CONTINUOUS
 62
     7
 10
20.455297662100001
 20
13.2122122494
 30
0.0
  0
VERTEX
  5
112A
  8
_CURVE
  6
CONTINUOUS
 62
     7
 10
20.396465184
 20
13.3193838149
 30
0.0
  0
VERTEX
  5
112B
  8
_CURVE
  6
CONTINUOUS
 62
     7
 10
20.3351891905
 20
13.4260615087
 30
0.0
  0
VERTEX
  5
112C
  8
_CURVE
  6
CONTINUOUS
 62
     7
 10
20.271469569299999
 20
13.532213993999999
 30
0.0
  0
VERTEX
  5
112D
  8
_CURVE
  6
CONTINUOUS
 62
     7
 10
20.205306873199991
 20
13.6378093368
 30
0.0
  0
VERTEX
  5
112E
  8
_CURVE
  6
CONTINUOUS
 62
     7
 10
20.136702368800002
 20
13.742815009799999
 30
0.0
  0
VERTEX
  5
112F
  8
_CURVE
  6
CONTINUOUS
 62
     7
 10
20.06565808569998
 20
13.847197899199999
 30
0.0
  0
VERTEX
  5
1130
  8
_CURVE
  6
CONTINUOUS
 62
     7
 10
19.992176865600001
 20
13.9509243127
 30
0.0
  0
VERTEX
  5
1131
  8
_CURVE
  6
CONTINUOUS
 62
     7
 10
19.916262410999991
 20
14.053959991499999
 30
0.0
  0
VERTEX
  5
1132
  8
_CURVE
  6
CONTINUOUS
 62
     7
 10
19.8379193331
 20
14.156270122800001
 30
0.0
  0
VERTEX
  5
1133
  8
_CURVE
  6
CONTINUOUS
 62
     7
 10
19.757153200400001
 20
14.257819355899979
 30
0.0
  0
VERTEX
  5
1134
  8
_CURVE
  6
CONTINUOUS
 62
     7
 10
19.673970585199982
 20
14.3585718201
 30
0.0
  0
VERTEX
  5
1135
  8
_CURVE
  6
CONTINUOUS
 62
     7
 10
19.588379109899979
 20
14.458491145
 30
0.0
  0
VERTEX
  5
1136
  8
_CURVE
  6
CONTINUOUS
 62
     7
 10
19.500387492799991
 20
14.5575404823
 30
0.0
  0
VERTEX
  5
1137
  8
_CURVE
  6
CONTINUOUS
 62
     7
 10
19.410005591699989
 20
14.655682530999981
 30
0.0
  0
VERTEX
  5
1138
  8
_CURVE
  6
CONTINUOUS
 62
     7
 10
19.317244447099998
 20
14.752879563800001
 30
0.0
  0
VERTEX
  5
1139
  8
_CURVE
  6
CONTINUOUS
 62
     7
 10
19.222116323800002
 20
14.8490934556
 30
0.0
  0
VERTEX
  5
113A
  8
_CURVE
  6
CONTINUOUS
 62
     7
 10
19.124634750399998
 20
14.944285714699999
 30
0.0
  0
VERTEX
  5
113B
  8
_CURVE
  6
CONTINUOUS
 62
     7
 10
19.024814557999999
 20
15.038417515000001
 30
0.0
  0
VERTEX
  5
113C
  8
_CURVE
  6
CONTINUOUS
 62
     7
 10
18.922671916500001
 20
15.1314497307
 30
0.0
  0
VERTEX
  5
113D
  8
_CURVE
  6
CONTINUOUS
 62
     7
 10
18.818224368799999
 20
15.223342972899999
 30
0.0
  0
VERTEX
  5
113E
  8
_CURVE
  6
CONTINUOUS
 62
     7
 10
18.711490863800002
 20
15.3140576275
 30
0.0
  0
VERTEX
  5
113F
  8
_CURVE
  6
CONTINUOUS
 62
     7
 10
18.602491786400002
 20
15.4035538949
 30
0.0
  0
VERTEX
  5
1140
  8
_CURVE
  6
CONTINUOUS
 62
     7
 10
18.491248985399992
 20
15.4917918315
 30
0.0
  0
VERTEX
  5
1141
  8
_CURVE
  6
CONTINUOUS
 62
     7
 10
18.377785799200002
 20
15.57873139279998
 30
0.0
  0
VERTEX
  5
1142
  8
_CURVE
  6
CONTINUOUS
 62
     7
 10
18.262127078900001
 20
15.664332477
 30
0.0
  0
VERTEX
  5
1143
  8
_CURVE
  6
CONTINUOUS
 62
     7
 10
18.1442992086
 20
15.74855497099999
 30
0.0
  0
VERTEX
  5
1144
  8
_CURVE
  6
CONTINUOUS
 62
     7
 10
18.024330123599992
 20
15.8313587973
 30
0.0
  0
VERTEX
  5
1145
  8
_CURVE
  6
CONTINUOUS
 62
     7
 10
17.902249325100001
 20
15.912703961199981
 30
0.0
  0
VERTEX
  5
1146
  8
_CURVE
  6
CONTINUOUS
 62
     7
 10
17.778087892399991
 20
15.992550600299991
 30
0.0
  0
VERTEX
  5
1147
  8
_CURVE
  6
CONTINUOUS
 62
     7
 10
17.651878492200002
 20
16.070859034000001
 30
0.0
  0
VERTEX
  5
1148
  8
_CURVE
  6
CONTINUOUS
 62
     7
 10
17.5236553851
 20
16.147589813699991
 30
0.0
  0
VERTEX
  5
1149
  8
_CURVE
  6
CONTINUOUS
 62
     7
 10
17.3934544283
 20
16.222703774300001
 30
0.0
  0
VERTEX
  5
114A
  8
_CURVE
  6
CONTINUOUS
 62
     7
 10
17.261313076
 20
16.296162085700001
 30
0.0
  0
VERTEX
  5
114B
  8
_CURVE
  6
CONTINUOUS
 62
     7
 10
17.1272703763
 20
16.367926304800001
 30
0.0
  0
VERTEX
  5
114C
  8
_CURVE
  6
CONTINUOUS
 62
     7
 10
16.991366965200001
 20
16.437958427999991
 30
0.0
  0
VERTEX
  5
114D
  8
_CURVE
  6
CONTINUOUS
 62
     7
 10
16.908251166300001
 20
16.479475301099981
 30
0.0
  0
VERTEX
  5
114E
  8
_CURVE
  6
CONTINUOUS
 62
     7
 10
16.769505140499991
 20
16.5466230008
 30
0.0
  0
VERTEX
  5
114F
  8
_CURVE
  6
CONTINUOUS
 62
     7
 10
16.6290694317
 20
16.6119177896
 30
0.0
  0
VERTEX
  5
1150
  8
_CURVE
  6
CONTINUOUS
 62
     7
 10
16.4869928964
 20
16.675325694200001
 30
0.0
  0
VERTEX
  5
1151
  8
_CURVE
  6
CONTINUOUS
 62
     7
 10
16.3433258363
 20
16.736813530700001
 30
0.0
  0
VERTEX
  5
1152
  8
_CURVE
  6
CONTINUOUS
 62
     7
 10
16.198119967299998
 20
16.796348955100001
 30
0.0
  0
VERTEX
  5
1153
  8
_CURVE
  6
CONTINUOUS
 62
     7
 10
16.051428385499989
 20
16.853900513100001
 30
0.0
  0
VERTEX
  5
1154
  8
_CURVE
  6
CONTINUOUS
 62
     7
 10
15.903305531099999
 20
16.909437688899999
 30
0.0
  0
VERTEX
  5
1155
  8
_CURVE
  6
CONTINUOUS
 62
     7
 10
15.7538071478
 20
16.962930952600001
 30
0.0
  0
VERTEX
  5
1156
  8
_CURVE
  6
CONTINUOUS
 62
     7
 10
15.602990240899979
 20
17.014351807400001
 30
0.0
  0
VERTEX
  5
1157
  8
_CURVE
  6
CONTINUOUS
 62
     7
 10
15.45091303099999
 20
17.0636728335
 30
0.0
  0
VERTEX
  5
1158
  8
_CURVE
  6
CONTINUOUS
 62
     7
 10
15.297634906700001
 20
17.110867732700001
 30
0.0
  0
VERTEX
  5
1159
  8
_CURVE
  6
CONTINUOUS
 62
     7
 10
15.1432163733
 20
17.1559113699
 30
0.0
  0
VERTEX
  5
115A
  8
_CURVE
  6
CONTINUOUS
 62
     7
 10
14.9877189997
 20
17.198779813099978
 30
0.0
  0
VERTEX
  5
115B
  8
_CURVE
  6
CONTINUOUS
 62
     7
 10
14.8312053629
 20
17.239450372699999
 30
0.0
  0
VERTEX
  5
115C
  8
_CURVE
  6
CONTINUOUS
 62
     7
 10
14.6737389902
 20
17.277901637100001
 30
0.0
  0
VERTEX
  5
115D
  8
_CURVE
  6
CONTINUOUS
 62
     7
 10
14.515384299000001
 20
17.3141135081
 30
0.0
  0
VERTEX
  5
115E
  8
_CURVE
  6
CONTINUOUS
 62
     7
 10
14.3562065354
 20
17.348067232999998
 30
0.0
  0
VERTEX
  5
115F
  8
_CURVE
  6
CONTINUOUS
 62
     7
 10
14.19627171
 20
17.379745435
 30
0.0
  0
VERTEX
  5
1160
  8
_CURVE
  6
CONTINUOUS
 62
     7
 10
14.0356465329
 20
17.409132141800001
 30
0.0
  0
VERTEX
  5
1161
  8
_CURVE
  6
CONTINUOUS
 62
     7
 10
13.8743983469
 20
17.436212810699999
 30
0.0
  0
VERTEX
  5
1162
  8
_CURVE
  6
CONTINUOUS
 62
     7
 10
13.712595059
 20
17.460974353099999
 30
0.0
  0
VERTEX
  5
1163
  8
_CURVE
  6
CONTINUOUS
 62
     7
 10
13.5503050713
 20
17.483405155100002
 30
0.0
  0
VERTEX
  5
1164
  8
_CURVE
  6
CONTINUOUS
 62
     7
 10
13.38759721079999
 20
17.503495096199991
 30
0.0
  0
VERTEX
  5
1165
  8
_CURVE
  6
CONTINUOUS
 62
     7
 10
13.22454065819999
 20
17.521235565899989
 30
0.0
  0
VERTEX
  5
1166
  8
_CURVE
  6
CONTINUOUS
 62
     7
 10
13.0612048759
 20
17.5366194777
 30
0.0
  0
VERTEX
  5
1167
  8
_CURVE
  6
CONTINUOUS
 62
     7
 10
12.897659536300001
 20
17.549641279700001
 30
0.0
  0
VERTEX
  5
1168
  8
_CURVE
  6
CONTINUOUS
 62
     7
 10
12.7339744491
 20
17.560296964300001
 30
0.0
  0
VERTEX
  5
1169
  8
_CURVE
  6
CONTINUOUS
 62
     7
 10
12.570219488799999
 20
17.568584073899999
 30
0.0
  0
VERTEX
  5
116A
  8
_CURVE
  6
CONTINUOUS
 62
     7
 10
12.4064645225
 20
17.574501705199999
 30
0.0
  0
VERTEX
  5
116B
  8
_CURVE
  6
CONTINUOUS
 62
     7
 10
12.2427793379
 20
17.578050510400001
 30
0.0
  0
VERTEX
  5
116C
  8
_CURVE
  6
CONTINUOUS
 62
     7
 10
12.0792335716
 20
17.579232696399998
 30
0.0
  0
SEQEND
  5
116D
  8
_CURVE
  6
CONTINUOUS
 62
     7
  0
CIRCLE
  5
B6B
  8
0
  6
CONTINUOUS
 62
     2
 10
9.4532972842999996
 20
11.393604933800001
 30
0.0
 40
0.2116096784
  0
CIRCLE
  5
B6C
  8
0
  6
CONTINUOUS
 62
     2
 10
15.75936368069998
 20
13.1586704851
 30
0.0
 40
0.0807841983
  0
CIRCLE
  5
B6D
  8
_CURVE
  6
CONTINUOUS
 62
     7
 10
19.829233571599978
 20
16.0847209384
 30
0.0
 40
0.19
  0
CIRCLE
  5
B6E
  8
_CURVE
  6
CONTINUOUS
 62
     7
 10
19.829233571599978
 20
5.0424944542999981
 30
0.0
 40
0.19
  0
CIRCLE
  5
B6F
  8
_CURVE
  6
CONTINUOUS
 62
     7
 10
4.3292335715999988
 20
5.0424944542999981
 30
0.0
 40
0.19
  0
CIRCLE
  5
B70
  8
_CURVE
  6
CONTINUOUS
 62
     7
 10
4.3292335715999988
 20
16.0847209384
 30
0.0
 40
0.19
  0
ARC
  5
B73
  8
ARC
 10
9.8239710191713971
 20
9.8877654955162591
 30
0.0
 40
7.899813110482552
 50
133.60293957651379
 51
152.2645222642029
  0
ARC
  5
B74
  8
ARC
 10
11.116473587240501
 20
8.5291908346488778
 30
0.0
 40
9.7756219627667971
 50
115.6097830141949
 51
133.19160865734639
  0
ARC
  5
B75
  8
ARC
 10
12.00089746759808
 20
6.7088724484680471
 30
0.0
 40
11.79939797928998
 50
96.24423799923953
 51
115.6618521939543
  0
ARC
  5
B76
  8
ARC
 10
12.080048863394859
 20
6.2547257022815721
 30
0.0
 40
12.25949443220256
 50
78.968101277035259
 51
96.381107203661685
  0
ARC
  5
B77
  8
ARC
 10
12.3114277046926
 20
7.1823112881255282
 30
0.0
 40
11.30488310738375
 50
59.339660312669047
 51
79.219509570348123
  0
ARC
  5
B78
  8
ARC
 10
13.443968843048459
 20
9.0583099517153638
 30
0.0
 40
9.1136190771542633
 50
39.550577136499442
 51
59.450038606934683
  0
ARC
  5
B79
  8
ARC
 10
15.176993092646329
 20
10.41988209647965
 30
0.0
 40
6.909970529580808
 50
5.6955168415069632
 51
39.529568237961641
  0
ARC
  5
B7A
  8
ARC
 10
15.77653068546867
 20
10.56639936095935
 30
0.0
 40
6.299443094819356
 50
342.9775165958518
 51
4.9106097479687483
  0
ARC
  5
B7B
  8
ARC
 10
14.66671295127567
 20
10.981682818291009
 30
0.0
 40
7.482560909326601
 50
314.18199460649959
 51
342.42470018688721
  0
ARC
  5
B7C
  8
ARC
 10
13.071841184265161
 20
12.5410385635333
 30
0.0
 40
9.7125177191042091
 50
294.78597608790182
 51
314.51797070659671
  0
ARC
  5
B7D
  8
ARC
 10
20.55299092020039
 20
-3.5139022323313611
 30
0.0
 40
7.9999999996240723
 50
115.2248389390797
 51
122.9966209525796
  0
ARC
  5
B7E
  8
ARC
 10
13.4733264708
 20
7.389232696399997
 30
0.0
 40
4.9999999999999938
 50
270.0
 51
302.99662095209999
  0
LINE
  5
B7F
  8
ARC
 10
13.4733264708
 20
2.3892326963999979
 30
0.0
 11
10.68514067229999
 21
2.3892326963999979
 31
0.0
  0
ARC
  5
B80
  8
ARC
 10
10.68514067229601
 20
7.3892326963089641
 30
0.0
 40
4.9999999999089599
 50
237.0033790479454
 51
270.00000000004542
  0
ARC
  5
B81
  8
ARC
 10
11.436386195310471
 20
13.135164690981821
 30
0.0
 40
10.39876834663642
 50
235.29976528744939
 51
244.83678880885381
  0
ARC
  5
B82
  8
ARC
 10
3.6054762232272028
 20
-3.5139022324141509
 30
0.0
 40
7.9999999995276063
 50
57.003379049351182
 51
64.775161062851183
  0
ARC
  5
B83
  8
ARC
 10
10.623654044331399
 20
11.991283463401921
 30
0.0
 40
8.9957324156582672
 50
221.3223201698911
 51
235.25829757965991
  0
ARC
  5
B84
  8
ARC
 10
9.5246853269619578
 20
11.0323621645801
 30
0.0
 40
7.537231000957334
 50
203.4860757877785
 51
221.36402450238509
  0
ARC
  5
B85
  8
ARC
 10
8.6074003047297296
 20
10.614397094797679
 30
0.0
 40
6.529390839643459
 50
187.71728843079171
 51
203.33007732310341
  0
ARC
  5
B86
  8
ARC
 10
8.3020155052446185
 20
10.56437531436106
 30
0.0
 40
6.220266665138638
 50
167.71414090544599
 51
187.15778022538441
  0
ARC
  5
B87
  8
ARC
 10
8.8136145358554412
 20
10.4455915213265
 30
0.0
 40
6.7457391866567917
 50
153.4813071714816
 51
167.23539350022941
  0
ENDSEC
  0
EOF
