999
DXF file: 1031348_7_b.dxf
999
Pro/ENGINEER 2004030 by Parametric Technology Corporation
0
SECTION
2
HEADER
9
$ACADVER
1
AC1014
9
$EXTMAX
10
44.0000000000
20
34.0000000000
30
0.0000000000
9
$EXTMIN
10
0.0000000000
20
0.0000000000
30
0.0000000000
9
$LIMMIN
10
0.0000000000
20
0.0000000000
9
$LIMMAX
10
44.0000000000
20
34.0000000000
9
$VIEWCTR
10
22.0000000000
20
17.0000000000
9
$VIEWSIZE
40
34.0000000000
9
$CLAYER
8
0
9
$LTSCALE
40
2.4200000000
9
$CELTYPE
6
BYLAYER
9
$DIMSCALE
40
1
9
$DIMASZ
40
0.1875000000
9
$DIMEXO
40
0.2750000000
9
$DIMDLI
40
1.6720000000
9
$DIMEXE
40
0.7920000000
9
$DIMCEN
40
0.3960000000
9
$DIMLFAC
40
1.0000000000
9
$DIMBLK
1
_FILLED
9
$DIMTXT
40
0.1562500000
9
$DIMTOL
70
1
9
$DIMLIM
70
0
9
$DIMTFAC
40
1.0000000000
9
$DIMTP
40
0.0100000000
9
$DIMTM
40
0.0100000000
9
$PDMODE
70
3
9
$PDSIZE
40
0.3125000000
9
$HANDSEED
5
392
9
$MEASUREMENT
70
0
0
ENDSEC
0
SECTION
2
CLASSES
0
ENDSEC
0
SECTION
2
TABLES
0
TABLE
2
VPORT
5
8
100
AcDbSymbolTable
70
2
0
VPORT
5
1F4
100
AcDbSymbolTableRecord
100
AcDbViewportTableRecord
2
*ACTIVE
70
0
10
0.0
20
0.0
11
1.0
21
1.0
12
22.0000000000
22
17.0000000000
13
0.0
23
0.0
14
1.0
24
1.0
15
0.0
25
0.0
16
0.0
26
0.0
36
1.0
17
0.0
27
0.0
37
0.0
40
34.0000000000
41
1.2941176471
42
50.0
43
0.0
44
0.0
50
0.0
51
0.0
71
0
72
100
73
1
74
1
75
0
76
0
77
0
78
0
0
ENDTAB
0
TABLE
2
LTYPE
5
5
100
AcDbSymbolTable
70
6
0
LTYPE
5
14
100
AcDbSymbolTableRecord
100
AcDbLinetypeTableRecord
2
BYBLOCK
70
0
3

72
65
73
0
40
0.0
0
LTYPE
5
15
100
AcDbSymbolTableRecord
100
AcDbLinetypeTableRecord
2
BYLAYER
70
0
3

72
65
73
0
40
0.0
0
LTYPE
5
16
100
AcDbSymbolTableRecord
100
AcDbLinetypeTableRecord
2
CONTINUOUS
70
64
3
Solid line
72
65
73
0
40
0
0
LTYPE
5
1F5
100
AcDbSymbolTableRecord
100
AcDbLinetypeTableRecord
2
CENTER
70
64
3
____ _ ____ _ ____ _ ____ _ ____ _ ____ _ ____
72
65
73
4
40
0.6
49
0.375
74
0
49
-0.075
74
0
49
0.075
74
0
49
-0.075
74
0
0
LTYPE
5
1F6
100
AcDbSymbolTableRecord
100
AcDbLinetypeTableRecord
2
HIDDEN
70
64
3
- - - - - - - - - - - - - - - - - - - -
72
65
73
2
40
0.2
49
0.1
74
0
49
-0.1
74
0
0
LTYPE
5
1F7
100
AcDbSymbolTableRecord
100
AcDbLinetypeTableRecord
2
PHANTOM
70
64
3
_____ _ _ _____ _ _ _____ _ _ _____
72
65
73
6
40
0.8
49
0.45
74
0
49
-0.05
74
0
49
0.1
74
0
49
-0.05
74
0
49
0.1
74
0
49
-0.05
74
0
0
LTYPE
5
1F8
100
AcDbSymbolTableRecord
100
AcDbLinetypeTableRecord
2
DOT
70
64
3
. . . . . . . . . . . . . . . . . . . .
72
65
73
2
40
0.2
49
0.1
74
0
49
-0.1
74
0
0
LTYPE
5
1F9
100
AcDbSymbolTableRecord
100
AcDbLinetypeTableRecord
2
DASHED
70
64
3
- - - - - - - - - - - - - - - - - - - -
72
65
73
2
40
0.2
49
0.1
74
0
49
-0.1
74
0
0
ENDTAB
0
TABLE
2
LAYER
5
2
100
AcDbSymbolTable
70
36
0
LAYER
5
10
100
AcDbSymbolTableRecord
100
AcDbLayerTableRecord
2
0
70
0
62
7
6
CONTINUOUS
0
LAYER
5
1FA
100
AcDbSymbolTableRecord
100
AcDbLayerTableRecord
2
DEFAULT_1
70
0
62
7
6
CENTER
0
LAYER
5
1FB
100
AcDbSymbolTableRecord
100
AcDbLayerTableRecord
2
DEFAULT_2
70
0
62
8
6
HIDDEN
0
LAYER
5
1FC
100
AcDbSymbolTableRecord
100
AcDbLayerTableRecord
2
DEFAULT_3
70
0
62
7
6
PHANTOM
0
LAYER
5
1FD
100
AcDbSymbolTableRecord
100
AcDbLayerTableRecord
2
DATUMS
70
0
62
7
6
CONTINUOUS
0
LAYER
5
1FE
100
AcDbSymbolTableRecord
100
AcDbLayerTableRecord
2
DATUM_AXIS
70
0
62
7
6
CONTINUOUS
0
LAYER
5
1FF
100
AcDbSymbolTableRecord
100
AcDbLayerTableRecord
2
DATUM_CSYS
70
0
62
7
6
CONTINUOUS
0
LAYER
5
200
100
AcDbSymbolTableRecord
100
AcDbLayerTableRecord
2
DATUM_PLANE
70
0
62
7
6
CONTINUOUS
0
LAYER
5
201
100
AcDbSymbolTableRecord
100
AcDbLayerTableRecord
2
DATUM_POINT
70
0
62
7
6
CONTINUOUS
0
LAYER
5
202
100
AcDbSymbolTableRecord
100
AcDbLayerTableRecord
2
IMPORT
70
0
62
7
6
CONTINUOUS
0
LAYER
5
203
100
AcDbSymbolTableRecord
100
AcDbLayerTableRecord
2
INTF_4
70
0
62
7
6
CONTINUOUS
0
LAYER
5
204
100
AcDbSymbolTableRecord
100
AcDbLayerTableRecord
2
TEMPLATE
70
0
62
7
6
CONTINUOUS
0
LAYER
5
205
100
AcDbSymbolTableRecord
100
AcDbLayerTableRecord
2
_CURVE
70
0
62
7
6
CONTINUOUS
0
LAYER
5
206
100
AcDbSymbolTableRecord
100
AcDbLayerTableRecord
2
_SURFACE
70
0
62
7
6
CONTINUOUS
0
LAYER
5
207
100
AcDbSymbolTableRecord
100
AcDbLayerTableRecord
2
__REF_CURVE
70
0
62
7
6
CONTINUOUS
0
LAYER
5
208
100
AcDbSymbolTableRecord
100
AcDbLayerTableRecord
2
__REF_SURFACE
70
0
62
7
6
CONTINUOUS
0
LAYER
5
209
100
AcDbSymbolTableRecord
100
AcDbLayerTableRecord
2
___COSMETIC_SKETCH
70
0
62
7
6
CONTINUOUS
0
LAYER
5
20A
100
AcDbSymbolTableRecord
100
AcDbLayerTableRecord
2
___NOTE
70
0
62
7
6
CONTINUOUS
0
LAYER
5
20B
100
AcDbSymbolTableRecord
100
AcDbLayerTableRecord
2
___SYMBOL
70
0
62
7
6
CONTINUOUS
0
ENDTAB
0
TABLE
2
STYLE
5
3
100
AcDbSymbolTable
70
1
0
STYLE
5
11
100
AcDbSymbolTableRecord
100
AcDbTextStyleTableRecord
2
STANDARD
70
0
40
0.0
41
0.8000000000
50
0.0
71
0
42
0.2
3
txt
4

0
ENDTAB
0
TABLE
2
VIEW
5
6
100
AcDbSymbolTable
70
0
0
ENDTAB
0
TABLE
2
UCS
5
7
100
AcDbSymbolTable
70
0
0
ENDTAB
0
TABLE
2
APPID
5
9
100
AcDbSymbolTable
70
1
0
APPID
5
20C
100
AcDbSymbolTableRecord
100
AcDbRegAppTableRecord
2
ACAD
70
0
0
ENDTAB
0
TABLE
2
DIMSTYLE
5
A
100
AcDbSymbolTable
70
1
0
DIMSTYLE
105
20D
100
AcDbSymbolTableRecord
100
AcDbDimStyleTableRecord
2
STANDARD
70
0
3

4

5
_FILLED
6
_FILLED
7
_FILLED
40
1.0
41
0.1875000000
42
0.0625
43
0.38
44
0.18
45
0.0
46
0.0
47
0.0100000000
48
0.0100000000
140
0.1562500000
141
0.09
142
0.0
143
25.4
144
1.0000000000
145
0.0
146
1.0000000000
147
0.09
71
1
72
0
73
1
74
1
75
0
76
0
77
0
78
4
170
0
171
2
172
0
173
0
174
0
175
0
176
0
177
0
178
0
270
2
271
3
272
3
273
2
274
2
340
11
275
0
280
0
281
0
282
0
283
1
284
4
285
0
286
0
287
3
288
0
0
DIMSTYLE
105
20E
100
AcDbSymbolTableRecord
100
AcDbDimStyleTableRecord
2
DIMSTYLE_1
70
0
3

4

5
_FILLED
6
_FILLED
7
_FILLED
40
1.0
41
0.1875000000
42
0.0625
43
0.38
44
0.18
45
0.0
46
0.0
47
0.0312500000
48
0.0312500000
140
0.1562500000
141
0.09
142
0.0
143
25.4
144
1.0000000000
145
0.0
146
1.0000000000
147
0.09
71
0
72
0
73
1
74
1
75
0
76
0
77
0
78
4
170
0
171
2
172
0
173
0
174
0
175
0
176
0
177
0
178
0
270
2
271
5
272
5
273
2
274
2
340
11
275
0
280
0
281
0
282
0
283
1
284
4
285
0
286
0
287
3
288
0
0
ENDTAB
0
TABLE
2
BLOCK_RECORD
5
1
100
AcDbSymbolTable
70
0
0
BLOCK_RECORD
5
1B
100
AcDbSymbolTableRecord
100
AcDbBlockTableRecord
2
*MODEL_SPACE
0
BLOCK_RECORD
5
1C
100
AcDbSymbolTableRecord
100
AcDbBlockTableRecord
2
*PAPER_SPACE
0
BLOCK_RECORD
5
20F
100
AcDbSymbolTableRecord
100
AcDbBlockTableRecord
2
_FILLED
0
BLOCK_RECORD
5
210
100
AcDbSymbolTableRecord
100
AcDbBlockTableRecord
2
*D0
0
BLOCK_RECORD
5
211
100
AcDbSymbolTableRecord
100
AcDbBlockTableRecord
2
*D1
0
BLOCK_RECORD
5
212
100
AcDbSymbolTableRecord
100
AcDbBlockTableRecord
2
*D2
0
BLOCK_RECORD
5
213
100
AcDbSymbolTableRecord
100
AcDbBlockTableRecord
2
PACKAGING_UPC_BL0
0
BLOCK_RECORD
5
214
100
AcDbSymbolTableRecord
100
AcDbBlockTableRecord
2
KOHLER_BL1
0
ENDTAB
0
ENDSEC
0
SECTION
2
BLOCKS
0
BLOCK
5
1E
100
AcDbEntity
8
0
100
AcDbBlockBegin
2
*MODEL_SPACE
70
0
10
0.0
20
0.0
30
0.0
3
*MODEL_SPACE
1

0
ENDBLK
5
1F
100
AcDbEntity
8
0
100
AcDbBlockEnd
0
BLOCK
5
20
100
AcDbEntity
8
0
100
AcDbBlockBegin
2
*PAPER_SPACE
70
0
10
0.0
20
0.0
30
0.0
3
*PAPER_SPACE
1

0
ENDBLK
5
21
100
AcDbEntity
8
0
100
AcDbBlockEnd
0
BLOCK
5
215
100
AcDbEntity
8
0
100
AcDbBlockBegin
62
2
6
CONTINUOUS
2
*D0
70
65
10
0.0000000000
20
0.0000000000
3
*D0
1

0
TEXT
5
216
100
AcDbEntity
8
0
100
AcDbText
62
2
6
CONTINUOUS
10
23.2359612751
20
19.0883382216
7
STANDARD
40
0.1562500000
1
"
41
0.8000000000
72
0
100
AcDbText
0
TEXT
5
217
100
AcDbEntity
8
0
100
AcDbText
62
2
6
CONTINUOUS
10
22.7359612751
20
18.8539632216
7
STANDARD
40
0.1562500000
1
[46 cm]
41
0.8000000000
72
0
100
AcDbText
0
TEXT
5
218
100
AcDbEntity
8
0
100
AcDbText
62
2
6
CONTINUOUS
10
22.9859612751
20
19.0883382216
7
STANDARD
40
0.1562500000
1
18
41
0.8000000000
72
0
100
AcDbText
0
LINE
5
219
100
AcDbEntity
8
0
100
AcDbLine
62
2
6
CONTINUOUS
10
11.7174970982
20
19.5857598465
11
11.7174970982
21
19.0414632216
0
LINE
5
21A
100
AcDbEntity
8
0
100
AcDbLine
62
2
6
CONTINUOUS
10
29.7099970982
20
19.2643053011
11
29.7099970982
21
19.0414632216
0
LINE
5
21B
100
AcDbEntity
8
0
100
AcDbLine
62
2
6
CONTINUOUS
10
11.7174970982
20
19.1664632216
11
22.6578362751
21
19.1664632216
0
LINE
5
21C
100
AcDbEntity
8
0
100
AcDbLine
62
2
6
CONTINUOUS
10
29.7099970982
20
19.1664632216
11
23.6890862751
21
19.1664632216
0
INSERT
5
21D
100
AcDbEntity
8
0
100
AcDbBlockReference
62
2
6
CONTINUOUS
2
_FILLED
10
11.7174970982
20
19.1664632216
41
  0.187500
42
  0.187500
43
  0.187500
50
180.000000
0
INSERT
5
21E
100
AcDbEntity
8
0
100
AcDbBlockReference
62
2
6
CONTINUOUS
2
_FILLED
10
29.7099970982
20
19.1664632216
41
  0.187500
42
  0.187500
43
  0.187500
0
ENDBLK
5
21F
100
AcDbEntity
8
0
6
BYBLOCK
62
0
100
AcDbBlockEnd
0
BLOCK
5
220
100
AcDbEntity
8
0
100
AcDbBlockBegin
62
2
6
CONTINUOUS
2
*D1
70
65
10
0.0000000000
20
0.0000000000
3
*D1
1

0
TEXT
5
221
100
AcDbEntity
8
0
100
AcDbText
62
2
6
CONTINUOUS
10
11.3522468767
20
27.6521110332
7
STANDARD
40
0.1562500000
1
"
41
0.8000000000
72
0
100
AcDbText
0
TEXT
5
222
100
AcDbEntity
8
0
100
AcDbText
62
2
6
CONTINUOUS
10
10.6022468767
20
27.4177360332
7
STANDARD
40
0.1562500000
1
[6,4 cm]
41
0.8000000000
72
0
100
AcDbText
0
TEXT
5
223
100
AcDbEntity
8
0
100
AcDbText
62
2
6
CONTINUOUS
10
10.7272468767
20
27.6521110332
7
STANDARD
40
0.1562500000
1
2-1/2
41
0.8000000000
72
0
100
AcDbText
0
LINE
5
224
100
AcDbEntity
8
0
100
AcDbLine
62
2
6
CONTINUOUS
10
12.0299970982
20
25.7701341334
11
10.9772468767
21
25.7701341334
0
LINE
5
225
100
AcDbEntity
8
0
100
AcDbLine
62
2
6
CONTINUOUS
10
10.4508660390
20
28.2701341334
11
11.2272468767
21
28.2701341334
0
LINE
5
226
100
AcDbEntity
8
0
100
AcDbLine
62
2
6
CONTINUOUS
10
11.1022468767
20
25.7701341334
11
11.1022468767
21
27.3396110332
0
LINE
5
227
100
AcDbEntity
8
0
100
AcDbLine
62
2
6
CONTINUOUS
10
11.1022468767
20
28.2701341334
11
11.1022468767
21
27.8864860332
0
INSERT
5
228
100
AcDbEntity
8
0
100
AcDbBlockReference
62
2
6
CONTINUOUS
2
_FILLED
10
11.1022468767
20
25.7701341334
41
  0.187500
42
  0.187500
43
  0.187500
50
270.000000
0
INSERT
5
229
100
AcDbEntity
8
0
100
AcDbBlockReference
62
2
6
CONTINUOUS
2
_FILLED
10
11.1022468767
20
28.2701341334
41
  0.187500
42
  0.187500
43
  0.187500
50
 90.000000
0
ENDBLK
5
22A
100
AcDbEntity
8
0
6
BYBLOCK
62
0
100
AcDbBlockEnd
0
BLOCK
5
22B
100
AcDbEntity
8
0
100
AcDbBlockBegin
62
2
6
CONTINUOUS
2
*D2
70
65
10
0.0000000000
20
0.0000000000
3
*D2
1

0
TEXT
5
22C
100
AcDbEntity
8
0
100
AcDbText
62
2
6
CONTINUOUS
10
20.5989687009
20
17.3967758269
7
STANDARD
40
0.1562500000
1
"
41
0.8000000000
72
0
100
AcDbText
0
TEXT
5
22D
100
AcDbEntity
8
0
100
AcDbText
62
2
6
CONTINUOUS
10
19.5989687009
20
17.1624008269
7
STANDARD
40
0.1562500000
1
[36,8 CM]
41
0.8000000000
72
0
100
AcDbText
0
TEXT
5
22E
100
AcDbEntity
8
0
100
AcDbText
62
2
6
CONTINUOUS
10
19.5989687009
20
17.3967758269
7
STANDARD
40
0.1562500000
1
14-11/32
41
0.8000000000
72
0
100
AcDbText
0
LINE
5
22F
100
AcDbEntity
8
0
100
AcDbLine
62
2
6
CONTINUOUS
10
19.4598499517
20
25.7701341334
11
20.2864687009
21
25.7701341334
0
LINE
5
230
100
AcDbEntity
8
0
100
AcDbLine
62
2
6
CONTINUOUS
10
19.6823954063
20
11.4231341334
11
20.2864687009
21
11.4231341334
0
LINE
5
231
100
AcDbEntity
8
0
100
AcDbLine
62
2
6
CONTINUOUS
10
20.1614687009
20
25.7701341334
11
20.1614687009
21
17.6311508269
0
LINE
5
232
100
AcDbEntity
8
0
100
AcDbLine
62
2
6
CONTINUOUS
10
20.1614687009
20
11.4231341334
11
20.1614687009
21
17.0842758269
0
INSERT
5
233
100
AcDbEntity
8
0
100
AcDbBlockReference
62
2
6
CONTINUOUS
2
_FILLED
10
20.1614687009
20
25.7701341334
41
  0.187500
42
  0.187500
43
  0.187500
50
 90.000000
0
INSERT
5
234
100
AcDbEntity
8
0
100
AcDbBlockReference
62
2
6
CONTINUOUS
2
_FILLED
10
20.1614687009
20
11.4231341334
41
  0.187500
42
  0.187500
43
  0.187500
50
270.000000
0
ENDBLK
5
235
100
AcDbEntity
8
0
6
BYBLOCK
62
0
100
AcDbBlockEnd
0
BLOCK
5
236
100
AcDbEntity
8
0
100
AcDbBlockBegin
62
2
6
CONTINUOUS
2
PACKAGING_UPC_BL0
70
64
10
25.4152930958
20
22.6246021902
3
PACKAGING_UPC_BL0
1

0
TEXT
5
237
100
AcDbEntity
8
0
100
AcDbText
62
7
6
CONTINUOUS
10
23.8812922074
20
23.1516054916
7
STANDARD
40
0.0593587494
1
XXXXX-XX-X-XX
41
0.8258950223
72
0
100
AcDbText
0
TEXT
5
238
100
AcDbEntity
8
0
100
AcDbText
62
7
6
CONTINUOUS
10
25.5152721915
20
23.0224404928
7
STANDARD
40
0.0445192496
1
xxxxxx-xx
41
0.6740211631
72
0
100
AcDbText
0
TEXT
5
239
100
AcDbEntity
8
0
100
AcDbText
62
2
6
CONTINUOUS
10
22.7509479099
20
24.6952341564
7
STANDARD
40
0.1562500055
1
PACKAGING/UPC LABEL ON BOX
41
0.8000000000
72
0
100
AcDbText
0
TEXT
5
23A
100
AcDbEntity
8
0
100
AcDbText
62
2
6
CONTINUOUS
10
22.7509479099
20
24.4608591481
7
STANDARD
40
0.1562500055
1
ETIQUETA DE EMBALAJE/UPC EN LA CAJA
41
0.8000000000
72
0
100
AcDbText
0
TEXT
5
23B
100
AcDbEntity
8
0
100
AcDbText
62
2
6
CONTINUOUS
10
22.7509479099
20
24.2264841467
7
STANDARD
40
0.1562500003
1
ETIQUETTE D'EMBALLAGE/UPC SUR LA BOÎTE
41
0.7999999985
72
0
100
AcDbText
0
TEXT
5
23C
100
AcDbEntity
8
0
100
AcDbText
62
2
6
CONTINUOUS
10
22.7277930007
20
22.5070952365
7
STANDARD
40
0.1562500055
1
The template and the label suffixes circled
41
0.8000000000
72
0
100
AcDbText
0
TEXT
5
23D
100
AcDbEntity
8
0
100
AcDbText
62
2
6
CONTINUOUS
10
22.7277930007
20
22.2727202282
7
STANDARD
40
0.1562500055
1
must match for proper cut-out.
41
0.8000000000
72
0
100
AcDbText
0
TEXT
5
23E
100
AcDbEntity
8
0
100
AcDbText
62
2
6
CONTINUOUS
10
22.7277930007
20
22.0383452268
7
STANDARD
40
0.1562500003
1
 
41
0.7999999985
72
0
100
AcDbText
0
TEXT
5
23F
100
AcDbEntity
8
0
100
AcDbText
62
2
6
CONTINUOUS
10
22.7277930007
20
21.8039702199
7
STANDARD
40
0.1562500055
1
A fin de realizar el corte apropiado, la
41
0.8000000000
72
0
100
AcDbText
0
TEXT
5
240
100
AcDbEntity
8
0
100
AcDbText
62
2
6
CONTINUOUS
10
22.7277930007
20
21.5695952185
7
STANDARD
40
0.1562500003
1
plantilla y los sufijos de la etiqueta
41
0.7999999985
72
0
100
AcDbText
0
TEXT
5
241
100
AcDbEntity
8
0
100
AcDbText
62
2
6
CONTINUOUS
10
22.7277930007
20
21.3352202185
7
STANDARD
40
0.1562500003
1
demarcados deben concordar.
41
0.7999999985
72
0
100
AcDbText
0
TEXT
5
242
100
AcDbEntity
8
0
100
AcDbText
62
2
6
CONTINUOUS
10
22.7277930007
20
21.1008452185
7
STANDARD
40
0.1562500003
1
 
41
0.7999999985
72
0
100
AcDbText
0
TEXT
5
243
100
AcDbEntity
8
0
100
AcDbText
62
2
6
CONTINUOUS
10
22.7277930007
20
20.8664702185
7
STANDARD
40
0.1562500003
1
Afin de découper l'ouverture correctement,
41
0.7999999985
72
0
100
AcDbText
0
TEXT
5
244
100
AcDbEntity
8
0
100
AcDbText
62
2
6
CONTINUOUS
10
22.7277930007
20
20.6320952185
7
STANDARD
40
0.1562500003
1
le gabarit et les suffixes encerclés
41
0.7999999985
72
0
100
AcDbText
0
TEXT
5
245
100
AcDbEntity
8
0
100
AcDbText
62
2
6
CONTINUOUS
10
22.7277930007
20
20.3977202185
7
STANDARD
40
0.1562500003
1
doivent correspondre
41
0.7999999985
72
0
100
AcDbText
0
LINE
5
246
100
AcDbEntity
8
0
100
AcDbLine
62
7
6
CONTINUOUS
10
25.8700971880
20
22.9957104931
11
23.6850547093
21
22.9957104931
0
LINE
5
247
100
AcDbEntity
8
0
100
AcDbLine
62
7
6
CONTINUOUS
10
23.6850547093
20
22.9957104931
11
23.6850547093
21
23.9887404834
0
LINE
5
248
100
AcDbEntity
8
0
100
AcDbLine
62
7
6
CONTINUOUS
10
23.6850547093
20
23.9887404834
11
25.8700971880
21
23.9887404834
0
LINE
5
249
100
AcDbEntity
8
0
100
AcDbLine
62
7
6
CONTINUOUS
10
25.8700971880
20
23.9887404834
11
25.8700971880
21
22.9957104931
0
LINE
5
24A
100
AcDbEntity
8
0
100
AcDbLine
62
7
6
CONTINUOUS
10
23.6516872097
20
24.0212004831
11
25.9042521877
21
24.0212004831
0
LINE
5
24B
100
AcDbEntity
8
0
100
AcDbLine
62
7
6
CONTINUOUS
10
25.9042521877
20
24.0212004831
11
25.9042521877
21
22.9282929938
0
LINE
5
24C
100
AcDbEntity
8
0
100
AcDbLine
62
7
6
CONTINUOUS
10
25.9042521877
20
22.9282929938
11
23.6516872097
21
22.9282929938
0
LINE
5
24D
100
AcDbEntity
8
0
100
AcDbLine
62
7
6
CONTINUOUS
10
23.6516872097
20
22.9282929938
11
23.6516872097
21
24.0212004831
0
LINE
5
24E
100
AcDbEntity
8
0
100
AcDbLine
62
7
6
CONTINUOUS
10
25.6649121900
20
23.4273804889
11
25.6649121900
21
23.3057454901
0
LINE
5
24F
100
AcDbEntity
8
0
100
AcDbLine
62
7
6
CONTINUOUS
10
25.6649121900
20
23.3057454901
11
25.3219596934
21
23.3057454901
0
LINE
5
250
100
AcDbEntity
8
0
100
AcDbLine
62
7
6
CONTINUOUS
10
25.3219596934
20
23.3057454901
11
25.3219596934
21
23.4273804889
0
LINE
5
251
100
AcDbEntity
8
0
100
AcDbLine
62
7
6
CONTINUOUS
10
25.3219596934
20
23.4273804889
11
25.6649121900
21
23.4273804889
0
SOLID
5
252
100
AcDbEntity
8
0
100
AcDbTrace
62
7
6
CONTINUOUS
10
25.3219596934
20
23.3057454810
11
25.3219596934
21
23.4273804812
12
25.6649121900
22
23.4273804812
13
25.6649121900
23
23.4273804812
0
SOLID
5
253
100
AcDbEntity
8
0
100
AcDbTrace
62
7
6
CONTINUOUS
10
25.6649121900
20
23.4273804812
11
25.6649121900
21
23.3057454810
12
25.3219596934
22
23.3057454810
13
25.3219596934
23
23.3057454810
0
LINE
5
254
100
AcDbEntity
8
0
100
AcDbLine
62
7
6
CONTINUOUS
10
24.5894572005
20
23.4273804889
11
24.5894572005
21
23.3057454901
0
LINE
5
255
100
AcDbEntity
8
0
100
AcDbLine
62
7
6
CONTINUOUS
10
24.5894572005
20
23.3057454901
11
23.7337522089
21
23.3057454901
0
LINE
5
256
100
AcDbEntity
8
0
100
AcDbLine
62
7
6
CONTINUOUS
10
23.7337522089
20
23.3057454901
11
23.7337522089
21
23.4273804889
0
LINE
5
257
100
AcDbEntity
8
0
100
AcDbLine
62
7
6
CONTINUOUS
10
23.7337522089
20
23.4273804889
11
24.5894572005
21
23.4273804889
0
SOLID
5
258
100
AcDbEntity
8
0
100
AcDbTrace
62
7
6
CONTINUOUS
10
23.7337522089
20
23.3057454810
11
23.7337522089
21
23.4273804812
12
24.5894572005
22
23.4273804812
13
24.5894572005
23
23.4273804812
0
SOLID
5
259
100
AcDbEntity
8
0
100
AcDbTrace
62
7
6
CONTINUOUS
10
24.5894572005
20
23.4273804812
11
24.5894572005
21
23.3057454810
12
23.7337522089
22
23.3057454810
13
23.7337522089
23
23.3057454810
0
LINE
5
25A
100
AcDbEntity
8
0
100
AcDbLine
62
7
6
CONTINUOUS
10
24.5894572005
20
23.0541129925
11
24.5894572005
21
23.0191329929
0
LINE
5
25B
100
AcDbEntity
8
0
100
AcDbLine
62
7
6
CONTINUOUS
10
24.5894572005
20
23.0191329929
11
23.7337522089
21
23.0191329929
0
LINE
5
25C
100
AcDbEntity
8
0
100
AcDbLine
62
7
6
CONTINUOUS
10
23.7337522089
20
23.0191329929
11
23.7337522089
21
23.0541129925
0
LINE
5
25D
100
AcDbEntity
8
0
100
AcDbLine
62
7
6
CONTINUOUS
10
23.7337522089
20
23.0541129925
11
24.5894572005
21
23.0541129925
0
SOLID
5
25E
100
AcDbEntity
8
0
100
AcDbTrace
62
7
6
CONTINUOUS
10
23.7337522089
20
23.0191329945
11
23.7337522089
21
23.0541129765
12
24.5894572005
22
23.0541129765
13
24.5894572005
23
23.0541129765
0
SOLID
5
25F
100
AcDbEntity
8
0
100
AcDbTrace
62
7
6
CONTINUOUS
10
24.5894572005
20
23.0541129765
11
24.5894572005
21
23.0191329945
12
23.7337522089
22
23.0191329945
13
23.7337522089
23
23.0191329945
0
SPLINE
5
260
100
AcDbEntity
8
0
100
AcDbSpline
62
7
6
CONTINUOUS
70
0
71
2
72
8
73
5
74
295
42
0.0000001000
43
0.0000001000
44
0.0000000001
12
-0.3204212141
22
-0.0753823492
32
0.0000000000
13
-0.3214221905
23
-0.0709927505
33
0.0000000000
40
0.0000000000
40
0.0000000000
40
0.0000000000
40
1.0000000000
40
1.0000000000
40
2.0000000000
40
2.0000000000
40
2.0000000000
41
1.0000000000
41
0.0034195132
41
1.0000000000
41
0.0034195132
41
1.0000000000
10
24.4554621539
20
23.2658906107
30
0.0000000000
10
1.0295245329
20
17.7547005526
30
0.0000000000
10
24.4926014664
20
23.1055543597
30
0.0000000000
10
47.9556784000
20
28.4564081667
30
0.0000000000
10
24.4565595755
20
23.2661408824
30
0.0000000000
11
24.4554621539
21
23.2658906107
31
0.0000000000
11
24.4542031015
21
23.2655839245
31
0.0000000000
11
24.4529293988
21
23.2652521711
31
0.0000000000
11
24.4516413195
21
23.2648944062
31
0.0000000000
11
24.4503391774
21
23.2645096649
31
0.0000000000
11
24.4490233285
21
23.2640969632
31
0.0000000000
11
24.4476941739
21
23.2636552988
31
0.0000000000
11
24.4463521616
21
23.2631836522
31
0.0000000000
11
24.4449977897
21
23.2626809886
31
0.0000000000
11
24.4436316089
21
23.2621462589
31
0.0000000000
11
24.4422542248
21
23.2615784023
31
0.0000000000
11
24.4408663013
21
23.2609763476
31
0.0000000000
11
24.4394685622
21
23.2603390163
31
0.0000000000
11
24.4380617950
21
23.2596653245
31
0.0000000000
11
24.4366468527
21
23.2589541865
31
0.0000000000
11
24.4352246567
21
23.2582045172
31
0.0000000000
11
24.4337961995
21
23.2574152361
31
0.0000000000
11
24.4323625466
21
23.2565852709
31
0.0000000000
11
24.4309248391
21
23.2557135614
31
0.0000000000
11
24.4294842961
21
23.2547990642
31
0.0000000000
11
24.4280422160
21
23.2538407571
31
0.0000000000
11
24.4265999786
21
23.2528376446
31
0.0000000000
11
24.4251590467
21
23.2517887626
31
0.0000000000
11
24.4237209669
21
23.2506931848
31
0.0000000000
11
24.4222873706
21
23.2495500283
31
0.0000000000
11
24.4208599746
21
23.2483584600
31
0.0000000000
11
24.4194405809
21
23.2471177033
31
0.0000000000
11
24.4180310765
21
23.2458270449
31
0.0000000000
11
24.4166334320
21
23.2444858422
31
0.0000000000
11
24.4152497008
21
23.2430935301
31
0.0000000000
11
24.4138820165
21
23.2416496290
31
0.0000000000
11
24.4125325905
21
23.2401537523
31
0.0000000000
11
24.4112037084
21
23.2386056141
31
0.0000000000
11
24.4098977259
21
23.2370050370
31
0.0000000000
11
24.4086170641
21
23.2353519597
31
0.0000000000
11
24.4073642039
21
23.2336464450
31
0.0000000000
11
24.4061416794
21
23.2318886866
31
0.0000000000
11
24.4049520710
21
23.2300790170
31
0.0000000000
11
24.4037979972
21
23.2282179138
31
0.0000000000
11
24.4026821056
21
23.2263060063
31
0.0000000000
11
24.4016070636
21
23.2243440813
31
0.0000000000
11
24.4005755482
21
23.2223330885
31
0.0000000000
11
24.3995902340
21
23.2202741450
31
0.0000000000
11
24.3986537825
21
23.2181685389
31
0.0000000000
11
24.3977688289
21
23.2160177321
31
0.0000000000
11
24.3969379693
21
23.2138233623
31
0.0000000000
11
24.3961637472
21
23.2115872437
31
0.0000000000
11
24.3954486399
21
23.2093113663
31
0.0000000000
11
24.3947950441
21
23.2069978947
31
0.0000000000
11
24.3942052615
21
23.2046491646
31
0.0000000000
11
24.3936814852
21
23.2022676791
31
0.0000000000
11
24.3932257847
21
23.1998561028
31
0.0000000000
11
24.3928400926
21
23.1974172548
31
0.0000000000
11
24.3925261909
21
23.1949541002
31
0.0000000000
11
24.3922856981
21
23.1924697407
31
0.0000000000
11
24.3921200572
21
23.1899674034
31
0.0000000000
11
24.3920305242
21
23.1874504286
31
0.0000000000
11
24.3920181579
21
23.1849222563
31
0.0000000000
11
24.3920838110
21
23.1823864115
31
0.0000000000
11
24.3922281217
21
23.1798464893
31
0.0000000000
11
24.3924515081
21
23.1773061380
31
0.0000000000
11
24.3927541622
21
23.1747690428
31
0.0000000000
11
24.3931360475
21
23.1722389077
31
0.0000000000
11
24.3935968967
21
23.1697194381
31
0.0000000000
11
24.3941362115
21
23.1672143228
31
0.0000000000
11
24.3947532646
21
23.1647272158
31
0.0000000000
11
24.3954471027
21
23.1622617192
31
0.0000000000
11
24.3962165513
21
23.1598213648
31
0.0000000000
11
24.3970602213
21
23.1574095982
31
0.0000000000
11
24.3979765172
21
23.1550297625
31
0.0000000000
11
24.3989636459
21
23.1526850827
31
0.0000000000
11
24.4000196280
21
23.1503786519
31
0.0000000000
11
24.4011423096
21
23.1481134183
31
0.0000000000
11
24.4023293751
21
23.1458921731
31
0.0000000000
11
24.4035783609
21
23.1437175403
31
0.0000000000
11
24.4048866703
21
23.1415919676
31
0.0000000000
11
24.4062515884
21
23.1395177189
31
0.0000000000
11
24.4076702980
21
23.1374968683
31
0.0000000000
11
24.4091398946
21
23.1355312955
31
0.0000000000
11
24.4106574032
21
23.1336226825
31
0.0000000000
11
24.4122197934
21
23.1317725126
31
0.0000000000
11
24.4138239950
21
23.1299820695
31
0.0000000000
11
24.4154669138
21
23.1282524391
31
0.0000000000
11
24.4171454453
21
23.1265845115
31
0.0000000000
11
24.4188564898
21
23.1249789849
31
0.0000000000
11
24.4205969651
21
23.1234363701
31
0.0000000000
11
24.4223638195
21
23.1219569965
31
0.0000000000
11
24.4241540433
21
23.1205410184
31
0.0000000000
11
24.4259646799
21
23.1191884225
31
0.0000000000
11
24.4277928358
21
23.1178990359
31
0.0000000000
11
24.4296356894
21
23.1166725346
31
0.0000000000
11
24.4314904988
21
23.1155084522
31
0.0000000000
11
24.4333546094
21
23.1144061899
31
0.0000000000
11
24.4352254593
21
23.1133650251
31
0.0000000000
11
24.4371005850
21
23.1123841219
31
0.0000000000
11
24.4389776252
21
23.1114625401
31
0.0000000000
11
24.4408543241
21
23.1105992449
31
0.0000000000
11
24.4427285341
21
23.1097931169
31
0.0000000000
11
24.4445982174
21
23.1090429609
31
0.0000000000
11
24.4464614470
21
23.1083475150
31
0.0000000000
11
24.4483164066
21
23.1077054597
31
0.0000000000
11
24.4501613910
21
23.1071154260
31
0.0000000000
11
24.4519948042
21
23.1065760036
31
0.0000000000
11
24.4538151589
21
23.1060857487
31
0.0000000000
11
24.4556210739
21
23.1056431909
31
0.0000000000
11
24.4574112722
21
23.1052468404
31
0.0000000000
11
24.4591845782
21
23.1048951941
31
0.0000000000
11
24.4609399148
21
23.1045867416
31
0.0000000000
11
24.4626763002
21
23.1043199708
31
0.0000000000
11
24.4643928445
21
23.1040933728
31
0.0000000000
11
24.4660887462
21
23.1039054467
31
0.0000000000
11
24.4677632883
21
23.1037547033
31
0.0000000000
11
24.4694158351
21
23.1036396696
31
0.0000000000
11
24.4710458275
21
23.1035588917
31
0.0000000000
11
24.4726527800
21
23.1035109378
31
0.0000000000
11
24.4742362765
21
23.1034944011
31
0.0000000000
11
24.4757959663
21
23.1035079020
31
0.0000000000
11
24.4773315607
21
23.1035500901
31
0.0000000000
11
24.4788428290
21
23.1036196459
31
0.0000000000
11
24.4803295953
21
23.1037152821
31
0.0000000000
11
24.4817917344
21
23.1038357450
31
0.0000000000
11
24.4832291686
21
23.1039798154
31
0.0000000000
11
24.4846418647
21
23.1041463090
31
0.0000000000
11
24.4853389368
21
23.1042376042
31
0.0000000000
11
24.4860298303
21
23.1043340773
31
0.0000000000
11
24.4867145521
21
23.1044355903
31
0.0000000000
11
24.4873931111
21
23.1045420076
31
0.0000000000
11
24.4880655187
21
23.1046531957
31
0.0000000000
11
24.4887317878
21
23.1047690235
31
0.0000000000
11
24.4893919337
21
23.1048893619
31
0.0000000000
11
24.4897197156
21
23.1049511830
31
0.0000000000
11
24.4900459732
21
23.1050140844
31
0.0000000000
11
24.4903707088
21
23.1050780507
31
0.0000000000
11
24.4906939250
21
23.1051430665
31
0.0000000000
11
24.4910156244
21
23.1052091167
31
0.0000000000
11
24.4913358096
21
23.1052761860
31
0.0000000000
11
24.4914953353
21
23.1053100983
31
0.0000000000
11
24.4916544835
21
23.1053442598
31
0.0000000000
11
24.4918132546
21
23.1053786686
31
0.0000000000
11
24.4919716489
21
23.1054133230
31
0.0000000000
11
24.4921296669
21
23.1054482211
31
0.0000000000
11
24.4922085348
21
23.1054657610
31
0.0000000000
11
24.4922873089
21
23.1054833611
31
0.0000000000
11
24.4923659890
21
23.1055010213
31
0.0000000000
11
24.4924445753
21
23.1055187413
31
0.0000000000
11
24.4925230677
21
23.1055365208
31
0.0000000000
11
24.4925622788
21
23.1055454328
31
0.0000000000
11
24.4926014664
21
23.1055543597
31
0.0000000000
11
24.4926406497
21
23.1055633056
31
0.0000000000
11
24.4926798477
21
23.1055722751
31
0.0000000000
11
24.4927582877
21
23.1055902847
31
0.0000000000
11
24.4928367864
21
23.1056083886
31
0.0000000000
11
24.4929153438
21
23.1056265872
31
0.0000000000
11
24.4929939597
21
23.1056448805
31
0.0000000000
11
24.4930726342
21
23.1056632688
31
0.0000000000
11
24.4932301586
21
23.1057003315
31
0.0000000000
11
24.4933879165
21
23.1057377769
31
0.0000000000
11
24.4935459074
21
23.1057756070
31
0.0000000000
11
24.4937041309
21
23.1058138235
31
0.0000000000
11
24.4938625866
21
23.1058524282
31
0.0000000000
11
24.4941801922
21
23.1059308097
31
0.0000000000
11
24.4944987205
21
23.1060107662
31
0.0000000000
11
24.4948181672
21
23.1060923124
31
0.0000000000
11
24.4951385282
21
23.1061754631
31
0.0000000000
11
24.4954597989
21
23.1062602332
31
0.0000000000
11
24.4957819750
21
23.1063466378
31
0.0000000000
11
24.4964290239
21
23.1065244107
31
0.0000000000
11
24.4970796352
21
23.1067089031
31
0.0000000000
11
24.4977337666
21
23.1069002378
31
0.0000000000
11
24.4983913731
21
23.1070985387
31
0.0000000000
11
24.4990524069
21
23.1073039309
31
0.0000000000
11
24.4997168173
21
23.1075165406
31
0.0000000000
11
24.5003845508
21
23.1077364951
31
0.0000000000
11
24.5017297571
21
23.1081989528
31
0.0000000000
11
24.5030875348
21
23.1086923423
31
0.0000000000
11
24.5044573405
21
23.1092177163
31
0.0000000000
11
24.5058385756
21
23.1097761399
31
0.0000000000
11
24.5072305840
21
23.1103686887
31
0.0000000000
11
24.5086326488
21
23.1109964462
31
0.0000000000
11
24.5100439903
21
23.1116605015
31
0.0000000000
11
24.5114637628
21
23.1123619463
31
0.0000000000
11
24.5128910523
21
23.1131018720
31
0.0000000000
11
24.5143248738
21
23.1138813656
31
0.0000000000
11
24.5157641691
21
23.1147015069
31
0.0000000000
11
24.5172078043
21
23.1155633638
31
0.0000000000
11
24.5186545677
21
23.1164679880
31
0.0000000000
11
24.5201031677
21
23.1174164105
31
0.0000000000
11
24.5215522315
21
23.1184096364
31
0.0000000000
11
24.5230003028
21
23.1194486396
31
0.0000000000
11
24.5244458414
21
23.1205343571
31
0.0000000000
11
24.5258872220
21
23.1216676828
31
0.0000000000
11
24.5273227335
21
23.1228494616
31
0.0000000000
11
24.5287505794
21
23.1240804824
31
0.0000000000
11
24.5301688775
21
23.1253614713
31
0.0000000000
11
24.5315756616
21
23.1266930845
31
0.0000000000
11
24.5329688823
21
23.1280759010
31
0.0000000000
11
24.5343464092
21
23.1295104151
31
0.0000000000
11
24.5357060338
21
23.1309970285
31
0.0000000000
11
24.5370454724
21
23.1325360426
31
0.0000000000
11
24.5383623705
21
23.1341276511
31
0.0000000000
11
24.5396543076
21
23.1357719316
31
0.0000000000
11
24.5409188024
21
23.1374688385
31
0.0000000000
11
24.5421533194
21
23.1392181953
31
0.0000000000
11
24.5433552762
21
23.1410196872
31
0.0000000000
11
24.5445220511
21
23.1428728546
31
0.0000000000
11
24.5456509920
21
23.1447770863
31
0.0000000000
11
24.5467394263
21
23.1467316136
31
0.0000000000
11
24.5477846707
21
23.1487355052
31
0.0000000000
11
24.5487840428
21
23.1507876625
31
0.0000000000
11
24.5497348726
21
23.1528868154
31
0.0000000000
11
24.5506345148
21
23.1550315201
31
0.0000000000
11
24.5514803623
21
23.1572201568
31
0.0000000000
11
24.5522698590
21
23.1594509286
31
0.0000000000
11
24.5530005143
21
23.1617218626
31
0.0000000000
11
24.5536699167
21
23.1640308107
31
0.0000000000
11
24.5542757483
21
23.1663754528
31
0.0000000000
11
24.5548157994
21
23.1687533009
31
0.0000000000
11
24.5552879820
21
23.1711617047
31
0.0000000000
11
24.5556903445
21
23.1735978584
31
0.0000000000
11
24.5560210844
21
23.1760588091
31
0.0000000000
11
24.5562785622
21
23.1785414662
31
0.0000000000
11
24.5564613128
21
23.1810426126
31
0.0000000000
11
24.5565680574
21
23.1835589166
31
0.0000000000
11
24.5565977136
21
23.1860869458
31
0.0000000000
11
24.5565494049
21
23.1886231807
31
0.0000000000
11
24.5564224682
21
23.1911640309
31
0.0000000000
11
24.5562164607
21
23.1937058509
31
0.0000000000
11
24.5559311650
21
23.1962449571
31
0.0000000000
11
24.5555665923
21
23.1987776451
31
0.0000000000
11
24.5551229848
21
23.2013002080
31
0.0000000000
11
24.5546008153
21
23.2038089535
31
0.0000000000
11
24.5540007861
21
23.2063002227
31
0.0000000000
11
24.5533238260
21
23.2087704072
31
0.0000000000
11
24.5525710853
21
23.2112159672
31
0.0000000000
11
24.5517439293
21
23.2136334476
31
0.0000000000
11
24.5508439308
21
23.2160194945
31
0.0000000000
11
24.5498728608
21
23.2183708708
31
0.0000000000
11
24.5488326773
21
23.2206844698
31
0.0000000000
11
24.5477255141
21
23.2229573288
31
0.0000000000
11
24.5465536679
21
23.2251866407
31
0.0000000000
11
24.5453195839
21
23.2273697648
31
0.0000000000
11
24.5440258422
21
23.2295042356
31
0.0000000000
11
24.5426751421
21
23.2315877707
31
0.0000000000
11
24.5412702866
21
23.2336182769
31
0.0000000000
11
24.5398141673
21
23.2355938546
31
0.0000000000
11
24.5383097475
21
23.2375128013
31
0.0000000000
11
24.5367600476
21
23.2393736134
31
0.0000000000
11
24.5351681286
21
23.2411749859
31
0.0000000000
11
24.5335370776
21
23.2429158120
31
0.0000000000
11
24.5318699927
21
23.2445951803
31
0.0000000000
11
24.5301699688
21
23.2462123713
31
0.0000000000
11
24.5284400845
21
23.2477668533
31
0.0000000000
11
24.5266833892
21
23.2492582759
31
0.0000000000
11
24.5249028916
21
23.2506864644
31
0.0000000000
11
24.5231015480
21
23.2520514117
31
0.0000000000
11
24.5212822533
21
23.2533532710
31
0.0000000000
11
24.5194478313
21
23.2545923470
31
0.0000000000
11
24.5176010268
21
23.2557690873
31
0.0000000000
11
24.5157444986
21
23.2568840725
31
0.0000000000
11
24.5138808133
21
23.2579380077
31
0.0000000000
11
24.5120124402
21
23.2589317120
31
0.0000000000
11
24.5101417470
21
23.2598661094
31
0.0000000000
11
24.5082709965
21
23.2607422192
31
0.0000000000
11
24.5064023437
21
23.2615611460
31
0.0000000000
11
24.5045378348
21
23.2623240713
31
0.0000000000
11
24.5026794054
21
23.2630322435
31
0.0000000000
11
24.5008288804
21
23.2636869699
31
0.0000000000
11
24.4989879748
21
23.2642896076
31
0.0000000000
11
24.4971582939
21
23.2648415560
31
0.0000000000
11
24.4953413350
21
23.2653442488
31
0.0000000000
11
24.4935384892
21
23.2657991469
31
0.0000000000
11
24.4917510438
21
23.2662077312
31
0.0000000000
11
24.4899801845
21
23.2665714969
31
0.0000000000
11
24.4882269988
21
23.2668919469
31
0.0000000000
11
24.4864924787
21
23.2671705865
31
0.0000000000
11
24.4847775246
21
23.2674089185
31
0.0000000000
11
24.4830829481
21
23.2676084385
31
0.0000000000
11
24.4814094763
21
23.2677706304
31
0.0000000000
11
24.4797577553
21
23.2678969631
31
0.0000000000
11
24.4781283537
21
23.2679888865
31
0.0000000000
11
24.4765217670
21
23.2680478291
31
0.0000000000
11
24.4749384209
21
23.2680751949
31
0.0000000000
11
24.4733786756
21
23.2680723609
31
0.0000000000
11
24.4718428288
21
23.2680406756
31
0.0000000000
11
24.4703311203
21
23.2679814569
31
0.0000000000
11
24.4688437350
21
23.2678959908
31
0.0000000000
11
24.4673808066
21
23.2677855301
31
0.0000000000
11
24.4659424209
21
23.2676512936
31
0.0000000000
11
24.4645286195
21
23.2674944652
31
0.0000000000
11
24.4631394024
21
23.2673161935
31
0.0000000000
11
24.4617747316
21
23.2671175913
31
0.0000000000
11
24.4604345339
21
23.2668997359
31
0.0000000000
11
24.4591187036
21
23.2666636682
31
0.0000000000
11
24.4578271050
21
23.2664103938
31
0.0000000000
11
24.4565595755
21
23.2661408824
31
0.0000000000
0
LINE
5
261
100
AcDbEntity
8
0
100
AcDbLine
62
7
6
CONTINUOUS
10
24.6361072001
20
23.9606154837
11
24.6361072001
21
23.8989654843
0
LINE
5
262
100
AcDbEntity
8
0
100
AcDbLine
62
7
6
CONTINUOUS
10
24.6361072001
20
23.8989654843
11
23.7804022084
21
23.8989654843
0
LINE
5
263
100
AcDbEntity
8
0
100
AcDbLine
62
7
6
CONTINUOUS
10
23.7804022084
20
23.8989654843
11
23.7804022084
21
23.9606154837
0
LINE
5
264
100
AcDbEntity
8
0
100
AcDbLine
62
7
6
CONTINUOUS
10
23.7804022084
20
23.9606154837
11
24.6361072001
21
23.9606154837
0
SOLID
5
265
100
AcDbEntity
8
0
100
AcDbTrace
62
7
6
CONTINUOUS
10
23.7804022084
20
23.8989654801
11
23.7804022084
21
23.9606154703
12
24.6361072001
22
23.9606154703
13
24.6361072001
23
23.9606154703
0
SOLID
5
266
100
AcDbEntity
8
0
100
AcDbTrace
62
7
6
CONTINUOUS
10
24.6361072001
20
23.9606154703
11
24.6361072001
21
23.8989654801
12
23.7804022084
22
23.8989654801
13
23.7804022084
23
23.8989654801
0
LINE
5
267
100
AcDbEntity
8
0
100
AcDbLine
62
7
6
CONTINUOUS
10
24.6361072001
20
23.8606329847
11
24.6361072001
21
23.7989829853
0
LINE
5
268
100
AcDbEntity
8
0
100
AcDbLine
62
7
6
CONTINUOUS
10
24.6361072001
20
23.7989829853
11
23.7804022084
21
23.7989829853
0
LINE
5
269
100
AcDbEntity
8
0
100
AcDbLine
62
7
6
CONTINUOUS
10
23.7804022084
20
23.7989829853
11
23.7804022084
21
23.8606329847
0
LINE
5
26A
100
AcDbEntity
8
0
100
AcDbLine
62
7
6
CONTINUOUS
10
23.7804022084
20
23.8606329847
11
24.6361072001
21
23.8606329847
0
SOLID
5
26B
100
AcDbEntity
8
0
100
AcDbTrace
62
7
6
CONTINUOUS
10
23.7804022084
20
23.7989829719
11
23.7804022084
21
23.8606329961
12
24.6361072001
22
23.8606329961
13
24.6361072001
23
23.8606329961
0
SOLID
5
26C
100
AcDbEntity
8
0
100
AcDbTrace
62
7
6
CONTINUOUS
10
24.6361072001
20
23.8606329961
11
24.6361072001
21
23.7989829719
12
23.7804022084
22
23.7989829719
13
23.7804022084
23
23.7989829719
0
LINE
5
26D
100
AcDbEntity
8
0
100
AcDbLine
62
7
6
CONTINUOUS
10
24.6361072001
20
23.7606504856
11
24.6361072001
21
23.6990079862
0
LINE
5
26E
100
AcDbEntity
8
0
100
AcDbLine
62
7
6
CONTINUOUS
10
24.6361072001
20
23.6990079862
11
23.7804022084
21
23.6990079862
0
LINE
5
26F
100
AcDbEntity
8
0
100
AcDbLine
62
7
6
CONTINUOUS
10
23.7804022084
20
23.6990079862
11
23.7804022084
21
23.7606504856
0
LINE
5
270
100
AcDbEntity
8
0
100
AcDbLine
62
7
6
CONTINUOUS
10
23.7804022084
20
23.7606504856
11
24.6361072001
21
23.7606504856
0
SOLID
5
271
100
AcDbEntity
8
0
100
AcDbTrace
62
7
6
CONTINUOUS
10
23.7804022084
20
23.6990079778
11
23.7804022084
21
23.7606504879
12
24.6361072001
22
23.7606504879
13
24.6361072001
23
23.7606504879
0
SOLID
5
272
100
AcDbEntity
8
0
100
AcDbTrace
62
7
6
CONTINUOUS
10
24.6361072001
20
23.7606504879
11
24.6361072001
21
23.6990079778
12
23.7804022084
22
23.6990079778
13
23.7804022084
23
23.6990079778
0
LINE
5
273
100
AcDbEntity
8
0
100
AcDbLine
62
7
6
CONTINUOUS
10
24.6361072001
20
23.6606679866
11
24.6361072001
21
23.5990254872
0
LINE
5
274
100
AcDbEntity
8
0
100
AcDbLine
62
7
6
CONTINUOUS
10
24.6361072001
20
23.5990254872
11
23.7804022084
21
23.5990254872
0
LINE
5
275
100
AcDbEntity
8
0
100
AcDbLine
62
7
6
CONTINUOUS
10
23.7804022084
20
23.5990254872
11
23.7804022084
21
23.6606679866
0
LINE
5
276
100
AcDbEntity
8
0
100
AcDbLine
62
7
6
CONTINUOUS
10
23.7804022084
20
23.6606679866
11
24.6361072001
21
23.6606679866
0
SOLID
5
277
100
AcDbEntity
8
0
100
AcDbTrace
62
7
6
CONTINUOUS
10
23.7804022084
20
23.5990255036
11
23.7804022084
21
23.6606679797
12
24.6361072001
22
23.6606679797
13
24.6361072001
23
23.6606679797
0
SOLID
5
278
100
AcDbEntity
8
0
100
AcDbTrace
62
7
6
CONTINUOUS
10
24.6361072001
20
23.6606679797
11
24.6361072001
21
23.5990255036
12
23.7804022084
22
23.5990255036
13
23.7804022084
23
23.5990255036
0
LINE
5
279
100
AcDbEntity
8
0
100
AcDbLine
62
7
6
CONTINUOUS
10
24.6361072001
20
23.5340304879
11
24.6361072001
21
23.4723804885
0
LINE
5
27A
100
AcDbEntity
8
0
100
AcDbLine
62
7
6
CONTINUOUS
10
24.6361072001
20
23.4723804885
11
23.7804022084
21
23.4723804885
0
LINE
5
27B
100
AcDbEntity
8
0
100
AcDbLine
62
7
6
CONTINUOUS
10
23.7804022084
20
23.4723804885
11
23.7804022084
21
23.5340304879
0
LINE
5
27C
100
AcDbEntity
8
0
100
AcDbLine
62
7
6
CONTINUOUS
10
23.7804022084
20
23.5340304879
11
24.6361072001
21
23.5340304879
0
SOLID
5
27D
100
AcDbEntity
8
0
100
AcDbTrace
62
7
6
CONTINUOUS
10
23.7804022084
20
23.4723805013
11
23.7804022084
21
23.5340304914
12
24.6361072001
22
23.5340304914
13
24.6361072001
23
23.5340304914
0
SOLID
5
27E
100
AcDbEntity
8
0
100
AcDbTrace
62
7
6
CONTINUOUS
10
24.6361072001
20
23.5340304914
11
24.6361072001
21
23.4723805013
12
23.7804022084
22
23.4723805013
13
23.7804022084
23
23.4723805013
0
ENDBLK
5
27F
100
AcDbEntity
8
0
6
BYBLOCK
62
0
100
AcDbBlockEnd
0
BLOCK
5
280
100
AcDbEntity
8
0
100
AcDbBlockBegin
62
2
6
CONTINUOUS
2
KOHLER_BL1
70
64
10
13.9127035494
20
24.2485937601
3
KOHLER_BL1
1

0
LINE
5
281
100
AcDbEntity
8
0
100
AcDbLine
62
2
6
CONTINUOUS
10
12.9539895186
20
24.5722402459
11
12.7406860784
21
24.3185919868
0
LINE
5
282
100
AcDbEntity
8
0
100
AcDbLine
62
2
6
CONTINUOUS
10
12.7619277170
20
24.5722402459
11
12.9539895186
21
24.5722402459
0
LINE
5
283
100
AcDbEntity
8
0
100
AcDbLine
62
2
6
CONTINUOUS
10
12.7619277170
20
24.5722402459
11
12.6241635579
21
24.4084190652
0
LINE
5
284
100
AcDbEntity
8
0
100
AcDbLine
62
2
6
CONTINUOUS
10
12.6241635579
20
24.5722402459
11
12.6241635579
21
24.4084190652
0
LINE
5
285
100
AcDbEntity
8
0
100
AcDbLine
62
2
6
CONTINUOUS
10
12.4496633405
20
24.5722402459
11
12.6241635579
21
24.5722402459
0
LINE
5
286
100
AcDbEntity
8
0
100
AcDbLine
62
2
6
CONTINUOUS
10
12.4496633405
20
24.5722402459
11
12.4496633405
21
23.9863026251
0
LINE
5
287
100
AcDbEntity
8
0
100
AcDbLine
62
2
6
CONTINUOUS
10
12.6241635579
20
23.9863266286
11
12.4496633405
21
23.9863026251
0
LINE
5
288
100
AcDbEntity
8
0
100
AcDbLine
62
2
6
CONTINUOUS
10
12.6241635579
20
24.1878264516
11
12.6241635579
21
23.9863266286
0
LINE
5
289
100
AcDbEntity
8
0
100
AcDbLine
62
2
6
CONTINUOUS
10
12.7779014895
20
23.9863266286
11
12.6241635579
21
24.1878264516
0
LINE
5
28A
100
AcDbEntity
8
0
100
AcDbLine
62
2
6
CONTINUOUS
10
12.7779014895
20
23.9863266286
11
12.9941938992
21
23.9863266286
0
LINE
5
28B
100
AcDbEntity
8
0
100
AcDbLine
62
2
6
CONTINUOUS
10
12.9941938992
20
23.9863266286
11
12.7406860784
21
24.3185919868
0
SOLID
5
28C
100
AcDbEntity
8
0
100
AcDbTrace
62
2
6
CONTINUOUS
10
12.6241635579
20
24.4084190652
11
12.7619277170
21
24.5722402459
12
12.9539895186
22
24.5722402459
13
12.9539895186
23
24.5722402459
0
SOLID
5
28D
100
AcDbEntity
8
0
100
AcDbTrace
62
2
6
CONTINUOUS
10
12.9539895186
20
24.5722402459
11
12.7406860784
21
24.3185919868
12
12.6241635579
22
24.4084190652
13
12.6241635579
23
24.4084190652
0
SOLID
5
28E
100
AcDbEntity
8
0
100
AcDbTrace
62
2
6
CONTINUOUS
10
12.6241635579
20
24.1878264516
11
12.7406860784
21
24.3185919868
12
12.7779014895
22
23.9863266286
13
12.7779014895
23
23.9863266286
0
SOLID
5
28F
100
AcDbEntity
8
0
100
AcDbTrace
62
2
6
CONTINUOUS
10
12.7406860784
20
24.3185919868
11
12.9941938992
21
23.9863266286
12
12.7779014895
22
23.9863266286
13
12.7779014895
23
23.9863266286
0
SOLID
5
290
100
AcDbEntity
8
0
100
AcDbTrace
62
2
6
CONTINUOUS
10
12.6241635579
20
23.9863266286
11
12.4496633405
21
23.9863026251
12
12.6241635579
22
24.1878264516
13
12.6241635579
23
24.1878264516
0
SOLID
5
291
100
AcDbEntity
8
0
100
AcDbTrace
62
2
6
CONTINUOUS
10
12.7406860784
20
24.3185919868
11
12.6241635579
21
24.1878264516
12
12.6241635579
22
24.4084190652
13
12.6241635579
23
24.4084190652
0
SOLID
5
292
100
AcDbEntity
8
0
100
AcDbTrace
62
2
6
CONTINUOUS
10
12.6241635579
20
24.1878264516
11
12.4496633405
21
23.9863026251
12
12.6241635579
22
24.4084190652
13
12.6241635579
23
24.4084190652
0
SOLID
5
293
100
AcDbEntity
8
0
100
AcDbTrace
62
2
6
CONTINUOUS
10
12.6241635579
20
24.4084190652
11
12.4496633405
21
23.9863026251
12
12.6241635579
22
24.5722402459
13
12.6241635579
23
24.5722402459
0
SOLID
5
294
100
AcDbEntity
8
0
100
AcDbTrace
62
2
6
CONTINUOUS
10
12.4496633405
20
23.9863026251
11
12.4496633405
21
24.5722402459
12
12.6241635579
22
24.5722402459
13
12.6241635579
23
24.5722402459
0
CIRCLE
5
295
100
AcDbEntity
8
0
100
AcDbCircle
62
2
6
CONTINUOUS
10
13.1707027262
20
24.2781621854
40
0.2980565747
0
CIRCLE
5
296
100
AcDbEntity
8
0
100
AcDbCircle
62
2
6
CONTINUOUS
10
13.1707027262
20
24.2781621854
40
0.1247694082
0
SOLID
5
297
100
AcDbEntity
8
0
100
AcDbTrace
62
2
6
CONTINUOUS
10
13.0785981793
20
24.5616308330
11
13.1395473305
21
24.5745859750
12
13.2018581219
22
24.5745859750
13
13.2018581219
23
24.5745859750
0
SOLID
5
298
100
AcDbEntity
8
0
100
AcDbTrace
62
2
6
CONTINUOUS
10
13.2018581219
20
24.5745859750
11
13.2628072730
21
24.5616308330
12
13.0785981793
22
24.5616308330
13
13.0785981793
23
24.5616308330
0
SOLID
5
299
100
AcDbEntity
8
0
100
AcDbTrace
62
2
6
CONTINUOUS
10
13.0216744388
20
24.5362867508
11
13.0785981793
21
24.5616308330
12
13.2628072730
22
24.5616308330
13
13.2628072730
23
24.5616308330
0
SOLID
5
29A
100
AcDbEntity
8
0
100
AcDbTrace
62
2
6
CONTINUOUS
10
13.2628072730
20
24.5616308330
11
13.3197310135
21
24.5362867508
12
13.0216744388
22
24.5362867508
13
13.0216744388
23
24.5362867508
0
SOLID
5
29B
100
AcDbEntity
8
0
100
AcDbTrace
62
2
6
CONTINUOUS
10
12.9712639496
20
24.4996613866
11
13.0216744388
21
24.5362867508
12
13.3197310135
22
24.5362867508
13
13.3197310135
23
24.5362867508
0
SOLID
5
29C
100
AcDbEntity
8
0
100
AcDbTrace
62
2
6
CONTINUOUS
10
13.3197310135
20
24.5362867508
11
13.3701415027
21
24.4996613866
12
12.9712639496
22
24.4996613866
13
12.9712639496
23
24.4996613866
0
SOLID
5
29D
100
AcDbEntity
8
0
100
AcDbTrace
62
2
6
CONTINUOUS
10
12.9295698920
20
24.4533554444
11
12.9712639496
21
24.4996613866
12
13.3701415027
22
24.4996613866
13
13.3701415027
23
24.4996613866
0
SOLID
5
29E
100
AcDbEntity
8
0
100
AcDbTrace
62
2
6
CONTINUOUS
10
13.3701415027
20
24.4996613866
11
13.4118355604
21
24.4533554444
12
12.9295698920
22
24.4533554444
13
12.9295698920
23
24.4533554444
0
SOLID
5
29F
100
AcDbEntity
8
0
100
AcDbTrace
62
2
6
CONTINUOUS
10
13.1707027262
20
24.4029315937
11
12.8984144963
21
24.3993927161
12
13.4118355604
22
24.4533554444
13
13.4118355604
23
24.4533554444
0
SOLID
5
2A0
100
AcDbEntity
8
0
100
AcDbTrace
62
2
6
CONTINUOUS
10
12.8984144963
20
24.3993927161
11
12.9295698920
21
24.4533554444
12
13.4118355604
22
24.4533554444
13
13.4118355604
23
24.4533554444
0
SOLID
5
2A1
100
AcDbEntity
8
0
100
AcDbTrace
62
2
6
CONTINUOUS
10
13.4118355604
20
24.4533554444
11
13.4429909561
21
24.3993927161
12
13.1707027262
22
24.4029315937
13
13.1707027262
23
24.4029315937
0
SOLID
5
2A2
100
AcDbEntity
8
0
100
AcDbTrace
62
2
6
CONTINUOUS
10
13.1707027262
20
24.4029315937
11
13.1321468587
21
24.3968249442
12
12.8984144963
22
24.3993927161
13
12.8984144963
23
24.3993927161
0
SOLID
5
2A3
100
AcDbEntity
8
0
100
AcDbTrace
62
2
6
CONTINUOUS
10
13.2092585937
20
24.3968249442
11
13.1707027262
21
24.4029315937
12
13.4429909561
22
24.3993927161
13
13.4429909561
23
24.3993927161
0
SOLID
5
2A4
100
AcDbEntity
8
0
100
AcDbTrace
62
2
6
CONTINUOUS
10
13.0697621545
20
24.3514998035
11
12.8791594028
21
24.3401316318
12
13.0973651081
22
24.3791027571
13
13.0973651081
23
24.3791027571
0
SOLID
5
2A5
100
AcDbEntity
8
0
100
AcDbTrace
62
2
6
CONTINUOUS
10
13.0973651081
20
24.3791027571
11
12.8791594028
21
24.3401316318
12
13.1321468587
22
24.3968249442
13
13.1321468587
23
24.3968249442
0
SOLID
5
2A6
100
AcDbEntity
8
0
100
AcDbTrace
62
2
6
CONTINUOUS
10
12.8791594028
20
24.3401316318
11
12.8984144963
21
24.3993927161
12
13.1321468587
22
24.3968249442
13
13.1321468587
23
24.3968249442
0
SOLID
5
2A7
100
AcDbEntity
8
0
100
AcDbTrace
62
2
6
CONTINUOUS
10
13.2092585937
20
24.3968249442
11
13.4429909561
21
24.3993927161
12
13.2440403443
22
24.3791027571
13
13.2440403443
23
24.3791027571
0
SOLID
5
2A8
100
AcDbEntity
8
0
100
AcDbTrace
62
2
6
CONTINUOUS
10
13.2440403443
20
24.3791027571
11
13.4429909561
21
24.3993927161
12
13.2716432978
22
24.3514998035
13
13.2716432978
23
24.3514998035
0
SOLID
5
2A9
100
AcDbEntity
8
0
100
AcDbTrace
62
2
6
CONTINUOUS
10
13.4429909561
20
24.3993927161
11
13.4622460496
21
24.3401316318
12
13.2716432978
22
24.3514998035
13
13.2716432978
23
24.3514998035
0
SOLID
5
2AA
100
AcDbEntity
8
0
100
AcDbTrace
62
2
6
CONTINUOUS
10
13.0697621545
20
24.3514998035
11
13.0520399674
21
24.3167180529
12
12.8791594028
22
24.3401316318
13
12.8791594028
23
24.3401316318
0
SOLID
5
2AB
100
AcDbEntity
8
0
100
AcDbTrace
62
2
6
CONTINUOUS
10
13.2893654849
20
24.3167180529
11
13.2716432978
21
24.3514998035
12
13.4622460496
22
24.3401316318
13
13.4622460496
23
24.3401316318
0
SOLID
5
2AC
100
AcDbEntity
8
0
100
AcDbTrace
62
2
6
CONTINUOUS
10
12.8726461515
20
24.2781621854
11
12.8791594028
21
24.3401316318
12
13.0520399674
22
24.3167180529
13
13.0520399674
23
24.3167180529
0
SOLID
5
2AD
100
AcDbEntity
8
0
100
AcDbTrace
62
2
6
CONTINUOUS
10
13.0520399674
20
24.3167180529
11
13.0459333179
21
24.2781621854
12
12.8726461515
22
24.2781621854
13
12.8726461515
23
24.2781621854
0
SOLID
5
2AE
100
AcDbEntity
8
0
100
AcDbTrace
62
2
6
CONTINUOUS
10
13.2893654849
20
24.3167180529
11
13.4622460496
21
24.3401316318
12
13.2954721344
22
24.2781621854
13
13.2954721344
23
24.2781621854
0
SOLID
5
2AF
100
AcDbEntity
8
0
100
AcDbTrace
62
2
6
CONTINUOUS
10
13.4622460496
20
24.3401316318
11
13.4687593008
21
24.2781621854
12
13.2954721344
22
24.2781621854
13
13.2954721344
23
24.2781621854
0
SOLID
5
2B0
100
AcDbEntity
8
0
100
AcDbTrace
62
2
6
CONTINUOUS
10
13.2893654849
20
24.2396063179
11
13.2954721344
21
24.2781621854
12
13.4687593008
22
24.2781621854
13
13.4687593008
23
24.2781621854
0
SOLID
5
2B1
100
AcDbEntity
8
0
100
AcDbTrace
62
2
6
CONTINUOUS
10
13.0520399674
20
24.2396063179
11
12.8791594028
21
24.2161927390
12
13.0459333179
22
24.2781621854
13
13.0459333179
23
24.2781621854
0
SOLID
5
2B2
100
AcDbEntity
8
0
100
AcDbTrace
62
2
6
CONTINUOUS
10
12.8791594028
20
24.2161927390
11
12.8726461515
21
24.2781621854
12
13.0459333179
22
24.2781621854
13
13.0459333179
23
24.2781621854
0
SOLID
5
2B3
100
AcDbEntity
8
0
100
AcDbTrace
62
2
6
CONTINUOUS
10
13.4687593008
20
24.2781621854
11
13.4622460496
21
24.2161927390
12
13.2893654849
22
24.2396063179
13
13.2893654849
23
24.2396063179
0
SOLID
5
2B4
100
AcDbEntity
8
0
100
AcDbTrace
62
2
6
CONTINUOUS
10
13.0520399674
20
24.2396063179
11
13.0697621545
21
24.2048245673
12
12.8791594028
22
24.2161927390
13
12.8791594028
23
24.2161927390
0
SOLID
5
2B5
100
AcDbEntity
8
0
100
AcDbTrace
62
2
6
CONTINUOUS
10
13.2716432978
20
24.2048245673
11
13.2893654849
21
24.2396063179
12
13.4622460496
22
24.2161927390
13
13.4622460496
23
24.2161927390
0
SOLID
5
2B6
100
AcDbEntity
8
0
100
AcDbTrace
62
2
6
CONTINUOUS
10
13.1321468587
20
24.1594994267
11
12.8984144963
21
24.1569316548
12
13.0973651081
22
24.1772216138
13
13.0973651081
23
24.1772216138
0
SOLID
5
2B7
100
AcDbEntity
8
0
100
AcDbTrace
62
2
6
CONTINUOUS
10
13.0973651081
20
24.1772216138
11
12.8984144963
21
24.1569316548
12
13.0697621545
22
24.2048245673
13
13.0697621545
23
24.2048245673
0
SOLID
5
2B8
100
AcDbEntity
8
0
100
AcDbTrace
62
2
6
CONTINUOUS
10
12.8984144963
20
24.1569316548
11
12.8791594028
21
24.2161927390
12
13.0697621545
22
24.2048245673
13
13.0697621545
23
24.2048245673
0
SOLID
5
2B9
100
AcDbEntity
8
0
100
AcDbTrace
62
2
6
CONTINUOUS
10
13.2716432978
20
24.2048245673
11
13.4622460496
21
24.2161927390
12
13.2440403443
22
24.1772216138
13
13.2440403443
23
24.1772216138
0
SOLID
5
2BA
100
AcDbEntity
8
0
100
AcDbTrace
62
2
6
CONTINUOUS
10
13.2440403443
20
24.1772216138
11
13.4622460496
21
24.2161927390
12
13.2092585937
22
24.1594994267
13
13.2092585937
23
24.1594994267
0
SOLID
5
2BB
100
AcDbEntity
8
0
100
AcDbTrace
62
2
6
CONTINUOUS
10
13.4622460496
20
24.2161927390
11
13.4429909561
21
24.1569316548
12
13.2092585937
22
24.1594994267
13
13.2092585937
23
24.1594994267
0
SOLID
5
2BC
100
AcDbEntity
8
0
100
AcDbTrace
62
2
6
CONTINUOUS
10
13.1321468587
20
24.1594994267
11
13.1707027262
21
24.1533927772
12
12.8984144963
22
24.1569316548
13
12.8984144963
23
24.1569316548
0
SOLID
5
2BD
100
AcDbEntity
8
0
100
AcDbTrace
62
2
6
CONTINUOUS
10
13.1707027262
20
24.1533927772
11
13.2092585937
21
24.1594994267
12
13.4429909561
22
24.1569316548
13
13.4429909561
23
24.1569316548
0
SOLID
5
2BE
100
AcDbEntity
8
0
100
AcDbTrace
62
2
6
CONTINUOUS
10
12.9295698920
20
24.1029689265
11
12.8984144963
21
24.1569316548
12
13.1707027262
22
24.1533927772
13
13.1707027262
23
24.1533927772
0
SOLID
5
2BF
100
AcDbEntity
8
0
100
AcDbTrace
62
2
6
CONTINUOUS
10
13.1707027262
20
24.1533927772
11
13.4429909561
21
24.1569316548
12
12.9295698920
22
24.1029689265
13
12.9295698920
23
24.1029689265
0
SOLID
5
2C0
100
AcDbEntity
8
0
100
AcDbTrace
62
2
6
CONTINUOUS
10
13.4429909561
20
24.1569316548
11
13.4118355604
21
24.1029689265
12
12.9295698920
22
24.1029689265
13
12.9295698920
23
24.1029689265
0
SOLID
5
2C1
100
AcDbEntity
8
0
100
AcDbTrace
62
2
6
CONTINUOUS
10
12.9712639496
20
24.0566629843
11
12.9295698920
21
24.1029689265
12
13.4118355604
22
24.1029689265
13
13.4118355604
23
24.1029689265
0
SOLID
5
2C2
100
AcDbEntity
8
0
100
AcDbTrace
62
2
6
CONTINUOUS
10
13.4118355604
20
24.1029689265
11
13.3701415027
21
24.0566629843
12
12.9712639496
22
24.0566629843
13
12.9712639496
23
24.0566629843
0
SOLID
5
2C3
100
AcDbEntity
8
0
100
AcDbTrace
62
2
6
CONTINUOUS
10
13.0216744388
20
24.0200376200
11
12.9712639496
21
24.0566629843
12
13.3701415027
22
24.0566629843
13
13.3701415027
23
24.0566629843
0
SOLID
5
2C4
100
AcDbEntity
8
0
100
AcDbTrace
62
2
6
CONTINUOUS
10
13.3701415027
20
24.0566629843
11
13.3197310135
21
24.0200376200
12
13.0216744388
22
24.0200376200
13
13.0216744388
23
24.0200376200
0
SOLID
5
2C5
100
AcDbEntity
8
0
100
AcDbTrace
62
2
6
CONTINUOUS
10
13.0785981793
20
23.9946935379
11
13.0216744388
21
24.0200376200
12
13.3197310135
22
24.0200376200
13
13.3197310135
23
24.0200376200
0
SOLID
5
2C6
100
AcDbEntity
8
0
100
AcDbTrace
62
2
6
CONTINUOUS
10
13.3197310135
20
24.0200376200
11
13.2628072730
21
23.9946935379
12
13.0785981793
22
23.9946935379
13
13.0785981793
23
23.9946935379
0
SOLID
5
2C7
100
AcDbEntity
8
0
100
AcDbTrace
62
2
6
CONTINUOUS
10
13.1395473305
20
23.9817383959
11
13.0785981793
21
23.9946935379
12
13.2628072730
22
23.9946935379
13
13.2628072730
23
23.9946935379
0
SOLID
5
2C8
100
AcDbEntity
8
0
100
AcDbTrace
62
2
6
CONTINUOUS
10
13.2628072730
20
23.9946935379
11
13.2018581219
21
23.9817383959
12
13.1395473305
22
23.9817383959
13
13.1395473305
23
23.9817383959
0
LINE
5
2C9
100
AcDbEntity
8
0
100
AcDbLine
62
2
6
CONTINUOUS
10
13.9633386920
20
24.5722402459
11
13.9633386920
21
23.9863266286
0
LINE
5
2CA
100
AcDbEntity
8
0
100
AcDbLine
62
2
6
CONTINUOUS
10
13.9633386920
20
23.9863266286
11
13.7986050211
21
23.9863266286
0
LINE
5
2CB
100
AcDbEntity
8
0
100
AcDbLine
62
2
6
CONTINUOUS
10
13.7986050211
20
24.2146512259
11
13.7986050211
21
23.9863266286
0
LINE
5
2CC
100
AcDbEntity
8
0
100
AcDbLine
62
2
6
CONTINUOUS
10
13.6506082181
20
24.2146512259
11
13.7986050211
21
24.2146512259
0
LINE
5
2CD
100
AcDbEntity
8
0
100
AcDbLine
62
2
6
CONTINUOUS
10
13.6506082181
20
24.2146512259
11
13.6506082181
21
23.9863266286
0
LINE
5
2CE
100
AcDbEntity
8
0
100
AcDbLine
62
2
6
CONTINUOUS
10
13.6506082181
20
23.9863266286
11
13.4858745473
21
23.9863266286
0
LINE
5
2CF
100
AcDbEntity
8
0
100
AcDbLine
62
2
6
CONTINUOUS
10
13.4858745473
20
24.5722402459
11
13.4858745473
21
23.9863266286
0
LINE
5
2D0
100
AcDbEntity
8
0
100
AcDbLine
62
2
6
CONTINUOUS
10
13.4858745473
20
24.5722402459
11
13.6506082181
21
24.5722402459
0
LINE
5
2D1
100
AcDbEntity
8
0
100
AcDbLine
62
2
6
CONTINUOUS
10
13.6506082181
20
24.5722402459
11
13.6506082181
21
24.3518564983
0
LINE
5
2D2
100
AcDbEntity
8
0
100
AcDbLine
62
2
6
CONTINUOUS
10
13.6506082181
20
24.3518564983
11
13.7986050211
21
24.3518564983
0
LINE
5
2D3
100
AcDbEntity
8
0
100
AcDbLine
62
2
6
CONTINUOUS
10
13.7986050211
20
24.5722402459
11
13.7986050211
21
24.3518564983
0
LINE
5
2D4
100
AcDbEntity
8
0
100
AcDbLine
62
2
6
CONTINUOUS
10
13.7986050211
20
24.5722402459
11
13.9633386920
21
24.5722402459
0
SOLID
5
2D5
100
AcDbEntity
8
0
100
AcDbTrace
62
2
6
CONTINUOUS
10
13.7986050211
20
24.3518564983
11
13.7986050211
21
24.5722402459
12
13.9633386920
22
24.5722402459
13
13.9633386920
23
24.5722402459
0
SOLID
5
2D6
100
AcDbEntity
8
0
100
AcDbTrace
62
2
6
CONTINUOUS
10
13.7986050211
20
24.3518564983
11
13.6506082181
21
24.2146512259
12
13.6506082181
22
24.3518564983
13
13.6506082181
23
24.3518564983
0
SOLID
5
2D7
100
AcDbEntity
8
0
100
AcDbTrace
62
2
6
CONTINUOUS
10
13.6506082181
20
24.2146512259
11
13.4858745473
21
23.9863266286
12
13.6506082181
22
24.3518564983
13
13.6506082181
23
24.3518564983
0
SOLID
5
2D8
100
AcDbEntity
8
0
100
AcDbTrace
62
2
6
CONTINUOUS
10
13.6506082181
20
24.3518564983
11
13.4858745473
21
23.9863266286
12
13.6506082181
22
24.5722402459
13
13.6506082181
23
24.5722402459
0
SOLID
5
2D9
100
AcDbEntity
8
0
100
AcDbTrace
62
2
6
CONTINUOUS
10
13.4858745473
20
23.9863266286
11
13.4858745473
21
24.5722402459
12
13.6506082181
22
24.5722402459
13
13.6506082181
23
24.5722402459
0
SOLID
5
2DA
100
AcDbEntity
8
0
100
AcDbTrace
62
2
6
CONTINUOUS
10
13.6506082181
20
24.2146512259
11
13.6506082181
21
23.9863266286
12
13.4858745473
22
23.9863266286
13
13.4858745473
23
23.9863266286
0
SOLID
5
2DB
100
AcDbEntity
8
0
100
AcDbTrace
62
2
6
CONTINUOUS
10
13.6506082181
20
24.2146512259
11
13.7986050211
21
24.3518564983
12
13.7986050211
22
24.2146512259
13
13.7986050211
23
24.2146512259
0
SOLID
5
2DC
100
AcDbEntity
8
0
100
AcDbTrace
62
2
6
CONTINUOUS
10
13.7986050211
20
24.3518564983
11
13.9633386920
21
24.5722402459
12
13.7986050211
22
24.2146512259
13
13.7986050211
23
24.2146512259
0
SOLID
5
2DD
100
AcDbEntity
8
0
100
AcDbTrace
62
2
6
CONTINUOUS
10
13.7986050211
20
24.2146512259
11
13.9633386920
21
24.5722402459
12
13.7986050211
22
23.9863266286
13
13.7986050211
23
23.9863266286
0
SOLID
5
2DE
100
AcDbEntity
8
0
100
AcDbTrace
62
2
6
CONTINUOUS
10
13.9633386920
20
24.5722402459
11
13.9633386920
21
23.9863266286
12
13.7986050211
22
23.9863266286
13
13.7986050211
23
23.9863266286
0
LINE
5
2DF
100
AcDbEntity
8
0
100
AcDbLine
62
2
6
CONTINUOUS
10
14.1584295882
20
23.9863266286
11
14.3211136493
21
23.9863266286
0
LINE
5
2E0
100
AcDbEntity
8
0
100
AcDbLine
62
2
6
CONTINUOUS
10
14.1584295882
20
23.9863266286
11
14.0083835337
21
23.9863266286
0
LINE
5
2E1
100
AcDbEntity
8
0
100
AcDbLine
62
2
6
CONTINUOUS
10
14.0083835337
20
23.9863266286
11
14.0083835337
21
24.5722402459
0
LINE
5
2E2
100
AcDbEntity
8
0
100
AcDbLine
62
2
6
CONTINUOUS
10
14.0083835337
20
24.5722402459
11
14.1584295882
21
24.5722402459
0
LINE
5
2E3
100
AcDbEntity
8
0
100
AcDbLine
62
2
6
CONTINUOUS
10
14.1584295882
20
24.5722402459
11
14.1584295882
21
24.1275533780
0
LINE
5
2E4
100
AcDbEntity
8
0
100
AcDbLine
62
2
6
CONTINUOUS
10
14.1584295882
20
24.1275533780
11
14.3211136493
21
24.1275533780
0
LINE
5
2E5
100
AcDbEntity
8
0
100
AcDbLine
62
2
6
CONTINUOUS
10
14.3211136493
20
24.1275533780
11
14.3211136493
21
23.9863266286
0
SOLID
5
2E6
100
AcDbEntity
8
0
100
AcDbTrace
62
2
6
CONTINUOUS
10
14.3211136493
20
24.1275533780
11
14.0083835337
21
23.9863266286
12
14.1584295882
22
24.1275533780
13
14.1584295882
23
24.1275533780
0
SOLID
5
2E7
100
AcDbEntity
8
0
100
AcDbTrace
62
2
6
CONTINUOUS
10
14.1584295882
20
24.1275533780
11
14.0083835337
21
23.9863266286
12
14.1584295882
22
24.5722402459
13
14.1584295882
23
24.5722402459
0
SOLID
5
2E8
100
AcDbEntity
8
0
100
AcDbTrace
62
2
6
CONTINUOUS
10
14.0083835337
20
23.9863266286
11
14.0083835337
21
24.5722402459
12
14.1584295882
22
24.5722402459
13
14.1584295882
23
24.5722402459
0
SOLID
5
2E9
100
AcDbEntity
8
0
100
AcDbTrace
62
2
6
CONTINUOUS
10
14.0083835337
20
23.9863266286
11
14.3211136493
21
24.1275533780
12
14.1584295882
22
23.9863266286
13
14.1584295882
23
23.9863266286
0
SOLID
5
2EA
100
AcDbEntity
8
0
100
AcDbTrace
62
2
6
CONTINUOUS
10
14.3211136493
20
24.1275533780
11
14.3211136493
21
23.9863266286
12
14.1584295882
22
23.9863266286
13
14.1584295882
23
23.9863266286
0
LINE
5
2EB
100
AcDbEntity
8
0
100
AcDbLine
62
2
6
CONTINUOUS
10
14.6593655448
20
24.2074749046
11
14.6593655448
21
24.3518564983
0
LINE
5
2EC
100
AcDbEntity
8
0
100
AcDbLine
62
2
6
CONTINUOUS
10
14.5085080296
20
24.3518564983
11
14.6593655448
21
24.3518564983
0
LINE
5
2ED
100
AcDbEntity
8
0
100
AcDbLine
62
2
6
CONTINUOUS
10
14.5085080296
20
24.4294808569
11
14.5085080296
21
24.3518564983
0
LINE
5
2EE
100
AcDbEntity
8
0
100
AcDbLine
62
2
6
CONTINUOUS
10
14.5085080296
20
24.4294808569
11
14.6593655448
21
24.4294808569
0
LINE
5
2EF
100
AcDbEntity
8
0
100
AcDbLine
62
2
6
CONTINUOUS
10
14.6593655448
20
24.4294808569
11
14.6593655448
21
24.5722402459
0
LINE
5
2F0
100
AcDbEntity
8
0
100
AcDbLine
62
2
6
CONTINUOUS
10
14.5227123522
20
24.5722402459
11
14.6593655448
21
24.5722402459
0
LINE
5
2F1
100
AcDbEntity
8
0
100
AcDbLine
62
2
6
CONTINUOUS
10
14.3502613864
20
24.5722402459
11
14.5227123522
21
24.5722402459
0
LINE
5
2F2
100
AcDbEntity
8
0
100
AcDbLine
62
2
6
CONTINUOUS
10
14.3502613864
20
23.9863266286
11
14.3502613864
21
24.5722402459
0
LINE
5
2F3
100
AcDbEntity
8
0
100
AcDbLine
62
2
6
CONTINUOUS
10
14.3502613864
20
23.9863266286
11
14.6593655448
21
23.9863266286
0
LINE
5
2F4
100
AcDbEntity
8
0
100
AcDbLine
62
2
6
CONTINUOUS
10
14.6593655448
20
23.9863266286
11
14.6593655448
21
24.1275533780
0
LINE
5
2F5
100
AcDbEntity
8
0
100
AcDbLine
62
2
6
CONTINUOUS
10
14.5085080296
20
24.1275533780
11
14.6593655448
21
24.1275533780
0
LINE
5
2F6
100
AcDbEntity
8
0
100
AcDbLine
62
2
6
CONTINUOUS
10
14.5085080296
20
24.2074749046
11
14.5085080296
21
24.1275533780
0
LINE
5
2F7
100
AcDbEntity
8
0
100
AcDbLine
62
2
6
CONTINUOUS
10
14.5085080296
20
24.2074749046
11
14.6593655448
21
24.2074749046
0
SOLID
5
2F8
100
AcDbEntity
8
0
100
AcDbTrace
62
2
6
CONTINUOUS
10
14.6593655448
20
24.5722402459
11
14.6593655448
21
24.4294808569
12
14.5085080296
22
24.4294808569
13
14.5085080296
23
24.4294808569
0
SOLID
5
2F9
100
AcDbEntity
8
0
100
AcDbTrace
62
2
6
CONTINUOUS
10
14.6593655448
20
24.3518564983
11
14.6593655448
21
24.2074749046
12
14.5085080296
22
24.2074749046
13
14.5085080296
23
24.2074749046
0
SOLID
5
2FA
100
AcDbEntity
8
0
100
AcDbTrace
62
2
6
CONTINUOUS
10
14.6593655448
20
24.1275533780
11
14.3502613864
21
23.9863266286
12
14.5085080296
22
24.1275533780
13
14.5085080296
23
24.1275533780
0
SOLID
5
2FB
100
AcDbEntity
8
0
100
AcDbTrace
62
2
6
CONTINUOUS
10
14.5085080296
20
24.1275533780
11
14.3502613864
21
23.9863266286
12
14.5085080296
22
24.2074749046
13
14.5085080296
23
24.2074749046
0
SOLID
5
2FC
100
AcDbEntity
8
0
100
AcDbTrace
62
2
6
CONTINUOUS
10
14.6593655448
20
24.3518564983
11
14.5085080296
21
24.2074749046
12
14.5085080296
22
24.3518564983
13
14.5085080296
23
24.3518564983
0
SOLID
5
2FD
100
AcDbEntity
8
0
100
AcDbTrace
62
2
6
CONTINUOUS
10
14.5085080296
20
24.2074749046
11
14.3502613864
21
23.9863266286
12
14.5085080296
22
24.3518564983
13
14.5085080296
23
24.3518564983
0
SOLID
5
2FE
100
AcDbEntity
8
0
100
AcDbTrace
62
2
6
CONTINUOUS
10
14.5085080296
20
24.3518564983
11
14.3502613864
21
23.9863266286
12
14.5085080296
22
24.4294808569
13
14.5085080296
23
24.4294808569
0
SOLID
5
2FF
100
AcDbEntity
8
0
100
AcDbTrace
62
2
6
CONTINUOUS
10
14.6593655448
20
24.5722402459
11
14.5085080296
21
24.4294808569
12
14.5227123522
22
24.5722402459
13
14.5227123522
23
24.5722402459
0
SOLID
5
300
100
AcDbEntity
8
0
100
AcDbTrace
62
2
6
CONTINUOUS
10
14.5085080296
20
24.4294808569
11
14.3502613864
21
23.9863266286
12
14.5227123522
22
24.5722402459
13
14.5227123522
23
24.5722402459
0
SOLID
5
301
100
AcDbEntity
8
0
100
AcDbTrace
62
2
6
CONTINUOUS
10
14.3502613864
20
23.9863266286
11
14.3502613864
21
24.5722402459
12
14.5227123522
22
24.5722402459
13
14.5227123522
23
24.5722402459
0
SOLID
5
302
100
AcDbEntity
8
0
100
AcDbTrace
62
2
6
CONTINUOUS
10
14.6593655448
20
24.1275533780
11
14.6593655448
21
23.9863266286
12
14.3502613864
22
23.9863266286
13
14.3502613864
23
23.9863266286
0
LINE
5
303
100
AcDbEntity
8
0
100
AcDbLine
62
2
6
CONTINUOUS
10
15.1696159228
20
23.9863266286
11
15.0101726886
21
24.2379091561
0
ARC
5
304
100
AcDbEntity
8
0
100
AcDbCircle
62
2
6
CONTINUOUS
10
14.9377334449
20
24.3972307447
40
0.1750166067
100
AcDbArc
50
294.4500166359
51
90.0000000000
0
LINE
5
305
100
AcDbEntity
8
0
100
AcDbLine
62
2
6
CONTINUOUS
10
14.7041857570
20
24.5722402459
11
14.9377334449
21
24.5722402459
0
LINE
5
306
100
AcDbEntity
8
0
100
AcDbLine
62
2
6
CONTINUOUS
10
14.7041857570
20
23.9863266286
11
14.7041857570
21
24.5722402459
0
LINE
5
307
100
AcDbEntity
8
0
100
AcDbLine
62
2
6
CONTINUOUS
10
14.7041857570
20
23.9863266286
11
14.8548415713
21
23.9863266286
0
LINE
5
308
100
AcDbEntity
8
0
100
AcDbLine
62
2
6
CONTINUOUS
10
14.8548415713
20
24.1832829886
11
14.8548415713
21
23.9863266286
0
LINE
5
309
100
AcDbEntity
8
0
100
AcDbLine
62
2
6
CONTINUOUS
10
14.9796649937
20
23.9863266286
11
14.8548415713
21
24.1832829886
0
LINE
5
30A
100
AcDbEntity
8
0
100
AcDbLine
62
2
6
CONTINUOUS
10
14.9796649937
20
23.9863266286
11
15.1696159228
21
23.9863266286
0
LINE
5
30B
100
AcDbEntity
8
0
100
AcDbLine
62
2
6
CONTINUOUS
10
14.8548415713
20
24.3225582917
11
14.9071813187
21
24.3225582917
0
ARC
5
30C
100
AcDbEntity
8
0
100
AcDbCircle
62
2
6
CONTINUOUS
10
14.9107713478
20
24.3760496883
40
0.0536117321
100
AcDbArc
50
266.1604009902
51
89.9998910512
0
LINE
5
30D
100
AcDbEntity
8
0
100
AcDbLine
62
2
6
CONTINUOUS
10
14.9107714497
20
24.4296614203
11
14.8548415713
21
24.4296614203
0
LINE
5
30E
100
AcDbEntity
8
0
100
AcDbLine
62
2
6
CONTINUOUS
10
14.8548415713
20
24.4296614203
11
14.8548415713
21
24.3225582917
0
SOLID
5
30F
100
AcDbEntity
8
0
100
AcDbTrace
62
2
6
CONTINUOUS
10
14.9377334449
20
24.5722473515
11
14.9846664658
21
24.5658371034
12
14.7041857570
22
24.5722402459
13
14.7041857570
23
24.5722402459
0
SOLID
5
310
100
AcDbEntity
8
0
100
AcDbTrace
62
2
6
CONTINUOUS
10
14.8548415713
20
24.4296614203
11
15.1087812985
21
24.4342907556
12
14.9107714497
22
24.4296614203
13
14.9107714497
23
24.4296614203
0
SOLID
5
311
100
AcDbEntity
8
0
100
AcDbTrace
62
2
6
CONTINUOUS
10
14.9107714497
20
24.4296614203
11
15.1087812985
21
24.4342907556
12
14.9344940300
22
24.4241272523
13
14.9344940300
23
24.4241272523
0
SOLID
5
312
100
AcDbEntity
8
0
100
AcDbTrace
62
2
6
CONTINUOUS
10
14.9344940300
20
24.4241272523
11
15.1087812985
21
24.4342907556
12
14.9533190166
22
24.4086673781
13
14.9533190166
23
24.4086673781
0
SOLID
5
313
100
AcDbEntity
8
0
100
AcDbTrace
62
2
6
CONTINUOUS
10
15.1087812985
20
24.4342907556
11
15.1124545447
21
24.3870646294
12
14.9533190166
22
24.4086673781
13
14.9533190166
23
24.4086673781
0
SOLID
5
314
100
AcDbEntity
8
0
100
AcDbTrace
62
2
6
CONTINUOUS
10
14.9633599547
20
24.3864735187
11
14.9533190166
21
24.4086673781
12
15.1124545447
22
24.3870646294
13
15.1124545447
23
24.3870646294
0
SOLID
5
315
100
AcDbEntity
8
0
100
AcDbTrace
62
2
6
CONTINUOUS
10
14.9633599547
20
24.3864735187
11
15.1124545447
21
24.3870646294
12
14.9625438730
22
24.3621276393
13
14.9625438730
23
24.3621276393
0
SOLID
5
316
100
AcDbEntity
8
0
100
AcDbTrace
62
2
6
CONTINUOUS
10
14.9625438730
20
24.3621276393
11
15.1124545447
21
24.3870646294
12
14.9510392533
22
24.3406559939
13
14.9510392533
23
24.3406559939
0
SOLID
5
317
100
AcDbEntity
8
0
100
AcDbTrace
62
2
6
CONTINUOUS
10
15.1124545447
20
24.3870646294
11
15.1033289416
21
24.3405832018
12
14.9510392533
22
24.3406559939
13
14.9510392533
23
24.3406559939
0
SOLID
5
318
100
AcDbEntity
8
0
100
AcDbTrace
62
2
6
CONTINUOUS
10
14.9312212466
20
24.3264914452
11
14.9510392533
21
24.3406559939
12
15.1033289416
22
24.3405832018
13
15.1033289416
23
24.3405832018
0
SOLID
5
319
100
AcDbEntity
8
0
100
AcDbTrace
62
2
6
CONTINUOUS
10
14.9312212466
20
24.3264914452
11
15.1033289416
21
24.3405832018
12
14.9071813187
22
24.3225582917
13
14.9071813187
23
24.3225582917
0
SOLID
5
31A
100
AcDbEntity
8
0
100
AcDbTrace
62
2
6
CONTINUOUS
10
15.1033289416
20
24.3405832018
11
15.0820729670
21
24.2982513783
12
14.9071813187
22
24.3225582917
13
14.9071813187
23
24.3225582917
0
SOLID
5
31B
100
AcDbEntity
8
0
100
AcDbTrace
62
2
6
CONTINUOUS
10
15.0101726886
20
24.2379091561
11
14.8548415713
21
24.1832829886
12
15.0502436857
22
24.2631700929
13
15.0502436857
23
24.2631700929
0
SOLID
5
31C
100
AcDbEntity
8
0
100
AcDbTrace
62
2
6
CONTINUOUS
10
15.0502436857
20
24.2631700929
11
14.8548415713
21
24.1832829886
12
15.0820729670
22
24.2982513783
13
15.0820729670
23
24.2982513783
0
SOLID
5
31D
100
AcDbEntity
8
0
100
AcDbTrace
62
2
6
CONTINUOUS
10
15.0820729670
20
24.2982513783
11
14.8548415713
21
24.1832829886
12
14.9071813187
22
24.3225582917
13
14.9071813187
23
24.3225582917
0
SOLID
5
31E
100
AcDbEntity
8
0
100
AcDbTrace
62
2
6
CONTINUOUS
10
14.8548415713
20
24.1832829886
11
14.7041857570
21
23.9863266286
12
14.9071813187
22
24.3225582917
13
14.9071813187
23
24.3225582917
0
SOLID
5
31F
100
AcDbEntity
8
0
100
AcDbTrace
62
2
6
CONTINUOUS
10
14.9071813187
20
24.3225582917
11
14.7041857570
21
23.9863266286
12
14.8548415713
22
24.3225582917
13
14.8548415713
23
24.3225582917
0
SOLID
5
320
100
AcDbEntity
8
0
100
AcDbTrace
62
2
6
CONTINUOUS
10
14.8548415713
20
24.3225582917
11
14.7041857570
21
23.9863266286
12
14.8548415713
22
24.4296614203
13
14.8548415713
23
24.4296614203
0
SOLID
5
321
100
AcDbEntity
8
0
100
AcDbTrace
62
2
6
CONTINUOUS
10
15.1087812985
20
24.4342907556
11
14.8548415713
21
24.4296614203
12
15.0925782793
22
24.4788021239
13
15.0925782793
23
24.4788021239
0
SOLID
5
322
100
AcDbEntity
8
0
100
AcDbTrace
62
2
6
CONTINUOUS
10
15.0925782793
20
24.4788021239
11
14.8548415713
21
24.4296614203
12
15.0650324073
22
24.5173381417
13
15.0650324073
23
24.5173381417
0
SOLID
5
323
100
AcDbEntity
8
0
100
AcDbTrace
62
2
6
CONTINUOUS
10
15.0650324073
20
24.5173381417
11
14.8548415713
21
24.4296614203
12
15.0281615010
22
24.5470759292
13
15.0281615010
23
24.5470759292
0
SOLID
5
324
100
AcDbEntity
8
0
100
AcDbTrace
62
2
6
CONTINUOUS
10
15.0281615010
20
24.5470759292
11
14.8548415713
21
24.4296614203
12
14.9846664658
22
24.5658371034
13
14.9846664658
23
24.5658371034
0
SOLID
5
325
100
AcDbEntity
8
0
100
AcDbTrace
62
2
6
CONTINUOUS
10
14.9846664658
20
24.5658371034
11
14.8548415713
21
24.4296614203
12
14.7041857570
22
24.5722402459
13
14.7041857570
23
24.5722402459
0
SOLID
5
326
100
AcDbEntity
8
0
100
AcDbTrace
62
2
6
CONTINUOUS
10
14.7041857570
20
23.9863266286
11
14.7041857570
21
24.5722402459
12
14.8548415713
22
24.4296614203
13
14.8548415713
23
24.4296614203
0
SOLID
5
327
100
AcDbEntity
8
0
100
AcDbTrace
62
2
6
CONTINUOUS
10
14.8548415713
20
24.1832829886
11
14.8548415713
21
23.9863266286
12
14.7041857570
22
23.9863266286
13
14.7041857570
23
23.9863266286
0
SOLID
5
328
100
AcDbEntity
8
0
100
AcDbTrace
62
2
6
CONTINUOUS
10
14.8548415713
20
24.1832829886
11
15.0101726886
21
24.2379091561
12
14.9796649937
22
23.9863266286
13
14.9796649937
23
23.9863266286
0
SOLID
5
329
100
AcDbEntity
8
0
100
AcDbTrace
62
2
6
CONTINUOUS
10
15.0101726886
20
24.2379091561
11
15.1696159228
21
23.9863266286
12
14.9796649937
22
23.9863266286
13
14.9796649937
23
23.9863266286
0
CIRCLE
5
32A
100
AcDbEntity
8
0
100
AcDbCircle
62
2
6
CONTINUOUS
10
15.3103858898
20
23.9863266286
40
0.0653578685
0
LINE
5
32B
100
AcDbEntity
8
0
100
AcDbLine
62
2
6
CONTINUOUS
10
15.3060978667
20
23.9857888792
11
15.3379658778
21
23.9534859396
0
LINE
5
32C
100
AcDbEntity
8
0
100
AcDbLine
62
2
6
CONTINUOUS
10
15.2944998912
20
23.9534859396
11
15.2944998912
21
24.0194521349
0
LINE
5
32D
100
AcDbEntity
8
0
100
AcDbLine
62
2
6
CONTINUOUS
10
15.2944998912
20
24.0194521349
11
15.3187792228
21
24.0194521349
0
ARC
5
32E
100
AcDbEntity
8
0
100
AcDbCircle
62
2
6
CONTINUOUS
10
15.3187792228
20
24.0026206862
40
0.0168314487
100
AcDbArc
50
270.0000000000
51
90.0000000000
0
LINE
5
32F
100
AcDbEntity
8
0
100
AcDbLine
62
2
6
CONTINUOUS
10
15.3187792228
20
23.9857888792
11
15.2944998912
21
23.9857888792
0
ENDBLK
5
330
100
AcDbEntity
8
0
6
BYBLOCK
62
0
100
AcDbBlockEnd
0
BLOCK
5
331
100
AcDbEntity
8
0
100
AcDbBlockBegin
2
_FILLED
70
64
10
0.0000000000
20
0.0000000000
3
_FILLED
1

0
SOLID
5
332
100
AcDbEntity
8
0
6
BYBLOCK
62
0
100
AcDbTrace
10
0.0000000000
20
0.0000000000
11
-1.0000000000
21
0.1666666667
12
-1.0000000000
22
-0.1666666667
13
-1.0000000000
23
-0.1666666667
0
ENDBLK
5
333
100
AcDbEntity
8
0
6
BYBLOCK
62
0
100
AcDbBlockEnd
0
ENDSEC
0
SECTION
2
ENTITIES
0
DIMENSION
5
334
100
AcDbEntity
8
0
100
AcDbDimension
62
2
6
CONTINUOUS
2
*D0
10
29.7099970982
20
19.1664632216
11
23.1734612751
21
19.0492757216
70
160
1
<>"\P[46 cm]
3
DIMSTYLE_1
100
AcDbAlignedDimension
13
11.7174970982
23
19.5857598465
14
29.7099970982
24
19.0414632216
100
AcDbRotatedDimension
0
DIMENSION
5
335
100
AcDbEntity
8
0
100
AcDbDimension
62
2
6
CONTINUOUS
2
*D1
10
11.1022468767
20
28.2701341334
11
11.1022468767
21
27.6130485332
70
160
1
<>"\P[6,4 cm]
3
DIMSTYLE_1
100
AcDbAlignedDimension
13
12.0299970982
23
25.7701341334
14
10.4508660390
24
28.2701341334
50
90.000000
100
AcDbRotatedDimension
0
DIMENSION
5
336
100
AcDbEntity
8
0
100
AcDbDimension
62
2
6
CONTINUOUS
2
*D2
10
20.1614687009
20
11.4231341334
11
20.1614687009
21
17.3577133269
70
160
1
<>"\P[36,8 CM]
3
DIMSTYLE_1
100
AcDbAlignedDimension
13
19.4598499517
23
25.7701341334
14
19.6823954063
24
11.4231341334
50
270.000000
100
AcDbRotatedDimension
0
TEXT
5
337
100
AcDbEntity
8
0
100
AcDbText
62
2
6
CONTINUOUS
10
12.4492346062
20
23.6162126407
7
STANDARD
40
0.2500000000
1
CUT-OUT TEMPLATE
41
0.8000000000
72
0
100
AcDbText
0
TEXT
5
338
100
AcDbEntity
8
0
100
AcDbText
62
2
6
CONTINUOUS
10
12.4492346062
20
23.2412126407
7
STANDARD
40
0.2500000000
1
UNDERCOUNTER LAVATORY
41
0.8000000000
72
0
100
AcDbText
0
TEXT
5
339
100
AcDbEntity
8
0
100
AcDbText
62
2
6
CONTINUOUS
10
12.4492346062
20
22.8662126407
7
STANDARD
40
0.2500000000
1
PLANTILLA DE RECORTE
41
0.8000000000
72
0
100
AcDbText
0
TEXT
5
33A
100
AcDbEntity
8
0
100
AcDbText
62
2
6
CONTINUOUS
10
12.4492346062
20
22.4912126407
7
STANDARD
40
0.2500000000
1
LAVABO MONTADO DEBAJO DEL MOSTRADOR
41
0.8000000000
72
0
100
AcDbText
0
TEXT
5
33B
100
AcDbEntity
8
0
100
AcDbText
62
2
6
CONTINUOUS
10
12.4492346062
20
22.1162126407
7
STANDARD
40
0.2500000000
1
GABARIT
41
0.8000000000
72
0
100
AcDbText
0
TEXT
5
33C
100
AcDbEntity
8
0
100
AcDbText
62
2
6
CONTINUOUS
10
12.4492346062
20
21.7412126407
7
STANDARD
40
0.2500000000
1
LAVABO SOUS-COMPTOIR
41
0.8000000000
72
0
100
AcDbText
0
TEXT
5
33D
100
AcDbEntity
8
0
100
AcDbText
62
2
6
CONTINUOUS
10
12.4492346062
20
21.3662126407
7
STANDARD
40
0.2500000000
1
 
41
0.8000000000
72
0
100
AcDbText
0
TEXT
5
33E
100
AcDbEntity
8
0
100
AcDbText
62
2
6
CONTINUOUS
10
12.4492346062
20
20.9912126407
7
STANDARD
40
0.2500000000
1
MEMOIRS  2339-**-AA
41
0.8000000000
72
0
100
AcDbText
0
TEXT
5
33F
100
AcDbEntity
8
0
100
AcDbText
62
2
6
CONTINUOUS
10
13.9656423624
20
20.9761008527
7
STANDARD
40
0.0940000000
1
TM
41
0.8000000000
72
0
100
AcDbText
0
SOLID
5
340
100
AcDbEntity
8
0
100
AcDbTrace
62
2
6
CONTINUOUS
10
11.7174970982
20
16.6465896716
11
11.8568096941
21
16.7759141206
12
11.8912223481
22
16.7237411463
13
11.8912223481
23
16.7237411463
0
TEXT
5
341
100
AcDbEntity
8
0
100
AcDbText
62
2
6
CONTINUOUS
10
13.2255692566
20
17.3982736375
7
STANDARD
40
0.1562500000
1
CUT ALONG THIS LINE
41
0.8000000000
72
0
100
AcDbText
0
TEXT
5
342
100
AcDbEntity
8
0
100
AcDbText
62
2
6
CONTINUOUS
10
13.2255692566
20
17.1638986375
7
STANDARD
40
0.1562500000
1
CORTE A LO LARGO DE ESTA LÍNEA
41
0.8000000000
72
0
100
AcDbText
0
TEXT
5
343
100
AcDbEntity
8
0
100
AcDbText
62
2
6
CONTINUOUS
10
13.2255692566
20
16.9295236375
7
STANDARD
40
0.1562500000
1
DÉCOUPER AU LONG DE CETTE LIGNE
41
0.8000000000
72
0
100
AcDbText
0
SOLID
5
344
100
AcDbEntity
8
0
100
AcDbTrace
62
2
6
CONTINUOUS
10
10.3883660390
20
13.7719646296
11
10.5195066146
21
13.9095689971
12
10.5570463784
22
13.8595988446
13
10.5570463784
23
13.8595988446
0
TEXT
5
345
100
AcDbEntity
8
0
100
AcDbText
62
2
6
CONTINUOUS
10
12.7758311901
20
15.2995969215
7
STANDARD
40
0.1562500000
1
RIM OF LAVATORY
41
0.8000000000
72
0
100
AcDbText
0
TEXT
5
346
100
AcDbEntity
8
0
100
AcDbText
62
2
6
CONTINUOUS
10
12.7758311901
20
15.0652219215
7
STANDARD
40
0.1562500000
1
REBORDE DEL LAVABO
41
0.8000000000
72
0
100
AcDbText
0
TEXT
5
347
100
AcDbEntity
8
0
100
AcDbText
62
2
6
CONTINUOUS
10
12.7758311901
20
14.8308469215
7
STANDARD
40
0.1562500000
1
REBORD DE LAVABO
41
0.8000000000
72
0
100
AcDbText
0
TEXT
5
348
100
AcDbEntity
8
0
100
AcDbText
62
2
6
CONTINUOUS
10
12.8718927166
20
11.6188074380
7
STANDARD
40
0.0940000000
1
1031348-7-B
41
0.8000000000
72
0
100
AcDbText
0
TEXT
5
349
100
AcDbEntity
8
0
100
AcDbText
62
2
6
CONTINUOUS
10
12.8801313106
20
9.8560084275
7
STANDARD
40
0.0940000000
1
1031348-7-B
41
0.8000000000
72
0
100
AcDbText
0
TEXT
5
34A
100
AcDbEntity
8
0
100
AcDbText
62
2
6
CONTINUOUS
10
21.8868046406
20
16.6606437572
7
STANDARD
40
0.1562500000
1
WHEN PLOTTING TEMPLATE FULL SIZE:
41
0.8000000000
72
0
100
AcDbText
0
TEXT
5
34B
100
AcDbEntity
8
0
100
AcDbText
62
2
6
CONTINUOUS
10
21.8868046406
20
16.4262687572
7
STANDARD
40
0.1562500000
1
Make sure horizontal and vertical dimensions
41
0.8000000000
72
0
100
AcDbText
0
TEXT
5
34C
100
AcDbEntity
8
0
100
AcDbText
62
2
6
CONTINUOUS
10
21.8868046406
20
16.1918937572
7
STANDARD
40
0.1562500000
1
match the dimensions labeled on the template
41
0.8000000000
72
0
100
AcDbText
0
TEXT
5
34D
100
AcDbEntity
8
0
100
AcDbText
62
2
6
CONTINUOUS
10
21.8868046406
20
15.9575187572
7
STANDARD
40
0.1562500000
1
AL TRAZAR UNA PLANTILLA A ESCALA,
41
0.8000000000
72
0
100
AcDbText
0
TEXT
5
34E
100
AcDbEntity
8
0
100
AcDbText
62
2
6
CONTINUOUS
10
21.8868046406
20
15.7231437572
7
STANDARD
40
0.1562500000
1
asegúrese de que las dimensiones horizontales
41
0.8000000000
72
0
100
AcDbText
0
TEXT
5
34F
100
AcDbEntity
8
0
100
AcDbText
62
2
6
CONTINUOUS
10
21.8868046406
20
15.4887687572
7
STANDARD
40
0.1562500000
1
y verticales concuerden con las dimensiones marcadas
41
0.8000000000
72
0
100
AcDbText
0
TEXT
5
350
100
AcDbEntity
8
0
100
AcDbText
62
2
6
CONTINUOUS
10
21.8868046406
20
15.2543937572
7
STANDARD
40
0.1562500000
1
en la plantilla.
41
0.8000000000
72
0
100
AcDbText
0
TEXT
5
351
100
AcDbEntity
8
0
100
AcDbText
62
2
6
CONTINUOUS
10
21.8868046406
20
15.0200187572
7
STANDARD
40
0.1562500000
1
AU MOMENT DE TRACER UN GABARIT À L'ÉCHELLE,
41
0.8000000000
72
0
100
AcDbText
0
TEXT
5
352
100
AcDbEntity
8
0
100
AcDbText
62
2
6
CONTINUOUS
10
21.8868046406
20
14.7856437572
7
STANDARD
40
0.1562500000
1
s'assurer que les dimensions horizotales et verticales
41
0.8000000000
72
0
100
AcDbText
0
TEXT
5
353
100
AcDbEntity
8
0
100
AcDbText
62
2
6
CONTINUOUS
10
21.8868046406
20
14.5512687572
7
STANDARD
40
0.1562500000
1
correspondent avec les dimensions sur le gabarit.
41
0.8000000000
72
0
100
AcDbText
0
SOLID
5
354
100
AcDbEntity
8
0
100
AcDbTrace
62
2
6
CONTINUOUS
10
13.4922052244
20
28.2701341334
11
13.6416956496
21
28.1527227827
12
13.5955357291
22
28.1105859610
13
13.5955357291
23
28.1105859610
0
TEXT
5
355
100
AcDbEntity
8
0
100
AcDbText
62
2
6
CONTINUOUS
10
14.0292460424
20
27.8775625085
7
STANDARD
40
0.1562500000
1
CENTERLINE OF FITTING
41
0.8000000000
72
0
100
AcDbText
0
TEXT
5
356
100
AcDbEntity
8
0
100
AcDbText
62
2
6
CONTINUOUS
10
14.0292460424
20
27.6431875085
7
STANDARD
40
0.1562500000
1
LÍNEA CENTRAL DE GRIFER¡A
41
0.8000000000
72
0
100
AcDbText
0
TEXT
5
357
100
AcDbEntity
8
0
100
AcDbText
62
2
6
CONTINUOUS
10
14.0292460424
20
27.4088125085
7
STANDARD
40
0.1562500000
1
AXE DU ROBINET
41
0.8000000000
72
0
100
AcDbText
0
SOLID
5
358
100
AcDbEntity
8
0
100
AcDbTrace
62
2
6
CONTINUOUS
10
31.5587268331
20
11.2836065524
11
31.3766939279
21
11.3383498986
12
31.4042881432
22
11.3944284978
13
31.4042881432
23
11.3944284978
0
TEXT
5
359
100
AcDbEntity
8
0
100
AcDbText
62
2
6
CONTINUOUS
10
27.1779317586
20
12.3769832081
7
STANDARD
40
0.1562500000
1
MOUNTING HOLES
41
0.8000000000
72
0
100
AcDbText
0
TEXT
5
35A
100
AcDbEntity
8
0
100
AcDbText
62
2
6
CONTINUOUS
10
26.3029317586
20
12.1426082081
7
STANDARD
40
0.1562500000
1
ORIFICIOS DE FIJACIÓN
41
0.8000000000
72
0
100
AcDbText
0
TEXT
5
35B
100
AcDbEntity
8
0
100
AcDbText
62
2
6
CONTINUOUS
10
26.8029317586
20
11.9082332081
7
STANDARD
40
0.1562500000
1
TROUS DE FIXATION
41
0.8000000000
72
0
100
AcDbText
0
TEXT
5
35C
100
AcDbEntity
8
___NOTE
100
AcDbText
62
2
6
CONTINUOUS
10
22.3542635648
20
18.7224501040
7
STANDARD
40
0.1562500000
1
B1
41
0.8000000000
72
0
100
AcDbText
0
TEXT
5
35D
100
AcDbEntity
8
___NOTE
100
AcDbText
62
2
6
CONTINUOUS
10
20.8912903296
20
17.2796095280
7
STANDARD
40
0.1562500000
1
B2
41
0.8000000000
72
0
100
AcDbText
0
INSERT
5
35E
100
AcDbEntity
8
0
100
AcDbBlockReference
62
2
6
CONTINUOUS
2
PACKAGING_UPC_BL0
10
25.4152930958
20
22.6246021902
0
INSERT
5
35F
100
AcDbEntity
8
0
100
AcDbBlockReference
62
2
6
CONTINUOUS
2
KOHLER_BL1
10
13.9127035494
20
24.2485937601
0
LINE
5
360
100
AcDbEntity
8
TEMPLATE
100
AcDbLine
62
2
6
CENTER
10
9.7683660390
20
26.4430151926
11
9.7683660390
21
25.6930151926
0
LINE
5
361
100
AcDbEntity
8
TEMPLATE
100
AcDbLine
62
2
6
CENTER
10
9.7683660390
20
11.5002530742
11
9.7683660390
21
10.7502530742
0
LINE
5
362
100
AcDbEntity
8
TEMPLATE
100
AcDbLine
62
8
6
HIDDEN
10
10.3883660390
20
26.8180882992
11
10.3883660390
21
10.3751799735
0
LINE
5
363
100
AcDbEntity
8
TEMPLATE
100
AcDbLine
62
7
6
CONTINUOUS
10
11.7174970982
20
11.7981341334
11
11.7174970982
21
25.3951341334
0
LINE
5
364
100
AcDbEntity
8
TEMPLATE
100
AcDbLine
62
8
6
HIDDEN
10
18.7877952779
20
9.7647134590
11
22.6396989186
21
9.7647134590
0
LINE
5
365
100
AcDbEntity
8
TEMPLATE
100
AcDbLine
62
8
6
HIDDEN
10
10.6382929325
20
10.1252530742
11
16.5708056747
21
10.1252530742
0
LINE
5
366
100
AcDbEntity
8
TEMPLATE
100
AcDbLine
62
8
6
HIDDEN
10
24.8566885218
20
10.1252530742
11
30.7892012640
21
10.1252530742
0
LINE
5
367
100
AcDbEntity
8
TEMPLATE
100
AcDbLine
62
2
6
CENTER
10
9.3933660390
20
11.1252530742
11
10.1433660390
21
11.1252530742
0
LINE
5
368
100
AcDbEntity
8
TEMPLATE
100
AcDbLine
62
2
6
CENTER
10
31.2841281575
20
11.1252530742
11
32.0341281575
21
11.1252530742
0
LINE
5
369
100
AcDbEntity
8
TEMPLATE
100
AcDbLine
62
7
6
CONTINUOUS
10
12.0924970982
20
11.4231341334
11
29.3349970982
21
11.4231341334
0
LINE
5
36A
100
AcDbEntity
8
0
100
AcDbLine
62
2
6
CONTINUOUS
10
29.1779317586
20
12.4551082081
11
28.9279317586
21
12.4551082081
0
LINE
5
36B
100
AcDbEntity
8
0
100
AcDbLine
62
2
6
CONTINUOUS
10
11.7174970982
20
16.6465896716
11
12.9755692566
21
17.4763986375
0
LINE
5
36C
100
AcDbEntity
8
0
100
AcDbLine
62
2
6
CONTINUOUS
10
12.5258311901
20
15.3777219215
11
12.7758311901
21
15.3777219215
0
LINE
5
36D
100
AcDbEntity
8
0
100
AcDbLine
62
2
6
CONTINUOUS
10
10.3883660390
20
13.7719646296
11
12.5258311901
21
15.3777219215
0
LINE
5
36E
100
AcDbEntity
8
0
100
AcDbLine
62
2
6
CONTINUOUS
10
31.5587268331
20
11.2836065524
11
29.1779317586
21
12.4551082081
0
LINE
5
36F
100
AcDbEntity
8
0
100
AcDbLine
62
2
6
CONTINUOUS
10
12.9755692566
20
17.4763986375
11
13.2255692566
21
17.4763986375
0
LINE
5
370
100
AcDbEntity
8
0
100
AcDbLine
62
2
6
CONTINUOUS
10
13.4922052244
20
28.2701341334
11
13.7792460424
21
27.9556875085
0
LINE
5
371
100
AcDbEntity
8
TEMPLATE
100
AcDbLine
62
7
6
CONTINUOUS
10
12.0924970982
20
25.7701341334
11
29.3349970982
21
25.7701341334
0
LINE
5
372
100
AcDbEntity
8
TEMPLATE
100
AcDbLine
62
2
6
CENTER
10
9.3933660390
20
26.0680151926
11
10.1433660390
21
26.0680151926
0
LINE
5
373
100
AcDbEntity
8
TEMPLATE
100
AcDbLine
62
2
6
CENTER
10
31.2841281575
20
26.0680151926
11
32.0341281575
21
26.0680151926
0
LINE
5
374
100
AcDbEntity
8
TEMPLATE
100
AcDbLine
62
8
6
HIDDEN
10
30.7892012582
20
27.0680151926
11
10.6382929383
21
27.0680151926
0
LINE
5
375
100
AcDbEntity
8
TEMPLATE
100
AcDbLine
62
7
6
CONTINUOUS
10
29.7099970982
20
11.7981341334
11
29.7099970982
21
25.3951341334
0
LINE
5
376
100
AcDbEntity
8
0
100
AcDbLine
62
2
6
CONTINUOUS
10
13.7792460424
20
27.9556875085
11
14.0292460424
21
27.9556875085
0
LINE
5
377
100
AcDbEntity
8
TEMPLATE
100
AcDbLine
62
2
6
CENTER
10
10.3883660390
20
28.2701341334
11
31.0391281575
21
28.2701341334
0
LINE
5
378
100
AcDbEntity
8
TEMPLATE
100
AcDbLine
62
8
6
HIDDEN
10
31.0391281575
20
10.3751799735
11
31.0391281575
21
26.8180882992
0
LINE
5
379
100
AcDbEntity
8
TEMPLATE
100
AcDbLine
62
2
6
CENTER
10
31.6591281575
20
26.4430151926
11
31.6591281575
21
25.6930151926
0
LINE
5
37A
100
AcDbEntity
8
TEMPLATE
100
AcDbLine
62
2
6
CENTER
10
31.6591281575
20
11.5002530742
11
31.6591281575
21
10.7502530742
0
CIRCLE
5
37B
100
AcDbEntity
8
0
100
AcDbCircle
62
2
6
CONTINUOUS
10
16.0409400218
20
21.0818571878
40
0.2136288430
0
CIRCLE
5
37C
100
AcDbEntity
8
TEMPLATE
100
AcDbCircle
62
7
6
CONTINUOUS
10
31.6591281575
20
26.0680151926
40
0.1875000000
0
CIRCLE
5
37D
100
AcDbEntity
8
TEMPLATE
100
AcDbCircle
62
7
6
CONTINUOUS
10
9.7683660390
20
26.0680151926
40
0.1875000000
0
CIRCLE
5
37E
100
AcDbEntity
8
TEMPLATE
100
AcDbCircle
62
7
6
CONTINUOUS
10
9.7683660390
20
11.1252530742
40
0.1875000000
0
CIRCLE
5
37F
100
AcDbEntity
8
TEMPLATE
100
AcDbCircle
62
7
6
CONTINUOUS
10
31.6591281575
20
11.1252530742
40
0.1875000000
0
ARC
5
380
100
AcDbEntity
8
TEMPLATE
100
AcDbCircle
62
7
6
CONTINUOUS
10
29.3349970982
20
25.3951341334
40
0.3750000000
100
AcDbArc
50
0.0000000000
51
90.0000000000
0
ARC
5
381
100
AcDbEntity
8
TEMPLATE
100
AcDbCircle
62
7
6
CONTINUOUS
10
29.3349970982
20
11.7981341334
40
0.3750000000
100
AcDbArc
50
270.0000000000
51
360.0000000000
0
ARC
5
382
100
AcDbEntity
8
TEMPLATE
100
AcDbCircle
62
7
6
CONTINUOUS
10
12.0924970982
20
11.7981341334
40
0.3750000000
100
AcDbArc
50
180.0000000000
51
270.0000000000
0
ARC
5
383
100
AcDbEntity
8
TEMPLATE
100
AcDbCircle
62
7
6
CONTINUOUS
10
12.0924970982
20
25.3951341334
40
0.3750000000
100
AcDbArc
50
90.0000000000
51
180.0000000000
0
CIRCLE
5
384
100
AcDbEntity
8
___NOTE
100
AcDbCircle
62
2
6
CONTINUOUS
10
22.4792635648
20
18.8005751040
40
0.2255309552
0
CIRCLE
5
385
100
AcDbEntity
8
___NOTE
100
AcDbCircle
62
2
6
CONTINUOUS
10
21.0162903296
20
17.3577345280
40
0.2255309552
0
SPLINE
5
386
100
AcDbEntity
8
TEMPLATE
100
AcDbSpline
62
8
6
HIDDEN
70
0
71
3
72
15
73
11
74
9
42
0.0000001000
43
0.0000001000
44
0.0000000001
12
-0.3917620729
22
-0.0002539237
32
0.0000000000
13
-0.0002726261
23
-0.3917620603
33
0.0000000000
40
0.0000000000
40
0.0000000000
40
0.0000000000
40
0.0000000000
40
0.1250104033
40
0.2500006545
40
0.3750209841
40
0.4999957392
40
0.6249728805
40
0.7499977288
40
0.8749797246
40
1.0000000000
40
1.0000000000
40
1.0000000000
40
1.0000000000
10
10.6382929383
20
27.0679360002
30
4.3149964700
10
10.6219681600
20
27.0679254191
30
4.3149964700
10
10.5892329203
20
27.0646866718
30
4.3149964700
10
10.5420883894
20
27.0503594752
30
4.3149964700
10
10.4986260577
20
27.0271161015
30
4.3149964700
10
10.4605349411
20
26.9958482432
30
4.3149964700
10
10.4292662216
20
26.9577570152
30
4.3149964700
10
10.4060227800
20
26.9142949527
30
4.3149964700
10
10.3916944806
20
26.8671498351
30
4.3149964700
10
10.3884565928
20
26.8344143603
30
4.3149964700
10
10.3884452315
20
26.8180882934
30
4.3149964700
11
10.6382929383
21
27.0679360002
31
4.3149964700
11
10.5895571414
21
27.0631081044
31
4.3149964700
11
10.5427050260
21
27.0488746044
31
4.3149964700
11
10.4995160997
21
27.0257751665
31
4.3149964700
11
10.4616721562
21
26.9947114467
31
4.3149964700
11
10.4306074040
21
26.9568671411
31
4.3149964700
11
10.4075068692
21
26.9136767940
31
4.3149964700
11
10.3932738867
21
26.8668279014
31
4.3149964700
11
10.3884452315
21
26.8180882934
31
4.3149964700
0
SPLINE
5
387
100
AcDbEntity
8
TEMPLATE
100
AcDbSpline
62
8
6
HIDDEN
70
0
71
3
72
15
73
11
74
9
42
0.0000001000
43
0.0000001000
44
0.0000000001
12
0.0002539237
22
-0.3917620729
32
0.0000000000
13
0.3917620603
23
-0.0002726261
33
0.0000000000
40
0.0000000000
40
0.0000000000
40
0.0000000000
40
0.0000000000
40
0.1250104033
40
0.2500006545
40
0.3750209841
40
0.4999957392
40
0.6249728805
40
0.7499977288
40
0.8749797246
40
1.0000000000
40
1.0000000000
40
1.0000000000
40
1.0000000000
10
10.3884452315
20
10.3751799735
30
4.3149964700
10
10.3884558126
20
10.3588551952
30
4.3149964700
10
10.3916945599
20
10.3261199555
30
4.3149964700
10
10.4060217565
20
10.2789754246
30
4.3149964700
10
10.4292651302
20
10.2355130929
30
4.3149964700
10
10.4605329885
20
10.1974219763
30
4.3149964700
10
10.4986242165
20
10.1661532568
30
4.3149964700
10
10.5420862790
20
10.1429098152
30
4.3149964700
10
10.5892313965
20
10.1285815158
30
4.3149964700
10
10.6219668714
20
10.1253436280
30
4.3149964700
10
10.6382929383
20
10.1253322667
30
4.3149964700
11
10.3884452315
21
10.3751799735
31
4.3149964700
11
10.3932731273
21
10.3264441766
31
4.3149964700
11
10.4075066273
21
10.2795920612
31
4.3149964700
11
10.4306060651
21
10.2364031349
31
4.3149964700
11
10.4616697850
21
10.1985591914
31
4.3149964700
11
10.4995140906
21
10.1674944392
31
4.3149964700
11
10.5427044376
21
10.1443939044
31
4.3149964700
11
10.5895533303
21
10.1301609219
31
4.3149964700
11
10.6382929383
21
10.1253322667
31
4.3149964700
0
SPLINE
5
388
100
AcDbEntity
8
TEMPLATE
100
AcDbSpline
62
8
6
HIDDEN
70
0
71
3
72
10
73
6
74
4
42
0.0000001000
43
0.0000001000
44
0.0000000001
12
0.6442305454
22
0.0000180673
32
0.0000000000
13
0.6110327816
23
-0.2041370514
33
0.0000000000
40
0.0000000000
40
0.0000000000
40
0.0000000000
40
0.0000000000
40
0.3332279427
40
0.6668226004
40
1.0000000000
40
1.0000000000
40
1.0000000000
40
1.0000000000
10
16.5708056747
20
10.1253322667
30
4.3149964700
10
16.6423642144
20
10.1253342736
30
4.3149964700
10
16.7856838186
20
10.1176359792
30
4.3149964700
10
16.9980129594
20
10.0831112404
30
4.3149964700
10
17.1363776040
20
10.0450074568
30
4.3149964700
10
17.2042383750
20
10.0223361729
30
4.3149964700
11
16.5708056747
21
10.1253322667
31
4.3149964700
11
16.7851720438
21
10.1138135298
31
4.3149964700
11
16.9972979272
21
10.0793212005
31
4.3149964700
11
17.2042383750
21
10.0223361729
31
4.3149964700
0
SPLINE
5
389
100
AcDbEntity
8
TEMPLATE
100
AcDbSpline
62
8
6
HIDDEN
70
0
71
3
72
10
73
6
74
4
42
0.0000001000
43
0.0000001000
44
0.0000000001
12
1.5275543608
22
-0.5103701358
32
0.0000000000
13
1.6105589091
23
-0.0000327017
33
0.0000000000
40
0.0000000000
40
0.0000000000
40
0.0000000000
40
0.0000000000
40
0.3333108197
40
0.6666306932
40
1.0000000000
40
1.0000000000
40
1.0000000000
40
1.0000000000
10
17.2042383750
20
10.0223361729
30
4.3149964700
10
17.3739551738
20
9.9656322101
30
4.3149964700
10
17.7197908101
20
9.8703948999
30
4.3149964700
10
18.2506020145
20
9.7840640313
30
4.3149964700
10
18.6088249756
20
9.7647962854
30
4.3149964700
10
18.7877952780
20
9.7647926515
30
4.3149964700
11
17.2042383750
21
10.0223361729
31
4.3149964700
11
17.7217909099
21
9.8798175633
31
4.3149964700
11
18.2516598326
21
9.7936389070
31
4.3149964700
11
18.7877952780
21
9.7647926515
31
4.3149964700
0
SPLINE
5
38A
100
AcDbEntity
8
TEMPLATE
100
AcDbSpline
62
8
6
HIDDEN
70
0
71
3
72
10
73
6
74
4
42
0.0000001000
43
0.0000001000
44
0.0000000001
12
1.6105589091
22
0.0000327017
32
0.0000000000
13
1.5275543608
23
0.5103701358
33
0.0000000000
40
0.0000000000
40
0.0000000000
40
0.0000000000
40
0.0000000000
40
0.3333693068
40
0.6666891803
40
1.0000000000
40
1.0000000000
40
1.0000000000
40
1.0000000000
10
22.6396989185
20
9.7647926515
30
4.3149964700
10
22.8186692209
20
9.7647962854
30
4.3149964700
10
23.1768921819
20
9.7840640313
30
4.3149964700
10
23.7077033864
20
9.8703948999
30
4.3149964700
10
24.0535390227
20
9.9656322101
30
4.3149964700
10
24.2232558214
20
10.0223361729
30
4.3149964700
11
22.6396989185
21
9.7647926515
31
4.3149964700
11
23.1758343639
21
9.7936389070
31
4.3149964700
11
23.7057032866
21
9.8798175633
31
4.3149964700
11
24.2232558214
21
10.0223361729
31
4.3149964700
0
SPLINE
5
38B
100
AcDbEntity
8
TEMPLATE
100
AcDbSpline
62
8
6
HIDDEN
70
0
71
3
72
10
73
6
74
4
42
0.0000001000
43
0.0000001000
44
0.0000000001
12
0.6110327816
22
0.2041370514
32
0.0000000000
13
0.6442305454
23
-0.0000180673
33
0.0000000000
40
0.0000000000
40
0.0000000000
40
0.0000000000
40
0.0000000000
40
0.3331773996
40
0.6667720573
40
1.0000000000
40
1.0000000000
40
1.0000000000
40
1.0000000000
10
24.2232558214
20
10.0223361729
30
4.3149964700
10
24.2911165925
20
10.0450074568
30
4.3149964700
10
24.4294812371
20
10.0831112404
30
4.3149964700
10
24.6418103779
20
10.1176359792
30
4.3149964700
10
24.7851299821
20
10.1253342736
30
4.3149964700
10
24.8566885218
20
10.1253322667
30
4.3149964700
11
24.2232558214
21
10.0223361729
31
4.3149964700
11
24.4301962693
21
10.0793212005
31
4.3149964700
11
24.6423221527
21
10.1138135298
31
4.3149964700
11
24.8566885218
21
10.1253322667
31
4.3149964700
0
SPLINE
5
38C
100
AcDbEntity
8
TEMPLATE
100
AcDbSpline
62
8
6
HIDDEN
70
0
71
3
72
15
73
11
74
9
42
0.0000001000
43
0.0000001000
44
0.0000000001
12
0.3917620603
22
0.0002726261
32
0.0000000000
13
0.0002539237
23
0.3917620729
33
0.0000000000
40
0.0000000000
40
0.0000000000
40
0.0000000000
40
0.0000000000
40
0.1250202754
40
0.2500022712
40
0.3750271195
40
0.5000042608
40
0.6249790159
40
0.7499993455
40
0.8749895967
40
1.0000000000
40
1.0000000000
40
1.0000000000
40
1.0000000000
10
30.7892012582
20
10.1253322667
30
4.3149964700
10
30.8055273251
20
10.1253436280
30
4.3149964700
10
30.8382627999
20
10.1285815158
30
4.3149964700
10
30.8854079175
20
10.1429098152
30
4.3149964700
10
30.9288699800
20
10.1661532568
30
4.3149964700
10
30.9669612080
20
10.1974219763
30
4.3149964700
10
30.9982290663
20
10.2355130929
30
4.3149964700
10
31.0214724400
20
10.2789754246
30
4.3149964700
10
31.0357996366
20
10.3261199555
30
4.3149964700
10
31.0390383839
20
10.3588551952
30
4.3149964700
10
31.0390489650
20
10.3751799735
30
4.3149964700
11
30.7892012582
21
10.1253322667
31
4.3149964700
11
30.8379408662
21
10.1301609219
31
4.3149964700
11
30.8847897588
21
10.1443939044
31
4.3149964700
11
30.9279801059
21
10.1674944392
31
4.3149964700
11
30.9658244115
21
10.1985591914
31
4.3149964700
11
30.9968881313
21
10.2364031349
31
4.3149964700
11
31.0199875692
21
10.2795920612
31
4.3149964700
11
31.0342210692
21
10.3264441766
31
4.3149964700
11
31.0390489650
21
10.3751799735
31
4.3149964700
0
SPLINE
5
38D
100
AcDbEntity
8
TEMPLATE
100
AcDbSpline
62
8
6
HIDDEN
70
0
71
3
72
15
73
11
74
9
42
0.0000001000
43
0.0000001000
44
0.0000000001
12
-0.0002726261
22
0.3917620603
32
0.0000000000
13
-0.3917620729
23
0.0002539237
33
0.0000000000
40
0.0000000000
40
0.0000000000
40
0.0000000000
40
0.0000000000
40
0.1250202754
40
0.2500022712
40
0.3750271195
40
0.5000042608
40
0.6249790159
40
0.7499993455
40
0.8749895967
40
1.0000000000
40
1.0000000000
40
1.0000000000
40
1.0000000000
10
31.0390489650
20
26.8180882934
30
4.3149964700
10
31.0390376037
20
26.8344143603
30
4.3149964700
10
31.0357997159
20
26.8671498351
30
4.3149964700
10
31.0214714165
20
26.9142949527
30
4.3149964700
10
30.9982279749
20
26.9577570152
30
4.3149964700
10
30.9669592553
20
26.9958482432
30
4.3149964700
10
30.9288681388
20
27.0271161015
30
4.3149964700
10
30.8854058070
20
27.0503594752
30
4.3149964700
10
30.8382612762
20
27.0646866718
30
4.3149964700
10
30.8055260365
20
27.0679254191
30
4.3149964700
10
30.7892012582
20
27.0679360002
30
4.3149964700
11
31.0390489650
21
26.8180882934
31
4.3149964700
11
31.0342203098
21
26.8668279014
31
4.3149964700
11
31.0199873273
21
26.9136767940
31
4.3149964700
11
30.9968867925
21
26.9568671411
31
4.3149964700
11
30.9658220403
21
26.9947114467
31
4.3149964700
11
30.9279780968
21
27.0257751665
31
4.3149964700
11
30.8847891705
21
27.0488746044
31
4.3149964700
11
30.8379370550
21
27.0631081044
31
4.3149964700
11
30.7892012582
21
27.0679360002
31
4.3149964700
0
ENDSEC
0
SECTION
2
OBJECTS
0
DICTIONARY
5
38E
100
AcDbDictionary
3
ACAD_GROUP
350
38F
3
ACAD_MLINESTYLE
350
390
0
DICTIONARY
5
38F
102
{ACAD_REACTORS
330
38E
102
}
100
AcDbDictionary
0
DICTIONARY
5
390
102
{ACAD_REACTORS
330
38E
102
}
100
AcDbDictionary
3
STANDARD
350
391
0
MLINESTYLE
5
391
102
{ACAD_REACTORS
330
390
102
}
100
AcDbMlineStyle
2
STANDARD
70
0
3

62
256
51
90.0
52
90.0
71
2
49
0.5
62
256
6
BYLAYER
49
-0.5
62
256
6
BYLAYER
0
ENDSEC
0
EOF
