  0
SECTION
  2
HEADER
  9
$ACADVER
  1
AC1009
  9
$INSBASE
 10
0.0
 20
0.0
 30
0.0
  9
$EXTMIN
 10
3.363372885812268
 20
4.1871033275815526
 30
-0.0015258207003583
  9
$EXTMAX
 10
22.976562566329449
 20
19.783416796689181
 30
0.0000000349246037
  9
$LIMMIN
 10
0.0
 20
0.0
  9
$LIMMAX
 10
34.0
 20
22.0
  9
$ORTHOMODE
 70
     0
  9
$REGENMODE
 70
     1
  9
$FILLMODE
 70
     1
  9
$QTEXTMODE
 70
     0
  9
$MIRRTEXT
 70
     0
  9
$DRAGMODE
 70
     2
  9
$LTSCALE
 40
1.0
  9
$OSMODE
 70
  2711
  9
$ATTMODE
 70
     1
  9
$TEXTSIZE
 40
0.2
  9
$TRACEWID
 40
0.05
  9
$TEXTSTYLE
  7
STANDARD
  9
$CLAYER
  8
0
  9
$CELTYPE
  6
BYLAYER
  9
$CECOLOR
 62
   256
  9
$DIMSCALE
 40
1.0
  9
$DIMASZ
 40
0.1875
  9
$DIMEXO
 40
0.2125
  9
$DIMDLI
 40
1.292
  9
$DIMRND
 40
0.0
  9
$DIMDLE
 40
0.0
  9
$DIMEXE
 40
0.612
  9
$DIMTP
 40
0.01
  9
$DIMTM
 40
0.01
  9
$DIMTXT
 40
0.15625
  9
$DIMCEN
 40
0.306
  9
$DIMTSZ
 40
0.0
  9
$DIMTOL
 70
     1
  9
$DIMLIM
 70
     0
  9
$DIMTIH
 70
     1
  9
$DIMTOH
 70
     1
  9
$DIMSE1
 70
     0
  9
$DIMSE2
 70
     0
  9
$DIMTAD
 70
     0
  9
$DIMZIN
 70
     0
  9
$DIMBLK
  1
_ARROW_FILLED
  9
$DIMASO
 70
     1
  9
$DIMSHO
 70
     1
  9
$DIMPOST
  1

  9
$DIMAPOST
  1

  9
$DIMALT
 70
     0
  9
$DIMALTD
 70
     2
  9
$DIMALTF
 40
25.399999999999999
  9
$DIMLFAC
 40
1.0
  9
$DIMTOFL
 70
     0
  9
$DIMTVP
 40
0.0
  9
$DIMTIX
 70
     0
  9
$DIMSOXD
 70
     0
  9
$DIMSAH
 70
     0
  9
$DIMBLK1
  1

  9
$DIMBLK2
  1

  9
$DIMSTYLE
  2
STANDARD
  9
$DIMCLRD
 70
     0
  9
$DIMCLRE
 70
     0
  9
$DIMCLRT
 70
     0
  9
$DIMTFAC
 40
1.0
  9
$DIMGAP
 40
0.09
  9
$LUNITS
 70
     2
  9
$LUPREC
 70
     4
  9
$SKETCHINC
 40
0.1
  9
$FILLETRAD
 40
0.0
  9
$AUNITS
 70
     0
  9
$AUPREC
 70
     0
  9
$MENU
  1
.
  9
$ELEVATION
 40
0.0
  9
$PELEVATION
 40
0.0
  9
$THICKNESS
 40
0.0
  9
$LIMCHECK
 70
     0
  9
$BLIPMODE
 70
     0
  9
$CHAMFERA
 40
0.0
  9
$CHAMFERB
 40
0.0
  9
$SKPOLY
 70
     0
  9
$TDCREATE
 40
2454042.3410924538
  9
$TDUPDATE
 40
2454042.3456363892
  9
$TDINDWG
 40
0.004544838
  9
$TDUSRTIMER
 40
0.004544838
  9
$USRTIMER
 70
     1
  9
$ANGBASE
 50
0.0
  9
$ANGDIR
 70
     0
  9
$PDMODE
 70
     3
  9
$PDSIZE
 40
0.3125
  9
$PLINEWID
 40
0.0
  9
$COORDS
 70
     1
  9
$SPLFRAME
 70
     0
  9
$SPLINETYPE
 70
     6
  9
$SPLINESEGS
 70
     8
  9
$ATTDIA
 70
     0
  9
$ATTREQ
 70
     1
  9
$HANDLING
 70
     1
  9
$HANDSEED
  5
547
  9
$SURFTAB1
 70
     6
  9
$SURFTAB2
 70
     6
  9
$SURFTYPE
 70
     6
  9
$SURFU
 70
     6
  9
$SURFV
 70
     6
  9
$UCSNAME
  2

  9
$UCSORG
 10
0.0
 20
0.0
 30
0.0
  9
$UCSXDIR
 10
1.0
 20
0.0
 30
0.0
  9
$UCSYDIR
 10
0.0
 20
1.0
 30
0.0
  9
$PUCSNAME
  2

  9
$PUCSORG
 10
0.0
 20
0.0
 30
0.0
  9
$PUCSXDIR
 10
1.0
 20
0.0
 30
0.0
  9
$PUCSYDIR
 10
0.0
 20
1.0
 30
0.0
  9
$USERI1
 70
     0
  9
$USERI2
 70
     0
  9
$USERI3
 70
     0
  9
$USERI4
 70
     0
  9
$USERI5
 70
     0
  9
$USERR1
 40
0.0
  9
$USERR2
 40
0.0
  9
$USERR3
 40
0.0
  9
$USERR4
 40
0.0
  9
$USERR5
 40
0.0
  9
$WORLDVIEW
 70
     1
  9
$SHADEDGE
 70
     3
  9
$SHADEDIF
 70
    70
  9
$TILEMODE
 70
     1
  9
$MAXACTVP
 70
    64
  9
$PLIMCHECK
 70
     0
  9
$PEXTMIN
 10
1.0000000000000000E+020
 20
1.0000000000000000E+020
 30
1.0000000000000000E+020
  9
$PEXTMAX
 10
-1.0000000000000000E+020
 20
-1.0000000000000000E+020
 30
-1.0000000000000000E+020
  9
$PLIMMIN
 10
0.0
 20
0.0
  9
$PLIMMAX
 10
12.0
 20
9.0
  9
$UNITMODE
 70
     0
  9
$VISRETAIN
 70
     1
  9
$PLINEGEN
 70
     0
  9
$PSLTSCALE
 70
     1
  0
ENDSEC
  0
SECTION
  2
TABLES
  0
TABLE
  2
VPORT
 70
     3
  0
VPORT
  2
*ACTIVE
 70
     0
 10
0.0
 20
0.0
 11
1.0
 21
1.0
 12
13.16996772607086
 22
11.98526006213536
 13
0.0
 23
0.0
 14
1.0
 24
1.0
 15
0.0
 25
0.0
 16
0.0
 26
0.0
 36
1.0
 17
0.0
 27
0.0
 37
0.0
 40
15.71784318445132
 41
1.607282184655396
 42
50.0
 43
0.0
 44
0.0
 50
0.0
 51
0.0
 71
     0
 72
   100
 73
     1
 74
     1
 75
     0
 76
     0
 77
     0
 78
     0
  0
ENDTAB
  0
TABLE
  2
LTYPE
 70
     7
  0
LTYPE
  2
CONTINUOUS
 70
     0
  3
Solid line
 72
    65
 73
     0
 40
0.0
  0
LTYPE
  2
PHANTOM
 70
     0
  3
_____ _ _ _____ _ _ _____ _ _ _____
 72
    65
 73
     6
 40
0.8
 49
0.45
 49
-0.05
 49
0.1
 49
-0.05
 49
0.1
 49
-0.05
  0
LTYPE
  2
DASHED
 70
     0
  3
- - - - - - - - - - - - - - - - - - - -
 72
    65
 73
     2
 40
0.2
 49
0.1
 49
-0.1
  0
LTYPE
  2
DASHEDX2
 70
     0
  3
Dashed (2x) ____  ____  ____  ____  ____  ___
 72
    65
 73
     2
 40
1.5
 49
1.0
 49
-0.5
  0
ENDTAB
  0
TABLE
  2
LAYER
 70
    17
  0
LAYER
  2
0
 70
     0
 62
     7
  6
CONTINUOUS
  0
LAYER
  2
DEFAULT_3
 70
     0
 62
     7
  6
PHANTOM
  0
LAYER
  2
_CURVE
 70
     0
 62
     7
  6
CONTINUOUS
  0
LAYER
  2
__REF_CURVE
 70
     0
 62
     7
  6
DASHED
  0
LAYER
  2
___NOTE
 70
     0
 62
     7
  6
CONTINUOUS
  0
LAYER
  2
___SYMBOL
 70
     0
 62
     7
  6
CONTINUOUS
  0
ENDTAB
  0
TABLE
  2
STYLE
 70
     2
  0
STYLE
  2
STANDARD
 70
     0
 40
0.0
 41
0.8
 50
0.0
 71
     0
 42
0.2
  3
txt
  4

  0
STYLE
  2

 70
     1
 40
0.0
 41
1.0
 50
0.0
 71
     0
 42
0.2
  3
ltypeshp.shx
  4

  0
ENDTAB
  0
TABLE
  2
VIEW
 70
     0
  0
ENDTAB
  0
TABLE
  2
UCS
 70
     0
  0
ENDTAB
  0
TABLE
  2
APPID
 70
     1
  0
APPID
  2
ACAD
 70
     0
  0
ENDTAB
  0
TABLE
  2
DIMSTYLE
 70
     2
  0
DIMSTYLE
  2
STANDARD
 70
     0
  3

  4

  5
_ARROW_FILLED
  6
_ARROW_FILLED
  7
_ARROW_FILLED
 40
1.0
 41
0.1875
 42
0.0625
 43
0.38
 44
0.18
 45
0.0
 46
0.0
 47
0.01
 48
0.01
140
0.15625
141
0.09
142
0.0
143
25.399999999999999
144
1.0
145
0.0
146
1.0
147
0.09
 71
     1
 72
     0
 73
     1
 74
     1
 75
     0
 76
     0
 77
     0
 78
     4
170
     0
171
     2
172
     0
173
     0
174
     0
175
     0
176
     0
177
     0
178
     0
  0
DIMSTYLE
  2
DIMSTYLE_1
 70
     0
  3

  4

  5
_ARROW_FILLED
  6
_ARROW_FILLED
  7
_ARROW_FILLED
 40
1.0
 41
0.1875
 42
0.0625
 43
0.38
 44
0.18
 45
0.0
 46
0.0
 47
0.1875
 48
0.1875
140
0.15625
141
0.09
142
0.0
143
25.399999999999999
144
1.0
145
0.0
146
1.0
147
0.09
 71
     0
 72
     0
 73
     1
 74
     1
 75
     0
 76
     0
 77
     0
 78
     4
170
     0
171
     2
172
     0
173
     0
174
     0
175
     0
176
     0
177
     0
178
     0
  0
ENDTAB
  0
ENDSEC
  0
SECTION
  2
BLOCKS
  0
BLOCK
  8
0
  2
$MODEL_SPACE
 70
     0
 10
0.0
 20
0.0
 30
0.0
  3
$MODEL_SPACE
  1

  0
ENDBLK
  5
21
  8
0
  0
BLOCK
 67
     1
  8
0
  2
$PAPER_SPACE
 70
     0
 10
0.0
 20
0.0
 30
0.0
  3
$PAPER_SPACE
  1

  0
ENDBLK
  5
1D
 67
     1
  8
0
  0
BLOCK
  8
0
  2
_ARROW_FILLED
 70
     0
 10
0.0
 20
0.0
 30
0.0
  3
_ARROW_FILLED
  1

  0
SOLID
  5
23A
  8
0
  6
BYBLOCK
 62
     0
 10
0.0
 20
0.0
 30
0.0
 11
-1.0
 21
0.1666666667
 31
0.0
 12
-1.0
 22
-0.1666666667
 32
0.0
 13
-1.0
 23
-0.1666666667
 33
0.0
  0
ENDBLK
  5
23B
  8
0
  6
BYBLOCK
 62
     0
  0
BLOCK
  8
0
  6
CONTINUOUS
 62
     2
  2
*D1
 70
     1
 10
0.0
 20
0.0
 30
0.0
  3
*D1
  1

  0
TEXT
  5
214
  8
0
  6
CONTINUOUS
 62
     2
 10
13.6018786373
 20
13.872087070699999
 30
0.0
 40
0.15625
  1
"
 41
0.8
  0
TEXT
  5
215
  8
0
  6
CONTINUOUS
 62
     2
 10
12.5393786373
 20
13.637712070699999
 30
0.0
 40
0.15625
  1
[32,93 cm]
 41
0.8
  0
TEXT
  5
216
  8
0
  6
CONTINUOUS
 62
     2
 10
12.6018786373
 20
13.872087070699999
 30
0.0
 40
0.15625
  1
12-15/16
 41
0.8
  0
LINE
  5
217
  8
0
  6
CONTINUOUS
 62
     2
 10
13.105069693900001
 20
18.6052115753
 30
0.0
 11
13.0393786373
 21
18.6052115753
 31
0.0
  0
LINE
  5
218
  8
0
  6
CONTINUOUS
 62
     2
 10
13.104881709800001
 20
5.6402116880999991
 30
0.0
 11
13.0393786373
 21
5.6402116880999991
 31
0.0
  0
LINE
  5
219
  8
0
  6
CONTINUOUS
 62
     2
 10
13.1643786373
 20
18.6052115753
 30
0.0
 11
13.1643786373
 21
14.106462070699999
 31
0.0
  0
LINE
  5
21A
  8
0
  6
CONTINUOUS
 62
     2
 10
13.1643786373
 20
5.6402116880999991
 30
0.0
 11
13.1643786373
 21
13.559587070699999
 31
0.0
  0
INSERT
  5
21B
  8
0
  6
CONTINUOUS
 62
     2
  2
_ARROW_FILLED
 10
13.1643786373
 20
18.6052115753
 30
0.0
 41
0.1875
 42
0.1875
 43
0.1875
 50
90.0
  0
INSERT
  5
21C
  8
0
  6
CONTINUOUS
 62
     2
  2
_ARROW_FILLED
 10
13.1643786373
 20
5.6402116880999991
 30
0.0
 41
0.1875
 42
0.1875
 43
0.1875
 50
270.0
  0
ENDBLK
  5
21D
  8
0
  6
BYBLOCK
 62
     0
  0
BLOCK
  8
0
  6
CONTINUOUS
 62
     2
  2
*D2
 70
     1
 10
0.0
 20
0.0
 30
0.0
  3
*D2
  1

  0
TEXT
  5
21F
  8
0
  6
CONTINUOUS
 62
     2
 10
11.909473933699999
 20
12.133375129099999
 30
0.0
 40
0.15625
  1
"
 41
0.8
  0
TEXT
  5
220
  8
0
  6
CONTINUOUS
 62
     2
 10
10.909473933699999
 20
11.899000129099999
 30
0.0
 40
0.15625
  1
[44,36 cm]
 41
0.8
  0
TEXT
  5
221
  8
0
  6
CONTINUOUS
 62
     2
 10
11.034473933699999
 20
12.133375129099999
 30
0.0
 40
0.15625
  1
17-7/16
 41
0.8
  0
LINE
  5
222
  8
0
  6
CONTINUOUS
 62
     2
 10
4.4381097779000003
 20
12.154627943099999
 30
0.0
 11
4.4381097779000003
 21
12.086500129099999
 31
0.0
  0
LINE
  5
223
  8
0
  6
CONTINUOUS
 62
     2
 10
21.902652794400002
 20
12.1574878154
 30
0.0
 11
21.902652794400002
 21
12.086500129099999
 31
0.0
  0
LINE
  5
224
  8
0
  6
CONTINUOUS
 62
     2
 10
4.4381097779000003
 20
12.211500129099999
 30
0.0
 11
10.831348933699999
 21
12.211500129099999
 31
0.0
  0
LINE
  5
225
  8
0
  6
CONTINUOUS
 62
     2
 10
21.902652794400002
 20
12.211500129099999
 30
0.0
 11
12.237598933699999
 21
12.211500129099999
 31
0.0
  0
INSERT
  5
226
  8
0
  6
CONTINUOUS
 62
     2
  2
_ARROW_FILLED
 10
4.4381097779000003
 20
12.211500129099999
 30
0.0
 41
0.1875
 42
0.1875
 43
0.1875
 50
180.0
  0
INSERT
  5
227
  8
0
  6
CONTINUOUS
 62
     2
  2
_ARROW_FILLED
 10
21.902652794400002
 20
12.211500129099999
 30
0.0
 41
0.1875
 42
0.1875
 43
0.1875
  0
ENDBLK
  5
228
  8
0
  6
BYBLOCK
 62
     0
  0
BLOCK
  8
___SYMBOL
  6
CONTINUOUS
 62
     2
  2
COPYRIGHT_YEAR_BL0
 70
     0
 10
15.067088994700001
 20
6.0932081219000001
 30
0.0
  3
COPYRIGHT_YEAR_BL0
  1

  0
TEXT
  5
22A
  8
___SYMBOL
  6
CONTINUOUS
 62
     2
 10
14.693397369099999
 20
6.0579344970999998
 30
0.0
 40
0.0705
  1
2006
 41
0.8
  0
TEXT
  5
22B
  8
___SYMBOL
  6
CONTINUOUS
 62
     2
 10
14.9189973691
 20
6.0579344970999998
 30
0.0
 40
0.0705
  1
 KOHLER CO.
 41
0.8
  0
TEXT
  5
22C
  8
___SYMBOL
  6
CONTINUOUS
 62
     7
 10
14.613371620000001
 20
6.0744194973000001
 30
0.0
 40
0.0421874995
  1
C
  0
CIRCLE
  5
22D
  8
___SYMBOL
  6
CONTINUOUS
 62
     7
 10
14.6276066199
 20
6.0956557470000003
 30
0.0
 40
0.0328259996
  0
ENDBLK
  5
22E
  8
0
  6
BYBLOCK
 62
     0
  0
BLOCK
  8
0
  6
CONTINUOUS
 62
     2
  2
TEMPLATE_NUMBER_BL1
 70
     0
 10
10.211212419200001
 20
6.0540376850999991
 30
0.0
  3
TEMPLATE_NUMBER_BL1
  1

  0
TEXT
  5
230
  8
0
  6
CONTINUOUS
 62
     2
 10
9.9010124191999989
 20
6.0187876850999986
 30
0.0
 40
0.0705
  1
1051937-7
 41
0.8
  0
TEXT
  5
231
  8
0
  6
CONTINUOUS
 62
     2
 10
10.408612419200001
 20
6.0187876850999986
 30
0.0
 40
0.0705
  1
-
 41
0.8
  0
TEXT
  5
232
  8
0
  6
CONTINUOUS
 62
     2
 10
10.465012419200001
 20
6.0187876850999986
 30
0.0
 40
0.0705
  1
A
 41
0.8
  0
ENDBLK
  5
233
  8
0
  6
BYBLOCK
 62
     0
  0
BLOCK
  8
___SYMBOL
  6
CONTINUOUS
 62
     2
  2
TEMPLATE_NUMBER_BL2
 70
     0
 10
10.177741075
 20
4.2225834500000001
 30
0.0
  3
TEMPLATE_NUMBER_BL2
  1

  0
TEXT
  5
235
  8
___SYMBOL
  6
CONTINUOUS
 62
     2
 10
9.8675410750000001
 20
4.1873334499999988
 30
0.0
 40
0.0705
  1
1051937-7
 41
0.8
  0
TEXT
  5
236
  8
___SYMBOL
  6
CONTINUOUS
 62
     2
 10
10.375141075
 20
4.1873334499999988
 30
0.0
 40
0.0705
  1
-
 41
0.8
  0
TEXT
  5
237
  8
___SYMBOL
  6
CONTINUOUS
 62
     2
 10
10.431541075
 20
4.1873334499999988
 30
0.0
 40
0.0705
  1
A
 41
0.8
  0
ENDBLK
  5
238
  8
0
  6
BYBLOCK
 62
     0
  0
BLOCK
  8
0
  2
*U6
 70
     1
 10
0.0
 20
0.0
 30
0.0
  3
*U6
  1

  0
TEXT
  5
37F
  8
___NOTE
 62
     2
 10
5.0598681441000002
 20
16.837804220700001
 30
0.0
 40
0.15625
  1
CUT-OUT TEMPLATE
 41
0.8
  0
TEXT
  5
380
  8
___NOTE
 62
     2
 10
5.0598681441000002
 20
16.577387554033329
 30
0.0
 40
0.15625
  1
UNDERCOUNTER 
 41
0.8
  0
TEXT
  5
381
  8
___NOTE
 62
     2
 10
5.0598681441000002
 20
16.316970887366669
 30
0.0
 40
0.15625
  1
LAVATORY
 41
0.8
  0
TEXT
  5
382
  8
___NOTE
 62
     2
 10
5.0598681441000002
 20
16.056554220700001
 30
0.0
 40
0.15625
  1
PLAN DE DÉCOUPE
 41
0.8
  0
TEXT
  5
383
  8
___NOTE
 62
     2
 10
5.0598681441000002
 20
15.796137554033329
 30
0.0
 40
0.15625
  1
LAVABO SOUS-COMPTOIR
 41
0.8
  0
TEXT
  5
384
  8
___NOTE
 62
     2
 10
5.0598681441000002
 20
15.53572088736667
 30
0.0
 40
0.15625
  1
PLANTILLA DE RECORTE
 41
0.8
  0
TEXT
  5
385
  8
___NOTE
 62
     2
 10
5.0598681441000002
 20
15.275304220700001
 30
0.0
 40
0.15625
  1
LAVABO MONTADO DEBAJO
 41
0.8
  0
TEXT
  5
386
  8
___NOTE
 62
     2
 10
5.0598681441000002
 20
15.014887554033329
 30
0.0
 40
0.15625
  1
DEL MOSTRADOR
 41
0.8
  0
TEXT
  5
387
  8
___NOTE
 62
     2
 10
5.0598681441000002
 20
14.75447088736667
 30
0.0
 40
0.15625
  1
ARCHER   2355-**-AA
 41
0.8
  0
ENDBLK
  5
389
  8
0
  0
BLOCK
  8
0
  2
*U7
 70
     1
 10
0.0
 20
0.0
 30
0.0
  3
*U7
  1

  0
TEXT
  5
38B
  8
___NOTE
 62
     2
 10
5.3694371064999986
 20
11.5544788586
 30
0.0
 40
0.1562500055
  1
PACKAGING/UPC LABEL ON BOX
 41
0.8
  0
TEXT
  5
38C
  8
___NOTE
 62
     2
 10
5.3694371064999986
 20
11.294062182766661
 30
0.0
 40
0.1562500055
  1
ETIQUETTE D'EMBALLAGE/UPC SUR LA BOÎTE
 41
0.8
  0
TEXT
  5
38D
  8
___NOTE
 62
     2
 10
5.3694371064999986
 20
11.033645506933331
 30
0.0
 40
0.1562500055
  1
ETIQUETA DE EMBALAJE/UPC EN LA CAJA
 41
0.8
  0
TEXT
  5
38E
  8
___NOTE
 62
     2
 10
5.3694371064999986
 20
10.773228831100001
 30
0.0
 40
0.1562500055
  1
 
 41
0.8
  0
ENDBLK
  5
390
  8
0
  0
BLOCK
  8
0
  2
*U8
 70
     1
 10
0.0
 20
0.0
 30
0.0
  3
*U8
  1

  0
TEXT
  5
392
  8
___NOTE
 62
     2
 10
5.346282197299999
 20
9.3663399438999981
 30
0.0
 40
0.1562500003
  1
The template and the label suffixes circled
 41
0.8
  0
TEXT
  5
393
  8
___NOTE
 62
     2
 10
5.346282197299999
 20
9.1059232767333338
 30
0.0
 40
0.1562500003
  1
must match for proper cut-out.
 41
0.8
  0
TEXT
  5
394
  8
___NOTE
 62
     2
 10
5.346282197299999
 20
8.8455066095666641
 30
0.0
 40
0.1562500003
  1
 
 41
0.8
  0
TEXT
  5
395
  8
___NOTE
 62
     2
 10
5.346282197299999
 20
8.5850899423999998
 30
0.0
 40
0.1562500003
  1
Afin de découper l'ouverture correctement,
 41
0.8
  0
TEXT
  5
396
  8
___NOTE
 62
     2
 10
5.346282197299999
 20
8.3246732752333337
 30
0.0
 40
0.1562500003
  1
le gabarit et les suffixes encerclés
 41
0.8
  0
TEXT
  5
397
  8
___NOTE
 62
     2
 10
5.346282197299999
 20
8.0642566080666676
 30
0.0
 40
0.1562500003
  1
doivent correspondre
 41
0.8
  0
TEXT
  5
398
  8
___NOTE
 62
     2
 10
5.346282197299999
 20
7.8038399408999988
 30
0.0
 40
0.1562500003
  1
 
 41
0.8
  0
TEXT
  5
399
  8
___NOTE
 62
     2
 10
5.346282197299999
 20
7.5434232737333327
 30
0.0
 40
0.1562500003
  1
A fin de realizar el corte apropiado, la
 41
0.8
  0
TEXT
  5
39A
  8
___NOTE
 62
     2
 10
5.346282197299999
 20
7.2830066065666674
 30
0.0
 40
0.1562500003
  1
plantilla y los sufijos de la etiqueta
 41
0.8
  0
TEXT
  5
39B
  8
___NOTE
 62
     2
 10
5.346282197299999
 20
7.0225899394000004
 30
0.0
 40
0.1562500003
  1
demarcados deben concordar.
 41
0.8
  0
TEXT
  5
39C
  8
___NOTE
 62
     2
 10
5.346282197299999
 20
6.7621732722333334
 30
0.0
 40
0.1562500003
  1
 
 41
0.8
  0
TEXT
  5
39D
  8
___NOTE
 62
     2
 10
5.346282197299999
 20
6.5017566050666673
 30
0.0
 40
0.1562500003
  1
 
 41
0.8
  0
ENDBLK
  5
39F
  8
0
  0
BLOCK
  8
0
  2
*U9
 70
     1
 10
0.0
 20
0.0
 30
0.0
  3
*U9
  1

  0
TEXT
  5
3A1
  8
___NOTE
 62
     2
 10
14.8337357862
 20
11.444585400299999
 30
0.0
 40
0.15625
  1
WHEN PLOTTING TEMPLATE FULL SIZE:
 41
0.8
  0
TEXT
  5
3A2
  8
___NOTE
 62
     2
 10
14.8337357862
 20
11.18416873363333
 30
0.0
 40
0.15625
  1
Make sure horizontal and vertical dimensions
 41
0.8
  0
TEXT
  5
3A3
  8
___NOTE
 62
     2
 10
14.8337357862
 20
10.92375206696666
 30
0.0
 40
0.15625
  1
match the dimensions labeled on the template.
 41
0.8
  0
TEXT
  5
3A4
  8
___NOTE
 62
     2
 10
14.8337357862
 20
10.663335400299999
 30
0.0
 40
0.15625
  1
 
 41
0.8
  0
TEXT
  5
3A5
  8
___NOTE
 62
     2
 10
14.8337357862
 20
10.40291873363333
 30
0.0
 40
0.15625
  1
AU MOMENT DE TRACER LA DÉCOUPE À L'ÉCHELLE,
 41
0.8
  0
TEXT
  5
3A6
  8
___NOTE
 62
     2
 10
14.8337357862
 20
10.14250206696666
 30
0.0
 40
0.15625
  1
Assurez vos que les dimensions horizotales et
 41
0.8
  0
TEXT
  5
3A7
  8
___NOTE
 62
     2
 10
14.8337357862
 20
9.8820854002999994
 30
0.0
 40
0.15625
  1
verticales correspondent avec les dimensions du plan.
 41
0.8
  0
TEXT
  5
3A8
  8
___NOTE
 62
     2
 10
14.8337357862
 20
9.6216687336333333
 30
0.0
 40
0.15625
  1
 
 41
0.8
  0
TEXT
  5
3A9
  8
___NOTE
 62
     2
 10
14.8337357862
 20
9.3612520669666672
 30
0.0
 40
0.15625
  1
AL TRAZAR LA PLANTILLA A ESCALA,
 41
0.8
  0
TEXT
  5
3AA
  8
___NOTE
 62
     2
 10
14.8337357862
 20
9.1008354002999994
 30
0.0
 40
0.15625
  1
asegúrese de que las dimensiones horizontales
 41
0.8
  0
TEXT
  5
3AB
  8
___NOTE
 62
     2
 10
14.8337357862
 20
8.8404187336333333
 30
0.0
 40
0.15625
  1
y verticales concuerden con las dimensiones marcadas
 41
0.8
  0
TEXT
  5
3AC
  8
___NOTE
 62
     2
 10
14.8337357862
 20
8.5800020669666672
 30
0.0
 40
0.15625
  1
en la plantilla.
 41
0.8
  0
TEXT
  5
3AD
  8
___NOTE
 62
     2
 10
14.8337357862
 20
8.3195854003000012
 30
0.0
 40
0.15625
  1
 
 41
0.8
  0
TEXT
  5
3AE
  8
___NOTE
 62
     2
 10
14.8337357862
 20
8.0591687336333351
 30
0.0
 40
0.15625
  1
 
 41
0.8
  0
ENDBLK
  5
3B0
  8
0
  0
BLOCK
  8
0
  2
*U10
 70
     1
 10
0.0
 20
0.0
 30
0.0
  3
*U10
  1

  0
TEXT
  5
3B2
  8
___NOTE
 62
     2
 10
16.985964152600001
 20
17.208537338199999
 30
0.0
 40
0.15625
  1
RIM OF LAVATORY/SINK
 41
0.8
  0
TEXT
  5
3B3
  8
___NOTE
 62
     2
 10
16.985964152600001
 20
16.948120671533331
 30
0.0
 40
0.15625
  1
REBORD DU LAVABO/DE L'ÉVIER
 41
0.8
  0
TEXT
  5
3B4
  8
___NOTE
 62
     2
 10
16.985964152600001
 20
16.687704004866671
 30
0.0
 40
0.15625
  1
BORDE DEL LAVABO/FREGADERO
 41
0.8
  0
ENDBLK
  5
3B6
  8
0
  0
BLOCK
  8
0
  2
*U11
 70
     1
 10
0.0
 20
0.0
 30
0.0
  3
*U11
  1

  0
TEXT
  5
3B8
  8
___NOTE
 62
     2
 10
17.161234658800002
 20
15.0426040571
 30
0.0
 40
0.15625
  1
CUT ALONG THIS LINE
 41
0.8
  0
TEXT
  5
3B9
  8
___NOTE
 62
     2
 10
17.161234658800002
 20
14.782187390433331
 30
0.0
 40
0.15625
  1
DÉCOUPER LE LONG DE CETTE LIGNE
 41
0.8
  0
TEXT
  5
3BA
  8
___NOTE
 62
     2
 10
17.161234658800002
 20
14.521770723766659
 30
0.0
 40
0.15625
  1
CORTE POR ESTA LÍNEA
 41
0.8
  0
TEXT
  5
3BB
  8
___NOTE
 62
     2
 10
17.161234658800002
 20
14.2613540571
 30
0.0
 40
0.15625
  1
 
 41
0.8
  0
ENDBLK
  5
3BD
  8
0
  0
ENDSEC
  0
SECTION
  2
ENTITIES
  0
SOLID
  5
23C
  8
0
  6
CONTINUOUS
 62
     2
 10
5.2368511266000004
 20
17.620482178100001
 30
0.0
 11
5.3746152932999998
 21
17.784303367700002
 31
0.0
 12
5.5666771053999993
 22
17.784303367700002
 32
0.0
 13
5.5666771053999993
 23
17.784303367700002
 33
0.0
  0
SOLID
  5
23D
  8
0
  6
CONTINUOUS
 62
     2
 10
5.5666771053999993
 20
17.784303367700002
 30
0.0
 11
5.3533736535000003
 21
17.5306550948
 31
0.0
 12
5.2368511266000004
 22
17.620482178100001
 32
0.0
 13
5.2368511266000004
 23
17.620482178100001
 33
0.0
  0
SOLID
  5
23E
  8
0
  6
CONTINUOUS
 62
     2
 10
5.2368511266000004
 20
17.399889552400001
 30
0.0
 11
5.3533736535000003
 21
17.5306550948
 31
0.0
 12
5.3905890666999987
 22
17.198389718399991
 32
0.0
 13
5.3905890666999987
 23
17.198389718399991
 33
0.0
  0
SOLID
  5
23F
  8
0
  6
CONTINUOUS
 62
     2
 10
5.3533736535000003
 20
17.5306550948
 30
0.0
 11
5.6068814882
 21
17.198389718399991
 31
0.0
 12
5.3905890666999987
 22
17.198389718399991
 32
0.0
 13
5.3905890666999987
 23
17.198389718399991
 33
0.0
  0
SOLID
  5
240
  8
0
  6
CONTINUOUS
 62
     2
 10
5.2368511266000004
 20
17.198389718399991
 30
0.0
 11
5.0623508996000002
 21
17.1983657149
 31
0.0
 12
5.2368511266000004
 22
17.399889552400001
 32
0.0
 13
5.2368511266000004
 23
17.399889552400001
 33
0.0
  0
SOLID
  5
241
  8
0
  6
CONTINUOUS
 62
     2
 10
5.3533736535000003
 20
17.5306550948
 30
0.0
 11
5.2368511266000004
 21
17.399889552400001
 31
0.0
 12
5.2368511266000004
 22
17.620482178100001
 32
0.0
 13
5.2368511266000004
 23
17.620482178100001
 33
0.0
  0
SOLID
  5
242
  8
0
  6
CONTINUOUS
 62
     2
 10
5.2368511266000004
 20
17.399889552400001
 30
0.0
 11
5.0623508996000002
 21
17.1983657149
 31
0.0
 12
5.2368511266000004
 22
17.620482178100001
 32
0.0
 13
5.2368511266000004
 23
17.620482178100001
 33
0.0
  0
SOLID
  5
243
  8
0
  6
CONTINUOUS
 62
     2
 10
5.2368511266000004
 20
17.620482178100001
 30
0.0
 11
5.0623508996000002
 21
17.1983657149
 31
0.0
 12
5.2368511266000004
 22
17.784303367700002
 32
0.0
 13
5.2368511266000004
 23
17.784303367700002
 33
0.0
  0
SOLID
  5
244
  8
0
  6
CONTINUOUS
 62
     2
 10
5.0623508996000002
 20
17.1983657149
 30
0.0
 11
5.0623508996000002
 21
17.784303367700002
 31
0.0
 12
5.2368511266000004
 22
17.784303367700002
 32
0.0
 13
5.2368511266000004
 23
17.784303367700002
 33
0.0
  0
SOLID
  5
245
  8
0
  6
CONTINUOUS
 62
     2
 10
5.6912857729999988
 20
17.773693954300001
 30
0.0
 11
5.7522349273999991
 21
17.786649097000002
 31
0.0
 12
5.8145457223000001
 22
17.786649097000002
 32
0.0
 13
5.8145457223000001
 23
17.786649097000002
 33
0.0
  0
SOLID
  5
246
  8
0
  6
CONTINUOUS
 62
     2
 10
5.8145457223000001
 20
17.786649097000002
 30
0.0
 11
5.8754948767999986
 21
17.773693954300001
 31
0.0
 12
5.6912857729999988
 22
17.773693954300001
 32
0.0
 13
5.6912857729999988
 23
17.773693954300001
 33
0.0
  0
SOLID
  5
247
  8
0
  6
CONTINUOUS
 62
     2
 10
5.6343620294000001
 20
17.748349870799998
 30
0.0
 11
5.6912857729999988
 21
17.773693954300001
 31
0.0
 12
5.8754948767999986
 22
17.773693954300001
 32
0.0
 13
5.8754948767999986
 23
17.773693954300001
 33
0.0
  0
SOLID
  5
248
  8
0
  6
CONTINUOUS
 62
     2
 10
5.8754948767999986
 20
17.773693954300001
 30
0.0
 11
5.9324186204
 21
17.748349870799998
 31
0.0
 12
5.6343620294000001
 22
17.748349870799998
 32
0.0
 13
5.6343620294000001
 23
17.748349870799998
 33
0.0
  0
SOLID
  5
249
  8
0
  6
CONTINUOUS
 62
     2
 10
5.5839515373999991
 20
17.711724504500001
 30
0.0
 11
5.6343620294000001
 21
17.748349870799998
 31
0.0
 12
5.9324186204
 22
17.748349870799998
 32
0.0
 13
5.9324186204
 23
17.748349870799998
 33
0.0
  0
SOLID
  5
24A
  8
0
  6
CONTINUOUS
 62
     2
 10
5.9324186204
 20
17.748349870799998
 30
0.0
 11
5.9828291123000001
 21
17.711724504500001
 31
0.0
 12
5.5839515373999991
 22
17.711724504500001
 32
0.0
 13
5.5839515373999991
 23
17.711724504500001
 33
0.0
  0
SOLID
  5
24B
  8
0
  6
CONTINUOUS
 62
     2
 10
5.5422574774999989
 20
17.665418559700001
 30
0.0
 11
5.5839515373999991
 21
17.711724504500001
 31
0.0
 12
5.9828291123000001
 22
17.711724504500001
 32
0.0
 13
5.9828291123000001
 23
17.711724504500001
 33
0.0
  0
SOLID
  5
24C
  8
0
  6
CONTINUOUS
 62
     2
 10
5.9828291123000001
 20
17.711724504500001
 30
0.0
 11
6.0245231723000003
 21
17.665418559700001
 31
0.0
 12
5.5422574774999989
 22
17.665418559700001
 32
0.0
 13
5.5422574774999989
 23
17.665418559700001
 33
0.0
  0
SOLID
  5
24D
  8
0
  6
CONTINUOUS
 62
     2
 10
5.7833903249
 20
17.614994706299999
 30
0.0
 11
5.5111020799999988
 21
17.611455828499999
 31
0.0
 12
6.0245231723000003
 22
17.665418559700001
 32
0.0
 13
6.0245231723000003
 23
17.665418559700001
 33
0.0
  0
SOLID
  5
24E
  8
0
  6
CONTINUOUS
 62
     2
 10
5.5111020799999988
 20
17.611455828499999
 30
0.0
 11
5.5422574774999989
 21
17.665418559700001
 31
0.0
 12
6.0245231723000003
 22
17.665418559700001
 32
0.0
 13
6.0245231723000003
 23
17.665418559700001
 33
0.0
  0
SOLID
  5
24F
  8
0
  6
CONTINUOUS
 62
     2
 10
6.0245231723000003
 20
17.665418559700001
 30
0.0
 11
6.0556785697000004
 21
17.611455828499999
 31
0.0
 12
5.7833903249
 22
17.614994706299999
 32
0.0
 13
5.7833903249
 23
17.614994706299999
 33
0.0
  0
SOLID
  5
250
  8
0
  6
CONTINUOUS
 62
     2
 10
5.7833903249
 20
17.614994706299999
 30
0.0
 11
5.7448344551999986
 21
17.6088880565
 31
0.0
 12
5.5111020799999988
 22
17.611455828499999
 32
0.0
 13
5.5111020799999988
 23
17.611455828499999
 33
0.0
  0
SOLID
  5
251
  8
0
  6
CONTINUOUS
 62
     2
 10
5.8219461944999997
 20
17.6088880565
 30
0.0
 11
5.7833903249
 21
17.614994706299999
 31
0.0
 12
6.0556785697000004
 22
17.611455828499999
 32
0.0
 13
6.0556785697000004
 23
17.611455828499999
 33
0.0
  0
SOLID
  5
252
  8
0
  6
CONTINUOUS
 62
     2
 10
5.6824497476999989
 20
17.5635629133
 30
0.0
 11
5.4918469854999987
 21
17.552194741000001
 31
0.0
 12
5.7100527026999988
 22
17.591165868400001
 32
0.0
 13
5.7100527026999988
 23
17.591165868400001
 33
0.0
  0
SOLID
  5
253
  8
0
  6
CONTINUOUS
 62
     2
 10
5.7100527026999988
 20
17.591165868400001
 30
0.0
 11
5.4918469854999987
 21
17.552194741000001
 31
0.0
 12
5.7448344551999986
 22
17.6088880565
 32
0.0
 13
5.7448344551999986
 23
17.6088880565
 33
0.0
  0
SOLID
  5
254
  8
0
  6
CONTINUOUS
 62
     2
 10
5.4918469854999987
 20
17.552194741000001
 30
0.0
 11
5.5111020799999988
 21
17.611455828499999
 31
0.0
 12
5.7448344551999986
 22
17.6088880565
 32
0.0
 13
5.7448344551999986
 23
17.6088880565
 33
0.0
  0
SOLID
  5
255
  8
0
  6
CONTINUOUS
 62
     2
 10
5.8219461944999997
 20
17.6088880565
 30
0.0
 11
6.0556785697000004
 21
17.611455828499999
 31
0.0
 12
5.8567279470000004
 22
17.591165868400001
 32
0.0
 13
5.8567279470000004
 23
17.591165868400001
 33
0.0
  0
SOLID
  5
256
  8
0
  6
CONTINUOUS
 62
     2
 10
5.8567279470000004
 20
17.591165868400001
 30
0.0
 11
6.0556785697000004
 21
17.611455828499999
 31
0.0
 12
5.8843309020000003
 22
17.5635629133
 32
0.0
 13
5.8843309020000003
 23
17.5635629133
 33
0.0
  0
SOLID
  5
257
  8
0
  6
CONTINUOUS
 62
     2
 10
6.0556785697000004
 20
17.611455828499999
 30
0.0
 11
6.0749336641999987
 21
17.552194741000001
 31
0.0
 12
5.8843309020000003
 22
17.5635629133
 32
0.0
 13
5.8843309020000003
 23
17.5635629133
 33
0.0
  0
SOLID
  5
258
  8
0
  6
CONTINUOUS
 62
     2
 10
5.6824497476999989
 20
17.5635629133
 30
0.0
 11
5.6647275596000002
 21
17.528781160899999
 31
0.0
 12
5.4918469854999987
 22
17.552194741000001
 32
0.0
 13
5.4918469854999987
 23
17.552194741000001
 33
0.0
  0
SOLID
  5
259
  8
0
  6
CONTINUOUS
 62
     2
 10
5.902053090099999
 20
17.528781160899999
 30
0.0
 11
5.8843309020000003
 21
17.5635629133
 31
0.0
 12
6.0749336641999987
 22
17.552194741000001
 32
0.0
 13
6.0749336641999987
 23
17.552194741000001
 33
0.0
  0
SOLID
  5
25A
  8
0
  6
CONTINUOUS
 62
     2
 10
5.4853337339000001
 20
17.490225291200002
 30
0.0
 11
5.4918469854999987
 21
17.552194741000001
 31
0.0
 12
5.6647275596000002
 22
17.528781160899999
 32
0.0
 13
5.6647275596000002
 23
17.528781160899999
 33
0.0
  0
SOLID
  5
25B
  8
0
  6
CONTINUOUS
 62
     2
 10
5.6647275596000002
 20
17.528781160899999
 30
0.0
 11
5.6586209097999989
 21
17.490225291200002
 31
0.0
 12
5.4853337339000001
 22
17.490225291200002
 32
0.0
 13
5.4853337339000001
 23
17.490225291200002
 33
0.0
  0
SOLID
  5
25C
  8
0
  6
CONTINUOUS
 62
     2
 10
5.902053090099999
 20
17.528781160899999
 30
0.0
 11
6.0749336641999987
 21
17.552194741000001
 31
0.0
 12
5.9081597399000003
 22
17.490225291200002
 32
0.0
 13
5.9081597399000003
 23
17.490225291200002
 33
0.0
  0
SOLID
  5
25D
  8
0
  6
CONTINUOUS
 62
     2
 10
6.0749336641999987
 20
17.552194741000001
 30
0.0
 11
6.0814469158
 21
17.490225291200002
 31
0.0
 12
5.9081597399000003
 22
17.490225291200002
 32
0.0
 13
5.9081597399000003
 23
17.490225291200002
 33
0.0
  0
SOLID
  5
25E
  8
0
  6
CONTINUOUS
 62
     2
 10
5.902053090099999
 20
17.451669421599998
 30
0.0
 11
5.9081597399000003
 21
17.490225291200002
 31
0.0
 12
6.0814469158
 22
17.490225291200002
 32
0.0
 13
6.0814469158
 23
17.490225291200002
 33
0.0
  0
SOLID
  5
25F
  8
0
  6
CONTINUOUS
 62
     2
 10
5.6647275596000002
 20
17.451669421599998
 30
0.0
 11
5.4918469854999987
 21
17.428255841399999
 31
0.0
 12
5.6586209097999989
 22
17.490225291200002
 32
0.0
 13
5.6586209097999989
 23
17.490225291200002
 33
0.0
  0
SOLID
  5
260
  8
0
  6
CONTINUOUS
 62
     2
 10
5.4918469854999987
 20
17.428255841399999
 30
0.0
 11
5.4853337339000001
 21
17.490225291200002
 31
0.0
 12
5.6586209097999989
 22
17.490225291200002
 32
0.0
 13
5.6586209097999989
 23
17.490225291200002
 33
0.0
  0
SOLID
  5
261
  8
0
  6
CONTINUOUS
 62
     2
 10
6.0814469158
 20
17.490225291200002
 30
0.0
 11
6.0749336641999987
 21
17.428255841399999
 31
0.0
 12
5.902053090099999
 22
17.451669421599998
 32
0.0
 13
5.902053090099999
 23
17.451669421599998
 33
0.0
  0
SOLID
  5
262
  8
0
  6
CONTINUOUS
 62
     2
 10
5.6647275596000002
 20
17.451669421599998
 30
0.0
 11
5.6824497476999989
 21
17.416887669099999
 31
0.0
 12
5.4918469854999987
 22
17.428255841399999
 32
0.0
 13
5.4918469854999987
 23
17.428255841399999
 33
0.0
  0
SOLID
  5
263
  8
0
  6
CONTINUOUS
 62
     2
 10
5.8843309020000003
 20
17.416887669099999
 30
0.0
 11
5.902053090099999
 21
17.451669421599998
 31
0.0
 12
6.0749336641999987
 22
17.428255841399999
 32
0.0
 13
6.0749336641999987
 23
17.428255841399999
 33
0.0
  0
SOLID
  5
264
  8
0
  6
CONTINUOUS
 62
     2
 10
5.7448344551999986
 20
17.371562526000002
 30
0.0
 11
5.5111020799999988
 21
17.368994753900001
 31
0.0
 12
5.7100527026999988
 22
17.389284713999999
 32
0.0
 13
5.7100527026999988
 23
17.389284713999999
 33
0.0
  0
SOLID
  5
265
  8
0
  6
CONTINUOUS
 62
     2
 10
5.7100527026999988
 20
17.389284713999999
 30
0.0
 11
5.5111020799999988
 21
17.368994753900001
 31
0.0
 12
5.6824497476999989
 22
17.416887669099999
 32
0.0
 13
5.6824497476999989
 23
17.416887669099999
 33
0.0
  0
SOLID
  5
266
  8
0
  6
CONTINUOUS
 62
     2
 10
5.5111020799999988
 20
17.368994753900001
 30
0.0
 11
5.4918469854999987
 21
17.428255841399999
 31
0.0
 12
5.6824497476999989
 22
17.416887669099999
 32
0.0
 13
5.6824497476999989
 23
17.416887669099999
 33
0.0
  0
SOLID
  5
267
  8
0
  6
CONTINUOUS
 62
     2
 10
5.8843309020000003
 20
17.416887669099999
 30
0.0
 11
6.0749336641999987
 21
17.428255841399999
 31
0.0
 12
5.8567279470000004
 22
17.389284713999999
 32
0.0
 13
5.8567279470000004
 23
17.389284713999999
 33
0.0
  0
SOLID
  5
268
  8
0
  6
CONTINUOUS
 62
     2
 10
5.8567279470000004
 20
17.389284713999999
 30
0.0
 11
6.0749336641999987
 21
17.428255841399999
 31
0.0
 12
5.8219461944999997
 22
17.371562526000002
 32
0.0
 13
5.8219461944999997
 23
17.371562526000002
 33
0.0
  0
SOLID
  5
269
  8
0
  6
CONTINUOUS
 62
     2
 10
6.0749336641999987
 20
17.428255841399999
 30
0.0
 11
6.0556785697000004
 21
17.368994753900001
 31
0.0
 12
5.8219461944999997
 22
17.371562526000002
 32
0.0
 13
5.8219461944999997
 23
17.371562526000002
 33
0.0
  0
SOLID
  5
26A
  8
0
  6
CONTINUOUS
 62
     2
 10
5.7448344551999986
 20
17.371562526000002
 30
0.0
 11
5.7833903249
 21
17.3654558761
 31
0.0
 12
5.5111020799999988
 22
17.368994753900001
 32
0.0
 13
5.5111020799999988
 23
17.368994753900001
 33
0.0
  0
SOLID
  5
26B
  8
0
  6
CONTINUOUS
 62
     2
 10
5.7833903249
 20
17.3654558761
 30
0.0
 11
5.8219461944999997
 21
17.371562526000002
 31
0.0
 12
6.0556785697000004
 22
17.368994753900001
 32
0.0
 13
6.0556785697000004
 23
17.368994753900001
 33
0.0
  0
SOLID
  5
26C
  8
0
  6
CONTINUOUS
 62
     2
 10
5.5422574774999989
 20
17.315032022699999
 30
0.0
 11
5.5111020799999988
 21
17.368994753900001
 31
0.0
 12
5.7833903249
 22
17.3654558761
 32
0.0
 13
5.7833903249
 23
17.3654558761
 33
0.0
  0
SOLID
  5
26D
  8
0
  6
CONTINUOUS
 62
     2
 10
5.7833903249
 20
17.3654558761
 30
0.0
 11
6.0556785697000004
 21
17.368994753900001
 31
0.0
 12
5.5422574774999989
 22
17.315032022699999
 32
0.0
 13
5.5422574774999989
 23
17.315032022699999
 33
0.0
  0
SOLID
  5
26E
  8
0
  6
CONTINUOUS
 62
     2
 10
6.0556785697000004
 20
17.368994753900001
 30
0.0
 11
6.0245231723000003
 21
17.315032022699999
 31
0.0
 12
5.5422574774999989
 22
17.315032022699999
 32
0.0
 13
5.5422574774999989
 23
17.315032022699999
 33
0.0
  0
SOLID
  5
26F
  8
0
  6
CONTINUOUS
 62
     2
 10
5.5839515373999991
 20
17.268726077899998
 30
0.0
 11
5.5422574774999989
 21
17.315032022699999
 31
0.0
 12
6.0245231723000003
 22
17.315032022699999
 32
0.0
 13
6.0245231723000003
 23
17.315032022699999
 33
0.0
  0
SOLID
  5
270
  8
0
  6
CONTINUOUS
 62
     2
 10
6.0245231723000003
 20
17.315032022699999
 30
0.0
 11
5.9828291123000001
 21
17.268726077899998
 31
0.0
 12
5.5839515373999991
 22
17.268726077899998
 32
0.0
 13
5.5839515373999991
 23
17.268726077899998
 33
0.0
  0
SOLID
  5
271
  8
0
  6
CONTINUOUS
 62
     2
 10
5.6343620294000001
 20
17.232100711699999
 30
0.0
 11
5.5839515373999991
 21
17.268726077899998
 31
0.0
 12
5.9828291123000001
 22
17.268726077899998
 32
0.0
 13
5.9828291123000001
 23
17.268726077899998
 33
0.0
  0
SOLID
  5
272
  8
0
  6
CONTINUOUS
 62
     2
 10
5.9828291123000001
 20
17.268726077899998
 30
0.0
 11
5.9324186204
 21
17.232100711699999
 31
0.0
 12
5.6343620294000001
 22
17.232100711699999
 32
0.0
 13
5.6343620294000001
 23
17.232100711699999
 33
0.0
  0
SOLID
  5
273
  8
0
  6
CONTINUOUS
 62
     2
 10
5.6912857729999988
 20
17.206756628099999
 30
0.0
 11
5.6343620294000001
 21
17.232100711699999
 31
0.0
 12
5.9324186204
 22
17.232100711699999
 32
0.0
 13
5.9324186204
 23
17.232100711699999
 33
0.0
  0
SOLID
  5
274
  8
0
  6
CONTINUOUS
 62
     2
 10
5.9324186204
 20
17.232100711699999
 30
0.0
 11
5.8754948767999986
 21
17.206756628099999
 31
0.0
 12
5.6912857729999988
 22
17.206756628099999
 32
0.0
 13
5.6912857729999988
 23
17.206756628099999
 33
0.0
  0
SOLID
  5
275
  8
0
  6
CONTINUOUS
 62
     2
 10
5.7522349273999991
 20
17.193801485400002
 30
0.0
 11
5.6912857729999988
 21
17.206756628099999
 31
0.0
 12
5.8754948767999986
 22
17.206756628099999
 32
0.0
 13
5.8754948767999986
 23
17.206756628099999
 33
0.0
  0
SOLID
  5
276
  8
0
  6
CONTINUOUS
 62
     2
 10
5.8754948767999986
 20
17.206756628099999
 30
0.0
 11
5.8145457223000001
 21
17.193801485400002
 31
0.0
 12
5.7522349273999991
 22
17.193801485400002
 32
0.0
 13
5.7522349273999991
 23
17.193801485400002
 33
0.0
  0
SOLID
  5
277
  8
0
  6
CONTINUOUS
 62
     2
 10
6.4112926541999986
 20
17.563919608100001
 30
0.0
 11
6.4112926541999986
 21
17.784303367700002
 31
0.0
 12
6.5760263340999989
 22
17.784303367700002
 32
0.0
 13
6.5760263340999989
 23
17.784303367700002
 33
0.0
  0
SOLID
  5
278
  8
0
  6
CONTINUOUS
 62
     2
 10
6.4112926541999986
 20
17.563919608100001
 30
0.0
 11
6.263295843099999
 21
17.426714328199999
 31
0.0
 12
6.263295843099999
 22
17.563919608100001
 32
0.0
 13
6.263295843099999
 23
17.563919608100001
 33
0.0
  0
SOLID
  5
279
  8
0
  6
CONTINUOUS
 62
     2
 10
6.263295843099999
 20
17.426714328199999
 30
0.0
 11
6.0985621632000004
 21
17.198389718399991
 31
0.0
 12
6.263295843099999
 22
17.563919608100001
 32
0.0
 13
6.263295843099999
 23
17.563919608100001
 33
0.0
  0
SOLID
  5
27A
  8
0
  6
CONTINUOUS
 62
     2
 10
6.263295843099999
 20
17.563919608100001
 30
0.0
 11
6.0985621632000004
 21
17.198389718399991
 31
0.0
 12
6.263295843099999
 22
17.784303367700002
 32
0.0
 13
6.263295843099999
 23
17.784303367700002
 33
0.0
  0
SOLID
  5
27B
  8
0
  6
CONTINUOUS
 62
     2
 10
6.0985621632000004
 20
17.198389718399991
 30
0.0
 11
6.0985621632000004
 21
17.784303367700002
 31
0.0
 12
6.263295843099999
 22
17.784303367700002
 32
0.0
 13
6.263295843099999
 23
17.784303367700002
 33
0.0
  0
SOLID
  5
27C
  8
0
  6
CONTINUOUS
 62
     2
 10
6.263295843099999
 20
17.426714328199999
 30
0.0
 11
6.263295843099999
 21
17.198389718399991
 31
0.0
 12
6.0985621632000004
 22
17.198389718399991
 32
0.0
 13
6.0985621632000004
 23
17.198389718399991
 33
0.0
  0
SOLID
  5
27D
  8
0
  6
CONTINUOUS
 62
     2
 10
6.263295843099999
 20
17.426714328199999
 30
0.0
 11
6.4112926541999986
 21
17.563919608100001
 31
0.0
 12
6.4112926541999986
 22
17.426714328199999
 32
0.0
 13
6.4112926541999986
 23
17.426714328199999
 33
0.0
  0
SOLID
  5
27E
  8
0
  6
CONTINUOUS
 62
     2
 10
6.4112926541999986
 20
17.563919608100001
 30
0.0
 11
6.5760263340999989
 21
17.784303367700002
 31
0.0
 12
6.4112926541999986
 22
17.426714328199999
 32
0.0
 13
6.4112926541999986
 23
17.426714328199999
 33
0.0
  0
SOLID
  5
27F
  8
0
  6
CONTINUOUS
 62
     2
 10
6.4112926541999986
 20
17.426714328199999
 30
0.0
 11
6.5760263340999989
 21
17.784303367700002
 31
0.0
 12
6.4112926541999986
 22
17.198389718399991
 32
0.0
 13
6.4112926541999986
 23
17.198389718399991
 33
0.0
  0
SOLID
  5
280
  8
0
  6
CONTINUOUS
 62
     2
 10
6.5760263340999989
 20
17.784303367700002
 30
0.0
 11
6.5760263340999989
 21
17.198389718399991
 31
0.0
 12
6.4112926541999986
 22
17.198389718399991
 32
0.0
 13
6.4112926541999986
 23
17.198389718399991
 33
0.0
  0
SOLID
  5
281
  8
0
  6
CONTINUOUS
 62
     2
 10
6.933801310999999
 20
17.339616475500002
 30
0.0
 11
6.6210711783000002
 21
17.198389718399991
 31
0.0
 12
6.7711172409999998
 22
17.339616475500002
 32
0.0
 13
6.7711172409999998
 23
17.339616475500002
 33
0.0
  0
SOLID
  5
282
  8
0
  6
CONTINUOUS
 62
     2
 10
6.7711172409999998
 20
17.339616475500002
 30
0.0
 11
6.6210711783000002
 21
17.198389718399991
 31
0.0
 12
6.7711172409999998
 22
17.784303367700002
 32
0.0
 13
6.7711172409999998
 23
17.784303367700002
 33
0.0
  0
SOLID
  5
283
  8
0
  6
CONTINUOUS
 62
     2
 10
6.6210711783000002
 20
17.198389718399991
 30
0.0
 11
6.6210711783000002
 21
17.784303367700002
 31
0.0
 12
6.7711172409999998
 22
17.784303367700002
 32
0.0
 13
6.7711172409999998
 23
17.784303367700002
 33
0.0
  0
SOLID
  5
284
  8
0
  6
CONTINUOUS
 62
     2
 10
6.6210711783000002
 20
17.198389718399991
 30
0.0
 11
6.933801310999999
 21
17.339616475500002
 31
0.0
 12
6.7711172409999998
 22
17.198389718399991
 32
0.0
 13
6.7711172409999998
 23
17.198389718399991
 33
0.0
  0
SOLID
  5
285
  8
0
  6
CONTINUOUS
 62
     2
 10
6.933801310999999
 20
17.339616475500002
 30
0.0
 11
6.933801310999999
 21
17.198389718399991
 31
0.0
 12
6.7711172409999998
 22
17.198389718399991
 32
0.0
 13
6.7711172409999998
 23
17.198389718399991
 33
0.0
  0
SOLID
  5
286
  8
0
  6
CONTINUOUS
 62
     2
 10
7.2720532249999987
 20
17.784303367700002
 30
0.0
 11
7.2720532249999987
 21
17.64154397099999
 31
0.0
 12
7.1211957015999987
 22
17.64154397099999
 32
0.0
 13
7.1211957015999987
 23
17.64154397099999
 33
0.0
  0
SOLID
  5
287
  8
0
  6
CONTINUOUS
 62
     2
 10
7.2720532249999987
 20
17.563919608100001
 30
0.0
 11
7.2720532249999987
 21
17.419538006500002
 31
0.0
 12
7.1211957015999987
 22
17.419538006500002
 32
0.0
 13
7.1211957015999987
 23
17.419538006500002
 33
0.0
  0
SOLID
  5
288
  8
0
  6
CONTINUOUS
 62
     2
 10
7.2720532249999987
 20
17.339616475500002
 30
0.0
 11
6.9629490495999997
 21
17.198389718399991
 31
0.0
 12
7.1211957015999987
 22
17.339616475500002
 32
0.0
 13
7.1211957015999987
 23
17.339616475500002
 33
0.0
  0
SOLID
  5
289
  8
0
  6
CONTINUOUS
 62
     2
 10
7.1211957015999987
 20
17.339616475500002
 30
0.0
 11
6.9629490495999997
 21
17.198389718399991
 31
0.0
 12
7.1211957015999987
 22
17.419538006500002
 32
0.0
 13
7.1211957015999987
 23
17.419538006500002
 33
0.0
  0
SOLID
  5
28A
  8
0
  6
CONTINUOUS
 62
     2
 10
7.2720532249999987
 20
17.563919608100001
 30
0.0
 11
7.1211957015999987
 21
17.419538006500002
 31
0.0
 12
7.1211957015999987
 22
17.563919608100001
 32
0.0
 13
7.1211957015999987
 23
17.563919608100001
 33
0.0
  0
SOLID
  5
28B
  8
0
  6
CONTINUOUS
 62
     2
 10
7.1211957015999987
 20
17.419538006500002
 30
0.0
 11
6.9629490495999997
 21
17.198389718399991
 31
0.0
 12
7.1211957015999987
 22
17.563919608100001
 32
0.0
 13
7.1211957015999987
 23
17.563919608100001
 33
0.0
  0
SOLID
  5
28C
  8
0
  6
CONTINUOUS
 62
     2
 10
7.1211957015999987
 20
17.563919608100001
 30
0.0
 11
6.9629490495999997
 21
17.198389718399991
 31
0.0
 12
7.1211957015999987
 22
17.64154397099999
 32
0.0
 13
7.1211957015999987
 23
17.64154397099999
 33
0.0
  0
SOLID
  5
28D
  8
0
  6
CONTINUOUS
 62
     2
 10
7.2720532249999987
 20
17.784303367700002
 30
0.0
 11
7.1211957015999987
 21
17.64154397099999
 31
0.0
 12
7.1354000249
 22
17.784303367700002
 32
0.0
 13
7.1354000249
 23
17.784303367700002
 33
0.0
  0
SOLID
  5
28E
  8
0
  6
CONTINUOUS
 62
     2
 10
7.1211957015999987
 20
17.64154397099999
 30
0.0
 11
6.9629490495999997
 21
17.198389718399991
 31
0.0
 12
7.1354000249
 22
17.784303367700002
 32
0.0
 13
7.1354000249
 23
17.784303367700002
 33
0.0
  0
SOLID
  5
28F
  8
0
  6
CONTINUOUS
 62
     2
 10
6.9629490495999997
 20
17.198389718399991
 30
0.0
 11
6.9629490495999997
 21
17.784303367700002
 31
0.0
 12
7.1354000249
 22
17.784303367700002
 32
0.0
 13
7.1354000249
 23
17.784303367700002
 33
0.0
  0
SOLID
  5
290
  8
0
  6
CONTINUOUS
 62
     2
 10
7.2720532249999987
 20
17.339616475500002
 30
0.0
 11
7.2720532249999987
 21
17.198389718399991
 31
0.0
 12
6.9629490495999997
 22
17.198389718399991
 32
0.0
 13
6.9629490495999997
 23
17.198389718399991
 33
0.0
  0
SOLID
  5
291
  8
0
  6
CONTINUOUS
 62
     2
 10
7.5504211403999992
 20
17.784310473399991
 30
0.0
 11
7.5973541638999986
 21
17.777900224900002
 31
0.0
 12
7.3168734397000001
 22
17.784303367700002
 32
0.0
 13
7.3168734397000001
 23
17.784303367700002
 33
0.0
  0
SOLID
  5
292
  8
0
  6
CONTINUOUS
 62
     2
 10
7.4675292623000002
 20
17.641724534400002
 30
0.0
 11
7.7214690033000002
 21
17.6463538699
 31
0.0
 12
7.5234591437000002
 22
17.641724534400002
 32
0.0
 13
7.5234591437000002
 23
17.641724534400002
 33
0.0
  0
SOLID
  5
293
  8
0
  6
CONTINUOUS
 62
     2
 10
7.5234591437000002
 20
17.641724534400002
 30
0.0
 11
7.7214690033000002
 21
17.6463538699
 31
0.0
 12
7.5471817252999989
 22
17.636190366099999
 32
0.0
 13
7.5471817252999989
 23
17.636190366099999
 33
0.0
  0
SOLID
  5
294
  8
0
  6
CONTINUOUS
 62
     2
 10
7.5471817252999989
 20
17.636190366099999
 30
0.0
 11
7.7214690033000002
 21
17.6463538699
 31
0.0
 12
7.5660067129999993
 22
17.620730491
 32
0.0
 13
7.5660067129999993
 23
17.620730491
 33
0.0
  0
SOLID
  5
295
  8
0
  6
CONTINUOUS
 62
     2
 10
7.7214690033000002
 20
17.6463538699
 30
0.0
 11
7.7251422498000002
 21
17.599127741099998
 31
0.0
 12
7.5660067129999993
 22
17.620730491
 32
0.0
 13
7.5660067129999993
 23
17.620730491
 33
0.0
  0
SOLID
  5
296
  8
0
  6
CONTINUOUS
 62
     2
 10
7.5760476514999988
 20
17.598536630400002
 30
0.0
 11
7.5660067129999993
 21
17.620730491
 31
0.0
 12
7.7251422498000002
 22
17.599127741099998
 32
0.0
 13
7.7251422498000002
 23
17.599127741099998
 33
0.0
  0
SOLID
  5
297
  8
0
  6
CONTINUOUS
 62
     2
 10
7.5760476514999988
 20
17.598536630400002
 30
0.0
 11
7.7251422498000002
 21
17.599127741099998
 31
0.0
 12
7.5752315697999997
 22
17.574190749700001
 32
0.0
 13
7.5752315697999997
 23
17.574190749700001
 33
0.0
  0
SOLID
  5
298
  8
0
  6
CONTINUOUS
 62
     2
 10
7.5752315697999997
 20
17.574190749700001
 30
0.0
 11
7.7251422498000002
 21
17.599127741099998
 31
0.0
 12
7.5637269495000004
 22
17.552719103099999
 32
0.0
 13
7.5637269495000004
 23
17.552719103099999
 33
0.0
  0
SOLID
  5
299
  8
0
  6
CONTINUOUS
 62
     2
 10
7.7251422498000002
 20
17.599127741099998
 30
0.0
 11
7.716016646099999
 21
17.552646311099998
 31
0.0
 12
7.5637269495000004
 22
17.552719103099999
 32
0.0
 13
7.5637269495000004
 23
17.552719103099999
 33
0.0
  0
SOLID
  5
29A
  8
0
  6
CONTINUOUS
 62
     2
 10
7.5439089416999989
 20
17.538554553600001
 30
0.0
 11
7.5637269495000004
 21
17.552719103099999
 31
0.0
 12
7.716016646099999
 22
17.552646311099998
 32
0.0
 13
7.716016646099999
 23
17.552646311099998
 33
0.0
  0
SOLID
  5
29B
  8
0
  6
CONTINUOUS
 62
     2
 10
7.5439089416999989
 20
17.538554553600001
 30
0.0
 11
7.716016646099999
 21
17.552646311099998
 31
0.0
 12
7.5198690124000001
 22
17.534621399900001
 32
0.0
 13
7.5198690124000001
 23
17.534621399900001
 33
0.0
  0
SOLID
  5
29C
  8
0
  6
CONTINUOUS
 62
     2
 10
7.716016646099999
 20
17.552646311099998
 30
0.0
 11
7.6947606704
 21
17.510314485199999
 31
0.0
 12
7.5198690124000001
 22
17.534621399900001
 32
0.0
 13
7.5198690124000001
 23
17.534621399900001
 33
0.0
  0
SOLID
  5
29D
  8
0
  6
CONTINUOUS
 62
     2
 10
7.6228603879999994
 20
17.449972259700001
 30
0.0
 11
7.4675292623000002
 21
17.3953460892
 31
0.0
 12
7.6629313872999996
 22
17.4752331979
 32
0.0
 13
7.6629313872999996
 23
17.4752331979
 33
0.0
  0
SOLID
  5
29E
  8
0
  6
CONTINUOUS
 62
     2
 10
7.6629313872999996
 20
17.4752331979
 30
0.0
 11
7.4675292623000002
 21
17.3953460892
 31
0.0
 12
7.6947606704
 22
17.510314485199999
 32
0.0
 13
7.6947606704
 23
17.510314485199999
 33
0.0
  0
SOLID
  5
29F
  8
0
  6
CONTINUOUS
 62
     2
 10
7.6947606704
 20
17.510314485199999
 30
0.0
 11
7.4675292623000002
 21
17.3953460892
 31
0.0
 12
7.5198690124000001
 22
17.534621399900001
 32
0.0
 13
7.5198690124000001
 23
17.534621399900001
 33
0.0
  0
SOLID
  5
2A0
  8
0
  6
CONTINUOUS
 62
     2
 10
7.4675292623000002
 20
17.3953460892
 30
0.0
 11
7.3168734397000001
 21
17.198389718399991
 31
0.0
 12
7.5198690124000001
 22
17.534621399900001
 32
0.0
 13
7.5198690124000001
 23
17.534621399900001
 33
0.0
  0
SOLID
  5
2A1
  8
0
  6
CONTINUOUS
 62
     2
 10
7.5198690124000001
 20
17.534621399900001
 30
0.0
 11
7.3168734397000001
 21
17.198389718399991
 31
0.0
 12
7.4675292623000002
 22
17.534621399900001
 32
0.0
 13
7.4675292623000002
 23
17.534621399900001
 33
0.0
  0
SOLID
  5
2A2
  8
0
  6
CONTINUOUS
 62
     2
 10
7.4675292623000002
 20
17.534621399900001
 30
0.0
 11
7.3168734397000001
 21
17.198389718399991
 31
0.0
 12
7.4675292623000002
 22
17.641724534400002
 32
0.0
 13
7.4675292623000002
 23
17.641724534400002
 33
0.0
  0
SOLID
  5
2A3
  8
0
  6
CONTINUOUS
 62
     2
 10
7.7214690033000002
 20
17.6463538699
 30
0.0
 11
7.4675292623000002
 21
17.641724534400002
 31
0.0
 12
7.7052659832000003
 22
17.690865240600001
 32
0.0
 13
7.7052659832000003
 23
17.690865240600001
 33
0.0
  0
SOLID
  5
2A4
  8
0
  6
CONTINUOUS
 62
     2
 10
7.7052659832000003
 20
17.690865240600001
 30
0.0
 11
7.4675292623000002
 21
17.641724534400002
 31
0.0
 12
7.6777201097000001
 22
17.7294012606
 32
0.0
 13
7.6777201097000001
 23
17.7294012606
 33
0.0
  0
SOLID
  5
2A5
  8
0
  6
CONTINUOUS
 62
     2
 10
7.6777201097000001
 20
17.7294012606
 30
0.0
 11
7.4675292623000002
 21
17.641724534400002
 31
0.0
 12
7.6408492014
 22
17.7591390497
 32
0.0
 13
7.6408492014
 23
17.7591390497
 33
0.0
  0
SOLID
  5
2A6
  8
0
  6
CONTINUOUS
 62
     2
 10
7.6408492014
 20
17.7591390497
 30
0.0
 11
7.4675292623000002
 21
17.641724534400002
 31
0.0
 12
7.5973541638999986
 22
17.777900224900002
 32
0.0
 13
7.5973541638999986
 23
17.777900224900002
 33
0.0
  0
SOLID
  5
2A7
  8
0
  6
CONTINUOUS
 62
     2
 10
7.5973541638999986
 20
17.777900224900002
 30
0.0
 11
7.4675292623000002
 21
17.641724534400002
 31
0.0
 12
7.3168734397000001
 22
17.784303367700002
 32
0.0
 13
7.3168734397000001
 23
17.784303367700002
 33
0.0
  0
SOLID
  5
2A8
  8
0
  6
CONTINUOUS
 62
     2
 10
7.3168734397000001
 20
17.198389718399991
 30
0.0
 11
7.3168734397000001
 21
17.784303367700002
 31
0.0
 12
7.4675292623000002
 22
17.641724534400002
 32
0.0
 13
7.4675292623000002
 23
17.641724534400002
 33
0.0
  0
SOLID
  5
2A9
  8
0
  6
CONTINUOUS
 62
     2
 10
7.4675292623000002
 20
17.3953460892
 30
0.0
 11
7.4675292623000002
 21
17.198389718399991
 31
0.0
 12
7.3168734397000001
 22
17.198389718399991
 32
0.0
 13
7.3168734397000001
 23
17.198389718399991
 33
0.0
  0
SOLID
  5
2AA
  8
0
  6
CONTINUOUS
 62
     2
 10
7.4675292623000002
 20
17.3953460892
 30
0.0
 11
7.6228603879999994
 21
17.449972259700001
 31
0.0
 12
7.5923526913999986
 22
17.198389718399991
 32
0.0
 13
7.5923526913999986
 23
17.198389718399991
 33
0.0
  0
SOLID
  5
2AB
  8
0
  6
CONTINUOUS
 62
     2
 10
7.6228603879999994
 20
17.449972259700001
 30
0.0
 11
7.7823036310000004
 21
17.198389718399991
 31
0.0
 12
7.5923526913999986
 22
17.198389718399991
 32
0.0
 13
7.5923526913999986
 23
17.198389718399991
 33
0.0
  0
SOLID
  5
2AC
  8
0
  6
CONTINUOUS
 62
     7
 10
7.940448889999999
 20
10.1649901832
 30
0.0
 11
7.940448889999999
 21
10.2866251835
 31
0.0
 12
8.2834013865999996
 22
10.2866251835
 32
0.0
 13
8.2834013865999996
 23
10.2866251835
 33
0.0
  0
SOLID
  5
2AD
  8
0
  6
CONTINUOUS
 62
     7
 10
8.2834013865999996
 20
10.2866251835
 30
0.0
 11
8.2834013865999996
 21
10.1649901832
 31
0.0
 12
7.940448889999999
 22
10.1649901832
 32
0.0
 13
7.940448889999999
 23
10.1649901832
 33
0.0
  0
SOLID
  5
2AE
  8
0
  6
CONTINUOUS
 62
     7
 10
6.3522414054999992
 20
10.1649901832
 30
0.0
 11
6.3522414054999992
 21
10.2866251835
 31
0.0
 12
7.2079463970999997
 22
10.2866251835
 32
0.0
 13
7.2079463970999997
 23
10.2866251835
 33
0.0
  0
SOLID
  5
2AF
  8
0
  6
CONTINUOUS
 62
     7
 10
7.2079463970999997
 20
10.2866251835
 30
0.0
 11
7.2079463970999997
 21
10.1649901832
 31
0.0
 12
6.3522414054999992
 22
10.1649901832
 32
0.0
 13
6.3522414054999992
 23
10.1649901832
 33
0.0
  0
SOLID
  5
2B0
  8
0
  6
CONTINUOUS
 62
     7
 10
6.3522414054999992
 20
9.8783776966999994
 30
0.0
 11
6.3522414054999992
 21
9.9133576787000006
 31
0.0
 12
7.2079463970999997
 22
9.9133576787000006
 32
0.0
 13
7.2079463970999997
 23
9.9133576787000006
 33
0.0
  0
SOLID
  5
2B1
  8
0
  6
CONTINUOUS
 62
     7
 10
7.2079463970999997
 20
9.9133576787000006
 30
0.0
 11
7.2079463970999997
 21
9.8783776966999994
 31
0.0
 12
6.3522414054999992
 22
9.8783776966999994
 32
0.0
 13
6.3522414054999992
 23
9.8783776966999994
 33
0.0
  0
SOLID
  5
2B2
  8
0
  6
CONTINUOUS
 62
     7
 10
6.3988914049999988
 20
10.758210182399999
 30
0.0
 11
6.3988914049999988
 21
10.8198601725
 31
0.0
 12
7.2545963966999993
 22
10.8198601725
 32
0.0
 13
7.2545963966999993
 23
10.8198601725
 33
0.0
  0
SOLID
  5
2B3
  8
0
  6
CONTINUOUS
 62
     7
 10
7.2545963966999993
 20
10.8198601725
 30
0.0
 11
7.2545963966999993
 21
10.758210182399999
 31
0.0
 12
6.3988914049999988
 22
10.758210182399999
 32
0.0
 13
6.3988914049999988
 23
10.758210182399999
 33
0.0
  0
SOLID
  5
2B4
  8
0
  6
CONTINUOUS
 62
     7
 10
6.3988914049999988
 20
10.658227674200001
 30
0.0
 11
6.3988914049999988
 21
10.719877698299999
 31
0.0
 12
7.2545963966999993
 22
10.719877698299999
 32
0.0
 13
7.2545963966999993
 23
10.719877698299999
 33
0.0
  0
SOLID
  5
2B5
  8
0
  6
CONTINUOUS
 62
     7
 10
7.2545963966999993
 20
10.719877698299999
 30
0.0
 11
7.2545963966999993
 21
10.658227674200001
 31
0.0
 12
6.3988914049999988
 22
10.658227674200001
 32
0.0
 13
6.3988914049999988
 23
10.658227674200001
 33
0.0
  0
SOLID
  5
2B6
  8
0
  6
CONTINUOUS
 62
     7
 10
6.3988914049999988
 20
10.558252680000001
 30
0.0
 11
6.3988914049999988
 21
10.619895190099999
 31
0.0
 12
7.2545963966999993
 22
10.619895190099999
 32
0.0
 13
7.2545963966999993
 23
10.619895190099999
 33
0.0
  0
SOLID
  5
2B7
  8
0
  6
CONTINUOUS
 62
     7
 10
7.2545963966999993
 20
10.619895190099999
 30
0.0
 11
7.2545963966999993
 21
10.558252680000001
 31
0.0
 12
6.3988914049999988
 22
10.558252680000001
 32
0.0
 13
6.3988914049999988
 23
10.558252680000001
 33
0.0
  0
SOLID
  5
2B8
  8
0
  6
CONTINUOUS
 62
     7
 10
6.3988914049999988
 20
10.4582702058
 30
0.0
 11
6.3988914049999988
 21
10.519912681899999
 31
0.0
 12
7.2545963966999993
 22
10.519912681899999
 32
0.0
 13
7.2545963966999993
 23
10.519912681899999
 33
0.0
  0
SOLID
  5
2B9
  8
0
  6
CONTINUOUS
 62
     7
 10
7.2545963966999993
 20
10.519912681899999
 30
0.0
 11
7.2545963966999993
 21
10.4582702058
 31
0.0
 12
6.3988914049999988
 22
10.4582702058
 32
0.0
 13
6.3988914049999988
 23
10.4582702058
 33
0.0
  0
SOLID
  5
2BA
  8
0
  6
CONTINUOUS
 62
     7
 10
6.3988914049999988
 20
10.3316252035
 30
0.0
 11
6.3988914049999988
 21
10.393275193699999
 31
0.0
 12
7.2545963966999993
 22
10.393275193699999
 32
0.0
 13
7.2545963966999993
 23
10.393275193699999
 33
0.0
  0
SOLID
  5
2BB
  8
0
  6
CONTINUOUS
 62
     7
 10
7.2545963966999993
 20
10.393275193699999
 30
0.0
 11
7.2545963966999993
 21
10.3316252035
 31
0.0
 12
6.3988914049999988
 22
10.3316252035
 32
0.0
 13
6.3988914049999988
 23
10.3316252035
 33
0.0
  0
DIMENSION
  5
2BC
  8
0
  6
CONTINUOUS
 62
     2
  2
*D1
 10
13.1643786373
 20
5.6402116880999991
 30
0.0
 11
13.1643786373
 21
13.833024570699999
 31
0.0
 70
   128
  1
<>"\P[32,93 cm]
 13
13.0393786373
 23
18.6052115753
 33
0.0
 14
13.0393786373
 24
5.6402116880999991
 34
0.0
 50
270.0
  0
DIMENSION
  5
2BD
  8
0
  6
CONTINUOUS
 62
     2
  2
*D2
 10
21.902652794400002
 20
12.211500129099999
 30
0.0
 11
11.534473933699999
 21
12.094312629099999
 31
0.0
 70
   128
  1
<>"\P[44,36 cm]
 13
4.4381097779000003
 23
12.086500129099999
 33
0.0
 14
21.902652794400002
 24
12.086500129099999
 34
0.0
  0
INSERT
  5
2BE
  8
0
  2
*U6
 10
0.0
 20
0.0
 30
0.0
  0
TEXT
  5
2BF
  8
___NOTE
  6
CONTINUOUS
 62
     2
 10
5.8018836656820936
 20
14.83685584027176
 30
0.0
 40
0.08
  1
TM
  0
TEXT
  5
2C0
  8
___NOTE
  6
CONTINUOUS
 62
     7
 10
6.4997814040000002
 20
10.0108501938
 30
0.0
 40
0.0593587494
  1
XXXXX-XX-X-XX
 41
0.8258950222999999
  0
TEXT
  5
2C1
  8
___NOTE
  6
CONTINUOUS
 62
     7
 10
8.1337613880999982
 20
9.8816851950999993
 30
0.0
 40
0.0445192496
  1
xxxxxx-xx
 41
0.6740211631000002
  0
INSERT
  5
2C2
  8
0
  2
*U7
 10
0.0
 20
0.0
 30
0.0
  0
INSERT
  5
2C3
  8
0
  2
*U8
 10
0.0
 20
0.0
 30
0.0
  0
INSERT
  5
2C4
  8
0
  2
*U9
 10
0.0
 20
0.0
 30
0.0
  0
INSERT
  5
2C5
  8
0
  2
*U10
 10
0.0
 20
0.0
 30
0.0
  0
LINE
  5
2C6
  8
___NOTE
  6
CONTINUOUS
 62
     2
 10
22.976044547699999
 20
18.538691516699998
 30
0.0
 11
19.735964152600001
 21
17.286662338199999
 31
0.0
  0
LINE
  5
2C7
  8
___NOTE
  6
CONTINUOUS
 62
     2
 10
19.735964152600001
 20
17.286662338199999
 30
0.0
 11
19.485964152600001
 21
17.286662338199999
 31
0.0
  0
SOLID
  5
2C8
  8
___NOTE
  6
CONTINUOUS
 62
     2
 10
22.812412048900001
 20
18.4419588033
 30
0.0
 11
22.976044547699999
 21
18.538691516699998
 31
0.0
 12
22.789884276999999
 22
18.500257598200001
 32
0.0
 13
22.789884276999999
 23
18.500257598200001
 33
0.0
  0
INSERT
  5
2C9
  8
0
  2
*U11
 10
0.0
 20
0.0
 30
0.0
  0
LINE
  5
2CA
  8
___NOTE
  6
CONTINUOUS
 62
     2
 10
21.902652794400002
 20
16.222833876700001
 30
0.0
 11
19.786234658800002
 21
15.1207290571
 31
0.0
  0
LINE
  5
2CB
  8
___NOTE
  6
CONTINUOUS
 62
     2
 10
19.786234658800002
 20
15.1207290571
 30
0.0
 11
19.536234658800002
 21
15.1207290571
 31
0.0
  0
SOLID
  5
2CC
  8
___NOTE
  6
CONTINUOUS
 62
     2
 10
21.750783513199998
 20
16.108516187999999
 30
0.0
 11
21.902652794400002
 21
16.222833876700001
 31
0.0
 12
21.721916656400001
 22
16.163950424599999
 32
0.0
 13
21.721916656400001
 23
16.163950424599999
 33
0.0
  0
INSERT
  5
2CD
  8
___SYMBOL
  6
CONTINUOUS
 62
     2
  2
COPYRIGHT_YEAR_BL0
 10
15.067088994700001
 20
6.0932081219000001
 30
0.0
  0
INSERT
  5
2CE
  8
0
  6
CONTINUOUS
 62
     2
  2
TEMPLATE_NUMBER_BL1
 10
10.211212419200001
 20
6.0540376850999991
 30
0.0
  0
INSERT
  5
2CF
  8
___SYMBOL
  6
CONTINUOUS
 62
     2
  2
TEMPLATE_NUMBER_BL2
 10
10.177741075
 20
4.2225834500000001
 30
0.0
  0
LINE
  5
2D0
  8
0
  6
CONTINUOUS
 62
     2
 10
5.3746152932999998
 20
17.784303367700002
 30
0.0
 11
5.2368511266000004
 21
17.620482178100001
 31
0.0
  0
LINE
  5
2D1
  8
0
  6
CONTINUOUS
 62
     2
 10
5.5666771053999993
 20
17.784303367700002
 30
0.0
 11
5.3533736535000003
 21
17.5306550948
 31
0.0
  0
LINE
  5
2D2
  8
0
  6
CONTINUOUS
 62
     2
 10
5.0623508996000002
 20
17.784303367700002
 30
0.0
 11
5.0623508996000002
 21
17.1983657149
 31
0.0
  0
LINE
  5
2D3
  8
0
  6
CONTINUOUS
 62
     2
 10
5.2368511266000004
 20
17.784303367700002
 30
0.0
 11
5.2368511266000004
 21
17.620482178100001
 31
0.0
  0
LINE
  5
2D4
  8
0
  6
CONTINUOUS
 62
     2
 10
5.2368511266000004
 20
17.399889552400001
 30
0.0
 11
5.2368511266000004
 21
17.198389718399991
 31
0.0
  0
LINE
  5
2D5
  8
0
  6
CONTINUOUS
 62
     2
 10
6.0985621632000004
 20
17.784303367700002
 30
0.0
 11
6.0985621632000004
 21
17.198389718399991
 31
0.0
  0
LINE
  5
2D6
  8
0
  6
CONTINUOUS
 62
     2
 10
6.263295843099999
 20
17.784303367700002
 30
0.0
 11
6.263295843099999
 21
17.563919608100001
 31
0.0
  0
LINE
  5
2D7
  8
0
  6
CONTINUOUS
 62
     2
 10
6.263295843099999
 20
17.426714328199999
 30
0.0
 11
6.263295843099999
 21
17.198389718399991
 31
0.0
  0
LINE
  5
2D8
  8
0
  6
CONTINUOUS
 62
     7
 10
6.2701764063000001
 20
9.7875376960000011
 30
0.0
 11
6.2701764063000001
 21
10.880445185299999
 31
0.0
  0
LINE
  5
2D9
  8
0
  6
CONTINUOUS
 62
     7
 10
6.3035439059999989
 20
9.8549551953000005
 30
0.0
 11
6.3035439059999989
 21
10.847985185600001
 31
0.0
  0
LINE
  5
2DA
  8
0
  6
CONTINUOUS
 62
     7
 10
6.3522414054999992
 20
9.8783776950999993
 30
0.0
 11
6.3522414054999992
 21
9.9133576948000002
 31
0.0
  0
LINE
  5
2DB
  8
0
  6
CONTINUOUS
 62
     7
 10
6.3522414054999992
 20
10.164990192299999
 30
0.0
 11
6.3522414054999992
 21
10.286625191100001
 31
0.0
  0
LINE
  5
2DC
  8
0
  6
CONTINUOUS
 62
     7
 10
6.3988914049999988
 20
10.331625190700001
 30
0.0
 11
6.3988914049999988
 21
10.393275190100001
 31
0.0
  0
LINE
  5
2DD
  8
0
  6
CONTINUOUS
 62
     7
 10
6.3988914049999988
 20
10.4582701894
 30
0.0
 11
6.3988914049999988
 21
10.5199126888
 31
0.0
  0
LINE
  5
2DE
  8
0
  6
CONTINUOUS
 62
     7
 10
6.3988914049999988
 20
10.5582526885
 30
0.0
 11
6.3988914049999988
 21
10.619895187899999
 31
0.0
  0
LINE
  5
2DF
  8
0
  6
CONTINUOUS
 62
     7
 10
6.3988914049999988
 20
10.6582276875
 30
0.0
 11
6.3988914049999988
 21
10.7198776869
 31
0.0
  0
LINE
  5
2E0
  8
0
  6
CONTINUOUS
 62
     7
 10
6.3988914049999988
 20
10.758210186499999
 30
0.0
 11
6.3988914049999988
 21
10.8198601859
 31
0.0
  0
LINE
  5
2E1
  8
0
  6
CONTINUOUS
 62
     2
 10
6.4112926541999986
 20
17.784303367700002
 30
0.0
 11
6.4112926541999986
 21
17.563919608100001
 31
0.0
  0
LINE
  5
2E2
  8
0
  6
CONTINUOUS
 62
     2
 10
6.4112926541999986
 20
17.426714328199999
 30
0.0
 11
6.4112926541999986
 21
17.198389718399991
 31
0.0
  0
LINE
  5
2E3
  8
0
  6
CONTINUOUS
 62
     2
 10
6.5760263340999989
 20
17.784303367700002
 30
0.0
 11
6.5760263340999989
 21
17.198389718399991
 31
0.0
  0
LINE
  5
2E4
  8
0
  6
CONTINUOUS
 62
     2
 10
6.6210711783000002
 20
17.198389718399991
 30
0.0
 11
6.6210711783000002
 21
17.784303367700002
 31
0.0
  0
LINE
  5
2E5
  8
0
  6
CONTINUOUS
 62
     2
 10
6.7711172409999998
 20
17.784303367700002
 30
0.0
 11
6.7711172409999998
 21
17.339616475500002
 31
0.0
  0
LINE
  5
2E6
  8
0
  6
CONTINUOUS
 62
     2
 10
6.933801310999999
 20
17.339616475500002
 30
0.0
 11
6.933801310999999
 21
17.198389718399991
 31
0.0
  0
LINE
  5
2E7
  8
0
  6
CONTINUOUS
 62
     2
 10
6.9629490495999997
 20
17.198389718399991
 30
0.0
 11
6.9629490495999997
 21
17.784303367700002
 31
0.0
  0
LINE
  5
2E8
  8
0
  6
CONTINUOUS
 62
     2
 10
7.1211957015999987
 20
17.64154397099999
 30
0.0
 11
7.1211957015999987
 21
17.563919608100001
 31
0.0
  0
LINE
  5
2E9
  8
0
  6
CONTINUOUS
 62
     2
 10
7.1211957015999987
 20
17.419538006500002
 30
0.0
 11
7.1211957015999987
 21
17.339616475500002
 31
0.0
  0
LINE
  5
2EA
  8
0
  6
CONTINUOUS
 62
     7
 10
7.2079463970999997
 20
10.286625191100001
 30
0.0
 11
7.2079463970999997
 21
10.164990192299999
 31
0.0
  0
LINE
  5
2EB
  8
0
  6
CONTINUOUS
 62
     7
 10
7.2079463970999997
 20
9.9133576948000002
 30
0.0
 11
7.2079463970999997
 21
9.8783776950999993
 31
0.0
  0
LINE
  5
2EC
  8
0
  6
CONTINUOUS
 62
     7
 10
7.2545963966999993
 20
10.8198601859
 30
0.0
 11
7.2545963966999993
 21
10.758210186499999
 31
0.0
  0
LINE
  5
2ED
  8
0
  6
CONTINUOUS
 62
     7
 10
7.2545963966999993
 20
10.7198776869
 30
0.0
 11
7.2545963966999993
 21
10.6582276875
 31
0.0
  0
LINE
  5
2EE
  8
0
  6
CONTINUOUS
 62
     7
 10
7.2545963966999993
 20
10.619895187899999
 30
0.0
 11
7.2545963966999993
 21
10.5582526885
 31
0.0
  0
LINE
  5
2EF
  8
0
  6
CONTINUOUS
 62
     7
 10
7.2545963966999993
 20
10.5199126888
 30
0.0
 11
7.2545963966999993
 21
10.4582701894
 31
0.0
  0
LINE
  5
2F0
  8
0
  6
CONTINUOUS
 62
     7
 10
7.2545963966999993
 20
10.393275190100001
 30
0.0
 11
7.2545963966999993
 21
10.331625190700001
 31
0.0
  0
LINE
  5
2F1
  8
0
  6
CONTINUOUS
 62
     2
 10
7.2720532249999987
 20
17.198389718399991
 30
0.0
 11
7.2720532249999987
 21
17.339616475500002
 31
0.0
  0
LINE
  5
2F2
  8
0
  6
CONTINUOUS
 62
     2
 10
7.2720532249999987
 20
17.419538006500002
 30
0.0
 11
7.2720532249999987
 21
17.563919608100001
 31
0.0
  0
LINE
  5
2F3
  8
0
  6
CONTINUOUS
 62
     2
 10
7.2720532249999987
 20
17.64154397099999
 30
0.0
 11
7.2720532249999987
 21
17.784303367700002
 31
0.0
  0
LINE
  5
2F4
  8
0
  6
CONTINUOUS
 62
     2
 10
7.3168734397000001
 20
17.198389718399991
 30
0.0
 11
7.3168734397000001
 21
17.784303367700002
 31
0.0
  0
LINE
  5
2F5
  8
0
  6
CONTINUOUS
 62
     2
 10
7.4675292623000002
 20
17.641724534400002
 30
0.0
 11
7.4675292623000002
 21
17.534621399900001
 31
0.0
  0
LINE
  5
2F6
  8
0
  6
CONTINUOUS
 62
     2
 10
7.4675292623000002
 20
17.3953460892
 30
0.0
 11
7.4675292623000002
 21
17.198389718399991
 31
0.0
  0
LINE
  5
2F7
  8
0
  6
CONTINUOUS
 62
     2
 10
7.9071876061999991
 20
17.165549027600001
 30
0.0
 11
7.9071876061999991
 21
17.231515226500001
 31
0.0
  0
LINE
  5
2F8
  8
0
  6
CONTINUOUS
 62
     7
 10
7.940448889999999
 20
10.164990192299999
 30
0.0
 11
7.940448889999999
 21
10.286625191100001
 31
0.0
  0
LINE
  5
2F9
  8
0
  6
CONTINUOUS
 62
     7
 10
8.2834013865999996
 20
10.286625191100001
 30
0.0
 11
8.2834013865999996
 21
10.164990192299999
 31
0.0
  0
LINE
  5
2FA
  8
0
  6
CONTINUOUS
 62
     7
 10
8.4885863845999996
 20
10.847985185600001
 30
0.0
 11
8.4885863845999996
 21
9.8549551953000005
 31
0.0
  0
LINE
  5
2FB
  8
0
  6
CONTINUOUS
 62
     7
 10
8.5227413842999997
 20
10.880445185299999
 30
0.0
 11
8.5227413842999997
 21
9.7875376960000011
 31
0.0
  0
LINE
  5
2FC
  8
0
  6
CONTINUOUS
 62
     2
 10
5.3905890666999987
 20
17.198389718399991
 30
0.0
 11
5.2368511266000004
 21
17.399889552400001
 31
0.0
  0
LINE
  5
2FD
  8
0
  6
CONTINUOUS
 62
     2
 10
5.6068814882
 20
17.198389718399991
 30
0.0
 11
5.3533736535000003
 21
17.5306550948
 31
0.0
  0
LINE
  5
2FE
  8
0
  6
CONTINUOUS
 62
     2
 10
7.5923526913999986
 20
17.198389718399991
 30
0.0
 11
7.4675292623000002
 21
17.3953460892
 31
0.0
  0
LINE
  5
2FF
  8
DEFAULT_3
  6
PHANTOM
 62
     8
 10
13.167381709800001
 20
4.8784293471999991
 30
0.0
 11
13.167381709800001
 21
6.6404016291999994
 31
0.0
  0
LINE
  5
300
  8
DEFAULT_3
  6
PHANTOM
 62
     8
 10
13.167569693900001
 20
17.912904016799999
 30
0.0
 11
13.167569693900001
 21
18.970876274799998
 31
0.0
  0
LINE
  5
301
  8
0
  6
CONTINUOUS
 62
     2
 10
7.7823036310000004
 20
17.198389718399991
 30
0.0
 11
7.6228603879999994
 21
17.449972259700001
 31
0.0
  0
LINE
  5
302
  8
0
  6
CONTINUOUS
 62
     7
 10
8.5227413842999997
 20
9.7875376960000011
 30
0.0
 11
6.2701764063000001
 21
9.7875376960000011
 31
0.0
  0
LINE
  5
303
  8
0
  6
CONTINUOUS
 62
     7
 10
8.4885863845999996
 20
9.8549551953000005
 30
0.0
 11
6.3035439059999989
 21
9.8549551953000005
 31
0.0
  0
LINE
  5
304
  8
0
  6
CONTINUOUS
 62
     7
 10
7.2079463970999997
 20
9.8783776950999993
 30
0.0
 11
6.3522414054999992
 21
9.8783776950999993
 31
0.0
  0
LINE
  5
305
  8
0
  6
CONTINUOUS
 62
     7
 10
6.3522414054999992
 20
9.9133576948000002
 30
0.0
 11
7.2079463970999997
 21
9.9133576948000002
 31
0.0
  0
LINE
  5
306
  8
0
  6
CONTINUOUS
 62
     2
 10
7.9187855823999991
 20
17.197851968999998
 30
0.0
 11
7.9506535950999986
 21
17.165549027600001
 31
0.0
  0
LINE
  5
307
  8
0
  6
CONTINUOUS
 62
     7
 10
8.2834013865999996
 20
10.164990192299999
 30
0.0
 11
7.940448889999999
 21
10.164990192299999
 31
0.0
  0
LINE
  5
308
  8
0
  6
CONTINUOUS
 62
     7
 10
7.2079463970999997
 20
10.164990192299999
 30
0.0
 11
6.3522414054999992
 21
10.164990192299999
 31
0.0
  0
LINE
  5
309
  8
0
  6
CONTINUOUS
 62
     7
 10
6.3522414054999992
 20
10.286625191100001
 30
0.0
 11
7.2079463970999997
 21
10.286625191100001
 31
0.0
  0
LINE
  5
30A
  8
0
  6
CONTINUOUS
 62
     7
 10
7.940448889999999
 20
10.286625191100001
 30
0.0
 11
8.2834013865999996
 21
10.286625191100001
 31
0.0
  0
LINE
  5
30B
  8
0
  6
CONTINUOUS
 62
     7
 10
7.2545963966999993
 20
10.331625190700001
 30
0.0
 11
6.3988914049999988
 21
10.331625190700001
 31
0.0
  0
LINE
  5
30C
  8
0
  6
CONTINUOUS
 62
     7
 10
6.3988914049999988
 20
10.393275190100001
 30
0.0
 11
7.2545963966999993
 21
10.393275190100001
 31
0.0
  0
LINE
  5
30D
  8
0
  6
CONTINUOUS
 62
     7
 10
7.2545963966999993
 20
10.4582701894
 30
0.0
 11
6.3988914049999988
 21
10.4582701894
 31
0.0
  0
LINE
  5
30E
  8
0
  6
CONTINUOUS
 62
     7
 10
6.3988914049999988
 20
10.5199126888
 30
0.0
 11
7.2545963966999993
 21
10.5199126888
 31
0.0
  0
LINE
  5
30F
  8
0
  6
CONTINUOUS
 62
     7
 10
7.2545963966999993
 20
10.5582526885
 30
0.0
 11
6.3988914049999988
 21
10.5582526885
 31
0.0
  0
LINE
  5
310
  8
0
  6
CONTINUOUS
 62
     7
 10
6.3988914049999988
 20
10.619895187899999
 30
0.0
 11
7.2545963966999993
 21
10.619895187899999
 31
0.0
  0
LINE
  5
311
  8
0
  6
CONTINUOUS
 62
     7
 10
7.2545963966999993
 20
10.6582276875
 30
0.0
 11
6.3988914049999988
 21
10.6582276875
 31
0.0
  0
LINE
  5
312
  8
0
  6
CONTINUOUS
 62
     7
 10
6.3988914049999988
 20
10.7198776869
 30
0.0
 11
7.2545963966999993
 21
10.7198776869
 31
0.0
  0
LINE
  5
313
  8
0
  6
CONTINUOUS
 62
     7
 10
7.2545963966999993
 20
10.758210186499999
 30
0.0
 11
6.3988914049999988
 21
10.758210186499999
 31
0.0
  0
LINE
  5
314
  8
0
  6
CONTINUOUS
 62
     7
 10
6.3988914049999988
 20
10.8198601859
 30
0.0
 11
7.2545963966999993
 21
10.8198601859
 31
0.0
  0
LINE
  5
315
  8
0
  6
CONTINUOUS
 62
     7
 10
6.3035439059999989
 20
10.847985185600001
 30
0.0
 11
8.4885863845999996
 21
10.847985185600001
 31
0.0
  0
LINE
  5
316
  8
0
  6
CONTINUOUS
 62
     7
 10
6.2701764063000001
 20
10.880445185299999
 30
0.0
 11
8.5227413842999997
 21
10.880445185299999
 31
0.0
  0
LINE
  5
317
  8
DEFAULT_3
  6
PHANTOM
 62
     8
 10
3.8984279889999991
 20
12.217127943099999
 30
0.0
 11
5.6604002710000003
 21
12.217127943099999
 31
0.0
  0
LINE
  5
318
  8
DEFAULT_3
  6
PHANTOM
 62
     8
 10
20.960881866200001
 20
12.2199878154
 30
0.0
 11
22.480258385599999
 21
12.2199878154
 31
0.0
  0
POLYLINE
  5
319
  8
0
  6
CONTINUOUS
 62
     7
 66
     1
 10
0.0
 20
0.0
 30
0.0
  0
VERTEX
  5
3BE
  8
0
  6
CONTINUOUS
 62
     7
 10
7.0739513504999989
 20
10.125135312899999
 30
0.0
  0
VERTEX
  5
3BF
  8
0
  6
CONTINUOUS
 62
     7
 10
7.0687637419999998
 20
10.1237346603
 30
0.0
  0
VERTEX
  5
3C0
  8
0
  6
CONTINUOUS
 62
     7
 10
7.0636785922999996
 20
10.1219984504
 30
0.0
  0
VERTEX
  5
3C1
  8
0
  6
CONTINUOUS
 62
     7
 10
7.058717582199999
 20
10.119934085600001
 30
0.0
  0
VERTEX
  5
3C2
  8
0
  6
CONTINUOUS
 62
     7
 10
7.0539018628999992
 20
10.1175503675
 30
0.0
  0
VERTEX
  5
3C3
  8
0
  6
CONTINUOUS
 62
     7
 10
7.0492519666999991
 20
10.1148574591
 30
0.0
  0
VERTEX
  5
3C4
  8
0
  6
CONTINUOUS
 62
     7
 10
7.0447877183000003
 20
10.1118668418
 30
0.0
  0
VERTEX
  5
3C5
  8
0
  6
CONTINUOUS
 62
     7
 10
7.0405281514000002
 20
10.108591266099999
 30
0.0
  0
VERTEX
  5
3C6
  8
0
  6
CONTINUOUS
 62
     7
 10
7.0364914266999987
 20
10.1050446976
 30
0.0
  0
VERTEX
  5
3C7
  8
0
  6
CONTINUOUS
 62
     7
 10
7.0326947549999987
 20
10.101242257199999
 30
0.0
  0
VERTEX
  5
3C8
  8
0
  6
CONTINUOUS
 62
     7
 10
7.0291543236000003
 20
10.0972001567
 30
0.0
  0
VERTEX
  5
3C9
  8
0
  6
CONTINUOUS
 62
     7
 10
7.0258852270999999
 20
10.092935629799999
 30
0.0
  0
VERTEX
  5
3CA
  8
0
  6
CONTINUOUS
 62
     7
 10
7.0229014034999997
 20
10.0884668585
 30
0.0
  0
VERTEX
  5
3CB
  8
0
  6
CONTINUOUS
 62
     7
 10
7.0202155743999999
 20
10.083812895499999
 30
0.0
  0
VERTEX
  5
3CC
  8
0
  6
CONTINUOUS
 62
     7
 10
7.0178391910000002
 20
10.078993583100001
 30
0.0
  0
VERTEX
  5
3CD
  8
0
  6
CONTINUOUS
 62
     7
 10
7.0157823849999987
 20
10.074029468799999
 30
0.0
  0
VERTEX
  5
3CE
  8
0
  6
CONTINUOUS
 62
     7
 10
7.0140539257999999
 20
10.0689417171
 30
0.0
  0
VERTEX
  5
3CF
  8
0
  6
CONTINUOUS
 62
     7
 10
7.0126611826999987
 20
10.063752019900001
 30
0.0
  0
VERTEX
  5
3D0
  8
0
  6
CONTINUOUS
 62
     7
 10
7.011610093599999
 20
10.058482503600001
 30
0.0
  0
VERTEX
  5
3D1
  8
0
  6
CONTINUOUS
 62
     7
 10
7.0109051400000002
 20
10.0531556351
 30
0.0
  0
VERTEX
  5
3D2
  8
0
  6
CONTINUOUS
 62
     7
 10
7.0105493273999988
 20
10.047794125499999
 30
0.0
  0
VERTEX
  5
3D3
  8
0
  6
CONTINUOUS
 62
     7
 10
7.0105441728999986
 20
10.042420834
 30
0.0
  0
VERTEX
  5
3D4
  8
0
  6
CONTINUOUS
 62
     7
 10
7.0108896984999998
 20
10.0370586697
 30
0.0
  0
VERTEX
  5
3D5
  8
0
  6
CONTINUOUS
 62
     7
 10
7.0115844309000002
 20
10.0317304944
 30
0.0
  0
VERTEX
  5
3D6
  8
0
  6
CONTINUOUS
 62
     7
 10
7.012625408099999
 20
10.026459024999999
 30
0.0
  0
VERTEX
  5
3D7
  8
0
  6
CONTINUOUS
 62
     7
 10
7.0140081920000004
 20
10.021266736599999
 30
0.0
  0
VERTEX
  5
3D8
  8
0
  6
CONTINUOUS
 62
     7
 10
7.0157268868999996
 20
10.0161757666
 30
0.0
  0
VERTEX
  5
3D9
  8
0
  6
CONTINUOUS
 62
     7
 10
7.0177741651999987
 20
10.011207820799999
 30
0.0
  0
VERTEX
  5
3DA
  8
0
  6
CONTINUOUS
 62
     7
 10
7.0201412982000004
 20
10.0063840799
 30
0.0
  0
VERTEX
  5
3DB
  8
0
  6
CONTINUOUS
 62
     7
 10
7.0228181935
 20
10.001725110300001
 30
0.0
  0
VERTEX
  5
3DC
  8
0
  6
CONTINUOUS
 62
     7
 10
7.0257934380999991
 20
9.9972507757000013
 30
0.0
  0
VERTEX
  5
3DD
  8
0
  6
CONTINUOUS
 62
     7
 10
7.0290543469999998
 20
9.9929801524999995
 30
0.0
  0
VERTEX
  5
3DE
  8
0
  6
CONTINUOUS
 62
     7
 10
7.0325870171
 20
9.9889314486000007
 30
0.0
  0
VERTEX
  5
3DF
  8
0
  6
CONTINUOUS
 62
     7
 10
7.0363763866999989
 20
9.9851219258999997
 30
0.0
  0
VERTEX
  5
3E0
  8
0
  6
CONTINUOUS
 62
     7
 10
7.040406299799999
 20
9.9815678264999992
 30
0.0
  0
VERTEX
  5
3E1
  8
0
  6
CONTINUOUS
 62
     7
 10
7.0446595746999998
 20
9.9782843033000006
 30
0.0
  0
VERTEX
  5
3E2
  8
0
  6
CONTINUOUS
 62
     7
 10
7.0491180774000002
 20
9.9752853558000005
 30
0.0
  0
VERTEX
  5
3E3
  8
0
  6
CONTINUOUS
 62
     7
 10
7.0537627988000002
 20
9.9725837699999982
 30
0.0
  0
VERTEX
  5
3E4
  8
0
  6
CONTINUOUS
 62
     7
 10
7.0585739361000002
 20
9.9701910643999998
 30
0.0
  0
VERTEX
  5
3E5
  8
0
  6
CONTINUOUS
 62
     7
 10
7.0635309767999992
 20
9.9681174402000003
 30
0.0
  0
VERTEX
  5
3E6
  8
0
  6
CONTINUOUS
 62
     7
 10
7.0686127863000001
 20
9.9663717385999995
 30
0.0
  0
VERTEX
  5
3E7
  8
0
  6
CONTINUOUS
 62
     7
 10
7.0737976981999999
 20
9.9649614022000002
 30
0.0
  0
VERTEX
  5
3E8
  8
0
  6
CONTINUOUS
 62
     7
 10
7.0790636064000001
 20
9.9638924441999972
 30
0.0
  0
VERTEX
  5
3E9
  8
0
  6
CONTINUOUS
 62
     7
 10
7.0843880596000002
 20
9.9631694221
 30
0.0
  0
VERTEX
  5
3EA
  8
0
  6
CONTINUOUS
 62
     7
 10
7.0897483566999986
 20
9.9627954185000007
 30
0.0
  0
VERTEX
  5
3EB
  8
0
  6
CONTINUOUS
 62
     7
 10
7.0951216438999989
 20
9.9627720279999998
 30
0.0
  0
VERTEX
  5
3EC
  8
0
  6
CONTINUOUS
 62
     7
 10
7.100485012
 20
9.9630993503000003
 30
0.0
  0
VERTEX
  5
3ED
  8
0
  6
CONTINUOUS
 62
     7
 10
7.1058155941000001
 20
9.9637759899000002
 30
0.0
  0
VERTEX
  5
3EE
  8
0
  6
CONTINUOUS
 62
     7
 10
7.1110906630999988
 20
9.9647990619000009
 30
0.0
  0
VERTEX
  5
3EF
  8
0
  6
CONTINUOUS
 62
     7
 10
7.1162877283999997
 20
9.9661642043000001
 30
0.0
  0
VERTEX
  5
3F0
  8
0
  6
CONTINUOUS
 62
     7
 10
7.121384632299999
 20
9.9678655970000012
 30
0.0
  0
VERTEX
  5
3F1
  8
0
  6
CONTINUOUS
 62
     7
 10
7.126359643899999
 20
9.9698959857999991
 30
0.0
  0
VERTEX
  5
3F2
  8
0
  6
CONTINUOUS
 62
     7
 10
7.1311915519999998
 20
9.9722467141999989
 30
0.0
  0
VERTEX
  5
3F3
  8
0
  6
CONTINUOUS
 62
     7
 10
7.1358597555999994
 20
9.9749077598000007
 30
0.0
  0
VERTEX
  5
3F4
  8
0
  6
CONTINUOUS
 62
     7
 10
7.1403443516999987
 20
9.9778677770000002
 30
0.0
  0
VERTEX
  5
3F5
  8
0
  6
CONTINUOUS
 62
     7
 10
7.1446262201000001
 20
9.9811141458000012
 30
0.0
  0
VERTEX
  5
3F6
  8
0
  6
CONTINUOUS
 62
     7
 10
7.1486871047999996
 20
9.9846330250999991
 30
0.0
  0
VERTEX
  5
3F7
  8
0
  6
CONTINUOUS
 62
     7
 10
7.1525096920999998
 20
9.9884094121000011
 30
0.0
  0
VERTEX
  5
3F8
  8
0
  6
CONTINUOUS
 62
     7
 10
7.1560776841999987
 20
9.9924272060000003
 30
0.0
  0
VERTEX
  5
3F9
  8
0
  6
CONTINUOUS
 62
     7
 10
7.1593758689999989
 20
9.9966692767999987
 30
0.0
  0
VERTEX
  5
3FA
  8
0
  6
CONTINUOUS
 62
     7
 10
7.1623901844000004
 20
10.001117538200001
 30
0.0
  0
VERTEX
  5
3FB
  8
0
  6
CONTINUOUS
 62
     7
 10
7.1651077788000004
 20
10.005753025000001
 30
0.0
  0
VERTEX
  5
3FC
  8
0
  6
CONTINUOUS
 62
     7
 10
7.1675170657000002
 20
10.010555973600001
 30
0.0
  0
VERTEX
  5
3FD
  8
0
  6
CONTINUOUS
 62
     7
 10
7.1696077729999992
 20
10.0155059064
 30
0.0
  0
VERTEX
  5
3FE
  8
0
  6
CONTINUOUS
 62
     7
 10
7.1713709869000004
 20
10.020581719200001
 30
0.0
  0
VERTEX
  5
3FF
  8
0
  6
CONTINUOUS
 62
     7
 10
7.1727991898000001
 20
10.025761771100001
 30
0.0
  0
VERTEX
  5
400
  8
0
  6
CONTINUOUS
 62
     7
 10
7.1738862924999989
 20
10.0310239767
 30
0.0
  0
VERTEX
  5
401
  8
0
  6
CONTINUOUS
 62
     7
 10
7.1746276601999988
 20
10.036345900500001
 30
0.0
  0
VERTEX
  5
402
  8
0
  6
CONTINUOUS
 62
     7
 10
7.1750201320000002
 20
10.041704852200001
 30
0.0
  0
VERTEX
  5
403
  8
0
  6
CONTINUOUS
 62
     7
 10
7.1750620344999998
 20
10.0470779838
 30
0.0
  0
VERTEX
  5
404
  8
0
  6
CONTINUOUS
 62
     7
 10
7.1747531891999987
 20
10.052442386599999
 30
0.0
  0
VERTEX
  5
405
  8
0
  6
CONTINUOUS
 62
     7
 10
7.1740949127999993
 20
10.057775189499999
 30
0.0
  0
VERTEX
  5
406
  8
0
  6
CONTINUOUS
 62
     7
 10
7.1730900119000003
 20
10.063053655699999
 30
0.0
  0
VERTEX
  5
407
  8
0
  6
CONTINUOUS
 62
     7
 10
7.171742770899999
 20
10.068255280400001
 30
0.0
  0
VERTEX
  5
408
  8
0
  6
CONTINUOUS
 62
     7
 10
7.1700589338
 20
10.0733578862
 30
0.0
  0
VERTEX
  5
409
  8
0
  6
CONTINUOUS
 62
     7
 10
7.1680456797999996
 20
10.0783397179
 30
0.0
  0
VERTEX
  5
40A
  8
0
  6
CONTINUOUS
 62
     7
 10
7.1657115924000001
 20
10.083179535499999
 30
0.0
  0
VERTEX
  5
40B
  8
0
  6
CONTINUOUS
 62
     7
 10
7.1630666229999989
 20
10.087856704
 30
0.0
  0
VERTEX
  5
40C
  8
0
  6
CONTINUOUS
 62
     7
 10
7.160122048699999
 20
10.092351282299999
 30
0.0
  0
VERTEX
  5
40D
  8
0
  6
CONTINUOUS
 62
     7
 10
7.1568904236000002
 20
10.0966441075
 30
0.0
  0
VERTEX
  5
40E
  8
0
  6
CONTINUOUS
 62
     7
 10
7.1533855260000001
 20
10.1007168771
 30
0.0
  0
VERTEX
  5
40F
  8
0
  6
CONTINUOUS
 62
     7
 10
7.1496222990999989
 20
10.104552226599999
 30
0.0
  0
VERTEX
  5
410
  8
0
  6
CONTINUOUS
 62
     7
 10
7.145616787599999
 20
10.108133803799999
 30
0.0
  0
VERTEX
  5
411
  8
0
  6
CONTINUOUS
 62
     7
 10
7.1413860690999993
 20
10.1114463386
 30
0.0
  0
VERTEX
  5
412
  8
0
  6
CONTINUOUS
 62
     7
 10
7.1369481814000002
 20
10.114475708000001
 30
0.0
  0
VERTEX
  5
413
  8
0
  6
CONTINUOUS
 62
     7
 10
7.1323220456999996
 20
10.1172089959
 30
0.0
  0
VERTEX
  5
414
  8
0
  6
CONTINUOUS
 62
     7
 10
7.1275273855999988
 20
10.119634549000001
 30
0.0
  0
VERTEX
  5
415
  8
0
  6
CONTINUOUS
 62
     7
 10
7.1225846432999997
 20
10.1217420259
 30
0.0
  0
VERTEX
  5
416
  8
0
  6
CONTINUOUS
 62
     7
 10
7.1175148925
 20
10.1235224412
 30
0.0
  0
VERTEX
  5
417
  8
0
  6
CONTINUOUS
 62
     7
 10
7.1123397480999992
 20
10.1249682041
 30
0.0
  0
VERTEX
  5
418
  8
0
  6
CONTINUOUS
 62
     7
 10
7.1070812744999996
 20
10.1260731504
 30
0.0
  0
VERTEX
  5
419
  8
0
  6
CONTINUOUS
 62
     7
 10
7.1017618915999989
 20
10.126832569299999
 30
0.0
  0
VERTEX
  5
41A
  8
0
  6
CONTINUOUS
 62
     7
 10
7.0964042785999997
 20
10.127243222900001
 30
0.0
  0
VERTEX
  5
41B
  8
0
  6
CONTINUOUS
 62
     7
 10
7.0910312779999991
 20
10.127303360399999
 30
0.0
  0
VERTEX
  5
41C
  8
0
  6
CONTINUOUS
 62
     7
 10
7.085665797699999
 20
10.1270127254
 30
0.0
  0
VERTEX
  5
41D
  8
0
  6
CONTINUOUS
 62
     7
 10
7.0803307136000004
 20
10.126372557
 30
0.0
  0
VERTEX
  5
41E
  8
0
  6
CONTINUOUS
 62
     7
 10
7.0750487720999997
 20
10.1253855846
 30
0.0
  0
SEQEND
  5
41F
  8
0
  6
CONTINUOUS
 62
     7
  0
LINE
  5
31A
  8
0
  6
CONTINUOUS
 62
     2
 10
5.2368511266000004
 20
17.198389718399991
 30
0.0
 11
5.0623508996000002
 21
17.1983657149
 31
0.0
  0
LINE
  5
31B
  8
0
  6
CONTINUOUS
 62
     2
 10
7.931466939099999
 20
17.197851968999998
 30
0.0
 11
7.9071876061999991
 21
17.197851968999998
 31
0.0
  0
LINE
  5
31C
  8
0
  6
CONTINUOUS
 62
     2
 10
6.5760263340999989
 20
17.198389718399991
 30
0.0
 11
6.4112926541999986
 21
17.198389718399991
 31
0.0
  0
LINE
  5
31D
  8
0
  6
CONTINUOUS
 62
     2
 10
6.263295843099999
 20
17.198389718399991
 30
0.0
 11
6.0985621632000004
 21
17.198389718399991
 31
0.0
  0
LINE
  5
31E
  8
0
  6
CONTINUOUS
 62
     2
 10
5.3905890666999987
 20
17.198389718399991
 30
0.0
 11
5.6068814882
 21
17.198389718399991
 31
0.0
  0
LINE
  5
31F
  8
0
  6
CONTINUOUS
 62
     2
 10
6.6210711783000002
 20
17.198389718399991
 30
0.0
 11
6.933801310999999
 21
17.198389718399991
 31
0.0
  0
LINE
  5
320
  8
0
  6
CONTINUOUS
 62
     2
 10
6.9629490495999997
 20
17.198389718399991
 30
0.0
 11
7.2720532249999987
 21
17.198389718399991
 31
0.0
  0
LINE
  5
321
  8
0
  6
CONTINUOUS
 62
     2
 10
7.3168734397000001
 20
17.198389718399991
 30
0.0
 11
7.4675292623000002
 21
17.198389718399991
 31
0.0
  0
LINE
  5
322
  8
0
  6
CONTINUOUS
 62
     2
 10
7.5923526913999986
 20
17.198389718399991
 30
0.0
 11
7.7823036310000004
 21
17.198389718399991
 31
0.0
  0
LINE
  5
323
  8
0
  6
CONTINUOUS
 62
     2
 10
7.9071876061999991
 20
17.231515226500001
 30
0.0
 11
7.931466939099999
 21
17.231515226500001
 31
0.0
  0
LINE
  5
324
  8
0
  6
CONTINUOUS
 62
     2
 10
6.7711172409999998
 20
17.339616475500002
 30
0.0
 11
6.933801310999999
 21
17.339616475500002
 31
0.0
  0
LINE
  5
325
  8
0
  6
CONTINUOUS
 62
     2
 10
7.1211957015999987
 20
17.339616475500002
 30
0.0
 11
7.2720532249999987
 21
17.339616475500002
 31
0.0
  0
LINE
  5
326
  8
0
  6
CONTINUOUS
 62
     2
 10
7.1211957015999987
 20
17.419538006500002
 30
0.0
 11
7.2720532249999987
 21
17.419538006500002
 31
0.0
  0
LINE
  5
327
  8
0
  6
CONTINUOUS
 62
     2
 10
6.263295843099999
 20
17.426714328199999
 30
0.0
 11
6.4112926541999986
 21
17.426714328199999
 31
0.0
  0
LINE
  5
328
  8
0
  6
CONTINUOUS
 62
     2
 10
7.4675292623000002
 20
17.534621399900001
 30
0.0
 11
7.5198690124000001
 21
17.534621399900001
 31
0.0
  0
LINE
  5
329
  8
0
  6
CONTINUOUS
 62
     2
 10
6.263295843099999
 20
17.563919608100001
 30
0.0
 11
6.4112926541999986
 21
17.563919608100001
 31
0.0
  0
LINE
  5
32A
  8
0
  6
CONTINUOUS
 62
     2
 10
7.1211957015999987
 20
17.563919608100001
 30
0.0
 11
7.2720532249999987
 21
17.563919608100001
 31
0.0
  0
LINE
  5
32B
  8
0
  6
CONTINUOUS
 62
     2
 10
7.1211957015999987
 20
17.64154397099999
 30
0.0
 11
7.2720532249999987
 21
17.64154397099999
 31
0.0
  0
LINE
  5
32C
  8
0
  6
CONTINUOUS
 62
     2
 10
7.5234591437000002
 20
17.641724534400002
 30
0.0
 11
7.4675292623000002
 21
17.641724534400002
 31
0.0
  0
LINE
  5
32D
  8
0
  6
CONTINUOUS
 62
     2
 10
5.0623508996000002
 20
17.784303367700002
 30
0.0
 11
5.2368511266000004
 21
17.784303367700002
 31
0.0
  0
LINE
  5
32E
  8
0
  6
CONTINUOUS
 62
     2
 10
5.3746152932999998
 20
17.784303367700002
 30
0.0
 11
5.5666771053999993
 21
17.784303367700002
 31
0.0
  0
LINE
  5
32F
  8
0
  6
CONTINUOUS
 62
     2
 10
6.0985621632000004
 20
17.784303367700002
 30
0.0
 11
6.263295843099999
 21
17.784303367700002
 31
0.0
  0
LINE
  5
330
  8
0
  6
CONTINUOUS
 62
     2
 10
6.4112926541999986
 20
17.784303367700002
 30
0.0
 11
6.5760263340999989
 21
17.784303367700002
 31
0.0
  0
LINE
  5
331
  8
0
  6
CONTINUOUS
 62
     2
 10
6.6210711783000002
 20
17.784303367700002
 30
0.0
 11
6.7711172409999998
 21
17.784303367700002
 31
0.0
  0
LINE
  5
332
  8
0
  6
CONTINUOUS
 62
     2
 10
6.9629490495999997
 20
17.784303367700002
 30
0.0
 11
7.2720532249999987
 21
17.784303367700002
 31
0.0
  0
LINE
  5
333
  8
0
  6
CONTINUOUS
 62
     2
 10
7.3168734397000001
 20
17.784303367700002
 30
0.0
 11
7.5504211403999992
 21
17.784303367700002
 31
0.0
  0
POLYLINE
  5
334
  8
__REF_CURVE
 66
     1
 10
0.0
 20
0.0
 30
0.0
  0
VERTEX
  5
420
  8
__REF_CURVE
 10
3.3647180245999988
 20
5.6766031568999997
 30
0.0
  0
VERTEX
  5
421
  8
__REF_CURVE
 10
3.3647645585000001
 20
5.6733793622000004
 30
0.0
  0
VERTEX
  5
422
  8
__REF_CURVE
 10
3.3648977922999999
 20
5.6701567275000002
 30
0.0
  0
VERTEX
  5
423
  8
__REF_CURVE
 10
3.365117560099999
 20
5.6669380052999987
 30
0.0
  0
VERTEX
  5
424
  8
__REF_CURVE
 10
3.3654236958999988
 20
5.6637259480999989
 30
0.0
  0
VERTEX
  5
425
  8
__REF_CURVE
 10
3.365816033999999
 20
5.6605233083000002
 30
0.0
  0
VERTEX
  5
426
  8
__REF_CURVE
 10
3.3662944945999991
 20
5.6573319009
 30
0.0
  0
VERTEX
  5
427
  8
__REF_CURVE
 10
3.3668585621
 20
5.6541548399000003
 30
0.0
  0
VERTEX
  5
428
  8
__REF_CURVE
 10
3.3675077614999989
 20
5.6509942955999994
 30
0.0
  0
VERTEX
  5
429
  8
__REF_CURVE
 10
3.3682416178999999
 20
5.6478524378999992
 30
0.0
  0
VERTEX
  5
42A
  8
__REF_CURVE
 10
3.3690596563000001
 20
5.6447314369999999
 30
0.0
  0
VERTEX
  5
42B
  8
__REF_CURVE
 10
3.3699614757999989
 20
5.641633067299999
 30
0.0
  0
VERTEX
  5
42C
  8
__REF_CURVE
 10
3.3709462492000002
 20
5.6385599610000003
 30
0.0
  0
VERTEX
  5
42D
  8
__REF_CURVE
 10
3.3720132012000001
 20
5.6355143488000001
 30
0.0
  0
VERTEX
  5
42E
  8
__REF_CURVE
 10
3.373161556499999
 20
5.6324984611999991
 30
0.0
  0
VERTEX
  5
42F
  8
__REF_CURVE
 10
3.3743905399999989
 20
5.6295145286999988
 30
0.0
  0
VERTEX
  5
430
  8
__REF_CURVE
 10
3.375699412099999
 20
5.6265645731999996
 30
0.0
  0
VERTEX
  5
431
  8
__REF_CURVE
 10
3.3770870853999999
 20
5.6236508759000001
 30
0.0
  0
VERTEX
  5
432
  8
__REF_CURVE
 10
3.378552498399999
 20
5.6207755052000001
 30
0.0
  0
VERTEX
  5
433
  8
__REF_CURVE
 10
3.3800945895000001
 20
5.6179405291999993
 30
0.0
  0
VERTEX
  5
434
  8
__REF_CURVE
 10
3.3817122973
 20
5.6151480164000001
 30
0.0
  0
VERTEX
  5
435
  8
__REF_CURVE
 10
3.3834046572999998
 20
5.6123997871000002
 30
0.0
  0
VERTEX
  5
436
  8
__REF_CURVE
 10
3.3851702565999999
 20
5.6096980152999993
 30
0.0
  0
VERTEX
  5
437
  8
__REF_CURVE
 10
3.3870077673000001
 20
5.607044619899999
 30
0.0
  0
VERTEX
  5
438
  8
__REF_CURVE
 10
3.3889158613999988
 20
5.604441519799999
 30
0.0
  0
VERTEX
  5
439
  8
__REF_CURVE
 10
3.390893210899999
 20
5.6018906339000001
 30
0.0
  0
VERTEX
  5
43A
  8
__REF_CURVE
 10
3.3929382579
 20
5.5993940728
 30
0.0
  0
VERTEX
  5
43B
  8
__REF_CURVE
 10
3.3950496463999991
 20
5.5969533570000003
 30
0.0
  0
VERTEX
  5
43C
  8
__REF_CURVE
 10
3.3972258029
 20
5.5945702087000004
 30
0.0
  0
VERTEX
  5
43D
  8
__REF_CURVE
 10
3.3994651539
 20
5.592246349799999
 30
0.0
  0
VERTEX
  5
43E
  8
__REF_CURVE
 10
3.4017661258999992
 20
5.5899835026999991
 30
0.0
  0
VERTEX
  5
43F
  8
__REF_CURVE
 10
3.40412713
 20
5.5877833345000001
 30
0.0
  0
VERTEX
  5
440
  8
__REF_CURVE
 10
3.4065464032000001
 20
5.585647397599999
 30
0.0
  0
VERTEX
  5
441
  8
__REF_CURVE
 10
3.4090221662000002
 20
5.5835771882999996
 30
0.0
  0
VERTEX
  5
442
  8
__REF_CURVE
 10
3.4115526398
 20
5.5815742031999998
 30
0.0
  0
VERTEX
  5
443
  8
__REF_CURVE
 10
3.4141360448000002
 20
5.5796399386999989
 30
0.0
  0
VERTEX
  5
444
  8
__REF_CURVE
 10
3.416770410699999
 20
5.5777759567999992
 30
0.0
  0
VERTEX
  5
445
  8
__REF_CURVE
 10
3.4194539213999988
 20
5.5759834371999997
 30
0.0
  0
VERTEX
  5
446
  8
__REF_CURVE
 10
3.4221845758999989
 20
5.5742636337000002
 30
0.0
  0
VERTEX
  5
447
  8
__REF_CURVE
 10
3.4249603727999989
 20
5.5726177996999997
 30
0.0
  0
VERTEX
  5
448
  8
__REF_CURVE
 10
3.4277793107999992
 20
5.5710471887999988
 30
0.0
  0
VERTEX
  5
449
  8
__REF_CURVE
 10
3.430638979899999
 20
5.5695532095000004
 30
0.0
  0
VERTEX
  5
44A
  8
__REF_CURVE
 10
3.4335377679999999
 20
5.568136632499999
 30
0.0
  0
VERTEX
  5
44B
  8
__REF_CURVE
 10
3.436473665799999
 20
5.5667984051000001
 30
0.0
  0
VERTEX
  5
44C
  8
__REF_CURVE
 10
3.4394446640999998
 20
5.5655394744000004
 30
0.0
  0
VERTEX
  5
44D
  8
__REF_CURVE
 10
3.442448753699999
 20
5.5643607878000001
 30
0.0
  0
VERTEX
  5
44E
  8
__REF_CURVE
 10
3.4454833307999988
 20
5.5632634330999986
 30
0.0
  0
VERTEX
  5
44F
  8
__REF_CURVE
 10
3.448546333199999
 20
5.5622480200000002
 30
0.0
  0
VERTEX
  5
450
  8
__REF_CURVE
 10
3.4516351138000001
 20
5.5613153247999989
 30
0.0
  0
VERTEX
  5
451
  8
__REF_CURVE
 10
3.4547470260000002
 20
5.5604661237000004
 30
0.0
  0
VERTEX
  5
452
  8
__REF_CURVE
 10
3.4578794226999992
 20
5.5597011931999996
 30
0.0
  0
SEQEND
  5
453
  8
__REF_CURVE
  0
LINE
  5
335
  8
__REF_CURVE
 10
3.3647180245999988
 20
5.6766031568999997
 30
0.0
 11
3.3647180245999988
 21
19.585451604199999
 31
0.0
  0
LINE
  5
336
  8
_CURVE
 10
4.4381097779000003
 20
18.3568834939
 30
0.0
 11
4.4381097779000003
 21
6.7028365212000001
 31
0.0
  0
POLYLINE
  5
337
  8
__REF_CURVE
 66
     1
 10
0.0
 20
0.0
 30
0.0
  0
VERTEX
  5
454
  8
__REF_CURVE
 10
22.882883149600001
 20
5.5597011931999996
 30
0.0
  0
VERTEX
  5
455
  8
__REF_CURVE
 10
22.886015546300001
 20
5.5604661237000004
 30
0.0
  0
VERTEX
  5
456
  8
__REF_CURVE
 10
22.889127458499999
 20
5.5613153247999989
 30
0.0
  0
VERTEX
  5
457
  8
__REF_CURVE
 10
22.892216239100001
 20
5.5622480200000002
 30
0.0
  0
VERTEX
  5
458
  8
__REF_CURVE
 10
22.895279241499999
 20
5.5632634330999986
 30
0.0
  0
VERTEX
  5
459
  8
__REF_CURVE
 10
22.898313818599998
 20
5.5643607878000001
 30
0.0
  0
VERTEX
  5
45A
  8
__REF_CURVE
 10
22.901317908199999
 20
5.5655394744000004
 30
0.0
  0
VERTEX
  5
45B
  8
__REF_CURVE
 10
22.9042889065
 20
5.5667984051000001
 30
0.0
  0
VERTEX
  5
45C
  8
__REF_CURVE
 10
22.9072248043
 20
5.568136632499999
 30
0.0
  0
VERTEX
  5
45D
  8
__REF_CURVE
 10
22.910123592400002
 20
5.5695532095000004
 30
0.0
  0
VERTEX
  5
45E
  8
__REF_CURVE
 10
22.912983261499999
 20
5.5710471887999988
 30
0.0
  0
VERTEX
  5
45F
  8
__REF_CURVE
 10
22.9158021995
 20
5.5726177996999997
 30
0.0
  0
VERTEX
  5
460
  8
__REF_CURVE
 10
22.9185779964
 20
5.5742636337000002
 30
0.0
  0
VERTEX
  5
461
  8
__REF_CURVE
 10
22.921308650899999
 20
5.5759834371999997
 30
0.0
  0
VERTEX
  5
462
  8
__REF_CURVE
 10
22.923992161600001
 20
5.5777759567999992
 30
0.0
  0
VERTEX
  5
463
  8
__REF_CURVE
 10
22.926626527500002
 20
5.5796399386999989
 30
0.0
  0
VERTEX
  5
464
  8
__REF_CURVE
 10
22.929209932500001
 20
5.5815742031999998
 30
0.0
  0
VERTEX
  5
465
  8
__REF_CURVE
 10
22.931740406100001
 20
5.5835771882999996
 30
0.0
  0
VERTEX
  5
466
  8
__REF_CURVE
 10
22.934216169100001
 20
5.585647397599999
 30
0.0
  0
VERTEX
  5
467
  8
__REF_CURVE
 10
22.936635442299998
 20
5.5877833345000001
 30
0.0
  0
VERTEX
  5
468
  8
__REF_CURVE
 10
22.938996446400001
 20
5.5899835026999991
 30
0.0
  0
VERTEX
  5
469
  8
__REF_CURVE
 10
22.941297418400001
 20
5.592246349799999
 30
0.0
  0
VERTEX
  5
46A
  8
__REF_CURVE
 10
22.943536769400001
 20
5.5945702087000004
 30
0.0
  0
VERTEX
  5
46B
  8
__REF_CURVE
 10
22.945712925900001
 20
5.5969533570000003
 30
0.0
  0
VERTEX
  5
46C
  8
__REF_CURVE
 10
22.947824314399998
 20
5.5993940728
 30
0.0
  0
VERTEX
  5
46D
  8
__REF_CURVE
 10
22.949869361400001
 20
5.6018906339000001
 30
0.0
  0
VERTEX
  5
46E
  8
__REF_CURVE
 10
22.9518467109
 20
5.604441519799999
 30
0.0
  0
VERTEX
  5
46F
  8
__REF_CURVE
 10
22.953754804999999
 20
5.607044619899999
 30
0.0
  0
VERTEX
  5
470
  8
__REF_CURVE
 10
22.955592315699999
 20
5.6096980152999993
 30
0.0
  0
VERTEX
  5
471
  8
__REF_CURVE
 10
22.957357914999999
 20
5.6123997871000002
 30
0.0
  0
VERTEX
  5
472
  8
__REF_CURVE
 10
22.959050274999999
 20
5.6151480164000001
 30
0.0
  0
VERTEX
  5
473
  8
__REF_CURVE
 10
22.9606679828
 20
5.6179405291999993
 30
0.0
  0
VERTEX
  5
474
  8
__REF_CURVE
 10
22.9622100739
 20
5.6207755052000001
 30
0.0
  0
VERTEX
  5
475
  8
__REF_CURVE
 10
22.963675486900001
 20
5.6236508759000001
 30
0.0
  0
VERTEX
  5
476
  8
__REF_CURVE
 10
22.9650631602
 20
5.6265645731999996
 30
0.0
  0
VERTEX
  5
477
  8
__REF_CURVE
 10
22.966372032300001
 20
5.6295145286999988
 30
0.0
  0
VERTEX
  5
478
  8
__REF_CURVE
 10
22.9676010158
 20
5.6324984611999991
 30
0.0
  0
VERTEX
  5
479
  8
__REF_CURVE
 10
22.96874937110001
 20
5.6355143488000001
 30
0.0
  0
VERTEX
  5
47A
  8
__REF_CURVE
 10
22.969816323100002
 20
5.6385599610000003
 30
0.0
  0
VERTEX
  5
47B
  8
__REF_CURVE
 10
22.970801096500001
 20
5.641633067299999
 30
0.0
  0
VERTEX
  5
47C
  8
__REF_CURVE
 10
22.971702916000002
 20
5.6447314369999999
 30
0.0
  0
VERTEX
  5
47D
  8
__REF_CURVE
 10
22.9725209544
 20
5.6478524378999992
 30
0.0
  0
VERTEX
  5
47E
  8
__REF_CURVE
 10
22.9732548108
 20
5.6509942955999994
 30
0.0
  0
VERTEX
  5
47F
  8
__REF_CURVE
 10
22.973904010199998
 20
5.6541548399000003
 30
0.0
  0
VERTEX
  5
480
  8
__REF_CURVE
 10
22.974468077699999
 20
5.6573319009
 30
0.0
  0
VERTEX
  5
481
  8
__REF_CURVE
 10
22.974946538299999
 20
5.6605233083000002
 30
0.0
  0
VERTEX
  5
482
  8
__REF_CURVE
 10
22.975338876399999
 20
5.6637259480999989
 30
0.0
  0
VERTEX
  5
483
  8
__REF_CURVE
 10
22.975645012200001
 20
5.6669380052999987
 30
0.0
  0
VERTEX
  5
484
  8
__REF_CURVE
 10
22.975864779999998
 20
5.6701567275000002
 30
0.0
  0
VERTEX
  5
485
  8
__REF_CURVE
 10
22.975998013800002
 20
5.6733793622000004
 30
0.0
  0
VERTEX
  5
486
  8
__REF_CURVE
 10
22.976044547699999
 20
5.6766031568999997
 30
0.0
  0
SEQEND
  5
487
  8
__REF_CURVE
  0
POLYLINE
  5
338
  8
__REF_CURVE
 66
     1
 10
0.0
 20
0.0
 30
0.0
  0
VERTEX
  5
488
  8
__REF_CURVE
 10
3.4578794285000001
 20
5.5597011917999994
 30
0.0
  0
VERTEX
  5
489
  8
__REF_CURVE
 10
3.6966990164999989
 20
5.5057286754999986
 30
0.0
  0
VERTEX
  5
48A
  8
__REF_CURVE
 10
3.9358215439999991
 20
5.4531003355999994
 30
0.0
  0
VERTEX
  5
48B
  8
__REF_CURVE
 10
4.1752380240999996
 20
5.4018180058
 30
0.0
  0
VERTEX
  5
48C
  8
__REF_CURVE
 10
4.4149394700000002
 20
5.3518835194000003
 30
0.0
  0
VERTEX
  5
48D
  8
__REF_CURVE
 10
4.6549371613999986
 20
5.303294651899999
 30
0.0
  0
VERTEX
  5
48E
  8
__REF_CURVE
 10
4.8952036396
 20
5.2560570841000001
 30
0.0
  0
VERTEX
  5
48F
  8
__REF_CURVE
 10
5.135731666599999
 20
5.2101722136999991
 30
0.0
  0
VERTEX
  5
490
  8
__REF_CURVE
 10
5.3765140044999997
 20
5.1656414389999989
 30
0.0
  0
VERTEX
  5
491
  8
__REF_CURVE
 10
5.6175557023999989
 20
5.1224639652999988
 30
0.0
  0
VERTEX
  5
492
  8
__REF_CURVE
 10
5.8588367552999987
 20
5.0806434473999991
 30
0.0
  0
VERTEX
  5
493
  8
__REF_CURVE
 10
6.1003494200999988
 20
5.0401812085999991
 30
0.0
  0
VERTEX
  5
494
  8
__REF_CURVE
 10
6.3420859534999989
 20
5.0010785720999991
 30
0.0
  0
VERTEX
  5
495
  8
__REF_CURVE
 10
6.584042823599999
 20
4.9633361858000002
 30
0.0
  0
VERTEX
  5
496
  8
__REF_CURVE
 10
6.8262081815999993
 20
4.926955897
 30
0.0
  0
VERTEX
  5
497
  8
__REF_CURVE
 10
7.0685743824999987
 20
4.8919388303999991
 30
0.0
  0
VERTEX
  5
498
  8
__REF_CURVE
 10
7.3111337813999988
 20
4.8582861108999991
 30
0.0
  0
VERTEX
  5
499
  8
__REF_CURVE
 10
7.5538765045999998
 20
4.8259991245
 30
0.0
  0
VERTEX
  5
49A
  8
__REF_CURVE
 10
7.7967970777999991
 20
4.795078543999999
 30
0.0
  0
VERTEX
  5
49B
  8
__REF_CURVE
 10
8.0398878013000008
 20
4.765525328299999
 30
0.0
  0
VERTEX
  5
49C
  8
__REF_CURVE
 10
8.2831409754000003
 20
4.7373404363000002
 30
0.0
  0
VERTEX
  5
49D
  8
__REF_CURVE
 10
8.5265471298000008
 20
4.7105249875000004
 30
0.0
  0
VERTEX
  5
49E
  8
__REF_CURVE
 10
8.7701003135000004
 20
4.6850795850000004
 30
0.0
  0
VERTEX
  5
49F
  8
__REF_CURVE
 10
9.0137928072999998
 20
4.6610050124000004
 30
0.0
  0
VERTEX
  5
4A0
  8
__REF_CURVE
 10
9.2576168918999997
 20
4.6383020532000003
 30
0.0
  0
VERTEX
  5
4A1
  8
__REF_CURVE
 10
9.5015648129999999
 20
4.6169714653999989
 30
0.0
  0
VERTEX
  5
4A2
  8
__REF_CURVE
 10
9.7456289026
 20
4.597013884499999
 30
0.0
  0
VERTEX
  5
4A3
  8
__REF_CURVE
 10
9.9898014582000005
 20
4.5784299207999988
 30
0.0
  0
VERTEX
  5
4A4
  8
__REF_CURVE
 10
10.2340747768
 20
4.5612201847999989
 30
0.0
  0
VERTEX
  5
4A5
  8
__REF_CURVE
 10
10.478441054799999
 20
4.5453852624999991
 30
0.0
  0
VERTEX
  5
4A6
  8
__REF_CURVE
 10
10.722892549799999
 20
4.5309256130999991
 30
0.0
  0
VERTEX
  5
4A7
  8
__REF_CURVE
 10
10.967421418900001
 20
4.5178416725000003
 30
0.0
  0
VERTEX
  5
4A8
  8
__REF_CURVE
 10
11.2120198189
 20
4.506133876499999
 30
0.0
  0
VERTEX
  5
4A9
  8
__REF_CURVE
 10
11.456679376
 20
4.4958026558999986
 30
0.0
  0
VERTEX
  5
4AA
  8
__REF_CURVE
 10
11.701393251700001
 20
4.4868482713999986
 30
0.0
  0
VERTEX
  5
4AB
  8
__REF_CURVE
 10
11.946154076899999
 20
4.4792709851999986
 30
0.0
  0
VERTEX
  5
4AC
  8
__REF_CURVE
 10
12.1909544825
 20
4.4730710599999988
 30
0.0
  0
VERTEX
  5
4AD
  8
__REF_CURVE
 10
12.435785796099999
 20
4.4682487454000004
 30
0.0
  0
VERTEX
  5
4AE
  8
__REF_CURVE
 10
12.6806401491
 20
4.464804127499999
 30
0.0
  0
VERTEX
  5
4AF
  8
__REF_CURVE
 10
12.925508369699999
 20
4.4627372908999989
 30
0.0
  0
VERTEX
  5
4B0
  8
__REF_CURVE
 10
13.1703812862
 20
4.4620483203000001
 30
0.0
  0
SEQEND
  5
4B1
  8
__REF_CURVE
  0
POLYLINE
  5
339
  8
__REF_CURVE
 66
     1
 10
0.0
 20
0.0
 30
0.0
  0
VERTEX
  5
4B2
  8
__REF_CURVE
 10
13.1703812862
 20
4.4620483203000001
 30
0.0
  0
VERTEX
  5
4B3
  8
__REF_CURVE
 10
13.4152542026
 20
4.4627372908999989
 30
0.0
  0
VERTEX
  5
4B4
  8
__REF_CURVE
 10
13.660122423200001
 20
4.464804127499999
 30
0.0
  0
VERTEX
  5
4B5
  8
__REF_CURVE
 10
13.9049767762
 20
4.4682487454000004
 30
0.0
  0
VERTEX
  5
4B6
  8
__REF_CURVE
 10
14.1498080898
 20
4.4730710599999988
 30
0.0
  0
VERTEX
  5
4B7
  8
__REF_CURVE
 10
14.3946084954
 20
4.4792709851999986
 30
0.0
  0
VERTEX
  5
4B8
  8
__REF_CURVE
 10
14.6393693206
 20
4.4868482713999986
 30
0.0
  0
VERTEX
  5
4B9
  8
__REF_CURVE
 10
14.884083196300001
 20
4.4958026558999986
 30
0.0
  0
VERTEX
  5
4BA
  8
__REF_CURVE
 10
15.128742753399999
 20
4.506133876499999
 30
0.0
  0
VERTEX
  5
4BB
  8
__REF_CURVE
 10
15.3733411534
 20
4.5178416725000003
 30
0.0
  0
VERTEX
  5
4BC
  8
__REF_CURVE
 10
15.6178700225
 20
4.5309256130999991
 30
0.0
  0
VERTEX
  5
4BD
  8
__REF_CURVE
 10
15.8623215175
 20
4.5453852624999991
 30
0.0
  0
VERTEX
  5
4BE
  8
__REF_CURVE
 10
16.106687795500001
 20
4.5612201847999989
 30
0.0
  0
VERTEX
  5
4BF
  8
__REF_CURVE
 10
16.350961114099999
 20
4.5784299207999988
 30
0.0
  0
VERTEX
  5
4C0
  8
__REF_CURVE
 10
16.595133669700001
 20
4.597013884499999
 30
0.0
  0
VERTEX
  5
4C1
  8
__REF_CURVE
 10
16.839197759299999
 20
4.6169714653999989
 30
0.0
  0
VERTEX
  5
4C2
  8
__REF_CURVE
 10
17.083145680400001
 20
4.6383020532000003
 30
0.0
  0
VERTEX
  5
4C3
  8
__REF_CURVE
 10
17.326969765000001
 20
4.6610050124000004
 30
0.0
  0
VERTEX
  5
4C4
  8
__REF_CURVE
 10
17.570662258799999
 20
4.6850795850000004
 30
0.0
  0
VERTEX
  5
4C5
  8
__REF_CURVE
 10
17.8142154425
 20
4.7105249875000004
 30
0.0
  0
VERTEX
  5
4C6
  8
__REF_CURVE
 10
18.057621596899999
 20
4.7373404363000002
 30
0.0
  0
VERTEX
  5
4C7
  8
__REF_CURVE
 10
18.300874771
 20
4.765525328299999
 30
0.0
  0
VERTEX
  5
4C8
  8
__REF_CURVE
 10
18.5439654945
 20
4.795078543999999
 30
0.0
  0
VERTEX
  5
4C9
  8
__REF_CURVE
 10
18.786886067699999
 20
4.8259991245
 30
0.0
  0
VERTEX
  5
4CA
  8
__REF_CURVE
 10
19.029628790899999
 20
4.8582861108999991
 30
0.0
  0
VERTEX
  5
4CB
  8
__REF_CURVE
 10
19.272188189800001
 20
4.8919388303999991
 30
0.0
  0
VERTEX
  5
4CC
  8
__REF_CURVE
 10
19.514554390699999
 20
4.926955897
 30
0.0
  0
VERTEX
  5
4CD
  8
__REF_CURVE
 10
19.7567197487
 20
4.9633361858000002
 30
0.0
  0
VERTEX
  5
4CE
  8
__REF_CURVE
 10
19.998676618800001
 20
5.0010785720999991
 30
0.0
  0
VERTEX
  5
4CF
  8
__REF_CURVE
 10
20.240413152199999
 20
5.0401812085999991
 30
0.0
  0
VERTEX
  5
4D0
  8
__REF_CURVE
 10
20.481925817
 20
5.0806434473999991
 30
0.0
  0
VERTEX
  5
4D1
  8
__REF_CURVE
 10
20.7232068699
 20
5.1224639652999988
 30
0.0
  0
VERTEX
  5
4D2
  8
__REF_CURVE
 10
20.964248567799999
 20
5.1656414389999989
 30
0.0
  0
VERTEX
  5
4D3
  8
__REF_CURVE
 10
21.205030905699999
 20
5.2101722136999991
 30
0.0
  0
VERTEX
  5
4D4
  8
__REF_CURVE
 10
21.445558932699999
 20
5.2560570841000001
 30
0.0
  0
VERTEX
  5
4D5
  8
__REF_CURVE
 10
21.685825410900001
 20
5.303294651899999
 30
0.0
  0
VERTEX
  5
4D6
  8
__REF_CURVE
 10
21.925823102300001
 20
5.3518835194000003
 30
0.0
  0
VERTEX
  5
4D7
  8
__REF_CURVE
 10
22.165524548200001
 20
5.4018180058
 30
0.0
  0
VERTEX
  5
4D8
  8
__REF_CURVE
 10
22.404941028300001
 20
5.4531003355999994
 30
0.0
  0
VERTEX
  5
4D9
  8
__REF_CURVE
 10
22.644063555799999
 20
5.5057286754999986
 30
0.0
  0
VERTEX
  5
4DA
  8
__REF_CURVE
 10
22.882883143800001
 20
5.5597011917999994
 30
0.0
  0
SEQEND
  5
4DB
  8
__REF_CURVE
  0
POLYLINE
  5
33A
  8
__REF_CURVE
 66
     1
 10
0.0
 20
0.0
 30
0.0
  0
VERTEX
  5
4DC
  8
__REF_CURVE
 10
3.4827135780999989
 20
19.7053629509
 30
0.0
  0
VERTEX
  5
4DD
  8
__REF_CURVE
 10
3.4788363463
 20
19.705233001100002
 30
0.0
  0
VERTEX
  5
4DE
  8
__REF_CURVE
 10
3.4749637456999989
 20
19.7049776098
 30
0.0
  0
VERTEX
  5
4DF
  8
__REF_CURVE
 10
3.4711005686999989
 20
19.704597137699999
 30
0.0
  0
VERTEX
  5
4E0
  8
__REF_CURVE
 10
3.4672516081999989
 20
19.7040919449
 30
0.0
  0
VERTEX
  5
4E1
  8
__REF_CURVE
 10
3.463420447999999
 20
19.703462287800001
 30
0.0
  0
VERTEX
  5
4E2
  8
__REF_CURVE
 10
3.459612080299999
 20
19.702709065899999
 30
0.0
  0
VERTEX
  5
4E3
  8
__REF_CURVE
 10
3.4558302783999988
 20
19.701833142400002
 30
0.0
  0
VERTEX
  5
4E4
  8
__REF_CURVE
 10
3.4520788155000002
 20
19.700835380499999
 30
0.0
  0
VERTEX
  5
4E5
  8
__REF_CURVE
 10
3.448360862099999
 20
19.69971653
 30
0.0
  0
VERTEX
  5
4E6
  8
__REF_CURVE
 10
3.4446809123
 20
19.698478033699999
 30
0.0
  0
VERTEX
  5
4E7
  8
__REF_CURVE
 10
3.4410428458999989
 20
19.697121261700001
 30
0.0
  0
VERTEX
  5
4E8
  8
__REF_CURVE
 10
3.4374505429000002
 20
19.695647584100001
 30
0.0
  0
VERTEX
  5
4E9
  8
__REF_CURVE
 10
3.433907480899999
 20
19.694058283899999
 30
0.0
  0
VERTEX
  5
4EA
  8
__REF_CURVE
 10
3.4304176757999989
 20
19.692355273099999
 30
0.0
  0
VERTEX
  5
4EB
  8
__REF_CURVE
 10
3.4269847312000001
 20
19.6905404
 30
0.0
  0
VERTEX
  5
4EC
  8
__REF_CURVE
 10
3.4236122506999989
 20
19.688615512999998
 30
0.0
  0
VERTEX
  5
4ED
  8
__REF_CURVE
 10
3.4203035414
 20
19.686582372699998
 30
0.0
  0
VERTEX
  5
4EE
  8
__REF_CURVE
 10
3.4170622639999988
 20
19.6844433463
 30
0.0
  0
VERTEX
  5
4EF
  8
__REF_CURVE
 10
3.4138917726999991
 20
19.6822007299
 30
0.0
  0
VERTEX
  5
4F0
  8
__REF_CURVE
 10
3.4107954214999991
 20
19.679856819699999
 30
0.0
  0
VERTEX
  5
4F1
  8
__REF_CURVE
 10
3.4077762482999989
 20
19.677413761099999
 30
0.0
  0
VERTEX
  5
4F2
  8
__REF_CURVE
 10
3.404837611
 20
19.674874394500002
 30
0.0
  0
VERTEX
  5
4F3
  8
__REF_CURVE
 10
3.401982537599999
 20
19.672241426799999
 30
0.0
  0
VERTEX
  5
4F4
  8
__REF_CURVE
 10
3.399214055899999
 20
19.669517564900001
 30
0.0
  0
VERTEX
  5
4F5
  8
__REF_CURVE
 10
3.3965353879000002
 20
19.666705853700002
 30
0.0
  0
VERTEX
  5
4F6
  8
__REF_CURVE
 10
3.3939489789999988
 20
19.663809042299999
 30
0.0
  0
VERTEX
  5
4F7
  8
__REF_CURVE
 10
3.3914574858999988
 20
19.6608302008
 30
0.0
  0
VERTEX
  5
4F8
  8
__REF_CURVE
 10
3.389063565599999
 20
19.657772398999999
 30
0.0
  0
VERTEX
  5
4F9
  8
__REF_CURVE
 10
3.3867697843999989
 20
19.6546387305
 30
0.0
  0
VERTEX
  5
4FA
  8
__REF_CURVE
 10
3.3845784767999998
 20
19.651432561299998
 30
0.0
  0
VERTEX
  5
4FB
  8
__REF_CURVE
 10
3.3824918846999998
 20
19.648157282
 30
0.0
  0
VERTEX
  5
4FC
  8
__REF_CURVE
 10
3.3805122501999989
 20
19.644816283400001
 30
0.0
  0
VERTEX
  5
4FD
  8
__REF_CURVE
 10
3.3786418832999989
 20
19.641413267600001
 30
0.0
  0
VERTEX
  5
4FE
  8
__REF_CURVE
 10
3.3768824888999989
 20
19.637951565999991
 30
0.0
  0
VERTEX
  5
4FF
  8
__REF_CURVE
 10
3.375235856999999
 20
19.6344348115
 30
0.0
  0
VERTEX
  5
500
  8
__REF_CURVE
 10
3.373703777699999
 20
19.630866637
 30
0.0
  0
VERTEX
  5
501
  8
__REF_CURVE
 10
3.3722880941
 20
19.627251077699999
 30
0.0
  0
VERTEX
  5
502
  8
__REF_CURVE
 10
3.3709900377999991
 20
19.623591642099999
 30
0.0
  0
VERTEX
  5
503
  8
__REF_CURVE
 10
3.3698109164000001
 20
19.6198922315
 30
0.0
  0
VERTEX
  5
504
  8
__REF_CURVE
 10
3.3687520374000002
 20
19.6161567477
 30
0.0
  0
VERTEX
  5
505
  8
__REF_CURVE
 10
3.3678147776999992
 20
19.612389735099999
 30
0.0
  0
VERTEX
  5
506
  8
__REF_CURVE
 10
3.3669998277999991
 20
19.608594348299999
 30
0.0
  0
VERTEX
  5
507
  8
__REF_CURVE
 10
3.3663079897000001
 20
19.604774373800002
 30
0.0
  0
VERTEX
  5
508
  8
__REF_CURVE
 10
3.365740065699999
 20
19.600933598000001
 30
0.0
  0
VERTEX
  5
509
  8
__REF_CURVE
 10
3.3652968344
 20
19.597076614999999
 30
0.0
  0
VERTEX
  5
50A
  8
__REF_CURVE
 10
3.3649785616000001
 20
19.593207422100001
 30
0.0
  0
VERTEX
  5
50B
  8
__REF_CURVE
 10
3.3647855304999998
 20
19.589330818699999
 30
0.0
  0
VERTEX
  5
50C
  8
__REF_CURVE
 10
3.3647180245999988
 20
19.585451604199999
 30
0.0
  0
SEQEND
  5
50D
  8
__REF_CURVE
  0
LINE
  5
33B
  8
_CURVE
 10
21.902652794400002
 20
18.3568834939
 30
0.0
 11
21.902652794400002
 21
6.7028365212000001
 31
0.0
  0
POLYLINE
  5
33C
  8
__REF_CURVE
 66
     1
 10
0.0
 20
0.0
 30
0.0
  0
VERTEX
  5
50E
  8
__REF_CURVE
 10
22.976044547699999
 20
19.585451604199999
 30
0.0
  0
VERTEX
  5
50F
  8
__REF_CURVE
 10
22.9759770418
 20
19.589330818699999
 30
0.0
  0
VERTEX
  5
510
  8
__REF_CURVE
 10
22.9757840107
 20
19.593207422100001
 30
0.0
  0
VERTEX
  5
511
  8
__REF_CURVE
 10
22.975465737899999
 20
19.597076614999999
 30
0.0
  0
VERTEX
  5
512
  8
__REF_CURVE
 10
22.975022506599998
 20
19.600933598000001
 30
0.0
  0
VERTEX
  5
513
  8
__REF_CURVE
 10
22.9744545826
 20
19.604774373800002
 30
0.0
  0
VERTEX
  5
514
  8
__REF_CURVE
 10
22.9737627445
 20
19.608594348299999
 30
0.0
  0
VERTEX
  5
515
  8
__REF_CURVE
 10
22.9729477946
 20
19.612389735099999
 30
0.0
  0
VERTEX
  5
516
  8
__REF_CURVE
 10
22.972010534900001
 20
19.6161567477
 30
0.0
  0
VERTEX
  5
517
  8
__REF_CURVE
 10
22.970951655899999
 20
19.6198922315
 30
0.0
  0
VERTEX
  5
518
  8
__REF_CURVE
 10
22.969772534499999
 20
19.623591642099999
 30
0.0
  0
VERTEX
  5
519
  8
__REF_CURVE
 10
22.968474478200001
 20
19.627251077699999
 30
0.0
  0
VERTEX
  5
51A
  8
__REF_CURVE
 10
22.9670587946
 20
19.630866637
 30
0.0
  0
VERTEX
  5
51B
  8
__REF_CURVE
 10
22.965526715300001
 20
19.6344348115
 30
0.0
  0
VERTEX
  5
51C
  8
__REF_CURVE
 10
22.96388008340001
 20
19.637951565999991
 30
0.0
  0
VERTEX
  5
51D
  8
__REF_CURVE
 10
22.962120688999999
 20
19.641413267600001
 30
0.0
  0
VERTEX
  5
51E
  8
__REF_CURVE
 10
22.960250322099998
 20
19.644816283400001
 30
0.0
  0
VERTEX
  5
51F
  8
__REF_CURVE
 10
22.958270687599999
 20
19.648157282
 30
0.0
  0
VERTEX
  5
520
  8
__REF_CURVE
 10
22.956184095499999
 20
19.651432561299998
 30
0.0
  0
VERTEX
  5
521
  8
__REF_CURVE
 10
22.953992787899999
 20
19.6546387305
 30
0.0
  0
VERTEX
  5
522
  8
__REF_CURVE
 10
22.9516990067
 20
19.657772398999999
 30
0.0
  0
VERTEX
  5
523
  8
__REF_CURVE
 10
22.949305086399999
 20
19.6608302008
 30
0.0
  0
VERTEX
  5
524
  8
__REF_CURVE
 10
22.9468135933
 20
19.663809042299999
 30
0.0
  0
VERTEX
  5
525
  8
__REF_CURVE
 10
22.944227184399999
 20
19.666705853700002
 30
0.0
  0
VERTEX
  5
526
  8
__REF_CURVE
 10
22.941548516400001
 20
19.669517564900001
 30
0.0
  0
VERTEX
  5
527
  8
__REF_CURVE
 10
22.938780034699999
 20
19.672241426799999
 30
0.0
  0
VERTEX
  5
528
  8
__REF_CURVE
 10
22.9359249613
 20
19.674874394500002
 30
0.0
  0
VERTEX
  5
529
  8
__REF_CURVE
 10
22.932986324000002
 20
19.677413761099999
 30
0.0
  0
VERTEX
  5
52A
  8
__REF_CURVE
 10
22.9299671508
 20
19.679856819699999
 30
0.0
  0
VERTEX
  5
52B
  8
__REF_CURVE
 10
22.9268707996
 20
19.6822007299
 30
0.0
  0
VERTEX
  5
52C
  8
__REF_CURVE
 10
22.923700308299999
 20
19.6844433463
 30
0.0
  0
VERTEX
  5
52D
  8
__REF_CURVE
 10
22.920459030899998
 20
19.686582372699998
 30
0.0
  0
VERTEX
  5
52E
  8
__REF_CURVE
 10
22.917150321600001
 20
19.688615512999998
 30
0.0
  0
VERTEX
  5
52F
  8
__REF_CURVE
 10
22.9137778411
 20
19.6905404
 30
0.0
  0
VERTEX
  5
530
  8
__REF_CURVE
 10
22.9103448965
 20
19.692355273099999
 30
0.0
  0
VERTEX
  5
531
  8
__REF_CURVE
 10
22.906855091400001
 20
19.694058283899999
 30
0.0
  0
VERTEX
  5
532
  8
__REF_CURVE
 10
22.903312029399999
 20
19.695647584100001
 30
0.0
  0
VERTEX
  5
533
  8
__REF_CURVE
 10
22.899719726400001
 20
19.697121261700001
 30
0.0
  0
VERTEX
  5
534
  8
__REF_CURVE
 10
22.89608166
 20
19.698478033699999
 30
0.0
  0
VERTEX
  5
535
  8
__REF_CURVE
 10
22.892401710200001
 20
19.69971653
 30
0.0
  0
VERTEX
  5
536
  8
__REF_CURVE
 10
22.888683756799999
 20
19.700835380499999
 30
0.0
  0
VERTEX
  5
537
  8
__REF_CURVE
 10
22.8849322939
 20
19.701833142400002
 30
0.0
  0
VERTEX
  5
538
  8
__REF_CURVE
 10
22.881150492
 20
19.702709065899999
 30
0.0
  0
VERTEX
  5
539
  8
__REF_CURVE
 10
22.8773421243
 20
19.703462287800001
 30
0.0
  0
VERTEX
  5
53A
  8
__REF_CURVE
 10
22.873510964099999
 20
19.7040919449
 30
0.0
  0
VERTEX
  5
53B
  8
__REF_CURVE
 10
22.869662003599998
 20
19.704597137699999
 30
0.0
  0
VERTEX
  5
53C
  8
__REF_CURVE
 10
22.865798826599999
 20
19.7049776098
 30
0.0
  0
VERTEX
  5
53D
  8
__REF_CURVE
 10
22.861926226000001
 20
19.705233001100002
 30
0.0
  0
VERTEX
  5
53E
  8
__REF_CURVE
 10
22.858048994200001
 20
19.7053629509
 30
0.0
  0
SEQEND
  5
53F
  8
__REF_CURVE
  0
LINE
  5
33D
  8
__REF_CURVE
 10
22.976044547699999
 20
5.6766031568999997
 30
0.0
 11
22.976044547699999
 21
19.585451604199999
 31
0.0
  0
CIRCLE
  5
33E
  8
0
  6
CONTINUOUS
 62
     2
 10
5.7833903249
 20
17.490225291200002
 30
0.0
 40
0.298056591
  0
CIRCLE
  5
33F
  8
0
  6
CONTINUOUS
 62
     2
 10
5.7833903249
 20
17.490225291200002
 30
0.0
 40
0.1247694151
  0
ARC
  5
340
  8
0
  6
CONTINUOUS
 62
     2
 10
7.5504211403999992
 20
17.609293857000001
 30
0.0
 40
0.1750166163
 50
294.4500166359
 51
90.0
  0
ARC
  5
341
  8
0
  6
CONTINUOUS
 62
     2
 10
7.5234590417999989
 20
17.588112799400001
 30
0.0
 40
0.053611735
 50
266.1604009902
 51
89.999891051199995
  0
CIRCLE
  5
342
  8
0
  6
CONTINUOUS
 62
     2
 10
7.9230736055999991
 20
17.198389718399991
 30
0.0
 40
0.0653578721
  0
ARC
  5
343
  8
0
  6
CONTINUOUS
 62
     2
 10
7.931466939099999
 20
17.214683776899999
 30
0.0
 40
0.0168314496
 50
270.0
 51
90.0
  0
CIRCLE
  5
344
  8
0
  6
CONTINUOUS
 62
     2
 10
7.2909103071179748
 20
14.82605145241077
 30
0.0
 40
0.1589015312
  0
ARC
  5
346
  8
_CURVE
 10
4.6256097779000003
 20
6.7028365212000001
 30
0.0
 40
0.1875
 50
180.0
 51
258.30471966570002
  0
ARC
  5
347
  8
_CURVE
 10
13.1703812862
 20
47.981100470699992
 30
0.0
 40
42.34088888889999
 50
258.30471966580012
 51
281.69528033419999
  0
ARC
  5
348
  8
_CURVE
 10
21.715152794400002
 20
6.7028365212000001
 30
0.0
 40
0.1875
 50
281.69528033419999
 51
360.0
  0
ARC
  5
349
  8
_CURVE
 10
21.715152794400002
 20
18.3568834939
 30
0.0
 40
0.1875
 50
0.0
 51
89.184265175499988
  0
ARC
  5
34A
  8
_CURVE
 10
13.1703812862
 20
-581.77228841809995
 30
0.0
 40
600.37750000000005
 50
89.184265175499988
 51
90.815734824500026
  0
ARC
  5
34B
  8
_CURVE
 10
4.6256097779000003
 20
18.3568834939
 30
0.0
 40
0.1875
 50
90.815734824500026
 51
180.0
  0
POLYLINE
  5
35E
  8
__REF_CURVE
 66
     1
 10
0.0
 20
0.0
 30
0.0
  0
VERTEX
  5
544
  8
__REF_CURVE
 10
22.858048993989659
 20
19.705362950998619
 30
0.0
 42
0.0080527011097474
  0
VERTEX
  5
545
  8
__REF_CURVE
 10
3.4827135784102761
 20
19.705362950998619
 30
0.0
  0
SEQEND
  5
546
  8
__REF_CURVE
  0
ENDSEC
  0
EOF
