999
DXF file: 1311528-7-A.dxf
999
Pro/ENGINEER 2016130 by Parametric Technology Corporation
  0
SECTION
  2
HEADER
  9
$EXTMAX
 10
34.0
 20
22.0
 30
0.0
  9
$EXTMIN
 10
0.0
 20
0.0
 30
0.0
  9
$LIMMIN
 10
0.0
 20
0.0
  9
$LIMMAX
 10
34.0
 20
22.0
  9
$VIEWCTR
 10
17.0
 20
11.0
  9
$VIEWSIZE
 40
22.0
  9
$CLAYER
  8
0
  9
$LTSCALE
 40
1.87
  9
$CELTYPE
  6
BYLAYER
  9
$DIMSCALE
 40
1.0
  9
$DIMASZ
 40
0.1875
  9
$DIMEXO
 40
0.0625
  9
$DIMDLI
 40
1.292
  9
$DIMEXE
 40
0.125
  9
$DIMCEN
 40
0.306
  9
$DIMLFAC
 40
1.0
  9
$DIMBLK
  1
_FILLED
  9
$DIMALT
 70
0
  9
$DIMALTF
 40
25.4
  9
$DIMTXT
 40
0.15625
  9
$AUNITS
 70
0
  9
$PDMODE
 70
3
  9
$PDSIZE
 40
0.3125
  9
$TILEMODE
 70
1
  0
ENDSEC
  0
SECTION
  2
TABLES
  0
TABLE
  2
LTYPE
 70
6
  0
LTYPE
  2
BYBLOCK
 70
0
  3

 72
65
 73
0
 40
0.0
  0
LTYPE
  2
BYLAYER
 70
0
  3

 72
65
 73
0
 40
0.0
  0
LTYPE
  2
CONTINUOUS
 70
64
  3
Solid line
 72
65
 73
0
 40
0.0
  0
LTYPE
  2
CENTER
 70
64
  3
____ _ ____ _ ____ _ ____ _ ____ _ ____ _ ____
 72
65
 73
4
 40
0.6
 49
0.375
 49
-0.075
 49
0.075
 49
-0.075
  0
LTYPE
  2
HIDDEN
 70
64
  3
- - - - - - - - - - - - - - - - - - - -
 72
65
 73
2
 40
0.2
 49
0.1
 49
-0.1
  0
LTYPE
  2
PHANTOM
 70
64
  3
_____ _ _ _____ _ _ _____ _ _ _____
 72
65
 73
6
 40
0.8
 49
0.45
 49
-0.05
 49
0.1
 49
-0.05
 49
0.1
 49
-0.05
  0
LTYPE
  2
DOT
 70
64
  3
. . . . . . . . . . . . . . . . . . . .
 72
65
 73
2
 40
0.2
 49
0.1
 49
-0.1
  0
LTYPE
  2
DASHED
 70
64
  3
- - - - - - - - - - - - - - - - - - - -
 72
65
 73
2
 40
0.2
 49
0.1
 49
-0.1
  0
ENDTAB
  0
TABLE
  2
LAYER
 70
36
  0
LAYER
  2
0
 70
0
 62
7
  6
CONTINUOUS
  0
LAYER
  2
DEFAULT_1
 70
0
 62
7
  6
CENTER
  0
LAYER
  2
DEFAULT_2
 70
0
 62
8
  6
HIDDEN
  0
LAYER
  2
DEFAULT_3
 70
0
 62
7
  6
PHANTOM
  0
LAYER
  2
DATUMS
 70
0
 62
7
  6
CONTINUOUS
  0
LAYER
  2
DATUM_AXIS
 70
0
 62
7
  6
CONTINUOUS
  0
LAYER
  2
DATUM_CSYS
 70
0
 62
7
  6
CONTINUOUS
  0
LAYER
  2
DATUM_PLANE
 70
0
 62
7
  6
CONTINUOUS
  0
LAYER
  2
DATUM_POINT
 70
0
 62
7
  6
CONTINUOUS
  0
LAYER
  2
_CURVE
 70
0
 62
7
  6
CONTINUOUS
  0
LAYER
  2
_SURFACE
 70
0
 62
7
  6
CONTINUOUS
  0
LAYER
  2
__REF_CURVE
 70
0
 62
7
  6
CONTINUOUS
  0
LAYER
  2
__REF_SURFACE
 70
0
 62
7
  6
CONTINUOUS
  0
LAYER
  2
___NOTE
 70
0
 62
7
  6
CONTINUOUS
  0
LAYER
  2
___SYMBOL
 70
0
 62
7
  6
CONTINUOUS
  0
ENDTAB
  0
TABLE
  2
STYLE
 70
1
  0
STYLE
  2
STANDARD
 70
0
 40
0.0
 41
0.8
 50
0.0
 71
0
 42
0.2
  3
txt
  4

  0
STYLE
  2
TEXTSTYLE_1
 70
0
 40
0.0
 41
0.8
 50
0.0
 71
0
 42
0.2
  3
gdt
  4

  0
STYLE
  2
TEXTSTYLE_2
 70
0
 40
0.0
 41
1.0
 50
0.0
 71
0
 42
0.2
  3
txt
  4

  0
ENDTAB
  0
ENDSEC
  0
SECTION
  2
BLOCKS
  0
BLOCK
  8
___SYMBOL
 62
2
  6
CONTINUOUS
  2
SCISSORS_BL3
 70
64
 10
29.9146062041
 20
12.2214001216
  0
LINE
  8
___SYMBOL
 62
7
  6
CONTINUOUS
 10
29.8993214866
 20
12.2803420746
 11
29.8432816
 21
12.5571712254
  0
LINE
  8
___SYMBOL
 62
7
  6
CONTINUOUS
 10
29.875131657
 20
12.2655915369
 11
29.8432816
 21
12.5571712254
  0
LINE
  8
___SYMBOL
 62
7
  6
CONTINUOUS
 10
29.9129525392
 20
12.2325000786
 11
29.9121687322
 21
12.257926782
  0
LINE
  8
___SYMBOL
 62
7
  6
CONTINUOUS
 10
29.9203575829
 20
12.2582667767
 11
29.9211467832
 21
12.2326651114
  0
LINE
  8
___SYMBOL
 62
7
  6
CONTINUOUS
 10
29.9173985414
 20
12.3469515017
 11
30.0112557362
 21
12.5523034849
  0
LINE
  8
___SYMBOL
 62
7
  6
CONTINUOUS
 10
29.8603441305
 20
12.2178164514
 11
29.8766086775
 21
12.2485227353
  0
LINE
  8
___SYMBOL
 62
7
  6
CONTINUOUS
 10
29.9509721641
 20
12.2517258007
 11
30.0112557362
 21
12.4445701071
  0
LINE
  8
___SYMBOL
 62
7
  6
CONTINUOUS
 10
29.9362878564
 20
12.2933752678
 11
29.8993214866
 21
12.2803420746
  0
LINE
  8
___SYMBOL
 62
7
  6
CONTINUOUS
 10
29.9632781761
 20
12.216821953
 11
29.9346347752
 21
12.1476896917
  0
LINE
  8
___SYMBOL
 62
7
  6
CONTINUOUS
 10
29.887265012
 20
12.1499454965
 11
29.9093036496
 21
12.1728450975
  0
LINE
  8
___SYMBOL
 62
7
  6
CONTINUOUS
 10
29.8432816
 20
12.5571712254
 11
29.9632781761
 21
12.216821953
  0
LINE
  8
___SYMBOL
 62
7
  6
CONTINUOUS
 10
29.887265012
 20
12.1499454965
 11
29.8603441305
 21
12.2178164514
  0
ARC
  8
___SYMBOL
 62
7
  6
CONTINUOUS
 10
29.8389387365
 20
12.498436796
 40
0.1805402131
 50
342.6406360869
 51
17.3593639131
  0
ARC
  8
___SYMBOL
 62
7
  6
CONTINUOUS
 10
30.0314576413
 20
12.2705206407
 40
0.1564036746
 50
181.8059909349
 51
231.752660067
  0
CIRCLE
  8
___SYMBOL
 62
7
  6
CONTINUOUS
 10
29.9167926477
 20
12.2453438869
 40
0.0134055901
  0
ARC
  8
___SYMBOL
 62
7
  6
CONTINUOUS
 10
29.9965215529
 20
12.0591850882
 40
0.0073044281
 50
185.3133793157
 51
314.0675041521
  0
ARC
  8
___SYMBOL
 62
7
  6
CONTINUOUS
 10
29.8291907554
 20
12.0554248035
 40
0.0073043678
 50
233.3109272841
 51
359.4467240969
  0
POLYLINE
  8
___SYMBOL
 62
7
  6
CONTINUOUS
 66
1
 70
0
  0
VERTEX
  8
___SYMBOL
 62
7
  6
CONTINUOUS
 10
29.9776494888
 20
11.9418144029
  0
VERTEX
  8
___SYMBOL
 62
7
  6
CONTINUOUS
 10
29.9759798324
 20
11.9469388566
  0
VERTEX
  8
___SYMBOL
 62
7
  6
CONTINUOUS
 10
29.9744510435
 20
11.9521038512
  0
VERTEX
  8
___SYMBOL
 62
7
  6
CONTINUOUS
 10
29.9730570142
 20
11.9573065768
  0
VERTEX
  8
___SYMBOL
 62
7
  6
CONTINUOUS
 10
29.9717916365
 20
11.9625442232
  0
VERTEX
  8
___SYMBOL
 62
7
  6
CONTINUOUS
 10
29.9706488025
 20
11.9678139806
  0
VERTEX
  8
___SYMBOL
 62
7
  6
CONTINUOUS
 10
29.9696224044
 20
11.9731130389
  0
VERTEX
  8
___SYMBOL
 62
7
  6
CONTINUOUS
 10
29.9687063342
 20
11.9784385881
  0
VERTEX
  8
___SYMBOL
 62
7
  6
CONTINUOUS
 10
29.967894484
 20
11.9837878182
  0
VERTEX
  8
___SYMBOL
 62
7
  6
CONTINUOUS
 10
29.9671807459
 20
11.9891579191
  0
VERTEX
  8
___SYMBOL
 62
7
  6
CONTINUOUS
 10
29.966559012
 20
11.994546081
  0
VERTEX
  8
___SYMBOL
 62
7
  6
CONTINUOUS
 10
29.9660231743
 20
11.9999494938
  0
VERTEX
  8
___SYMBOL
 62
7
  6
CONTINUOUS
 10
29.965567125
 20
12.0053653474
  0
VERTEX
  8
___SYMBOL
 62
7
  6
CONTINUOUS
 10
29.9651847561
 20
12.010790832
  0
VERTEX
  8
___SYMBOL
 62
7
  6
CONTINUOUS
 10
29.9648699597
 20
12.0162231374
  0
VERTEX
  8
___SYMBOL
 62
7
  6
CONTINUOUS
 10
29.964616628
 20
12.0216594536
  0
VERTEX
  8
___SYMBOL
 62
7
  6
CONTINUOUS
 10
29.9644186529
 20
12.0270969708
  0
VERTEX
  8
___SYMBOL
 62
7
  6
CONTINUOUS
 10
29.9642699266
 20
12.0325328788
  0
VERTEX
  8
___SYMBOL
 62
7
  6
CONTINUOUS
 10
29.9641643412
 20
12.0379643677
  0
VERTEX
  8
___SYMBOL
 62
7
  6
CONTINUOUS
 10
29.9640957887
 20
12.0433886274
  0
VERTEX
  8
___SYMBOL
 62
7
  6
CONTINUOUS
 10
29.9640581612
 20
12.048802848
  0
VERTEX
  8
___SYMBOL
 62
7
  6
CONTINUOUS
 10
29.9640430562
 20
12.0567616799
  0
VERTEX
  8
___SYMBOL
 62
7
  6
CONTINUOUS
 10
29.9640435149
 20
12.0647036851
  0
VERTEX
  8
___SYMBOL
 62
7
  6
CONTINUOUS
 10
29.9640211926
 20
12.0726399481
  0
VERTEX
  8
___SYMBOL
 62
7
  6
CONTINUOUS
 10
29.963937745
 20
12.0805815535
  0
VERTEX
  8
___SYMBOL
 62
7
  6
CONTINUOUS
 10
29.9637548274
 20
12.0885395858
  0
VERTEX
  8
___SYMBOL
 62
7
  6
CONTINUOUS
 10
29.9636257504
 20
12.0922056875
  0
VERTEX
  8
___SYMBOL
 62
7
  6
CONTINUOUS
 10
29.9634574137
 20
12.0958741058
  0
VERTEX
  8
___SYMBOL
 62
7
  6
CONTINUOUS
 10
29.9632396814
 20
12.0995413436
  0
VERTEX
  8
___SYMBOL
 62
7
  6
CONTINUOUS
 10
29.9629624171
 20
12.1032039038
  0
VERTEX
  8
___SYMBOL
 62
7
  6
CONTINUOUS
 10
29.9626154848
 20
12.1068582891
  0
VERTEX
  8
___SYMBOL
 62
7
  6
CONTINUOUS
 10
29.9621887482
 20
12.1105010024
  0
VERTEX
  8
___SYMBOL
 62
7
  6
CONTINUOUS
 10
29.9616720713
 20
12.1141285466
  0
VERTEX
  8
___SYMBOL
 62
7
  6
CONTINUOUS
 10
29.9610553179
 20
12.1177374245
  0
VERTEX
  8
___SYMBOL
 62
7
  6
CONTINUOUS
 10
29.9603283518
 20
12.121324139
  0
VERTEX
  8
___SYMBOL
 62
7
  6
CONTINUOUS
 10
29.9594810369
 20
12.1248851928
  0
VERTEX
  8
___SYMBOL
 62
7
  6
CONTINUOUS
 10
29.958503237
 20
12.1284170889
  0
VERTEX
  8
___SYMBOL
 62
7
  6
CONTINUOUS
 10
29.957384816
 20
12.1319163301
  0
VERTEX
  8
___SYMBOL
 62
7
  6
CONTINUOUS
 10
29.9568513079
 20
12.1334191713
  0
VERTEX
  8
___SYMBOL
 62
7
  6
CONTINUOUS
 10
29.9562717594
 20
12.1349031732
  0
VERTEX
  8
___SYMBOL
 62
7
  6
CONTINUOUS
 10
29.9556284195
 20
12.1363562803
  0
VERTEX
  8
___SYMBOL
 62
7
  6
CONTINUOUS
 10
29.9549035372
 20
12.1377664372
  0
VERTEX
  8
___SYMBOL
 62
7
  6
CONTINUOUS
 10
29.9540793616
 20
12.1391215884
  0
VERTEX
  8
___SYMBOL
 62
7
  6
CONTINUOUS
 10
29.9531381417
 20
12.1404096786
  0
VERTEX
  8
___SYMBOL
 62
7
  6
CONTINUOUS
 10
29.9521054474
 20
12.1415803154
  0
VERTEX
  8
___SYMBOL
 62
7
  6
CONTINUOUS
 10
29.9509598794
 20
12.1426710824
  0
VERTEX
  8
___SYMBOL
 62
7
  6
CONTINUOUS
 10
29.9497144649
 20
12.1436760061
  0
VERTEX
  8
___SYMBOL
 62
7
  6
CONTINUOUS
 10
29.9483822312
 20
12.1445891132
  0
VERTEX
  8
___SYMBOL
 62
7
  6
CONTINUOUS
 10
29.9469762058
 20
12.1454044299
  0
VERTEX
  8
___SYMBOL
 62
7
  6
CONTINUOUS
 10
29.9455094159
 20
12.1461159829
  0
VERTEX
  8
___SYMBOL
 62
7
  6
CONTINUOUS
 10
29.9439948888
 20
12.1467177985
  0
VERTEX
  8
___SYMBOL
 62
7
  6
CONTINUOUS
 10
29.9424456518
 20
12.1472039034
  0
VERTEX
  8
___SYMBOL
 62
7
  6
CONTINUOUS
 10
29.9408747323
 20
12.1475683238
  0
VERTEX
  8
___SYMBOL
 62
7
  6
CONTINUOUS
 10
29.9392951576
 20
12.1478050864
  0
VERTEX
  8
___SYMBOL
 62
7
  6
CONTINUOUS
 10
29.9377199549
 20
12.1479082176
  0
VERTEX
  8
___SYMBOL
 62
7
  6
CONTINUOUS
 10
29.9361621517
 20
12.1478717438
  0
VERTEX
  8
___SYMBOL
 62
7
  6
CONTINUOUS
 10
29.9346347752
 20
12.1476896917
  0
SEQEND
  0
POLYLINE
  8
___SYMBOL
 62
7
  6
CONTINUOUS
 66
1
 70
0
  0
VERTEX
  8
___SYMBOL
 62
7
  6
CONTINUOUS
 10
29.9892485112
 20
12.0585086755
  0
VERTEX
  8
___SYMBOL
 62
7
  6
CONTINUOUS
 10
29.9889370683
 20
12.0623398177
  0
VERTEX
  8
___SYMBOL
 62
7
  6
CONTINUOUS
 10
29.9887096883
 20
12.0661742167
  0
VERTEX
  8
___SYMBOL
 62
7
  6
CONTINUOUS
 10
29.9885443668
 20
12.0705270355
  0
VERTEX
  8
___SYMBOL
 62
7
  6
CONTINUOUS
 10
29.9884681542
 20
12.0748742938
  0
VERTEX
  8
___SYMBOL
 62
7
  6
CONTINUOUS
 10
29.9884705133
 20
12.0792209417
  0
VERTEX
  8
___SYMBOL
 62
7
  6
CONTINUOUS
 10
29.9885409071
 20
12.0835719292
  0
VERTEX
  8
___SYMBOL
 62
7
  6
CONTINUOUS
 10
29.9886687986
 20
12.0879322066
  0
VERTEX
  8
___SYMBOL
 62
7
  6
CONTINUOUS
 10
29.9888436509
 20
12.092306724
  0
VERTEX
  8
___SYMBOL
 62
7
  6
CONTINUOUS
 10
29.9890549268
 20
12.0967004315
  0
VERTEX
  8
___SYMBOL
 62
7
  6
CONTINUOUS
 10
29.9892920893
 20
12.1011182793
  0
VERTEX
  8
___SYMBOL
 62
7
  6
CONTINUOUS
 10
29.9894495319
 20
12.1039179977
  0
VERTEX
  8
___SYMBOL
 62
7
  6
CONTINUOUS
 10
29.9896064728
 20
12.1067266944
  0
VERTEX
  8
___SYMBOL
 62
7
  6
CONTINUOUS
 10
29.9897563073
 20
12.1095417812
  0
VERTEX
  8
___SYMBOL
 62
7
  6
CONTINUOUS
 10
29.9898924305
 20
12.1123606699
  0
VERTEX
  8
___SYMBOL
 62
7
  6
CONTINUOUS
 10
29.9900082377
 20
12.1151807722
  0
VERTEX
  8
___SYMBOL
 62
7
  6
CONTINUOUS
 10
29.9900971241
 20
12.1179994999
  0
VERTEX
  8
___SYMBOL
 62
7
  6
CONTINUOUS
 10
29.9901524849
 20
12.1208142649
  0
VERTEX
  8
___SYMBOL
 62
7
  6
CONTINUOUS
 10
29.9901677154
 20
12.1236224788
  0
VERTEX
  8
___SYMBOL
 62
7
  6
CONTINUOUS
 10
29.9901362108
 20
12.1264215536
  0
VERTEX
  8
___SYMBOL
 62
7
  6
CONTINUOUS
 10
29.9900513663
 20
12.129208901
  0
VERTEX
  8
___SYMBOL
 62
7
  6
CONTINUOUS
 10
29.9899065771
 20
12.1319819327
  0
VERTEX
  8
___SYMBOL
 62
7
  6
CONTINUOUS
 10
29.9896952385
 20
12.1347380606
  0
VERTEX
  8
___SYMBOL
 62
7
  6
CONTINUOUS
 10
29.9894107457
 20
12.1374746965
  0
VERTEX
  8
___SYMBOL
 62
7
  6
CONTINUOUS
 10
29.9890464939
 20
12.1401892522
  0
VERTEX
  8
___SYMBOL
 62
7
  6
CONTINUOUS
 10
29.9885958784
 20
12.1428791394
  0
VERTEX
  8
___SYMBOL
 62
7
  6
CONTINUOUS
 10
29.9880522943
 20
12.1455417699
  0
VERTEX
  8
___SYMBOL
 62
7
  6
CONTINUOUS
 10
29.9874091369
 20
12.1481745556
  0
VERTEX
  8
___SYMBOL
 62
7
  6
CONTINUOUS
 10
29.9866598014
 20
12.1507749081
  0
VERTEX
  8
___SYMBOL
 62
7
  6
CONTINUOUS
 10
29.9857976831
 20
12.1533402394
  0
VERTEX
  8
___SYMBOL
 62
7
  6
CONTINUOUS
 10
29.9848847236
 20
12.1557094525
  0
VERTEX
  8
___SYMBOL
 62
7
  6
CONTINUOUS
 10
29.9838768228
 20
12.158048747
  0
VERTEX
  8
___SYMBOL
 62
7
  6
CONTINUOUS
 10
29.9827837435
 20
12.1603611884
  0
VERTEX
  8
___SYMBOL
 62
7
  6
CONTINUOUS
 10
29.9816152485
 20
12.162649842
  0
VERTEX
  8
___SYMBOL
 62
7
  6
CONTINUOUS
 10
29.9803811005
 20
12.1649177732
  0
VERTEX
  8
___SYMBOL
 62
7
  6
CONTINUOUS
 10
29.9790910622
 20
12.1671680473
  0
VERTEX
  8
___SYMBOL
 62
7
  6
CONTINUOUS
 10
29.9777548963
 20
12.1694037297
  0
VERTEX
  8
___SYMBOL
 62
7
  6
CONTINUOUS
 10
29.9763823657
 20
12.1716278857
  0
VERTEX
  8
___SYMBOL
 62
7
  6
CONTINUOUS
 10
29.9749832331
 20
12.1738435807
  0
VERTEX
  8
___SYMBOL
 62
7
  6
CONTINUOUS
 10
29.9735672612
 20
12.1760538801
  0
VERTEX
  8
___SYMBOL
 62
7
  6
CONTINUOUS
 10
29.972547039
 20
12.1776400611
  0
VERTEX
  8
___SYMBOL
 62
7
  6
CONTINUOUS
 10
29.9715360678
 20
12.1792293887
  0
VERTEX
  8
___SYMBOL
 62
7
  6
CONTINUOUS
 10
29.9705472476
 20
12.1808262111
  0
VERTEX
  8
___SYMBOL
 62
7
  6
CONTINUOUS
 10
29.9695934788
 20
12.1824348766
  0
VERTEX
  8
___SYMBOL
 62
7
  6
CONTINUOUS
 10
29.9686876617
 20
12.1840597335
  0
VERTEX
  8
___SYMBOL
 62
7
  6
CONTINUOUS
 10
29.9678426964
 20
12.1857051299
  0
VERTEX
  8
___SYMBOL
 62
7
  6
CONTINUOUS
 10
29.9670714832
 20
12.1873754143
  0
VERTEX
  8
___SYMBOL
 62
7
  6
CONTINUOUS
 10
29.9663869223
 20
12.1890749348
  0
VERTEX
  8
___SYMBOL
 62
7
  6
CONTINUOUS
 10
29.9658019139
 20
12.1908080398
  0
VERTEX
  8
___SYMBOL
 62
7
  6
CONTINUOUS
 10
29.9653517793
 20
12.1924657439
  0
VERTEX
  8
___SYMBOL
 62
7
  6
CONTINUOUS
 10
29.9649896021
 20
12.1941518858
  0
VERTEX
  8
___SYMBOL
 62
7
  6
CONTINUOUS
 10
29.9647045084
 20
12.1958615655
  0
VERTEX
  8
___SYMBOL
 62
7
  6
CONTINUOUS
 10
29.9644856246
 20
12.1975898831
  0
VERTEX
  8
___SYMBOL
 62
7
  6
CONTINUOUS
 10
29.9643220767
 20
12.1993319384
  0
VERTEX
  8
___SYMBOL
 62
7
  6
CONTINUOUS
 10
29.9642029909
 20
12.2010828316
  0
VERTEX
  8
___SYMBOL
 62
7
  6
CONTINUOUS
 10
29.9641174936
 20
12.2028376625
  0
VERTEX
  8
___SYMBOL
 62
7
  6
CONTINUOUS
 10
29.9640547108
 20
12.2045915311
  0
VERTEX
  8
___SYMBOL
 62
7
  6
CONTINUOUS
 10
29.9639949953
 20
12.2066477329
  0
VERTEX
  8
___SYMBOL
 62
7
  6
CONTINUOUS
 10
29.9639326886
 20
12.2086962503
  0
VERTEX
  8
___SYMBOL
 62
7
  6
CONTINUOUS
 10
29.963848822
 20
12.2107375071
  0
VERTEX
  8
___SYMBOL
 62
7
  6
CONTINUOUS
 10
29.9637244269
 20
12.2127719272
  0
VERTEX
  8
___SYMBOL
 62
7
  6
CONTINUOUS
 10
29.9635405344
 20
12.2147999346
  0
VERTEX
  8
___SYMBOL
 62
7
  6
CONTINUOUS
 10
29.9632781761
 20
12.216821953
  0
SEQEND
  0
POLYLINE
  8
___SYMBOL
 62
7
  6
CONTINUOUS
 66
1
 70
0
  0
VERTEX
  8
___SYMBOL
 62
7
  6
CONTINUOUS
 10
29.8579334916
 20
11.9611426946
  0
VERTEX
  8
___SYMBOL
 62
7
  6
CONTINUOUS
 10
29.8589319711
 20
11.9653888103
  0
VERTEX
  8
___SYMBOL
 62
7
  6
CONTINUOUS
 10
29.8598085803
 20
11.9696594106
  0
VERTEX
  8
___SYMBOL
 62
7
  6
CONTINUOUS
 10
29.860570206
 20
11.9739522722
  0
VERTEX
  8
___SYMBOL
 62
7
  6
CONTINUOUS
 10
29.8612237351
 20
11.9782651715
  0
VERTEX
  8
___SYMBOL
 62
7
  6
CONTINUOUS
 10
29.8617760543
 20
11.9825958851
  0
VERTEX
  8
___SYMBOL
 62
7
  6
CONTINUOUS
 10
29.8622340504
 20
11.9869421895
  0
VERTEX
  8
___SYMBOL
 62
7
  6
CONTINUOUS
 10
29.8626046102
 20
11.9913018613
  0
VERTEX
  8
___SYMBOL
 62
7
  6
CONTINUOUS
 10
29.8628946206
 20
11.995672677
  0
VERTEX
  8
___SYMBOL
 62
7
  6
CONTINUOUS
 10
29.8631109684
 20
12.0000524132
  0
VERTEX
  8
___SYMBOL
 62
7
  6
CONTINUOUS
 10
29.8632605403
 20
12.0044388463
  0
VERTEX
  8
___SYMBOL
 62
7
  6
CONTINUOUS
 10
29.8633502232
 20
12.0088297529
  0
VERTEX
  8
___SYMBOL
 62
7
  6
CONTINUOUS
 10
29.863386904
 20
12.0132229097
  0
VERTEX
  8
___SYMBOL
 62
7
  6
CONTINUOUS
 10
29.8633774693
 20
12.017616093
  0
VERTEX
  8
___SYMBOL
 62
7
  6
CONTINUOUS
 10
29.8633020246
 20
12.0236778271
  0
VERTEX
  8
___SYMBOL
 62
7
  6
CONTINUOUS
 10
29.863173581
 20
12.0297338412
  0
VERTEX
  8
___SYMBOL
 62
7
  6
CONTINUOUS
 10
29.8630139078
 20
12.0357826025
  0
VERTEX
  8
___SYMBOL
 62
7
  6
CONTINUOUS
 10
29.8628447744
 20
12.0418225782
  0
VERTEX
  8
___SYMBOL
 62
7
  6
CONTINUOUS
 10
29.8626879502
 20
12.0478522355
  0
VERTEX
  8
___SYMBOL
 62
7
  6
CONTINUOUS
 10
29.8625652048
 20
12.0538700414
  0
VERTEX
  8
___SYMBOL
 62
7
  6
CONTINUOUS
 10
29.8624983074
 20
12.0598744633
  0
VERTEX
  8
___SYMBOL
 62
7
  6
CONTINUOUS
 10
29.8625090275
 20
12.0658639682
  0
VERTEX
  8
___SYMBOL
 62
7
  6
CONTINUOUS
 10
29.8626191346
 20
12.0718370234
  0
VERTEX
  8
___SYMBOL
 62
7
  6
CONTINUOUS
 10
29.8628693255
 20
12.0783501158
  0
VERTEX
  8
___SYMBOL
 62
7
  6
CONTINUOUS
 10
29.8632352091
 20
12.0848610648
  0
VERTEX
  8
___SYMBOL
 62
7
  6
CONTINUOUS
 10
29.8636876672
 20
12.0913892204
  0
VERTEX
  8
___SYMBOL
 62
7
  6
CONTINUOUS
 10
29.8641975815
 20
12.0979539326
  0
VERTEX
  8
___SYMBOL
 62
7
  6
CONTINUOUS
 10
29.8647358339
 20
12.1045745516
  0
VERTEX
  8
___SYMBOL
 62
7
  6
CONTINUOUS
 10
29.865273306
 20
12.1112704273
  0
VERTEX
  8
___SYMBOL
 62
7
  6
CONTINUOUS
 10
29.8654319008
 20
12.1132970275
  0
VERTEX
  8
___SYMBOL
 62
7
  6
CONTINUOUS
 10
29.8655976272
 20
12.1153272571
  0
VERTEX
  8
___SYMBOL
 62
7
  6
CONTINUOUS
 10
29.865780311
 20
12.117356221
  0
VERTEX
  8
___SYMBOL
 62
7
  6
CONTINUOUS
 10
29.8659897777
 20
12.1193790242
  0
VERTEX
  8
___SYMBOL
 62
7
  6
CONTINUOUS
 10
29.8662358531
 20
12.1213907718
  0
VERTEX
  8
___SYMBOL
 62
7
  6
CONTINUOUS
 10
29.8665283627
 20
12.1233865685
  0
VERTEX
  8
___SYMBOL
 62
7
  6
CONTINUOUS
 10
29.8668771322
 20
12.1253615194
  0
VERTEX
  8
___SYMBOL
 62
7
  6
CONTINUOUS
 10
29.8672919873
 20
12.1273107294
  0
VERTEX
  8
___SYMBOL
 62
7
  6
CONTINUOUS
 10
29.8677827536
 20
12.1292293036
  0
VERTEX
  8
___SYMBOL
 62
7
  6
CONTINUOUS
 10
29.8683592568
 20
12.1311123467
  0
VERTEX
  8
___SYMBOL
 62
7
  6
CONTINUOUS
 10
29.8690313224
 20
12.1329549639
  0
VERTEX
  8
___SYMBOL
 62
7
  6
CONTINUOUS
 10
29.8698087762
 20
12.13475226
  0
VERTEX
  8
___SYMBOL
 62
7
  6
CONTINUOUS
 10
29.8707014438
 20
12.13649934
  0
VERTEX
  8
___SYMBOL
 62
7
  6
CONTINUOUS
 10
29.8717191509
 20
12.1381913088
  0
VERTEX
  8
___SYMBOL
 62
7
  6
CONTINUOUS
 10
29.8727429133
 20
12.1396558817
  0
VERTEX
  8
___SYMBOL
 62
7
  6
CONTINUOUS
 10
29.8738673658
 20
12.1410645185
  0
VERTEX
  8
___SYMBOL
 62
7
  6
CONTINUOUS
 10
29.8750849115
 20
12.1424094641
  0
VERTEX
  8
___SYMBOL
 62
7
  6
CONTINUOUS
 10
29.8763879536
 20
12.1436829629
  0
VERTEX
  8
___SYMBOL
 62
7
  6
CONTINUOUS
 10
29.8777688952
 20
12.1448772596
  0
VERTEX
  8
___SYMBOL
 62
7
  6
CONTINUOUS
 10
29.8792201395
 20
12.1459845989
  0
VERTEX
  8
___SYMBOL
 62
7
  6
CONTINUOUS
 10
29.8807340897
 20
12.1469972255
  0
VERTEX
  8
___SYMBOL
 62
7
  6
CONTINUOUS
 10
29.8823031488
 20
12.1479073839
  0
VERTEX
  8
___SYMBOL
 62
7
  6
CONTINUOUS
 10
29.8839197202
 20
12.1487073188
  0
VERTEX
  8
___SYMBOL
 62
7
  6
CONTINUOUS
 10
29.8855762069
 20
12.1493892748
  0
VERTEX
  8
___SYMBOL
 62
7
  6
CONTINUOUS
 10
29.887265012
 20
12.1499454965
  0
SEQEND
  0
POLYLINE
  8
___SYMBOL
 62
7
  6
CONTINUOUS
 66
1
 70
0
  0
VERTEX
  8
___SYMBOL
 62
7
  6
CONTINUOUS
 10
29.8364947827
 20
12.0553542701
  0
VERTEX
  8
___SYMBOL
 62
7
  6
CONTINUOUS
 10
29.8365145873
 20
12.0628344092
  0
VERTEX
  8
___SYMBOL
 62
7
  6
CONTINUOUS
 10
29.8364565878
 20
12.070320354
  0
VERTEX
  8
___SYMBOL
 62
7
  6
CONTINUOUS
 10
29.8363887725
 20
12.0757563096
  0
VERTEX
  8
___SYMBOL
 62
7
  6
CONTINUOUS
 10
29.8363154763
 20
12.0811999223
  0
VERTEX
  8
___SYMBOL
 62
7
  6
CONTINUOUS
 10
29.8362507253
 20
12.0866471656
  0
VERTEX
  8
___SYMBOL
 62
7
  6
CONTINUOUS
 10
29.8362085454
 20
12.0920940126
  0
VERTEX
  8
___SYMBOL
 62
7
  6
CONTINUOUS
 10
29.8362029629
 20
12.0975364369
  0
VERTEX
  8
___SYMBOL
 62
7
  6
CONTINUOUS
 10
29.8362480038
 20
12.1029704117
  0
VERTEX
  8
___SYMBOL
 62
7
  6
CONTINUOUS
 10
29.8363576941
 20
12.1083919105
  0
VERTEX
  8
___SYMBOL
 62
7
  6
CONTINUOUS
 10
29.8365460599
 20
12.1137969067
  0
VERTEX
  8
___SYMBOL
 62
7
  6
CONTINUOUS
 10
29.8368271273
 20
12.1191813735
  0
VERTEX
  8
___SYMBOL
 62
7
  6
CONTINUOUS
 10
29.8372149225
 20
12.1245412844
  0
VERTEX
  8
___SYMBOL
 62
7
  6
CONTINUOUS
 10
29.8374892101
 20
12.1275780225
  0
VERTEX
  8
___SYMBOL
 62
7
  6
CONTINUOUS
 10
29.8378094031
 20
12.1306063304
  0
VERTEX
  8
___SYMBOL
 62
7
  6
CONTINUOUS
 10
29.8381823325
 20
12.133627027
  0
VERTEX
  8
___SYMBOL
 62
7
  6
CONTINUOUS
 10
29.8386148293
 20
12.1366409313
  0
VERTEX
  8
___SYMBOL
 62
7
  6
CONTINUOUS
 10
29.8391137243
 20
12.139648862
  0
VERTEX
  8
___SYMBOL
 62
7
  6
CONTINUOUS
 10
29.8396858486
 20
12.1426516379
  0
VERTEX
  8
___SYMBOL
 62
7
  6
CONTINUOUS
 10
29.8403380332
 20
12.145650078
  0
VERTEX
  8
___SYMBOL
 62
7
  6
CONTINUOUS
 10
29.8410771089
 20
12.1486450011
  0
VERTEX
  8
___SYMBOL
 62
7
  6
CONTINUOUS
 10
29.8419099067
 20
12.151637226
  0
VERTEX
  8
___SYMBOL
 62
7
  6
CONTINUOUS
 10
29.8428432577
 20
12.1546275716
  0
VERTEX
  8
___SYMBOL
 62
7
  6
CONTINUOUS
 10
29.8438839927
 20
12.1576168567
  0
VERTEX
  8
___SYMBOL
 62
7
  6
CONTINUOUS
 10
29.8450389427
 20
12.1606059002
  0
VERTEX
  8
___SYMBOL
 62
7
  6
CONTINUOUS
 10
29.8463149387
 20
12.163595521
  0
VERTEX
  8
___SYMBOL
 62
7
  6
CONTINUOUS
 10
29.8470442099
 20
12.1651862198
  0
VERTEX
  8
___SYMBOL
 62
7
  6
CONTINUOUS
 10
29.8478039629
 20
12.1667771205
  0
VERTEX
  8
___SYMBOL
 62
7
  6
CONTINUOUS
 10
29.8485884985
 20
12.1683680301
  0
VERTEX
  8
___SYMBOL
 62
7
  6
CONTINUOUS
 10
29.8493921173
 20
12.1699587556
  0
VERTEX
  8
___SYMBOL
 62
7
  6
CONTINUOUS
 10
29.8502091202
 20
12.1715491037
  0
VERTEX
  8
___SYMBOL
 62
7
  6
CONTINUOUS
 10
29.8510338078
 20
12.1731388815
  0
VERTEX
  8
___SYMBOL
 62
7
  6
CONTINUOUS
 10
29.8518604808
 20
12.174727896
  0
VERTEX
  8
___SYMBOL
 62
7
  6
CONTINUOUS
 10
29.8526834399
 20
12.1763159539
  0
VERTEX
  8
___SYMBOL
 62
7
  6
CONTINUOUS
 10
29.8534969858
 20
12.1779028624
  0
VERTEX
  8
___SYMBOL
 62
7
  6
CONTINUOUS
 10
29.8542954193
 20
12.1794884282
  0
VERTEX
  8
___SYMBOL
 62
7
  6
CONTINUOUS
 10
29.8550730409
 20
12.1810724584
  0
VERTEX
  8
___SYMBOL
 62
7
  6
CONTINUOUS
 10
29.8558241516
 20
12.1826547599
  0
VERTEX
  8
___SYMBOL
 62
7
  6
CONTINUOUS
 10
29.8565430519
 20
12.1842351395
  0
VERTEX
  8
___SYMBOL
 62
7
  6
CONTINUOUS
 10
29.8572240425
 20
12.1858134043
  0
VERTEX
  8
___SYMBOL
 62
7
  6
CONTINUOUS
 10
29.8578614243
 20
12.1873893611
  0
VERTEX
  8
___SYMBOL
 62
7
  6
CONTINUOUS
 10
29.8584494978
 20
12.188962817
  0
VERTEX
  8
___SYMBOL
 62
7
  6
CONTINUOUS
 10
29.8589825637
 20
12.1905335788
  0
VERTEX
  8
___SYMBOL
 62
7
  6
CONTINUOUS
 10
29.8594549229
 20
12.1921014535
  0
VERTEX
  8
___SYMBOL
 62
7
  6
CONTINUOUS
 10
29.859860876
 20
12.1936662479
  0
VERTEX
  8
___SYMBOL
 62
7
  6
CONTINUOUS
 10
29.8601947237
 20
12.1952277691
  0
VERTEX
  8
___SYMBOL
 62
7
  6
CONTINUOUS
 10
29.8604507667
 20
12.196785824
  0
VERTEX
  8
___SYMBOL
 62
7
  6
CONTINUOUS
 10
29.8606233057
 20
12.1983402194
  0
VERTEX
  8
___SYMBOL
 62
7
  6
CONTINUOUS
 10
29.8607066414
 20
12.1998907624
  0
VERTEX
  8
___SYMBOL
 62
7
  6
CONTINUOUS
 10
29.8606950746
 20
12.2014372599
  0
VERTEX
  8
___SYMBOL
 62
7
  6
CONTINUOUS
 10
29.8605829059
 20
12.2029795187
  0
VERTEX
  8
___SYMBOL
 62
7
  6
CONTINUOUS
 10
29.8603644361
 20
12.2045173459
  0
VERTEX
  8
___SYMBOL
 62
7
  6
CONTINUOUS
 10
29.8600339658
 20
12.2060505484
  0
VERTEX
  8
___SYMBOL
 62
7
  6
CONTINUOUS
 10
29.8595857958
 20
12.207578933
  0
VERTEX
  8
___SYMBOL
 62
7
  6
CONTINUOUS
 10
29.8593294574
 20
12.2083156444
  0
VERTEX
  8
___SYMBOL
 62
7
  6
CONTINUOUS
 10
29.8590659628
 20
12.2090571783
  0
VERTEX
  8
___SYMBOL
 62
7
  6
CONTINUOUS
 10
29.8588168871
 20
12.2098095238
  0
VERTEX
  8
___SYMBOL
 62
7
  6
CONTINUOUS
 10
29.8586038057
 20
12.2105786702
  0
VERTEX
  8
___SYMBOL
 62
7
  6
CONTINUOUS
 10
29.8584482938
 20
12.2113706065
  0
VERTEX
  8
___SYMBOL
 62
7
  6
CONTINUOUS
 10
29.8583708475
 20
12.212140813
  0
VERTEX
  8
___SYMBOL
 62
7
  6
CONTINUOUS
 10
29.8583642665
 20
12.2129248811
  0
VERTEX
  8
___SYMBOL
 62
7
  6
CONTINUOUS
 10
29.8584290473
 20
12.2137110841
  0
VERTEX
  8
___SYMBOL
 62
7
  6
CONTINUOUS
 10
29.8585656863
 20
12.2144876955
  0
VERTEX
  8
___SYMBOL
 62
7
  6
CONTINUOUS
 10
29.8587746799
 20
12.2152429889
  0
VERTEX
  8
___SYMBOL
 62
7
  6
CONTINUOUS
 10
29.8590565247
 20
12.2159652377
  0
VERTEX
  8
___SYMBOL
 62
7
  6
CONTINUOUS
 10
29.8594117171
 20
12.2166427153
  0
VERTEX
  8
___SYMBOL
 62
7
  6
CONTINUOUS
 10
29.8598407536
 20
12.2172636954
  0
VERTEX
  8
___SYMBOL
 62
7
  6
CONTINUOUS
 10
29.8603441305
 20
12.2178164514
  0
SEQEND
  0
POLYLINE
  8
___SYMBOL
 62
7
  6
CONTINUOUS
 66
1
 70
0
  0
VERTEX
  8
___SYMBOL
 62
7
  6
CONTINUOUS
 10
30.0404982727
 20
11.9159426136
  0
VERTEX
  8
___SYMBOL
 62
7
  6
CONTINUOUS
 10
30.0509978758
 20
11.9179868161
  0
VERTEX
  8
___SYMBOL
 62
7
  6
CONTINUOUS
 10
30.0610127884
 20
11.9231078198
  0
VERTEX
  8
___SYMBOL
 62
7
  6
CONTINUOUS
 10
30.0696656575
 20
11.9308569172
  0
VERTEX
  8
___SYMBOL
 62
7
  6
CONTINUOUS
 10
30.0768506339
 20
11.941139573
  0
VERTEX
  8
___SYMBOL
 62
7
  6
CONTINUOUS
 10
30.0819382791
 20
11.9530546399
  0
VERTEX
  8
___SYMBOL
 62
7
  6
CONTINUOUS
 10
30.0848663081
 20
11.9664567282
  0
VERTEX
  8
___SYMBOL
 62
7
  6
CONTINUOUS
 10
30.0853782918
 20
11.9801714071
  0
VERTEX
  8
___SYMBOL
 62
7
  6
CONTINUOUS
 10
30.0835274173
 20
11.9937702642
  0
VERTEX
  8
___SYMBOL
 62
7
  6
CONTINUOUS
 10
30.0793026038
 20
12.0068216795
  0
VERTEX
  8
___SYMBOL
 62
7
  6
CONTINUOUS
 10
30.0730740614
 20
12.0181821313
  0
VERTEX
  8
___SYMBOL
 62
7
  6
CONTINUOUS
 10
30.064917838
 20
12.0277127035
  0
VERTEX
  8
___SYMBOL
 62
7
  6
CONTINUOUS
 10
30.0555485766
 20
12.0345783826
  0
VERTEX
  8
___SYMBOL
 62
7
  6
CONTINUOUS
 10
30.0450807575
 20
12.038695364
  0
VERTEX
  8
___SYMBOL
 62
7
  6
CONTINUOUS
 10
30.0344316242
 20
12.0397028271
  0
VERTEX
  8
___SYMBOL
 62
7
  6
CONTINUOUS
 10
30.0239320795
 20
12.037658683
  0
VERTEX
  8
___SYMBOL
 62
7
  6
CONTINUOUS
 10
30.0139171085
 20
12.0325376793
  0
VERTEX
  8
___SYMBOL
 62
7
  6
CONTINUOUS
 10
30.0052642977
 20
12.0247885235
  0
VERTEX
  8
___SYMBOL
 62
7
  6
CONTINUOUS
 10
29.998079263
 20
12.0145058677
  0
VERTEX
  8
___SYMBOL
 62
7
  6
CONTINUOUS
 10
29.9929916762
 20
12.0025908008
  0
VERTEX
  8
___SYMBOL
 62
7
  6
CONTINUOUS
 10
29.9900635888
 20
11.9891887125
  0
VERTEX
  8
___SYMBOL
 62
7
  6
CONTINUOUS
 10
29.9895516051
 20
11.9754740336
  0
VERTEX
  8
___SYMBOL
 62
7
  6
CONTINUOUS
 10
29.9914024796
 20
11.9618751766
  0
VERTEX
  8
___SYMBOL
 62
7
  6
CONTINUOUS
 10
29.9956272931
 20
11.9488237612
  0
VERTEX
  8
___SYMBOL
 62
7
  6
CONTINUOUS
 10
30.0018558939
 20
11.9374633094
  0
VERTEX
  8
___SYMBOL
 62
7
  6
CONTINUOUS
 10
30.0100121172
 20
11.9279327372
  0
VERTEX
  8
___SYMBOL
 62
7
  6
CONTINUOUS
 10
30.0193813787
 20
11.9210670581
  0
VERTEX
  8
___SYMBOL
 62
7
  6
CONTINUOUS
 10
30.0298491394
 20
11.9169501351
  0
VERTEX
  8
___SYMBOL
 62
7
  6
CONTINUOUS
 10
30.0404982727
 20
11.9159426136
  0
SEQEND
  0
POLYLINE
  8
___SYMBOL
 62
7
  6
CONTINUOUS
 66
1
 70
0
  0
VERTEX
  8
___SYMBOL
 62
7
  6
CONTINUOUS
 10
29.9776494888
 20
11.9418144029
  0
VERTEX
  8
___SYMBOL
 62
7
  6
CONTINUOUS
 10
29.9790765242
 20
11.9372374321
  0
VERTEX
  8
___SYMBOL
 62
7
  6
CONTINUOUS
 10
29.9806773848
 20
11.9327812857
  0
VERTEX
  8
___SYMBOL
 62
7
  6
CONTINUOUS
 10
29.9824473048
 20
11.9284592297
  0
VERTEX
  8
___SYMBOL
 62
7
  6
CONTINUOUS
 10
29.984381015
 20
11.9242841313
  0
VERTEX
  8
___SYMBOL
 62
7
  6
CONTINUOUS
 10
29.9864727587
 20
11.9202684199
  0
VERTEX
  8
___SYMBOL
 62
7
  6
CONTINUOUS
 10
29.9887163086
 20
11.9164240504
  0
VERTEX
  8
___SYMBOL
 62
7
  6
CONTINUOUS
 10
29.9911049856
 20
11.9127624678
  0
VERTEX
  8
___SYMBOL
 62
7
  6
CONTINUOUS
 10
29.9936316785
 20
11.9092945726
  0
VERTEX
  8
___SYMBOL
 62
7
  6
CONTINUOUS
 10
29.9962888652
 20
11.9060306891
  0
VERTEX
  8
___SYMBOL
 62
7
  6
CONTINUOUS
 10
29.9990686351
 20
11.9029805339
  0
VERTEX
  8
___SYMBOL
 62
7
  6
CONTINUOUS
 10
30.0019627128
 20
11.9001531876
  0
VERTEX
  8
___SYMBOL
 62
7
  6
CONTINUOUS
 10
30.0049624823
 20
11.8975570672
  0
VERTEX
  8
___SYMBOL
 62
7
  6
CONTINUOUS
 10
30.0080590133
 20
11.8951999016
  0
VERTEX
  8
___SYMBOL
 62
7
  6
CONTINUOUS
 10
30.0112430873
 20
11.8930887081
  0
VERTEX
  8
___SYMBOL
 62
7
  6
CONTINUOUS
 10
30.014505225
 20
11.8912297719
  0
VERTEX
  8
___SYMBOL
 62
7
  6
CONTINUOUS
 10
30.0178357149
 20
11.889628627
  0
VERTEX
  8
___SYMBOL
 62
7
  6
CONTINUOUS
 10
30.0212246421
 20
11.8882900403
  0
VERTEX
  8
___SYMBOL
 62
7
  6
CONTINUOUS
 10
30.0246619175
 20
11.8872179967
  0
VERTEX
  8
___SYMBOL
 62
7
  6
CONTINUOUS
 10
30.0281373082
 20
11.8864156877
  0
VERTEX
  8
___SYMBOL
 62
7
  6
CONTINUOUS
 10
30.0316404677
 20
11.885885502
  0
VERTEX
  8
___SYMBOL
 62
7
  6
CONTINUOUS
 10
30.035160967
 20
11.8856290177
  0
VERTEX
  8
___SYMBOL
 62
7
  6
CONTINUOUS
 10
30.0386883254
 20
11.8856469986
  0
VERTEX
  8
___SYMBOL
 62
7
  6
CONTINUOUS
 10
30.0422120418
 20
11.8859393911
  0
VERTEX
  8
___SYMBOL
 62
7
  6
CONTINUOUS
 10
30.0457216259
 20
11.8865053248
  0
VERTEX
  8
___SYMBOL
 62
7
  6
CONTINUOUS
 10
30.0492066295
 20
11.8873431147
  0
VERTEX
  8
___SYMBOL
 62
7
  6
CONTINUOUS
 10
30.0526566776
 20
11.8884502668
  0
VERTEX
  8
___SYMBOL
 62
7
  6
CONTINUOUS
 10
30.0560614992
 20
11.889823485
  0
VERTEX
  8
___SYMBOL
 62
7
  6
CONTINUOUS
 10
30.059410958
 20
11.8914586813
  0
VERTEX
  8
___SYMBOL
 62
7
  6
CONTINUOUS
 10
30.0626950825
 20
11.8933509874
  0
VERTEX
  8
___SYMBOL
 62
7
  6
CONTINUOUS
 10
30.0659040957
 20
11.89549477
  0
VERTEX
  8
___SYMBOL
 62
7
  6
CONTINUOUS
 10
30.0690284442
 20
11.8978836469
  0
VERTEX
  8
___SYMBOL
 62
7
  6
CONTINUOUS
 10
30.0720588267
 20
11.9005105064
  0
VERTEX
  8
___SYMBOL
 62
7
  6
CONTINUOUS
 10
30.0749862216
 20
11.903367528
  0
VERTEX
  8
___SYMBOL
 62
7
  6
CONTINUOUS
 10
30.0778019139
 20
11.9064462063
  0
VERTEX
  8
___SYMBOL
 62
7
  6
CONTINUOUS
 10
30.080497521
 20
11.909737376
  0
VERTEX
  8
___SYMBOL
 62
7
  6
CONTINUOUS
 10
30.0830650182
 20
11.913231239
  0
VERTEX
  8
___SYMBOL
 62
7
  6
CONTINUOUS
 10
30.0854967618
 20
11.9169173941
  0
VERTEX
  8
___SYMBOL
 62
7
  6
CONTINUOUS
 10
30.0877855123
 20
11.9207848672
  0
VERTEX
  8
___SYMBOL
 62
7
  6
CONTINUOUS
 10
30.0899244562
 20
11.9248221448
  0
VERTEX
  8
___SYMBOL
 62
7
  6
CONTINUOUS
 10
30.0919072256
 20
11.9290172076
  0
VERTEX
  8
___SYMBOL
 62
7
  6
CONTINUOUS
 10
30.0937279177
 20
11.9333575669
  0
VERTEX
  8
___SYMBOL
 62
7
  6
CONTINUOUS
 10
30.0953811123
 20
11.9378303011
  0
VERTEX
  8
___SYMBOL
 62
7
  6
CONTINUOUS
 10
30.0968618876
 20
11.9424220946
  0
VERTEX
  8
___SYMBOL
 62
7
  6
CONTINUOUS
 10
30.0981658354
 20
11.9471192775
  0
VERTEX
  8
___SYMBOL
 62
7
  6
CONTINUOUS
 10
30.0992890738
 20
11.9519078661
  0
VERTEX
  8
___SYMBOL
 62
7
  6
CONTINUOUS
 10
30.1002282588
 20
11.9567736044
  0
VERTEX
  8
___SYMBOL
 62
7
  6
CONTINUOUS
 10
30.1009805944
 20
11.961702007
  0
VERTEX
  8
___SYMBOL
 62
7
  6
CONTINUOUS
 10
30.1015438409
 20
11.9666784018
  0
VERTEX
  8
___SYMBOL
 62
7
  6
CONTINUOUS
 10
30.1019163215
 20
11.9716879737
  0
VERTEX
  8
___SYMBOL
 62
7
  6
CONTINUOUS
 10
30.1020969272
 20
11.976715809
  0
VERTEX
  8
___SYMBOL
 62
7
  6
CONTINUOUS
 10
30.1020851204
 20
11.9817469397
  0
VERTEX
  8
___SYMBOL
 62
7
  6
CONTINUOUS
 10
30.1018809363
 20
11.9867663878
  0
VERTEX
  8
___SYMBOL
 62
7
  6
CONTINUOUS
 10
30.1014849827
 20
11.9917592101
  0
VERTEX
  8
___SYMBOL
 62
7
  6
CONTINUOUS
 10
30.1008984383
 20
11.9967105429
  0
VERTEX
  8
___SYMBOL
 62
7
  6
CONTINUOUS
 10
30.1001230494
 20
12.0016056457
  0
VERTEX
  8
___SYMBOL
 62
7
  6
CONTINUOUS
 10
30.0991611244
 20
12.0064299456
  0
VERTEX
  8
___SYMBOL
 62
7
  6
CONTINUOUS
 10
30.0980155269
 20
12.0111690803
  0
VERTEX
  8
___SYMBOL
 62
7
  6
CONTINUOUS
 10
30.0966896674
 20
12.0158089414
  0
VERTEX
  8
___SYMBOL
 62
7
  6
CONTINUOUS
 10
30.0951874931
 20
12.0203357156
  0
VERTEX
  8
___SYMBOL
 62
7
  6
CONTINUOUS
 10
30.093513476
 20
12.0247359266
  0
VERTEX
  8
___SYMBOL
 62
7
  6
CONTINUOUS
 10
30.0916725997
 20
12.0289964747
  0
VERTEX
  8
___SYMBOL
 62
7
  6
CONTINUOUS
 10
30.0896703447
 20
12.0331046761
  0
VERTEX
  8
___SYMBOL
 62
7
  6
CONTINUOUS
 10
30.0875126717
 20
12.0370483004
  0
VERTEX
  8
___SYMBOL
 62
7
  6
CONTINUOUS
 10
30.0852060042
 20
12.0408156072
  0
VERTEX
  8
___SYMBOL
 62
7
  6
CONTINUOUS
 10
30.0827572094
 20
12.0443953812
  0
VERTEX
  8
___SYMBOL
 62
7
  6
CONTINUOUS
 10
30.0801735773
 20
12.0477769652
  0
VERTEX
  8
___SYMBOL
 62
7
  6
CONTINUOUS
 10
30.0774627996
 20
12.050950292
  0
VERTEX
  8
___SYMBOL
 62
7
  6
CONTINUOUS
 10
30.0746329464
 20
12.0539059144
  0
VERTEX
  8
___SYMBOL
 62
7
  6
CONTINUOUS
 10
30.0716924423
 20
12.0566350335
  0
VERTEX
  8
___SYMBOL
 62
7
  6
CONTINUOUS
 10
30.0686500413
 20
12.0591295246
  0
VERTEX
  8
___SYMBOL
 62
7
  6
CONTINUOUS
 10
30.0655148008
 20
12.0613819613
  0
VERTEX
  8
___SYMBOL
 62
7
  6
CONTINUOUS
 10
30.0622960545
 20
12.0633856381
  0
VERTEX
  8
___SYMBOL
 62
7
  6
CONTINUOUS
 10
30.0590033849
 20
12.06513459
  0
VERTEX
  8
___SYMBOL
 62
7
  6
CONTINUOUS
 10
30.0556465944
 20
12.0666236102
  0
VERTEX
  8
___SYMBOL
 62
7
  6
CONTINUOUS
 10
30.0522356762
 20
12.0678482659
  0
VERTEX
  8
___SYMBOL
 62
7
  6
CONTINUOUS
 10
30.0487807849
 20
12.0688049111
  0
VERTEX
  8
___SYMBOL
 62
7
  6
CONTINUOUS
 10
30.0452922059
 20
12.069490698
  0
VERTEX
  8
___SYMBOL
 62
7
  6
CONTINUOUS
 10
30.0417803247
 20
12.0699035848
  0
VERTEX
  8
___SYMBOL
 62
7
  6
CONTINUOUS
 10
30.0382555965
 20
12.0700423425
  0
VERTEX
  8
___SYMBOL
 62
7
  6
CONTINUOUS
 10
30.0347285146
 20
12.0699065578
  0
VERTEX
  8
___SYMBOL
 62
7
  6
CONTINUOUS
 10
30.0312095791
 20
12.0694966352
  0
VERTEX
  8
___SYMBOL
 62
7
  6
CONTINUOUS
 10
30.0277092663
 20
12.0688137948
  0
VERTEX
  8
___SYMBOL
 62
7
  6
CONTINUOUS
 10
30.0242379966
 20
12.0678600696
  0
VERTEX
  8
___SYMBOL
 62
7
  6
CONTINUOUS
 10
30.0208061042
 20
12.0666382988
  0
VERTEX
  8
___SYMBOL
 62
7
  6
CONTINUOUS
 10
30.017423806
 20
12.0651521198
  0
VERTEX
  8
___SYMBOL
 62
7
  6
CONTINUOUS
 10
30.0141011714
 20
12.0634059569
  0
VERTEX
  8
___SYMBOL
 62
7
  6
CONTINUOUS
 10
30.0108480918
 20
12.0614050086
  0
VERTEX
  8
___SYMBOL
 62
7
  6
CONTINUOUS
 10
30.007674252
 20
12.0591552317
  0
VERTEX
  8
___SYMBOL
 62
7
  6
CONTINUOUS
 10
30.0045891005
 20
12.0566633241
  0
VERTEX
  8
___SYMBOL
 62
7
  6
CONTINUOUS
 10
30.001601822
 20
12.0539367041
  0
SEQEND
  0
POLYLINE
  8
___SYMBOL
 62
7
  6
CONTINUOUS
 66
1
 70
0
  0
VERTEX
  8
___SYMBOL
 62
7
  6
CONTINUOUS
 10
29.7992981825
 20
11.9228242721
  0
VERTEX
  8
___SYMBOL
 62
7
  6
CONTINUOUS
 10
29.8092800865
 20
11.9255942563
  0
VERTEX
  8
___SYMBOL
 62
7
  6
CONTINUOUS
 10
29.8185627149
 20
11.9313952029
  0
VERTEX
  8
___SYMBOL
 62
7
  6
CONTINUOUS
 10
29.8263326905
 20
11.9397186855
  0
VERTEX
  8
___SYMBOL
 62
7
  6
CONTINUOUS
 10
29.8324951283
 20
11.9504631123
  0
VERTEX
  8
___SYMBOL
 62
7
  6
CONTINUOUS
 10
29.8365100803
 20
11.9626870373
  0
VERTEX
  8
___SYMBOL
 62
7
  6
CONTINUOUS
 10
29.8383284711
 20
11.9762411636
  0
VERTEX
  8
___SYMBOL
 62
7
  6
CONTINUOUS
 10
29.8377909727
 20
11.9899377636
  0
VERTEX
  8
___SYMBOL
 62
7
  6
CONTINUOUS
 10
29.8349812149
 20
12.0033539068
  0
VERTEX
  8
___SYMBOL
 62
7
  6
CONTINUOUS
 10
29.8299209797
 20
12.0160587314
  0
VERTEX
  8
___SYMBOL
 62
7
  6
CONTINUOUS
 10
29.8230536677
 20
12.0269392168
  0
VERTEX
  8
___SYMBOL
 62
7
  6
CONTINUOUS
 10
29.8144631126
 20
12.0358622785
  0
VERTEX
  8
___SYMBOL
 62
7
  6
CONTINUOUS
 10
29.8049020978
 20
12.0420461485
  0
VERTEX
  8
___SYMBOL
 62
7
  6
CONTINUOUS
 10
29.7944873783
 20
12.0454153035
  0
VERTEX
  8
___SYMBOL
 62
7
  6
CONTINUOUS
 10
29.7841315028
 20
12.0456744738
  0
VERTEX
  8
___SYMBOL
 62
7
  6
CONTINUOUS
 10
29.7741495988
 20
12.0429044313
  0
VERTEX
  8
___SYMBOL
 62
7
  6
CONTINUOUS
 10
29.7648669704
 20
12.0371035431
  0
VERTEX
  8
___SYMBOL
 62
7
  6
CONTINUOUS
 10
29.7570969947
 20
12.0287800604
  0
VERTEX
  8
___SYMBOL
 62
7
  6
CONTINUOUS
 10
29.7509345278
 20
12.0180355753
  0
VERTEX
  8
___SYMBOL
 62
7
  6
CONTINUOUS
 10
29.746919605
 20
12.0058116503
  0
VERTEX
  8
___SYMBOL
 62
7
  6
CONTINUOUS
 10
29.7451012142
 20
11.9922575823
  0
VERTEX
  8
___SYMBOL
 62
7
  6
CONTINUOUS
 10
29.7456387125
 20
11.9785609824
  0
VERTEX
  8
___SYMBOL
 62
7
  6
CONTINUOUS
 10
29.7484484704
 20
11.9651448391
  0
VERTEX
  8
___SYMBOL
 62
7
  6
CONTINUOUS
 10
29.7535087055
 20
11.9524399562
  0
VERTEX
  8
___SYMBOL
 62
7
  6
CONTINUOUS
 10
29.7603760175
 20
11.9415595292
  0
VERTEX
  8
___SYMBOL
 62
7
  6
CONTINUOUS
 10
29.7689665727
 20
11.9326364674
  0
VERTEX
  8
___SYMBOL
 62
7
  6
CONTINUOUS
 10
29.7785275875
 20
11.9264525974
  0
VERTEX
  8
___SYMBOL
 62
7
  6
CONTINUOUS
 10
29.788942307
 20
11.9230834424
  0
VERTEX
  8
___SYMBOL
 62
7
  6
CONTINUOUS
 10
29.7992981825
 20
11.9228242721
  0
SEQEND
  0
POLYLINE
  8
___SYMBOL
 62
7
  6
CONTINUOUS
 66
1
 70
0
  0
VERTEX
  8
___SYMBOL
 62
7
  6
CONTINUOUS
 10
29.8248265985
 20
12.0495675069
  0
VERTEX
  8
___SYMBOL
 62
7
  6
CONTINUOUS
 10
29.8214601901
 20
12.0519102765
  0
VERTEX
  8
___SYMBOL
 62
7
  6
CONTINUOUS
 10
29.8179985124
 20
12.05399363
  0
VERTEX
  8
___SYMBOL
 62
7
  6
CONTINUOUS
 10
29.8144530933
 20
12.0558106295
  0
VERTEX
  8
___SYMBOL
 62
7
  6
CONTINUOUS
 10
29.8108357397
 20
12.057355224
  0
VERTEX
  8
___SYMBOL
 62
7
  6
CONTINUOUS
 10
29.8071584981
 20
12.0586222698
  0
VERTEX
  8
___SYMBOL
 62
7
  6
CONTINUOUS
 10
29.8034336144
 20
12.0596075473
  0
VERTEX
  8
___SYMBOL
 62
7
  6
CONTINUOUS
 10
29.799673493
 20
12.0603077754
  0
VERTEX
  8
___SYMBOL
 62
7
  6
CONTINUOUS
 10
29.7958906561
 20
12.0607206222
  0
VERTEX
  8
___SYMBOL
 62
7
  6
CONTINUOUS
 10
29.7920977009
 20
12.0608447128
  0
VERTEX
  8
___SYMBOL
 62
7
  6
CONTINUOUS
 10
29.7883072589
 20
12.060679634
  0
VERTEX
  8
___SYMBOL
 62
7
  6
CONTINUOUS
 10
29.7845319528
 20
12.0602259356
  0
VERTEX
  8
___SYMBOL
 62
7
  6
CONTINUOUS
 10
29.7807843552
 20
12.0594851284
  0
VERTEX
  8
___SYMBOL
 62
7
  6
CONTINUOUS
 10
29.7770769462
 20
12.0584596795
  0
VERTEX
  8
___SYMBOL
 62
7
  6
CONTINUOUS
 10
29.7734220721
 20
12.0571530038
  0
VERTEX
  8
___SYMBOL
 62
7
  6
CONTINUOUS
 10
29.7698319044
 20
12.0555694528
  0
VERTEX
  8
___SYMBOL
 62
7
  6
CONTINUOUS
 10
29.766318399
 20
12.0537142999
  0
VERTEX
  8
___SYMBOL
 62
7
  6
CONTINUOUS
 10
29.7628932566
 20
12.0515937232
  0
VERTEX
  8
___SYMBOL
 62
7
  6
CONTINUOUS
 10
29.7595678834
 20
12.0492147846
  0
VERTEX
  8
___SYMBOL
 62
7
  6
CONTINUOUS
 10
29.7563533535
 20
12.0465854065
  0
VERTEX
  8
___SYMBOL
 62
7
  6
CONTINUOUS
 10
29.753260372
 20
12.043714345
  0
VERTEX
  8
___SYMBOL
 62
7
  6
CONTINUOUS
 10
29.7502992391
 20
12.0406111614
  0
VERTEX
  8
___SYMBOL
 62
7
  6
CONTINUOUS
 10
29.7474798158
 20
12.0372861898
  0
VERTEX
  8
___SYMBOL
 62
7
  6
CONTINUOUS
 10
29.7448114913
 20
12.0337505031
  0
VERTEX
  8
___SYMBOL
 62
7
  6
CONTINUOUS
 10
29.7423031518
 20
12.0300158757
  0
VERTEX
  8
___SYMBOL
 62
7
  6
CONTINUOUS
 10
29.7399631503
 20
12.0260947445
  0
VERTEX
  8
___SYMBOL
 62
7
  6
CONTINUOUS
 10
29.7377992795
 20
12.0220001677
  0
VERTEX
  8
___SYMBOL
 62
7
  6
CONTINUOUS
 10
29.7358187456
 20
12.0177457811
  0
VERTEX
  8
___SYMBOL
 62
7
  6
CONTINUOUS
 10
29.7340281441
 20
12.0133457523
  0
VERTEX
  8
___SYMBOL
 62
7
  6
CONTINUOUS
 10
29.7324334379
 20
12.0088147345
  0
VERTEX
  8
___SYMBOL
 62
7
  6
CONTINUOUS
 10
29.7310399378
 20
12.0041678166
  0
VERTEX
  8
___SYMBOL
 62
7
  6
CONTINUOUS
 10
29.7298522844
 20
11.9994204738
  0
VERTEX
  8
___SYMBOL
 62
7
  6
CONTINUOUS
 10
29.7288744327
 20
11.9945885157
  0
VERTEX
  8
___SYMBOL
 62
7
  6
CONTINUOUS
 10
29.7281096393
 20
11.9896880334
  0
VERTEX
  8
___SYMBOL
 62
7
  6
CONTINUOUS
 10
29.7275604509
 20
11.9847353466
  0
VERTEX
  8
___SYMBOL
 62
7
  6
CONTINUOUS
 10
29.7272286966
 20
11.9797469485
  0
VERTEX
  8
___SYMBOL
 62
7
  6
CONTINUOUS
 10
29.727115481
 20
11.9747394515
  0
VERTEX
  8
___SYMBOL
 62
7
  6
CONTINUOUS
 10
29.7272211813
 20
11.9697295315
  0
VERTEX
  8
___SYMBOL
 62
7
  6
CONTINUOUS
 10
29.7275454454
 20
11.9647338723
  0
VERTEX
  8
___SYMBOL
 62
7
  6
CONTINUOUS
 10
29.7280871935
 20
11.9597691105
  0
VERTEX
  8
___SYMBOL
 62
7
  6
CONTINUOUS
 10
29.7288446215
 20
11.9548517797
  0
VERTEX
  8
___SYMBOL
 62
7
  6
CONTINUOUS
 10
29.7298152069
 20
11.9499982554
  0
VERTEX
  8
___SYMBOL
 62
7
  6
CONTINUOUS
 10
29.7309957176
 20
11.9452247008
  0
VERTEX
  8
___SYMBOL
 62
7
  6
CONTINUOUS
 10
29.7323822222
 20
11.9405470127
  0
VERTEX
  8
___SYMBOL
 62
7
  6
CONTINUOUS
 10
29.7339701034
 20
11.9359807686
  0
VERTEX
  8
___SYMBOL
 62
7
  6
CONTINUOUS
 10
29.7357540733
 20
11.931541175
  0
VERTEX
  8
___SYMBOL
 62
7
  6
CONTINUOUS
 10
29.737728191
 20
11.9272430166
  0
VERTEX
  8
___SYMBOL
 62
7
  6
CONTINUOUS
 10
29.7398858822
 20
11.9231006069
  0
VERTEX
  8
___SYMBOL
 62
7
  6
CONTINUOUS
 10
29.7422199614
 20
11.9191277411
  0
VERTEX
  8
___SYMBOL
 62
7
  6
CONTINUOUS
 10
29.7447226558
 20
11.9153376494
  0
VERTEX
  8
___SYMBOL
 62
7
  6
CONTINUOUS
 10
29.7473856309
 20
11.9117429536
  0
VERTEX
  8
___SYMBOL
 62
7
  6
CONTINUOUS
 10
29.7502000185
 20
11.9083556247
  0
VERTEX
  8
___SYMBOL
 62
7
  6
CONTINUOUS
 10
29.7531564462
 20
11.905186943
  0
VERTEX
  8
___SYMBOL
 62
7
  6
CONTINUOUS
 10
29.7562450686
 20
11.902247461
  0
VERTEX
  8
___SYMBOL
 62
7
  6
CONTINUOUS
 10
29.7594555998
 20
11.8995469675
  0
VERTEX
  8
___SYMBOL
 62
7
  6
CONTINUOUS
 10
29.7627773484
 20
11.8970944558
  0
VERTEX
  8
___SYMBOL
 62
7
  6
CONTINUOUS
 10
29.7661992522
 20
11.8948980931
  0
VERTEX
  8
___SYMBOL
 62
7
  6
CONTINUOUS
 10
29.7697099157
 20
11.8929651938
  0
VERTEX
  8
___SYMBOL
 62
7
  6
CONTINUOUS
 10
29.7732976478
 20
11.8913021948
  0
VERTEX
  8
___SYMBOL
 62
7
  6
CONTINUOUS
 10
29.7769505006
 20
11.8899146341
  0
VERTEX
  8
___SYMBOL
 62
7
  6
CONTINUOUS
 10
29.7806563094
 20
11.8888071325
  0
VERTEX
  8
___SYMBOL
 62
7
  6
CONTINUOUS
 10
29.7844027333
 20
11.8879833784
  0
VERTEX
  8
___SYMBOL
 62
7
  6
CONTINUOUS
 10
29.7881772959
 20
11.8874461148
  0
VERTEX
  8
___SYMBOL
 62
7
  6
CONTINUOUS
 10
29.7919674273
 20
11.8871971311
  0
VERTEX
  8
___SYMBOL
 62
7
  6
CONTINUOUS
 10
29.7957605057
 20
11.8872372563
  0
VERTEX
  8
___SYMBOL
 62
7
  6
CONTINUOUS
 10
29.7995438993
 20
11.8875663569
  0
VERTEX
  8
___SYMBOL
 62
7
  6
CONTINUOUS
 10
29.8033050088
 20
11.8881833368
  0
VERTEX
  8
___SYMBOL
 62
7
  6
CONTINUOUS
 10
29.807031309
 20
11.8890861415
  0
VERTEX
  8
___SYMBOL
 62
7
  6
CONTINUOUS
 10
29.8107103906
 20
11.8902717644
  0
VERTEX
  8
___SYMBOL
 62
7
  6
CONTINUOUS
 10
29.8143300017
 20
11.8917362571
  0
VERTEX
  8
___SYMBOL
 62
7
  6
CONTINUOUS
 10
29.8178780882
 20
11.8934747427
  0
VERTEX
  8
___SYMBOL
 62
7
  6
CONTINUOUS
 10
29.8213428344
 20
11.8954814317
  0
VERTEX
  8
___SYMBOL
 62
7
  6
CONTINUOUS
 10
29.824712702
 20
11.8977496413
  0
VERTEX
  8
___SYMBOL
 62
7
  6
CONTINUOUS
 10
29.8279764687
 20
11.9002718182
  0
VERTEX
  8
___SYMBOL
 62
7
  6
CONTINUOUS
 10
29.8311232657
 20
11.9030395629
  0
VERTEX
  8
___SYMBOL
 62
7
  6
CONTINUOUS
 10
29.8341426134
 20
11.9060436583
  0
VERTEX
  8
___SYMBOL
 62
7
  6
CONTINUOUS
 10
29.837024457
 20
11.9092741004
  0
VERTEX
  8
___SYMBOL
 62
7
  6
CONTINUOUS
 10
29.8397591993
 20
11.912720131
  0
VERTEX
  8
___SYMBOL
 62
7
  6
CONTINUOUS
 10
29.8423377331
 20
11.9163702743
  0
VERTEX
  8
___SYMBOL
 62
7
  6
CONTINUOUS
 10
29.8447514715
 20
11.9202123746
  0
VERTEX
  8
___SYMBOL
 62
7
  6
CONTINUOUS
 10
29.8469923763
 20
11.9242336371
  0
VERTEX
  8
___SYMBOL
 62
7
  6
CONTINUOUS
 10
29.8490529848
 20
11.9284206702
  0
VERTEX
  8
___SYMBOL
 62
7
  6
CONTINUOUS
 10
29.8509264348
 20
11.9327595303
  0
VERTEX
  8
___SYMBOL
 62
7
  6
CONTINUOUS
 10
29.8526064875
 20
11.9372357682
  0
VERTEX
  8
___SYMBOL
 62
7
  6
CONTINUOUS
 10
29.8540875478
 20
11.9418344771
  0
VERTEX
  8
___SYMBOL
 62
7
  6
CONTINUOUS
 10
29.8553646837
 20
11.9465403427
  0
VERTEX
  8
___SYMBOL
 62
7
  6
CONTINUOUS
 10
29.856433642
 20
11.9513376934
  0
VERTEX
  8
___SYMBOL
 62
7
  6
CONTINUOUS
 10
29.8572908628
 20
11.9562105532
  0
VERTEX
  8
___SYMBOL
 62
7
  6
CONTINUOUS
 10
29.8579334916
 20
11.9611426946
  0
SEQEND
  0
ENDBLK
  8
0
  6
BYBLOCK
 62
0
  0
BLOCK
  8
___SYMBOL
 62
2
  6
CONTINUOUS
  2
CUT-OUT_TEMPLATE_SKU_SIN_BL2
 70
64
 10
9.0895481038
 20
16.0300930008
  0
TEXT
  8
___SYMBOL
 62
2
  6
CONTINUOUS
 10
6.6895481038
 20
16.8146471246
  7
STANDARD
 40
0.25
  1
CUT-OUT TEMPLATE
 41
0.8
 72
0
  0
TEXT
  8
___SYMBOL
 62
2
  6
CONTINUOUS
 10
6.6895481038
 20
16.4396471246
  7
STANDARD
 40
0.25
  1
UNDER-MOUNT SINK
 41
0.8
 72
0
  0
TEXT
  8
___SYMBOL
 62
2
  6
CONTINUOUS
 10
6.6895481038
 20
16.0646471246
  7
STANDARD
 40
0.25
  1
PLANTILLA DE RECORTE
 41
0.8
 72
0
  0
TEXT
  8
___SYMBOL
 62
2
  6
CONTINUOUS
 10
6.6895481038
 20
15.6896471246
  7
STANDARD
 40
0.25
  1
FREGADERO MONTADO DEBAJO
 41
0.8
 72
0
  0
TEXT
  8
___SYMBOL
 62
2
  6
CONTINUOUS
 10
6.6895481038
 20
15.3146471246
  7
STANDARD
 40
0.25
  1
  DEL MOSTRADOR
 41
0.8
 72
0
  0
TEXT
  8
___SYMBOL
 62
2
  6
CONTINUOUS
 10
6.6895481038
 20
14.9396471246
  7
STANDARD
 40
0.25
  1
PLAN DE DÉCOUPE
 41
0.8
 72
0
  0
TEXT
  8
___SYMBOL
 62
2
  6
CONTINUOUS
 10
6.6895481038
 20
14.5646471246
  7
STANDARD
 40
0.25
  1
ÉVIER SOUS-COMPTOIR
 41
0.8
 72
0
  0
TEXT
  8
___SYMBOL
 62
2
  6
CONTINUOUS
 10
6.6895481038
 20
14.1896471246
  7
STANDARD
 40
0.25
  1
   28000-***
 41
0.8
 72
0
  0
LINE
  8
___SYMBOL
 62
2
  6
CONTINUOUS
 10
7.21611988
 20
17.8665603625
 11
7.0028164281
 21
17.6129120895
  0
LINE
  8
___SYMBOL
 62
2
  6
CONTINUOUS
 10
7.0240580679
 20
17.8665603625
 11
7.21611988
 21
17.8665603625
  0
LINE
  8
___SYMBOL
 62
2
  6
CONTINUOUS
 10
7.0240580679
 20
17.8665603625
 11
6.8862939012
 21
17.7027391728
  0
LINE
  8
___SYMBOL
 62
2
  6
CONTINUOUS
 10
6.8862939012
 20
17.8665603625
 11
6.8862939012
 21
17.7027391728
  0
LINE
  8
___SYMBOL
 62
2
  6
CONTINUOUS
 10
6.7117936742
 20
17.8665603625
 11
6.8862939012
 21
17.8665603625
  0
LINE
  8
___SYMBOL
 62
2
  6
CONTINUOUS
 10
6.7117936742
 20
17.8665603625
 11
6.7117936742
 21
17.2806227096
  0
LINE
  8
___SYMBOL
 62
2
  6
CONTINUOUS
 10
6.8862939012
 20
17.2806467131
 11
6.7117936742
 21
17.2806227096
  0
LINE
  8
___SYMBOL
 62
2
  6
CONTINUOUS
 10
6.8862939012
 20
17.4821465471
 11
6.8862939012
 21
17.2806467131
  0
LINE
  8
___SYMBOL
 62
2
  6
CONTINUOUS
 10
7.0400318413
 20
17.2806467131
 11
6.8862939012
 21
17.4821465471
  0
LINE
  8
___SYMBOL
 62
2
  6
CONTINUOUS
 10
7.0400318413
 20
17.2806467131
 11
7.2563242628
 21
17.2806467131
  0
LINE
  8
___SYMBOL
 62
2
  6
CONTINUOUS
 10
7.2563242628
 20
17.2806467131
 11
7.0028164281
 21
17.6129120895
  0
SOLID
  8
___SYMBOL
 62
2
  6
CONTINUOUS
 10
6.8862939012
 20
17.7027391728
 11
7.0240580679
 21
17.8665603625
 12
7.21611988
 22
17.8665603625
 13
7.21611988
 23
17.8665603625
  0
SOLID
  8
___SYMBOL
 62
2
  6
CONTINUOUS
 10
7.21611988
 20
17.8665603625
 11
7.0028164281
 21
17.6129120895
 12
6.8862939012
 22
17.7027391728
 13
6.8862939012
 23
17.7027391728
  0
SOLID
  8
___SYMBOL
 62
2
  6
CONTINUOUS
 10
6.8862939012
 20
17.4821465471
 11
7.0028164281
 21
17.6129120895
 12
7.0400318413
 22
17.2806467131
 13
7.0400318413
 23
17.2806467131
  0
SOLID
  8
___SYMBOL
 62
2
  6
CONTINUOUS
 10
7.0028164281
 20
17.6129120895
 11
7.2563242628
 21
17.2806467131
 12
7.0400318413
 22
17.2806467131
 13
7.0400318413
 23
17.2806467131
  0
SOLID
  8
___SYMBOL
 62
2
  6
CONTINUOUS
 10
6.8862939012
 20
17.2806467131
 11
6.7117936742
 21
17.2806227096
 12
6.8862939012
 22
17.4821465471
 13
6.8862939012
 23
17.4821465471
  0
SOLID
  8
___SYMBOL
 62
2
  6
CONTINUOUS
 10
7.0028164281
 20
17.6129120895
 11
6.8862939012
 21
17.4821465471
 12
6.8862939012
 22
17.7027391728
 13
6.8862939012
 23
17.7027391728
  0
SOLID
  8
___SYMBOL
 62
2
  6
CONTINUOUS
 10
6.8862939012
 20
17.4821465471
 11
6.7117936742
 21
17.2806227096
 12
6.8862939012
 22
17.7027391728
 13
6.8862939012
 23
17.7027391728
  0
SOLID
  8
___SYMBOL
 62
2
  6
CONTINUOUS
 10
6.8862939012
 20
17.7027391728
 11
6.7117936742
 21
17.2806227096
 12
6.8862939012
 22
17.8665603625
 13
6.8862939012
 23
17.8665603625
  0
SOLID
  8
___SYMBOL
 62
2
  6
CONTINUOUS
 10
6.7117936742
 20
17.2806227096
 11
6.7117936742
 21
17.8665603625
 12
6.8862939012
 22
17.8665603625
 13
6.8862939012
 23
17.8665603625
  0
CIRCLE
  8
___SYMBOL
 62
2
  6
CONTINUOUS
 10
7.4328330995
 20
17.5724822859
 40
0.298056591
  0
CIRCLE
  8
___SYMBOL
 62
2
  6
CONTINUOUS
 10
7.4328330995
 20
17.5724822859
 40
0.1247694151
  0
SOLID
  8
___SYMBOL
 62
2
  6
CONTINUOUS
 10
7.3407285476
 20
17.855950949
 11
7.401677702
 21
17.8689060917
 12
7.4639884969
 22
17.8689060917
 13
7.4639884969
 23
17.8689060917
  0
SOLID
  8
___SYMBOL
 62
2
  6
CONTINUOUS
 10
7.4639884969
 20
17.8689060917
 11
7.5249376514
 21
17.855950949
 12
7.3407285476
 22
17.855950949
 13
7.3407285476
 23
17.855950949
  0
SOLID
  8
___SYMBOL
 62
2
  6
CONTINUOUS
 10
7.283804804
 20
17.8306068655
 11
7.3407285476
 21
17.855950949
 12
7.5249376514
 22
17.855950949
 13
7.5249376514
 23
17.855950949
  0
SOLID
  8
___SYMBOL
 62
2
  6
CONTINUOUS
 10
7.5249376514
 20
17.855950949
 11
7.581861395
 21
17.8306068655
 12
7.283804804
 22
17.8306068655
 13
7.283804804
 23
17.8306068655
  0
SOLID
  8
___SYMBOL
 62
2
  6
CONTINUOUS
 10
7.233394312
 20
17.7939814992
 11
7.283804804
 21
17.8306068655
 12
7.581861395
 22
17.8306068655
 13
7.581861395
 23
17.8306068655
  0
SOLID
  8
___SYMBOL
 62
2
  6
CONTINUOUS
 10
7.581861395
 20
17.8306068655
 11
7.6322718869
 21
17.7939814992
 12
7.233394312
 22
17.7939814992
 13
7.233394312
 23
17.7939814992
  0
SOLID
  8
___SYMBOL
 62
2
  6
CONTINUOUS
 10
7.1917002521
 20
17.7476755545
 11
7.233394312
 21
17.7939814992
 12
7.6322718869
 22
17.7939814992
 13
7.6322718869
 23
17.7939814992
  0
SOLID
  8
___SYMBOL
 62
2
  6
CONTINUOUS
 10
7.6322718869
 20
17.7939814992
 11
7.6739659469
 21
17.7476755545
 12
7.1917002521
 22
17.7476755545
 13
7.1917002521
 23
17.7476755545
  0
SOLID
  8
___SYMBOL
 62
2
  6
CONTINUOUS
 10
7.4328330995
 20
17.697251701
 11
7.1605448546
 21
17.6937128232
 12
7.6739659469
 22
17.7476755545
 13
7.6739659469
 23
17.7476755545
  0
SOLID
  8
___SYMBOL
 62
2
  6
CONTINUOUS
 10
7.1605448546
 20
17.6937128232
 11
7.1917002521
 21
17.7476755545
 12
7.6739659469
 22
17.7476755545
 13
7.6739659469
 23
17.7476755545
  0
SOLID
  8
___SYMBOL
 62
2
  6
CONTINUOUS
 10
7.6739659469
 20
17.7476755545
 11
7.7051213443
 21
17.6937128232
 12
7.4328330995
 22
17.697251701
 13
7.4328330995
 23
17.697251701
  0
SOLID
  8
___SYMBOL
 62
2
  6
CONTINUOUS
 10
7.4328330995
 20
17.697251701
 11
7.3942772298
 21
17.6911450512
 12
7.1605448546
 22
17.6937128232
 13
7.1605448546
 23
17.6937128232
  0
SOLID
  8
___SYMBOL
 62
2
  6
CONTINUOUS
 10
7.4713889691
 20
17.6911450512
 11
7.4328330995
 21
17.697251701
 12
7.7051213443
 22
17.6937128232
 13
7.7051213443
 23
17.6937128232
  0
SOLID
  8
___SYMBOL
 62
2
  6
CONTINUOUS
 10
7.3318925223
 20
17.645819908
 11
7.1412897601
 21
17.6344517357
 12
7.3594954773
 22
17.6734228631
 13
7.3594954773
 23
17.6734228631
  0
SOLID
  8
___SYMBOL
 62
2
  6
CONTINUOUS
 10
7.3594954773
 20
17.6734228631
 11
7.1412897601
 21
17.6344517357
 12
7.3942772298
 22
17.6911450512
 13
7.3942772298
 23
17.6911450512
  0
SOLID
  8
___SYMBOL
 62
2
  6
CONTINUOUS
 10
7.1412897601
 20
17.6344517357
 11
7.1605448546
 21
17.6937128232
 12
7.3942772298
 22
17.6911450512
 13
7.3942772298
 23
17.6911450512
  0
SOLID
  8
___SYMBOL
 62
2
  6
CONTINUOUS
 10
7.4713889691
 20
17.6911450512
 11
7.7051213443
 21
17.6937128232
 12
7.5061707216
 22
17.6734228631
 13
7.5061707216
 23
17.6734228631
  0
SOLID
  8
___SYMBOL
 62
2
  6
CONTINUOUS
 10
7.5061707216
 20
17.6734228631
 11
7.7051213443
 21
17.6937128232
 12
7.5337736766
 22
17.645819908
 13
7.5337736766
 23
17.645819908
  0
SOLID
  8
___SYMBOL
 62
2
  6
CONTINUOUS
 10
7.7051213443
 20
17.6937128232
 11
7.7243764388
 21
17.6344517357
 12
7.5337736766
 22
17.645819908
 13
7.5337736766
 23
17.645819908
  0
SOLID
  8
___SYMBOL
 62
2
  6
CONTINUOUS
 10
7.3318925223
 20
17.645819908
 11
7.3141703342
 21
17.6110381556
 12
7.1412897601
 22
17.6344517357
 13
7.1412897601
 23
17.6344517357
  0
SOLID
  8
___SYMBOL
 62
2
  6
CONTINUOUS
 10
7.5514958647
 20
17.6110381556
 11
7.5337736766
 21
17.645819908
 12
7.7243764388
 22
17.6344517357
 13
7.7243764388
 23
17.6344517357
  0
SOLID
  8
___SYMBOL
 62
2
  6
CONTINUOUS
 10
7.1347765085
 20
17.5724822859
 11
7.1412897601
 21
17.6344517357
 12
7.3141703342
 22
17.6110381556
 13
7.3141703342
 23
17.6110381556
  0
SOLID
  8
___SYMBOL
 62
2
  6
CONTINUOUS
 10
7.3141703342
 20
17.6110381556
 11
7.3080636844
 21
17.5724822859
 12
7.1347765085
 22
17.5724822859
 13
7.1347765085
 23
17.5724822859
  0
SOLID
  8
___SYMBOL
 62
2
  6
CONTINUOUS
 10
7.5514958647
 20
17.6110381556
 11
7.7243764388
 21
17.6344517357
 12
7.5576025145
 22
17.5724822859
 13
7.5576025145
 23
17.5724822859
  0
SOLID
  8
___SYMBOL
 62
2
  6
CONTINUOUS
 10
7.7243764388
 20
17.6344517357
 11
7.7308896904
 21
17.5724822859
 12
7.5576025145
 22
17.5724822859
 13
7.5576025145
 23
17.5724822859
  0
SOLID
  8
___SYMBOL
 62
2
  6
CONTINUOUS
 10
7.5514958647
 20
17.5339264163
 11
7.5576025145
 21
17.5724822859
 12
7.7308896904
 22
17.5724822859
 13
7.7308896904
 23
17.5724822859
  0
SOLID
  8
___SYMBOL
 62
2
  6
CONTINUOUS
 10
7.3141703342
 20
17.5339264163
 11
7.1412897601
 21
17.5105128361
 12
7.3080636844
 22
17.5724822859
 13
7.3080636844
 23
17.5724822859
  0
SOLID
  8
___SYMBOL
 62
2
  6
CONTINUOUS
 10
7.1412897601
 20
17.5105128361
 11
7.1347765085
 21
17.5724822859
 12
7.3080636844
 22
17.5724822859
 13
7.3080636844
 23
17.5724822859
  0
SOLID
  8
___SYMBOL
 62
2
  6
CONTINUOUS
 10
7.7308896904
 20
17.5724822859
 11
7.7243764388
 21
17.5105128361
 12
7.5514958647
 22
17.5339264163
 13
7.5514958647
 23
17.5339264163
  0
SOLID
  8
___SYMBOL
 62
2
  6
CONTINUOUS
 10
7.3141703342
 20
17.5339264163
 11
7.3318925223
 21
17.4991446638
 12
7.1412897601
 22
17.5105128361
 13
7.1412897601
 23
17.5105128361
  0
SOLID
  8
___SYMBOL
 62
2
  6
CONTINUOUS
 10
7.5337736766
 20
17.4991446638
 11
7.5514958647
 21
17.5339264163
 12
7.7243764388
 22
17.5105128361
 13
7.7243764388
 23
17.5105128361
  0
SOLID
  8
___SYMBOL
 62
2
  6
CONTINUOUS
 10
7.3942772298
 20
17.4538195207
 11
7.1605448546
 21
17.4512517487
 12
7.3594954773
 22
17.4715417088
 13
7.3594954773
 23
17.4715417088
  0
SOLID
  8
___SYMBOL
 62
2
  6
CONTINUOUS
 10
7.3594954773
 20
17.4715417088
 11
7.1605448546
 21
17.4512517487
 12
7.3318925223
 22
17.4991446638
 13
7.3318925223
 23
17.4991446638
  0
SOLID
  8
___SYMBOL
 62
2
  6
CONTINUOUS
 10
7.1605448546
 20
17.4512517487
 11
7.1412897601
 21
17.5105128361
 12
7.3318925223
 22
17.4991446638
 13
7.3318925223
 23
17.4991446638
  0
SOLID
  8
___SYMBOL
 62
2
  6
CONTINUOUS
 10
7.5337736766
 20
17.4991446638
 11
7.7243764388
 21
17.5105128361
 12
7.5061707216
 22
17.4715417088
 13
7.5061707216
 23
17.4715417088
  0
SOLID
  8
___SYMBOL
 62
2
  6
CONTINUOUS
 10
7.5061707216
 20
17.4715417088
 11
7.7243764388
 21
17.5105128361
 12
7.4713889691
 22
17.4538195207
 13
7.4713889691
 23
17.4538195207
  0
SOLID
  8
___SYMBOL
 62
2
  6
CONTINUOUS
 10
7.7243764388
 20
17.5105128361
 11
7.7051213443
 21
17.4512517487
 12
7.4713889691
 22
17.4538195207
 13
7.4713889691
 23
17.4538195207
  0
SOLID
  8
___SYMBOL
 62
2
  6
CONTINUOUS
 10
7.3942772298
 20
17.4538195207
 11
7.4328330995
 21
17.4477128709
 12
7.1605448546
 22
17.4512517487
 13
7.1605448546
 23
17.4512517487
  0
SOLID
  8
___SYMBOL
 62
2
  6
CONTINUOUS
 10
7.4328330995
 20
17.4477128709
 11
7.4713889691
 21
17.4538195207
 12
7.7051213443
 22
17.4512517487
 13
7.7051213443
 23
17.4512517487
  0
SOLID
  8
___SYMBOL
 62
2
  6
CONTINUOUS
 10
7.1917002521
 20
17.3972890174
 11
7.1605448546
 21
17.4512517487
 12
7.4328330995
 22
17.4477128709
 13
7.4328330995
 23
17.4477128709
  0
SOLID
  8
___SYMBOL
 62
2
  6
CONTINUOUS
 10
7.4328330995
 20
17.4477128709
 11
7.7051213443
 21
17.4512517487
 12
7.1917002521
 22
17.3972890174
 13
7.1917002521
 23
17.3972890174
  0
SOLID
  8
___SYMBOL
 62
2
  6
CONTINUOUS
 10
7.7051213443
 20
17.4512517487
 11
7.6739659469
 21
17.3972890174
 12
7.1917002521
 22
17.3972890174
 13
7.1917002521
 23
17.3972890174
  0
SOLID
  8
___SYMBOL
 62
2
  6
CONTINUOUS
 10
7.233394312
 20
17.3509830726
 11
7.1917002521
 21
17.3972890174
 12
7.6739659469
 22
17.3972890174
 13
7.6739659469
 23
17.3972890174
  0
SOLID
  8
___SYMBOL
 62
2
  6
CONTINUOUS
 10
7.6739659469
 20
17.3972890174
 11
7.6322718869
 21
17.3509830726
 12
7.233394312
 22
17.3509830726
 13
7.233394312
 23
17.3509830726
  0
SOLID
  8
___SYMBOL
 62
2
  6
CONTINUOUS
 10
7.283804804
 20
17.3143577064
 11
7.233394312
 21
17.3509830726
 12
7.6322718869
 22
17.3509830726
 13
7.6322718869
 23
17.3509830726
  0
SOLID
  8
___SYMBOL
 62
2
  6
CONTINUOUS
 10
7.6322718869
 20
17.3509830726
 11
7.581861395
 21
17.3143577064
 12
7.283804804
 22
17.3143577064
 13
7.283804804
 23
17.3143577064
  0
SOLID
  8
___SYMBOL
 62
2
  6
CONTINUOUS
 10
7.3407285476
 20
17.2890136228
 11
7.283804804
 21
17.3143577064
 12
7.581861395
 22
17.3143577064
 13
7.581861395
 23
17.3143577064
  0
SOLID
  8
___SYMBOL
 62
2
  6
CONTINUOUS
 10
7.581861395
 20
17.3143577064
 11
7.5249376514
 21
17.2890136228
 12
7.3407285476
 22
17.2890136228
 13
7.3407285476
 23
17.2890136228
  0
SOLID
  8
___SYMBOL
 62
2
  6
CONTINUOUS
 10
7.401677702
 20
17.2760584801
 11
7.3407285476
 21
17.2890136228
 12
7.5249376514
 22
17.2890136228
 13
7.5249376514
 23
17.2890136228
  0
SOLID
  8
___SYMBOL
 62
2
  6
CONTINUOUS
 10
7.5249376514
 20
17.2890136228
 11
7.4639884969
 21
17.2760584801
 12
7.401677702
 22
17.2760584801
 13
7.401677702
 23
17.2760584801
  0
LINE
  8
___SYMBOL
 62
2
  6
CONTINUOUS
 10
8.2254691087
 20
17.8665603625
 11
8.2254691087
 21
17.2806467131
  0
LINE
  8
___SYMBOL
 62
2
  6
CONTINUOUS
 10
8.2254691087
 20
17.2806467131
 11
8.0607354288
 21
17.2806467131
  0
LINE
  8
___SYMBOL
 62
2
  6
CONTINUOUS
 10
8.0607354288
 20
17.5089713229
 11
8.0607354288
 21
17.2806467131
  0
LINE
  8
___SYMBOL
 62
2
  6
CONTINUOUS
 10
7.9127386177
 20
17.5089713229
 11
8.0607354288
 21
17.5089713229
  0
LINE
  8
___SYMBOL
 62
2
  6
CONTINUOUS
 10
7.9127386177
 20
17.5089713229
 11
7.9127386177
 21
17.2806467131
  0
LINE
  8
___SYMBOL
 62
2
  6
CONTINUOUS
 10
7.9127386177
 20
17.2806467131
 11
7.7480049378
 21
17.2806467131
  0
LINE
  8
___SYMBOL
 62
2
  6
CONTINUOUS
 10
7.7480049378
 20
17.8665603625
 11
7.7480049378
 21
17.2806467131
  0
LINE
  8
___SYMBOL
 62
2
  6
CONTINUOUS
 10
7.7480049378
 20
17.8665603625
 11
7.9127386177
 21
17.8665603625
  0
LINE
  8
___SYMBOL
 62
2
  6
CONTINUOUS
 10
7.9127386177
 20
17.8665603625
 11
7.9127386177
 21
17.6461766028
  0
LINE
  8
___SYMBOL
 62
2
  6
CONTINUOUS
 10
7.9127386177
 20
17.6461766028
 11
8.0607354288
 21
17.6461766028
  0
LINE
  8
___SYMBOL
 62
2
  6
CONTINUOUS
 10
8.0607354288
 20
17.8665603625
 11
8.0607354288
 21
17.6461766028
  0
LINE
  8
___SYMBOL
 62
2
  6
CONTINUOUS
 10
8.0607354288
 20
17.8665603625
 11
8.2254691087
 21
17.8665603625
  0
SOLID
  8
___SYMBOL
 62
2
  6
CONTINUOUS
 10
8.0607354288
 20
17.6461766028
 11
8.0607354288
 21
17.8665603625
 12
8.2254691087
 22
17.8665603625
 13
8.2254691087
 23
17.8665603625
  0
SOLID
  8
___SYMBOL
 62
2
  6
CONTINUOUS
 10
8.0607354288
 20
17.6461766028
 11
7.9127386177
 21
17.5089713229
 12
7.9127386177
 22
17.6461766028
 13
7.9127386177
 23
17.6461766028
  0
SOLID
  8
___SYMBOL
 62
2
  6
CONTINUOUS
 10
7.9127386177
 20
17.5089713229
 11
7.7480049378
 21
17.2806467131
 12
7.9127386177
 22
17.6461766028
 13
7.9127386177
 23
17.6461766028
  0
SOLID
  8
___SYMBOL
 62
2
  6
CONTINUOUS
 10
7.9127386177
 20
17.6461766028
 11
7.7480049378
 21
17.2806467131
 12
7.9127386177
 22
17.8665603625
 13
7.9127386177
 23
17.8665603625
  0
SOLID
  8
___SYMBOL
 62
2
  6
CONTINUOUS
 10
7.7480049378
 20
17.2806467131
 11
7.7480049378
 21
17.8665603625
 12
7.9127386177
 22
17.8665603625
 13
7.9127386177
 23
17.8665603625
  0
SOLID
  8
___SYMBOL
 62
2
  6
CONTINUOUS
 10
7.9127386177
 20
17.5089713229
 11
7.9127386177
 21
17.2806467131
 12
7.7480049378
 22
17.2806467131
 13
7.7480049378
 23
17.2806467131
  0
SOLID
  8
___SYMBOL
 62
2
  6
CONTINUOUS
 10
7.9127386177
 20
17.5089713229
 11
8.0607354288
 21
17.6461766028
 12
8.0607354288
 22
17.5089713229
 13
8.0607354288
 23
17.5089713229
  0
SOLID
  8
___SYMBOL
 62
2
  6
CONTINUOUS
 10
8.0607354288
 20
17.6461766028
 11
8.2254691087
 21
17.8665603625
 12
8.0607354288
 22
17.5089713229
 13
8.0607354288
 23
17.5089713229
  0
SOLID
  8
___SYMBOL
 62
2
  6
CONTINUOUS
 10
8.0607354288
 20
17.5089713229
 11
8.2254691087
 21
17.8665603625
 12
8.0607354288
 22
17.2806467131
 13
8.0607354288
 23
17.2806467131
  0
SOLID
  8
___SYMBOL
 62
2
  6
CONTINUOUS
 10
8.2254691087
 20
17.8665603625
 11
8.2254691087
 21
17.2806467131
 12
8.0607354288
 22
17.2806467131
 13
8.0607354288
 23
17.2806467131
  0
LINE
  8
___SYMBOL
 62
2
  6
CONTINUOUS
 10
8.4205600156
 20
17.2806467131
 11
8.5832440856
 21
17.2806467131
  0
LINE
  8
___SYMBOL
 62
2
  6
CONTINUOUS
 10
8.4205600156
 20
17.2806467131
 11
8.2705139529
 21
17.2806467131
  0
LINE
  8
___SYMBOL
 62
2
  6
CONTINUOUS
 10
8.2705139529
 20
17.2806467131
 11
8.2705139529
 21
17.8665603625
  0
LINE
  8
___SYMBOL
 62
2
  6
CONTINUOUS
 10
8.2705139529
 20
17.8665603625
 11
8.4205600156
 21
17.8665603625
  0
LINE
  8
___SYMBOL
 62
2
  6
CONTINUOUS
 10
8.4205600156
 20
17.8665603625
 11
8.4205600156
 21
17.4218734703
  0
LINE
  8
___SYMBOL
 62
2
  6
CONTINUOUS
 10
8.4205600156
 20
17.4218734703
 11
8.5832440856
 21
17.4218734703
  0
LINE
  8
___SYMBOL
 62
2
  6
CONTINUOUS
 10
8.5832440856
 20
17.4218734703
 11
8.5832440856
 21
17.2806467131
  0
SOLID
  8
___SYMBOL
 62
2
  6
CONTINUOUS
 10
8.5832440856
 20
17.4218734703
 11
8.2705139529
 21
17.2806467131
 12
8.4205600156
 22
17.4218734703
 13
8.4205600156
 23
17.4218734703
  0
SOLID
  8
___SYMBOL
 62
2
  6
CONTINUOUS
 10
8.4205600156
 20
17.4218734703
 11
8.2705139529
 21
17.2806467131
 12
8.4205600156
 22
17.8665603625
 13
8.4205600156
 23
17.8665603625
  0
SOLID
  8
___SYMBOL
 62
2
  6
CONTINUOUS
 10
8.2705139529
 20
17.2806467131
 11
8.2705139529
 21
17.8665603625
 12
8.4205600156
 22
17.8665603625
 13
8.4205600156
 23
17.8665603625
  0
SOLID
  8
___SYMBOL
 62
2
  6
CONTINUOUS
 10
8.2705139529
 20
17.2806467131
 11
8.5832440856
 21
17.4218734703
 12
8.4205600156
 22
17.2806467131
 13
8.4205600156
 23
17.2806467131
  0
SOLID
  8
___SYMBOL
 62
2
  6
CONTINUOUS
 10
8.5832440856
 20
17.4218734703
 11
8.5832440856
 21
17.2806467131
 12
8.4205600156
 22
17.2806467131
 13
8.4205600156
 23
17.2806467131
  0
LINE
  8
___SYMBOL
 62
2
  6
CONTINUOUS
 10
8.9214959996
 20
17.5017950013
 11
8.9214959996
 21
17.6461766028
  0
LINE
  8
___SYMBOL
 62
2
  6
CONTINUOUS
 10
8.7706384762
 20
17.6461766028
 11
8.9214959996
 21
17.6461766028
  0
LINE
  8
___SYMBOL
 62
2
  6
CONTINUOUS
 10
8.7706384762
 20
17.7238009657
 11
8.7706384762
 21
17.6461766028
  0
LINE
  8
___SYMBOL
 62
2
  6
CONTINUOUS
 10
8.7706384762
 20
17.7238009657
 11
8.9214959996
 21
17.7238009657
  0
LINE
  8
___SYMBOL
 62
2
  6
CONTINUOUS
 10
8.9214959996
 20
17.7238009657
 11
8.9214959996
 21
17.8665603625
  0
LINE
  8
___SYMBOL
 62
2
  6
CONTINUOUS
 10
8.7848427995
 20
17.8665603625
 11
8.9214959996
 21
17.8665603625
  0
LINE
  8
___SYMBOL
 62
2
  6
CONTINUOUS
 10
8.6123918242
 20
17.8665603625
 11
8.7848427995
 21
17.8665603625
  0
LINE
  8
___SYMBOL
 62
2
  6
CONTINUOUS
 10
8.6123918242
 20
17.2806467131
 11
8.6123918242
 21
17.8665603625
  0
LINE
  8
___SYMBOL
 62
2
  6
CONTINUOUS
 10
8.6123918242
 20
17.2806467131
 11
8.9214959996
 21
17.2806467131
  0
LINE
  8
___SYMBOL
 62
2
  6
CONTINUOUS
 10
8.9214959996
 20
17.2806467131
 11
8.9214959996
 21
17.4218734703
  0
LINE
  8
___SYMBOL
 62
2
  6
CONTINUOUS
 10
8.7706384762
 20
17.4218734703
 11
8.9214959996
 21
17.4218734703
  0
LINE
  8
___SYMBOL
 62
2
  6
CONTINUOUS
 10
8.7706384762
 20
17.5017950013
 11
8.7706384762
 21
17.4218734703
  0
LINE
  8
___SYMBOL
 62
2
  6
CONTINUOUS
 10
8.7706384762
 20
17.5017950013
 11
8.9214959996
 21
17.5017950013
  0
SOLID
  8
___SYMBOL
 62
2
  6
CONTINUOUS
 10
8.9214959996
 20
17.8665603625
 11
8.9214959996
 21
17.7238009657
 12
8.7706384762
 22
17.7238009657
 13
8.7706384762
 23
17.7238009657
  0
SOLID
  8
___SYMBOL
 62
2
  6
CONTINUOUS
 10
8.9214959996
 20
17.6461766028
 11
8.9214959996
 21
17.5017950013
 12
8.7706384762
 22
17.5017950013
 13
8.7706384762
 23
17.5017950013
  0
SOLID
  8
___SYMBOL
 62
2
  6
CONTINUOUS
 10
8.9214959996
 20
17.4218734703
 11
8.6123918242
 21
17.2806467131
 12
8.7706384762
 22
17.4218734703
 13
8.7706384762
 23
17.4218734703
  0
SOLID
  8
___SYMBOL
 62
2
  6
CONTINUOUS
 10
8.7706384762
 20
17.4218734703
 11
8.6123918242
 21
17.2806467131
 12
8.7706384762
 22
17.5017950013
 13
8.7706384762
 23
17.5017950013
  0
SOLID
  8
___SYMBOL
 62
2
  6
CONTINUOUS
 10
8.9214959996
 20
17.6461766028
 11
8.7706384762
 21
17.5017950013
 12
8.7706384762
 22
17.6461766028
 13
8.7706384762
 23
17.6461766028
  0
SOLID
  8
___SYMBOL
 62
2
  6
CONTINUOUS
 10
8.7706384762
 20
17.5017950013
 11
8.6123918242
 21
17.2806467131
 12
8.7706384762
 22
17.6461766028
 13
8.7706384762
 23
17.6461766028
  0
SOLID
  8
___SYMBOL
 62
2
  6
CONTINUOUS
 10
8.7706384762
 20
17.6461766028
 11
8.6123918242
 21
17.2806467131
 12
8.7706384762
 22
17.7238009657
 13
8.7706384762
 23
17.7238009657
  0
SOLID
  8
___SYMBOL
 62
2
  6
CONTINUOUS
 10
8.9214959996
 20
17.8665603625
 11
8.7706384762
 21
17.7238009657
 12
8.7848427995
 22
17.8665603625
 13
8.7848427995
 23
17.8665603625
  0
SOLID
  8
___SYMBOL
 62
2
  6
CONTINUOUS
 10
8.7706384762
 20
17.7238009657
 11
8.6123918242
 21
17.2806467131
 12
8.7848427995
 22
17.8665603625
 13
8.7848427995
 23
17.8665603625
  0
SOLID
  8
___SYMBOL
 62
2
  6
CONTINUOUS
 10
8.6123918242
 20
17.2806467131
 11
8.6123918242
 21
17.8665603625
 12
8.7848427995
 22
17.8665603625
 13
8.7848427995
 23
17.8665603625
  0
SOLID
  8
___SYMBOL
 62
2
  6
CONTINUOUS
 10
8.9214959996
 20
17.4218734703
 11
8.9214959996
 21
17.2806467131
 12
8.6123918242
 22
17.2806467131
 13
8.6123918242
 23
17.2806467131
  0
LINE
  8
___SYMBOL
 62
2
  6
CONTINUOUS
 10
9.4317464056
 20
17.2806467131
 11
9.2723031626
 21
17.5322292544
  0
ARC
  8
___SYMBOL
 62
2
  6
CONTINUOUS
 10
9.1998639149
 20
17.6915508518
 40
0.1750166163
 50
294.4500166359
 51
90.0
  0
LINE
  8
___SYMBOL
 62
2
  6
CONTINUOUS
 10
8.9663162143
 20
17.8665603625
 11
9.1998639149
 21
17.8665603625
  0
LINE
  8
___SYMBOL
 62
2
  6
CONTINUOUS
 10
8.9663162143
 20
17.2806467131
 11
8.9663162143
 21
17.8665603625
  0
LINE
  8
___SYMBOL
 62
2
  6
CONTINUOUS
 10
8.9663162143
 20
17.2806467131
 11
9.1169720369
 21
17.2806467131
  0
LINE
  8
___SYMBOL
 62
2
  6
CONTINUOUS
 10
9.1169720369
 20
17.4776030839
 11
9.1169720369
 21
17.2806467131
  0
LINE
  8
___SYMBOL
 62
2
  6
CONTINUOUS
 10
9.241795466
 20
17.2806467131
 11
9.1169720369
 21
17.4776030839
  0
LINE
  8
___SYMBOL
 62
2
  6
CONTINUOUS
 10
9.241795466
 20
17.2806467131
 11
9.4317464056
 21
17.2806467131
  0
LINE
  8
___SYMBOL
 62
2
  6
CONTINUOUS
 10
9.1169720369
 20
17.6168783946
 11
9.169311787
 21
17.6168783946
  0
ARC
  8
___SYMBOL
 62
2
  6
CONTINUOUS
 10
9.1729018164
 20
17.6703697941
 40
0.053611735
 50
266.1604009902
 51
89.9998910512
  0
LINE
  8
___SYMBOL
 62
2
  6
CONTINUOUS
 10
9.1729019183
 20
17.7239815291
 11
9.1169720369
 21
17.7239815291
  0
LINE
  8
___SYMBOL
 62
2
  6
CONTINUOUS
 10
9.1169720369
 20
17.7239815291
 11
9.1169720369
 21
17.6168783946
  0
SOLID
  8
___SYMBOL
 62
2
  6
CONTINUOUS
 10
9.1998639149
 20
17.8665674681
 11
9.2467969385
 21
17.8601572196
 12
8.9663162143
 22
17.8665603625
 13
8.9663162143
 23
17.8665603625
  0
SOLID
  8
___SYMBOL
 62
2
  6
CONTINUOUS
 10
9.1169720369
 20
17.7239815291
 11
9.3709117779
 21
17.7286108646
 12
9.1729019183
 22
17.7239815291
 13
9.1729019183
 23
17.7239815291
  0
SOLID
  8
___SYMBOL
 62
2
  6
CONTINUOUS
 10
9.1729019183
 20
17.7239815291
 11
9.3709117779
 21
17.7286108646
 12
9.1966244999
 22
17.7184473608
 13
9.1966244999
 23
17.7184473608
  0
SOLID
  8
___SYMBOL
 62
2
  6
CONTINUOUS
 10
9.1966244999
 20
17.7184473608
 11
9.3709117779
 21
17.7286108646
 12
9.2154494876
 22
17.7029874858
 13
9.2154494876
 23
17.7029874858
  0
SOLID
  8
___SYMBOL
 62
2
  6
CONTINUOUS
 10
9.3709117779
 20
17.7286108646
 11
9.3745850244
 21
17.6813847358
 12
9.2154494876
 22
17.7029874858
 13
9.2154494876
 23
17.7029874858
  0
SOLID
  8
___SYMBOL
 62
2
  6
CONTINUOUS
 10
9.2254904261
 20
17.6807936251
 11
9.2154494876
 21
17.7029874858
 12
9.3745850244
 22
17.6813847358
 13
9.3745850244
 23
17.6813847358
  0
SOLID
  8
___SYMBOL
 62
2
  6
CONTINUOUS
 10
9.2254904261
 20
17.6807936251
 11
9.3745850244
 21
17.6813847358
 12
9.2246743444
 22
17.6564477444
 13
9.2246743444
 23
17.6564477444
  0
SOLID
  8
___SYMBOL
 62
2
  6
CONTINUOUS
 10
9.2246743444
 20
17.6564477444
 11
9.3745850244
 21
17.6813847358
 12
9.2131697241
 22
17.6349760978
 13
9.2131697241
 23
17.6349760978
  0
SOLID
  8
___SYMBOL
 62
2
  6
CONTINUOUS
 10
9.3745850244
 20
17.6813847358
 11
9.3654594207
 21
17.6349033058
 12
9.2131697241
 22
17.6349760978
 13
9.2131697241
 23
17.6349760978
  0
SOLID
  8
___SYMBOL
 62
2
  6
CONTINUOUS
 10
9.1933517163
 20
17.6208115483
 11
9.2131697241
 21
17.6349760978
 12
9.3654594207
 22
17.6349033058
 13
9.3654594207
 23
17.6349033058
  0
SOLID
  8
___SYMBOL
 62
2
  6
CONTINUOUS
 10
9.1933517163
 20
17.6208115483
 11
9.3654594207
 21
17.6349033058
 12
9.169311787
 22
17.6168783946
 13
9.169311787
 23
17.6168783946
  0
SOLID
  8
___SYMBOL
 62
2
  6
CONTINUOUS
 10
9.3654594207
 20
17.6349033058
 11
9.344203445
 21
17.5925714799
 12
9.169311787
 22
17.6168783946
 13
9.169311787
 23
17.6168783946
  0
SOLID
  8
___SYMBOL
 62
2
  6
CONTINUOUS
 10
9.2723031626
 20
17.5322292544
 11
9.1169720369
 21
17.4776030839
 12
9.3123741619
 22
17.5574901926
 13
9.3123741619
 23
17.5574901926
  0
SOLID
  8
___SYMBOL
 62
2
  6
CONTINUOUS
 10
9.3123741619
 20
17.5574901926
 11
9.1169720369
 21
17.4776030839
 12
9.344203445
 22
17.5925714799
 13
9.344203445
 23
17.5925714799
  0
SOLID
  8
___SYMBOL
 62
2
  6
CONTINUOUS
 10
9.344203445
 20
17.5925714799
 11
9.1169720369
 21
17.4776030839
 12
9.169311787
 22
17.6168783946
 13
9.169311787
 23
17.6168783946
  0
SOLID
  8
___SYMBOL
 62
2
  6
CONTINUOUS
 10
9.1169720369
 20
17.4776030839
 11
8.9663162143
 21
17.2806467131
 12
9.169311787
 22
17.6168783946
 13
9.169311787
 23
17.6168783946
  0
SOLID
  8
___SYMBOL
 62
2
  6
CONTINUOUS
 10
9.169311787
 20
17.6168783946
 11
8.9663162143
 21
17.2806467131
 12
9.1169720369
 22
17.6168783946
 13
9.1169720369
 23
17.6168783946
  0
SOLID
  8
___SYMBOL
 62
2
  6
CONTINUOUS
 10
9.1169720369
 20
17.6168783946
 11
8.9663162143
 21
17.2806467131
 12
9.1169720369
 22
17.7239815291
 13
9.1169720369
 23
17.7239815291
  0
SOLID
  8
___SYMBOL
 62
2
  6
CONTINUOUS
 10
9.3709117779
 20
17.7286108646
 11
9.1169720369
 21
17.7239815291
 12
9.3547087578
 22
17.7731222354
 13
9.3547087578
 23
17.7731222354
  0
SOLID
  8
___SYMBOL
 62
2
  6
CONTINUOUS
 10
9.3547087578
 20
17.7731222354
 11
9.1169720369
 21
17.7239815291
 12
9.3271628843
 22
17.8116582553
 13
9.3271628843
 23
17.8116582553
  0
SOLID
  8
___SYMBOL
 62
2
  6
CONTINUOUS
 10
9.3271628843
 20
17.8116582553
 11
9.1169720369
 21
17.7239815291
 12
9.290291976
 22
17.8413960444
 13
9.290291976
 23
17.8413960444
  0
SOLID
  8
___SYMBOL
 62
2
  6
CONTINUOUS
 10
9.290291976
 20
17.8413960444
 11
9.1169720369
 21
17.7239815291
 12
9.2467969385
 22
17.8601572196
 13
9.2467969385
 23
17.8601572196
  0
SOLID
  8
___SYMBOL
 62
2
  6
CONTINUOUS
 10
9.2467969385
 20
17.8601572196
 11
9.1169720369
 21
17.7239815291
 12
8.9663162143
 22
17.8665603625
 13
8.9663162143
 23
17.8665603625
  0
SOLID
  8
___SYMBOL
 62
2
  6
CONTINUOUS
 10
8.9663162143
 20
17.2806467131
 11
8.9663162143
 21
17.8665603625
 12
9.1169720369
 22
17.7239815291
 13
9.1169720369
 23
17.7239815291
  0
SOLID
  8
___SYMBOL
 62
2
  6
CONTINUOUS
 10
9.1169720369
 20
17.4776030839
 11
9.1169720369
 21
17.2806467131
 12
8.9663162143
 22
17.2806467131
 13
8.9663162143
 23
17.2806467131
  0
SOLID
  8
___SYMBOL
 62
2
  6
CONTINUOUS
 10
9.1169720369
 20
17.4776030839
 11
9.2723031626
 21
17.5322292544
 12
9.241795466
 22
17.2806467131
 13
9.241795466
 23
17.2806467131
  0
SOLID
  8
___SYMBOL
 62
2
  6
CONTINUOUS
 10
9.2723031626
 20
17.5322292544
 11
9.4317464056
 21
17.2806467131
 12
9.241795466
 22
17.2806467131
 13
9.241795466
 23
17.2806467131
  0
CIRCLE
  8
___SYMBOL
 62
2
  6
CONTINUOUS
 10
9.5725163802
 20
17.2806467131
 40
0.0653578721
  0
LINE
  8
___SYMBOL
 62
2
  6
CONTINUOUS
 10
9.568228357
 20
17.2801089637
 11
9.6000963697
 21
17.2478060223
  0
LINE
  8
___SYMBOL
 62
2
  6
CONTINUOUS
 10
9.5566303808
 20
17.2478060223
 11
9.5566303808
 21
17.3137722212
  0
LINE
  8
___SYMBOL
 62
2
  6
CONTINUOUS
 10
9.5566303808
 20
17.3137722212
 11
9.5809097137
 21
17.3137722212
  0
ARC
  8
___SYMBOL
 62
2
  6
CONTINUOUS
 10
9.5809097137
 20
17.2969407716
 40
0.0168314496
 50
270.0
 51
90.0
  0
LINE
  8
___SYMBOL
 62
2
  6
CONTINUOUS
 10
9.5809097137
 20
17.2801089637
 11
9.5566303808
 21
17.2801089637
  0
ENDBLK
  8
0
  6
BYBLOCK
 62
0
  0
BLOCK
  8
___SYMBOL
 62
2
  6
CONTINUOUS
  2
COPYRIGHT_YEAR_BL1
 70
64
 10
26.4690729347
 20
1.2284596528
  0
TEXT
  8
___SYMBOL
 62
2
  6
CONTINUOUS
 10
26.0953813091
 20
1.193186028
  7
STANDARD
 40
0.0705
  1
2014 KOHLER CO.
 41
0.8
 72
0
  0
TEXT
  8
___SYMBOL
 62
7
  6
CONTINUOUS
 10
26.01535556
 20
1.2096710282
  7
TEXTSTYLE_2
 40
0.0421874995
  1
C
 41
1.0
 72
0
  0
CIRCLE
  8
___SYMBOL
 62
7
  6
CONTINUOUS
 10
26.0295905598
 20
1.230907278
 40
0.0328259996
  0
ENDBLK
  8
0
  6
BYBLOCK
 62
0
  0
BLOCK
  8
___SYMBOL
 62
2
  6
CONTINUOUS
  2
WHEN_PLOTTING_TEMPLATE_N_BL0
 70
64
 10
25.5894619541
 20
5.6356904455
  0
TEXT
  8
___SYMBOL
 62
2
  6
CONTINUOUS
 10
22.2769619541
 20
6.8466279455
  7
STANDARD
 40
0.15625
  1
WHEN PLOTTING TEMPLATE FULL SIZE:
 41
0.8
 72
0
  0
TEXT
  8
___SYMBOL
 62
2
  6
CONTINUOUS
 10
22.2769619541
 20
6.6122529455
  7
STANDARD
 40
0.15625
  1
Make sure horizontal and vertical dimensions
 41
0.8
 72
0
  0
TEXT
  8
___SYMBOL
 62
2
  6
CONTINUOUS
 10
22.2769619541
 20
6.3778779455
  7
STANDARD
 40
0.15625
  1
match the dimensions labeled on the template.
 41
0.8
 72
0
  0
TEXT
  8
___SYMBOL
 62
2
  6
CONTINUOUS
 10
22.2769619541
 20
6.1435029455
  7
STANDARD
 40
0.15625
  1
 
 41
0.8
 72
0
  0
TEXT
  8
___SYMBOL
 62
2
  6
CONTINUOUS
 10
22.2769619541
 20
5.9091279455
  7
STANDARD
 40
0.15625
  1
AL TRAZAR LA PLANTILLA A ESCALA,
 41
0.8
 72
0
  0
TEXT
  8
___SYMBOL
 62
2
  6
CONTINUOUS
 10
22.2769619541
 20
5.6747529455
  7
STANDARD
 40
0.15625
  1
asegúrese de que las dimensiones horizontales
 41
0.8
 72
0
  0
TEXT
  8
___SYMBOL
 62
2
  6
CONTINUOUS
 10
22.2769619541
 20
5.4403779455
  7
STANDARD
 40
0.15625
  1
y verticales concuerden con las dimensiones marcadas
 41
0.8
 72
0
  0
TEXT
  8
___SYMBOL
 62
2
  6
CONTINUOUS
 10
22.2769619541
 20
5.2060029455
  7
STANDARD
 40
0.15625
  1
en la plantilla.
 41
0.8
 72
0
  0
TEXT
  8
___SYMBOL
 62
2
  6
CONTINUOUS
 10
22.2769619541
 20
4.9716279455
  7
STANDARD
 40
0.15625
  1
 
 41
0.8
 72
0
  0
TEXT
  8
___SYMBOL
 62
2
  6
CONTINUOUS
 10
22.2769619541
 20
4.7372529455
  7
STANDARD
 40
0.15625
  1
AU MOMENT DE TRACER LA DÉCOUPE À L'ÉCHELLE,
 41
0.8
 72
0
  0
TEXT
  8
___SYMBOL
 62
2
  6
CONTINUOUS
 10
22.2769619541
 20
4.5028779455
  7
STANDARD
 40
0.15625
  1
Assurez vos que les dimensions horizotales et
 41
0.8
 72
0
  0
TEXT
  8
___SYMBOL
 62
2
  6
CONTINUOUS
 10
22.2769619541
 20
4.2685029455
  7
STANDARD
 40
0.15625
  1
verticales correspondent avec les dimensions du plan.
 41
0.8
 72
0
  0
ENDBLK
  8
0
  6
BYBLOCK
 62
0
  0
BLOCK
  8
0
  2
_FILLED
 70
64
 10
0.0
 20
0.0
  0
SOLID
  8
0
  6
BYBLOCK
 62
0
 10
0.0
 20
0.0
 11
-1.0
 21
0.1666666667
 12
-1.0
 22
-0.1666666667
 13
-1.0
 23
-0.1666666667
  0
ENDBLK
  8
0
  6
BYBLOCK
 62
0
  0
BLOCK
  8
0
 62
2
  6
CONTINUOUS
  2
*D0
 70
65
 10
0.0
 20
0.0
  0
TEXT
  8
0
 62
2
  6
CONTINUOUS
 10
12.3025737882
 20
10.9493304765
  7
STANDARD
 40
0.15625
  1
16-3/8
 41
0.8
 72
1
 11
12.6775737882
 21
10.9493304765
  0
TEXT
  8
0
 62
2
  6
CONTINUOUS
 10
12.3025737882
 20
10.7149554765
  7
STANDARD
 40
0.15625
  1
[
 41
0.8
 72
1
 11
12.3650737882
 21
10.7149554765
  0
TEXT
  8
0
 62
2
  6
CONTINUOUS
 10
12.4275737882
 20
10.7149554765
  7
STANDARD
 40
0.15625
  1
42
 41
0.8
 72
1
 11
12.5525737882
 21
10.7149554765
  0
TEXT
  8
0
 62
2
  6
CONTINUOUS
 10
12.6775737882
 20
10.7149554765
  7
STANDARD
 40
0.15625
  1
]
 41
0.8
 72
1
 11
12.7400737882
 21
10.7149554765
  0
LINE
  8
0
 62
2
  6
CONTINUOUS
 10
12.5525737882
 20
2.8479787778
 11
13.8753844276
 21
2.8479787778
  0
LINE
  8
0
 62
2
  6
CONTINUOUS
 10
12.5525737882
 20
19.2069321752
 11
13.7981287508
 21
19.2069321752
  0
LINE
  8
0
 62
2
  6
CONTINUOUS
 10
12.6775737882
 20
2.8479787778
 11
12.6775737882
 21
10.6368304765
  0
LINE
  8
0
 62
2
  6
CONTINUOUS
 10
12.6775737882
 20
19.2069321752
 11
12.6775737882
 21
11.1837054765
  0
INSERT
  8
0
 62
2
  6
CONTINUOUS
  2
_FILLED
 10
12.6775737882
 20
2.8479787778
 41
0.1875
 42
0.1875
 43
0.1875
 50
270.0
  0
INSERT
  8
0
 62
2
  6
CONTINUOUS
  2
_FILLED
 10
12.6775737882
 20
19.2069321752
 41
0.1875
 42
0.1875
 43
0.1875
 50
90.0
  0
ENDBLK
  8
0
  6
BYBLOCK
 62
0
  0
BLOCK
  8
0
 62
2
  6
CONTINUOUS
  2
*D1
 70
65
 10
0.0
 20
0.0
  0
TEXT
  8
0
 62
2
  6
CONTINUOUS
 10
16.6997071637
 20
7.6693686726
  7
STANDARD
 40
0.15625
  1
25-9/16
 41
0.8
 72
1
 11
17.1372071637
 21
7.6693686726
  0
TEXT
  8
0
 62
2
  6
CONTINUOUS
 10
16.6997071637
 20
7.4349936726
  7
STANDARD
 40
0.15625
  1
[
 41
0.8
 72
1
 11
16.7622071637
 21
7.4349936726
  0
TEXT
  8
0
 62
2
  6
CONTINUOUS
 10
16.8247071637
 20
7.4349936726
  7
STANDARD
 40
0.15625
  1
65
 41
0.8
 72
1
 11
16.9497071637
 21
7.4349936726
  0
TEXT
  8
0
 62
2
  6
CONTINUOUS
 10
17.0747071637
 20
7.4349936726
  7
STANDARD
 40
0.15625
  1
]
 41
0.8
 72
1
 11
17.1372071637
 21
7.4349936726
  0
LINE
  8
0
 62
2
  6
CONTINUOUS
 10
4.357730465
 20
6.7798537778
 11
4.357730465
 21
7.8724936726
  0
LINE
  8
0
 62
2
  6
CONTINUOUS
 10
29.9166838624
 20
7.0754787778
 11
29.9166838624
 21
7.8724936726
  0
LINE
  8
0
 62
2
  6
CONTINUOUS
 10
4.357730465
 20
7.7474936726
 11
16.6215821637
 21
7.7474936726
  0
LINE
  8
0
 62
2
  6
CONTINUOUS
 10
29.9166838624
 20
7.7474936726
 11
17.6528321637
 21
7.7474936726
  0
INSERT
  8
0
 62
2
  6
CONTINUOUS
  2
_FILLED
 10
4.357730465
 20
7.7474936726
 41
0.1875
 42
0.1875
 43
0.1875
 50
180.0
  0
INSERT
  8
0
 62
2
  6
CONTINUOUS
  2
_FILLED
 10
29.9166838624
 20
7.7474936726
 41
0.1875
 42
0.1875
 43
0.1875
  0
ENDBLK
  8
0
  6
BYBLOCK
 62
0
  0
ENDSEC
  0
SECTION
  2
ENTITIES
  0
DIMENSION
  8
0
 62
2
  6
CONTINUOUS
  2
*D0
 10
12.6775737882
 20
19.2069321752
 11
12.6775737882
 21
10.9102679765
 70
128
 13
13.9378844276
 23
2.8479787778
 14
13.8606287508
 24
19.2069321752
 50
90.0
  0
DIMENSION
  8
0
 62
2
  6
CONTINUOUS
  2
*D1
 10
29.9166838624
 20
7.7474936726
 11
17.1372071637
 21
7.6303061726
 70
128
 13
4.357730465
 23
6.7173537778
 14
29.9166838624
 24
7.0129787778
  0
TEXT
  8
___NOTE
 62
2
  6
CONTINUOUS
 10
24.1522852124
 20
11.5637498753
  7
STANDARD
 40
0.15625
  1
FOR UNDER-MOUNT INSTALLATION
 41
0.8
 72
2
 11
27.6522852124
 21
11.5637498753
  0
TEXT
  8
___NOTE
 62
2
  6
CONTINUOUS
 10
25.2772852124
 20
11.3293748753
  7
STANDARD
 40
0.15625
  1
CUT ALONG THIS LINE
 41
0.8
 72
2
 11
27.6522852124
 21
11.3293748753
  0
TEXT
  8
___NOTE
 62
2
  6
CONTINUOUS
 10
23.0272852124
 20
11.0949998753
  7
STANDARD
 40
0.15625
  1
PARA INSTALACIÓN DE MONTAJE POR ABAJO
 41
0.8
 72
2
 11
27.6522852124
 21
11.0949998753
  0
TEXT
  8
___NOTE
 62
2
  6
CONTINUOUS
 10
23.9022852124
 20
10.8606248753
  7
STANDARD
 40
0.15625
  1
CORTE A LO LARGO DE ESTA LÍNEA
 41
0.8
 72
2
 11
27.6522852124
 21
10.8606248753
  0
TEXT
  8
___NOTE
 62
2
  6
CONTINUOUS
 10
23.0272852124
 20
10.6262498753
  7
STANDARD
 40
0.15625
  1
POUR INSTALLATION À MONTAGE SOUS PLAN
 41
0.8
 72
2
 11
27.6522852124
 21
10.6262498753
  0
TEXT
  8
___NOTE
 62
2
  6
CONTINUOUS
 10
24.0272852124
 20
10.3918748753
  7
STANDARD
 40
0.15625
  1
COUPER LE LONG DE CETTE LIGNE
 41
0.8
 72
2
 11
27.6522852124
 21
10.3918748753
  0
TEXT
  8
___NOTE
 62
2
  6
CONTINUOUS
 10
27.5272852124
 20
10.1574998753
  7
STANDARD
 40
0.15625
  1
 
 41
0.8
 72
2
 11
27.6522852124
 21
10.1574998753
  0
LINE
  8
___NOTE
 62
2
  6
CONTINUOUS
 10
29.9166838624
 20
12.9756171344
 11
27.9022852124
 21
11.6418748753
  0
LINE
  8
___NOTE
 62
2
  6
CONTINUOUS
 10
27.9022852124
 20
11.6418748753
 11
27.6522852124
 21
11.6418748753
  0
SOLID
  8
___NOTE
 62
2
  6
CONTINUOUS
 10
29.7775980169
 20
12.8460488508
 11
29.9166838624
 21
12.9756171344
 12
29.7430940247
 22
12.8981614647
 13
29.7430940247
 23
12.8981614647
  0
TEXT
  8
___NOTE
 62
2
  6
CONTINUOUS
 10
6.3048605513
 20
3.4582883983
  7
STANDARD
 40
0.2
  1
1311528-7
 41
0.8
 72
0
  0
TEXT
  8
___NOTE
 62
2
  6
CONTINUOUS
 10
7.7448605513
 20
3.4582883983
  7
STANDARD
 40
0.2
  1
-
 41
0.8
 72
0
  0
TEXT
  8
___NOTE
 62
2
  6
CONTINUOUS
 10
7.9048605513
 20
3.4582883983
  7
STANDARD
 40
0.2
  1
A
 41
0.8
 72
0
  0
TEXT
  8
___NOTE
 62
2
  6
CONTINUOUS
 10
6.3048605513
 20
3.1582883983
  7
STANDARD
 40
0.2
  1
 
 41
0.8
 72
0
  0
TEXT
  8
___NOTE
 62
2
  6
CONTINUOUS
 10
6.3048605513
 20
2.8582883983
  7
STANDARD
 40
0.2
  1
 
 41
0.8
 72
0
  0
TEXT
  8
___NOTE
 62
2
  6
CONTINUOUS
 10
6.3048605513
 20
2.5582883983
  7
STANDARD
 40
0.2
  1
 
 41
0.8
 72
0
  0
TEXT
  8
___NOTE
 62
2
  6
CONTINUOUS
 10
6.3048605513
 20
2.2582883983
  7
STANDARD
 40
0.2
  1
 
 41
0.8
 72
0
  0
TEXT
  8
___NOTE
 62
2
  6
CONTINUOUS
 10
6.3048605513
 20
1.9582883983
  7
STANDARD
 40
0.2
  1
 
 41
0.8
 72
0
  0
TEXT
  8
___NOTE
 62
2
  6
CONTINUOUS
 10
6.3048605513
 20
1.6582883983
  7
STANDARD
 40
0.2
  1
 
 41
0.8
 72
0
  0
TEXT
  8
___NOTE
 62
2
  6
CONTINUOUS
 10
6.3048605513
 20
1.3582883983
  7
STANDARD
 40
0.2
  1
 
 41
0.8
 72
0
  0
TEXT
  8
___NOTE
 62
2
  6
CONTINUOUS
 10
6.3048605513
 20
1.0582883983
  7
STANDARD
 40
0.2
  1
1311528-7
 41
0.8
 72
0
  0
TEXT
  8
___NOTE
 62
2
  6
CONTINUOUS
 10
7.7448605513
 20
1.0582883983
  7
STANDARD
 40
0.2
  1
-
 41
0.8
 72
0
  0
TEXT
  8
___NOTE
 62
2
  6
CONTINUOUS
 10
7.9048605513
 20
1.0582883983
  7
STANDARD
 40
0.2
  1
A
 41
0.8
 72
0
  0
TEXT
  8
___NOTE
 62
2
  6
CONTINUOUS
 10
25.9899517016
 20
14.0707702984
  7
STANDARD
 40
0.15625
  1
RIM OF SINK
 41
0.8
 72
2
 11
27.3649517016
 21
14.0707702984
  0
TEXT
  8
___NOTE
 62
2
  6
CONTINUOUS
 10
24.8649517016
 20
13.8363952984
  7
STANDARD
 40
0.15625
  1
REBORDE DE FREGADERO
 41
0.8
 72
2
 11
27.3649517016
 21
13.8363952984
  0
TEXT
  8
___NOTE
 62
2
  6
CONTINUOUS
 10
25.6149517016
 20
13.6020202984
  7
STANDARD
 40
0.15625
  1
REBORD D'ÉVIER
 41
0.8
 72
2
 11
27.3649517016
 21
13.6020202984
  0
LINE
  8
___NOTE
 62
2
  6
CONTINUOUS
 10
30.8872071637
 20
15.7893652965
 11
27.6149517016
 21
14.1488952984
  0
LINE
  8
___NOTE
 62
2
  6
CONTINUOUS
 10
27.6149517016
 20
14.1488952984
 11
27.3649517016
 21
14.1488952984
  0
SOLID
  8
___NOTE
 62
2
  6
CONTINUOUS
 10
30.7335962038
 20
15.6773988484
 11
30.8872071637
 21
15.7893652965
 12
30.7055860563
 22
15.7332708596
 13
30.7055860563
 23
15.7332708596
  0
INSERT
  8
___SYMBOL
 62
2
  6
CONTINUOUS
  2
WHEN_PLOTTING_TEMPLATE_N_BL0
 10
25.5894619541
 20
5.6356904455
  0
INSERT
  8
___SYMBOL
 62
2
  6
CONTINUOUS
  2
COPYRIGHT_YEAR_BL1
 10
26.4690729347
 20
1.2284596528
  0
INSERT
  8
___SYMBOL
 62
2
  6
CONTINUOUS
  2
CUT-OUT_TEMPLATE_SKU_SIN_BL2
 10
9.0895481038
 20
16.0300930008
  0
INSERT
  8
___SYMBOL
 62
2
  6
CONTINUOUS
  2
SCISSORS_BL3
 10
29.9146062041
 20
12.2214001216
  0
LINE
  8
0
 62
7
  6
CONTINUOUS
 10
0.0
 20
0.0
 11
0.0
 21
22.0
  0
LINE
  8
0
 62
7
  6
CONTINUOUS
 10
0.0
 20
0.0
 11
34.0
 21
0.0
  0
LINE
  8
0
 62
7
  6
CONTINUOUS
 10
0.0
 20
22.0
 11
34.0
 21
22.0
  0
LINE
  8
0
 62
7
  6
CONTINUOUS
 10
34.0
 20
0.0
 11
34.0
 21
22.0
  0
LINE
  8
_CURVE
 62
8
  6
PHANTOM
 10
3.3872071637
 20
17.6239854765
 11
3.3872071637
 21
4.4309254765
  0
LINE
  8
_CURVE
 62
7
  6
CONTINUOUS
 10
4.357730465
 20
4.4279787778
 11
4.357730465
 21
17.6269321752
  0
LINE
  8
_CURVE
 62
8
  6
PHANTOM
 10
5.9406771637
 20
1.8774554765
 11
28.3337371637
 21
1.8774554765
  0
LINE
  8
_CURVE
 62
7
  6
CONTINUOUS
 10
28.3366838624
 20
2.8479787778
 11
5.937730465
 21
2.8479787778
  0
LINE
  8
_CURVE
 62
8
  6
CENTER
 10
17.1372071637
 20
21.6774554765
 11
17.1372071637
 21
18.6774554765
  0
LINE
  8
_CURVE
 62
8
  6
CENTER
 10
17.1372071637
 20
0.3774554765
 11
17.1372071637
 21
3.3774554765
  0
LINE
  8
_CURVE
 62
8
  6
CENTER
 10
32.3872071637
 20
11.0274554765
 11
29.3872071637
 21
11.0274554765
  0
LINE
  8
_CURVE
 62
8
  6
CENTER
 10
1.8872071637
 20
11.0274554765
 11
4.8872071637
 21
11.0274554765
  0
LINE
  8
_CURVE
 62
7
  6
CONTINUOUS
 10
5.937730465
 20
19.2069321752
 11
28.3366838624
 21
19.2069321752
  0
LINE
  8
_CURVE
 62
8
  6
PHANTOM
 10
28.3337371637
 20
20.1774554765
 11
5.9406771637
 21
20.1774554765
  0
LINE
  8
_CURVE
 62
7
  6
CONTINUOUS
 10
29.9166838624
 20
17.6269321752
 11
29.9166838624
 21
4.4279787778
  0
LINE
  8
_CURVE
 62
8
  6
PHANTOM
 10
30.8872071637
 20
4.4309254765
 11
30.8872071637
 21
17.6239854765
  0
ARC
  8
_CURVE
 62
8
  6
PHANTOM
 10
28.3337371637
 20
4.4309254765
 40
2.55347
 50
270.0
 51
360.0
  0
ARC
  8
_CURVE
 62
8
  6
PHANTOM
 10
28.3337371637
 20
17.6239854765
 40
2.55347
 50
0.0
 51
90.0
  0
ARC
  8
_CURVE
 62
8
  6
PHANTOM
 10
5.9406771637
 20
17.6239854765
 40
2.55347
 50
90.0
 51
180.0
  0
ARC
  8
_CURVE
 62
8
  6
PHANTOM
 10
5.9406771637
 20
4.4309254765
 40
2.55347
 50
180.0
 51
270.0
  0
ARC
  8
_CURVE
 62
7
  6
CONTINUOUS
 10
5.937730465
 20
17.6269321752
 40
1.58
 50
90.0
 51
180.0
  0
ARC
  8
_CURVE
 62
7
  6
CONTINUOUS
 10
5.937730465
 20
4.4279787778
 40
1.58
 50
180.0
 51
270.0
  0
ARC
  8
_CURVE
 62
7
  6
CONTINUOUS
 10
28.3366838624
 20
4.4279787778
 40
1.58
 50
270.0
 51
360.0
  0
ARC
  8
_CURVE
 62
7
  6
CONTINUOUS
 10
28.3366838624
 20
17.6269321752
 40
1.58
 50
0.0
 51
90.0
  0
ENDSEC
  0
EOF
